<?xml version="1.0" standalone="no"?>
<!DOCTYPE svg PUBLIC "-//W3C//DTD SVG 1.1//EN" "http://www.w3.org/Graphics/SVG/1.1/DTD/svg11.dtd" >
<svg xmlns="http://www.w3.org/2000/svg" xmlns:xlink="http://www.w3.org/1999/xlink" version="1.1">
<metadata>
Created by FontForge 20201107 at Wed Sep 10 11:22:45 2025
 By 
Copyright (c) 2013 by Mattox Shuler. All rights reserved.
</metadata>
<defs>
<font id="Abolition-Regular" horiz-adv-x="655" >
  <font-face 
    font-family="Abolition Test"
    font-weight="400"
    font-stretch="normal"
    units-per-em="2048"
    panose-1="0 0 5 0 0 0 0 0 0 0"
    ascent="1638"
    descent="-410"
    x-height="1556"
    cap-height="1556"
    bbox="18 -229 1169 1556"
    underline-thickness="102"
    underline-position="-204"
    unicode-range="U+0020-007A"
  />
<missing-glyph horiz-adv-x="1024" 
 />
    <glyph glyph-name=".notdef" horiz-adv-x="1024" 
 />
    <glyph glyph-name=".null" horiz-adv-x="0" 
 />
    <glyph glyph-name="nonmarkingreturn" horiz-adv-x="682" 
 />
    <glyph glyph-name="space" unicode=" " horiz-adv-x="327" 
 />
    <glyph glyph-name="comma" unicode="," horiz-adv-x="321" 
d="M264 20l-139 -249h-68l95 229h-93v225h205v-205z" />
    <glyph glyph-name="hyphen" unicode="-" horiz-adv-x="430" 
d="M406 694h-381v168h381v-168z" />
    <glyph glyph-name="period" unicode="." horiz-adv-x="319" 
d="M262 0h-205v225h205v-225z" />
    <glyph glyph-name="zero" unicode="0" horiz-adv-x="690" 
d="M629 1434v-1311l-123 -123h-322l-123 123v1311l123 122h322zM391 1389h-92l-41 -41v-1139l41 -41h92l41 41v1139z" />
    <glyph glyph-name="one" unicode="1" horiz-adv-x="425" 
d="M162 0v1389h-137v167h333v-1556h-196z" />
    <glyph glyph-name="two" unicode="2" horiz-adv-x="630" 
d="M49 0v737l123 123h180l41 41v447l-41 41h-61l-41 -41v-189h-197v275l123 122h291l123 -122v-623l-123 -123h-180l-41 -41v-479h336v-168h-533z" />
    <glyph glyph-name="three" unicode="3" horiz-adv-x="671" 
d="M614 1434v-521l-122 -122l122 -125v-543l-122 -123h-322l-123 123v307h197v-225l41 -41h92l41 41v459l-41 41h-174v172h174l41 41v434l-41 41h-94l-41 -41v-226h-197v308l123 122h324z" />
    <glyph glyph-name="four" unicode="4" horiz-adv-x="700" 
d="M573 602h103v-168h-103v-434h-192v434h-361v178l254 944h299v-954zM186 602h195v758z" />
    <glyph glyph-name="five" unicode="5" horiz-adv-x="667" 
d="M254 1389v-478l74 74h164l122 -123v-739l-122 -123h-312l-123 123v307h197v-221l41 -41h82l41 41v567l-41 41h-84l-41 -41l-195 62v718h543v-167h-346z" />
    <glyph glyph-name="six" unicode="6" horiz-adv-x="684" 
d="M430 1348l-41 41h-90l-41 -41v-519l74 74h176l123 -123v-657l-123 -123h-324l-123 123v1311l123 122h320l123 -122v-308h-197v222zM393 735h-94l-41 -41v-485l41 -41h94l41 41v485z" />
    <glyph glyph-name="seven" unicode="7" horiz-adv-x="606" 
d="M301 0h-184l266 1389h-358v167h553v-114z" />
    <glyph glyph-name="eight" unicode="8" horiz-adv-x="679" 
d="M623 1434v-519l-123 -122l123 -123v-547l-123 -123h-320l-123 123v547l123 123l-123 122v519l123 122h320zM385 1389h-90l-41 -41v-430l41 -41h90l41 41v430zM385 709h-90l-41 -41v-459l41 -41h90l41 41v459z" />
    <glyph glyph-name="nine" unicode="9" horiz-adv-x="684" 
d="M623 1434v-1311l-123 -123h-324l-123 123v307h197v-221l41 -41h94l41 41v518l-74 -74h-176l-123 123v658l123 122h324zM385 1389h-94l-41 -41v-486l41 -41h94l41 41v486z" />
    <glyph glyph-name="A" unicode="A" horiz-adv-x="696" 
d="M434 401h-180l-39 -401h-197l187 1556h282l191 -1556h-205zM418 569l-74 785l-76 -785h150z" />
    <glyph glyph-name="B" unicode="B" horiz-adv-x="702" 
d="M522 1556l123 -122v-516l-123 -123l123 -123v-549l-123 -123h-454v1556h454zM408 872l41 41v439l-41 41h-144v-521h144zM408 709h-144v-541h144l41 41v459z" />
    <glyph glyph-name="C" unicode="C" 
d="M61 123v1311l123 122h303l123 -122v-351h-196v269l-41 41h-74l-41 -41v-1143l41 -41h74l41 41v266h196v-352l-123 -123h-303z" />
    <glyph glyph-name="D" unicode="D" horiz-adv-x="712" 
d="M528 1556l123 -122v-1311l-123 -123h-460v1556h460zM414 168l41 41v1139l-41 41h-150v-1221h150z" />
    <glyph glyph-name="E" unicode="E" horiz-adv-x="593" 
d="M68 0v1556h485v-167h-289v-517h252v-167h-252v-537h293v-168h-489z" />
    <glyph glyph-name="F" unicode="F" horiz-adv-x="571" 
d="M547 1556v-167h-283v-535h254v-168h-254v-686h-196v1556h479z" />
    <glyph glyph-name="G" unicode="G" horiz-adv-x="686" 
d="M61 123v1311l123 122h322l123 -122v-330h-197v244l-41 41h-92l-41 -41v-1139l41 -41h92l41 41v426h-98v176h295v-688l-123 -123h-322z" />
    <glyph glyph-name="H" unicode="H" horiz-adv-x="735" 
d="M264 1556v-690h207v690h197v-1556h-197v694h-207v-694h-196v1556h196z" />
    <glyph glyph-name="I" unicode="I" horiz-adv-x="331" 
d="M68 0v1556h196v-1556h-196z" />
    <glyph glyph-name="J" unicode="J" horiz-adv-x="481" 
d="M178 168l41 41v1347h197v-1433l-123 -123h-275v168h160z" />
    <glyph glyph-name="K" unicode="K" horiz-adv-x="724" 
d="M360 637l-96 -266v-371h-196v1556h196v-829l234 829h198l-213 -690l226 -866h-205z" />
    <glyph glyph-name="L" unicode="L" horiz-adv-x="544" 
d="M524 0h-456v1556h196v-1388h260v-168z" />
    <glyph glyph-name="M" unicode="M" horiz-adv-x="1001" 
d="M594 0h-195l-153 1221v-1221h-178v1556h284l146 -1257l145 1257h291v-1556h-186v1221z" />
    <glyph glyph-name="N" unicode="N" horiz-adv-x="751" 
d="M68 0v1556h213l225 -1079v1079h178v-1556h-213l-225 1063v-1063h-178z" />
    <glyph glyph-name="O" unicode="O" horiz-adv-x="710" 
d="M649 1434v-1311l-123 -123h-342l-123 123v1311l123 122h342zM412 1389h-113l-41 -41v-1139l41 -41h113l41 41v1139z" />
    <glyph glyph-name="P" unicode="P" horiz-adv-x="671" 
d="M68 0v1556h444l123 -122v-689l-123 -122h-248v-623h-196zM397 786l41 41v525l-41 41h-133v-607h133z" />
    <glyph glyph-name="Q" unicode="Q" horiz-adv-x="708" 
d="M647 1434v-1311l-123 -123h-82v-180h-176v180h-82l-123 123v1311l123 122h340zM410 1380h-111l-41 -41v-1122l41 -41h111l41 41v1122z" />
    <glyph glyph-name="R" unicode="R" horiz-adv-x="716" 
d="M68 0v1556h454l123 -122v-648l-108 -108l122 -678h-190l-121 664h-84v-664h-196zM408 823l41 41v488l-41 41h-144v-570h144z" />
    <glyph glyph-name="S" unicode="S" 
d="M403 1106v246l-41 41h-71l-41 -41v-439l41 -41h192l123 -122v-627l-123 -123h-311l-123 123v326h197v-244l41 -41h82l41 41v459l-41 41h-193l-123 122v607l123 122h301l123 -122v-328h-197z" />
    <glyph glyph-name="T" unicode="T" horiz-adv-x="606" 
d="M588 1393h-187v-1393h-196v1393h-187v163h570v-163z" />
    <glyph glyph-name="U" unicode="U" horiz-adv-x="706" 
d="M641 123l-123 -123h-330l-122 123v1433h196v-1347l41 -41h100l41 41v1347h197v-1433z" />
    <glyph glyph-name="V" unicode="V" horiz-adv-x="667" 
d="M471 0h-274l-179 1556h193l127 -1325l127 1325h184z" />
    <glyph glyph-name="W" unicode="W" horiz-adv-x="1187" 
d="M971 0h-266l-107 1311l-106 -1311h-275l-199 1556h205l117 -1345l137 1345h246l137 -1345l117 1345h192z" />
    <glyph glyph-name="X" unicode="X" horiz-adv-x="694" 
d="M442 793l232 -793h-197l-137 504l-131 -504h-189l232 793l-221 763h196l125 -487l123 487h189z" />
    <glyph glyph-name="Y" unicode="Y" horiz-adv-x="704" 
d="M449 0h-193v510l-238 1046h211l123 -763l123 763h211l-237 -1046v-510z" />
    <glyph glyph-name="Z" unicode="Z" horiz-adv-x="593" 
d="M557 0h-520v106l311 1283h-299v167h502v-106l-299 -1282h305v-168z" />
    <glyph glyph-name="a" unicode="a" horiz-adv-x="696" 
d="M434 401h-180l-39 -401h-197l187 1556h282l191 -1556h-205zM418 569l-74 785l-76 -785h150z" />
    <glyph glyph-name="b" unicode="b" horiz-adv-x="702" 
d="M522 1556l123 -122v-516l-123 -123l123 -123v-549l-123 -123h-454v1556h454zM408 872l41 41v439l-41 41h-144v-521h144zM408 709h-144v-541h144l41 41v459z" />
    <glyph glyph-name="c" unicode="c" 
d="M61 123v1311l123 122h303l123 -122v-351h-196v269l-41 41h-74l-41 -41v-1143l41 -41h74l41 41v266h196v-352l-123 -123h-303z" />
    <glyph glyph-name="d" unicode="d" horiz-adv-x="712" 
d="M528 1556l123 -122v-1311l-123 -123h-460v1556h460zM414 168l41 41v1139l-41 41h-150v-1221h150z" />
    <glyph glyph-name="e" unicode="e" horiz-adv-x="593" 
d="M68 0v1556h485v-167h-289v-517h252v-167h-252v-537h293v-168h-489z" />
    <glyph glyph-name="f" unicode="f" horiz-adv-x="571" 
d="M547 1556v-167h-283v-535h254v-168h-254v-686h-196v1556h479z" />
    <glyph glyph-name="g" unicode="g" horiz-adv-x="686" 
d="M61 123v1311l123 122h322l123 -122v-330h-197v244l-41 41h-92l-41 -41v-1139l41 -41h92l41 41v426h-98v176h295v-688l-123 -123h-322z" />
    <glyph glyph-name="h" unicode="h" horiz-adv-x="735" 
d="M264 1556v-690h207v690h197v-1556h-197v694h-207v-694h-196v1556h196z" />
    <glyph glyph-name="i" unicode="i" horiz-adv-x="331" 
d="M68 0v1556h196v-1556h-196z" />
    <glyph glyph-name="j" unicode="j" horiz-adv-x="481" 
d="M178 168l41 41v1347h197v-1433l-123 -123h-275v168h160z" />
    <glyph glyph-name="k" unicode="k" horiz-adv-x="724" 
d="M360 637l-96 -266v-371h-196v1556h196v-829l234 829h198l-213 -690l226 -866h-205z" />
    <glyph glyph-name="l" unicode="l" horiz-adv-x="544" 
d="M524 0h-456v1556h196v-1388h260v-168z" />
    <glyph glyph-name="m" unicode="m" horiz-adv-x="1001" 
d="M594 0h-195l-153 1221v-1221h-178v1556h284l146 -1257l145 1257h291v-1556h-186v1221z" />
    <glyph glyph-name="n" unicode="n" horiz-adv-x="751" 
d="M68 0v1556h213l225 -1079v1079h178v-1556h-213l-225 1063v-1063h-178z" />
    <glyph glyph-name="o" unicode="o" horiz-adv-x="710" 
d="M649 1434v-1311l-123 -123h-342l-123 123v1311l123 122h342zM412 1389h-113l-41 -41v-1139l41 -41h113l41 41v1139z" />
    <glyph glyph-name="p" unicode="p" horiz-adv-x="671" 
d="M68 0v1556h444l123 -122v-689l-123 -122h-248v-623h-196zM397 786l41 41v525l-41 41h-133v-607h133z" />
    <glyph glyph-name="q" unicode="q" horiz-adv-x="708" 
d="M647 1434v-1311l-123 -123h-82v-180h-176v180h-82l-123 123v1311l123 122h340zM410 1380h-111l-41 -41v-1122l41 -41h111l41 41v1122z" />
    <glyph glyph-name="r" unicode="r" horiz-adv-x="716" 
d="M68 0v1556h454l123 -122v-648l-108 -108l122 -678h-190l-121 664h-84v-664h-196zM408 823l41 41v488l-41 41h-144v-570h144z" />
    <glyph glyph-name="s" unicode="s" 
d="M403 1106v246l-41 41h-71l-41 -41v-439l41 -41h192l123 -122v-627l-123 -123h-311l-123 123v326h197v-244l41 -41h82l41 41v459l-41 41h-193l-123 122v607l123 122h301l123 -122v-328h-197z" />
    <glyph glyph-name="t" unicode="t" horiz-adv-x="606" 
d="M588 1393h-187v-1393h-196v1393h-187v163h570v-163z" />
    <glyph glyph-name="u" unicode="u" horiz-adv-x="706" 
d="M641 123l-123 -123h-330l-122 123v1433h196v-1347l41 -41h100l41 41v1347h197v-1433z" />
    <glyph glyph-name="v" unicode="v" horiz-adv-x="667" 
d="M471 0h-274l-179 1556h193l127 -1325l127 1325h184z" />
    <glyph glyph-name="w" unicode="w" horiz-adv-x="1187" 
d="M971 0h-266l-107 1311l-106 -1311h-275l-199 1556h205l117 -1345l137 1345h246l137 -1345l117 1345h192z" />
    <glyph glyph-name="x" unicode="x" horiz-adv-x="694" 
d="M442 793l232 -793h-197l-137 504l-131 -504h-189l232 793l-221 763h196l125 -487l123 487h189z" />
    <glyph glyph-name="y" unicode="y" horiz-adv-x="704" 
d="M449 0h-193v510l-238 1046h211l123 -763l123 763h211l-237 -1046v-510z" />
    <glyph glyph-name="z" unicode="z" horiz-adv-x="593" 
d="M557 0h-520v106l311 1283h-299v167h502v-106l-299 -1282h305v-168z" />
    </font>
</defs>
</svg>
