<?xml version="1.0" standalone="no"?>
<!DOCTYPE svg PUBLIC "-//W3C//DTD SVG 1.1//EN" "http://www.w3.org/Graphics/SVG/1.1/DTD/svg11.dtd" >
<svg xmlns="http://www.w3.org/2000/svg" xmlns:xlink="http://www.w3.org/1999/xlink" version="1.1">
<metadata>
Created by FontForge 20201107 at Tue Mar 11 11:28:46 2025
 By 
(c) 2014 Adobe Systems Incorporated. All Rights Reserved.
</metadata>
<defs>
<font id="AcuminPro-Bold" horiz-adv-x="819" >
  <font-face 
    font-family="Acumin Pro"
    font-weight="700"
    font-stretch="normal"
    units-per-em="2048"
    panose-1="2 11 8 4 2 2 2 2 2 4"
    ascent="1638"
    descent="-410"
    x-height="1061"
    cap-height="1411"
    bbox="-436 -545 2648 2157"
    underline-thickness="102"
    underline-position="-204"
    unicode-range="U+0020-FB02"
  />
<missing-glyph horiz-adv-x="1024" 
d="M0 0v1434h1024v-1434h-1024zM512 809l348 522h-696zM573 717l349 -522v1044zM164 102h696l-348 523zM102 1239v-1044l349 522z" />
    <glyph glyph-name="f_f" unicode="ff" horiz-adv-x="1294" 
d="M791 840h-326v-840h-293v840h-156v221h156v94q0 361 344 361q68 0 119 -15v-227q-38 6 -68 6q-57 0 -79.5 -33t-22.5 -100v-86h326v94q0 172 84 266.5t262 94.5q67 0 118 -15v-227q-38 6 -67 6q-57 0 -80 -33t-23 -100v-86h185v-221h-185v-840h-294v840z" />
    <glyph glyph-name=".notdef" horiz-adv-x="1024" 
d="M0 0v1434h1024v-1434h-1024zM512 809l348 522h-696zM573 717l349 -522v1044zM164 102h696l-348 523zM102 1239v-1044l349 522z" />
    <glyph glyph-name=".null" horiz-adv-x="0" 
 />
    <glyph glyph-name="nonmarkingreturn" horiz-adv-x="682" 
 />
    <glyph glyph-name="space" unicode=" " horiz-adv-x="495" 
 />
    <glyph glyph-name="exclam" unicode="!" horiz-adv-x="661" 
d="M504 512h-236l-39 655v244h312v-246zM526 0h-288v340h288v-340z" />
    <glyph glyph-name="quotedbl" unicode="&#x22;" horiz-adv-x="874" 
d="M338 895h-209l-29 412v188h265v-190zM743 895h-204l-27 412v188h262v-190z" />
    <glyph glyph-name="numbersign" unicode="#" horiz-adv-x="1298" 
d="M588 0l88 356h-217l-88 -356h-203l88 356h-156v222h211l62 245h-170v219h225l82 328h197l-80 -328h219l82 328h196l-80 -328h144l-2 -219h-195l-59 -245h162v-222h-217l-86 -356h-203zM731 578l62 245h-220l-61 -245h219z" />
    <glyph glyph-name="dollar" unicode="$" horiz-adv-x="1130" 
d="M682 -170h-244v164q-175 27 -276 127.5t-113 251.5h291q17 -81 76.5 -126.5t150.5 -45.5q106 0 152.5 42t46.5 111q0 76 -51.5 120t-190.5 85q-128 36 -215.5 79t-137.5 96t-71.5 111t-21.5 132q0 150 96.5 248t249.5 127v133h242v-131q92 -14 161.5 -49t110 -85
t61.5 -104.5t27 -118.5h-291q-6 23 -11 38t-19 38.5t-33.5 37.5t-53.5 25t-79 11q-89 0 -129.5 -42t-40.5 -99q0 -46 21.5 -76t79 -57t167.5 -58q227 -64 323.5 -163t96.5 -263q0 -168 -100 -268t-275 -127v-164z" />
    <glyph glyph-name="percent" unicode="%" horiz-adv-x="1900" 
d="M436 1372q165 0 264 -100t99 -287q0 -175 -97.5 -282t-267.5 -107q-167 0 -264.5 100.5t-97.5 288.5q0 169 96.5 278t267.5 109zM436 1188q-65 0 -101 -51.5t-36 -151.5t35.5 -152.5t103.5 -52.5q140 0 140 205q0 203 -142 203zM645 0h-213l828 1350h215zM1473 750
q165 0 263.5 -99.5t98.5 -285.5q0 -176 -97.5 -284t-267.5 -108q-167 0 -264.5 101t-97.5 288q0 169 96 278.5t269 109.5zM1473 565q-65 0 -102.5 -50.5t-37.5 -149.5q0 -100 36.5 -153.5t103.5 -53.5q141 0 141 207q0 200 -141 200z" />
    <glyph glyph-name="ampersand" unicode="&#x26;" horiz-adv-x="1601" 
d="M582 225q67 0 116.5 24t102.5 81l-291 280q-119 -84 -119 -202q0 -75 49.5 -129t141.5 -54zM1212 877h299l-372 -504l381 -373h-377l-168 162q-85 -90 -183.5 -136t-242.5 -46q-114 0 -204.5 34t-144.5 90.5t-82 125t-28 143.5q0 118 62 207t219 182q-71 79 -106.5 145.5
t-35.5 149.5q0 162 111 268.5t291 106.5q181 0 287 -101t106 -244q0 -103 -60.5 -184t-201.5 -162l205 -200zM633 1231q-61 0 -98 -42.5t-37 -111.5q0 -50 28 -92.5t95 -107.5q83 55 114 103t31 103q0 62 -34 105t-99 43z" />
    <glyph glyph-name="quotesingle" unicode="'" horiz-adv-x="440" 
d="M340 895h-240l-24 412v188h291v-190z" />
    <glyph glyph-name="parenleft" unicode="(" horiz-adv-x="763" 
d="M408 1491h280q-140 -188 -228.5 -419.5t-88.5 -491.5q0 -252 83.5 -493.5t233.5 -444.5h-280q-302 417 -302 940q0 144 23.5 276t68 245t94.5 204t116 184z" />
    <glyph glyph-name="parenright" unicode=")" horiz-adv-x="763" 
d="M356 -358h-280q140 188 228.5 419.5t88.5 491.5q0 252 -83.5 493.5t-233.5 444.5h280q301 -420 301 -940q0 -144 -23.5 -276t-68 -245t-94 -204t-115.5 -184z" />
    <glyph glyph-name="asterisk" unicode="*" horiz-adv-x="894" 
d="M348 1413h197l-35 -311l225 198l111 -180l-299 -119l297 -120l-109 -179l-225 201l35 -313h-197l35 311l-223 -199l-109 179l295 123l-297 116l111 185l221 -203z" />
    <glyph glyph-name="plus" unicode="+" horiz-adv-x="1454" 
d="M606 1155h248v-450h442v-246h-442v-459h-248v459h-446v246h446v450z" />
    <glyph glyph-name="comma" unicode="," horiz-adv-x="555" 
d="M240 -238h-228q55 127 89 246.5t44 186t19 165.5h301q-42 -370 -225 -598z" />
    <glyph glyph-name="hyphen" unicode="-" horiz-adv-x="790" 
d="M111 655h569v-256h-569v256z" />
    <glyph glyph-name="period" unicode="." horiz-adv-x="514" 
d="M414 0h-314v360h314v-360z" />
    <glyph glyph-name="slash" unicode="/" horiz-adv-x="954" 
d="M317 -104h-245l567 1536h244z" />
    <glyph glyph-name="zero" unicode="0" horiz-adv-x="1210" 
d="M610 1372q110 0 197.5 -35.5t146 -97t96.5 -149.5t55 -189t17 -219q0 -117 -15 -216.5t-52 -192t-95 -157t-148.5 -103t-207.5 -38.5q-115 0 -205 37.5t-147.5 101t-95 154t-53 190t-15.5 216.5q0 115 17 215t56 190t98 154t148.5 101.5t202.5 37.5zM610 1139
q-123 0 -172 -114.5t-49 -346.5q0 -105 8 -180t30 -145.5t67.5 -107t113.5 -36.5q45 0 80 16t57.5 48t37.5 71.5t22.5 96.5t10.5 111.5t3 127.5q0 107 -8.5 183.5t-30 142.5t-64 99.5t-106.5 33.5z" />
    <glyph glyph-name="one" unicode="1" horiz-adv-x="817" 
d="M631 0h-299v1008q-43 -21 -116 -38t-128 -22v219q96 19 186.5 68.5t147.5 114.5h209v-1350z" />
    <glyph glyph-name="two" unicode="2" horiz-adv-x="1134" 
d="M1038 0h-952v18q0 181 91 332t306 307q154 112 201 167t47 139q0 88 -43 135t-127 47q-94 0 -139 -51.5t-60 -147.5h-282q7 89 39.5 164.5t90.5 135t148 93t203 33.5q100 0 180.5 -23t133 -62t87 -92t49.5 -110t15 -120q0 -74 -16 -130.5t-59 -111.5t-101.5 -104
t-157.5 -119q-217 -153 -256 -256h639z" />
    <glyph glyph-name="three" unicode="3" horiz-adv-x="1142" 
d="M365 1001h-279q6 53 23.5 102.5t54 99.5t88 86.5t131 59.5t176.5 23q113 0 201 -30t141.5 -82t81 -116.5t27.5 -137.5q0 -58 -15.5 -106t-41.5 -80t-53 -53t-58 -36v-6q38 -13 72 -35t69.5 -59t56.5 -96.5t21 -133.5q0 -62 -15 -119.5t-51.5 -114.5t-92.5 -98.5
t-144.5 -67.5t-200.5 -26q-104 0 -189 24.5t-139.5 63.5t-92.5 92t-55.5 106t-21.5 110h285q15 -76 69 -123t152 -47t150.5 56.5t52.5 148.5q0 200 -221 200h-123v225h108q100 0 144.5 37t44.5 121q0 72 -43.5 114t-128.5 42q-49 0 -84 -12.5t-54.5 -35.5t-29.5 -45t-16 -51
z" />
    <glyph glyph-name="four" unicode="4" horiz-adv-x="1153" 
d="M948 0h-272v303h-608v256l561 789h319v-807h164l-29 -238h-135v-303zM676 541v239q0 228 6 312q-58 -125 -356 -551h350z" />
    <glyph glyph-name="five" unicode="5" horiz-adv-x="1167" 
d="M1051 1348l-41 -240h-541q-9 -78 -41 -256q90 72 244 72q194 0 304.5 -125.5t110.5 -323.5q0 -80 -17.5 -152t-56.5 -136t-96.5 -111t-144 -74t-192.5 -27q-202 0 -335.5 99.5t-156.5 277.5h293q44 -151 205 -151q101 0 154 68t53 182q0 241 -207 241q-88 0 -134.5 -34.5
t-72.5 -100.5l-264 35q51 232 116 756h820z" />
    <glyph glyph-name="six" unicode="6" horiz-adv-x="1183" 
d="M1069 1020h-285q-14 59 -52.5 94t-119.5 35q-65 0 -111 -28t-71.5 -79.5t-37.5 -110t-15 -132.5q102 125 305 125q186 0 304 -124.5t118 -322.5q0 -221 -133.5 -361.5t-360.5 -140.5q-142 0 -245.5 52t-162.5 147t-86.5 214.5t-27.5 268.5q0 110 16 209t55 193.5t99 162
t154.5 109t214.5 41.5q105 0 189.5 -31t136.5 -82.5t81.5 -112t34.5 -126.5zM602 209q103 0 156 68t53 176q0 243 -209 243q-100 0 -153.5 -59t-53.5 -174q0 -44 11 -86t33.5 -81t64.5 -63t98 -24z" />
    <glyph glyph-name="seven" unicode="7" horiz-adv-x="1011" 
d="M37 1348h934v-218q-172 -245 -304.5 -548.5t-170.5 -581.5h-301q37 278 181 595t296 511h-635v242z" />
    <glyph glyph-name="eight" unicode="8" horiz-adv-x="1196" 
d="M586 -25q-140 0 -253 46.5t-182 141.5t-69 224q0 81 36 150t83 109t102 65q-82 50 -124 116.5t-42 163.5q0 175 123 278t346 103q210 0 335.5 -101.5t125.5 -275.5q0 -197 -172 -270q85 -33 152 -119.5t67 -208.5q0 -203 -145 -312.5t-383 -109.5zM604 203q99 0 158 49.5
t59 148.5q0 96 -60.5 145.5t-162.5 49.5q-106 0 -163.5 -53t-57.5 -140q0 -91 62 -145.5t165 -54.5zM600 1147q-91 0 -138.5 -43t-47.5 -123q0 -69 49 -110.5t141 -41.5q184 0 184 152q0 77 -49 121.5t-139 44.5z" />
    <glyph glyph-name="nine" unicode="9" horiz-adv-x="1173" 
d="M94 334h293q22 -65 64 -98t122 -33q46 0 81.5 17t58.5 49.5t38 67t23.5 83t12.5 83t6 81.5q-40 -56 -114.5 -84.5t-166.5 -28.5q-203 0 -319.5 122.5t-116.5 311.5q0 203 133 334t362 131q138 0 239.5 -50.5t159 -139.5t84.5 -198t27 -239q0 -768 -520 -768
q-112 0 -200.5 32t-142 86t-84 114t-40.5 127zM573 1143q-97 0 -149.5 -62.5t-52.5 -160.5q0 -103 56 -162.5t151 -59.5q200 0 200 215q0 38 -9 74.5t-30 73.5t-64 59.5t-102 22.5z" />
    <glyph glyph-name="colon" unicode=":" horiz-adv-x="604" 
d="M455 0h-305v342h305v-342zM455 709h-305v342h305v-342z" />
    <glyph glyph-name="semicolon" unicode=";" horiz-adv-x="612" 
d="M244 -238h-228q66 143 105.5 308t46.5 290h299q-16 -182 -78.5 -339t-144.5 -259zM475 692h-315v359h315v-359z" />
    <glyph glyph-name="less" unicode="&#x3c;" horiz-adv-x="1261" 
d="M162 467v231l938 476v-263l-674 -327l674 -338v-262z" />
    <glyph glyph-name="equal" unicode="=" horiz-adv-x="1460" 
d="M162 444h1136v-245h-1136v245zM162 969h1136v-246h-1136v246z" />
    <glyph glyph-name="greater" unicode="&#x3e;" horiz-adv-x="1261" 
d="M1100 690v-231l-938 -475v262l674 329l-674 336v263z" />
    <glyph glyph-name="question" unicode="?" horiz-adv-x="1077" 
d="M696 444h-307v39q0 102 47 187t160 186q61 55 86 104t25 105q0 62 -37 101.5t-107 39.5q-148 0 -166 -178h-288q3 55 18.5 108.5t50 108.5t84 95.5t128.5 66.5t177 25q97 0 174 -24t124.5 -62t79 -89t44 -101t12.5 -101q0 -99 -40 -176.5t-148 -178.5q-64 -60 -90.5 -114
t-26.5 -119v-23zM696 0h-307v340h307v-340z" />
    <glyph glyph-name="at" unicode="@" horiz-adv-x="1927" 
d="M1382 -76l45 -178q-176 -108 -485 -108q-236 0 -424.5 101.5t-297.5 291t-109 434.5q0 268 115 475.5t323 321.5t477 114q130 0 248.5 -28t220 -87t175.5 -144t116.5 -204.5t42.5 -261.5q0 -271 -131.5 -430.5t-358.5 -159.5q-93 0 -156 32t-81 95q-54 -65 -116.5 -95
t-156.5 -30q-135 0 -217 92.5t-82 264.5q0 148 58 273t156 196.5t212 71.5q89 0 144 -33t71 -86l29 98h256l-119 -545q-16 -77 -2 -105t64 -28q90 0 151.5 107t61.5 274q0 250 -161.5 395.5t-426.5 145.5q-308 0 -494 -190t-186 -531q0 -129 43.5 -243t121 -198.5
t192.5 -134t251 -49.5q254 0 430 86zM1006 766q-60 0 -107 -52t-70.5 -128.5t-23.5 -157.5q0 -162 106 -162q68 0 116.5 56.5t76.5 181.5q29 141 4.5 201.5t-102.5 60.5z" />
    <glyph glyph-name="A" unicode="A" horiz-adv-x="1409" 
d="M948 326h-516l-108 -326h-301l479 1411h383l501 -1411h-321zM498 575h385q-165 492 -199 617h-2q-37 -145 -184 -617z" />
    <glyph glyph-name="B" unicode="B" horiz-adv-x="1382" 
d="M168 0v1411h616q124 0 217.5 -30t147 -81.5t80 -114t26.5 -134.5q0 -113 -51 -192t-129 -114q39 -15 75.5 -40.5t70.5 -64t54.5 -95.5t20.5 -123q0 -184 -134 -303t-355 -119h-639zM467 854h283q204 0 204 166q0 75 -52 115.5t-142 40.5h-293v-322zM467 618v-382h276
q240 0 240 196q0 89 -59.5 137.5t-182.5 48.5h-274z" />
    <glyph glyph-name="C" unicode="C" horiz-adv-x="1458" 
d="M1059 436h307q-43 -208 -198 -332t-410 -124q-132 0 -241 36t-186 101t-130 155t-78 197t-25 229q0 148 42 278.5t123.5 233t212.5 162.5t296 60q136 0 246 -37.5t180.5 -102.5t112 -145t55.5 -172h-305q-61 219 -299 219q-91 0 -160 -39t-109 -107.5t-59.5 -153.5
t-19.5 -185q0 -75 10.5 -142.5t36.5 -132.5t65.5 -111.5t102 -75t141.5 -28.5q71 0 125 21t86 57.5t48.5 68t29.5 70.5z" />
    <glyph glyph-name="D" unicode="D" horiz-adv-x="1507" 
d="M168 0v1411h561q308 0 494 -187.5t186 -500.5q0 -207 -82.5 -370t-241.5 -258t-370 -95h-547zM473 1165v-919h229q99 0 175 35.5t123 100.5t70.5 150.5t23.5 190.5q0 89 -22.5 166.5t-68 140.5t-122 99t-176.5 36h-232z" />
    <glyph glyph-name="E" unicode="E" horiz-adv-x="1265" 
d="M1141 860v-252h-676v-358h745l-36 -250h-1006v1411h1001v-250h-704v-301h676z" />
    <glyph glyph-name="F" unicode="F" horiz-adv-x="1204" 
d="M168 0v1411h985v-250h-686v-346h643v-250h-643v-565h-299z" />
    <glyph glyph-name="G" unicode="G" horiz-adv-x="1538" 
d="M1397 791v-791h-223q-19 68 -25 139q-121 -164 -412 -164q-150 0 -272 55t-201.5 151.5t-122.5 226t-43 280.5q0 159 46.5 295t133 236t218.5 156.5t295 56.5q132 0 243 -35.5t186.5 -97t121.5 -141.5t59 -171h-305q-64 207 -310 207q-84 0 -150 -28t-107 -73.5
t-67.5 -110.5t-37 -133t-10.5 -147q0 -97 19.5 -179.5t61.5 -152.5t117 -110.5t176 -40.5q75 0 132 20.5t90 51.5t53.5 73.5t27.5 81t7 80.5v15h-310v250h609z" />
    <glyph glyph-name="H" unicode="H" horiz-adv-x="1515" 
d="M168 0v1411h305v-549h569v549h306v-1411h-306v610h-569v-610h-305z" />
    <glyph glyph-name="I" unicode="I" horiz-adv-x="641" 
d="M168 1411h305v-1411h-305v1411z" />
    <glyph glyph-name="J" unicode="J" horiz-adv-x="825" 
d="M668 1411v-958q0 -250 -94.5 -361.5t-321.5 -111.5q-128 0 -191 18v242q56 -9 140 -9q50 0 83.5 15.5t49.5 46t22 62.5t6 77v979h306z" />
    <glyph glyph-name="K" unicode="K" horiz-adv-x="1384" 
d="M168 0v1411h301v-629q45 52 257.5 287.5t305.5 341.5h365l-568 -586l590 -825h-366l-435 627l-149 -142v-485h-301z" />
    <glyph glyph-name="L" unicode="L" horiz-adv-x="1200" 
d="M168 0v1411h305v-1161h705l-35 -250h-975z" />
    <glyph glyph-name="M" unicode="M" horiz-adv-x="1814" 
d="M1352 0v530q0 403 10 670h-10q-73 -318 -342 -1200h-260q-12 44 -64 237t-76 282.5t-63.5 240.5t-65.5 257t-43 187h-10q18 -249 18 -698v-506h-278v1411h455q82 -274 162.5 -577.5t113.5 -462.5h2q24 128 115 431t192 609h439v-1411h-295z" />
    <glyph glyph-name="N" unicode="N" horiz-adv-x="1546" 
d="M446 0h-278v1411h379q20 -35 116 -206.5t145 -260t124 -224.5t119 -221.5t63 -129.5h4q-16 147 -16 624v418h276v-1411h-358q-507 921 -584 1096h-4q14 -172 14 -666v-430z" />
    <glyph glyph-name="O" unicode="O" horiz-adv-x="1566" 
d="M793 1432q204 0 357.5 -90t235.5 -253t82 -378q0 -149 -44.5 -280t-129.5 -232.5t-219 -160t-301 -58.5q-162 0 -292 56.5t-213 155t-127 230t-44 285.5t47.5 286.5t135 230t219.5 153t293 55.5zM780 1184q-184 0 -275 -127.5t-91 -343.5q0 -105 23 -192.5t68 -153.5
t116.5 -103t162.5 -37q98 0 171.5 39t115.5 107.5t62 151.5t20 182q0 139 -37.5 243.5t-123 169t-212.5 64.5z" />
    <glyph glyph-name="P" unicode="P" horiz-adv-x="1337" 
d="M168 0v1411h584q227 0 365 -118t138 -318q0 -112 -40 -199t-110.5 -141t-161.5 -81.5t-198 -27.5h-272v-526h-305zM473 1169v-399h234q112 0 176.5 48t64.5 151t-65 151.5t-170 48.5h-240z" />
    <glyph glyph-name="Q" unicode="Q" horiz-adv-x="1568" 
d="M793 1432q204 0 357.5 -90t235.5 -253t82 -378q0 -165 -54.5 -308.5t-158.5 -244.5l318 -217l-178 -203l-394 272q-102 -30 -227 -30q-162 0 -292 56.5t-213 155t-127 230t-44 285.5t47.5 286.5t135 230t219.5 153t293 55.5zM780 1184q-184 0 -275 -127.5t-91 -343.5
q0 -105 23 -192.5t68 -153.5t116.5 -103t162.5 -37q98 0 171.5 39t115.5 107.5t62 151.5t20 182q0 139 -37.5 243.5t-123 169t-212.5 64.5z" />
    <glyph glyph-name="R" unicode="R" horiz-adv-x="1355" 
d="M668 565h-201v-565h-299v1411h620q223 0 348.5 -108.5t125.5 -278.5q0 -130 -59 -213.5t-146 -120.5q176 -68 176 -352v-70q0 -202 20 -268h-290q-29 71 -29 317v21q0 62 -10 101t-38 69.5t-81 43.5t-137 13zM467 1169v-360h256q122 0 176.5 45t54.5 135q0 87 -57 133.5
t-168 46.5h-262z" />
    <glyph glyph-name="S" unicode="S" horiz-adv-x="1300" 
d="M68 414h307q48 -205 297 -205q119 0 176 44t57 124q0 88 -64 134t-245 87q-141 33 -236.5 76.5t-148 98t-73.5 113t-21 134.5q0 188 136 300t382 112q135 0 239.5 -34t167 -93t96.5 -129t42 -152h-308q-7 37 -20 66t-39.5 57t-73.5 43.5t-112 15.5q-95 0 -147 -38.5
t-52 -112.5t59 -113.5t230 -77.5q150 -36 250.5 -82.5t154 -105t74.5 -120t21 -142.5q0 -197 -147.5 -315.5t-420.5 -118.5q-260 0 -407.5 116.5t-173.5 317.5z" />
    <glyph glyph-name="T" unicode="T" horiz-adv-x="1204" 
d="M451 0v1161h-431v250h1164v-250h-428v-1161h-305z" />
    <glyph glyph-name="U" unicode="U" horiz-adv-x="1484" 
d="M150 1411h305v-840q0 -98 23.5 -169t66 -109.5t92.5 -56t111 -17.5q137 0 209.5 83t72.5 269v840h307v-825q0 -606 -594 -606q-593 0 -593 600v831z" />
    <glyph glyph-name="V" unicode="V" horiz-adv-x="1372" 
d="M860 0h-360l-498 1411h328l209 -651q90 -269 145 -510h4q35 160 152 506l221 655h311z" />
    <glyph glyph-name="W" unicode="W" horiz-adv-x="1947" 
d="M711 0h-316l-360 1411h325q67 -324 89.5 -435.5t56 -281t45.5 -244t18 -131.5h2q30 149 138 563.5t135 528.5h274q69 -253 149.5 -577.5t112.5 -499.5h2q16 108 51 275.5t64 291t71 300t50 210.5h295l-381 -1411h-318q-24 102 -121.5 487.5t-125.5 524.5h-2
q-50 -247 -254 -1012z" />
    <glyph glyph-name="X" unicode="X" horiz-adv-x="1251" 
d="M1274 0h-354l-302 498h-2l-309 -498h-330l469 711l-454 700h354l285 -467h2l295 467h323l-454 -672z" />
    <glyph glyph-name="Y" unicode="Y" horiz-adv-x="1267" 
d="M784 0h-305v500q0 26 -12 45l-487 866h346q203 -398 321 -649q65 158 322 649h319l-493 -862q-11 -27 -11 -45v-504z" />
    <glyph glyph-name="Z" unicode="Z" horiz-adv-x="1263" 
d="M59 0v223l777 938h-742v250h1088v-246l-748 -915h789l-39 -250h-1125z" />
    <glyph glyph-name="bracketleft" unicode="[" horiz-adv-x="733" 
d="M662 -358h-504v1849h504v-217h-256v-1413h256v-219z" />
    <glyph glyph-name="backslash" unicode="\" horiz-adv-x="954" 
d="M637 -104l-565 1536h243l568 -1536h-246z" />
    <glyph glyph-name="bracketright" unicode="]" horiz-adv-x="733" 
d="M74 1491h501v-1849h-501v217h254v1413h-254v219z" />
    <glyph glyph-name="asciicircum" unicode="^" horiz-adv-x="1024" 
d="M961 618h-220l-233 537l-223 -537h-222l345 752h208z" />
    <glyph glyph-name="underscore" unicode="_" horiz-adv-x="1085" 
d="M0 -160h1085v-104h-1085v104z" />
    <glyph glyph-name="grave" unicode="`" 
d="M-4 1516h350l234 -304h-258z" />
    <glyph glyph-name="a" unicode="a" horiz-adv-x="1144" 
d="M1012 719v-445q0 -75 4.5 -165t9.5 -109h-281q-14 35 -14 104q-85 -129 -299 -129q-92 0 -164 28.5t-114 76.5t-63 105.5t-21 121.5q0 177 132 266t371 89h152v63q0 67 -35 108t-129 41q-86 0 -120 -32t-44 -97h-278q5 74 31.5 133t78.5 107t139 74t205 26
q217 -2 328 -90.5t111 -275.5zM725 455v28h-119q-130 0 -187 -39t-57 -118q0 -61 39.5 -101.5t114.5 -40.5q67 0 110.5 21.5t64 63t27.5 84t7 102.5z" />
    <glyph glyph-name="b" unicode="b" horiz-adv-x="1230" 
d="M131 346v1149h295v-547q87 137 303 137q106 0 189 -41.5t135.5 -115t80 -170t27.5 -209.5q0 -115 -29.5 -217.5t-86 -182.5t-145.5 -127t-200 -47q-112 0 -174.5 31t-103.5 94q0 -46 -12 -100h-281q2 115 2 346zM864 543q0 141 -55.5 224t-169.5 83q-123 0 -175 -79
t-52 -247q0 -315 223 -315q110 0 169.5 90t59.5 244z" />
    <glyph glyph-name="c" unicode="c" horiz-adv-x="1103" 
d="M762 342h287q-11 -56 -32.5 -106t-60 -99t-90 -84t-127 -56.5t-166.5 -21.5q-161 0 -275 71t-169 192.5t-55 283.5q0 158 60 284.5t178 202.5t276 76q101 0 183.5 -28t132 -70t83.5 -95t47.5 -98t14.5 -85h-285q-30 145 -182 145q-101 0 -156 -84t-55 -238
q0 -165 55 -247t154 -82q135 0 182 139z" />
    <glyph glyph-name="d" unicode="d" horiz-adv-x="1232" 
d="M811 1495h293v-1204q0 -195 2 -291h-281q-9 50 -14 111q-83 -136 -301 -136q-201 0 -319.5 149t-118.5 398t129.5 406t351.5 157q106 0 172 -30.5t86 -71.5v512zM373 528q0 -155 58 -236t167 -81q58 0 100.5 19.5t66 48.5t37 74t17.5 85t4 92q0 61 -4 104t-17.5 86.5
t-37 70t-64 43t-96.5 16.5q-114 0 -172.5 -84.5t-58.5 -237.5z" />
    <glyph glyph-name="e" unicode="e" horiz-adv-x="1136" 
d="M1065 467h-700q0 -108 55 -185t158 -77q44 0 76 8t52.5 25t32.5 34.5t25 44.5h293q-13 -44 -32.5 -85.5t-59 -90t-90.5 -84t-130 -59t-174 -23.5q-102 0 -186 29.5t-142 80t-97.5 119.5t-57.5 147t-18 163q0 259 131.5 415t380.5 156q105 0 189 -30t139 -79.5
t91.5 -118.5t52 -143.5t15.5 -156.5q0 -59 -4 -90zM371 647h403q-2 102 -48 164.5t-146 62.5q-188 0 -209 -227z" />
    <glyph glyph-name="f" unicode="f" horiz-adv-x="673" 
d="M465 0h-293v840h-156v221h156v92q0 169 85.5 266t252.5 97q91 0 135 -13v-231q-32 4 -61 4q-66 0 -92.5 -31t-26.5 -115v-69h184v-221h-184v-840z" />
    <glyph glyph-name="g" unicode="g" horiz-adv-x="1224" 
d="M1096 756v-627q0 -133 -26.5 -231t-86 -173t-163.5 -113t-251 -38q-111 0 -196.5 24t-135 59t-82 83t-44.5 88t-15 82h299q33 -123 187 -123q70 0 115.5 20.5t69.5 65t33 100t9 138.5v51q-90 -150 -299 -150q-136 0 -236.5 69.5t-151 185t-50.5 259.5q0 247 131.5 403
t331.5 156q121 0 189.5 -43t84.5 -92q1 8 12 111h277q0 -47 -1 -150t-1 -155zM373 539q0 -134 61 -211.5t160 -77.5q124 0 173.5 77t49.5 222q0 73 -8 123t-30.5 93t-66.5 64t-112 21q-101 0 -164 -79t-63 -232z" />
    <glyph glyph-name="h" unicode="h" horiz-adv-x="1216" 
d="M131 1495h295v-561q97 151 303 151q76 0 139 -23.5t111.5 -71t76 -126.5t27.5 -184v-680h-290v637q0 105 -41 158t-131 53q-59 0 -99 -21t-60.5 -62t-28 -88.5t-7.5 -113.5v-563h-295v1495z" />
    <glyph glyph-name="i" unicode="i" horiz-adv-x="557" 
d="M131 0v1061h295v-1061h-295zM426 1233h-295v262h295v-262z" />
    <glyph glyph-name="j" unicode="j" horiz-adv-x="557" 
d="M131 1061h295v-1038q0 -121 -14.5 -199.5t-52.5 -137.5t-107.5 -85.5t-177.5 -26.5q-40 0 -90 4v236q8 -2 26 -2q70 0 95.5 32t25.5 119v1098zM426 1233h-295v262h295v-262z" />
    <glyph glyph-name="k" unicode="k" horiz-adv-x="1140" 
d="M426 1495v-883q27 37 72.5 94t80.5 99.5t107.5 129.5t104.5 126h335l-368 -402l403 -659h-332l-268 471l-135 -131v-340h-295v1495h295z" />
    <glyph glyph-name="l" unicode="l" horiz-adv-x="557" 
d="M426 0h-295v1495h295v-1495z" />
    <glyph glyph-name="m" unicode="m" horiz-adv-x="1783" 
d="M131 0v786q0 183 -2 275h281q9 -58 12 -127q103 151 295 151q106 0 173.5 -45.5t98.5 -115.5q55 75 131.5 118t196.5 43q148 0 242 -97t94 -292v-696h-287v659q0 38 -7.5 70.5t-24.5 60.5t-48.5 44t-75.5 16q-91 0 -131.5 -60t-40.5 -184v-606h-288v649q0 44 -6.5 77.5
t-22.5 62.5t-47 44t-76 15q-90 0 -133 -60.5t-43 -195.5v-592h-291z" />
    <glyph glyph-name="n" unicode="n" horiz-adv-x="1214" 
d="M133 0v793q0 188 -2 268h285q5 -26 12 -135q21 39 53.5 71.5t100 60t153.5 27.5q162 0 256 -107t94 -304v-674h-292v641q0 99 -38.5 153t-131.5 54q-97 0 -146 -60.5t-49 -197.5v-590h-295z" />
    <glyph glyph-name="o" unicode="o" horiz-adv-x="1187" 
d="M604 1085q233 0 373.5 -152t140.5 -401q0 -162 -61 -287t-182 -197.5t-285 -72.5q-160 0 -279.5 72.5t-180 196.5t-60.5 282q0 250 143 404.5t391 154.5zM592 854q-105 0 -165 -81t-60 -243q0 -153 61.5 -239t167.5 -86q108 0 166.5 85t58.5 238q0 326 -229 326z" />
    <glyph glyph-name="p" unicode="p" horiz-adv-x="1224" 
d="M424 -406h-293v1211q0 170 -2 256h285q10 -73 10 -133q39 67 115 112t192 45q184 0 303 -143.5t119 -384.5q0 -137 -36 -248.5t-98.5 -183.5t-146 -111t-180.5 -39q-188 0 -268 119v-500zM856 545q0 147 -56.5 226t-162.5 79q-121 0 -173 -78.5t-52 -243.5
q0 -159 49.5 -239t163.5 -80q115 0 173 86.5t58 249.5z" />
    <glyph glyph-name="q" unicode="q" horiz-adv-x="1226" 
d="M811 -406v519q-85 -138 -295 -138q-90 0 -169.5 34t-142 99.5t-98.5 171.5t-36 240q0 253 134 409t337 156q114 0 180.5 -37t89.5 -87q5 65 10 100h277q0 -44 -1 -143t-1 -148v-1176h-285zM371 528q0 -147 55.5 -232t167.5 -85q53 0 92 15.5t63.5 42t39.5 68t20.5 88
t5.5 107.5q0 165 -45.5 241.5t-169.5 76.5q-114 0 -171.5 -86.5t-57.5 -235.5z" />
    <glyph glyph-name="r" unicode="r" horiz-adv-x="806" 
d="M131 0v772q0 199 -2 289h289q8 -50 8 -187q37 95 123.5 152.5t216.5 58.5v-280q-68 2 -117.5 -5t-93.5 -29t-71 -60t-42.5 -100t-15.5 -148v-463h-295z" />
    <glyph glyph-name="s" unicode="s" horiz-adv-x="1056" 
d="M59 319h289q36 -133 201 -133q79 0 113 26.5t34 78.5q0 50 -40 76.5t-156 54.5q-127 31 -208.5 67.5t-123 80.5t-56 88t-14.5 106q0 49 13.5 93.5t45.5 86.5t80 73t122.5 49.5t166.5 18.5q93 0 168.5 -19.5t124 -51.5t82 -74.5t48.5 -85.5t18 -88h-279q-29 113 -174 113
q-67 0 -98 -26t-31 -65q0 -41 39.5 -64.5t165.5 -53.5q129 -30 212 -67.5t124 -85.5t55 -94.5t14 -111.5q0 -68 -26.5 -127t-80 -106.5t-143 -75t-206.5 -27.5q-118 0 -207.5 27t-145 75t-86.5 108t-41 134z" />
    <glyph glyph-name="t" unicode="t" horiz-adv-x="743" 
d="M29 840v221h164v287h292v-287h209v-221h-209v-525q0 -61 24 -85.5t89 -24.5q46 0 66 2v-201q-57 -20 -197 -20q-149 0 -211.5 75t-62.5 222v557h-164z" />
    <glyph glyph-name="u" unicode="u" horiz-adv-x="1198" 
d="M1065 1061v-754q0 -213 2 -307h-287q-2 16 -8 123q-46 -78 -117 -113t-176 -35q-165 0 -258.5 100.5t-93.5 293.5v692h293v-633q0 -213 164 -213q101 0 144.5 63t43.5 218v565h293z" />
    <glyph glyph-name="v" unicode="v" horiz-adv-x="1067" 
d="M12 1061h318q182 -656 205 -801h2q9 50 25 116t42.5 158t46 158t57 189.5t54.5 179.5h293l-375 -1061h-307z" />
    <glyph glyph-name="w" unicode="w" horiz-adv-x="1646" 
d="M35 1061h309q143 -634 168 -801h4q62 322 182 801h273q14 -62 33 -145t29.5 -128t24 -105.5t21 -93t17 -75.5t14 -66.5t10.5 -53t9.5 -48t6.5 -38t5 -36.5h2q68 321 178 789h291l-316 -1061h-313q-146 666 -162 754h-2q-17 -143 -168 -754h-315z" />
    <glyph glyph-name="x" unicode="x" horiz-adv-x="1013" 
d="M-6 1061h325q61 -110 187 -334h2q105 188 188 334h326l-344 -506l342 -555h-332q-183 351 -186 356h-2q-12 -24 -38 -74t-71.5 -135t-77.5 -147h-321l330 516z" />
    <glyph glyph-name="y" unicode="y" horiz-adv-x="1062" 
d="M10 1061h316q204 -687 221 -791h2q37 169 211 791h293l-357 -1092q-76 -233 -164 -314t-276 -81q-69 0 -137 8v236q40 -4 76 -4q83 0 127.5 33t74.5 120z" />
    <glyph glyph-name="z" unicode="z" horiz-adv-x="1003" 
d="M61 0v221l525 608h-500v232h832v-230l-515 -600h551l-34 -231h-859z" />
    <glyph glyph-name="braceleft" unicode="{" horiz-adv-x="788" 
d="M51 453v229q71 0 115.5 12.5t66.5 41t29.5 62.5t7.5 89v231q0 94 29 166.5t81 117t119.5 67t147.5 22.5h68v-205h-29q-86 0 -118.5 -47t-32.5 -141v-211q0 -279 -228 -316q122 -21 175 -102t53 -219v-211q0 -195 157 -195h23v-204h-68q-74 0 -138.5 19.5t-119.5 61
t-87 115t-32 172.5v242q0 53 -7 85.5t-29 62t-67 42.5t-116 13z" />
    <glyph glyph-name="bar" unicode="|" horiz-adv-x="643" 
d="M195 1599h254v-2134h-254v2134z" />
    <glyph glyph-name="braceright" unicode="}" horiz-adv-x="788" 
d="M715 678v-229q-71 0 -115.5 -12.5t-66.5 -41t-29.5 -62t-7.5 -87.5v-234q0 -94 -29 -166.5t-81 -116.5t-119.5 -66.5t-147.5 -22.5h-68v204h29q86 0 118.5 47.5t32.5 141.5v211q0 277 228 315q-122 21 -175 102.5t-53 219.5v211q0 194 -157 194h-23v205h68
q75 0 139.5 -20t119.5 -61.5t86.5 -115t31.5 -172.5v-241q0 -52 7.5 -85t29.5 -61.5t66.5 -42t115.5 -14.5z" />
    <glyph glyph-name="asciitilde" unicode="~" horiz-adv-x="1421" 
d="M383 395h-207v78q-2 69 12.5 123t39 87.5t59.5 55.5t71 30.5t76 8.5q70 0 154.5 -28t148 -61t127 -61t97.5 -28q41 0 60 28.5t19 102.5v35h205v-51q0 -334 -256 -334q-68 0 -150.5 28t-145 61t-128 61t-102.5 28q-80 0 -80 -119v-45z" />
    <glyph glyph-name="uni00A0" unicode="&#xa0;" horiz-adv-x="495" 
 />
    <glyph glyph-name="exclamdown" unicode="&#xa1;" horiz-adv-x="591" 
d="M150 549h235l39 -655v-246h-313v248zM127 1061h287v-340h-287v340z" />
    <glyph glyph-name="cent" unicode="&#xa2;" horiz-adv-x="1142" 
d="M797 492h290q-26 -132 -115 -224.5t-233 -122.5v-174h-241v168q-186 34 -296 173t-110 341q0 198 108.5 343.5t299.5 179.5v127h239v-132q92 -17 162 -57.5t107.5 -93t56.5 -103t22 -100.5h-290q-19 65 -61 104.5t-132 39.5q-109 0 -164 -82.5t-55 -214.5q0 -136 54 -221
t163 -85q85 0 128.5 34.5t66.5 99.5z" />
    <glyph glyph-name="sterling" unicode="&#xa3;" horiz-adv-x="1110" 
d="M1042 0h-970v227q81 41 109 118.5t28 232.5h-160v204h148q-4 78 -4 136q0 97 25 178.5t75.5 143.5t132.5 97t190 35q93 0 166 -25t117 -63t74 -89.5t42 -96.5t15 -92h-280q-21 133 -136 133q-73 0 -103 -49t-30 -146q0 -85 6 -162h285v-204h-280q-6 -229 -84 -330h667z
" />
    <glyph glyph-name="currency" unicode="&#xa4;" horiz-adv-x="1148" 
d="M580 1145q126 0 229 -64l149 154l152 -160l-154 -160q45 -92 45 -206q0 -119 -45 -217l154 -158l-152 -162l-149 154q-98 -64 -236 -64q-129 0 -227 64l-147 -154l-154 162l154 155q-47 92 -47 213q0 119 49 213l-156 160l154 160l151 -154q103 64 230 64zM575 934
q-89 0 -139.5 -56.5t-50.5 -172.5q0 -64 16.5 -111.5t45 -73t60.5 -37.5t68 -12q84 0 136.5 55t52.5 181q0 113 -50 170t-139 57z" />
    <glyph glyph-name="yen" unicode="&#xa5;" horiz-adv-x="1034" 
d="M913 281h-264v-281h-293v281h-260v172h260v118h-260v174h217l-344 603h328q194 -403 221 -476h2q23 56 228 476h303l-359 -603h221v-174h-264v-118h264v-172z" />
    <glyph glyph-name="brokenbar" unicode="&#xa6;" horiz-adv-x="522" 
d="M154 367h235v-734h-235v734zM154 1411h235v-729h-235v729z" />
    <glyph glyph-name="section" unicode="&#xa7;" horiz-adv-x="1222" 
d="M1065 1063h-274q-32 129 -185 129q-74 0 -113.5 -32t-39.5 -87q0 -56 45.5 -85.5t185.5 -83.5q17 -6 25 -9q218 -82 317.5 -179t99.5 -253q0 -190 -155 -307q80 -76 80 -213q0 -173 -123.5 -270t-333.5 -97q-214 0 -343.5 93.5t-148.5 262.5h287q13 -63 65 -102t144 -39
q174 0 174 125q0 63 -50 99.5t-214 93.5q-233 84 -326.5 176.5t-93.5 244.5q0 93 47.5 174t126.5 134q-78 78 -78 204q0 160 117.5 260.5t319.5 100.5q95 0 171.5 -22t125 -56.5t81.5 -81t48 -90.5t18 -90zM344 582q0 -62 39 -106t164 -91q183 -67 256 -109q61 54 61 140
q0 74 -45 119.5t-172 105.5q-169 66 -213 88q-39 -25 -64.5 -63.5t-25.5 -83.5z" />
    <glyph glyph-name="dieresis" unicode="&#xa8;" 
d="M326 1231h-236v260h236v-260zM729 1231h-235v260h235v-260z" />
    <glyph glyph-name="copyright" unicode="&#xa9;" horiz-adv-x="1595" 
d="M948 586h189q-30 -123 -113 -197t-227 -74q-163 0 -264 109.5t-101 284.5q0 108 41 197t126 146t200 58q82 1 147.5 -25t104.5 -67.5t60.5 -87.5t25.5 -92h-183q-37 114 -157 114q-74 0 -122 -61t-48 -170q0 -116 47 -181t127 -65q109 0 147 111zM791 1430q146 0 275 -54
t221.5 -148.5t146 -230t53.5 -292.5q0 -206 -91.5 -372.5t-251 -259.5t-353.5 -93q-149 0 -278.5 52.5t-223.5 146t-147.5 229.5t-53.5 297q0 153 54 287.5t147.5 230.5t224 151.5t277.5 55.5zM788 1300q-161 0 -287 -70.5t-199 -207t-73 -320.5q0 -255 159 -424t400 -169
q118 0 220 40t177 114.5t118 187.5t43 251q0 264 -159 431t-399 167z" />
    <glyph glyph-name="ordfeminine" unicode="&#xaa;" horiz-adv-x="774" 
d="M686 987v-270q0 -133 2 -182l-205 -3q-1 4 -6 72q-63 -84 -194 -84q-111 0 -176.5 60t-65.5 157q0 120 84.5 175t247.5 55h94v34q0 39 -18.5 65t-73.5 26q-50 0 -69.5 -20.5t-24.5 -59.5h-209q4 40 20 75.5t49 69.5t94.5 54t145.5 20q305 0 305 -244zM473 819v19h-76
q-67 0 -101 -18t-34 -60q0 -34 22 -56t66 -22q59 0 91 34.5t32 102.5z" />
    <glyph glyph-name="guillemotleft" unicode="&#xab;" horiz-adv-x="1230" 
d="M664 938l-302 -403l302 -406h-252l-306 406l306 403h252zM1124 938l-301 -403l301 -406h-254l-303 406l303 403h254z" />
    <glyph glyph-name="logicalnot" unicode="&#xac;" horiz-adv-x="1460" 
d="M160 860h1136v-713h-247v471h-889v242z" />
    <glyph glyph-name="uni00AD" unicode="&#xad;" horiz-adv-x="790" 
d="M111 655h569v-256h-569v256z" />
    <glyph glyph-name="registered" unicode="&#xae;" horiz-adv-x="731" 
d="M338 913h-107v340h166q146 0 146 -98q0 -31 -16.5 -52.5t-39.5 -27.5q45 -15 45 -88q0 -29 5 -74h-109q-6 14 -6 70q0 29 -12 41t-41 12h-31v-123zM342 1178v-68h43q43 0 43 37q0 20 -10.5 25.5t-36.5 5.5h-39zM377 1432q155 0 251.5 -102.5t96.5 -252.5
q0 -160 -96.5 -259t-251.5 -99q-148 0 -246 102t-98 256q0 155 96.5 255t247.5 100zM377 1352q-118 0 -187 -78.5t-69 -196.5q0 -116 74 -195t182 -79q124 0 192 73t68 199q0 125 -71.5 201t-188.5 76z" />
    <glyph glyph-name="macron" unicode="&#xaf;" 
d="M102 1452h613v-215h-613v215z" />
    <glyph glyph-name="degree" unicode="&#xb0;" horiz-adv-x="698" 
d="M350 1391q134 0 212.5 -81t78.5 -202q0 -135 -83 -215t-212 -80q-128 0 -207.5 79.5t-79.5 205.5q0 127 83.5 210t207.5 83zM350 1264q-67 0 -104 -46t-37 -116q0 -71 38 -116.5t103 -45.5q67 0 105.5 46t38.5 118q0 65 -38 112.5t-106 47.5z" />
    <glyph glyph-name="plusminus" unicode="&#xb1;" horiz-adv-x="1460" 
d="M618 1407h228v-416h452v-223h-452v-418h-228v418h-456v223h456v416zM1300 0h-1136v223h1136v-223z" />
    <glyph glyph-name="two.sups" unicode="&#xb2;" horiz-adv-x="774" 
d="M713 877h-641v16q0 127 57 219t193 174q106 65 125 82q32 29 32 68q0 90 -96 90q-47 0 -74 -30t-35 -79l-213 2q8 121 96.5 201t235.5 80q87 0 152.5 -24.5t99.5 -64.5t50 -82t16 -85q0 -94 -46.5 -150t-168.5 -118q-48 -25 -97 -62t-65 -67h407z" />
    <glyph glyph-name="three.sups" unicode="&#xb3;" horiz-adv-x="798" 
d="M311 1212v181h60q60 0 86 16t26 49q0 78 -102 78q-59 0 -84.5 -24t-36.5 -66h-201q3 29 12 59t32 66.5t57.5 63.5t94 46t134.5 19q154 0 233.5 -65t79.5 -165q0 -64 -34 -102.5t-78 -54.5q23 -6 45.5 -19t47.5 -35t40.5 -59t15.5 -82q0 -35 -9 -68t-33.5 -67t-62 -58.5
t-99 -40.5t-140.5 -16q-83 0 -148 20t-101 49t-60 67.5t-32 69t-9 59.5h215q24 -101 137 -101q53 0 83 24.5t30 65.5q0 49 -31.5 69.5t-91.5 20.5h-76z" />
    <glyph glyph-name="acute" unicode="&#xb4;" 
d="M485 1516h349l-328 -304h-256z" />
    <glyph glyph-name="uni00B5" unicode="&#xb5;" horiz-adv-x="1185" 
d="M522 -20q-77 0 -119 34q5 -94 13 -422h-291v1469h293v-635q0 -35 3.5 -62.5t13.5 -55.5t27 -47t45.5 -30.5t67.5 -11.5q89 0 138 58t49 196v588h295v-746q0 -278 4 -315h-285q-9 26 -14 123q-40 -76 -96 -109.5t-144 -33.5z" />
    <glyph glyph-name="paragraph" unicode="&#xb6;" horiz-adv-x="1306" 
d="M1061 -311h-207v575h-223q-255 -2 -395 134.5t-140 394.5q0 155 56.5 273t170.5 186.5t271 68.5h260q5 94 12 125h197q-2 -39 -2 -129v-1628zM764 481h90v643h-94q-34 0 -61 -12.5t-44 -37.5t-28 -52t-17 -65t-8.5 -67.5t-3.5 -68.5v-8v-45.5t1.5 -47.5t4.5 -50t8.5 -47
t13.5 -45.5t21 -38t29 -32t38.5 -19t49.5 -7.5z" />
    <glyph glyph-name="periodcentered" unicode="&#xb7;" horiz-adv-x="514" 
d="M414 410h-314v360h314v-360z" />
    <glyph glyph-name="cedilla" unicode="&#xb8;" 
d="M367 20l182 -20l-86 -94q178 -44 178 -195q0 -51 -19 -89.5t-48 -61.5t-69 -37.5t-77 -19.5t-78 -5q-100 0 -151 21v155q81 -12 112 -12q51 0 70.5 12t19.5 39q0 20 -14.5 34.5t-41.5 21.5t-54.5 10.5t-65.5 5.5v70z" />
    <glyph glyph-name="one.sups" unicode="&#xb9;" horiz-adv-x="548" 
d="M426 877h-229v563q-64 -17 -148 -13v166q132 14 221 107h156v-823z" />
    <glyph glyph-name="ordmasculine" unicode="&#xba;" horiz-adv-x="821" 
d="M416 1231q166 0 260 -98t92 -256q-1 -169 -101.5 -262t-260.5 -93q-157 0 -256 96t-99 254q0 164 98.5 261.5t266.5 97.5zM410 1073q-136 0 -136 -196q0 -91 36.5 -145t99.5 -54q141 0 141 203q-2 92 -37 142t-104 50z" />
    <glyph glyph-name="guillemotright" unicode="&#xbb;" horiz-adv-x="1230" 
d="M567 129l301 403l-301 406h252l305 -406l-305 -403h-252zM106 129l302 403l-302 406h254l304 -406l-304 -403h-254z" />
    <glyph glyph-name="onequarter" unicode="&#xbc;" horiz-adv-x="1693" 
d="M440 0h-196l856 1348h196zM444 535h-229v563q-64 -17 -147 -13v166q132 14 221 107h155v-823zM1507 0h-209v190h-393v166l330 455h272v-459h119l-16 -162h-103v-190zM1104 352h194v101q0 65 5 192q-14 -26 -46 -73.5t-83.5 -120.5t-69.5 -99z" />
    <glyph glyph-name="onehalf" unicode="&#xbd;" horiz-adv-x="1751" 
d="M442 0h-196l856 1348h196zM451 535h-230v563q-64 -17 -147 -13v166q132 14 221 107h156v-823zM1665 0h-641v16q0 127 57.5 219.5t192.5 174.5q106 65 123 79q35 30 35 70q0 90 -97 90q-90 0 -108 -108l-213 2q8 121 96.5 200.5t235.5 79.5q71 0 127 -16.5t91 -43t58 -61
t32 -68t9 -67.5q0 -94 -46.5 -150t-168.5 -118q-48 -25 -97 -62t-65 -67h408z" />
    <glyph glyph-name="threequarters" unicode="&#xbe;" horiz-adv-x="1873" 
d="M668 0h-197l856 1348h197zM1698 0h-209v190h-393v166l329 455h273v-459h119l-17 -162h-102v-190zM1294 352h195v101q0 90 4 192q-14 -26 -46 -73.5t-83.5 -120.5t-69.5 -99zM336 870v181h59q60 0 86.5 16t26.5 49q0 78 -102 78q-59 0 -84.5 -24t-36.5 -66h-201
q3 29 12 59t32 66.5t57.5 63.5t94 46t134.5 19q154 0 233.5 -65t79.5 -165q0 -64 -34.5 -102.5t-78.5 -54.5q23 -6 45.5 -19t48 -35t41 -59t15.5 -82q0 -35 -9 -68t-33.5 -67t-62 -58.5t-99 -40.5t-140.5 -16q-83 0 -148 20t-101 49t-60 67.5t-32 69t-9 59.5h215
q24 -101 137 -101q53 0 83 24.5t30 65.5q0 49 -31.5 69.5t-91.5 20.5h-76z" />
    <glyph glyph-name="questiondown" unicode="&#xbf;" horiz-adv-x="997" 
d="M53 2q0 99 41.5 185t143.5 182q68 62 95 111.5t27 113.5v20h306v-45q0 -99 -45.5 -176t-159.5 -188q-66 -63 -91.5 -106t-25.5 -95q0 -64 40 -107.5t114 -43.5q175 0 188 215h260q-1 -72 -16 -135t-49.5 -120t-86.5 -97.5t-131 -64.5t-178 -24q-94 1 -169 23t-123.5 58
t-80.5 85t-45.5 101t-13.5 108zM360 1061h306v-340h-306v340z" />
    <glyph glyph-name="Agrave" unicode="&#xc0;" horiz-adv-x="1409" 
d="M948 326h-516l-108 -326h-301l479 1411h383l501 -1411h-321zM498 575h385q-165 492 -199 617h-2q-37 -145 -184 -617zM221 1817h365l254 -285h-271z" />
    <glyph glyph-name="Aacute" unicode="&#xc1;" horiz-adv-x="1409" 
d="M948 326h-516l-108 -326h-301l479 1411h383l501 -1411h-321zM498 575h385q-165 492 -199 617h-2q-37 -145 -184 -617zM825 1817h357l-363 -285h-274z" />
    <glyph glyph-name="Acircumflex" unicode="&#xc2;" horiz-adv-x="1409" 
d="M948 326h-516l-108 -326h-301l479 1411h383l501 -1411h-321zM498 575h385q-165 492 -199 617h-2q-37 -145 -184 -617zM553 1815h289l260 -283h-271l-137 143l-135 -143h-272z" />
    <glyph glyph-name="Atilde" unicode="&#xc3;" horiz-adv-x="1409" 
d="M948 326h-516l-108 -326h-301l479 1411h383l501 -1411h-321zM498 575h385q-165 492 -199 617h-2q-37 -145 -184 -617zM518 1548h-190v72q0 120 50 169.5t146 49.5q59 0 123 -23t114.5 -46t76.5 -23q53 0 53 70v18h184v-51q0 -138 -51.5 -193t-153.5 -55q-47 0 -109 23
t-115 46t-79 23q-49 0 -49 -49v-31z" />
    <glyph glyph-name="Adieresis" unicode="&#xc4;" horiz-adv-x="1409" 
d="M948 326h-516l-108 -326h-301l479 1411h383l501 -1411h-321zM498 575h385q-165 492 -199 617h-2q-37 -145 -184 -617zM616 1554h-235v261h235v-261zM1024 1554h-236v261h236v-261z" />
    <glyph glyph-name="Aring" unicode="&#xc5;" horiz-adv-x="1409" 
d="M948 326h-516l-108 -326h-301l479 1411h383l501 -1411h-321zM498 575h385q-165 492 -199 617h-2q-37 -145 -184 -617zM694 1485q-116 0 -183 58.5t-67 150.5q0 91 66.5 151t183.5 60q116 0 181 -58t65 -151t-67.5 -152t-178.5 -59zM690 1606q49 0 75 25t26 63t-25.5 65
t-73.5 27q-49 0 -72.5 -26t-23.5 -64q0 -37 23.5 -63.5t70.5 -26.5z" />
    <glyph glyph-name="AE" unicode="&#xc6;" horiz-adv-x="2025" 
d="M766 1411h1163v-252h-704v-297h676v-254h-676v-354h745l-37 -254h-1005v399h-441l-231 -399h-322zM623 653h305v533h-6z" />
    <glyph glyph-name="Ccedilla" unicode="&#xc7;" horiz-adv-x="1458" 
d="M1059 436h307q-37 -178 -157 -296.5t-318 -149.5l-76 -84q178 -44 178 -195q0 -51 -19 -89.5t-48 -61.5t-69 -37.5t-77 -19.5t-78 -5q-100 0 -151 21v155q81 -12 113 -12q51 0 70.5 12t19.5 39q0 20 -14.5 34.5t-41.5 21.5t-54.5 10.5t-65.5 5.5v70l108 127
q-146 12 -259.5 72t-184.5 156.5t-107.5 220t-36.5 267.5q0 148 42 278.5t123.5 233t212.5 162.5t296 60q136 0 246 -37.5t180.5 -102.5t112 -145t55.5 -172h-305q-61 219 -299 219q-91 0 -160 -39t-109 -107.5t-59.5 -153.5t-19.5 -185q0 -75 10.5 -142.5t36.5 -132.5
t65.5 -111.5t102 -75t141.5 -28.5q71 0 125 21t86 57.5t48.5 68t29.5 70.5z" />
    <glyph glyph-name="Egrave" unicode="&#xc8;" horiz-adv-x="1265" 
d="M1141 860v-252h-676v-358h745l-36 -250h-1006v1411h1001v-250h-704v-301h676zM231 1821h365l254 -285h-270z" />
    <glyph glyph-name="Eacute" unicode="&#xc9;" horiz-adv-x="1265" 
d="M1141 860v-252h-676v-358h745l-36 -250h-1006v1411h1001v-250h-704v-301h676zM793 1821h356l-363 -285h-274z" />
    <glyph glyph-name="Ecircumflex" unicode="&#xca;" horiz-adv-x="1265" 
d="M1141 860v-252h-676v-358h745l-36 -250h-1006v1411h1001v-250h-704v-301h676zM532 1817h289l260 -283h-270l-137 143l-135 -143h-273z" />
    <glyph glyph-name="Edieresis" unicode="&#xcb;" horiz-adv-x="1265" 
d="M1141 860v-252h-676v-358h745l-36 -250h-1006v1411h1001v-250h-704v-301h676zM588 1556h-236v261h236v-261zM995 1556h-235v261h235v-261z" />
    <glyph glyph-name="Igrave" unicode="&#xcc;" horiz-adv-x="641" 
d="M168 1411h305v-1411h-305v1411zM-154 1819h365l254 -285h-270z" />
    <glyph glyph-name="Iacute" unicode="&#xcd;" horiz-adv-x="641" 
d="M168 1411h305v-1411h-305v1411zM453 1817h356l-363 -285h-274z" />
    <glyph glyph-name="Icircumflex" unicode="&#xce;" horiz-adv-x="641" 
d="M168 1411h305v-1411h-305v1411zM180 1815h289l260 -283h-270l-137 143l-136 -143h-272z" />
    <glyph glyph-name="Idieresis" unicode="&#xcf;" horiz-adv-x="641" 
d="M168 1411h305v-1411h-305v1411zM236 1554h-236v261h236v-261zM643 1554h-235v261h235v-261z" />
    <glyph glyph-name="Eth" unicode="&#xd0;" horiz-adv-x="1525" 
d="M35 829h153v582h562q308 0 494 -187.5t186 -500.5q0 -206 -82.5 -369.5t-242 -258.5t-370.5 -95h-547v621h-153v208zM494 1165v-336h299v-208h-299v-375h229q131 0 220.5 63t130 168t40.5 246q0 89 -22.5 166.5t-68 140.5t-122 99t-176.5 36h-231z" />
    <glyph glyph-name="Ntilde" unicode="&#xd1;" horiz-adv-x="1546" 
d="M446 0h-278v1411h379q20 -35 116 -206.5t145 -260t124 -224.5t119 -221.5t63 -129.5h4q-16 147 -16 624v418h276v-1411h-358q-507 921 -584 1096h-4q14 -172 14 -666v-430zM590 1548h-191v72q0 120 50.5 169.5t146.5 49.5q59 0 122.5 -23t114 -46t76.5 -23q54 0 54 70v18
h184v-51q0 -138 -51.5 -193t-153.5 -55q-47 0 -109 23t-115 46t-79 23q-49 0 -49 -49v-31z" />
    <glyph glyph-name="Ograve" unicode="&#xd2;" horiz-adv-x="1566" 
d="M793 1432q204 0 357.5 -90t235.5 -253t82 -378q0 -149 -44.5 -280t-129.5 -232.5t-219 -160t-301 -58.5q-162 0 -292 56.5t-213 155t-127 230t-44 285.5t47.5 286.5t135 230t219.5 153t293 55.5zM780 1184q-184 0 -275 -127.5t-91 -343.5q0 -105 23 -192.5t68 -153.5
t116.5 -103t162.5 -37q98 0 171.5 39t115.5 107.5t62 151.5t20 182q0 139 -37.5 243.5t-123 169t-212.5 64.5zM324 1839h364l254 -285h-270z" />
    <glyph glyph-name="Oacute" unicode="&#xd3;" horiz-adv-x="1566" 
d="M793 1432q204 0 357.5 -90t235.5 -253t82 -378q0 -149 -44.5 -280t-129.5 -232.5t-219 -160t-301 -58.5q-162 0 -292 56.5t-213 155t-127 230t-44 285.5t47.5 286.5t135 230t219.5 153t293 55.5zM780 1184q-184 0 -275 -127.5t-91 -343.5q0 -105 23 -192.5t68 -153.5
t116.5 -103t162.5 -37q98 0 171.5 39t115.5 107.5t62 151.5t20 182q0 139 -37.5 243.5t-123 169t-212.5 64.5zM911 1835h357l-363 -285h-274z" />
    <glyph glyph-name="Ocircumflex" unicode="&#xd4;" horiz-adv-x="1566" 
d="M793 1432q204 0 357.5 -90t235.5 -253t82 -378q0 -149 -44.5 -280t-129.5 -232.5t-219 -160t-301 -58.5q-162 0 -292 56.5t-213 155t-127 230t-44 285.5t47.5 286.5t135 230t219.5 153t293 55.5zM780 1184q-184 0 -275 -127.5t-91 -343.5q0 -105 23 -192.5t68 -153.5
t116.5 -103t162.5 -37q98 0 171.5 39t115.5 107.5t62 151.5t20 182q0 139 -37.5 243.5t-123 169t-212.5 64.5zM641 1817h289l260 -283h-270l-138 143l-135 -143h-272z" />
    <glyph glyph-name="Otilde" unicode="&#xd5;" horiz-adv-x="1566" 
d="M793 1432q204 0 357.5 -90t235.5 -253t82 -378q0 -149 -44.5 -280t-129.5 -232.5t-219 -160t-301 -58.5q-162 0 -292 56.5t-213 155t-127 230t-44 285.5t47.5 286.5t135 230t219.5 153t293 55.5zM780 1184q-184 0 -275 -127.5t-91 -343.5q0 -105 23 -192.5t68 -153.5
t116.5 -103t162.5 -37q98 0 171.5 39t115.5 107.5t62 151.5t20 182q0 139 -37.5 243.5t-123 169t-212.5 64.5zM598 1550h-190v72q0 120 50 169.5t146 49.5q59 0 123 -23t114.5 -46t76.5 -23q53 0 53 70v18h184v-51q0 -138 -51.5 -193t-153.5 -55q-47 0 -109 23t-115 46
t-79 23q-49 0 -49 -49v-31z" />
    <glyph glyph-name="Odieresis" unicode="&#xd6;" horiz-adv-x="1566" 
d="M793 1432q204 0 357.5 -90t235.5 -253t82 -378q0 -149 -44.5 -280t-129.5 -232.5t-219 -160t-301 -58.5q-162 0 -292 56.5t-213 155t-127 230t-44 285.5t47.5 286.5t135 230t219.5 153t293 55.5zM780 1184q-184 0 -275 -127.5t-91 -343.5q0 -105 23 -192.5t68 -153.5
t116.5 -103t162.5 -37q98 0 171.5 39t115.5 107.5t62 151.5t20 182q0 139 -37.5 243.5t-123 169t-212.5 64.5zM696 1556h-235v261h235v-261zM1104 1556h-236v261h236v-261z" />
    <glyph glyph-name="multiply" unicode="&#xd7;" horiz-adv-x="1460" 
d="M1294 168l-159 -168l-404 420l-403 -420l-158 168l403 418l-403 420l154 161l407 -419l406 419l157 -161l-405 -422z" />
    <glyph glyph-name="Oslash" unicode="&#xd8;" horiz-adv-x="1566" 
d="M793 1432q200 0 356 -89l49 68h199l-121 -164q97 -97 149 -234t52 -302q0 -149 -44.5 -279.5t-129.5 -232t-221.5 -160.5t-307.5 -59q-212 0 -364 98l-58 -78h-198l133 180q-93 99 -141 235t-48 292q0 149 48 280.5t135.5 230.5t220 156.5t291.5 57.5zM403 713
q0 -158 66 -287l524 709q-83 59 -213 59q-179 0 -278 -129.5t-99 -351.5zM784 219q99 0 174 40t118.5 109.5t65 154.5t21.5 184q0 185 -63 305l-529 -717q89 -76 213 -76z" />
    <glyph glyph-name="Ugrave" unicode="&#xd9;" horiz-adv-x="1484" 
d="M150 1411h305v-840q0 -98 23.5 -169t66 -109.5t92.5 -56t111 -17.5q137 0 209.5 83t72.5 269v840h307v-825q0 -606 -594 -606q-593 0 -593 600v831zM285 1817h364l254 -285h-270z" />
    <glyph glyph-name="Uacute" unicode="&#xda;" horiz-adv-x="1484" 
d="M150 1411h305v-840q0 -98 23.5 -169t66 -109.5t92.5 -56t111 -17.5q137 0 209.5 83t72.5 269v840h307v-825q0 -606 -594 -606q-593 0 -593 600v831zM864 1817h357l-363 -285h-274z" />
    <glyph glyph-name="Ucircumflex" unicode="&#xdb;" horiz-adv-x="1484" 
d="M150 1411h305v-840q0 -98 23.5 -169t66 -109.5t92.5 -56t111 -17.5q137 0 209.5 83t72.5 269v840h307v-825q0 -606 -594 -606q-593 0 -593 600v831zM602 1817h289l260 -283h-270l-138 143l-135 -143h-272z" />
    <glyph glyph-name="Udieresis" unicode="&#xdc;" horiz-adv-x="1484" 
d="M150 1411h305v-840q0 -98 23.5 -169t66 -109.5t92.5 -56t111 -17.5q137 0 209.5 83t72.5 269v840h307v-825q0 -606 -594 -606q-593 0 -593 600v831zM657 1554h-235v261h235v-261zM1065 1554h-236v261h236v-261z" />
    <glyph glyph-name="Yacute" unicode="&#xdd;" horiz-adv-x="1267" 
d="M784 0h-305v500q0 26 -12 45l-487 866h346q203 -398 321 -649q65 158 322 649h319l-493 -862q-11 -27 -11 -45v-504zM764 1804h356l-362 -284h-275z" />
    <glyph glyph-name="Thorn" unicode="&#xde;" horiz-adv-x="1351" 
d="M168 0v1411h305v-260h287q124 0 220.5 -33.5t156 -93t90 -136.5t30.5 -167q0 -201 -137.5 -321.5t-374.5 -120.5h-272v-279h-305zM473 907v-387h250q231 0 231 197q0 91 -60.5 140.5t-168.5 49.5h-252z" />
    <glyph glyph-name="germandbls" unicode="&#xdf;" horiz-adv-x="1286" 
d="M653 1518q110 0 198 -24t145 -64t96 -94.5t56 -111.5t19 -120q0 -45 -4 -68l-301 -209v-2l129 -96q126 -94 178 -180t52 -193q0 -166 -110 -269t-308 -103q-202 0 -307 79v261q57 -56 136.5 -86.5t151.5 -30.5q79 0 114.5 33t35.5 86q0 47 -26.5 85.5t-100.5 94.5
l-170 129q-94 71 -95 158.5t95 154.5l233 160q0 34 -9 63t-31.5 57.5t-69 45t-113.5 16.5q-108 0 -166.5 -53.5t-58.5 -187.5v-1049h-293v1069q0 99 27.5 177t75 128.5t115 83t143 46.5t163.5 14z" />
    <glyph glyph-name="agrave" unicode="&#xe0;" horiz-adv-x="1144" 
d="M1012 719v-445q0 -75 4.5 -165t9.5 -109h-281q-14 35 -14 104q-85 -129 -299 -129q-92 0 -164 28.5t-114 76.5t-63 105.5t-21 121.5q0 177 132 266t371 89h152v63q0 67 -35 108t-129 41q-86 0 -120 -32t-44 -97h-278q5 74 31.5 133t78.5 107t139 74t205 26
q217 -2 328 -90.5t111 -275.5zM725 455v28h-119q-130 0 -187 -39t-57 -118q0 -61 39.5 -101.5t114.5 -40.5q67 0 110.5 21.5t64 63t27.5 84t7 102.5zM158 1516h350l233 -304h-258z" />
    <glyph glyph-name="aacute" unicode="&#xe1;" horiz-adv-x="1144" 
d="M1012 719v-445q0 -75 4.5 -165t9.5 -109h-281q-14 35 -14 104q-85 -129 -299 -129q-92 0 -164 28.5t-114 76.5t-63 105.5t-21 121.5q0 177 132 266t371 89h152v63q0 67 -35 108t-129 41q-86 0 -120 -32t-44 -97h-278q5 74 31.5 133t78.5 107t139 74t205 26
q217 -2 328 -90.5t111 -275.5zM725 455v28h-119q-130 0 -187 -39t-57 -118q0 -61 39.5 -101.5t114.5 -40.5q67 0 110.5 21.5t64 63t27.5 84t7 102.5zM651 1516h348l-327 -304h-256z" />
    <glyph glyph-name="acircumflex" unicode="&#xe2;" horiz-adv-x="1144" 
d="M1012 719v-445q0 -75 4.5 -165t9.5 -109h-281q-14 35 -14 104q-85 -129 -299 -129q-92 0 -164 28.5t-114 76.5t-63 105.5t-21 121.5q0 177 132 266t371 89h152v63q0 67 -35 108t-129 41q-86 0 -120 -32t-44 -97h-278q5 74 31.5 133t78.5 107t139 74t205 26
q217 -2 328 -90.5t111 -275.5zM725 455v28h-119q-130 0 -187 -39t-57 -118q0 -61 39.5 -101.5t114.5 -40.5q67 0 110.5 21.5t64 63t27.5 84t7 102.5zM449 1493h251l238 -305h-262l-105 151l-96 -151h-264z" />
    <glyph glyph-name="atilde" unicode="&#xe3;" horiz-adv-x="1144" 
d="M1012 719v-445q0 -75 4.5 -165t9.5 -109h-281q-14 35 -14 104q-85 -129 -299 -129q-92 0 -164 28.5t-114 76.5t-63 105.5t-21 121.5q0 177 132 266t371 89h152v63q0 67 -35 108t-129 41q-86 0 -120 -32t-44 -97h-278q5 74 31.5 133t78.5 107t139 74t205 26
q217 -2 328 -90.5t111 -275.5zM725 455v28h-119q-130 0 -187 -39t-57 -118q0 -61 39.5 -101.5t114.5 -40.5q67 0 110.5 21.5t64 63t27.5 84t7 102.5zM412 1206h-189v70q0 120 50 171.5t141 51.5q53 0 108 -21.5t98.5 -43t69.5 -21.5t38.5 16t12.5 56v18h185v-55
q0 -136 -53 -192t-148 -56q-55 0 -107.5 21t-93.5 42t-67 21q-24 0 -34.5 -11t-10.5 -38v-29z" />
    <glyph glyph-name="adieresis" unicode="&#xe4;" horiz-adv-x="1144" 
d="M1012 719v-445q0 -75 4.5 -165t9.5 -109h-281q-14 35 -14 104q-85 -129 -299 -129q-92 0 -164 28.5t-114 76.5t-63 105.5t-21 121.5q0 177 132 266t371 89h152v63q0 67 -35 108t-129 41q-86 0 -120 -32t-44 -97h-278q5 74 31.5 133t78.5 107t139 74t205 26
q217 -2 328 -90.5t111 -275.5zM725 455v28h-119q-130 0 -187 -39t-57 -118q0 -61 39.5 -101.5t114.5 -40.5q67 0 110.5 21.5t64 63t27.5 84t7 102.5zM492 1231h-236v260h236v-260zM895 1231h-236v260h236v-260z" />
    <glyph glyph-name="aring" unicode="&#xe5;" horiz-adv-x="1144" 
d="M1012 719v-445q0 -75 4.5 -165t9.5 -109h-281q-14 35 -14 104q-85 -129 -299 -129q-92 0 -164 28.5t-114 76.5t-63 105.5t-21 121.5q0 177 132 266t371 89h152v63q0 67 -35 108t-129 41q-86 0 -120 -32t-44 -97h-278q5 74 31.5 133t78.5 107t139 74t205 26
q217 -2 328 -90.5t111 -275.5zM725 455v28h-119q-130 0 -187 -39t-57 -118q0 -61 39.5 -101.5t114.5 -40.5q67 0 110.5 21.5t64 63t27.5 84t7 102.5zM578 1169q-116 0 -183 58.5t-67 150.5q0 91 66.5 151t183.5 60q116 0 180.5 -58t64.5 -151t-67 -152t-178 -59zM573 1290
q49 0 75 25t26 63t-25.5 65t-73.5 27q-49 0 -72.5 -26t-23.5 -64q0 -37 23.5 -63.5t70.5 -26.5z" />
    <glyph glyph-name="ae" unicode="&#xe6;" horiz-adv-x="1787" 
d="M1421 322h291q-13 -50 -33.5 -94t-60 -91t-91.5 -80.5t-132 -55t-178 -21.5q-261 0 -386 155q-123 -155 -378 -155q-188 0 -285.5 93.5t-97.5 231.5q0 348 581 348h84v74q0 72 -31.5 114t-113.5 42q-76 0 -111 -34t-45 -93h-311q12 160 129 242.5t315 82.5
q260 0 346 -120q44 46 128 83t202 37q100 0 181.5 -28t135.5 -76t91 -113.5t53 -137.5t16 -151v-108h-710q-3 -115 54 -192.5t163 -77.5q82 0 126 30.5t68 94.5zM737 440v27h-100q-137 0 -206 -32.5t-69 -110.5q0 -51 39 -89t117 -38q219 0 219 243zM1014 653h418
q-2 47 -12.5 82.5t-32.5 66.5t-62.5 48t-97.5 18q-99 1 -151 -58t-62 -157z" />
    <glyph glyph-name="ccedilla" unicode="&#xe7;" horiz-adv-x="1103" 
d="M762 342h287q-12 -59 -35.5 -111.5t-63 -102t-101.5 -86t-140 -52.5l-76 -84q178 -44 178 -195q0 -51 -19 -89.5t-48 -61.5t-69 -37.5t-77 -19.5t-78 -5q-100 0 -151 21v155q81 -12 112 -12q51 0 70.5 12t19.5 39q0 20 -14.5 34.5t-41.5 21.5t-54.5 10.5t-65.5 5.5v70
l107 125q-207 23 -317.5 169t-110.5 373q0 158 60 284.5t178 202.5t276 76q101 0 183.5 -28t132 -70t83.5 -95t47.5 -98t14.5 -85h-285q-30 145 -182 145q-101 0 -156 -84t-55 -238q0 -165 55 -247t154 -82q135 0 182 139z" />
    <glyph glyph-name="egrave" unicode="&#xe8;" horiz-adv-x="1136" 
d="M1065 467h-700q0 -108 55 -185t158 -77q44 0 76 8t52.5 25t32.5 34.5t25 44.5h293q-13 -44 -32.5 -85.5t-59 -90t-90.5 -84t-130 -59t-174 -23.5q-102 0 -186 29.5t-142 80t-97.5 119.5t-57.5 147t-18 163q0 259 131.5 415t380.5 156q105 0 189 -30t139 -79.5
t91.5 -118.5t52 -143.5t15.5 -156.5q0 -59 -4 -90zM371 647h403q-2 102 -48 164.5t-146 62.5q-188 0 -209 -227zM154 1516h350l233 -304h-258z" />
    <glyph glyph-name="eacute" unicode="&#xe9;" horiz-adv-x="1136" 
d="M1065 467h-700q0 -108 55 -185t158 -77q44 0 76 8t52.5 25t32.5 34.5t25 44.5h293q-13 -44 -32.5 -85.5t-59 -90t-90.5 -84t-130 -59t-174 -23.5q-102 0 -186 29.5t-142 80t-97.5 119.5t-57.5 147t-18 163q0 259 131.5 415t380.5 156q105 0 189 -30t139 -79.5
t91.5 -118.5t52 -143.5t15.5 -156.5q0 -59 -4 -90zM371 647h403q-2 102 -48 164.5t-146 62.5q-188 0 -209 -227zM647 1516h348l-327 -304h-256z" />
    <glyph glyph-name="ecircumflex" unicode="&#xea;" horiz-adv-x="1136" 
d="M1065 467h-700q0 -108 55 -185t158 -77q44 0 76 8t52.5 25t32.5 34.5t25 44.5h293q-13 -44 -32.5 -85.5t-59 -90t-90.5 -84t-130 -59t-174 -23.5q-102 0 -186 29.5t-142 80t-97.5 119.5t-57.5 147t-18 163q0 259 131.5 415t380.5 156q105 0 189 -30t139 -79.5
t91.5 -118.5t52 -143.5t15.5 -156.5q0 -59 -4 -90zM371 647h403q-2 102 -48 164.5t-146 62.5q-188 0 -209 -227zM461 1493h252l237 -305h-262l-104 151l-97 -151h-264z" />
    <glyph glyph-name="edieresis" unicode="&#xeb;" horiz-adv-x="1136" 
d="M1065 467h-700q0 -108 55 -185t158 -77q44 0 76 8t52.5 25t32.5 34.5t25 44.5h293q-13 -44 -32.5 -85.5t-59 -90t-90.5 -84t-130 -59t-174 -23.5q-102 0 -186 29.5t-142 80t-97.5 119.5t-57.5 147t-18 163q0 259 131.5 415t380.5 156q105 0 189 -30t139 -79.5
t91.5 -118.5t52 -143.5t15.5 -156.5q0 -59 -4 -90zM371 647h403q-2 102 -48 164.5t-146 62.5q-188 0 -209 -227zM502 1231h-236v260h236v-260zM905 1231h-235v260h235v-260z" />
    <glyph glyph-name="igrave" unicode="&#xec;" horiz-adv-x="557" 
d="M131 0v1061h295v-1061h-295zM-172 1516h350l234 -304h-258z" />
    <glyph glyph-name="iacute" unicode="&#xed;" horiz-adv-x="557" 
d="M131 0v1061h295v-1061h-295zM381 1516h348l-328 -304h-256z" />
    <glyph glyph-name="icircumflex" unicode="&#xee;" horiz-adv-x="557" 
d="M131 0v1061h295v-1061h-295zM152 1493h251l238 -305h-262l-105 151l-96 -151h-264z" />
    <glyph glyph-name="idieresis" unicode="&#xef;" horiz-adv-x="557" 
d="M131 0v1061h295v-1061h-295zM195 1231h-236v260h236v-260zM598 1231h-236v260h236v-260z" />
    <glyph glyph-name="eth" unicode="&#xf0;" horiz-adv-x="1155" 
d="M190 1300v216q236 -15 433 -111l211 149l75 -118l-155 -111q159 -118 246 -299t87 -412q0 -165 -40 -289.5t-111.5 -200t-164.5 -112.5t-206 -37q-160 0 -276 71t-172 188.5t-56 267.5q0 225 144.5 363.5t374.5 138.5q76 0 139 -23q-59 118 -174 195l-238 -168l-76 116
l172 123q-93 35 -213 53zM594 776q-105 0 -170.5 -78t-65.5 -209q0 -126 55.5 -206t161.5 -80q108 0 163 92t55 258q0 104 -44 163.5t-155 59.5z" />
    <glyph glyph-name="ntilde" unicode="&#xf1;" horiz-adv-x="1214" 
d="M133 0v793q0 188 -2 268h285q5 -26 12 -135q21 39 53.5 71.5t100 60t153.5 27.5q162 0 256 -107t94 -304v-674h-292v641q0 99 -38.5 153t-131.5 54q-97 0 -146 -60.5t-49 -197.5v-590h-295zM440 1223h-188v69q0 224 190 224q53 0 108 -21.5t99 -43t70 -21.5t38.5 15.5
t12.5 55.5v19h184v-56q0 -136 -52.5 -191.5t-147.5 -55.5q-43 0 -86 13t-71.5 28.5t-59.5 28.5t-52 13q-24 0 -34.5 -11t-10.5 -38v-28z" />
    <glyph glyph-name="ograve" unicode="&#xf2;" horiz-adv-x="1187" 
d="M604 1085q233 0 373.5 -152t140.5 -401q0 -162 -61 -287t-182 -197.5t-285 -72.5q-160 0 -279.5 72.5t-180 196.5t-60.5 282q0 250 143 404.5t391 154.5zM592 854q-105 0 -165 -81t-60 -243q0 -153 61.5 -239t167.5 -86q108 0 166.5 85t58.5 238q0 326 -229 326z
M176 1516h350l234 -304h-258z" />
    <glyph glyph-name="oacute" unicode="&#xf3;" horiz-adv-x="1187" 
d="M604 1085q233 0 373.5 -152t140.5 -401q0 -162 -61 -287t-182 -197.5t-285 -72.5q-160 0 -279.5 72.5t-180 196.5t-60.5 282q0 250 143 404.5t391 154.5zM592 854q-105 0 -165 -81t-60 -243q0 -153 61.5 -239t167.5 -86q108 0 166.5 85t58.5 238q0 326 -229 326z
M674 1516h348l-328 -304h-256z" />
    <glyph glyph-name="ocircumflex" unicode="&#xf4;" horiz-adv-x="1187" 
d="M604 1085q233 0 373.5 -152t140.5 -401q0 -162 -61 -287t-182 -197.5t-285 -72.5q-160 0 -279.5 72.5t-180 196.5t-60.5 282q0 250 143 404.5t391 154.5zM592 854q-105 0 -165 -81t-60 -243q0 -153 61.5 -239t167.5 -86q108 0 166.5 85t58.5 238q0 326 -229 326z
M467 1493h252l237 -305h-262l-104 151l-96 -151h-265z" />
    <glyph glyph-name="otilde" unicode="&#xf5;" horiz-adv-x="1187" 
d="M604 1085q233 0 373.5 -152t140.5 -401q0 -162 -61 -287t-182 -197.5t-285 -72.5q-160 0 -279.5 72.5t-180 196.5t-60.5 282q0 250 143 404.5t391 154.5zM592 854q-105 0 -165 -81t-60 -243q0 -153 61.5 -239t167.5 -86q108 0 166.5 85t58.5 238q0 326 -229 326z
M430 1206h-188v70q0 120 49.5 171.5t140.5 51.5q53 0 108 -21.5t99 -43t70 -21.5t38.5 16t12.5 56v18h184v-55q0 -136 -53 -192t-148 -56q-55 0 -107.5 21t-93.5 42t-67 21q-24 0 -34.5 -11t-10.5 -38v-29z" />
    <glyph glyph-name="odieresis" unicode="&#xf6;" horiz-adv-x="1187" 
d="M604 1085q233 0 373.5 -152t140.5 -401q0 -162 -61 -287t-182 -197.5t-285 -72.5q-160 0 -279.5 72.5t-180 196.5t-60.5 282q0 250 143 404.5t391 154.5zM592 854q-105 0 -165 -81t-60 -243q0 -153 61.5 -239t167.5 -86q108 0 166.5 85t58.5 238q0 326 -229 326z
M510 1231h-236v260h236v-260zM913 1231h-235v260h235v-260z" />
    <glyph glyph-name="divide" unicode="&#xf7;" horiz-adv-x="1460" 
d="M856 -2h-248v285h248v-285zM1298 459h-1136v246h1136v-246zM856 879h-248v286h248v-286z" />
    <glyph glyph-name="oslash" unicode="&#xf8;" horiz-adv-x="1187" 
d="M604 1085q159 0 277 -73l39 51h147l-94 -127q147 -153 147 -410q0 -251 -145 -401t-387 -152q-153 -3 -277 72l-47 -65h-147l102 139q-73 75 -112 179.5t-39 223.5q0 256 147.5 409.5t388.5 153.5zM594 870q-115 0 -177.5 -84t-62.5 -254q0 -111 31 -190l354 479
q-55 49 -145 49zM598 188q110 0 174 86.5t64 247.5q0 107 -27 193l-352 -477q56 -50 141 -50z" />
    <glyph glyph-name="ugrave" unicode="&#xf9;" horiz-adv-x="1198" 
d="M1065 1061v-754q0 -213 2 -307h-287q-2 16 -8 123q-46 -78 -117 -113t-176 -35q-165 0 -258.5 100.5t-93.5 293.5v692h293v-633q0 -213 164 -213q101 0 144.5 63t43.5 218v565h293zM182 1516h350l234 -304h-258z" />
    <glyph glyph-name="uacute" unicode="&#xfa;" horiz-adv-x="1198" 
d="M1065 1061v-754q0 -213 2 -307h-287q-2 16 -8 123q-46 -78 -117 -113t-176 -35q-165 0 -258.5 100.5t-93.5 293.5v692h293v-633q0 -213 164 -213q101 0 144.5 63t43.5 218v565h293zM676 1516h348l-328 -304h-256z" />
    <glyph glyph-name="ucircumflex" unicode="&#xfb;" horiz-adv-x="1198" 
d="M1065 1061v-754q0 -213 2 -307h-287q-2 16 -8 123q-46 -78 -117 -113t-176 -35q-165 0 -258.5 100.5t-93.5 293.5v692h293v-633q0 -213 164 -213q101 0 144.5 63t43.5 218v565h293zM471 1493h252l238 -305h-263l-104 151l-96 -151h-265z" />
    <glyph glyph-name="udieresis" unicode="&#xfc;" horiz-adv-x="1198" 
d="M1065 1061v-754q0 -213 2 -307h-287q-2 16 -8 123q-46 -78 -117 -113t-176 -35q-165 0 -258.5 100.5t-93.5 293.5v692h293v-633q0 -213 164 -213q101 0 144.5 63t43.5 218v565h293zM514 1231h-235v260h235v-260zM918 1231h-236v260h236v-260z" />
    <glyph glyph-name="yacute" unicode="&#xfd;" horiz-adv-x="1062" 
d="M10 1061h316q204 -687 221 -791h2q37 169 211 791h293l-357 -1092q-76 -233 -164 -314t-276 -81q-69 0 -137 8v236q40 -4 76 -4q83 0 127.5 33t74.5 120zM608 1516h348l-327 -304h-256z" />
    <glyph glyph-name="thorn" unicode="&#xfe;" horiz-adv-x="1224" 
d="M424 -408h-293v1903h293v-553q95 139 299 139q90 0 167.5 -34.5t136.5 -99t92.5 -165t33.5 -225.5q1 -268 -135 -422.5t-344 -154.5q-99 0 -156 29.5t-94 78.5v-496zM856 545q0 156 -62.5 228.5t-164.5 72.5q-60 0 -104 -26.5t-68 -73t-34.5 -100.5t-10.5 -118
q0 -59 9 -109.5t30 -99.5t65 -77.5t107 -28.5q108 0 170.5 82t62.5 250z" />
    <glyph glyph-name="ydieresis" unicode="&#xff;" horiz-adv-x="1062" 
d="M10 1061h316q204 -687 221 -791h2q37 169 211 791h293l-357 -1092q-76 -233 -164 -314t-276 -81q-69 0 -137 8v236q40 -4 76 -4q83 0 127.5 33t74.5 120zM449 1231h-236v260h236v-260zM852 1231h-236v260h236v-260z" />
    <glyph glyph-name="Amacron" unicode="&#x100;" horiz-adv-x="1409" 
d="M948 326h-516l-108 -326h-301l479 1411h383l501 -1411h-321zM498 575h385q-165 492 -199 617h-2q-37 -145 -184 -617zM387 1763h631v-207h-631v207z" />
    <glyph glyph-name="amacron" unicode="&#x101;" horiz-adv-x="1144" 
d="M1012 719v-445q0 -75 4.5 -165t9.5 -109h-281q-14 35 -14 104q-85 -129 -299 -129q-92 0 -164 28.5t-114 76.5t-63 105.5t-21 121.5q0 177 132 266t371 89h152v63q0 67 -35 108t-129 41q-86 0 -120 -32t-44 -97h-278q5 74 31.5 133t78.5 107t139 74t205 26
q217 -2 328 -90.5t111 -275.5zM725 455v28h-119q-130 0 -187 -39t-57 -118q0 -61 39.5 -101.5t114.5 -40.5q67 0 110.5 21.5t64 63t27.5 84t7 102.5zM268 1452h613v-215h-613v215z" />
    <glyph glyph-name="Abreve" unicode="&#x102;" horiz-adv-x="1409" 
d="M948 326h-516l-108 -326h-301l479 1411h383l501 -1411h-321zM498 575h385q-165 492 -199 617h-2q-37 -145 -184 -617zM350 1815h207q8 -49 46.5 -81t98.5 -32q126 0 150 113h203q-8 -58 -31.5 -108.5t-64.5 -94t-108 -69t-153 -25.5q-71 0 -129 17.5t-96.5 46.5
t-65.5 68.5t-40 80t-17 84.5z" />
    <glyph glyph-name="abreve" unicode="&#x103;" horiz-adv-x="1144" 
d="M1012 719v-445q0 -75 4.5 -165t9.5 -109h-281q-14 35 -14 104q-85 -129 -299 -129q-92 0 -164 28.5t-114 76.5t-63 105.5t-21 121.5q0 177 132 266t371 89h152v63q0 67 -35 108t-129 41q-86 0 -120 -32t-44 -97h-278q5 74 31.5 133t78.5 107t139 74t205 26
q217 -2 328 -90.5t111 -275.5zM725 455v28h-119q-130 0 -187 -39t-57 -118q0 -61 39.5 -101.5t114.5 -40.5q67 0 110.5 21.5t64 63t27.5 84t7 102.5zM248 1491h201q29 -109 126 -109q61 0 86.5 28t40.5 81h201q-17 -133 -98.5 -219t-233.5 -86q-81 0 -143.5 26t-99.5 70
t-56.5 96.5t-23.5 112.5z" />
    <glyph glyph-name="Aogonek" unicode="&#x104;" horiz-adv-x="1409" 
d="M948 326h-516l-108 -326h-301l479 1411h383l501 -1411h-26q-127 -87 -127 -182q0 -42 27.5 -65t74.5 -23q55 0 95 12v-201q-59 -30 -185 -30q-124 0 -195 62t-71 175q0 140 121 252h-35zM498 575h385q-165 492 -199 617h-2q-37 -145 -184 -617z" />
    <glyph glyph-name="aogonek" unicode="&#x105;" horiz-adv-x="1144" 
d="M1012 719v-445q0 -75 4.5 -165t9.5 -109h-6q-127 -87 -127 -182q0 -42 27.5 -65t74.5 -23q55 0 95 12v-201q-59 -30 -185 -30q-124 0 -195 62t-71 175q0 140 121 252h-15q-14 35 -14 104q-85 -129 -299 -129q-92 0 -164 28.5t-114 76.5t-63 105.5t-21 121.5
q0 177 132 266t371 89h152v63q0 67 -35 108t-129 41q-86 0 -120 -32t-44 -97h-278q5 74 31.5 133t78.5 107t139 74t205 26q217 -2 328 -90.5t111 -275.5zM725 455v28h-119q-130 0 -187 -39t-57 -118q0 -61 39.5 -101.5t114.5 -40.5q67 0 110.5 21.5t64 63t27.5 84t7 102.5z
" />
    <glyph glyph-name="Cacute" unicode="&#x106;" horiz-adv-x="1458" 
d="M1059 436h307q-43 -208 -198 -332t-410 -124q-132 0 -241 36t-186 101t-130 155t-78 197t-25 229q0 148 42 278.5t123.5 233t212.5 162.5t296 60q136 0 246 -37.5t180.5 -102.5t112 -145t55.5 -172h-305q-61 219 -299 219q-91 0 -160 -39t-109 -107.5t-59.5 -153.5
t-19.5 -185q0 -75 10.5 -142.5t36.5 -132.5t65.5 -111.5t102 -75t141.5 -28.5q71 0 125 21t86 57.5t48.5 68t29.5 70.5zM862 1819h357l-363 -285h-274z" />
    <glyph glyph-name="cacute" unicode="&#x107;" horiz-adv-x="1103" 
d="M762 342h287q-11 -56 -32.5 -106t-60 -99t-90 -84t-127 -56.5t-166.5 -21.5q-161 0 -275 71t-169 192.5t-55 283.5q0 158 60 284.5t178 202.5t276 76q101 0 183.5 -28t132 -70t83.5 -95t47.5 -98t14.5 -85h-285q-30 145 -182 145q-101 0 -156 -84t-55 -238
q0 -165 55 -247t154 -82q135 0 182 139zM649 1516h348l-327 -304h-256z" />
    <glyph glyph-name="Ccircumflex" unicode="&#x108;" horiz-adv-x="1458" 
d="M1059 436h307q-43 -208 -198 -332t-410 -124q-132 0 -241 36t-186 101t-130 155t-78 197t-25 229q0 148 42 278.5t123.5 233t212.5 162.5t296 60q136 0 246 -37.5t180.5 -102.5t112 -145t55.5 -172h-305q-61 219 -299 219q-91 0 -160 -39t-109 -107.5t-59.5 -153.5
t-19.5 -185q0 -75 10.5 -142.5t36.5 -132.5t65.5 -111.5t102 -75t141.5 -28.5q71 0 125 21t86 57.5t48.5 68t29.5 70.5zM610 1815h289l260 -283h-270l-137 143l-136 -143h-272z" />
    <glyph glyph-name="ccircumflex" unicode="&#x109;" horiz-adv-x="1103" 
d="M762 342h287q-11 -56 -32.5 -106t-60 -99t-90 -84t-127 -56.5t-166.5 -21.5q-161 0 -275 71t-169 192.5t-55 283.5q0 158 60 284.5t178 202.5t276 76q101 0 183.5 -28t132 -70t83.5 -95t47.5 -98t14.5 -85h-285q-30 145 -182 145q-101 0 -156 -84t-55 -238
q0 -165 55 -247t154 -82q135 0 182 139zM463 1493h252l237 -305h-262l-104 151l-97 -151h-264z" />
    <glyph glyph-name="Cdotaccent" unicode="&#x10a;" horiz-adv-x="1458" 
d="M1059 436h307q-43 -208 -198 -332t-410 -124q-132 0 -241 36t-186 101t-130 155t-78 197t-25 229q0 148 42 278.5t123.5 233t212.5 162.5t296 60q136 0 246 -37.5t180.5 -102.5t112 -145t55.5 -172h-305q-61 219 -299 219q-91 0 -160 -39t-109 -107.5t-59.5 -153.5
t-19.5 -185q0 -75 10.5 -142.5t36.5 -132.5t65.5 -111.5t102 -75t141.5 -28.5q71 0 125 21t86 57.5t48.5 68t29.5 70.5zM897 1573h-291v262h291v-262z" />
    <glyph glyph-name="cdotaccent" unicode="&#x10b;" horiz-adv-x="1103" 
d="M762 342h287q-11 -56 -32.5 -106t-60 -99t-90 -84t-127 -56.5t-166.5 -21.5q-161 0 -275 71t-169 192.5t-55 283.5q0 158 60 284.5t178 202.5t276 76q101 0 183.5 -28t132 -70t83.5 -95t47.5 -98t14.5 -85h-285q-30 145 -182 145q-101 0 -156 -84t-55 -238
q0 -165 55 -247t154 -82q135 0 182 139zM735 1231h-291v260h291v-260z" />
    <glyph glyph-name="Ccaron" unicode="&#x10c;" horiz-adv-x="1458" 
d="M1059 436h307q-43 -208 -198 -332t-410 -124q-132 0 -241 36t-186 101t-130 155t-78 197t-25 229q0 148 42 278.5t123.5 233t212.5 162.5t296 60q136 0 246 -37.5t180.5 -102.5t112 -145t55.5 -172h-305q-61 219 -299 219q-91 0 -160 -39t-109 -107.5t-59.5 -153.5
t-19.5 -185q0 -75 10.5 -142.5t36.5 -132.5t65.5 -111.5t102 -75t141.5 -28.5q71 0 125 21t86 57.5t48.5 68t29.5 70.5zM907 1532h-274l-268 283h270l137 -144l135 144h273z" />
    <glyph glyph-name="ccaron" unicode="&#x10d;" horiz-adv-x="1103" 
d="M762 342h287q-11 -56 -32.5 -106t-60 -99t-90 -84t-127 -56.5t-166.5 -21.5q-161 0 -275 71t-169 192.5t-55 283.5q0 158 60 284.5t178 202.5t276 76q101 0 183.5 -28t132 -70t83.5 -95t47.5 -98t14.5 -85h-285q-30 145 -182 145q-101 0 -156 -84t-55 -238
q0 -165 55 -247t154 -82q135 0 182 139zM715 1188h-252l-238 305h262l105 -152l96 152h264z" />
    <glyph glyph-name="Dcaron" unicode="&#x10e;" horiz-adv-x="1507" 
d="M168 0v1411h561q308 0 494 -187.5t186 -500.5q0 -207 -82.5 -370t-241.5 -258t-370 -95h-547zM473 1165v-919h229q99 0 175 35.5t123 100.5t70.5 150.5t23.5 190.5q0 89 -22.5 166.5t-68 140.5t-122 99t-176.5 36h-232zM823 1534h-274l-268 283h270l137 -144l135 144h273
z" />
    <glyph glyph-name="dcaron" unicode="&#x10f;" horiz-adv-x="1363" 
d="M811 1495h293v-1204q0 -195 2 -291h-281q-9 50 -14 111q-83 -136 -301 -136q-201 0 -319.5 149t-118.5 398t129.5 406t351.5 157q106 0 172 -30.5t86 -71.5v512zM373 528q0 -155 58 -236t167 -81q58 0 100.5 19.5t66 48.5t37 74t17.5 85t4 92q0 61 -4 104t-17.5 86.5
t-37 70t-64 43t-96.5 16.5q-114 0 -172.5 -84.5t-58.5 -237.5zM1411 936h-188l-13 559h213z" />
    <glyph glyph-name="Dcroat" unicode="&#x110;" horiz-adv-x="1525" 
d="M35 829h153v582h562q308 0 494 -187.5t186 -500.5q0 -206 -82.5 -369.5t-242 -258.5t-370.5 -95h-547v621h-153v208zM494 1165v-336h299v-208h-299v-375h229q131 0 220.5 63t130 168t40.5 246q0 89 -22.5 166.5t-68 140.5t-122 99t-176.5 36h-231z" />
    <glyph glyph-name="dcroat" unicode="&#x111;" horiz-adv-x="1232" 
d="M811 1495h293v-137h129v-174h-129v-893q0 -195 2 -291h-281q-7 39 -14 125q-45 -75 -114 -112.5t-195 -37.5q-133 0 -232.5 74t-148.5 193.5t-49 265.5q0 154 57 279.5t168.5 200.5t257.5 75q105 0 170 -31t86 -71v223h-465v174h465v137zM373 528q0 -148 58.5 -232.5
t162.5 -84.5q120 0 174.5 89t54.5 230q0 297 -215 297q-107 0 -171 -76t-64 -223z" />
    <glyph glyph-name="Emacron" unicode="&#x112;" horiz-adv-x="1265" 
d="M1141 860v-252h-676v-358h745l-36 -250h-1006v1411h1001v-250h-704v-301h676zM358 1767h631v-206h-631v206z" />
    <glyph glyph-name="emacron" unicode="&#x113;" horiz-adv-x="1136" 
d="M1065 467h-700q0 -108 55 -185t158 -77q44 0 76 8t52.5 25t32.5 34.5t25 44.5h293q-13 -44 -32.5 -85.5t-59 -90t-90.5 -84t-130 -59t-174 -23.5q-102 0 -186 29.5t-142 80t-97.5 119.5t-57.5 147t-18 163q0 259 131.5 415t380.5 156q105 0 189 -30t139 -79.5
t91.5 -118.5t52 -143.5t15.5 -156.5q0 -59 -4 -90zM371 647h403q-2 102 -48 164.5t-146 62.5q-188 0 -209 -227zM281 1452h612v-215h-612v215z" />
    <glyph glyph-name="Ebreve" unicode="&#x114;" horiz-adv-x="1265" 
d="M1141 860v-252h-676v-358h745l-36 -250h-1006v1411h1001v-250h-704v-301h676zM322 1817h206q8 -49 47 -81t99 -32q125 0 149 113h203q-8 -58 -31.5 -108.5t-64 -94t-107.5 -69t-153 -25.5q-71 0 -129 17.5t-96.5 46.5t-65.5 68.5t-40 80t-17 84.5z" />
    <glyph glyph-name="ebreve" unicode="&#x115;" horiz-adv-x="1136" 
d="M1065 467h-700q0 -108 55 -185t158 -77q44 0 76 8t52.5 25t32.5 34.5t25 44.5h293q-13 -44 -32.5 -85.5t-59 -90t-90.5 -84t-130 -59t-174 -23.5q-102 0 -186 29.5t-142 80t-97.5 119.5t-57.5 147t-18 163q0 259 131.5 415t380.5 156q105 0 189 -30t139 -79.5
t91.5 -118.5t52 -143.5t15.5 -156.5q0 -59 -4 -90zM371 647h403q-2 102 -48 164.5t-146 62.5q-188 0 -209 -227zM260 1491h201q29 -109 127 -109q61 0 86.5 28t40.5 81h200q-17 -133 -98 -219t-233 -86q-81 0 -143.5 26t-99.5 70t-57 96.5t-24 112.5z" />
    <glyph glyph-name="Edotaccent" unicode="&#x116;" horiz-adv-x="1265" 
d="M1141 860v-252h-676v-358h745l-36 -250h-1006v1411h1001v-250h-704v-301h676zM819 1554h-291v263h291v-263z" />
    <glyph glyph-name="edotaccent" unicode="&#x117;" horiz-adv-x="1136" 
d="M1065 467h-700q0 -108 55 -185t158 -77q44 0 76 8t52.5 25t32.5 34.5t25 44.5h293q-13 -44 -32.5 -85.5t-59 -90t-90.5 -84t-130 -59t-174 -23.5q-102 0 -186 29.5t-142 80t-97.5 119.5t-57.5 147t-18 163q0 259 131.5 415t380.5 156q105 0 189 -30t139 -79.5
t91.5 -118.5t52 -143.5t15.5 -156.5q0 -59 -4 -90zM371 647h403q-2 102 -48 164.5t-146 62.5q-188 0 -209 -227zM733 1231h-291v260h291v-260z" />
    <glyph glyph-name="Eogonek" unicode="&#x118;" horiz-adv-x="1265" 
d="M1141 860v-252h-676v-358h745l-36 -250h-58q-127 -87 -127 -182q0 -42 28 -65t75 -23q54 0 94 12v-201q-59 -30 -185 -30q-124 0 -195 62t-71 175q0 140 121 252h-688v1411h1001v-250h-704v-301h676z" />
    <glyph glyph-name="eogonek" unicode="&#x119;" horiz-adv-x="1136" 
d="M1065 467h-700q0 -108 55 -185t158 -77q44 0 76 8t52.5 25t32.5 34.5t25 44.5h293q-14 -51 -39.5 -99.5t-77.5 -102.5t-121 -88h4q-127 -87 -127 -183q0 -42 28 -65t75 -23q50 0 94 13v-201q-61 -31 -184 -31q-124 0 -195.5 62.5t-71.5 175.5q0 109 76 202
q-114 9 -201.5 57t-140.5 122.5t-79.5 165t-26.5 192.5q0 259 131.5 415t380.5 156q105 0 189 -30t139 -79.5t91.5 -118.5t52 -143.5t15.5 -156.5q0 -59 -4 -90zM371 647h403q-2 102 -48 164.5t-146 62.5q-188 0 -209 -227z" />
    <glyph glyph-name="Ecaron" unicode="&#x11a;" horiz-adv-x="1265" 
d="M1141 860v-252h-676v-358h745l-36 -250h-1006v1411h1001v-250h-704v-301h676zM801 1532h-275l-268 283h270l138 -144l135 144h272z" />
    <glyph glyph-name="ecaron" unicode="&#x11b;" horiz-adv-x="1136" 
d="M1065 467h-700q0 -108 55 -185t158 -77q44 0 76 8t52.5 25t32.5 34.5t25 44.5h293q-13 -44 -32.5 -85.5t-59 -90t-90.5 -84t-130 -59t-174 -23.5q-102 0 -186 29.5t-142 80t-97.5 119.5t-57.5 147t-18 163q0 259 131.5 415t380.5 156q105 0 189 -30t139 -79.5
t91.5 -118.5t52 -143.5t15.5 -156.5q0 -59 -4 -90zM371 647h403q-2 102 -48 164.5t-146 62.5q-188 0 -209 -227zM713 1188h-252l-238 305h262l105 -152l96 152h264z" />
    <glyph glyph-name="Gcircumflex" unicode="&#x11c;" horiz-adv-x="1538" 
d="M1397 791v-791h-223q-19 68 -25 139q-121 -164 -412 -164q-150 0 -272 55t-201.5 151.5t-122.5 226t-43 280.5q0 159 46.5 295t133 236t218.5 156.5t295 56.5q132 0 243 -35.5t186.5 -97t121.5 -141.5t59 -171h-305q-64 207 -310 207q-84 0 -150 -28t-107 -73.5
t-67.5 -110.5t-37 -133t-10.5 -147q0 -97 19.5 -179.5t61.5 -152.5t117 -110.5t176 -40.5q75 0 132 20.5t90 51.5t53.5 73.5t27.5 81t7 80.5v15h-310v250h609zM631 1815h289l260 -283h-271l-137 143l-135 -143h-272z" />
    <glyph glyph-name="gcircumflex" unicode="&#x11d;" horiz-adv-x="1224" 
d="M1096 756v-627q0 -133 -26.5 -231t-86 -173t-163.5 -113t-251 -38q-111 0 -196.5 24t-135 59t-82 83t-44.5 88t-15 82h299q33 -123 187 -123q70 0 115.5 20.5t69.5 65t33 100t9 138.5v51q-90 -150 -299 -150q-136 0 -236.5 69.5t-151 185t-50.5 259.5q0 247 131.5 403
t331.5 156q121 0 189.5 -43t84.5 -92q1 8 12 111h277q0 -47 -1 -150t-1 -155zM373 539q0 -134 61 -211.5t160 -77.5q124 0 173.5 77t49.5 222q0 73 -8 123t-30.5 93t-66.5 64t-112 21q-101 0 -164 -79t-63 -232zM485 1493h252l238 -305h-262l-105 151l-96 -151h-264z" />
    <glyph glyph-name="Gbreve" unicode="&#x11e;" horiz-adv-x="1538" 
d="M1397 791v-791h-223q-19 68 -25 139q-121 -164 -412 -164q-150 0 -272 55t-201.5 151.5t-122.5 226t-43 280.5q0 159 46.5 295t133 236t218.5 156.5t295 56.5q132 0 243 -35.5t186.5 -97t121.5 -141.5t59 -171h-305q-64 207 -310 207q-84 0 -150 -28t-107 -73.5
t-67.5 -110.5t-37 -133t-10.5 -147q0 -97 19.5 -179.5t61.5 -152.5t117 -110.5t176 -40.5q75 0 132 20.5t90 51.5t53.5 73.5t27.5 81t7 80.5v15h-310v250h609zM422 1831h207q8 -49 46.5 -81t98.5 -32q126 0 150 113h202q-8 -58 -31.5 -108.5t-64 -94t-107.5 -69t-153 -25.5
q-71 0 -129 17.5t-96.5 46.5t-65.5 68.5t-40 80t-17 84.5z" />
    <glyph glyph-name="gbreve" unicode="&#x11f;" horiz-adv-x="1224" 
d="M1096 756v-627q0 -133 -26.5 -231t-86 -173t-163.5 -113t-251 -38q-111 0 -196.5 24t-135 59t-82 83t-44.5 88t-15 82h299q33 -123 187 -123q70 0 115.5 20.5t69.5 65t33 100t9 138.5v51q-90 -150 -299 -150q-136 0 -236.5 69.5t-151 185t-50.5 259.5q0 247 131.5 403
t331.5 156q121 0 189.5 -43t84.5 -92q1 8 12 111h277q0 -47 -1 -150t-1 -155zM373 539q0 -134 61 -211.5t160 -77.5q124 0 173.5 77t49.5 222q0 73 -8 123t-30.5 93t-66.5 64t-112 21q-101 0 -164 -79t-63 -232zM285 1491h200q29 -109 127 -109q61 0 86.5 28t40.5 81h201
q-17 -133 -98.5 -219t-233.5 -86q-81 0 -143.5 26t-99.5 70t-56.5 96.5t-23.5 112.5z" />
    <glyph glyph-name="Gdotaccent" unicode="&#x120;" horiz-adv-x="1538" 
d="M1397 791v-791h-223q-19 68 -25 139q-121 -164 -412 -164q-150 0 -272 55t-201.5 151.5t-122.5 226t-43 280.5q0 159 46.5 295t133 236t218.5 156.5t295 56.5q132 0 243 -35.5t186.5 -97t121.5 -141.5t59 -171h-305q-64 207 -310 207q-84 0 -150 -28t-107 -73.5
t-67.5 -110.5t-37 -133t-10.5 -147q0 -97 19.5 -179.5t61.5 -152.5t117 -110.5t176 -40.5q75 0 132 20.5t90 51.5t53.5 73.5t27.5 81t7 80.5v15h-310v250h609zM918 1552h-291v263h291v-263z" />
    <glyph glyph-name="gdotaccent" unicode="&#x121;" horiz-adv-x="1224" 
d="M1096 756v-627q0 -133 -26.5 -231t-86 -173t-163.5 -113t-251 -38q-111 0 -196.5 24t-135 59t-82 83t-44.5 88t-15 82h299q33 -123 187 -123q70 0 115.5 20.5t69.5 65t33 100t9 138.5v51q-90 -150 -299 -150q-136 0 -236.5 69.5t-151 185t-50.5 259.5q0 247 131.5 403
t331.5 156q121 0 189.5 -43t84.5 -92q1 8 12 111h277q0 -47 -1 -150t-1 -155zM373 539q0 -134 61 -211.5t160 -77.5q124 0 173.5 77t49.5 222q0 73 -8 123t-30.5 93t-66.5 64t-112 21q-101 0 -164 -79t-63 -232zM758 1231h-291v260h291v-260z" />
    <glyph glyph-name="uni0122" unicode="&#x122;" horiz-adv-x="1538" 
d="M1397 791v-791h-223q-19 68 -25 139q-121 -164 -412 -164q-150 0 -272 55t-201.5 151.5t-122.5 226t-43 280.5q0 159 46.5 295t133 236t218.5 156.5t295 56.5q132 0 243 -35.5t186.5 -97t121.5 -141.5t59 -171h-305q-64 207 -310 207q-84 0 -150 -28t-107 -73.5
t-67.5 -110.5t-37 -133t-10.5 -147q0 -97 19.5 -179.5t61.5 -152.5t117 -110.5t176 -40.5q75 0 132 20.5t90 51.5t53.5 73.5t27.5 81t7 80.5v15h-310v250h609zM791 -535h-230q97 232 113 433h289q-9 -108 -60 -238.5t-112 -194.5z" />
    <glyph glyph-name="uni0123" unicode="&#x123;" horiz-adv-x="1224" 
d="M602 1608h252q-115 -271 -125 -406h-283q9 95 53.5 209.5t102.5 196.5zM1096 756v-627q0 -133 -26.5 -231t-86 -173t-163.5 -113t-251 -38q-111 0 -196.5 24t-135 59t-82 83t-44.5 88t-15 82h299q33 -123 187 -123q70 0 115.5 20.5t69.5 65t33 100t9 138.5v51
q-90 -150 -299 -150q-136 0 -236.5 69.5t-151 185t-50.5 259.5q0 247 131.5 403t331.5 156q121 0 189.5 -43t84.5 -92q1 8 12 111h277q0 -47 -1 -150t-1 -155zM373 539q0 -134 61 -211.5t160 -77.5q124 0 173.5 77t49.5 222q0 73 -8 123t-30.5 93t-66.5 64t-112 21
q-101 0 -164 -79t-63 -232z" />
    <glyph glyph-name="Hcircumflex" unicode="&#x124;" horiz-adv-x="1515" 
d="M168 0v1411h305v-549h569v549h306v-1411h-306v610h-569v-610h-305zM616 1815h289l260 -283h-270l-137 143l-135 -143h-273z" />
    <glyph glyph-name="hcircumflex" unicode="&#x125;" horiz-adv-x="1216" 
d="M96 1839h371l215 -244h-283l-118 121l-117 -121h-285zM131 1495h295v-561q97 151 303 151q76 0 139 -23.5t111.5 -71t76 -126.5t27.5 -184v-680h-290v637q0 105 -41 158t-131 53q-59 0 -99 -21t-60.5 -62t-28 -88.5t-7.5 -113.5v-563h-295v1495z" />
    <glyph glyph-name="Hbar" unicode="&#x126;" horiz-adv-x="1515" 
d="M43 1229h125v182h305v-182h569v182h306v-182h125v-203h-125v-1026h-306v610h-569v-610h-305v1026h-125v203zM473 862h569v164h-569v-164z" />
    <glyph glyph-name="hbar" unicode="&#x127;" horiz-adv-x="1216" 
d="M131 1495h295v-137h422v-174h-422v-273q90 152 309 152q159 0 253.5 -96.5t94.5 -307.5v-659h-290v616q0 105 -41 157t-131 52q-195 0 -195 -268v-557h-295v1184h-162v174h162v137z" />
    <glyph glyph-name="Itilde" unicode="&#x128;" horiz-adv-x="641" 
d="M168 1411h305v-1411h-305v1411zM137 1548h-190v72q0 120 50 169.5t146 49.5q59 0 123 -23t114.5 -46t76.5 -23q53 0 53 70v18h184v-51q0 -138 -51.5 -193t-153.5 -55q-47 0 -109 23t-115 46t-79 23q-49 0 -49 -49v-31z" />
    <glyph glyph-name="itilde" unicode="&#x129;" horiz-adv-x="557" 
d="M131 0v1061h295v-1061h-295zM115 1206h-189v70q0 120 50 171.5t141 51.5q53 0 108 -21.5t98.5 -43t69.5 -21.5t38.5 16t12.5 56v18h185v-55q0 -136 -53 -192t-148 -56q-55 0 -107.5 21t-93.5 42t-67 21q-24 0 -34.5 -11t-10.5 -38v-29z" />
    <glyph glyph-name="Imacron" unicode="&#x12a;" horiz-adv-x="641" 
d="M168 1411h305v-1411h-305v1411zM6 1763h631v-207h-631v207z" />
    <glyph glyph-name="imacron" unicode="&#x12b;" horiz-adv-x="557" 
d="M131 0v1061h295v-1061h-295zM-29 1452h613v-215h-613v215z" />
    <glyph glyph-name="Iogonek" unicode="&#x12e;" horiz-adv-x="641" 
d="M168 1411h305v-1411h-20q-127 -87 -127 -182q0 -42 27.5 -65t74.5 -23q54 0 94 12v-201q-59 -30 -184 -30q-124 0 -195 62t-71 175q0 140 121 252h-25v1411z" />
    <glyph glyph-name="iogonek" unicode="&#x12f;" horiz-adv-x="557" 
d="M131 0v1061h295v-1061h-16q-127 -87 -127 -182q0 -42 27.5 -65t74.5 -23q53 0 94 12v-201q-59 -30 -184 -30q-124 0 -195 62t-71 175q0 140 121 252h-19zM426 1233h-295v262h295v-262z" />
    <glyph glyph-name="Idotaccent" unicode="&#x130;" horiz-adv-x="641" 
d="M168 1411h305v-1411h-305v1411zM467 1552h-291v263h291v-263z" />
    <glyph glyph-name="dotlessi" unicode="&#x131;" horiz-adv-x="557" 
d="M131 0v1061h295v-1061h-295z" />
    <glyph glyph-name="Jcircumflex" unicode="&#x134;" horiz-adv-x="825" 
d="M668 1411v-958q0 -250 -94.5 -361.5t-321.5 -111.5q-128 0 -191 18v242q56 -9 140 -9q50 0 83.5 15.5t49.5 46t22 62.5t6 77v979h306zM373 1815h289l260 -283h-271l-137 143l-135 -143h-273z" />
    <glyph glyph-name="jcircumflex" unicode="&#x135;" horiz-adv-x="557" 
d="M131 1061h295v-1038q0 -121 -14.5 -199.5t-52.5 -137.5t-107.5 -85.5t-177.5 -26.5q-40 0 -90 4v236q8 -2 26 -2q70 0 95.5 32t25.5 119v1098zM152 1493h251l238 -305h-262l-105 151l-96 -151h-264z" />
    <glyph glyph-name="uni0136" unicode="&#x136;" horiz-adv-x="1384" 
d="M168 0v1411h301v-629q45 52 257.5 287.5t305.5 341.5h365l-568 -586l590 -825h-366l-435 627l-149 -142v-485h-301zM705 -535h-230q97 232 113 433h289q-9 -108 -60 -238.5t-112 -194.5z" />
    <glyph glyph-name="uni0137" unicode="&#x137;" horiz-adv-x="1140" 
d="M426 1495v-883q27 37 72.5 94t80.5 99.5t107.5 129.5t104.5 126h335l-368 -402l403 -659h-332l-268 471l-135 -131v-340h-295v1495h295zM578 -535h-230q97 232 113 433h289q-9 -108 -60 -238.5t-112 -194.5z" />
    <glyph glyph-name="kgreenlandic" unicode="&#x138;" horiz-adv-x="1132" 
d="M426 1061v-465q44 62 179 235t177 230h336q-73 -84 -213.5 -238.5t-163.5 -179.5q73 -108 217 -335t197 -308h-334q-103 169 -272 451l-123 -127v-324h-295v1061h295z" />
    <glyph glyph-name="Lacute" unicode="&#x139;" horiz-adv-x="1200" 
d="M168 0v1411h305v-1161h705l-35 -250h-975zM455 1817h356l-362 -285h-275z" />
    <glyph glyph-name="lacute" unicode="&#x13a;" horiz-adv-x="557" 
d="M375 1868h356l-325 -264h-273zM426 0h-295v1495h295v-1495z" />
    <glyph glyph-name="uni013B" unicode="&#x13b;" horiz-adv-x="1200" 
d="M168 0v1411h305v-1161h705l-35 -250h-975zM651 -535h-229q97 232 113 433h288q-9 -108 -60 -238.5t-112 -194.5z" />
    <glyph glyph-name="uni013C" unicode="&#x13c;" horiz-adv-x="557" 
d="M426 0h-295v1495h295v-1495zM252 -535h-229q44 106 74 222.5t38 210.5h289q-9 -108 -60 -238.5t-112 -194.5z" />
    <glyph glyph-name="Lcaron" unicode="&#x13d;" horiz-adv-x="1200" 
d="M168 0v1411h305v-1161h705l-35 -250h-975zM942 856h-188l-13 559h213z" />
    <glyph glyph-name="lcaron" unicode="&#x13e;" horiz-adv-x="710" 
d="M426 0h-295v1495h295v-1495zM737 936h-188l-12 559h213z" />
    <glyph glyph-name="Ldot" unicode="&#x13f;" horiz-adv-x="1200" 
d="M1040 625h-297v342h297v-342zM168 0v1411h305v-1161h705l-35 -250h-975z" />
    <glyph glyph-name="ldot" unicode="&#x140;" horiz-adv-x="733" 
d="M774 719h-260v342h260v-342zM426 0h-295v1495h295v-1495z" />
    <glyph glyph-name="Lslash" unicode="&#x141;" horiz-adv-x="1220" 
d="M784 870l-290 -127v-493h704l-35 -250h-975v608l-168 -73v198l168 74v604h306v-469l290 129v-201z" />
    <glyph glyph-name="lslash" unicode="&#x142;" horiz-adv-x="579" 
d="M436 0h-295v614l-118 -61v238l118 61v643h295v-494l135 70v-237l-135 -70v-764z" />
    <glyph glyph-name="Nacute" unicode="&#x143;" horiz-adv-x="1546" 
d="M446 0h-278v1411h379q20 -35 116 -206.5t145 -260t124 -224.5t119 -221.5t63 -129.5h4q-16 147 -16 624v418h276v-1411h-358q-507 921 -584 1096h-4q14 -172 14 -666v-430zM903 1817h357l-363 -285h-274z" />
    <glyph glyph-name="nacute" unicode="&#x144;" horiz-adv-x="1214" 
d="M133 0v793q0 188 -2 268h285q5 -26 12 -135q21 39 53.5 71.5t100 60t153.5 27.5q162 0 256 -107t94 -304v-674h-292v641q0 99 -38.5 153t-131.5 54q-97 0 -146 -60.5t-49 -197.5v-590h-295zM684 1516h348l-327 -304h-256z" />
    <glyph glyph-name="uni0145" unicode="&#x145;" horiz-adv-x="1546" 
d="M446 0h-278v1411h379q20 -35 116 -206.5t145 -260t124 -224.5t119 -221.5t63 -129.5h4q-16 147 -16 624v418h276v-1411h-358q-507 921 -584 1096h-4q14 -172 14 -666v-430zM768 -535h-229q44 106 74 222.5t38 210.5h289q-9 -108 -60 -238.5t-112 -194.5z" />
    <glyph glyph-name="uni0146" unicode="&#x146;" horiz-adv-x="1214" 
d="M133 0v793q0 188 -2 268h285q5 -26 12 -135q21 39 53.5 71.5t100 60t153.5 27.5q162 0 256 -107t94 -304v-674h-292v641q0 99 -38.5 153t-131.5 54q-97 0 -146 -60.5t-49 -197.5v-590h-295zM575 -535h-229q97 232 113 433h289q-9 -107 -60.5 -238t-112.5 -195z" />
    <glyph glyph-name="Ncaron" unicode="&#x147;" horiz-adv-x="1546" 
d="M446 0h-278v1411h379q20 -35 116 -206.5t145 -260t124 -224.5t119 -221.5t63 -129.5h4q-16 147 -16 624v418h276v-1411h-358q-507 921 -584 1096h-4q14 -172 14 -666v-430zM918 1526h-275l-268 282h270l137 -143l136 143h272z" />
    <glyph glyph-name="ncaron" unicode="&#x148;" horiz-adv-x="1214" 
d="M133 0v793q0 188 -2 268h285q5 -26 12 -135q21 39 53.5 71.5t100 60t153.5 27.5q162 0 256 -107t94 -304v-674h-292v641q0 99 -38.5 153t-131.5 54q-97 0 -146 -60.5t-49 -197.5v-590h-295zM731 1206h-252l-237 305h262l104 -151l97 151h264z" />
    <glyph glyph-name="napostrophe" unicode="&#x149;" horiz-adv-x="1214" 
d="M209 1180h-209q54 184 63 428h273q-5 -110 -40 -230.5t-87 -197.5zM133 0v793q0 188 -2 268h285q5 -26 12 -135q21 39 53.5 71.5t100 60t153.5 27.5q162 0 256 -107t94 -304v-674h-292v641q0 99 -38.5 153t-131.5 54q-97 0 -146 -60.5t-49 -197.5v-590h-295z" />
    <glyph glyph-name="Omacron" unicode="&#x14c;" horiz-adv-x="1566" 
d="M793 1432q204 0 357.5 -90t235.5 -253t82 -378q0 -149 -44.5 -280t-129.5 -232.5t-219 -160t-301 -58.5q-162 0 -292 56.5t-213 155t-127 230t-44 285.5t47.5 286.5t135 230t219.5 153t293 55.5zM780 1184q-184 0 -275 -127.5t-91 -343.5q0 -105 23 -192.5t68 -153.5
t116.5 -103t162.5 -37q98 0 171.5 39t115.5 107.5t62 151.5t20 182q0 139 -37.5 243.5t-123 169t-212.5 64.5zM467 1767h631v-206h-631v206z" />
    <glyph glyph-name="omacron" unicode="&#x14d;" horiz-adv-x="1187" 
d="M604 1085q233 0 373.5 -152t140.5 -401q0 -162 -61 -287t-182 -197.5t-285 -72.5q-160 0 -279.5 72.5t-180 196.5t-60.5 282q0 250 143 404.5t391 154.5zM592 854q-105 0 -165 -81t-60 -243q0 -153 61.5 -239t167.5 -86q108 0 166.5 85t58.5 238q0 326 -229 326z
M287 1452h612v-215h-612v215z" />
    <glyph glyph-name="Ohungarumlaut" unicode="&#x150;" horiz-adv-x="1566" 
d="M793 1432q204 0 357.5 -90t235.5 -253t82 -378q0 -149 -44.5 -280t-129.5 -232.5t-219 -160t-301 -58.5q-162 0 -292 56.5t-213 155t-127 230t-44 285.5t47.5 286.5t135 230t219.5 153t293 55.5zM780 1184q-184 0 -275 -127.5t-91 -343.5q0 -105 23 -192.5t68 -153.5
t116.5 -103t162.5 -37q98 0 171.5 39t115.5 107.5t62 151.5t20 182q0 139 -37.5 243.5t-123 169t-212.5 64.5zM639 1817h309l-309 -285h-229zM1071 1817h307l-307 -285h-231z" />
    <glyph glyph-name="ohungarumlaut" unicode="&#x151;" horiz-adv-x="1187" 
d="M604 1085q233 0 373.5 -152t140.5 -401q0 -162 -61 -287t-182 -197.5t-285 -72.5q-160 0 -279.5 72.5t-180 196.5t-60.5 282q0 250 143 404.5t391 154.5zM592 854q-105 0 -165 -81t-60 -243q0 -153 61.5 -239t167.5 -86q108 0 166.5 85t58.5 238q0 326 -229 326z
M459 1188h-217l202 307h293zM879 1188h-220l205 307h289z" />
    <glyph glyph-name="OE" unicode="&#x152;" horiz-adv-x="2107" 
d="M2011 1411v-254h-659v-295h628v-256h-628v-352h700l-37 -254h-880q-4 0 -52 -4.5t-110 -8t-129 -3.5q-150 0 -274.5 37.5t-211 104t-145.5 158t-87 197t-28 224.5q0 109 30.5 213t94.5 196t154.5 161t219.5 109.5t280 40.5q160 0 272 -14h862zM1057 244v917
q-48 17 -191 17q-205 0 -328.5 -122.5t-123.5 -344.5q0 -211 117.5 -345.5t326.5 -134.5q132 0 199 13z" />
    <glyph glyph-name="oe" unicode="&#x153;" horiz-adv-x="1888" 
d="M1321 -25q-227 0 -356 146q-143 -146 -375 -146q-160 0 -279.5 72.5t-180 196.5t-60.5 282q0 250 143 404.5t391 154.5q229 0 365 -149q136 149 362 149q102 0 185 -29t139 -77.5t94 -115t55 -139t17 -151.5q0 -75 -4 -106h-701q0 -109 55 -185.5t158 -76.5
q77 0 119 29.5t65 82.5h295q-13 -45 -33 -86t-59.5 -89.5t-90.5 -83.5t-130 -59t-174 -24zM592 854q-105 0 -165 -81t-60 -243q0 -153 61.5 -239t167.5 -86q108 0 166.5 85t58.5 238q0 326 -229 326zM1122 647h404q-2 104 -49.5 165t-145.5 62q-96 1 -148 -60t-61 -167z" />
    <glyph glyph-name="Racute" unicode="&#x154;" horiz-adv-x="1355" 
d="M668 565h-201v-565h-299v1411h620q223 0 348.5 -108.5t125.5 -278.5q0 -130 -59 -213.5t-146 -120.5q176 -68 176 -352v-70q0 -202 20 -268h-290q-29 71 -29 317v21q0 62 -10 101t-38 69.5t-81 43.5t-137 13zM467 1169v-360h256q122 0 176.5 45t54.5 135q0 87 -57 133.5
t-168 46.5h-262zM807 1817h356l-362 -285h-275z" />
    <glyph glyph-name="racute" unicode="&#x155;" horiz-adv-x="806" 
d="M131 0v772q0 199 -2 289h289q8 -50 8 -187q37 95 123.5 152.5t216.5 58.5v-280q-68 2 -117.5 -5t-93.5 -29t-71 -60t-42.5 -100t-15.5 -148v-463h-295zM512 1516h348l-328 -304h-256z" />
    <glyph glyph-name="uni0156" unicode="&#x156;" horiz-adv-x="1355" 
d="M668 565h-201v-565h-299v1411h620q223 0 348.5 -108.5t125.5 -278.5q0 -130 -59 -213.5t-146 -120.5q176 -68 176 -352v-70q0 -202 20 -268h-290q-29 71 -29 317v21q0 62 -10 101t-38 69.5t-81 43.5t-137 13zM467 1169v-360h256q122 0 176.5 45t54.5 135q0 87 -57 133.5
t-168 46.5h-262zM686 -535h-229q44 106 74 222.5t38 210.5h289q-9 -108 -60 -238.5t-112 -194.5z" />
    <glyph glyph-name="uni0157" unicode="&#x157;" horiz-adv-x="806" 
d="M131 0v772q0 199 -2 289h289q8 -50 8 -187q37 95 123.5 152.5t216.5 58.5v-280q-68 2 -117.5 -5t-93.5 -29t-71 -60t-42.5 -100t-15.5 -148v-463h-295zM252 -535h-229q44 106 74 222.5t38 210.5h289q-9 -108 -60 -238.5t-112 -194.5z" />
    <glyph glyph-name="Rcaron" unicode="&#x158;" horiz-adv-x="1355" 
d="M668 565h-201v-565h-299v1411h620q223 0 348.5 -108.5t125.5 -278.5q0 -130 -59 -213.5t-146 -120.5q176 -68 176 -352v-70q0 -202 20 -268h-290q-29 71 -29 317v21q0 62 -10 101t-38 69.5t-81 43.5t-137 13zM467 1169v-360h256q122 0 176.5 45t54.5 135q0 87 -57 133.5
t-168 46.5h-262zM821 1532h-274l-268 283h270l137 -144l135 144h273z" />
    <glyph glyph-name="rcaron" unicode="&#x159;" horiz-adv-x="806" 
d="M131 0v772q0 199 -2 289h289q8 -50 8 -187q37 95 123.5 152.5t216.5 58.5v-280q-68 2 -117.5 -5t-93.5 -29t-71 -60t-42.5 -100t-15.5 -148v-463h-295zM565 1188h-252l-237 305h262l104 -152l97 152h264z" />
    <glyph glyph-name="Sacute" unicode="&#x15a;" horiz-adv-x="1300" 
d="M68 414h307q48 -205 297 -205q119 0 176 44t57 124q0 88 -64 134t-245 87q-141 33 -236.5 76.5t-148 98t-73.5 113t-21 134.5q0 188 136 300t382 112q135 0 239.5 -34t167 -93t96.5 -129t42 -152h-308q-7 37 -20 66t-39.5 57t-73.5 43.5t-112 15.5q-95 0 -147 -38.5
t-52 -112.5t59 -113.5t230 -77.5q150 -36 250.5 -82.5t154 -105t74.5 -120t21 -142.5q0 -197 -147.5 -315.5t-420.5 -118.5q-260 0 -407.5 116.5t-173.5 317.5zM778 1819h357l-363 -285h-274z" />
    <glyph glyph-name="sacute" unicode="&#x15b;" horiz-adv-x="1056" 
d="M59 319h289q36 -133 201 -133q79 0 113 26.5t34 78.5q0 50 -40 76.5t-156 54.5q-127 31 -208.5 67.5t-123 80.5t-56 88t-14.5 106q0 49 13.5 93.5t45.5 86.5t80 73t122.5 49.5t166.5 18.5q93 0 168.5 -19.5t124 -51.5t82 -74.5t48.5 -85.5t18 -88h-279q-29 113 -174 113
q-67 0 -98 -26t-31 -65q0 -41 39.5 -64.5t165.5 -53.5q129 -30 212 -67.5t124 -85.5t55 -94.5t14 -111.5q0 -68 -26.5 -127t-80 -106.5t-143 -75t-206.5 -27.5q-118 0 -207.5 27t-145 75t-86.5 108t-41 134zM604 1516h348l-327 -304h-256z" />
    <glyph glyph-name="Scircumflex" unicode="&#x15c;" horiz-adv-x="1300" 
d="M68 414h307q48 -205 297 -205q119 0 176 44t57 124q0 88 -64 134t-245 87q-141 33 -236.5 76.5t-148 98t-73.5 113t-21 134.5q0 188 136 300t382 112q135 0 239.5 -34t167 -93t96.5 -129t42 -152h-308q-7 37 -20 66t-39.5 57t-73.5 43.5t-112 15.5q-95 0 -147 -38.5
t-52 -112.5t59 -113.5t230 -77.5q150 -36 250.5 -82.5t154 -105t74.5 -120t21 -142.5q0 -197 -147.5 -315.5t-420.5 -118.5q-260 0 -407.5 116.5t-173.5 317.5zM508 1815h289l260 -283h-271l-137 143l-135 -143h-272z" />
    <glyph glyph-name="scircumflex" unicode="&#x15d;" horiz-adv-x="1056" 
d="M59 319h289q36 -133 201 -133q79 0 113 26.5t34 78.5q0 50 -40 76.5t-156 54.5q-127 31 -208.5 67.5t-123 80.5t-56 88t-14.5 106q0 49 13.5 93.5t45.5 86.5t80 73t122.5 49.5t166.5 18.5q93 0 168.5 -19.5t124 -51.5t82 -74.5t48.5 -85.5t18 -88h-279q-29 113 -174 113
q-67 0 -98 -26t-31 -65q0 -41 39.5 -64.5t165.5 -53.5q129 -30 212 -67.5t124 -85.5t55 -94.5t14 -111.5q0 -68 -26.5 -127t-80 -106.5t-143 -75t-206.5 -27.5q-118 0 -207.5 27t-145 75t-86.5 108t-41 134zM401 1493h252l238 -305h-262l-105 151l-96 -151h-264z" />
    <glyph glyph-name="uni015E" unicode="&#x15e;" horiz-adv-x="1300" 
d="M68 414h307q48 -205 297 -205q119 0 176 44t57 124q0 88 -64 134t-245 87q-141 33 -236.5 76.5t-148 98t-73.5 113t-21 134.5q0 188 136 300t382 112q135 0 239.5 -34t167 -93t96.5 -129t42 -152h-308q-7 37 -20 66t-39.5 57t-73.5 43.5t-112 15.5q-95 0 -147 -38.5
t-52 -112.5t59 -113.5t230 -77.5q150 -36 250.5 -82.5t154 -105t74.5 -120t21 -142.5q0 -172 -113.5 -285.5t-327.5 -140.5l-74 -82q179 -45 179 -195q0 -51 -19 -89.5t-48 -61.5t-69 -37.5t-77 -19.5t-78 -5q-101 0 -152 21v155q81 -12 113 -12q51 0 70.5 12t19.5 39
q0 20 -14.5 34.5t-41.5 21.5t-54.5 10.5t-65.5 5.5v70l108 127q-226 18 -353.5 132t-151.5 300z" />
    <glyph glyph-name="uni015F" unicode="&#x15f;" horiz-adv-x="1056" 
d="M59 319h289q36 -133 201 -133q79 0 113 26.5t34 78.5q0 50 -40 76.5t-156 54.5q-127 31 -208.5 67.5t-123 80.5t-56 88t-14.5 106q0 49 13.5 93.5t45.5 86.5t80 73t122.5 49.5t166.5 18.5q93 0 168.5 -19.5t124 -51.5t82 -74.5t48.5 -85.5t18 -88h-279q-29 113 -174 113
q-67 0 -98 -26t-31 -65q0 -41 39.5 -64.5t165.5 -53.5q129 -30 212 -67.5t124 -85.5t55 -94.5t14 -111.5q0 -124 -86 -213.5t-258 -113.5l-69 -78q178 -44 178 -195q0 -51 -19 -89.5t-48 -61.5t-69 -37.5t-77 -19.5t-78 -5q-101 0 -152 21v155q81 -12 113 -12q51 0 70.5 12
t19.5 39q0 20 -14.5 34.5t-41.5 21.5t-54.5 10.5t-65.5 5.5v70l107 125q-184 19 -278.5 110t-113.5 229z" />
    <glyph glyph-name="Scaron" unicode="&#x160;" horiz-adv-x="1300" 
d="M68 414h307q48 -205 297 -205q119 0 176 44t57 124q0 88 -64 134t-245 87q-141 33 -236.5 76.5t-148 98t-73.5 113t-21 134.5q0 188 136 300t382 112q135 0 239.5 -34t167 -93t96.5 -129t42 -152h-308q-7 37 -20 66t-39.5 57t-73.5 43.5t-112 15.5q-95 0 -147 -38.5
t-52 -112.5t59 -113.5t230 -77.5q150 -36 250.5 -82.5t154 -105t74.5 -120t21 -142.5q0 -197 -147.5 -315.5t-420.5 -118.5q-260 0 -407.5 116.5t-173.5 317.5zM784 1532h-274l-268 283h270l137 -144l135 144h273z" />
    <glyph glyph-name="scaron" unicode="&#x161;" horiz-adv-x="1056" 
d="M59 319h289q36 -133 201 -133q79 0 113 26.5t34 78.5q0 50 -40 76.5t-156 54.5q-127 31 -208.5 67.5t-123 80.5t-56 88t-14.5 106q0 49 13.5 93.5t45.5 86.5t80 73t122.5 49.5t166.5 18.5q93 0 168.5 -19.5t124 -51.5t82 -74.5t48.5 -85.5t18 -88h-279q-29 113 -174 113
q-67 0 -98 -26t-31 -65q0 -41 39.5 -64.5t165.5 -53.5q129 -30 212 -67.5t124 -85.5t55 -94.5t14 -111.5q0 -68 -26.5 -127t-80 -106.5t-143 -75t-206.5 -27.5q-118 0 -207.5 27t-145 75t-86.5 108t-41 134zM653 1188h-252l-237 305h262l104 -152l97 152h264z" />
    <glyph glyph-name="uni0162" unicode="&#x162;" horiz-adv-x="1204" 
d="M451 0v1161h-431v250h1164v-250h-428v-1161h-35l-86 -94q178 -44 178 -195q0 -51 -19 -89.5t-48 -61.5t-69 -37.5t-77 -19.5t-78 -5q-100 0 -151 21v155q81 -12 112 -12q51 0 70.5 12t19.5 39q0 20 -14.5 34.5t-41.5 21.5t-54.5 10.5t-65.5 5.5v70l123 145h-69z" />
    <glyph glyph-name="uni0163" unicode="&#x163;" horiz-adv-x="743" 
d="M29 840v221h164v287h292v-287h209v-221h-209v-525q0 -61 24 -85.5t89 -24.5q46 0 66 2v-201q-39 -14 -115 -18l-74 -82q178 -44 178 -195q0 -51 -19 -89.5t-48 -61.5t-69 -37.5t-77 -19.5t-78 -5q-100 0 -151 21v155q81 -12 113 -12q51 0 70.5 12t19.5 39
q0 20 -14.5 34.5t-41.5 21.5t-54.5 10.5t-65.5 5.5v70l122 143q-90 25 -128.5 96t-38.5 189v557h-164z" />
    <glyph glyph-name="Tcaron" unicode="&#x164;" horiz-adv-x="1204" 
d="M451 0v1161h-431v250h1164v-250h-428v-1161h-305zM737 1532h-274l-268 283h270l137 -144l135 144h273z" />
    <glyph glyph-name="tcaron" unicode="&#x165;" horiz-adv-x="743" 
d="M805 1178h-170l-6 479h213zM29 840v221h164v287h292v-287h209v-221h-209v-525q0 -61 24 -85.5t89 -24.5q46 0 66 2v-201q-57 -20 -197 -20q-149 0 -211.5 75t-62.5 222v557h-164z" />
    <glyph glyph-name="Utilde" unicode="&#x168;" horiz-adv-x="1484" 
d="M150 1411h305v-840q0 -98 23.5 -169t66 -109.5t92.5 -56t111 -17.5q137 0 209.5 83t72.5 269v840h307v-825q0 -606 -594 -606q-593 0 -593 600v831zM559 1550h-190v72q0 120 50 169.5t146 49.5q59 0 123 -23t114.5 -46t76.5 -23q53 0 53 70v18h184v-51q0 -138 -51.5 -193
t-153.5 -55q-47 0 -109 23t-115 46t-79 23q-49 0 -49 -49v-31z" />
    <glyph glyph-name="utilde" unicode="&#x169;" horiz-adv-x="1198" 
d="M1065 1061v-754q0 -213 2 -307h-287q-2 16 -8 123q-46 -78 -117 -113t-176 -35q-165 0 -258.5 100.5t-93.5 293.5v692h293v-633q0 -213 164 -213q101 0 144.5 63t43.5 218v565h293zM434 1206h-188v70q0 120 49.5 171.5t140.5 51.5q53 0 108 -21.5t99 -43t70 -21.5
t38.5 16t12.5 56v18h184v-55q0 -136 -52.5 -192t-147.5 -56q-55 0 -108 21t-94 42t-67 21q-24 0 -34.5 -11t-10.5 -38v-29z" />
    <glyph glyph-name="Umacron" unicode="&#x16a;" horiz-adv-x="1484" 
d="M150 1411h305v-840q0 -98 23.5 -169t66 -109.5t92.5 -56t111 -17.5q137 0 209.5 83t72.5 269v840h307v-825q0 -606 -594 -606q-593 0 -593 600v831zM428 1767h631v-206h-631v206z" />
    <glyph glyph-name="umacron" unicode="&#x16b;" horiz-adv-x="1198" 
d="M1065 1061v-754q0 -213 2 -307h-287q-2 16 -8 123q-46 -78 -117 -113t-176 -35q-165 0 -258.5 100.5t-93.5 293.5v692h293v-633q0 -213 164 -213q101 0 144.5 63t43.5 218v565h293zM291 1452h612v-215h-612v215z" />
    <glyph glyph-name="Ubreve" unicode="&#x16c;" horiz-adv-x="1484" 
d="M150 1411h305v-840q0 -98 23.5 -169t66 -109.5t92.5 -56t111 -17.5q137 0 209.5 83t72.5 269v840h307v-825q0 -606 -594 -606q-593 0 -593 600v831zM391 1817h207q8 -49 46.5 -81t98.5 -32q126 0 150 113h203q-8 -58 -31.5 -108.5t-64.5 -94t-108 -69t-153 -25.5
q-71 0 -129 17.5t-96.5 46.5t-65.5 68.5t-40 80t-17 84.5z" />
    <glyph glyph-name="ubreve" unicode="&#x16d;" horiz-adv-x="1198" 
d="M1065 1061v-754q0 -213 2 -307h-287q-2 16 -8 123q-46 -78 -117 -113t-176 -35q-165 0 -258.5 100.5t-93.5 293.5v692h293v-633q0 -213 164 -213q101 0 144.5 63t43.5 218v565h293zM270 1491h201q29 -109 127 -109q61 0 86.5 28t40.5 81h201q-17 -133 -98.5 -219
t-233.5 -86q-81 0 -143.5 26t-99.5 70t-57 96.5t-24 112.5z" />
    <glyph glyph-name="Uring" unicode="&#x16e;" horiz-adv-x="1484" 
d="M150 1411h305v-840q0 -98 23.5 -169t66 -109.5t92.5 -56t111 -17.5q137 0 209.5 83t72.5 269v840h307v-825q0 -606 -594 -606q-593 0 -593 600v831zM745 1487q-116 0 -182.5 58.5t-66.5 150.5t66 151.5t183 59.5q116 0 181 -58t65 -151t-67.5 -152t-178.5 -59zM741 1608
q49 0 75 25t26 63t-25.5 65t-73.5 27q-49 0 -72.5 -26t-23.5 -64q0 -37 23.5 -63.5t70.5 -26.5z" />
    <glyph glyph-name="uring" unicode="&#x16f;" horiz-adv-x="1198" 
d="M1065 1061v-754q0 -213 2 -307h-287q-2 16 -8 123q-46 -78 -117 -113t-176 -35q-165 0 -258.5 100.5t-93.5 293.5v692h293v-633q0 -213 164 -213q101 0 144.5 63t43.5 218v565h293zM600 1169q-116 0 -183 58.5t-67 150.5q0 91 66.5 151t183.5 60q116 0 181 -58t65 -151
t-67.5 -152t-178.5 -59zM596 1290q49 0 74.5 25t25.5 63t-25 65t-73 27q-49 0 -72.5 -26t-23.5 -64q0 -37 23.5 -63.5t70.5 -26.5z" />
    <glyph glyph-name="Uhungarumlaut" unicode="&#x170;" horiz-adv-x="1484" 
d="M150 1411h305v-840q0 -98 23.5 -169t66 -109.5t92.5 -56t111 -17.5q137 0 209.5 83t72.5 269v840h307v-825q0 -606 -594 -606q-593 0 -593 600v831zM600 1819h309l-309 -285h-229zM1032 1819h307l-307 -285h-231z" />
    <glyph glyph-name="uhungarumlaut" unicode="&#x171;" horiz-adv-x="1198" 
d="M1065 1061v-754q0 -213 2 -307h-287q-2 16 -8 123q-46 -78 -117 -113t-176 -35q-165 0 -258.5 100.5t-93.5 293.5v692h293v-633q0 -213 164 -213q101 0 144.5 63t43.5 218v565h293zM463 1188h-217l203 307h292zM883 1188h-219l204 307h289z" />
    <glyph glyph-name="Uogonek" unicode="&#x172;" horiz-adv-x="1484" 
d="M150 1411h305v-840q0 -98 23.5 -169t66 -109.5t92.5 -56t111 -17.5q137 0 209.5 83t72.5 269v840h307v-825q0 -469 -352 -576q-115 -79 -115 -172q0 -42 28 -65t75 -23q53 0 94 12v-200q-61 -31 -184 -31q-124 0 -195.5 62.5t-71.5 175.5q0 112 82 211q-548 22 -548 600
v831z" />
    <glyph glyph-name="uogonek" unicode="&#x173;" horiz-adv-x="1198" 
d="M1065 1061v-754q0 -213 2 -307h-10q-127 -87 -127 -182q0 -42 27.5 -65t74.5 -23q54 0 94 12v-201q-59 -30 -184 -30q-124 0 -195 62t-71 175q0 140 121 252h-17q-2 16 -8 123q-46 -78 -117 -113t-176 -35q-165 0 -258.5 100.5t-93.5 293.5v692h293v-633q0 -213 164 -213
q101 0 144.5 63t43.5 218v565h293z" />
    <glyph glyph-name="Wcircumflex" unicode="&#x174;" horiz-adv-x="1947" 
d="M711 0h-316l-360 1411h325q67 -324 89.5 -435.5t56 -281t45.5 -244t18 -131.5h2q30 149 138 563.5t135 528.5h274q69 -253 149.5 -577.5t112.5 -499.5h2q16 108 51 275.5t64 291t71 300t50 210.5h295l-381 -1411h-318q-24 102 -121.5 487.5t-125.5 524.5h-2
q-50 -247 -254 -1012zM831 1815h289l260 -283h-270l-137 143l-135 -143h-273z" />
    <glyph glyph-name="wcircumflex" unicode="&#x175;" horiz-adv-x="1646" 
d="M35 1061h309q143 -634 168 -801h4q62 322 182 801h273q14 -62 33 -145t29.5 -128t24 -105.5t21 -93t17 -75.5t14 -66.5t10.5 -53t9.5 -48t6.5 -38t5 -36.5h2q68 321 178 789h291l-316 -1061h-313q-146 666 -162 754h-2q-17 -143 -168 -754h-315zM696 1493h252l238 -305
h-262l-105 151l-96 -151h-264z" />
    <glyph glyph-name="Ycircumflex" unicode="&#x176;" horiz-adv-x="1267" 
d="M784 0h-305v500q0 26 -12 45l-487 866h346q203 -398 321 -649q65 158 322 649h319l-493 -862q-11 -27 -11 -45v-504zM494 1815h288l260 -283h-270l-137 143l-135 -143h-273z" />
    <glyph glyph-name="ycircumflex" unicode="&#x177;" horiz-adv-x="1062" 
d="M10 1061h316q204 -687 221 -791h2q37 169 211 791h293l-357 -1092q-76 -233 -164 -314t-276 -81q-69 0 -137 8v236q40 -4 76 -4q83 0 127.5 33t74.5 120zM406 1493h251l238 -305h-262l-105 151l-96 -151h-264z" />
    <glyph glyph-name="Ydieresis" unicode="&#x178;" horiz-adv-x="1267" 
d="M784 0h-305v500q0 26 -12 45l-487 866h346q203 -398 321 -649q65 158 322 649h319l-493 -862q-11 -27 -11 -45v-504zM549 1546h-236v260h236v-260zM956 1546h-235v260h235v-260z" />
    <glyph glyph-name="Zacute" unicode="&#x179;" horiz-adv-x="1263" 
d="M59 0v223l777 938h-742v250h1088v-246l-748 -915h789l-39 -250h-1125zM743 1819h357l-363 -285h-274z" />
    <glyph glyph-name="zacute" unicode="&#x17a;" horiz-adv-x="1003" 
d="M61 0v221l525 608h-500v232h832v-230l-515 -600h551l-34 -231h-859zM578 1516h348l-328 -304h-256z" />
    <glyph glyph-name="Zdotaccent" unicode="&#x17b;" horiz-adv-x="1263" 
d="M59 0v223l777 938h-742v250h1088v-246l-748 -915h789l-39 -250h-1125zM778 1556h-291v263h291v-263z" />
    <glyph glyph-name="zdotaccent" unicode="&#x17c;" horiz-adv-x="1003" 
d="M61 0v221l525 608h-500v232h832v-230l-515 -600h551l-34 -231h-859zM647 1231h-291v260h291v-260z" />
    <glyph glyph-name="Zcaron" unicode="&#x17d;" horiz-adv-x="1263" 
d="M59 0v223l777 938h-742v250h1088v-246l-748 -915h789l-39 -250h-1125zM768 1544h-274l-269 283h271l137 -144l135 144h272z" />
    <glyph glyph-name="zcaron" unicode="&#x17e;" horiz-adv-x="1003" 
d="M61 0v221l525 608h-500v232h832v-230l-515 -600h551l-34 -231h-859zM627 1188h-252l-238 305h262l105 -152l96 152h264z" />
    <glyph glyph-name="uni018F" unicode="&#x18f;" horiz-adv-x="1495" 
d="M1397 717q-1 -125 -26.5 -234.5t-79 -202t-131 -159t-187 -104t-242.5 -37.5q-137 0 -246.5 37.5t-182 101t-121.5 152.5t-70 187t-21 208q0 38 6 112h989q-2 87 -22.5 159t-62 129t-110.5 88.5t-161 31.5q-129 0 -208 -47t-122 -146h-293q25 87 73 162.5t123 139
t188 100.5t251 37q132 0 241.5 -38t185.5 -104.5t128.5 -157t77 -195.5t23.5 -220zM1079 557h-680q5 -156 93.5 -246t240.5 -90q305 0 346 336z" />
    <glyph glyph-name="florin" unicode="&#x192;" horiz-adv-x="1122" 
d="M1102 1386l-51 -215q-52 21 -109 21q-72 0 -107.5 -56.5t-50.5 -160.5l-16 -103h213v-213h-246l-67 -438q-13 -83 -30.5 -148t-48 -126t-72 -100.5t-103.5 -63t-140 -23.5q-143 0 -213 47l52 224q53 -29 125 -29q63 0 88 49t47 185l71 423h-180v213h215l10 64
q9 59 21 109.5t32.5 109t52 104t73.5 84t102.5 59.5t134.5 21q139 0 197 -37z" />
    <glyph glyph-name="Ohorn" unicode="&#x1a0;" horiz-adv-x="1566" 
d="M793 1432q225 0 387 -109q69 25 69 92q0 61 -24 135h256q16 -56 16 -129q0 -84 -39 -151.5t-119 -104.5q129 -183 129 -454q0 -149 -44.5 -280t-129.5 -232.5t-219 -160t-301 -58.5q-162 0 -292 56.5t-213 155t-127 230t-44 285.5t47.5 286.5t135 230t219.5 153t293 55.5
zM780 1184q-184 0 -275 -127.5t-91 -343.5q0 -105 23 -192.5t68 -153.5t116.5 -103t162.5 -37q98 0 171.5 39t115.5 107.5t62 151.5t20 182q0 139 -37.5 243.5t-123 169t-212.5 64.5z" />
    <glyph glyph-name="ohorn" unicode="&#x1a1;" horiz-adv-x="1187" 
d="M604 1085q180 0 309 -94q66 25 66 90q0 59 -25 136h256q17 -59 17 -130q0 -89 -43 -158.5t-131 -103.5q65 -124 65 -293q0 -162 -61 -287t-182 -197.5t-285 -72.5q-160 0 -279.5 72.5t-180 196.5t-60.5 282q0 250 143 404.5t391 154.5zM592 854q-105 0 -165 -81t-60 -243
q0 -153 61.5 -239t167.5 -86q108 0 166.5 85t58.5 238q0 326 -229 326z" />
    <glyph glyph-name="Uhorn" unicode="&#x1af;" horiz-adv-x="1484" 
d="M150 1411h305v-840q0 -98 23.5 -169t66 -109.5t92.5 -56t111 -17.5q137 0 209.5 83t72.5 269v840h184q84 21 84 96q0 61 -24 135h256q16 -56 16 -129q0 -97 -52 -170.5t-157 -101.5v-655q0 -606 -594 -606q-593 0 -593 600v831z" />
    <glyph glyph-name="uhorn" unicode="&#x1b0;" horiz-adv-x="1198" 
d="M772 123q-46 -78 -117 -113t-176 -35q-165 0 -258.5 100.5t-93.5 293.5v692h293v-633q0 -213 164 -213q101 0 144.5 63t43.5 218v565h129q46 9 70 34.5t24 63.5q0 61 -24 135h256q16 -56 16 -129q0 -90 -44 -160t-134 -104v-594q0 -213 2 -307h-287q-2 16 -8 123z" />
    <glyph glyph-name="uni01CD" unicode="&#x1cd;" horiz-adv-x="1409" 
d="M948 326h-516l-108 -326h-301l479 1411h383l501 -1411h-321zM498 575h385q-165 492 -199 617h-2q-37 -145 -184 -617zM838 1532h-275l-268 283h270l137 -144l136 144h272z" />
    <glyph glyph-name="uni01CE" unicode="&#x1ce;" horiz-adv-x="1144" 
d="M1012 719v-445q0 -75 4.5 -165t9.5 -109h-281q-14 35 -14 104q-85 -129 -299 -129q-92 0 -164 28.5t-114 76.5t-63 105.5t-21 121.5q0 177 132 266t371 89h152v63q0 67 -35 108t-129 41q-86 0 -120 -32t-44 -97h-278q5 74 31.5 133t78.5 107t139 74t205 26
q217 -2 328 -90.5t111 -275.5zM725 455v28h-119q-130 0 -187 -39t-57 -118q0 -61 39.5 -101.5t114.5 -40.5q67 0 110.5 21.5t64 63t27.5 84t7 102.5zM700 1188h-251l-238 305h262l105 -152l96 152h264z" />
    <glyph glyph-name="uni01CF" unicode="&#x1cf;" horiz-adv-x="641" 
d="M168 1411h305v-1411h-305v1411zM457 1532h-275l-268 283h270l138 -144l135 144h272z" />
    <glyph glyph-name="uni01D0" unicode="&#x1d0;" horiz-adv-x="557" 
d="M131 0v1061h295v-1061h-295zM403 1188h-251l-238 305h262l105 -152l96 152h264z" />
    <glyph glyph-name="uni01D1" unicode="&#x1d1;" horiz-adv-x="1566" 
d="M793 1432q204 0 357.5 -90t235.5 -253t82 -378q0 -149 -44.5 -280t-129.5 -232.5t-219 -160t-301 -58.5q-162 0 -292 56.5t-213 155t-127 230t-44 285.5t47.5 286.5t135 230t219.5 153t293 55.5zM780 1184q-184 0 -275 -127.5t-91 -343.5q0 -105 23 -192.5t68 -153.5
t116.5 -103t162.5 -37q98 0 171.5 39t115.5 107.5t62 151.5t20 182q0 139 -37.5 243.5t-123 169t-212.5 64.5zM918 1534h-275l-268 283h270l137 -144l136 144h272z" />
    <glyph glyph-name="uni01D2" unicode="&#x1d2;" horiz-adv-x="1187" 
d="M604 1085q233 0 373.5 -152t140.5 -401q0 -162 -61 -287t-182 -197.5t-285 -72.5q-160 0 -279.5 72.5t-180 196.5t-60.5 282q0 250 143 404.5t391 154.5zM592 854q-105 0 -165 -81t-60 -243q0 -153 61.5 -239t167.5 -86q108 0 166.5 85t58.5 238q0 326 -229 326z
M719 1188h-252l-238 305h263l104 -152l96 152h264z" />
    <glyph glyph-name="uni01D3" unicode="&#x1d3;" horiz-adv-x="1484" 
d="M150 1411h305v-840q0 -98 23.5 -169t66 -109.5t92.5 -56t111 -17.5q137 0 209.5 83t72.5 269v840h307v-825q0 -606 -594 -606q-593 0 -593 600v831zM879 1534h-275l-268 283h270l137 -144l136 144h272z" />
    <glyph glyph-name="uni01D4" unicode="&#x1d4;" horiz-adv-x="1198" 
d="M1065 1061v-754q0 -213 2 -307h-287q-2 16 -8 123q-46 -78 -117 -113t-176 -35q-165 0 -258.5 100.5t-93.5 293.5v692h293v-633q0 -213 164 -213q101 0 144.5 63t43.5 218v565h293zM723 1188h-252l-238 305h263l104 -152l96 152h265z" />
    <glyph glyph-name="uni01D5" unicode="&#x1d5;" horiz-adv-x="1484" 
d="M150 1411h305v-840q0 -98 23.5 -169t66 -109.5t92.5 -56t111 -17.5q137 0 209.5 83t72.5 269v840h307v-825q0 -606 -594 -606q-593 0 -593 600v831zM649 1534h-235v215h235v-215zM1042 1845h-600v180h600v-180zM1073 1534h-237v215h237v-215z" />
    <glyph glyph-name="uni01D6" unicode="&#x1d6;" horiz-adv-x="1198" 
d="M1065 1061v-754q0 -213 2 -307h-287q-2 16 -8 123q-46 -78 -117 -113t-176 -35q-165 0 -258.5 100.5t-93.5 293.5v692h293v-633q0 -213 164 -213q101 0 144.5 63t43.5 218v565h293zM512 1169h-238v217h238v-217zM899 1493h-602v176h602v-176zM922 1169h-238v217h238v-217
z" />
    <glyph glyph-name="uni01D7" unicode="&#x1d7;" horiz-adv-x="1484" 
d="M150 1411h305v-840q0 -98 23.5 -169t66 -109.5t92.5 -56t111 -17.5q137 0 209.5 83t72.5 269v840h307v-825q0 -606 -594 -606q-593 0 -593 600v831zM414 1743h235v-215h-235v215zM608 1810l199 238h344l-297 -238h-246zM1073 1528h-237v215h237v-215z" />
    <glyph glyph-name="uni01D8" unicode="&#x1d8;" horiz-adv-x="1198" 
d="M1065 1061v-754q0 -213 2 -307h-287q-2 16 -8 123q-46 -78 -117 -113t-176 -35q-165 0 -258.5 100.5t-93.5 293.5v692h293v-633q0 -213 164 -213q101 0 144.5 63t43.5 218v565h293zM274 1386h238v-217h-238v217zM711 1452h-250l196 242h340zM922 1169h-238v217h238v-217z
" />
    <glyph glyph-name="uni01D9" unicode="&#x1d9;" horiz-adv-x="1484" 
d="M150 1411h305v-840q0 -98 23.5 -169t66 -109.5t92.5 -56t111 -17.5q137 0 209.5 83t72.5 269v840h307v-825q0 -606 -594 -606q-593 0 -593 600v831zM870 1806h-268l-211 240h238l110 -117l109 117h239zM649 1526h-235v215h235v-215zM1073 1526h-237v215h237v-215z" />
    <glyph glyph-name="uni01DA" unicode="&#x1da;" horiz-adv-x="1198" 
d="M1065 1061v-754q0 -213 2 -307h-287q-2 16 -8 123q-46 -78 -117 -113t-176 -35q-165 0 -258.5 100.5t-93.5 293.5v692h293v-633q0 -213 164 -213q101 0 144.5 63t43.5 218v565h293zM731 1434h-266l-211 241h240l104 -125l107 125h239zM512 1151h-238v217h238v-217z
M922 1151h-238v217h238v-217z" />
    <glyph glyph-name="uni01DB" unicode="&#x1db;" horiz-adv-x="1484" 
d="M150 1411h305v-840q0 -98 23.5 -169t66 -109.5t92.5 -56t111 -17.5q137 0 209.5 83t72.5 269v840h307v-825q0 -606 -594 -606q-593 0 -593 600v831zM414 1745h235v-217h-235v217zM866 1812h-241l-308 238h332zM1073 1528h-237v217h237v-217z" />
    <glyph glyph-name="uni01DC" unicode="&#x1dc;" horiz-adv-x="1198" 
d="M1065 1061v-754q0 -213 2 -307h-287q-2 16 -8 123q-46 -78 -117 -113t-176 -35q-165 0 -258.5 100.5t-93.5 293.5v692h293v-633q0 -213 164 -213q101 0 144.5 63t43.5 218v565h293zM274 1368h238v-217h-238v217zM201 1675h340l196 -241h-241zM922 1151h-238v217h238v-217
z" />
    <glyph glyph-name="Gcaron" unicode="&#x1e6;" horiz-adv-x="1538" 
d="M1397 791v-791h-223q-19 68 -25 139q-121 -164 -412 -164q-150 0 -272 55t-201.5 151.5t-122.5 226t-43 280.5q0 159 46.5 295t133 236t218.5 156.5t295 56.5q132 0 243 -35.5t186.5 -97t121.5 -141.5t59 -171h-305q-64 207 -310 207q-84 0 -150 -28t-107 -73.5
t-67.5 -110.5t-37 -133t-10.5 -147q0 -97 19.5 -179.5t61.5 -152.5t117 -110.5t176 -40.5q75 0 132 20.5t90 51.5t53.5 73.5t27.5 81t7 80.5v15h-310v250h609zM907 1534h-274l-268 283h270l137 -144l135 144h273z" />
    <glyph glyph-name="gcaron" unicode="&#x1e7;" horiz-adv-x="1224" 
d="M1096 756v-627q0 -133 -26.5 -231t-86 -173t-163.5 -113t-251 -38q-111 0 -196.5 24t-135 59t-82 83t-44.5 88t-15 82h299q33 -123 187 -123q70 0 115.5 20.5t69.5 65t33 100t9 138.5v51q-90 -150 -299 -150q-136 0 -236.5 69.5t-151 185t-50.5 259.5q0 247 131.5 403
t331.5 156q121 0 189.5 -43t84.5 -92q1 8 12 111h277q0 -47 -1 -150t-1 -155zM373 539q0 -134 61 -211.5t160 -77.5q124 0 173.5 77t49.5 222q0 73 -8 123t-30.5 93t-66.5 64t-112 21q-101 0 -164 -79t-63 -232zM735 1188h-252l-237 305h262l104 -152l97 152h264z" />
    <glyph glyph-name="uni0218" unicode="&#x218;" horiz-adv-x="1300" 
d="M68 414h307q48 -205 297 -205q119 0 176 44t57 124q0 88 -64 134t-245 87q-141 33 -236.5 76.5t-148 98t-73.5 113t-21 134.5q0 188 136 300t382 112q135 0 239.5 -34t167 -93t96.5 -129t42 -152h-308q-7 37 -20 66t-39.5 57t-73.5 43.5t-112 15.5q-95 0 -147 -38.5
t-52 -112.5t59 -113.5t230 -77.5q150 -36 250.5 -82.5t154 -105t74.5 -120t21 -142.5q0 -197 -147.5 -315.5t-420.5 -118.5q-260 0 -407.5 116.5t-173.5 317.5zM639 -545h-229q96 229 112 432h289q-9 -107 -60 -237.5t-112 -194.5z" />
    <glyph glyph-name="uni0219" unicode="&#x219;" horiz-adv-x="1056" 
d="M59 319h289q36 -133 201 -133q79 0 113 26.5t34 78.5q0 50 -40 76.5t-156 54.5q-127 31 -208.5 67.5t-123 80.5t-56 88t-14.5 106q0 49 13.5 93.5t45.5 86.5t80 73t122.5 49.5t166.5 18.5q93 0 168.5 -19.5t124 -51.5t82 -74.5t48.5 -85.5t18 -88h-279q-29 113 -174 113
q-67 0 -98 -26t-31 -65q0 -41 39.5 -64.5t165.5 -53.5q129 -30 212 -67.5t124 -85.5t55 -94.5t14 -111.5q0 -68 -26.5 -127t-80 -106.5t-143 -75t-206.5 -27.5q-118 0 -207.5 27t-145 75t-86.5 108t-41 134zM535 -535h-230q97 232 113 433h289q-9 -108 -60 -238.5
t-112 -194.5z" />
    <glyph glyph-name="uni021A" unicode="&#x21a;" horiz-adv-x="1204" 
d="M451 0v1161h-431v250h1164v-250h-428v-1161h-305zM575 -535h-229q97 232 113 433h289q-9 -107 -60.5 -238t-112.5 -195z" />
    <glyph glyph-name="uni021B" unicode="&#x21b;" horiz-adv-x="743" 
d="M29 840v221h164v287h292v-287h209v-221h-209v-525q0 -61 24 -85.5t89 -24.5q46 0 66 2v-201q-57 -20 -197 -20q-149 0 -211.5 75t-62.5 222v557h-164zM379 -535h-229q44 106 74 222.5t38 210.5h289q-9 -108 -60 -238.5t-112 -194.5z" />
    <glyph glyph-name="uni0237" unicode="&#x237;" horiz-adv-x="557" 
d="M131 1061h295v-1038q0 -121 -14.5 -199.5t-52.5 -137.5t-107.5 -85.5t-177.5 -26.5q-40 0 -90 4v236q8 -2 26 -2q70 0 95.5 32t25.5 119v1098z" />
    <glyph glyph-name="uni0251" unicode="&#x251;" horiz-adv-x="1239" 
d="M811 1061h293v-762q0 -196 14 -299h-264q-5 18 -16 125q-86 -150 -318 -150q-199 0 -323.5 149.5t-124.5 397.5q0 157 57 284t168 203t258 76q104 0 169.5 -33t86.5 -75v84zM373 528q0 -149 59.5 -233t163.5 -84q227 0 227 319q0 69 -9.5 122t-32 100t-66.5 72.5
t-107 25.5q-105 0 -170 -86t-65 -236z" />
    <glyph glyph-name="uni0259" unicode="&#x259;" horiz-adv-x="1124" 
d="M59 594h701q0 108 -55 185t-158 77q-58 0 -97 -16.5t-56 -38t-34 -58.5h-292q13 44 32.5 85.5t59 90t90 84t129.5 59t174 23.5q127 0 225.5 -44.5t157.5 -120.5t89 -170.5t30 -202.5q0 -126 -32.5 -230.5t-95 -181t-160.5 -118.5t-224 -42q-105 0 -189.5 30t-139 80
t-91.5 119t-52.5 143.5t-15.5 156.5q0 59 4 90zM754 414h-404q2 -102 48.5 -165t146.5 -63q188 0 209 228z" />
    <glyph glyph-name="uni0261" unicode="&#x261;" horiz-adv-x="1224" 
d="M1096 756v-627q0 -133 -26.5 -231t-86 -173t-163.5 -113t-251 -38q-111 0 -196.5 24t-135 59t-82 83t-44.5 88t-15 82h299q33 -123 187 -123q70 0 115.5 20.5t69.5 65t33 100t9 138.5v51q-90 -150 -299 -150q-136 0 -236.5 69.5t-151 185t-50.5 259.5q0 247 131.5 403
t331.5 156q121 0 189.5 -43t84.5 -92q1 8 12 111h277q0 -47 -1 -150t-1 -155zM373 539q0 -134 61 -211.5t160 -77.5q124 0 173.5 77t49.5 222q0 73 -8 123t-30.5 93t-66.5 64t-112 21q-101 0 -164 -79t-63 -232z" />
    <glyph glyph-name="uni02BB" unicode="&#x2bb;" horiz-adv-x="815" 
d="M375 1495h235q-42 -146 -68.5 -313.5t-29.5 -294.5h-307q10 149 57 316t113 292z" />
    <glyph glyph-name="uni02BC" unicode="&#x2bc;" horiz-adv-x="815" 
d="M440 887h-235q41 147 67 314.5t29 293.5h309q-12 -150 -58.5 -317.5t-111.5 -290.5z" />
    <glyph glyph-name="uni02BE" unicode="&#x2be;" horiz-adv-x="667" 
d="M207 1284q41 3 63.5 22.5t22.5 51.5q0 33 -24 52t-64 22v137q107 0 182.5 -54.5t75.5 -154.5q0 -106 -75 -159.5t-181 -53.5v137z" />
    <glyph glyph-name="uni02BF" unicode="&#x2bf;" horiz-adv-x="667" 
d="M463 1284v-137q-107 0 -182.5 54.5t-75.5 154.5q0 106 75 159.5t181 53.5v-137q-86 -6 -86 -74q0 -33 23.5 -52t64.5 -22z" />
    <glyph glyph-name="circumflex" unicode="&#x2c6;" 
d="M283 1493h252l237 -305h-262l-104 151l-97 -151h-264z" />
    <glyph glyph-name="caron" unicode="&#x2c7;" 
d="M535 1188h-252l-238 305h262l105 -152l96 152h264z" />
    <glyph glyph-name="uni02C8" unicode="&#x2c8;" horiz-adv-x="661" 
d="M457 1135h-252v391h252v-391z" />
    <glyph glyph-name="uni02C9" unicode="&#x2c9;" horiz-adv-x="1024" 
d="M205 1452h612v-215h-612v215z" />
    <glyph glyph-name="uni02CA" unicode="&#x2ca;" horiz-adv-x="970" 
d="M459 1516h348l-328 -304h-256z" />
    <glyph glyph-name="uni02CB" unicode="&#x2cb;" horiz-adv-x="970" 
d="M164 1516h350l234 -304h-259z" />
    <glyph glyph-name="uni02CC" unicode="&#x2cc;" horiz-adv-x="661" 
d="M457 -504h-252v391h252v-391z" />
    <glyph glyph-name="breve" unicode="&#x2d8;" 
d="M82 1491h201q29 -109 127 -109q61 0 86.5 28t40.5 81h200q-17 -133 -98 -219t-233 -86q-81 0 -143.5 26t-99.5 70t-57 96.5t-24 112.5z" />
    <glyph glyph-name="dotaccent" unicode="&#x2d9;" 
d="M555 1231h-291v260h291v-260z" />
    <glyph glyph-name="ring" unicode="&#x2da;" 
d="M412 1169q-116 0 -183 58.5t-67 150.5q0 91 66.5 151t183.5 60q116 0 180.5 -58t64.5 -151t-67 -152t-178 -59zM408 1290q49 0 74.5 25t25.5 63t-25 65t-73 27q-49 0 -73 -26t-24 -64q0 -36 24 -63t71 -27z" />
    <glyph glyph-name="ogonek" unicode="&#x2db;" 
d="M332 16l241 -16q-127 -87 -127 -182q0 -42 28 -65t75 -23q53 0 94 12v-201q-59 -30 -184 -30q-124 0 -195 62t-71 175q0 153 139 268z" />
    <glyph glyph-name="tilde" unicode="&#x2dc;" 
d="M246 1206h-189v70q0 120 50 171.5t141 51.5q53 0 108 -21.5t98.5 -43t69.5 -21.5t38.5 16t12.5 56v18h185v-55q0 -136 -53 -192t-148 -56q-55 0 -107.5 21t-93.5 42t-67 21q-24 0 -34.5 -11t-10.5 -38v-29z" />
    <glyph glyph-name="hungarumlaut" unicode="&#x2dd;" 
d="M274 1188h-217l203 307h293zM694 1188h-219l205 307h289z" />
    <glyph glyph-name="uni0300" unicode="&#x300;" horiz-adv-x="0" 
d="M-322 1516h351l233 -304h-258z" />
    <glyph glyph-name="uni0301" unicode="&#x301;" horiz-adv-x="0" 
d="M-27 1516h349l-328 -304h-256z" />
    <glyph glyph-name="uni0302" unicode="&#x302;" horiz-adv-x="0" 
d="M-127 1493h252l237 -305h-262l-104 151l-96 -151h-265z" />
    <glyph glyph-name="uni0303" unicode="&#x303;" horiz-adv-x="0" 
d="M-164 1206h-188v70q0 120 49.5 171.5t140.5 51.5q53 0 108 -21.5t99 -43t70 -21.5t38.5 16t12.5 56v18h184v-55q0 -136 -52.5 -192t-147.5 -56q-55 0 -108 21t-94 42t-67 21q-24 0 -34.5 -11t-10.5 -38v-29z" />
    <glyph glyph-name="uni0304" unicode="&#x304;" horiz-adv-x="0" 
d="M-307 1452h612v-215h-612v215z" />
    <glyph glyph-name="uni0306" unicode="&#x306;" horiz-adv-x="0" 
d="M-328 1491h201q29 -109 127 -109q61 0 86.5 28t40.5 81h201q-17 -133 -98.5 -219t-233.5 -86q-81 0 -143.5 26t-99.5 70t-57 96.5t-24 112.5z" />
    <glyph glyph-name="uni0307" unicode="&#x307;" horiz-adv-x="0" 
d="M145 1231h-290v260h290v-260z" />
    <glyph glyph-name="uni0308" unicode="&#x308;" horiz-adv-x="0" 
d="M-84 1231h-235v260h235v-260zM319 1231h-235v260h235v-260z" />
    <glyph glyph-name="uni0309" unicode="&#x309;" horiz-adv-x="0" 
d="M109 1188h-226q57 55 78 86.5t21 68.5q0 27 -18 43.5t-54 16.5q-47 0 -107 -29l-57 158q105 63 238 63q113 0 177 -53.5t64 -138.5q0 -117 -116 -215z" />
    <glyph glyph-name="uni030A" unicode="&#x30a;" horiz-adv-x="0" 
d="M2 1169q-116 0 -183 58.5t-67 150.5q0 91 66.5 151t183.5 60q116 0 181 -58t65 -151t-67.5 -152t-178.5 -59zM-2 1290q49 0 74.5 25t25.5 63t-25 65t-73 27q-49 0 -72.5 -26t-23.5 -64q0 -37 23.5 -63.5t70.5 -26.5z" />
    <glyph glyph-name="uni030B" unicode="&#x30b;" horiz-adv-x="0" 
d="M-219 1188h-217l203 307h292zM201 1188h-219l204 307h289z" />
    <glyph glyph-name="uni030C" unicode="&#x30c;" horiz-adv-x="0" 
d="M125 1188h-252l-238 305h263l104 -152l96 152h264z" />
    <glyph glyph-name="uni031B" unicode="&#x31b;" horiz-adv-x="0" 
d="M-88 932l-80 178q51 7 78 33.5t27 66.5q0 59 -25 136h256q16 -56 16 -129q0 -53 -16 -100t-47.5 -86t-85 -65.5t-123.5 -33.5z" />
    <glyph glyph-name="uni0323" unicode="&#x323;" horiz-adv-x="0" 
d="M152 -410h-304v287h304v-287z" />
    <glyph glyph-name="uni0324" unicode="&#x324;" horiz-adv-x="0" 
d="M-84 -410h-235v260h235v-260zM319 -410h-235v260h235v-260z" />
    <glyph glyph-name="uni0326" unicode="&#x326;" horiz-adv-x="0" 
d="M8 -535h-229q44 106 74 222.5t38 210.5h289q-9 -108 -60 -238.5t-112 -194.5z" />
    <glyph glyph-name="uni0327" unicode="&#x327;" horiz-adv-x="0" 
d="M-43 20l182 -20l-86 -94q178 -44 178 -195q0 -63 -27 -107t-73 -66t-92 -31t-98 -9q-101 0 -152 21v155q81 -12 113 -12q51 0 70.5 12t19.5 39q0 20 -14.5 34.5t-41.5 21.5t-54.5 10.5t-65.5 5.5v70z" />
    <glyph glyph-name="uni0328" unicode="&#x328;" horiz-adv-x="0" 
d="M-106 16l241 -16q-127 -87 -127 -182q0 -42 28 -65t75 -23q53 0 94 12v-201q-59 -30 -185 -30q-124 0 -195 62t-71 175q0 152 140 268z" />
    <glyph glyph-name="uni032E" unicode="&#x32e;" horiz-adv-x="0" 
d="M-328 -106h201q29 -109 127 -109q61 0 86.5 28t40.5 81h201q-8 -63 -30.5 -116t-61 -96.5t-100.5 -68.5t-140 -25q-81 0 -143.5 26t-99.5 70.5t-57 97t-24 112.5z" />
    <glyph glyph-name="uni0331" unicode="&#x331;" horiz-adv-x="0" 
d="M-307 -156h612v-215h-612v215z" />
    <glyph glyph-name="pi" unicode="&#x3c0;" horiz-adv-x="1212" 
d="M754 0v836h-308v-836h-292v836q-115 0 -166 -11l4 215q29 8 131.5 14.5t220.5 6.5h860v-225h-155v-836h-295z" />
    <glyph glyph-name="uni1E0C" unicode="&#x1e0c;" horiz-adv-x="1507" 
d="M168 0v1411h561q308 0 494 -187.5t186 -500.5q0 -207 -82.5 -370t-241.5 -258t-370 -95h-547zM473 1165v-919h229q99 0 175 35.5t123 100.5t70.5 150.5t23.5 190.5q0 89 -22.5 166.5t-68 140.5t-122 99t-176.5 36h-232zM860 -410h-303v287h303v-287z" />
    <glyph glyph-name="uni1E0D" unicode="&#x1e0d;" horiz-adv-x="1232" 
d="M811 1495h293v-1204q0 -195 2 -291h-281q-9 50 -14 111q-83 -136 -301 -136q-201 0 -319.5 149t-118.5 398t129.5 406t351.5 157q106 0 172 -30.5t86 -71.5v512zM373 528q0 -155 58 -236t167 -81q58 0 100.5 19.5t66 48.5t37 74t17.5 85t4 92q0 61 -4 104t-17.5 86.5
t-37 70t-64 43t-96.5 16.5q-114 0 -172.5 -84.5t-58.5 -237.5zM768 -410h-303v287h303v-287z" />
    <glyph glyph-name="uni1E0E" unicode="&#x1e0e;" horiz-adv-x="1507" 
d="M168 0v1411h561q308 0 494 -187.5t186 -500.5q0 -207 -82.5 -370t-241.5 -258t-370 -95h-547zM473 1165v-919h229q99 0 175 35.5t123 100.5t70.5 150.5t23.5 190.5q0 89 -22.5 166.5t-68 140.5t-122 99t-176.5 36h-232zM401 -156h613v-215h-613v215z" />
    <glyph glyph-name="uni1E0F" unicode="&#x1e0f;" horiz-adv-x="1232" 
d="M811 1495h293v-1204q0 -195 2 -291h-281q-9 50 -14 111q-83 -136 -301 -136q-201 0 -319.5 149t-118.5 398t129.5 406t351.5 157q106 0 172 -30.5t86 -71.5v512zM373 528q0 -155 58 -236t167 -81q58 0 100.5 19.5t66 48.5t37 74t17.5 85t4 92q0 61 -4 104t-17.5 86.5
t-37 70t-64 43t-96.5 16.5q-114 0 -172.5 -84.5t-58.5 -237.5zM309 -156h613v-215h-613v215z" />
    <glyph glyph-name="uni1E20" unicode="&#x1e20;" horiz-adv-x="1538" 
d="M1397 791v-791h-223q-19 68 -25 139q-121 -164 -412 -164q-150 0 -272 55t-201.5 151.5t-122.5 226t-43 280.5q0 159 46.5 295t133 236t218.5 156.5t295 56.5q132 0 243 -35.5t186.5 -97t121.5 -141.5t59 -171h-305q-64 207 -310 207q-84 0 -150 -28t-107 -73.5
t-67.5 -110.5t-37 -133t-10.5 -147q0 -97 19.5 -179.5t61.5 -152.5t117 -110.5t176 -40.5q75 0 132 20.5t90 51.5t53.5 73.5t27.5 81t7 80.5v15h-310v250h609zM457 1767h630v-206h-630v206z" />
    <glyph glyph-name="uni1E21" unicode="&#x1e21;" horiz-adv-x="1224" 
d="M1096 756v-627q0 -133 -26.5 -231t-86 -173t-163.5 -113t-251 -38q-111 0 -196.5 24t-135 59t-82 83t-44.5 88t-15 82h299q33 -123 187 -123q70 0 115.5 20.5t69.5 65t33 100t9 138.5v51q-90 -150 -299 -150q-136 0 -236.5 69.5t-151 185t-50.5 259.5q0 247 131.5 403
t331.5 156q121 0 189.5 -43t84.5 -92q1 8 12 111h277q0 -47 -1 -150t-1 -155zM373 539q0 -134 61 -211.5t160 -77.5q124 0 173.5 77t49.5 222q0 73 -8 123t-30.5 93t-66.5 64t-112 21q-101 0 -164 -79t-63 -232zM305 1452h613v-215h-613v215z" />
    <glyph glyph-name="uni1E24" unicode="&#x1e24;" horiz-adv-x="1515" 
d="M168 0v1411h305v-549h569v549h306v-1411h-306v610h-569v-610h-305zM909 -410h-303v287h303v-287z" />
    <glyph glyph-name="uni1E25" unicode="&#x1e25;" horiz-adv-x="1216" 
d="M131 1495h295v-561q97 151 303 151q76 0 139 -23.5t111.5 -71t76 -126.5t27.5 -184v-680h-290v637q0 105 -41 158t-131 53q-59 0 -99 -21t-60.5 -62t-28 -88.5t-7.5 -113.5v-563h-295v1495zM760 -410h-303v287h303v-287z" />
    <glyph glyph-name="uni1E2A" unicode="&#x1e2a;" horiz-adv-x="1515" 
d="M168 0v1411h305v-549h569v549h306v-1411h-306v610h-569v-610h-305zM430 -106h201q29 -109 127 -109q61 0 86.5 28t40.5 81h200q-8 -63 -30.5 -116t-61 -96.5t-100 -68.5t-139.5 -25q-81 0 -143.5 26t-99.5 70.5t-57 97t-24 112.5z" />
    <glyph glyph-name="uni1E2B" unicode="&#x1e2b;" horiz-adv-x="1216" 
d="M131 1495h295v-561q97 151 303 151q76 0 139 -23.5t111.5 -71t76 -126.5t27.5 -184v-680h-290v637q0 105 -41 158t-131 53q-59 0 -99 -21t-60.5 -62t-28 -88.5t-7.5 -113.5v-563h-295v1495zM281 -106h200q29 -109 127 -109q61 0 86.5 28t40.5 81h201q-8 -63 -30.5 -116
t-61 -96.5t-100.5 -68.5t-140 -25q-81 0 -143.5 26t-99.5 70.5t-56.5 97t-23.5 112.5z" />
    <glyph glyph-name="uni1E36" unicode="&#x1e36;" horiz-adv-x="1200" 
d="M168 0v1411h305v-1161h705l-35 -250h-975zM831 -410h-303v287h303v-287z" />
    <glyph glyph-name="uni1E37" unicode="&#x1e37;" horiz-adv-x="557" 
d="M426 0h-295v1495h295v-1495zM430 -410h-303v287h303v-287z" />
    <glyph glyph-name="uni1E38" unicode="&#x1e38;" horiz-adv-x="1200" 
d="M168 0v1411h305v-1161h705l-35 -250h-975zM831 -410h-303v287h303v-287zM14 1755h631v-207h-631v207z" />
    <glyph glyph-name="uni1E39" unicode="&#x1e39;" horiz-adv-x="557" 
d="M426 0h-295v1495h295v-1495zM-29 1825h613v-215h-613v215zM430 -410h-303v287h303v-287z" />
    <glyph glyph-name="uni1E3A" unicode="&#x1e3a;" horiz-adv-x="1200" 
d="M168 0v1411h305v-1161h705l-35 -250h-975zM356 -156h613v-215h-613v215z" />
    <glyph glyph-name="uni1E3B" unicode="&#x1e3b;" horiz-adv-x="557" 
d="M426 0h-295v1495h295v-1495zM-29 -156h613v-215h-613v215z" />
    <glyph glyph-name="uni1E42" unicode="&#x1e42;" horiz-adv-x="1814" 
d="M1352 0v530q0 403 10 670h-10q-73 -318 -342 -1200h-260q-12 44 -64 237t-76 282.5t-63.5 240.5t-65.5 257t-43 187h-10q18 -249 18 -698v-506h-278v1411h455q82 -274 162.5 -577.5t113.5 -462.5h2q24 128 115 431t192 609h439v-1411h-295zM1034 -410h-303v287h303v-287z
" />
    <glyph glyph-name="uni1E43" unicode="&#x1e43;" horiz-adv-x="1783" 
d="M131 0v786q0 183 -2 275h281q9 -58 12 -127q103 151 295 151q106 0 173.5 -45.5t98.5 -115.5q55 75 131.5 118t196.5 43q148 0 242 -97t94 -292v-696h-287v659q0 38 -7.5 70.5t-24.5 60.5t-48.5 44t-75.5 16q-91 0 -131.5 -60t-40.5 -184v-606h-288v649q0 44 -6.5 77.5
t-22.5 62.5t-47 44t-76 15q-90 0 -133 -60.5t-43 -195.5v-592h-291zM1042 -410h-303v287h303v-287z" />
    <glyph glyph-name="uni1E44" unicode="&#x1e44;" horiz-adv-x="1546" 
d="M446 0h-278v1411h379q20 -35 116 -206.5t145 -260t124 -224.5t119 -221.5t63 -129.5h4q-16 147 -16 624v418h276v-1411h-358q-507 921 -584 1096h-4q14 -172 14 -666v-430zM932 1536h-291v262h291v-262z" />
    <glyph glyph-name="uni1E45" unicode="&#x1e45;" horiz-adv-x="1214" 
d="M133 0v793q0 188 -2 268h285q5 -26 12 -135q21 39 53.5 71.5t100 60t153.5 27.5q162 0 256 -107t94 -304v-674h-292v641q0 99 -38.5 153t-131.5 54q-97 0 -146 -60.5t-49 -197.5v-590h-295zM752 1231h-291v260h291v-260z" />
    <glyph glyph-name="uni1E46" unicode="&#x1e46;" horiz-adv-x="1546" 
d="M446 0h-278v1411h379q20 -35 116 -206.5t145 -260t124 -224.5t119 -221.5t63 -129.5h4q-16 147 -16 624v418h276v-1411h-358q-507 921 -584 1096h-4q14 -172 14 -666v-430zM926 -410h-303v287h303v-287z" />
    <glyph glyph-name="uni1E47" unicode="&#x1e47;" horiz-adv-x="1214" 
d="M133 0v793q0 188 -2 268h285q5 -26 12 -135q21 39 53.5 71.5t100 60t153.5 27.5q162 0 256 -107t94 -304v-674h-292v641q0 99 -38.5 153t-131.5 54q-97 0 -146 -60.5t-49 -197.5v-590h-295zM758 -410h-303v287h303v-287z" />
    <glyph glyph-name="uni1E48" unicode="&#x1e48;" horiz-adv-x="1546" 
d="M446 0h-278v1411h379q20 -35 116 -206.5t145 -260t124 -224.5t119 -221.5t63 -129.5h4q-16 147 -16 624v418h276v-1411h-358q-507 921 -584 1096h-4q14 -172 14 -666v-430zM467 -156h612v-215h-612v215z" />
    <glyph glyph-name="uni1E49" unicode="&#x1e49;" horiz-adv-x="1214" 
d="M133 0v793q0 188 -2 268h285q5 -26 12 -135q21 39 53.5 71.5t100 60t153.5 27.5q162 0 256 -107t94 -304v-674h-292v641q0 99 -38.5 153t-131.5 54q-97 0 -146 -60.5t-49 -197.5v-590h-295zM299 -156h612v-215h-612v215z" />
    <glyph glyph-name="uni1E5A" unicode="&#x1e5a;" horiz-adv-x="1355" 
d="M668 565h-201v-565h-299v1411h620q223 0 348.5 -108.5t125.5 -278.5q0 -130 -59 -213.5t-146 -120.5q176 -68 176 -352v-70q0 -202 20 -268h-290q-29 71 -29 317v21q0 62 -10 101t-38 69.5t-81 43.5t-137 13zM467 1169v-360h256q122 0 176.5 45t54.5 135q0 87 -57 133.5
t-168 46.5h-262zM850 -408h-303v287h303v-287z" />
    <glyph glyph-name="uni1E5B" unicode="&#x1e5b;" horiz-adv-x="806" 
d="M131 0v772q0 199 -2 289h289q8 -50 8 -187q37 95 123.5 152.5t216.5 58.5v-280q-68 2 -117.5 -5t-93.5 -29t-71 -60t-42.5 -100t-15.5 -148v-463h-295zM432 -410h-303v287h303v-287z" />
    <glyph glyph-name="uni1E5C" unicode="&#x1e5c;" horiz-adv-x="1355" 
d="M668 565h-201v-565h-299v1411h620q223 0 348.5 -108.5t125.5 -278.5q0 -130 -59 -213.5t-146 -120.5q176 -68 176 -352v-70q0 -202 20 -268h-290q-29 71 -29 317v21q0 62 -10 101t-38 69.5t-81 43.5t-137 13zM467 1169v-360h256q122 0 176.5 45t54.5 135q0 87 -57 133.5
t-168 46.5h-262zM850 -408h-303v287h303v-287zM360 1765h631v-206h-631v206z" />
    <glyph glyph-name="uni1E5D" unicode="&#x1e5d;" horiz-adv-x="806" 
d="M131 0v772q0 199 -2 289h289q8 -50 8 -187q37 95 123.5 152.5t216.5 58.5v-280q-68 2 -117.5 -5t-93.5 -29t-71 -60t-42.5 -100t-15.5 -148v-463h-295zM139 1452h613v-215h-613v215zM432 -410h-303v287h303v-287z" />
    <glyph glyph-name="uni1E5E" unicode="&#x1e5e;" horiz-adv-x="1355" 
d="M668 565h-201v-565h-299v1411h620q223 0 348.5 -108.5t125.5 -278.5q0 -130 -59 -213.5t-146 -120.5q176 -68 176 -352v-70q0 -202 20 -268h-290q-29 71 -29 317v21q0 62 -10 101t-38 69.5t-81 43.5t-137 13zM467 1169v-360h256q122 0 176.5 45t54.5 135q0 87 -57 133.5
t-168 46.5h-262zM391 -154h613v-215h-613v215z" />
    <glyph glyph-name="uni1E5F" unicode="&#x1e5f;" horiz-adv-x="806" 
d="M131 0v772q0 199 -2 289h289q8 -50 8 -187q37 95 123.5 152.5t216.5 58.5v-280q-68 2 -117.5 -5t-93.5 -29t-71 -60t-42.5 -100t-15.5 -148v-463h-295zM12 -156h613v-215h-613v215z" />
    <glyph glyph-name="uni1E60" unicode="&#x1e60;" horiz-adv-x="1300" 
d="M68 414h307q48 -205 297 -205q119 0 176 44t57 124q0 88 -64 134t-245 87q-141 33 -236.5 76.5t-148 98t-73.5 113t-21 134.5q0 188 136 300t382 112q135 0 239.5 -34t167 -93t96.5 -129t42 -152h-308q-7 37 -20 66t-39.5 57t-73.5 43.5t-112 15.5q-95 0 -147 -38.5
t-52 -112.5t59 -113.5t230 -77.5q150 -36 250.5 -82.5t154 -105t74.5 -120t21 -142.5q0 -197 -147.5 -315.5t-420.5 -118.5q-260 0 -407.5 116.5t-173.5 317.5zM795 1552h-291v263h291v-263z" />
    <glyph glyph-name="uni1E61" unicode="&#x1e61;" horiz-adv-x="1056" 
d="M59 319h289q36 -133 201 -133q79 0 113 26.5t34 78.5q0 50 -40 76.5t-156 54.5q-127 31 -208.5 67.5t-123 80.5t-56 88t-14.5 106q0 49 13.5 93.5t45.5 86.5t80 73t122.5 49.5t166.5 18.5q93 0 168.5 -19.5t124 -51.5t82 -74.5t48.5 -85.5t18 -88h-279q-29 113 -174 113
q-67 0 -98 -26t-31 -65q0 -41 39.5 -64.5t165.5 -53.5q129 -30 212 -67.5t124 -85.5t55 -94.5t14 -111.5q0 -68 -26.5 -127t-80 -106.5t-143 -75t-206.5 -27.5q-118 0 -207.5 27t-145 75t-86.5 108t-41 134zM674 1231h-291v260h291v-260z" />
    <glyph glyph-name="uni1E62" unicode="&#x1e62;" horiz-adv-x="1300" 
d="M68 414h307q48 -205 297 -205q119 0 176 44t57 124q0 88 -64 134t-245 87q-141 33 -236.5 76.5t-148 98t-73.5 113t-21 134.5q0 188 136 300t382 112q135 0 239.5 -34t167 -93t96.5 -129t42 -152h-308q-7 37 -20 66t-39.5 57t-73.5 43.5t-112 15.5q-95 0 -147 -38.5
t-52 -112.5t59 -113.5t230 -77.5q150 -36 250.5 -82.5t154 -105t74.5 -120t21 -142.5q0 -197 -147.5 -315.5t-420.5 -118.5q-260 0 -407.5 116.5t-173.5 317.5zM801 -410h-303v287h303v-287z" />
    <glyph glyph-name="uni1E63" unicode="&#x1e63;" horiz-adv-x="1056" 
d="M59 319h289q36 -133 201 -133q79 0 113 26.5t34 78.5q0 50 -40 76.5t-156 54.5q-127 31 -208.5 67.5t-123 80.5t-56 88t-14.5 106q0 49 13.5 93.5t45.5 86.5t80 73t122.5 49.5t166.5 18.5q93 0 168.5 -19.5t124 -51.5t82 -74.5t48.5 -85.5t18 -88h-279q-29 113 -174 113
q-67 0 -98 -26t-31 -65q0 -41 39.5 -64.5t165.5 -53.5q129 -30 212 -67.5t124 -85.5t55 -94.5t14 -111.5q0 -68 -26.5 -127t-80 -106.5t-143 -75t-206.5 -27.5q-118 0 -207.5 27t-145 75t-86.5 108t-41 134zM680 -410h-303v287h303v-287z" />
    <glyph glyph-name="uni1E6C" unicode="&#x1e6c;" horiz-adv-x="1204" 
d="M451 0v1161h-431v250h1164v-250h-428v-1161h-305zM754 -410h-303v287h303v-287z" />
    <glyph glyph-name="uni1E6D" unicode="&#x1e6d;" horiz-adv-x="743" 
d="M29 840v221h164v287h292v-287h209v-221h-209v-525q0 -61 24 -85.5t89 -24.5q46 0 66 2v-201q-57 -20 -197 -20q-149 0 -211.5 75t-62.5 222v557h-164zM563 -410h-303v287h303v-287z" />
    <glyph glyph-name="uni1E6E" unicode="&#x1e6e;" horiz-adv-x="1204" 
d="M451 0v1161h-431v250h1164v-250h-428v-1161h-305zM295 -156h612v-215h-612v215z" />
    <glyph glyph-name="uni1E6F" unicode="&#x1e6f;" horiz-adv-x="743" 
d="M29 840v221h164v287h292v-287h209v-221h-209v-525q0 -61 24 -85.5t89 -24.5q46 0 66 2v-201q-57 -20 -197 -20q-149 0 -211.5 75t-62.5 222v557h-164zM109 -156h612v-215h-612v215z" />
    <glyph glyph-name="Wgrave" unicode="&#x1e80;" horiz-adv-x="1947" 
d="M711 0h-316l-360 1411h325q67 -324 89.5 -435.5t56 -281t45.5 -244t18 -131.5h2q30 149 138 563.5t135 528.5h274q69 -253 149.5 -577.5t112.5 -499.5h2q16 108 51 275.5t64 291t71 300t50 210.5h295l-381 -1411h-318q-24 102 -121.5 487.5t-125.5 524.5h-2
q-50 -247 -254 -1012zM500 1817h364l254 -285h-270z" />
    <glyph glyph-name="wgrave" unicode="&#x1e81;" horiz-adv-x="1646" 
d="M35 1061h309q143 -634 168 -801h4q62 322 182 801h273q14 -62 33 -145t29.5 -128t24 -105.5t21 -93t17 -75.5t14 -66.5t10.5 -53t9.5 -48t6.5 -38t5 -36.5h2q68 321 178 789h291l-316 -1061h-313q-146 666 -162 754h-2q-17 -143 -168 -754h-315zM387 1516h350l234 -304
h-258z" />
    <glyph glyph-name="Wacute" unicode="&#x1e82;" horiz-adv-x="1947" 
d="M711 0h-316l-360 1411h325q67 -324 89.5 -435.5t56 -281t45.5 -244t18 -131.5h2q30 149 138 563.5t135 528.5h274q69 -253 149.5 -577.5t112.5 -499.5h2q16 108 51 275.5t64 291t71 300t50 210.5h295l-381 -1411h-318q-24 102 -121.5 487.5t-125.5 524.5h-2
q-50 -247 -254 -1012zM1114 1817h356l-362 -285h-274z" />
    <glyph glyph-name="wacute" unicode="&#x1e83;" horiz-adv-x="1646" 
d="M35 1061h309q143 -634 168 -801h4q62 322 182 801h273q14 -62 33 -145t29.5 -128t24 -105.5t21 -93t17 -75.5t14 -66.5t10.5 -53t9.5 -48t6.5 -38t5 -36.5h2q68 321 178 789h291l-316 -1061h-313q-146 666 -162 754h-2q-17 -143 -168 -754h-315zM922 1516h348l-328 -304
h-256z" />
    <glyph glyph-name="Wdieresis" unicode="&#x1e84;" horiz-adv-x="1947" 
d="M711 0h-316l-360 1411h325q67 -324 89.5 -435.5t56 -281t45.5 -244t18 -131.5h2q30 149 138 563.5t135 528.5h274q69 -253 149.5 -577.5t112.5 -499.5h2q16 108 51 275.5t64 291t71 300t50 210.5h295l-381 -1411h-318q-24 102 -121.5 487.5t-125.5 524.5h-2
q-50 -247 -254 -1012zM887 1546h-236v260h236v-260zM1294 1546h-235v260h235v-260z" />
    <glyph glyph-name="wdieresis" unicode="&#x1e85;" horiz-adv-x="1646" 
d="M35 1061h309q143 -634 168 -801h4q62 322 182 801h273q14 -62 33 -145t29.5 -128t24 -105.5t21 -93t17 -75.5t14 -66.5t10.5 -53t9.5 -48t6.5 -38t5 -36.5h2q68 321 178 789h291l-316 -1061h-313q-146 666 -162 754h-2q-17 -143 -168 -754h-315zM739 1231h-235v260h235
v-260zM1143 1231h-236v260h236v-260z" />
    <glyph glyph-name="uni1E8E" unicode="&#x1e8e;" horiz-adv-x="1267" 
d="M784 0h-305v500q0 26 -12 45l-487 866h346q203 -398 321 -649q65 158 322 649h319l-493 -862q-11 -27 -11 -45v-504zM780 1534h-291v262h291v-262z" />
    <glyph glyph-name="uni1E8F" unicode="&#x1e8f;" horiz-adv-x="1062" 
d="M10 1061h316q204 -687 221 -791h2q37 169 211 791h293l-357 -1092q-76 -233 -164 -314t-276 -81q-69 0 -137 8v236q40 -4 76 -4q83 0 127.5 33t74.5 120zM678 1231h-291v260h291v-260z" />
    <glyph glyph-name="uni1E92" unicode="&#x1e92;" horiz-adv-x="1263" 
d="M59 0v223l777 938h-742v250h1088v-246l-748 -915h789l-39 -250h-1125zM784 -410h-303v287h303v-287z" />
    <glyph glyph-name="uni1E93" unicode="&#x1e93;" horiz-adv-x="1003" 
d="M61 0v221l525 608h-500v232h832v-230l-515 -600h551l-34 -231h-859zM653 -410h-303v287h303v-287z" />
    <glyph glyph-name="uni1E97" unicode="&#x1e97;" horiz-adv-x="743" 
d="M29 840v221h164v287h292v-287h209v-221h-209v-525q0 -61 24 -85.5t89 -24.5q46 0 66 2v-201q-57 -20 -197 -20q-149 0 -211.5 75t-62.5 222v557h-164zM254 1446h-236v260h236v-260zM657 1446h-235v260h235v-260z" />
    <glyph glyph-name="uni1E9E" unicode="&#x1e9e;" horiz-adv-x="1386" 
d="M473 971v-971h-307v1032q0 400 539 400q109 0 198 -16.5t148.5 -46t102.5 -65.5t66 -79t33.5 -82.5t10.5 -79.5q0 -54 -4 -72l-293 -188v-10l106 -66q154 -95 210 -183.5t56 -195.5q0 -164 -113.5 -265t-336.5 -101q-101 0 -190.5 26.5t-133.5 63.5v266
q56 -56 143.5 -92.5t178.5 -36.5q80 0 118.5 30.5t38.5 84.5q0 51 -30.5 87t-132.5 97l-187 110q-55 33 -74.5 83t2 101t78.5 87l242 155q0 33 -10.5 60.5t-35 52t-71.5 39t-112 14.5q-44 0 -77.5 -5.5t-65 -21t-52 -41.5t-33 -69t-12.5 -102z" />
    <glyph glyph-name="uni1EA0" unicode="&#x1ea0;" horiz-adv-x="1409" 
d="M948 326h-516l-108 -326h-301l479 1411h383l501 -1411h-321zM498 575h385q-165 492 -199 617h-2q-37 -145 -184 -617zM856 -410h-303v287h303v-287z" />
    <glyph glyph-name="uni1EA1" unicode="&#x1ea1;" horiz-adv-x="1144" 
d="M1012 719v-445q0 -75 4.5 -165t9.5 -109h-281q-14 35 -14 104q-85 -129 -299 -129q-92 0 -164 28.5t-114 76.5t-63 105.5t-21 121.5q0 177 132 266t371 89h152v63q0 67 -35 108t-129 41q-86 0 -120 -32t-44 -97h-278q5 74 31.5 133t78.5 107t139 74t205 26
q217 -2 328 -90.5t111 -275.5zM725 455v28h-119q-130 0 -187 -39t-57 -118q0 -61 39.5 -101.5t114.5 -40.5q67 0 110.5 21.5t64 63t27.5 84t7 102.5zM727 -410h-303v287h303v-287z" />
    <glyph glyph-name="uni1EA2" unicode="&#x1ea2;" horiz-adv-x="1409" 
d="M948 326h-516l-108 -326h-301l479 1411h383l501 -1411h-321zM498 575h385q-165 492 -199 617h-2q-37 -145 -184 -617zM811 1528h-225q57 55 77.5 86.5t20.5 68.5q0 27 -18 43.5t-54 16.5q-46 0 -106 -29l-57 158q105 63 237 63q113 0 177.5 -53.5t64.5 -138.5
q0 -116 -117 -215z" />
    <glyph glyph-name="uni1EA3" unicode="&#x1ea3;" horiz-adv-x="1144" 
d="M1012 719v-445q0 -75 4.5 -165t9.5 -109h-281q-14 35 -14 104q-85 -129 -299 -129q-92 0 -164 28.5t-114 76.5t-63 105.5t-21 121.5q0 177 132 266t371 89h152v63q0 67 -35 108t-129 41q-86 0 -120 -32t-44 -97h-278q5 74 31.5 133t78.5 107t139 74t205 26
q217 -2 328 -90.5t111 -275.5zM725 455v28h-119q-130 0 -187 -39t-57 -118q0 -61 39.5 -101.5t114.5 -40.5q67 0 110.5 21.5t64 63t27.5 84t7 102.5zM684 1188h-225q57 55 77.5 86.5t20.5 68.5q0 27 -18 43.5t-54 16.5q-46 0 -106 -29l-57 158q105 63 237 63
q113 0 177.5 -53.5t64.5 -138.5q0 -116 -117 -215z" />
    <glyph glyph-name="uni1EA4" unicode="&#x1ea4;" horiz-adv-x="1409" 
d="M948 326h-516l-108 -326h-301l479 1411h383l501 -1411h-321zM498 575h385q-165 492 -199 617h-2q-37 -145 -184 -617zM549 1800h297l270 -268h-293l-118 127l-115 -127h-297zM1206 1978h322l-295 -249h-229z" />
    <glyph glyph-name="uni1EA5" unicode="&#x1ea5;" horiz-adv-x="1144" 
d="M1012 719v-445q0 -75 4.5 -165t9.5 -109h-281q-14 35 -14 104q-85 -129 -299 -129q-92 0 -164 28.5t-114 76.5t-63 105.5t-21 121.5q0 177 132 266t371 89h152v63q0 67 -35 108t-129 41q-86 0 -120 -32t-44 -97h-278q5 74 31.5 133t78.5 107t139 74t205 26
q217 -2 328 -90.5t111 -275.5zM725 455v28h-119q-130 0 -187 -39t-57 -118q0 -61 39.5 -101.5t114.5 -40.5q67 0 110.5 21.5t64 63t27.5 84t7 102.5zM434 1444h283l211 -268h-244l-111 137l-106 -137h-244zM1042 1677h281l-287 -272h-207z" />
    <glyph glyph-name="uni1EA6" unicode="&#x1ea6;" horiz-adv-x="1409" 
d="M948 326h-516l-108 -326h-301l479 1411h383l501 -1411h-321zM498 575h385q-165 492 -199 617h-2q-37 -145 -184 -617zM549 1800h297l270 -268h-293l-118 127l-115 -127h-297zM842 1960h325l191 -236h-217z" />
    <glyph glyph-name="uni1EA7" unicode="&#x1ea7;" horiz-adv-x="1144" 
d="M1012 719v-445q0 -75 4.5 -165t9.5 -109h-281q-14 35 -14 104q-85 -129 -299 -129q-92 0 -164 28.5t-114 76.5t-63 105.5t-21 121.5q0 177 132 266t371 89h152v63q0 67 -35 108t-129 41q-86 0 -120 -32t-44 -97h-278q5 74 31.5 133t78.5 107t139 74t205 26
q217 -2 328 -90.5t111 -275.5zM725 455v28h-119q-130 0 -187 -39t-57 -118q0 -61 39.5 -101.5t114.5 -40.5q67 0 110.5 21.5t64 63t27.5 84t7 102.5zM434 1444h283l211 -268h-244l-111 137l-106 -137h-244zM682 1667h291l219 -281h-221z" />
    <glyph glyph-name="uni1EA8" unicode="&#x1ea8;" horiz-adv-x="1409" 
d="M948 326h-516l-108 -326h-301l479 1411h383l501 -1411h-321zM498 575h385q-165 492 -199 617h-2q-37 -145 -184 -617zM1227 1724h-205q94 74 94 148q0 49 -65 49q-51 0 -111 -37l-51 129q90 78 223 78q98 0 154.5 -49t56.5 -127q0 -108 -96 -191zM549 1800h297l270 -268
h-293l-118 131l-115 -131h-297z" />
    <glyph glyph-name="uni1EA9" unicode="&#x1ea9;" horiz-adv-x="1144" 
d="M1012 719v-445q0 -75 4.5 -165t9.5 -109h-281q-14 35 -14 104q-85 -129 -299 -129q-92 0 -164 28.5t-114 76.5t-63 105.5t-21 121.5q0 177 132 266t371 89h152v63q0 67 -35 108t-129 41q-86 0 -120 -32t-44 -97h-278q5 74 31.5 133t78.5 107t139 74t205 26
q217 -2 328 -90.5t111 -275.5zM725 455v28h-119q-130 0 -187 -39t-57 -118q0 -61 39.5 -101.5t114.5 -40.5q67 0 110.5 21.5t64 63t27.5 84t7 102.5zM1055 1393h-205q104 77 104 135q0 51 -61 51q-56 0 -100 -33l-45 129q86 64 204 64q98 0 148.5 -44t50.5 -122
q0 -115 -96 -180zM434 1444h283l211 -268h-244l-111 137l-106 -137h-244z" />
    <glyph glyph-name="uni1EAA" unicode="&#x1eaa;" horiz-adv-x="1409" 
d="M948 326h-516l-108 -326h-301l479 1411h383l501 -1411h-321zM498 575h385q-165 492 -199 617h-2q-37 -145 -184 -617zM504 1794h-160v21q0 206 186 206q74 0 180.5 -32.5t149.5 -32.5q26 0 38.5 10t12.5 39v12h154v-26q0 -109 -45 -154t-131 -45q-66 0 -182.5 31.5
t-153.5 31.5q-49 0 -49 -51v-10zM547 1724h313l234 -213h-273l-119 103l-114 -103h-277z" />
    <glyph glyph-name="uni1EAB" unicode="&#x1eab;" horiz-adv-x="1144" 
d="M1012 719v-445q0 -75 4.5 -165t9.5 -109h-281q-14 35 -14 104q-85 -129 -299 -129q-92 0 -164 28.5t-114 76.5t-63 105.5t-21 121.5q0 177 132 266t371 89h152v63q0 67 -35 108t-129 41q-86 0 -120 -32t-44 -97h-278q5 74 31.5 133t78.5 107t139 74t205 26
q217 -2 328 -90.5t111 -275.5zM725 455v28h-119q-130 0 -187 -39t-57 -118q0 -61 39.5 -101.5t114.5 -40.5q67 0 110.5 21.5t64 63t27.5 84t7 102.5zM414 1493h-158v23q0 107 47.5 155.5t124.5 48.5q67 0 151.5 -32.5t106.5 -32.5q25 0 37 10.5t12 38.5v12h156v-24
q0 -201 -176 -201q-57 0 -140.5 31.5t-111.5 31.5q-49 0 -49 -51v-10zM428 1407h289l227 -229h-256l-121 112l-110 -112h-252z" />
    <glyph glyph-name="uni1EAC" unicode="&#x1eac;" horiz-adv-x="1409" 
d="M948 326h-516l-108 -326h-301l479 1411h383l501 -1411h-321zM498 575h385q-165 492 -199 617h-2q-37 -145 -184 -617zM856 -410h-303v287h303v-287zM561 1800h289l260 -282h-270l-138 143l-135 -143h-272z" />
    <glyph glyph-name="uni1EAD" unicode="&#x1ead;" horiz-adv-x="1144" 
d="M1012 719v-445q0 -75 4.5 -165t9.5 -109h-281q-14 35 -14 104q-85 -129 -299 -129q-92 0 -164 28.5t-114 76.5t-63 105.5t-21 121.5q0 177 132 266t371 89h152v63q0 67 -35 108t-129 41q-86 0 -120 -32t-44 -97h-278q5 74 31.5 133t78.5 107t139 74t205 26
q217 -2 328 -90.5t111 -275.5zM725 455v28h-119q-130 0 -187 -39t-57 -118q0 -61 39.5 -101.5t114.5 -40.5q67 0 110.5 21.5t64 63t27.5 84t7 102.5zM727 -410h-303v287h303v-287zM449 1493h251l238 -305h-262l-105 151l-96 -151h-264z" />
    <glyph glyph-name="uni1EAE" unicode="&#x1eae;" horiz-adv-x="1409" 
d="M948 326h-516l-108 -326h-301l479 1411h383l501 -1411h-321zM498 575h385q-165 492 -199 617h-2q-37 -145 -184 -617zM350 1778h209q13 -40 50.5 -66t95.5 -26q114 0 147 92h211q-13 -54 -36.5 -98.5t-64.5 -85.5t-107.5 -64t-152.5 -23q-91 0 -160 26.5t-107.5 70
t-58.5 86.5t-26 88zM782 2038h344l-309 -205h-244z" />
    <glyph glyph-name="uni1EAF" unicode="&#x1eaf;" horiz-adv-x="1144" 
d="M1012 719v-445q0 -75 4.5 -165t9.5 -109h-281q-14 35 -14 104q-85 -129 -299 -129q-92 0 -164 28.5t-114 76.5t-63 105.5t-21 121.5q0 177 132 266t371 89h152v63q0 67 -35 108t-129 41q-86 0 -120 -32t-44 -97h-278q5 74 31.5 133t78.5 107t139 74t205 26
q217 -2 328 -90.5t111 -275.5zM725 455v28h-119q-130 0 -187 -39t-57 -118q0 -61 39.5 -101.5t114.5 -40.5q67 0 110.5 21.5t64 63t27.5 84t7 102.5zM236 1446h202q24 -96 135 -96t138 96h198q-9 -55 -31.5 -101t-61.5 -84.5t-102 -60.5t-145 -22q-80 0 -142.5 23.5
t-100.5 63.5t-60 85t-30 96zM653 1722h293l-266 -225h-229z" />
    <glyph glyph-name="uni1EB0" unicode="&#x1eb0;" horiz-adv-x="1409" 
d="M948 326h-516l-108 -326h-301l479 1411h383l501 -1411h-321zM498 575h385q-165 492 -199 617h-2q-37 -145 -184 -617zM350 1778h209q13 -40 50.5 -66t95.5 -26q114 0 147 92h211q-13 -54 -36.5 -98.5t-64.5 -85.5t-107.5 -64t-152.5 -23q-91 0 -160 26.5t-107.5 70
t-58.5 86.5t-26 88zM293 2038h346l207 -205h-252z" />
    <glyph glyph-name="uni1EB1" unicode="&#x1eb1;" horiz-adv-x="1144" 
d="M1012 719v-445q0 -75 4.5 -165t9.5 -109h-281q-14 35 -14 104q-85 -129 -299 -129q-92 0 -164 28.5t-114 76.5t-63 105.5t-21 121.5q0 177 132 266t371 89h152v63q0 67 -35 108t-129 41q-86 0 -120 -32t-44 -97h-278q5 74 31.5 133t78.5 107t139 74t205 26
q217 -2 328 -90.5t111 -275.5zM725 455v28h-119q-130 0 -187 -39t-57 -118q0 -61 39.5 -101.5t114.5 -40.5q67 0 110.5 21.5t64 63t27.5 84t7 102.5zM236 1446h202q24 -96 135 -96t138 96h198q-9 -55 -31.5 -101t-61.5 -84.5t-102 -60.5t-145 -22q-80 0 -142.5 23.5
t-100.5 63.5t-60 85t-30 96zM207 1722h303l203 -225h-234z" />
    <glyph glyph-name="uni1EB2" unicode="&#x1eb2;" horiz-adv-x="1409" 
d="M948 326h-516l-108 -326h-301l479 1411h383l501 -1411h-321zM498 575h385q-165 492 -199 617h-2q-37 -145 -184 -617zM797 1815h-201q52 41 74 70t22 61q0 47 -61 47q-48 0 -105 -31l-53 129q82 66 217 66q94 0 147.5 -47t53.5 -123q0 -95 -94 -172zM348 1778h209
q32 -92 145 -92q63 0 95.5 24.5t54.5 67.5h209q-17 -57 -41 -100.5t-64 -84.5t-105 -63.5t-151 -22.5q-73 0 -133 18.5t-97.5 46.5t-64.5 66t-39.5 72t-17.5 68z" />
    <glyph glyph-name="uni1EB3" unicode="&#x1eb3;" horiz-adv-x="1144" 
d="M1012 719v-445q0 -75 4.5 -165t9.5 -109h-281q-14 35 -14 104q-85 -129 -299 -129q-92 0 -164 28.5t-114 76.5t-63 105.5t-21 121.5q0 177 132 266t371 89h152v63q0 67 -35 108t-129 41q-86 0 -120 -32t-44 -97h-278q5 74 31.5 133t78.5 107t139 74t205 26
q217 -2 328 -90.5t111 -275.5zM725 455v28h-119q-130 0 -187 -39t-57 -118q0 -61 39.5 -101.5t114.5 -40.5q67 0 110.5 21.5t64 63t27.5 84t7 102.5zM651 1487h-188q104 79 104 135q0 53 -59 53q-58 0 -102 -33l-46 125q83 70 207 70q96 0 146.5 -45t50.5 -125
q0 -111 -113 -180zM238 1446h202q24 -96 135 -96t138 96h198q-9 -55 -31.5 -101t-61.5 -84.5t-102 -60.5t-145 -22q-80 0 -142.5 23.5t-100.5 63.5t-60 85t-30 96z" />
    <glyph glyph-name="uni1EB4" unicode="&#x1eb4;" horiz-adv-x="1409" 
d="M948 326h-516l-108 -326h-301l479 1411h383l501 -1411h-321zM498 575h385q-165 492 -199 617h-2q-37 -145 -184 -617zM504 1806h-160v23q0 205 186 205q74 0 180.5 -33t149.5 -33q26 0 38.5 10t12.5 39v13h154v-27q0 -109 -45 -154t-131 -45q-66 0 -182.5 32t-153.5 32
q-49 0 -49 -51v-11zM342 1726h213q15 -31 52.5 -53t94.5 -22q119 0 150 75h209q-63 -229 -363 -229q-87 0 -153.5 21t-106 57.5t-62 72.5t-34.5 78z" />
    <glyph glyph-name="uni1EB5" unicode="&#x1eb5;" horiz-adv-x="1144" 
d="M1012 719v-445q0 -75 4.5 -165t9.5 -109h-281q-14 35 -14 104q-85 -129 -299 -129q-92 0 -164 28.5t-114 76.5t-63 105.5t-21 121.5q0 177 132 266t371 89h152v63q0 67 -35 108t-129 41q-86 0 -120 -32t-44 -97h-278q5 74 31.5 133t78.5 107t139 74t205 26
q217 -2 328 -90.5t111 -275.5zM725 455v28h-119q-130 0 -187 -39t-57 -118q0 -61 39.5 -101.5t114.5 -40.5q67 0 110.5 21.5t64 63t27.5 84t7 102.5zM416 1522h-158v22q0 107 47.5 156t124.5 49q51 0 103 -16.5t92 -33t63 -16.5q25 0 37 10.5t12 39.5v12h156v-27
q0 -198 -176 -198q-57 0 -140.5 31.5t-111.5 31.5q-49 0 -49 -51v-10zM260 1434h189q36 -82 126 -82q102 0 127 82h191q-16 -108 -97.5 -180t-224.5 -72q-141 0 -220 74t-91 178z" />
    <glyph glyph-name="uni1EB6" unicode="&#x1eb6;" horiz-adv-x="1409" 
d="M948 326h-516l-108 -326h-301l479 1411h383l501 -1411h-321zM498 575h385q-165 492 -199 617h-2q-37 -145 -184 -617zM856 -410h-303v287h303v-287zM350 1815h207q8 -49 46.5 -81t98.5 -32q126 0 150 113h203q-8 -58 -31.5 -108.5t-64.5 -94t-108 -69t-153 -25.5
q-71 0 -129 17.5t-96.5 46.5t-65.5 68.5t-40 80t-17 84.5z" />
    <glyph glyph-name="uni1EB7" unicode="&#x1eb7;" horiz-adv-x="1144" 
d="M1012 719v-445q0 -75 4.5 -165t9.5 -109h-281q-14 35 -14 104q-85 -129 -299 -129q-92 0 -164 28.5t-114 76.5t-63 105.5t-21 121.5q0 177 132 266t371 89h152v63q0 67 -35 108t-129 41q-86 0 -120 -32t-44 -97h-278q5 74 31.5 133t78.5 107t139 74t205 26
q217 -2 328 -90.5t111 -275.5zM725 455v28h-119q-130 0 -187 -39t-57 -118q0 -61 39.5 -101.5t114.5 -40.5q67 0 110.5 21.5t64 63t27.5 84t7 102.5zM248 1491h201q29 -109 126 -109q61 0 86.5 28t40.5 81h201q-17 -133 -98.5 -219t-233.5 -86q-81 0 -143.5 26t-99.5 70
t-56.5 96.5t-23.5 112.5zM750 -410h-304v287h304v-287z" />
    <glyph glyph-name="uni1EB8" unicode="&#x1eb8;" horiz-adv-x="1265" 
d="M1141 860v-252h-676v-358h745l-36 -250h-1006v1411h1001v-250h-704v-301h676zM827 -410h-303v287h303v-287z" />
    <glyph glyph-name="uni1EB9" unicode="&#x1eb9;" horiz-adv-x="1136" 
d="M1065 467h-700q0 -108 55 -185t158 -77q44 0 76 8t52.5 25t32.5 34.5t25 44.5h293q-13 -44 -32.5 -85.5t-59 -90t-90.5 -84t-130 -59t-174 -23.5q-102 0 -186 29.5t-142 80t-97.5 119.5t-57.5 147t-18 163q0 259 131.5 415t380.5 156q105 0 189 -30t139 -79.5
t91.5 -118.5t52 -143.5t15.5 -156.5q0 -59 -4 -90zM371 647h403q-2 102 -48 164.5t-146 62.5q-188 0 -209 -227zM739 -410h-303v287h303v-287z" />
    <glyph glyph-name="uni1EBA" unicode="&#x1eba;" horiz-adv-x="1265" 
d="M1141 860v-252h-676v-358h745l-36 -250h-1006v1411h1001v-250h-704v-301h676zM799 1530h-226q57 55 78 87t21 69q0 27 -18 43t-54 16q-46 0 -106 -29l-58 158q105 63 238 63q113 0 177 -53.5t64 -138.5q0 -117 -116 -215z" />
    <glyph glyph-name="uni1EBB" unicode="&#x1ebb;" horiz-adv-x="1136" 
d="M1065 467h-700q0 -108 55 -185t158 -77q44 0 76 8t52.5 25t32.5 34.5t25 44.5h293q-13 -44 -32.5 -85.5t-59 -90t-90.5 -84t-130 -59t-174 -23.5q-102 0 -186 29.5t-142 80t-97.5 119.5t-57.5 147t-18 163q0 259 131.5 415t380.5 156q105 0 189 -30t139 -79.5
t91.5 -118.5t52 -143.5t15.5 -156.5q0 -59 -4 -90zM371 647h403q-2 102 -48 164.5t-146 62.5q-188 0 -209 -227zM696 1186h-225q57 55 77.5 86.5t20.5 68.5q0 27 -18 43.5t-53 16.5q-47 0 -107 -29l-57 158q105 63 237 63q113 0 177.5 -53.5t64.5 -138.5q0 -116 -117 -215z
" />
    <glyph glyph-name="uni1EBC" unicode="&#x1ebc;" horiz-adv-x="1265" 
d="M1141 860v-252h-676v-358h745l-36 -250h-1006v1411h1001v-250h-704v-301h676zM489 1552h-190v72q0 120 50.5 169.5t146.5 49.5q59 0 122.5 -23t114 -46t76.5 -23q53 0 53 70v18h185v-51q0 -138 -51.5 -193t-153.5 -55q-47 0 -109 23t-115 46t-79 23q-50 0 -50 -49v-31z
" />
    <glyph glyph-name="uni1EBD" unicode="&#x1ebd;" horiz-adv-x="1136" 
d="M1065 467h-700q0 -108 55 -185t158 -77q44 0 76 8t52.5 25t32.5 34.5t25 44.5h293q-13 -44 -32.5 -85.5t-59 -90t-90.5 -84t-130 -59t-174 -23.5q-102 0 -186 29.5t-142 80t-97.5 119.5t-57.5 147t-18 163q0 259 131.5 415t380.5 156q105 0 189 -30t139 -79.5
t91.5 -118.5t52 -143.5t15.5 -156.5q0 -59 -4 -90zM371 647h403q-2 102 -48 164.5t-146 62.5q-188 0 -209 -227zM403 1206h-188v70q0 120 50 171.5t141 51.5q53 0 108 -21.5t98.5 -43t69.5 -21.5t38.5 16t12.5 56v18h185v-55q0 -136 -53 -192t-148 -56q-55 0 -107.5 21
t-93.5 42t-67 21q-24 0 -35 -11t-11 -38v-29z" />
    <glyph glyph-name="uni1EBE" unicode="&#x1ebe;" horiz-adv-x="1265" 
d="M1141 860v-252h-676v-358h745l-36 -250h-1006v1411h1001v-250h-704v-301h676zM514 1800h297l270 -268h-293l-118 127l-115 -127h-297zM1171 1978h322l-295 -249h-229z" />
    <glyph glyph-name="uni1EBF" unicode="&#x1ebf;" horiz-adv-x="1136" 
d="M1065 467h-700q0 -108 55 -185t158 -77q44 0 76 8t52.5 25t32.5 34.5t25 44.5h293q-13 -44 -32.5 -85.5t-59 -90t-90.5 -84t-130 -59t-174 -23.5q-102 0 -186 29.5t-142 80t-97.5 119.5t-57.5 147t-18 163q0 259 131.5 415t380.5 156q105 0 189 -30t139 -79.5
t91.5 -118.5t52 -143.5t15.5 -156.5q0 -59 -4 -90zM371 647h403q-2 102 -48 164.5t-146 62.5q-188 0 -209 -227zM428 1444h283l211 -268h-244l-111 137l-106 -137h-244zM1036 1677h281l-287 -272h-207z" />
    <glyph glyph-name="uni1EC0" unicode="&#x1ec0;" horiz-adv-x="1265" 
d="M1141 860v-252h-676v-358h745l-36 -250h-1006v1411h1001v-250h-704v-301h676zM514 1802h297l270 -268h-293l-118 127l-115 -127h-297zM807 1962h326l190 -236h-217z" />
    <glyph glyph-name="uni1EC1" unicode="&#x1ec1;" horiz-adv-x="1136" 
d="M1065 467h-700q0 -108 55 -185t158 -77q44 0 76 8t52.5 25t32.5 34.5t25 44.5h293q-13 -44 -32.5 -85.5t-59 -90t-90.5 -84t-130 -59t-174 -23.5q-102 0 -186 29.5t-142 80t-97.5 119.5t-57.5 147t-18 163q0 259 131.5 415t380.5 156q105 0 189 -30t139 -79.5
t91.5 -118.5t52 -143.5t15.5 -156.5q0 -59 -4 -90zM371 647h403q-2 102 -48 164.5t-146 62.5q-188 0 -209 -227zM428 1444h283l211 -268h-244l-111 137l-106 -137h-244zM676 1667h291l219 -281h-221z" />
    <glyph glyph-name="uni1EC2" unicode="&#x1ec2;" horiz-adv-x="1265" 
d="M1141 860v-252h-676v-358h745l-36 -250h-1006v1411h1001v-250h-704v-301h676zM1190 1726h-205q94 74 94 148q0 49 -65 49q-51 0 -111 -37l-51 129q90 78 223 78q98 0 154.5 -49t56.5 -127q0 -108 -96 -191zM512 1802h297l270 -268h-293l-118 131l-115 -131h-297z" />
    <glyph glyph-name="uni1EC3" unicode="&#x1ec3;" horiz-adv-x="1136" 
d="M1065 467h-700q0 -108 55 -185t158 -77q44 0 76 8t52.5 25t32.5 34.5t25 44.5h293q-13 -44 -32.5 -85.5t-59 -90t-90.5 -84t-130 -59t-174 -23.5q-102 0 -186 29.5t-142 80t-97.5 119.5t-57.5 147t-18 163q0 259 131.5 415t380.5 156q105 0 189 -30t139 -79.5
t91.5 -118.5t52 -143.5t15.5 -156.5q0 -59 -4 -90zM371 647h403q-2 102 -48 164.5t-146 62.5q-188 0 -209 -227zM1047 1393h-205q104 77 104 135q0 51 -61 51q-57 0 -101 -33l-45 129q86 64 205 64q98 0 148.5 -44t50.5 -122q0 -115 -96 -180zM426 1444h283l211 -268h-244
l-111 137l-106 -137h-244z" />
    <glyph glyph-name="uni1EC4" unicode="&#x1ec4;" horiz-adv-x="1265" 
d="M1141 860v-252h-676v-358h745l-36 -250h-1006v1411h1001v-250h-704v-301h676zM471 1798h-160v21q0 206 187 206q74 0 180 -32.5t149 -32.5q26 0 39 10t13 39v12h153v-26q0 -109 -45 -154t-131 -45q-66 0 -182.5 32t-153.5 32q-49 0 -49 -52v-10zM514 1729h313l234 -213
h-273l-118 102l-115 -102h-276z" />
    <glyph glyph-name="uni1EC5" unicode="&#x1ec5;" horiz-adv-x="1136" 
d="M1065 467h-700q0 -108 55 -185t158 -77q44 0 76 8t52.5 25t32.5 34.5t25 44.5h293q-13 -44 -32.5 -85.5t-59 -90t-90.5 -84t-130 -59t-174 -23.5q-102 0 -186 29.5t-142 80t-97.5 119.5t-57.5 147t-18 163q0 259 131.5 415t380.5 156q105 0 189 -30t139 -79.5
t91.5 -118.5t52 -143.5t15.5 -156.5q0 -59 -4 -90zM371 647h403q-2 102 -48 164.5t-146 62.5q-188 0 -209 -227zM408 1489h-158v22q0 107 47.5 156t124.5 49q67 0 151.5 -32.5t106.5 -32.5q25 0 37 10.5t12 38.5v12h156v-24q0 -201 -176 -201q-57 0 -140.5 31.5t-111.5 31.5
q-49 0 -49 -51v-10zM422 1403h289l227 -229h-256l-121 112l-110 -112h-252z" />
    <glyph glyph-name="uni1EC6" unicode="&#x1ec6;" horiz-adv-x="1265" 
d="M1141 860v-252h-676v-358h745l-36 -250h-1006v1411h1001v-250h-704v-301h676zM842 -410h-303v287h303v-287zM524 1817h289l260 -283h-270l-137 143l-136 -143h-272z" />
    <glyph glyph-name="uni1EC7" unicode="&#x1ec7;" horiz-adv-x="1136" 
d="M1065 467h-700q0 -108 55 -185t158 -77q44 0 76 8t52.5 25t32.5 34.5t25 44.5h293q-13 -44 -32.5 -85.5t-59 -90t-90.5 -84t-130 -59t-174 -23.5q-102 0 -186 29.5t-142 80t-97.5 119.5t-57.5 147t-18 163q0 259 131.5 415t380.5 156q105 0 189 -30t139 -79.5
t91.5 -118.5t52 -143.5t15.5 -156.5q0 -59 -4 -90zM371 647h403q-2 102 -48 164.5t-146 62.5q-188 0 -209 -227zM739 -410h-303v287h303v-287zM461 1493h252l237 -305h-262l-104 151l-97 -151h-264z" />
    <glyph glyph-name="uni1EC8" unicode="&#x1ec8;" horiz-adv-x="641" 
d="M168 1411h305v-1411h-305v1411zM430 1530h-225q56 55 77 87t21 69q0 27 -18 43t-54 16q-46 0 -106 -29l-57 158q105 63 237 63q113 0 177.5 -53.5t64.5 -138.5q0 -116 -117 -215z" />
    <glyph glyph-name="uni1EC9" unicode="&#x1ec9;" horiz-adv-x="557" 
d="M131 0v1061h295v-1061h-295zM387 1188h-225q57 55 77.5 86.5t20.5 68.5q0 27 -18 43.5t-54 16.5q-46 0 -106 -29l-57 158q105 63 237 63q113 0 177.5 -53.5t64.5 -138.5q0 -116 -117 -215z" />
    <glyph glyph-name="uni1ECA" unicode="&#x1eca;" horiz-adv-x="641" 
d="M168 1411h305v-1411h-305v1411zM473 -410h-303v287h303v-287z" />
    <glyph glyph-name="uni1ECB" unicode="&#x1ecb;" horiz-adv-x="557" 
d="M131 0v1061h295v-1061h-295zM426 1233h-295v262h295v-262zM430 -410h-303v287h303v-287z" />
    <glyph glyph-name="uni1ECC" unicode="&#x1ecc;" horiz-adv-x="1566" 
d="M793 1432q204 0 357.5 -90t235.5 -253t82 -378q0 -149 -44.5 -280t-129.5 -232.5t-219 -160t-301 -58.5q-162 0 -292 56.5t-213 155t-127 230t-44 285.5t47.5 286.5t135 230t219.5 153t293 55.5zM780 1184q-184 0 -275 -127.5t-91 -343.5q0 -105 23 -192.5t68 -153.5
t116.5 -103t162.5 -37q98 0 171.5 39t115.5 107.5t62 151.5t20 182q0 139 -37.5 243.5t-123 169t-212.5 64.5zM934 -428h-303v287h303v-287z" />
    <glyph glyph-name="uni1ECD" unicode="&#x1ecd;" horiz-adv-x="1187" 
d="M604 1085q233 0 373.5 -152t140.5 -401q0 -162 -61 -287t-182 -197.5t-285 -72.5q-160 0 -279.5 72.5t-180 196.5t-60.5 282q0 250 143 404.5t391 154.5zM592 854q-105 0 -165 -81t-60 -243q0 -153 61.5 -239t167.5 -86q108 0 166.5 85t58.5 238q0 326 -229 326z
M745 -420h-303v287h303v-287z" />
    <glyph glyph-name="uni1ECE" unicode="&#x1ece;" horiz-adv-x="1566" 
d="M793 1432q204 0 357.5 -90t235.5 -253t82 -378q0 -149 -44.5 -280t-129.5 -232.5t-219 -160t-301 -58.5q-162 0 -292 56.5t-213 155t-127 230t-44 285.5t47.5 286.5t135 230t219.5 153t293 55.5zM780 1184q-184 0 -275 -127.5t-91 -343.5q0 -105 23 -192.5t68 -153.5
t116.5 -103t162.5 -37q98 0 171.5 39t115.5 107.5t62 151.5t20 182q0 139 -37.5 243.5t-123 169t-212.5 64.5zM891 1532h-225q56 55 77 87t21 69q0 27 -18 43t-54 16q-46 0 -106 -29l-58 158q105 63 238 63q113 0 177.5 -53.5t64.5 -138.5q0 -116 -117 -215z" />
    <glyph glyph-name="uni1ECF" unicode="&#x1ecf;" horiz-adv-x="1187" 
d="M604 1085q233 0 373.5 -152t140.5 -401q0 -162 -61 -287t-182 -197.5t-285 -72.5q-160 0 -279.5 72.5t-180 196.5t-60.5 282q0 250 143 404.5t391 154.5zM592 854q-105 0 -165 -81t-60 -243q0 -153 61.5 -239t167.5 -86q108 0 166.5 85t58.5 238q0 326 -229 326z
M702 1188h-225q57 55 77.5 86.5t20.5 68.5q0 27 -18 43.5t-53 16.5q-47 0 -107 -29l-57 158q105 63 238 63q113 0 177 -53.5t64 -138.5q0 -116 -117 -215z" />
    <glyph glyph-name="uni1ED0" unicode="&#x1ed0;" horiz-adv-x="1566" 
d="M793 1432q204 0 357.5 -90t235.5 -253t82 -378q0 -149 -44.5 -280t-129.5 -232.5t-219 -160t-301 -58.5q-162 0 -292 56.5t-213 155t-127 230t-44 285.5t47.5 286.5t135 230t219.5 153t293 55.5zM780 1184q-184 0 -275 -127.5t-91 -343.5q0 -105 23 -192.5t68 -153.5
t116.5 -103t162.5 -37q98 0 171.5 39t115.5 107.5t62 151.5t20 182q0 139 -37.5 243.5t-123 169t-212.5 64.5zM627 1800h297l270 -268h-293l-119 127l-114 -127h-297zM1284 1978h322l-295 -249h-230z" />
    <glyph glyph-name="uni1ED1" unicode="&#x1ed1;" horiz-adv-x="1187" 
d="M604 1085q233 0 373.5 -152t140.5 -401q0 -162 -61 -287t-182 -197.5t-285 -72.5q-160 0 -279.5 72.5t-180 196.5t-60.5 282q0 250 143 404.5t391 154.5zM592 854q-105 0 -165 -81t-60 -243q0 -153 61.5 -239t167.5 -86q108 0 166.5 85t58.5 238q0 326 -229 326z
M453 1444h282l211 -268h-244l-110 137l-107 -137h-243zM1061 1677h280l-286 -272h-207z" />
    <glyph glyph-name="uni1ED2" unicode="&#x1ed2;" horiz-adv-x="1566" 
d="M793 1432q204 0 357.5 -90t235.5 -253t82 -378q0 -149 -44.5 -280t-129.5 -232.5t-219 -160t-301 -58.5q-162 0 -292 56.5t-213 155t-127 230t-44 285.5t47.5 286.5t135 230t219.5 153t293 55.5zM780 1184q-184 0 -275 -127.5t-91 -343.5q0 -105 23 -192.5t68 -153.5
t116.5 -103t162.5 -37q98 0 171.5 39t115.5 107.5t62 151.5t20 182q0 139 -37.5 243.5t-123 169t-212.5 64.5zM627 1800h297l270 -268h-293l-119 127l-114 -127h-297zM920 1960h325l191 -236h-217z" />
    <glyph glyph-name="uni1ED3" unicode="&#x1ed3;" horiz-adv-x="1187" 
d="M604 1085q233 0 373.5 -152t140.5 -401q0 -162 -61 -287t-182 -197.5t-285 -72.5q-160 0 -279.5 72.5t-180 196.5t-60.5 282q0 250 143 404.5t391 154.5zM592 854q-105 0 -165 -81t-60 -243q0 -153 61.5 -239t167.5 -86q108 0 166.5 85t58.5 238q0 326 -229 326z
M453 1444h282l211 -268h-244l-110 137l-107 -137h-243zM700 1667h291l219 -281h-221z" />
    <glyph glyph-name="uni1ED4" unicode="&#x1ed4;" horiz-adv-x="1566" 
d="M793 1432q204 0 357.5 -90t235.5 -253t82 -378q0 -149 -44.5 -280t-129.5 -232.5t-219 -160t-301 -58.5q-162 0 -292 56.5t-213 155t-127 230t-44 285.5t47.5 286.5t135 230t219.5 153t293 55.5zM780 1184q-184 0 -275 -127.5t-91 -343.5q0 -105 23 -192.5t68 -153.5
t116.5 -103t162.5 -37q98 0 171.5 39t115.5 107.5t62 151.5t20 182q0 139 -37.5 243.5t-123 169t-212.5 64.5zM1305 1724h-205q94 74 94 148q0 49 -66 49q-50 0 -110 -37l-51 129q90 78 223 78q98 0 154.5 -49t56.5 -127q0 -108 -96 -191zM627 1800h297l270 -268h-293
l-119 131l-114 -131h-297z" />
    <glyph glyph-name="uni1ED5" unicode="&#x1ed5;" horiz-adv-x="1187" 
d="M604 1085q233 0 373.5 -152t140.5 -401q0 -162 -61 -287t-182 -197.5t-285 -72.5q-160 0 -279.5 72.5t-180 196.5t-60.5 282q0 250 143 404.5t391 154.5zM592 854q-105 0 -165 -81t-60 -243q0 -153 61.5 -239t167.5 -86q108 0 166.5 85t58.5 238q0 326 -229 326z
M1073 1393h-205q105 77 105 135q0 51 -62 51q-56 0 -100 -33l-45 129q86 64 205 64q98 0 148 -44t50 -122q0 -115 -96 -180zM453 1444h282l211 -268h-244l-110 137l-107 -137h-243z" />
    <glyph glyph-name="uni1ED6" unicode="&#x1ed6;" horiz-adv-x="1566" 
d="M793 1432q204 0 357.5 -90t235.5 -253t82 -378q0 -149 -44.5 -280t-129.5 -232.5t-219 -160t-301 -58.5q-162 0 -292 56.5t-213 155t-127 230t-44 285.5t47.5 286.5t135 230t219.5 153t293 55.5zM780 1184q-184 0 -275 -127.5t-91 -343.5q0 -105 23 -192.5t68 -153.5
t116.5 -103t162.5 -37q98 0 171.5 39t115.5 107.5t62 151.5t20 182q0 139 -37.5 243.5t-123 169t-212.5 64.5zM582 1796h-160v21q0 206 186 206q74 0 180.5 -32.5t149.5 -32.5q26 0 38.5 10t12.5 39v12h154v-26q0 -109 -45 -154t-131 -45q-66 0 -182.5 32t-153.5 32
q-49 0 -49 -52v-10zM625 1726h313l233 -213h-272l-119 103l-114 -103h-277z" />
    <glyph glyph-name="uni1ED7" unicode="&#x1ed7;" horiz-adv-x="1187" 
d="M604 1085q233 0 373.5 -152t140.5 -401q0 -162 -61 -287t-182 -197.5t-285 -72.5q-160 0 -279.5 72.5t-180 196.5t-60.5 282q0 250 143 404.5t391 154.5zM592 854q-105 0 -165 -81t-60 -243q0 -153 61.5 -239t167.5 -86q108 0 166.5 85t58.5 238q0 326 -229 326z
M434 1485h-158v22q0 107 48 156t125 49q67 0 151.5 -32.5t106.5 -32.5q25 0 37 10.5t12 38.5v12h155v-25q0 -200 -176 -200q-57 0 -140.5 31.5t-111.5 31.5q-49 0 -49 -51v-10zM449 1399h288l228 -230h-256l-121 113l-111 -113h-252z" />
    <glyph glyph-name="uni1ED8" unicode="&#x1ed8;" horiz-adv-x="1566" 
d="M793 1432q204 0 357.5 -90t235.5 -253t82 -378q0 -149 -44.5 -280t-129.5 -232.5t-219 -160t-301 -58.5q-162 0 -292 56.5t-213 155t-127 230t-44 285.5t47.5 286.5t135 230t219.5 153t293 55.5zM780 1184q-184 0 -275 -127.5t-91 -343.5q0 -105 23 -192.5t68 -153.5
t116.5 -103t162.5 -37q98 0 171.5 39t115.5 107.5t62 151.5t20 182q0 139 -37.5 243.5t-123 169t-212.5 64.5zM934 -424h-303v287h303v-287zM641 1806h289l260 -282h-270l-138 143l-135 -143h-272z" />
    <glyph glyph-name="uni1ED9" unicode="&#x1ed9;" horiz-adv-x="1187" 
d="M604 1085q233 0 373.5 -152t140.5 -401q0 -162 -61 -287t-182 -197.5t-285 -72.5q-160 0 -279.5 72.5t-180 196.5t-60.5 282q0 250 143 404.5t391 154.5zM592 854q-105 0 -165 -81t-60 -243q0 -153 61.5 -239t167.5 -86q108 0 166.5 85t58.5 238q0 326 -229 326z
M745 -410h-303v287h303v-287zM467 1493h252l237 -305h-262l-104 151l-96 -151h-265z" />
    <glyph glyph-name="uni1EDA" unicode="&#x1eda;" horiz-adv-x="1566" 
d="M793 1432q225 0 387 -109q69 25 69 92q0 61 -24 135h256q16 -56 16 -129q0 -84 -39 -151.5t-119 -104.5q129 -183 129 -454q0 -149 -44.5 -280t-129.5 -232.5t-219 -160t-301 -58.5q-162 0 -292 56.5t-213 155t-127 230t-44 285.5t47.5 286.5t135 230t219.5 153t293 55.5
zM780 1184q-184 0 -275 -127.5t-91 -343.5q0 -105 23 -192.5t68 -153.5t116.5 -103t162.5 -37q98 0 171.5 39t115.5 107.5t62 151.5t20 182q0 139 -37.5 243.5t-123 169t-212.5 64.5zM897 1825h356l-362 -285h-275z" />
    <glyph glyph-name="uni1EDB" unicode="&#x1edb;" horiz-adv-x="1187" 
d="M604 1085q180 0 309 -94q66 25 66 90q0 59 -25 136h256q17 -59 17 -130q0 -89 -43 -158.5t-131 -103.5q65 -124 65 -293q0 -162 -61 -287t-182 -197.5t-285 -72.5q-160 0 -279.5 72.5t-180 196.5t-60.5 282q0 250 143 404.5t391 154.5zM592 854q-105 0 -165 -81t-60 -243
q0 -153 61.5 -239t167.5 -86q108 0 166.5 85t58.5 238q0 326 -229 326zM672 1516h348l-328 -304h-256z" />
    <glyph glyph-name="uni1EDC" unicode="&#x1edc;" horiz-adv-x="1566" 
d="M793 1432q225 0 387 -109q69 25 69 92q0 61 -24 135h256q16 -56 16 -129q0 -84 -39 -151.5t-119 -104.5q129 -183 129 -454q0 -149 -44.5 -280t-129.5 -232.5t-219 -160t-301 -58.5q-162 0 -292 56.5t-213 155t-127 230t-44 285.5t47.5 286.5t135 230t219.5 153t293 55.5
zM780 1184q-184 0 -275 -127.5t-91 -343.5q0 -105 23 -192.5t68 -153.5t116.5 -103t162.5 -37q98 0 171.5 39t115.5 107.5t62 151.5t20 182q0 139 -37.5 243.5t-123 169t-212.5 64.5zM330 1825h364l254 -285h-270z" />
    <glyph glyph-name="uni1EDD" unicode="&#x1edd;" horiz-adv-x="1187" 
d="M604 1085q180 0 309 -94q66 25 66 90q0 59 -25 136h256q17 -59 17 -130q0 -89 -43 -158.5t-131 -103.5q65 -124 65 -293q0 -162 -61 -287t-182 -197.5t-285 -72.5q-160 0 -279.5 72.5t-180 196.5t-60.5 282q0 250 143 404.5t391 154.5zM592 854q-105 0 -165 -81t-60 -243
q0 -153 61.5 -239t167.5 -86q108 0 166.5 85t58.5 238q0 326 -229 326zM176 1516h350l234 -304h-258z" />
    <glyph glyph-name="uni1EDE" unicode="&#x1ede;" horiz-adv-x="1566" 
d="M793 1432q225 0 387 -109q69 25 69 92q0 61 -24 135h256q16 -56 16 -129q0 -84 -39 -151.5t-119 -104.5q129 -183 129 -454q0 -149 -44.5 -280t-129.5 -232.5t-219 -160t-301 -58.5q-162 0 -292 56.5t-213 155t-127 230t-44 285.5t47.5 286.5t135 230t219.5 153t293 55.5
zM780 1184q-184 0 -275 -127.5t-91 -343.5q0 -105 23 -192.5t68 -153.5t116.5 -103t162.5 -37q98 0 171.5 39t115.5 107.5t62 151.5t20 182q0 139 -37.5 243.5t-123 169t-212.5 64.5zM891 1530h-225q56 55 77 87t21 69q0 27 -18 43t-54 16q-46 0 -106 -29l-58 158
q105 63 238 63q113 0 177.5 -53.5t64.5 -138.5q0 -116 -117 -215z" />
    <glyph glyph-name="uni1EDF" unicode="&#x1edf;" horiz-adv-x="1187" 
d="M604 1085q180 0 309 -94q66 25 66 90q0 59 -25 136h256q17 -59 17 -130q0 -89 -43 -158.5t-131 -103.5q65 -124 65 -293q0 -162 -61 -287t-182 -197.5t-285 -72.5q-160 0 -279.5 72.5t-180 196.5t-60.5 282q0 250 143 404.5t391 154.5zM592 854q-105 0 -165 -81t-60 -243
q0 -153 61.5 -239t167.5 -86q108 0 166.5 85t58.5 238q0 326 -229 326zM702 1188h-225q57 55 77.5 86.5t20.5 68.5q0 27 -18 43.5t-53 16.5q-47 0 -107 -29l-57 158q105 63 238 63q113 0 177 -53.5t64 -138.5q0 -116 -117 -215z" />
    <glyph glyph-name="uni1EE0" unicode="&#x1ee0;" horiz-adv-x="1566" 
d="M793 1432q225 0 387 -109q69 25 69 92q0 61 -24 135h256q16 -56 16 -129q0 -84 -39 -151.5t-119 -104.5q129 -183 129 -454q0 -149 -44.5 -280t-129.5 -232.5t-219 -160t-301 -58.5q-162 0 -292 56.5t-213 155t-127 230t-44 285.5t47.5 286.5t135 230t219.5 153t293 55.5
zM780 1184q-184 0 -275 -127.5t-91 -343.5q0 -105 23 -192.5t68 -153.5t116.5 -103t162.5 -37q98 0 171.5 39t115.5 107.5t62 151.5t20 182q0 139 -37.5 243.5t-123 169t-212.5 64.5zM598 1548h-190v72q0 120 50 169.5t146 49.5q59 0 123 -23t114.5 -46t76.5 -23q53 0 53 70
v18h184v-51q0 -138 -51.5 -193t-153.5 -55q-47 0 -109 23t-115 46t-79 23q-49 0 -49 -49v-31z" />
    <glyph glyph-name="uni1EE1" unicode="&#x1ee1;" horiz-adv-x="1187" 
d="M604 1085q180 0 309 -94q66 25 66 90q0 59 -25 136h256q17 -59 17 -130q0 -89 -43 -158.5t-131 -103.5q65 -124 65 -293q0 -162 -61 -287t-182 -197.5t-285 -72.5q-160 0 -279.5 72.5t-180 196.5t-60.5 282q0 250 143 404.5t391 154.5zM592 854q-105 0 -165 -81t-60 -243
q0 -153 61.5 -239t167.5 -86q108 0 166.5 85t58.5 238q0 326 -229 326zM430 1206h-188v70q0 120 49.5 171.5t140.5 51.5q53 0 108 -21.5t99 -43t70 -21.5t38.5 16t12.5 56v18h184v-55q0 -136 -53 -192t-148 -56q-55 0 -107.5 21t-93.5 42t-67 21q-24 0 -34.5 -11t-10.5 -38
v-29z" />
    <glyph glyph-name="uni1EE2" unicode="&#x1ee2;" horiz-adv-x="1566" 
d="M793 1432q225 0 387 -109q69 25 69 92q0 61 -24 135h256q16 -56 16 -129q0 -84 -39 -151.5t-119 -104.5q129 -183 129 -454q0 -149 -44.5 -280t-129.5 -232.5t-219 -160t-301 -58.5q-162 0 -292 56.5t-213 155t-127 230t-44 285.5t47.5 286.5t135 230t219.5 153t293 55.5
zM780 1184q-184 0 -275 -127.5t-91 -343.5q0 -105 23 -192.5t68 -153.5t116.5 -103t162.5 -37q98 0 171.5 39t115.5 107.5t62 151.5t20 182q0 139 -37.5 243.5t-123 169t-212.5 64.5zM934 -418h-303v287h303v-287z" />
    <glyph glyph-name="uni1EE3" unicode="&#x1ee3;" horiz-adv-x="1187" 
d="M604 1085q180 0 309 -94q66 25 66 90q0 59 -25 136h256q17 -59 17 -130q0 -89 -43 -158.5t-131 -103.5q65 -124 65 -293q0 -162 -61 -287t-182 -197.5t-285 -72.5q-160 0 -279.5 72.5t-180 196.5t-60.5 282q0 250 143 404.5t391 154.5zM592 854q-105 0 -165 -81t-60 -243
q0 -153 61.5 -239t167.5 -86q108 0 166.5 85t58.5 238q0 326 -229 326zM745 -410h-303v287h303v-287z" />
    <glyph glyph-name="uni1EE4" unicode="&#x1ee4;" horiz-adv-x="1484" 
d="M150 1411h305v-840q0 -98 23.5 -169t66 -109.5t92.5 -56t111 -17.5q137 0 209.5 83t72.5 269v840h307v-825q0 -606 -594 -606q-593 0 -593 600v831zM895 -420h-303v287h303v-287z" />
    <glyph glyph-name="uni1EE5" unicode="&#x1ee5;" horiz-adv-x="1198" 
d="M1065 1061v-754q0 -213 2 -307h-287q-2 16 -8 123q-46 -78 -117 -113t-176 -35q-165 0 -258.5 100.5t-93.5 293.5v692h293v-633q0 -213 164 -213q101 0 144.5 63t43.5 218v565h293zM750 -428h-304v287h304v-287z" />
    <glyph glyph-name="uni1EE6" unicode="&#x1ee6;" horiz-adv-x="1484" 
d="M150 1411h305v-840q0 -98 23.5 -169t66 -109.5t92.5 -56t111 -17.5q137 0 209.5 83t72.5 269v840h307v-825q0 -606 -594 -606q-593 0 -593 600v831zM842 1509h-226q57 55 78 87t21 69q0 27 -18 43t-54 16q-48 0 -106 -28l-58 157q107 64 238 64q113 0 177 -53.5
t64 -139.5q0 -117 -116 -215z" />
    <glyph glyph-name="uni1EE7" unicode="&#x1ee7;" horiz-adv-x="1198" 
d="M1065 1061v-754q0 -213 2 -307h-287q-2 16 -8 123q-46 -78 -117 -113t-176 -35q-165 0 -258.5 100.5t-93.5 293.5v692h293v-633q0 -213 164 -213q101 0 144.5 63t43.5 218v565h293zM702 1188h-225q57 55 77.5 86.5t20.5 68.5q0 27 -18 43.5t-53 16.5q-47 0 -107 -29
l-57 158q105 63 238 63q113 0 177 -53.5t64 -138.5q0 -116 -117 -215z" />
    <glyph glyph-name="uni1EE8" unicode="&#x1ee8;" horiz-adv-x="1484" 
d="M150 1411h305v-840q0 -98 23.5 -169t66 -109.5t92.5 -56t111 -17.5q137 0 209.5 83t72.5 269v840h184q84 21 84 96q0 61 -24 135h256q16 -56 16 -129q0 -97 -52 -170.5t-157 -101.5v-655q0 -606 -594 -606q-593 0 -593 600v831zM872 1817h357l-363 -285h-274z" />
    <glyph glyph-name="uni1EE9" unicode="&#x1ee9;" horiz-adv-x="1198" 
d="M772 123q-46 -78 -117 -113t-176 -35q-165 0 -258.5 100.5t-93.5 293.5v692h293v-633q0 -213 164 -213q101 0 144.5 63t43.5 218v565h129q46 9 70 34.5t24 63.5q0 61 -24 135h256q16 -56 16 -129q0 -90 -44 -160t-134 -104v-594q0 -213 2 -307h-287q-2 16 -8 123z
M676 1516h348l-328 -304h-256z" />
    <glyph glyph-name="uni1EEA" unicode="&#x1eea;" horiz-adv-x="1484" 
d="M150 1411h305v-840q0 -98 23.5 -169t66 -109.5t92.5 -56t111 -17.5q137 0 209.5 83t72.5 269v840h184q84 21 84 96q0 61 -24 135h256q16 -56 16 -129q0 -97 -52 -170.5t-157 -101.5v-655q0 -606 -594 -606q-593 0 -593 600v831zM285 1798h364l254 -285h-270z" />
    <glyph glyph-name="uni1EEB" unicode="&#x1eeb;" horiz-adv-x="1198" 
d="M772 123q-46 -78 -117 -113t-176 -35q-165 0 -258.5 100.5t-93.5 293.5v692h293v-633q0 -213 164 -213q101 0 144.5 63t43.5 218v565h129q46 9 70 34.5t24 63.5q0 61 -24 135h256q16 -56 16 -129q0 -90 -44 -160t-134 -104v-594q0 -213 2 -307h-287q-2 16 -8 123z
M184 1516h351l233 -304h-258z" />
    <glyph glyph-name="uni1EEC" unicode="&#x1eec;" horiz-adv-x="1484" 
d="M150 1411h305v-840q0 -98 23.5 -169t66 -109.5t92.5 -56t111 -17.5q137 0 209.5 83t72.5 269v840h184q84 21 84 96q0 61 -24 135h256q16 -56 16 -129q0 -97 -52 -170.5t-157 -101.5v-655q0 -606 -594 -606q-593 0 -593 600v831zM846 1513h-225q56 55 77 87t21 69
q0 27 -18 43.5t-54 16.5q-46 0 -106 -29l-58 158q105 63 238 63q113 0 177.5 -53.5t64.5 -138.5q0 -117 -117 -216z" />
    <glyph glyph-name="uni1EED" unicode="&#x1eed;" horiz-adv-x="1198" 
d="M772 123q-46 -78 -117 -113t-176 -35q-165 0 -258.5 100.5t-93.5 293.5v692h293v-633q0 -213 164 -213q101 0 144.5 63t43.5 218v565h129q46 9 70 34.5t24 63.5q0 61 -24 135h256q16 -56 16 -129q0 -90 -44 -160t-134 -104v-594q0 -213 2 -307h-287q-2 16 -8 123z
M707 1188h-226q57 55 78 86.5t21 68.5q0 27 -18 43.5t-54 16.5q-47 0 -107 -29l-57 158q105 63 238 63q113 0 177 -53.5t64 -138.5q0 -117 -116 -215z" />
    <glyph glyph-name="uni1EEE" unicode="&#x1eee;" horiz-adv-x="1484" 
d="M150 1411h305v-840q0 -98 23.5 -169t66 -109.5t92.5 -56t111 -17.5q137 0 209.5 83t72.5 269v840h184q84 21 84 96q0 61 -24 135h256q16 -56 16 -129q0 -97 -52 -170.5t-157 -101.5v-655q0 -606 -594 -606q-593 0 -593 600v831zM559 1548h-190v72q0 120 50 169.5
t146 49.5q59 0 123 -23t114.5 -46t76.5 -23q53 0 53 70v18h184v-51q0 -138 -51.5 -193t-153.5 -55q-47 0 -109 23t-115 46t-79 23q-49 0 -49 -49v-31z" />
    <glyph glyph-name="uni1EEF" unicode="&#x1eef;" horiz-adv-x="1198" 
d="M772 123q-46 -78 -117 -113t-176 -35q-165 0 -258.5 100.5t-93.5 293.5v692h293v-633q0 -213 164 -213q101 0 144.5 63t43.5 218v565h129q46 9 70 34.5t24 63.5q0 61 -24 135h256q16 -56 16 -129q0 -90 -44 -160t-134 -104v-594q0 -213 2 -307h-287q-2 16 -8 123z
M434 1206h-188v70q0 120 49.5 171.5t140.5 51.5q53 0 108 -21.5t99 -43t70 -21.5t38.5 16t12.5 56v18h184v-55q0 -136 -52.5 -192t-147.5 -56q-55 0 -108 21t-94 42t-67 21q-24 0 -34.5 -11t-10.5 -38v-29z" />
    <glyph glyph-name="uni1EF0" unicode="&#x1ef0;" horiz-adv-x="1484" 
d="M150 1411h305v-840q0 -98 23.5 -169t66 -109.5t92.5 -56t111 -17.5q137 0 209.5 83t72.5 269v840h184q84 21 84 96q0 61 -24 135h256q16 -56 16 -129q0 -97 -52 -170.5t-157 -101.5v-655q0 -606 -594 -606q-593 0 -593 600v831zM895 -410h-303v287h303v-287z" />
    <glyph glyph-name="uni1EF1" unicode="&#x1ef1;" horiz-adv-x="1198" 
d="M772 123q-46 -78 -117 -113t-176 -35q-165 0 -258.5 100.5t-93.5 293.5v692h293v-633q0 -213 164 -213q101 0 144.5 63t43.5 218v565h129q46 9 70 34.5t24 63.5q0 61 -24 135h256q16 -56 16 -129q0 -90 -44 -160t-134 -104v-594q0 -213 2 -307h-287q-2 16 -8 123z
M750 -410h-304v287h304v-287z" />
    <glyph glyph-name="Ygrave" unicode="&#x1ef2;" horiz-adv-x="1267" 
d="M784 0h-305v500q0 26 -12 45l-487 866h346q203 -398 321 -649q65 158 322 649h319l-493 -862q-11 -27 -11 -45v-504zM176 1808h365l254 -284h-271z" />
    <glyph glyph-name="ygrave" unicode="&#x1ef3;" horiz-adv-x="1062" 
d="M10 1061h316q204 -687 221 -791h2q37 169 211 791h293l-357 -1092q-76 -233 -164 -314t-276 -81q-69 0 -137 8v236q40 -4 76 -4q83 0 127.5 33t74.5 120zM115 1516h350l233 -304h-258z" />
    <glyph glyph-name="uni1EF4" unicode="&#x1ef4;" horiz-adv-x="1267" 
d="M784 0h-305v500q0 26 -12 45l-487 866h346q203 -398 321 -649q65 158 322 649h319l-493 -862q-11 -27 -11 -45v-504zM784 -410h-303v287h303v-287z" />
    <glyph glyph-name="uni1EF5" unicode="&#x1ef5;" horiz-adv-x="1062" 
d="M10 1061h316q204 -687 221 -791h2q37 169 211 791h293l-357 -1092q-76 -233 -164 -314t-276 -81q-69 0 -137 8v236q40 -4 76 -4q83 0 127.5 33t74.5 120zM1057 -410h-303v287h303v-287z" />
    <glyph glyph-name="uni1EF6" unicode="&#x1ef6;" horiz-adv-x="1267" 
d="M784 0h-305v500q0 26 -12 45l-487 866h346q203 -398 321 -649q65 158 322 649h319l-493 -862q-11 -27 -11 -45v-504zM743 1507h-225q56 55 77 87t21 69q0 59 -71 59q-49 0 -107 -28l-57 157q107 64 237 64q113 0 177.5 -54t64.5 -139q0 -116 -117 -215z" />
    <glyph glyph-name="uni1EF7" unicode="&#x1ef7;" horiz-adv-x="1062" 
d="M10 1061h316q204 -687 221 -791h2q37 169 211 791h293l-357 -1092q-76 -233 -164 -314t-276 -81q-69 0 -137 8v236q40 -4 76 -4q83 0 127.5 33t74.5 120zM641 1188h-225q57 55 77.5 86.5t20.5 68.5q0 27 -18 43.5t-54 16.5q-46 0 -106 -29l-57 158q105 63 237 63
q113 0 177.5 -53.5t64.5 -138.5q0 -116 -117 -215z" />
    <glyph glyph-name="uni1EF8" unicode="&#x1ef8;" horiz-adv-x="1267" 
d="M784 0h-305v500q0 26 -12 45l-487 866h346q203 -398 321 -649q65 158 322 649h319l-493 -862q-11 -27 -11 -45v-504zM451 1548h-191v72q0 120 50.5 169.5t146.5 49.5q59 0 122.5 -23t114 -46t76.5 -23q53 0 53 70v18h185v-51q0 -138 -51.5 -193t-153.5 -55q-47 0 -109 23
t-115 46t-79 23q-49 0 -49 -49v-31z" />
    <glyph glyph-name="uni1EF9" unicode="&#x1ef9;" horiz-adv-x="1062" 
d="M10 1061h316q204 -687 221 -791h2q37 169 211 791h293l-357 -1092q-76 -233 -164 -314t-276 -81q-69 0 -137 8v236q40 -4 76 -4q83 0 127.5 33t74.5 120zM369 1206h-189v70q0 120 50 171.5t141 51.5q53 0 108 -21.5t98.5 -43t69.5 -21.5t38.5 16t12.5 56v18h185v-55
q0 -136 -53 -192t-148 -56q-55 0 -107.5 21t-93.5 42t-67 21q-24 0 -34.5 -11t-10.5 -38v-29z" />
    <glyph glyph-name="uni2007" unicode="&#x2007;" horiz-adv-x="1165" 
 />
    <glyph glyph-name="uni2010" unicode="&#x2010;" horiz-adv-x="790" 
d="M111 655h569v-256h-569v256z" />
    <glyph glyph-name="figuredash" unicode="&#x2012;" horiz-adv-x="1165" 
d="M166 770h833v-242h-833v242z" />
    <glyph glyph-name="endash" unicode="&#x2013;" horiz-adv-x="1005" 
d="M111 649h782v-243h-782v243z" />
    <glyph glyph-name="emdash" unicode="&#x2014;" horiz-adv-x="1728" 
d="M111 649h1507v-243h-1507v243z" />
    <glyph glyph-name="uni2015" unicode="&#x2015;" horiz-adv-x="1728" 
d="M111 649h1507v-243h-1507v243z" />
    <glyph glyph-name="quoteleft" unicode="&#x2018;" horiz-adv-x="565" 
d="M254 1495h235q-42 -146 -68.5 -313.5t-29.5 -294.5h-307q10 149 57 316t113 292z" />
    <glyph glyph-name="quoteright" unicode="&#x2019;" horiz-adv-x="565" 
d="M313 887h-235q41 147 67 314.5t29 293.5h309q-12 -150 -58.5 -317.5t-111.5 -290.5z" />
    <glyph glyph-name="quotesinglbase" unicode="&#x201a;" horiz-adv-x="565" 
d="M313 -287h-235q41 147 67 315t29 294h309q-12 -150 -58.5 -318t-111.5 -291z" />
    <glyph glyph-name="quotedblleft" unicode="&#x201c;" horiz-adv-x="995" 
d="M694 1491h219q-85 -298 -92 -606h-297q8 155 58.5 321t111.5 285zM250 1491h221q-39 -151 -65 -318.5t-29 -287.5h-297q9 138 57.5 310.5t112.5 295.5z" />
    <glyph glyph-name="quotedblright" unicode="&#x201d;" horiz-adv-x="995" 
d="M301 887h-221q87 298 94 608h297q-8 -156 -58 -322.5t-112 -285.5zM745 887h-221q39 150 64 318.5t28 289.5h297q-7 -138 -55.5 -310.5t-112.5 -297.5z" />
    <glyph glyph-name="quotedblbase" unicode="&#x201e;" horiz-adv-x="983" 
d="M297 -287h-219q85 298 92 609h299q-10 -158 -60 -325.5t-112 -283.5zM741 -287h-221q39 151 65 319.5t29 289.5h297q-9 -139 -57.5 -311.5t-112.5 -297.5z" />
    <glyph glyph-name="dagger" unicode="&#x2020;" horiz-adv-x="1083" 
d="M381 1329h252l-15 -426l334 15v-234l-334 16l15 -970h-252l16 970l-338 -16v234l338 -15z" />
    <glyph glyph-name="daggerdbl" unicode="&#x2021;" horiz-adv-x="1083" 
d="M397 348v402l-338 -15v234l338 -19l-16 379h252l-15 -379l334 19v-234l-334 15v-402l334 14v-231l-334 14l15 -415h-252l16 415l-338 -14v231z" />
    <glyph glyph-name="bullet" unicode="&#x2022;" horiz-adv-x="856" 
d="M184 776h488v-493h-488v493z" />
    <glyph glyph-name="ellipsis" unicode="&#x2026;" horiz-adv-x="1875" 
d="M436 0h-313v360h313v-360zM1071 0h-313v360h313v-360zM1704 0h-313v360h313v-360z" />
    <glyph glyph-name="perthousand" unicode="&#x2030;" horiz-adv-x="2717" 
d="M2286 750q165 0 263.5 -99.5t98.5 -285.5q0 -175 -97.5 -283.5t-266.5 -108.5q-168 0 -266.5 101t-98.5 288q0 169 97 278.5t270 109.5zM2286 565q-65 0 -102.5 -50t-37.5 -150t36.5 -153.5t103.5 -53.5q139 0 139 207q0 200 -139 200zM436 1372q165 0 264 -100t99 -287
q0 -175 -97.5 -282t-267.5 -107q-167 0 -264.5 100.5t-97.5 288.5q0 169 96.5 278t267.5 109zM436 1188q-65 0 -101 -51.5t-36 -151.5t35.5 -152.5t103.5 -52.5q140 0 140 205q0 203 -142 203zM645 0h-213l828 1350h215zM1473 750q165 0 263.5 -99.5t98.5 -285.5
q0 -176 -97.5 -284t-267.5 -108q-167 0 -264.5 101t-97.5 288q0 169 96 278.5t269 109.5zM1473 565q-65 0 -102.5 -50.5t-37.5 -149.5q0 -100 36.5 -153.5t103.5 -53.5q141 0 141 207q0 200 -141 200z" />
    <glyph glyph-name="uni2032" unicode="&#x2032;" horiz-adv-x="575" 
d="M342 895h-240l80 600h291z" />
    <glyph glyph-name="uni2033" unicode="&#x2033;" horiz-adv-x="954" 
d="M311 895h-209l76 600h264zM717 895h-207l80 600h262z" />
    <glyph glyph-name="guilsinglleft" unicode="&#x2039;" horiz-adv-x="798" 
d="M692 938l-332 -403l332 -406h-246l-340 406l340 403h246z" />
    <glyph glyph-name="guilsinglright" unicode="&#x203a;" horiz-adv-x="798" 
d="M106 129l332 403l-332 406h246l340 -406l-340 -403h-246z" />
    <glyph glyph-name="fraction" unicode="&#x2044;" horiz-adv-x="385" 
d="M-135 0h-197l856 1348h197z" />
    <glyph glyph-name="zero.sups" unicode="&#x2070;" horiz-adv-x="841" 
d="M424 1700q90 0 159.5 -31.5t112.5 -88t64.5 -130.5t21.5 -162q0 -203 -97 -312.5t-267 -109.5q-172 0 -266.5 116.5t-94.5 297.5q0 180 98 300t269 120zM420 1522q-129 0 -129 -238q0 -125 35.5 -182.5t95.5 -57.5q66 0 98.5 57t32.5 183q0 129 -33 183.5t-100 54.5z" />
    <glyph glyph-name="four.sups" unicode="&#x2074;" horiz-adv-x="800" 
d="M653 877h-209v190h-393v166l330 455h272v-459h119l-16 -162h-103v-190zM250 1229h194v100q0 65 5 193q-14 -26 -46 -73.5t-83.5 -120.5t-69.5 -99z" />
    <glyph glyph-name="five.sups" unicode="&#x2075;" horiz-adv-x="808" 
d="M711 1690l-29 -174h-371q-3 -18 -11 -65.5t-11 -66.5q59 41 172 41q128 0 207.5 -69.5t79.5 -192.5q0 -128 -91.5 -211.5t-248.5 -83.5q-84 0 -150.5 23t-106 60.5t-61 78t-27.5 82.5h226q22 -78 119 -78q110 0 110 119q0 54 -30.5 84.5t-90.5 30.5q-88 0 -121 -60
l-202 27q52 274 76 455h561z" />
    <glyph glyph-name="six.sups" unicode="&#x2076;" horiz-adv-x="817" 
d="M737 1470h-202q-26 72 -115 72q-69 0 -103.5 -52t-37.5 -132q72 72 200 72q128 -2 207.5 -73t79.5 -196q0 -129 -96 -212t-246 -83q-168 0 -267.5 108.5t-99.5 297.5q0 84 21 158.5t63.5 136t116 97.5t168.5 36q74 0 133.5 -21t95.5 -55.5t56.5 -73.5t25.5 -80zM416 1028
q54 0 91 30.5t36 96.5q0 125 -129 125q-60 0 -93.5 -30.5t-33.5 -84.5q0 -56 32.5 -96.5t96.5 -40.5z" />
    <glyph glyph-name="seven.sups" unicode="&#x2077;" horiz-adv-x="745" 
d="M66 1690h624v-158q-195 -248 -303 -655h-244q34 162 122 339t188 300h-387v174z" />
    <glyph glyph-name="eight.sups" unicode="&#x2078;" horiz-adv-x="796" 
d="M393 866q-166 0 -255 70.5t-89 179.5q0 65 36.5 111.5t98.5 72.5q-96 63 -96 168q0 101 77 166.5t238 65.5q79 0 140 -20t96.5 -53t53.5 -72t18 -82q0 -109 -107 -162q144 -57 144 -191q0 -117 -99 -185.5t-256 -68.5zM399 1014q64 0 96.5 28t32.5 74q0 107 -133 107
q-60 0 -91.5 -27.5t-31.5 -75.5q0 -46 34.5 -76t92.5 -30zM399 1554q-53 0 -77.5 -24t-24.5 -64q0 -94 104 -94q47 0 71 24t24 68q0 90 -97 90z" />
    <glyph glyph-name="nine.sups" unicode="&#x2079;" horiz-adv-x="813" 
d="M66 1096h221q13 -34 37.5 -51t70.5 -17q64 0 98.5 52.5t36.5 142.5q-61 -58 -192 -58q-127 0 -207 66t-80 188q0 121 92.5 201t251.5 80q166 0 263.5 -105t97.5 -292q0 -125 -36.5 -220.5t-119 -155t-203.5 -59.5q-152 0 -234.5 68t-96.5 160zM393 1536q-51 0 -87 -27.5
t-36 -83.5q0 -110 131 -110q52 0 87.5 24.5t35.5 75.5q0 55 -33.5 88t-97.5 33z" />
    <glyph glyph-name="parenleft.sups" unicode="&#x207d;" horiz-adv-x="497" 
d="M233 1792h199q-76 -118 -121 -236.5t-45 -279.5q0 -160 44.5 -278t121.5 -236h-199q-63 76 -112 210t-49 304q0 298 161 516z" />
    <glyph glyph-name="parenright.sups" unicode="&#x207e;" horiz-adv-x="497" 
d="M262 784h-199q76 118 121 237.5t45 281.5q0 159 -45 278t-121 234h199q62 -77 111 -210.5t49 -301.5q0 -303 -160 -519z" />
    <glyph glyph-name="n.sups" unicode="&#x207f;" horiz-adv-x="825" 
d="M82 535v460q0 152 -4 222h209q6 -39 8 -89q15 19 27 31.5t37.5 32t61 29.5t79.5 10t83.5 -12.5t77 -40.5t60 -83t22.5 -132v-428h-213v391q0 129 -106 129q-61 0 -94 -35.5t-33 -122.5v-362h-215z" />
    <glyph glyph-name="zero.subs" unicode="&#x2080;" horiz-adv-x="841" 
d="M424 469q90 0 159.5 -31.5t112.5 -88t64.5 -130.5t21.5 -162q0 -203 -97 -312.5t-267 -109.5q-172 0 -266.5 116.5t-94.5 297.5q0 180 98 300t269 120zM420 291q-129 0 -129 -238q0 -125 35.5 -182t95.5 -57q66 0 98.5 56.5t32.5 182.5q0 129 -33 183.5t-100 54.5z" />
    <glyph glyph-name="one.subs" unicode="&#x2081;" horiz-adv-x="548" 
d="M426 -354h-229v563q-61 -16 -148 -12v165q132 14 221 107h156v-823z" />
    <glyph glyph-name="two.subs" unicode="&#x2082;" horiz-adv-x="774" 
d="M713 -354h-641v16q0 127 57 219t193 174q106 65 125 82q32 29 32 68q0 90 -96 90q-47 0 -74 -30t-35 -79l-213 2q8 121 96.5 201t235.5 80q87 0 152.5 -24.5t99.5 -64.5t50 -82t16 -85q0 -94 -46.5 -150t-168.5 -118q-48 -25 -97 -62t-65 -67h407z" />
    <glyph glyph-name="three.subs" unicode="&#x2083;" horiz-adv-x="798" 
d="M311 -18v180h60q60 0 86 16t26 49q0 78 -102 78q-59 0 -84.5 -24t-36.5 -66h-201q3 29 12 59t32 66.5t57.5 63.5t94 46t134.5 19q154 0 233.5 -64.5t79.5 -164.5q0 -64 -34.5 -103.5t-77.5 -54.5q23 -6 45.5 -19t47.5 -35t40.5 -59t15.5 -82t-16 -85.5t-52.5 -79
t-107 -61.5t-168.5 -23q-83 0 -148 20t-101 49t-60 67t-32 68.5t-9 59.5h215q24 -101 137 -101q53 0 83 24.5t30 65.5q0 91 -123 91h-76z" />
    <glyph glyph-name="four.subs" unicode="&#x2084;" horiz-adv-x="800" 
d="M653 -354h-209v190h-393v166l330 455h272v-459h119l-16 -162h-103v-190zM250 -2h194v100q0 66 5 193q-14 -26 -46 -73.5t-83.5 -120.5t-69.5 -99z" />
    <glyph glyph-name="five.subs" unicode="&#x2085;" horiz-adv-x="808" 
d="M711 459l-29 -174h-371q-3 -18 -11 -65t-11 -66q59 41 172 41q128 0 207.5 -70t79.5 -193q0 -128 -91.5 -211t-248.5 -83q-84 0 -150.5 23t-106 60t-61 77.5t-27.5 82.5h226q22 -78 119 -78q110 0 110 119q0 54 -30.5 84.5t-90.5 30.5q-88 0 -121 -60l-202 27
q52 274 76 455h561z" />
    <glyph glyph-name="six.subs" unicode="&#x2086;" horiz-adv-x="817" 
d="M737 240h-202q-25 71 -115 71q-69 0 -103.5 -52t-37.5 -132q72 72 200 72q128 -2 207.5 -73t79.5 -196q0 -129 -96 -212t-246 -83q-168 0 -267.5 108.5t-99.5 297.5q0 84 21 158.5t63.5 136t116 97.5t168.5 36q74 0 133.5 -21t95.5 -55t56.5 -73t25.5 -80zM416 -203
q54 0 91 30.5t36 96.5q0 125 -129 125q-60 0 -93.5 -30.5t-33.5 -84.5q0 -56 32.5 -96.5t96.5 -40.5z" />
    <glyph glyph-name="seven.subs" unicode="&#x2087;" horiz-adv-x="745" 
d="M66 459h624v-158q-195 -248 -303 -655h-244q34 162 122 339t188 300h-387v174z" />
    <glyph glyph-name="eight.subs" unicode="&#x2088;" horiz-adv-x="796" 
d="M393 -365q-166 0 -255 70.5t-89 179.5q0 65 36.5 112t98.5 73q-96 63 -96 168q0 101 77 166t238 65q79 0 140 -20t96.5 -53t53.5 -72t18 -82q0 -109 -107 -162q144 -57 144 -191q0 -117 -99 -185.5t-256 -68.5zM399 -217q64 0 96.5 28t32.5 74q0 107 -133 107
q-60 0 -91.5 -27.5t-31.5 -75.5q0 -46 34.5 -76t92.5 -30zM399 324q-53 0 -77.5 -24t-24.5 -64q0 -95 104 -95q47 0 71 24.5t24 67.5q0 91 -97 91z" />
    <glyph glyph-name="nine.subs" unicode="&#x2089;" horiz-adv-x="813" 
d="M66 -135h221q13 -34 37.5 -51t70.5 -17q64 0 98.5 52.5t36.5 142.5q-61 -58 -192 -58q-127 0 -207 66t-80 188q0 121 92.5 201t251.5 80q166 0 263.5 -105t97.5 -292q0 -125 -36.5 -220.5t-119 -154.5t-203.5 -59q-152 0 -234.5 67.5t-96.5 159.5zM393 305q-51 0 -87 -27
t-36 -83q0 -111 131 -111q52 0 87.5 24.5t35.5 75.5q0 55 -33.5 88t-97.5 33z" />
    <glyph glyph-name="parenleft.subs" unicode="&#x208d;" horiz-adv-x="497" 
d="M233 561h199q-76 -118 -121 -236.5t-45 -279.5q0 -160 44.5 -278t121.5 -236h-199q-63 76 -112 210t-49 304q0 298 161 516z" />
    <glyph glyph-name="parenright.subs" unicode="&#x208e;" horiz-adv-x="497" 
d="M262 -446h-199q49 76 80 136.5t58.5 164.5t27.5 217q0 159 -45 278t-121 234h199q62 -77 111 -210.5t49 -301.5q0 -302 -160 -518z" />
    <glyph glyph-name="colonmonetary" unicode="&#x20a1;" horiz-adv-x="1140" 
d="M350 668q0 -222 60 -338.5t174 -116.5q86 0 133 36t71 126h289q-44 -279 -282 -361v-209h-158v181q-14 -2 -45 -2h-27v-179h-157v207q-168 58 -258.5 224t-90.5 426q0 262 90 431.5t259 231.5v162h157v-129q16 2 47 2h25v127h158v-154q130 -42 201 -140t79 -216h-289
q-14 68 -60 115t-134 47q-126 0 -184 -119t-58 -352z" />
    <glyph glyph-name="franc" unicode="&#x20a3;" horiz-adv-x="1091" 
d="M184 0v242h-161v196h161v910h828v-244h-535v-268h496v-238h-496v-160h225v-196h-225v-242h-293z" />
    <glyph glyph-name="lira" unicode="&#x20a4;" horiz-adv-x="1110" 
d="M1042 0h-970v227q68 28 98 78t39 139h-162v164h166q-4 70 -8 111h-158v166h150v30q0 211 108.5 334t321.5 123q93 0 167.5 -26t119 -65t75.5 -89t43 -92.5t15 -81.5h-279q-21 121 -141 121q-142 0 -142 -197v-57h283v-166h-276q2 -31 2 -105v-6h274v-164h-281
q-13 -129 -71 -196h659z" />
    <glyph glyph-name="uni20A6" unicode="&#x20a6;" horiz-adv-x="1179" 
d="M352 1122q6 -58 10 -190h58l-51 190h-17zM780 260h19q-9 87 -15 213h-61zM367 0h-222v473h-102v164h102v129h-102v166h102v416h347l110 -416h176v416h217v-416h103v-166h-103v-129h103v-164h-103v-473h-329l-125 473h-174v-37v-436zM780 637q0 21 -1 64t-1 65h-133
l35 -129h100zM498 637l-35 129h-96v-129h131z" />
    <glyph glyph-name="peseta" unicode="&#x20a7;" horiz-adv-x="1122" 
d="M133 0v807h-129v170h129v371h393q212 0 346 -94t160 -277h98v-170h-100q-30 -179 -167 -275t-351 -96h-104v-436h-275zM408 1143v-166h346q-15 84 -68 125t-154 41h-124zM408 645h108q103 0 161 38.5t75 123.5h-344v-162z" />
    <glyph glyph-name="dong" unicode="&#x20ab;" horiz-adv-x="1175" 
d="M111 -141h909v-191h-909v191zM735 1360h275v-119h118v-190h-118v-762q0 -232 2 -289h-262q-12 58 -15 104q-39 -58 -102.5 -89t-173.5 -31q-170 0 -285 130.5t-115 336.5q0 214 127 344.5t308 130.5q174 0 241 -82v207h-440v190h440v119zM340 455q0 -121 54.5 -189.5
t150.5 -68.5q88 0 143 63t55 203q0 248 -194 248q-99 0 -154 -68.5t-55 -187.5z" />
    <glyph glyph-name="Euro" unicode="&#x20ac;" horiz-adv-x="1181" 
d="M836 342h284q-33 -167 -149.5 -266t-302.5 -99q-205 0 -328.5 126.5t-159.5 365.5h-119v166h105v39q0 46 2 69h-107v166h127q44 220 172 339.5t318 119.5q87 0 160 -23t122 -60t84.5 -85.5t53.5 -97.5t22 -98h-284q-39 139 -172 139q-81 0 -129 -58t-68 -176h319v-166
h-335v-59v-49h335v-166h-321q38 -258 205 -258q71 0 108.5 35t57.5 96z" />
    <glyph glyph-name="uni20B1" unicode="&#x20b1;" horiz-adv-x="1251" 
d="M186 0v702h-125v140h125v76h-125v137h125v293h396q182 0 310.5 -72t176.5 -221h109v-137h-84v-37q0 -27 -2 -39h86v-140h-113q-52 -146 -183.5 -223.5t-314.5 -77.5h-114v-401h-267zM453 1147v-92h340q-56 92 -209 92h-131zM831 874q0 30 -2 44h-376v-76h378v32zM453 606
h114q163 0 224 96h-338v-96z" />
    <glyph glyph-name="uni20B2" unicode="&#x20b2;" horiz-adv-x="1181" 
d="M1112 987h-285q-19 69 -63.5 111.5t-138.5 42.5q-65 0 -113.5 -37.5t-75 -101.5t-39 -137.5t-12.5 -157.5q0 -88 6.5 -156.5t25 -134.5t49.5 -109.5t82 -69.5t120 -26q85 0 131 25v454h301v-629q-131 -43 -200.5 -60.5t-147.5 -23.5v-147h-246v158q-200 46 -307 221
t-107 471q0 279 109 456.5t307 221.5v127h244v-125q158 -27 252 -126.5t108 -246.5z" />
    <glyph glyph-name="uni20B4" unicode="&#x20b4;" horiz-adv-x="1157" 
d="M418 1022h-283q11 149 127.5 249.5t315.5 100.5q108 0 192 -29t134.5 -78.5t76 -111.5t25.5 -133q0 -85 -31 -146h92v-149h-219q-54 -45 -137 -92h336v-150h-578q-70 -62 -70 -135q0 -67 46 -109t124 -42q88 0 135.5 39t59.5 100h280q-58 -361 -495 -361
q-187 0 -312.5 101t-125.5 258q0 89 32 149h-75v150h206q36 30 132 92h-318v149h557q78 67 78 144q0 57 -38 98t-112 41q-68 0 -107.5 -36.5t-47.5 -98.5z" />
    <glyph glyph-name="uni20B5" unicode="&#x20b5;" horiz-adv-x="1198" 
d="M350 668q0 -128 23.5 -225t78.5 -157.5t136 -60.5q87 0 130 36t70 122h289q-27 -155 -116.5 -256t-243.5 -131v-166h-246v166q-196 39 -304 210.5t-108 455.5q0 293 106.5 467t307.5 217v139h244v-133q87 -15 155 -54.5t110 -94.5t65 -116t28 -126h-289q-7 31 -19.5 57.5
t-34.5 51.5t-58 39.5t-82 14.5q-126 0 -184 -114t-58 -342z" />
    <glyph glyph-name="uni20B9" unicode="&#x20b9;" horiz-adv-x="1107" 
d="M1040 909h-192q-9 -131 -84 -217.5t-197 -130.5l414 -561h-330l-375 512h-12h-170v211h193q109 0 185 44.5t87 141.5h-465v172h424q-68 84 -215 84h-209v183h946v-177h-258q29 -44 45 -90h213v-172z" />
    <glyph glyph-name="uni20BA" unicode="&#x20ba;" horiz-adv-x="1177" 
d="M508 0h-301v496l-148 -62v164l148 64v131l-148 -64v166l148 63v390h293v-267l225 97v-166l-225 -97v-131l225 97v-166l-225 -94v-385q156 0 230.5 77.5t90.5 233.5h260q-2 -51 -11 -101t-28.5 -105.5t-48.5 -103.5t-74.5 -92.5t-102 -76t-136 -50t-172.5 -18.5z" />
    <glyph glyph-name="uni20BD" unicode="&#x20bd;" horiz-adv-x="1214" 
d="M172 0v236h-127v184h127v149h-127v224h127v555h477q233 0 362.5 -101t129.5 -280q0 -200 -126.5 -299t-367.5 -99h-172v-149h309v-184h-309v-236h-303zM475 1124v-331h154q108 0 158.5 40.5t50.5 124.5q0 79 -50.5 122.5t-152.5 43.5h-160z" />
    <glyph glyph-name="uni2113" unicode="&#x2113;" horiz-adv-x="937" 
d="M637 371h281q-33 -387 -410 -387q-87 0 -152.5 22.5t-103.5 57t-61 83.5t-31 94.5t-8 98.5v47q-15 -11 -32 -21t-39.5 -22t-33.5 -18l-59 196q96 49 159 88v447q0 122 30 213t83 143.5t118.5 77.5t143.5 25q155 0 247.5 -93t92.5 -260q0 -198 -96 -349t-317 -300v-115
q0 -95 17 -142.5t64 -47.5q51 0 73.5 36t33.5 126zM449 1118v-327q89 81 120 171t31 197q0 139 -74 139q-41 0 -59 -38t-18 -142z" />
    <glyph glyph-name="uni2116" unicode="&#x2116;" horiz-adv-x="2203" 
d="M426 0h-268v1378h377q379 -785 452 -1042h2q-14 166 -14 649v393h268v-1378h-360q-106 231 -189 417t-133 304.5t-78 186.5t-50 127t-23 61h-2q18 -226 18 -686v-410zM1608 895q0 -99 38.5 -154t106.5 -55q67 0 105 53.5t38 155.5q0 209 -145 209q-65 0 -104 -54.5
t-39 -154.5zM1430 379h643v-186h-643v186zM1751 1298q171 0 275 -109t104 -294q0 -183 -102 -294.5t-279 -111.5q-168 0 -273.5 111t-105.5 295q0 180 106.5 291.5t274.5 111.5z" />
    <glyph glyph-name="uni2117" unicode="&#x2117;" horiz-adv-x="1595" 
d="M510 342v748h340q115 0 199 -66.5t84 -181.5q0 -124 -78.5 -191t-208.5 -67h-144v-242h-192zM705 936v-205h104q67 0 96 27t29 80q0 103 -123 100zM791 1430q146 0 275 -54t221.5 -148.5t146 -230t53.5 -292.5q0 -155 -53.5 -290t-145.5 -230.5t-221 -150t-276 -54.5
q-149 0 -278.5 52.5t-223.5 146t-147.5 229.5t-53.5 297q0 153 54 287.5t147.5 230.5t224 151.5t277.5 55.5zM788 1300q-161 0 -287 -70.5t-199 -207t-73 -320.5q0 -169 70.5 -304t198.5 -212t290 -77q118 0 220 40t177 114.5t118 187.5t43 251q0 264 -159 431t-399 167z
" />
    <glyph glyph-name="uni2120" unicode="&#x2120;" horiz-adv-x="1024" 
d="M1065 918h-137v131q0 56 2.5 109.5t6 97.5t3.5 55h-4q-2 -9 -107 -391h-129q-8 33 -28.5 114.5t-36.5 147.5t-29 129h-6q8 -90 8 -287v-106h-133v493h225q43 -144 74 -287q8 32 23 82.5t33.5 113t27.5 91.5h207v-493zM-18 1073h141q4 -31 28 -48t56 -17q72 0 72 43
q0 22 -20 32.5t-83 26.5q-98 25 -139 64t-41 98q0 70 53.5 110.5t147.5 40.5q106 0 155.5 -47.5t53.5 -111.5h-136q-3 30 -20.5 45.5t-56.5 15.5q-58 0 -58 -41q0 -32 78 -51q118 -27 162.5 -64.5t44.5 -103.5q0 -160 -223 -160q-94 0 -152 48t-63 120z" />
    <glyph glyph-name="trademark" unicode="&#x2122;" horiz-adv-x="1026" 
d="M1081 918h-135v131q0 57 2 109t5 99.5t3 53.5h-4l-106 -391h-127l-94 391h-7q9 -203 9 -287v-106h-133v493h225l72 -287l86 287h204v-493zM-14 1411h452v-125h-151v-368h-148v368h-153v125z" />
    <glyph glyph-name="uni2126" unicode="&#x2126;" horiz-adv-x="1558" 
d="M778 1432q160 0 291 -52.5t215 -141t129 -202t45 -237.5q0 -91 -18.5 -170t-45.5 -133.5t-68.5 -104t-76 -78.5t-78.5 -59h318v-254h-621v303q141 64 210 180t69 297q0 79 -22 150.5t-65.5 130t-117 93t-168.5 34.5q-92 0 -163 -32.5t-115 -88.5t-66 -127.5t-22 -153.5
q0 -348 280 -483v-303h-618v254h307q-281 186 -281 537q0 131 48 247.5t134.5 204t216 138.5t283.5 51z" />
    <glyph glyph-name="estimated" unicode="&#x212e;" horiz-adv-x="1730" 
d="M1655 598h-1213q-8 0 -8 -8v-174q0 -18 17 -43q62 -97 166.5 -153t242.5 -56q153 0 253 49t183 166h277q-70 -134 -182 -226t-245.5 -135t-285.5 -43q-173 0 -321 55t-249 149t-157.5 221t-56.5 270q0 142 62.5 271.5t168 223t251.5 148.5t306 55q162 0 309.5 -56.5
t252.5 -152.5t167 -226.5t62 -273.5v-61zM1298 797v159q0 23 -18 48q-132 194 -412 194q-142 0 -239 -46t-176 -148q-19 -23 -19 -48v-159q0 -11 8 -11h848q8 0 8 11z" />
    <glyph glyph-name="onethird" unicode="&#x2153;" horiz-adv-x="1792" 
d="M471 0h-197l856 1348h197zM451 535h-230v563q-64 -17 -147 -13v166q132 14 221 107h156v-823zM1288 332v180h60q60 0 86 16.5t26 49.5q0 77 -102 77q-59 0 -84.5 -24t-36.5 -66h-201q3 29 12 59t32 66.5t57.5 63.5t94 46t134.5 19q154 0 233.5 -64.5t79.5 -164.5
q0 -64 -34.5 -103.5t-77.5 -54.5q23 -6 45.5 -18.5t47.5 -34.5t40.5 -59t15.5 -82q0 -35 -9 -68t-33.5 -67t-62 -58.5t-99 -40.5t-140.5 -16q-83 0 -148 20t-101 49t-60 67t-32 68.5t-9 59.5h215q24 -100 137 -100q53 0 83 24.5t30 65.5q0 49 -31.5 69.5t-91.5 20.5h-76z
" />
    <glyph glyph-name="twothirds" unicode="&#x2154;" horiz-adv-x="1984" 
d="M698 0h-196l856 1348h196zM729 535h-641v16q0 127 57 219t193 174q11 7 31 19q78 48 102.5 71t24.5 60q0 90 -97 90q-90 0 -108 -109l-213 2q8 121 96.5 201t235.5 80q71 0 127 -16.5t91 -43t58 -61t32 -68t9 -67.5q0 -94 -46.5 -150t-168.5 -118q-48 -25 -97 -62
t-65 -67h408zM1493 332v180h59q113 0 113 66q0 77 -102 77q-59 0 -84.5 -24t-36.5 -66h-201q3 29 12 59t32 66.5t57.5 63.5t94 46t134.5 19q154 0 233.5 -64.5t79.5 -164.5q0 -64 -34.5 -103.5t-77.5 -54.5q23 -6 45.5 -18.5t47.5 -34.5t40.5 -59t15.5 -82q0 -35 -9 -68
t-33.5 -67t-62 -58.5t-99 -40.5t-140.5 -16q-83 0 -148 20t-101 49t-60 67t-32 68.5t-9 59.5h215q24 -100 137 -100q53 0 83 24.5t30 65.5q0 49 -31.5 69.5t-91.5 20.5h-76z" />
    <glyph glyph-name="oneeighth" unicode="&#x215b;" horiz-adv-x="1734" 
d="M430 0h-197l857 1348h196zM446 535h-229v563q-64 -17 -147 -13v166q132 14 221 107h155v-823zM1307 -37q-166 0 -255 70.5t-89 179.5q0 65 36.5 111.5t98.5 72.5q-97 64 -97 168q0 101 77.5 166.5t238.5 65.5q152 0 229.5 -68t77.5 -160q0 -109 -106 -161
q143 -56 143 -191q0 -117 -98.5 -185.5t-255.5 -68.5zM1313 111q64 0 96.5 28t32.5 74q0 106 -133 106q-60 0 -91.5 -27t-31.5 -75q0 -46 34.5 -76t92.5 -30zM1313 651q-53 0 -78 -24t-25 -64q0 -94 105 -94q46 0 70 24t24 68q0 90 -96 90z" />
    <glyph glyph-name="threeeighths" unicode="&#x215c;" horiz-adv-x="1957" 
d="M649 0h-196l856 1348h196zM1526 -12q-166 0 -255 70.5t-89 179.5q0 65 36.5 111.5t98.5 72.5q-96 63 -96 168q0 101 77 166t238 65q152 0 229.5 -67.5t77.5 -159.5q0 -110 -106 -162q143 -56 143 -190q0 -117 -98.5 -185.5t-255.5 -68.5zM1532 135q64 0 96.5 28.5
t32.5 74.5q0 106 -133 106q-60 0 -91.5 -27t-31.5 -75q0 -47 34.5 -77t92.5 -30zM1532 676q-53 0 -77.5 -24t-24.5 -64q0 -94 104 -94q46 0 70 24t24 68q0 90 -96 90zM332 870v181h59q60 0 86.5 16t26.5 49q0 78 -103 78q-59 0 -84 -23.5t-36 -66.5h-201q3 29 12 59t32 66.5
t57.5 63.5t94 46t134.5 19q154 0 233.5 -65t79.5 -165q0 -64 -34.5 -102.5t-78.5 -54.5q23 -6 45.5 -19t48 -35t41 -59t15.5 -82q0 -35 -9 -68t-33.5 -67t-62 -58.5t-99 -40.5t-140.5 -16q-83 0 -148 20t-101 49t-60 67.5t-32 69t-9 59.5h215q24 -101 137 -101
q53 0 82.5 24.5t29.5 65.5q0 49 -31 69.5t-91 20.5h-76z" />
    <glyph glyph-name="fiveeighths" unicode="&#x215d;" horiz-adv-x="1990" 
d="M676 0h-197l856 1348h197zM750 1348l-29 -174h-371q-3 -19 -11 -66t-11 -66q59 41 172 41q128 0 207 -69.5t79 -192.5q0 -128 -91.5 -211.5t-248.5 -83.5q-84 0 -150.5 23t-105.5 60.5t-60.5 78t-27.5 82.5h226q22 -78 118 -78q57 0 84 32.5t27 86.5t-30.5 84.5
t-90.5 30.5q-88 0 -121 -60l-202 27q49 256 75 455h562zM1554 -10q-166 0 -255 70.5t-89 179.5q0 126 136 184q-97 64 -97 168q0 101 77.5 166t238.5 65q152 0 229.5 -67.5t77.5 -159.5q0 -109 -107 -162q144 -57 144 -190q0 -117 -99 -185.5t-256 -68.5zM1561 137
q64 0 96.5 28.5t32.5 74.5q0 106 -134 106q-60 0 -91 -27t-31 -75q0 -47 34.5 -77t92.5 -30zM1561 678q-53 0 -78 -24t-25 -64q0 -94 105 -94q46 0 70 24t24 68q0 90 -96 90z" />
    <glyph glyph-name="seveneighths" unicode="&#x215e;" horiz-adv-x="1781" 
d="M471 0h-197l856 1348h197zM1352 -37q-166 0 -255 70.5t-89 179.5q0 65 36.5 111.5t98.5 72.5q-96 63 -96 168q0 101 77 166.5t238 65.5q152 0 229.5 -68t77.5 -160q0 -109 -106 -161q143 -56 143 -191q0 -117 -98.5 -185.5t-255.5 -68.5zM1358 111q64 0 96.5 28t32.5 74
q0 106 -133 106q-60 0 -91.5 -27t-31.5 -75q0 -46 34.5 -76t92.5 -30zM1358 651q-53 0 -78 -24t-25 -64q0 -94 105 -94q46 0 70 24t24 68q0 90 -96 90zM94 1348h625v-158q-195 -248 -303 -655h-244q34 162 121.5 339t187.5 300h-387v174z" />
    <glyph glyph-name="uni2190" unicode="&#x2190;" horiz-adv-x="1802" 
d="M1710 610h-1204q149 -137 588 -565l-154 -154l-850 834v4l850 838l154 -162q-44 -42 -179 -173.5t-237 -229.5t-172 -162h1204v-230z" />
    <glyph glyph-name="arrowup" unicode="&#x2191;" horiz-adv-x="1775" 
d="M764 -88v1276q-418 -456 -518 -561l-156 159l793 828h6l794 -828l-161 -159q-69 74 -516 561v-1276h-242z" />
    <glyph glyph-name="uni2192" unicode="&#x2192;" horiz-adv-x="1802" 
d="M92 846h1204q-133 122 -587 565l153 154l850 -834v-4l-850 -838l-153 162q49 47 179.5 174.5t234 227t173.5 163.5h-1204v230z" />
    <glyph glyph-name="arrowdown" unicode="&#x2193;" horiz-adv-x="1775" 
d="M1012 1552v-1276q442 483 518 562l156 -160l-793 -828h-6l-795 828l162 160q33 -35 516 -562v1276h242z" />
    <glyph glyph-name="partialdiff" unicode="&#x2202;" horiz-adv-x="1169" 
d="M199 1186v233q61 13 163 13q160 0 291 -49.5t227.5 -146.5t149.5 -249.5t53 -349.5q0 -113 -17.5 -209t-57.5 -179t-100.5 -141t-150.5 -91t-204 -33q-116 0 -209 38.5t-149 102.5t-85.5 141t-29.5 160q0 194 130 317t325 123q180 0 266 -82l-2 21q-12 173 -137.5 281
t-331.5 108q-74 0 -131 -8zM584 201q52 0 91.5 20.5t62.5 55.5t34.5 77t11.5 88q0 95 -55 151t-154 56q-95 0 -150.5 -62t-55.5 -161q0 -106 60 -165.5t155 -59.5z" />
    <glyph glyph-name="uni2206" unicode="&#x2206;" horiz-adv-x="1382" 
d="M1331 0h-1280v182l445 1229h383l452 -1231v-180zM360 254h637l-168 463q-112 307 -157 471h-6q-21 -113 -146 -473z" />
    <glyph glyph-name="product" unicode="&#x220f;" horiz-adv-x="1482" 
d="M158 1411h1167v-1616h-303v1364h-559v-1364h-305v1616z" />
    <glyph glyph-name="summation" unicode="&#x2211;" horiz-adv-x="1101" 
d="M1085 -205h-1060v182l458 627l-436 625v182h1006v-252h-619l379 -524l-414 -586h721z" />
    <glyph glyph-name="minus" unicode="&#x2212;" horiz-adv-x="1460" 
d="M1298 459h-1136v243h1136v-243z" />
    <glyph glyph-name="uni2215" unicode="&#x2215;" horiz-adv-x="385" 
d="M-135 0h-197l856 1348h197z" />
    <glyph glyph-name="uni2219" unicode="&#x2219;" horiz-adv-x="514" 
d="M414 410h-314v360h314v-360z" />
    <glyph glyph-name="radical" unicode="&#x221a;" horiz-adv-x="1304" 
d="M1303 1745l-482 -2151h-209l-305 828l-192 -86l-64 180l424 199q198 -572 225 -727q11 161 377 1757h226z" />
    <glyph glyph-name="infinity" unicode="&#x221e;" horiz-adv-x="1687" 
d="M436 213q-152 0 -250 108t-98 271q0 156 100.5 265.5t264.5 109.5q64 0 119 -16t104 -49.5t85 -67t85 -86.5q44 46 71.5 72.5t68.5 58.5t77 48.5t84.5 28t103.5 11.5q151 0 249.5 -105t98.5 -270q0 -155 -103 -267t-263 -112q-76 0 -145 28t-123 72t-117 113
q-100 -106 -191.5 -159.5t-220.5 -53.5zM461 418q74 0 133.5 42.5t126.5 121.5q-9 10 -33 38.5t-37.5 43.5t-38.5 38t-45 35t-47 21.5t-55 9.5q-75 0 -122.5 -51t-47.5 -125q0 -78 47 -126t119 -48zM1219 418q77 0 125.5 50.5t48.5 123.5q0 78 -46.5 128t-123.5 50
q-30 0 -60 -10.5t-50.5 -22t-52.5 -41.5t-46.5 -45t-52.5 -57q6 -7 36.5 -39.5t41 -43t38 -34.5t45.5 -32.5t44.5 -17.5t52.5 -9z" />
    <glyph glyph-name="integral" unicode="&#x222b;" horiz-adv-x="733" 
d="M760 1708l-27 -238q-63 13 -94 13q-89 0 -121.5 -69.5t-32.5 -260.5q0 -139 20.5 -529t20.5 -530q0 -52 -2 -94.5t-7.5 -93.5t-17 -91t-28 -81.5t-43 -71.5t-60.5 -54.5t-81.5 -37t-104.5 -12.5q-62 0 -116 9t-78 21l32 246q66 -16 119 -16q19 0 35 4t28 14t21.5 19.5
t16 28t11.5 30.5t7.5 36.5t4.5 37.5t2.5 41t0.5 39.5v40.5q0 137 -20.5 536t-20.5 541q0 547 381 547q96 0 154 -25z" />
    <glyph glyph-name="approxequal" unicode="&#x2248;" horiz-adv-x="1460" 
d="M373 166h-211v70q0 82 22.5 141t62.5 91t87 46t104 14q71 0 153 -21.5t143 -47t134 -47t129 -21.5q50 0 72.5 23.5t22.5 77.5v22h211v-70q0 -70 -15 -123t-39 -85.5t-60 -53t-73.5 -28t-83.5 -7.5q-81 0 -166.5 21.5t-145 46.5t-129.5 46.5t-124 21.5q-94 0 -94 -103v-14
zM373 657h-211v66q0 299 278 299q69 0 150 -21t142.5 -46.5t135 -46.5t129.5 -21q52 0 73.5 23t21.5 85v17h211v-68q0 -72 -14.5 -126t-39 -87.5t-61.5 -54.5t-76.5 -29t-89.5 -8q-74 0 -156 21.5t-142 48t-131.5 48t-125.5 21.5q-48 0 -71 -27t-23 -73v-21z" />
    <glyph glyph-name="notequal" unicode="&#x2260;" horiz-adv-x="1460" 
d="M1118 1180l-98 -211h278v-246h-391l-129 -279h520v-245h-634l-89 -191h-219l88 191h-282v245h395l129 279h-524v246h637l98 211h221z" />
    <glyph glyph-name="lessequal" unicode="&#x2264;" horiz-adv-x="1370" 
d="M162 791v247l1046 439v-269l-759 -293l759 -301v-266zM1208 0h-1046v246h1046v-246z" />
    <glyph glyph-name="greaterequal" unicode="&#x2265;" horiz-adv-x="1370" 
d="M1208 1038v-252l-1046 -438v268l760 295l-760 299v267zM1208 0h-1046v246h1046v-246z" />
    <glyph glyph-name="uni25A0" unicode="&#x25a0;" horiz-adv-x="851" 
d="M158 258v539h536v-539h-536z" />
    <glyph glyph-name="triagup" unicode="&#x25b2;" horiz-adv-x="1325" 
d="M1253 0h-1181l577 1247h8z" />
    <glyph glyph-name="uni25B3" unicode="&#x25b3;" horiz-adv-x="1325" 
d="M1253 0h-1181l577 1247h8zM352 180h596l-301 666z" />
    <glyph glyph-name="uni25B6" unicode="&#x25b6;" horiz-adv-x="1413" 
d="M102 14v1182l1250 -578v-8z" />
    <glyph glyph-name="uni25B7" unicode="&#x25b7;" horiz-adv-x="1413" 
d="M102 14v1182l1250 -578v-8zM948 608l-659 295v-594z" />
    <glyph glyph-name="triagdn" unicode="&#x25bc;" horiz-adv-x="1325" 
d="M72 1231h1181l-577 -1247h-8z" />
    <glyph glyph-name="uni25BD" unicode="&#x25bd;" horiz-adv-x="1325" 
d="M72 1231h1181l-577 -1247h-8zM973 1053h-596l299 -668z" />
    <glyph glyph-name="uni25C0" unicode="&#x25c0;" horiz-adv-x="1413" 
d="M1311 1196v-1182l-1250 578v8z" />
    <glyph glyph-name="uni25C1" unicode="&#x25c1;" horiz-adv-x="1413" 
d="M1311 1196v-1182l-1250 578v8zM1122 897l-657 -301l657 -295v596z" />
    <glyph glyph-name="uni25C6" unicode="&#x25c6;" horiz-adv-x="923" 
d="M88 530l371 381l377 -391l-369 -383z" />
    <glyph glyph-name="uni25C9" unicode="&#x25c9;" horiz-adv-x="1138" 
d="M571 700q73 0 120.5 -50.5t47.5 -117.5q0 -78 -47 -131t-119 -53q-75 0 -121 52t-46 132q0 67 46.5 117.5t118.5 50.5zM1036 532q-2 -206 -134.5 -347.5t-328.5 -141.5q-197 0 -333 140.5t-136 348.5q0 130 62 241t171 176t238 65q127 0 233.5 -66t167 -176.5
t60.5 -239.5zM573 858q-132 0 -216.5 -96t-84.5 -230q0 -144 85 -240.5t216 -96.5q132 0 215.5 97t83.5 240q0 132 -86.5 229t-212.5 97z" />
    <glyph glyph-name="lozenge" unicode="&#x25ca;" horiz-adv-x="1247" 
d="M932 672l-250 438q-2 5 -26 49t-31 60h-7q-3 -7 -55 -109l-246 -434l242 -438q55 -102 59 -113h5q4 8 28.5 54t30.5 57zM1169 676l-444 -764h-217l-428 760l438 762h215z" />
    <glyph glyph-name="uni2610" unicode="&#x2610;" horiz-adv-x="2068" 
d="M326 1587h1532v-1567l-142 -143h-1505v1579zM344 1423v-1411h1344v1411h-1344z" />
    <glyph glyph-name="uni2611" unicode="&#x2611;" horiz-adv-x="2068" 
d="M326 1587h1532v-1567l-142 -143h-1505v1579zM344 1423v-1411h1344v1411h-1344zM1329 1284h248q-360 -430 -709 -1167h-57q-81 108 -168 254t-147 291l182 120q62 -202 156 -391q98 236 238 486.5t257 406.5z" />
    <glyph glyph-name="uni2713" unicode="&#x2713;" horiz-adv-x="1439" 
d="M1141 1520h311q-471 -584 -956 -1657h-82q-94 134 -196 329t-183 398l237 147q38 -139 88 -279t86 -216q146 352 335.5 703t359.5 575z" />
    <glyph glyph-name="uni2752" unicode="&#x2752;" horiz-adv-x="1036" 
d="M135 756l174 176h590v-631l-160 -172h-604v627zM266 711v-443h420v443h-420z" />
    <glyph glyph-name="fi" unicode="&#xfb01;" horiz-adv-x="1228" 
d="M465 0h-293v840h-156v221h156v92q0 169 85.5 266t252.5 97q91 0 135 -13v-231q-32 4 -61 4q-66 0 -92.5 -31t-26.5 -115v-69h184v-221h-184v-840zM803 0v1061h295v-1061h-295zM1098 1233h-295v262h295v-262z" />
    <glyph glyph-name="fl" unicode="&#xfb02;" horiz-adv-x="1228" 
d="M465 0h-293v840h-156v221h156v92q0 169 85.5 266t252.5 97q91 0 135 -13v-231q-32 4 -61 4q-66 0 -92.5 -31t-26.5 -115v-69h184v-221h-184v-840zM1098 0h-295v1495h295v-1495z" />
    </font>
</defs>
</svg>
