<?xml version="1.0" standalone="no"?>
<!DOCTYPE svg PUBLIC "-//W3C//DTD SVG 1.1//EN" "http://www.w3.org/Graphics/SVG/1.1/DTD/svg11.dtd" >
<svg xmlns="http://www.w3.org/2000/svg" xmlns:xlink="http://www.w3.org/1999/xlink" version="1.1">
<metadata>
Created by FontForge 20201107 at Tue Mar 11 11:28:46 2025
 By 
(c) 2014 Adobe Systems Incorporated. All Rights Reserved.
</metadata>
<defs>
<font id="AcuminPro-BoldItalic" horiz-adv-x="819" >
  <font-face 
    font-family="Acumin Pro"
    font-weight="700"
    font-style="italic"
    font-stretch="normal"
    units-per-em="2048"
    panose-1="2 11 8 4 2 2 2 9 2 4"
    ascent="1638"
    descent="-410"
    x-height="1061"
    cap-height="1411"
    bbox="-637 -535 2601 2169"
    underline-thickness="102"
    underline-position="-204"
    slope="-12"
    unicode-range="U+0020-FB02"
  />
<missing-glyph horiz-adv-x="1024" 
d="M0 0v1434h1024v-1434h-1024zM512 809l348 522h-696zM573 717l349 -522v1044zM164 102h696l-348 523zM102 1239v-1044l349 522z" />
    <glyph glyph-name="f_f" unicode="ff" horiz-adv-x="1257" 
d="M836 848h-334l-176 -848h-277l176 848h-151l49 213h147l23 106q75 349 383 349q84 0 131 -15l-49 -221q-28 4 -62 4q-106 0 -127 -121l-22 -102h338l22 106q75 349 381 349q88 0 131 -15l-47 -221q-28 4 -61 4q-58 0 -86.5 -31.5t-40.5 -89.5l-23 -102h180l-47 -213h-178
l-176 -848h-281z" />
    <glyph glyph-name=".notdef" horiz-adv-x="1024" 
d="M0 0v1434h1024v-1434h-1024zM512 809l348 522h-696zM573 717l349 -522v1044zM164 102h696l-348 523zM102 1239v-1044l349 522z" />
    <glyph glyph-name=".null" horiz-adv-x="0" 
 />
    <glyph glyph-name="nonmarkingreturn" horiz-adv-x="682" 
 />
    <glyph glyph-name="space" unicode=" " horiz-adv-x="495" 
 />
    <glyph glyph-name="exclam" unicode="!" horiz-adv-x="643" 
d="M481 512h-225l104 655l54 244h295l-54 -246zM395 0h-274l72 340h274z" />
    <glyph glyph-name="quotedbl" unicode="&#x22;" horiz-adv-x="847" 
d="M403 895h-200l59 412l41 188h252l-39 -190zM795 895h-199l61 412l41 188h252l-41 -190z" />
    <glyph glyph-name="numbersign" unicode="#" horiz-adv-x="1116" 
d="M465 0l119 354h-211l-117 -354h-195l119 354h-149l32 221h193l82 246h-162l29 221h207l110 328h189l-109 -328h211l111 328h190l-108 -328h143l-33 -221h-184l-82 -246h168l-33 -221h-209l-117 -354h-194zM657 575l82 246h-211l-82 -246h211z" />
    <glyph glyph-name="dollar" unicode="$" horiz-adv-x="1089" 
d="M504 -178h-213l37 174q-159 32 -238.5 133.5t-66.5 257.5h274q1 -93 55 -141.5t156 -48.5q108 0 160.5 47.5t52.5 126.5q0 66 -43.5 110.5t-149.5 91.5q-194 88 -275 169.5t-81 203.5q0 178 122 289t327 123l24 115h213l-29 -132q142 -38 207 -138.5t54 -229.5h-267
q-3 35 -11 61.5t-27 53.5t-57.5 42t-94.5 15q-75 0 -124.5 -38.5t-49.5 -111.5q0 -55 44 -92t177 -98q172 -77 251 -165t79 -224q0 -193 -126.5 -307.5t-344.5 -126.5z" />
    <glyph glyph-name="percent" unicode="%" horiz-adv-x="1875" 
d="M578 1368q135 0 213.5 -74.5t78.5 -216.5q0 -133 -48 -241.5t-146.5 -176t-231.5 -67.5q-141 0 -215.5 79.5t-74.5 215.5q0 87 27.5 171t78.5 154t134 113t184 43zM557 1192q-48 0 -85.5 -31t-57.5 -78.5t-30.5 -95t-10.5 -88.5q0 -70 26 -100.5t78 -30.5q47 0 84 31.5
t56.5 79t29.5 95.5t10 89q0 129 -100 129zM545 0h-209l1083 1350h207zM1507 754q135 0 214 -74.5t79 -218.5q0 -133 -48 -241.5t-146.5 -176.5t-231.5 -68q-141 0 -216 80.5t-75 216.5q0 69 17 137t52.5 130.5t84.5 110t119 76t151 28.5zM1487 578q-47 0 -84.5 -31.5
t-58 -79t-31 -95.5t-10.5 -89q0 -131 104 -131q48 0 85 31t57 79t30 95.5t10 88.5q0 132 -102 132z" />
    <glyph glyph-name="ampersand" unicode="&#x26;" horiz-adv-x="1562" 
d="M555 231q67 0 123 23.5t119 81.5l-258 285q-86 -43 -129 -95.5t-43 -126.5q0 -70 50.5 -119t137.5 -49zM1241 836h309l-420 -482l316 -354h-346l-146 160q-94 -92 -196 -137.5t-254 -45.5q-196 0 -309 110t-113 273q0 77 23 139.5t70.5 112.5t105 89t141.5 81
q-96 131 -96 267q0 168 105.5 275.5t299.5 107.5q95 0 167.5 -28.5t113.5 -76.5t61.5 -104t20.5 -117q0 -130 -72.5 -213t-228.5 -158l184 -207zM727 1233q-67 0 -102 -44t-35 -104q0 -105 86 -196q164 90 164 219q0 51 -26.5 88t-86.5 37z" />
    <glyph glyph-name="quotesingle" unicode="'" horiz-adv-x="430" 
d="M406 895h-230l64 412l41 188h276l-41 -190z" />
    <glyph glyph-name="parenleft" unicode="(" horiz-adv-x="741" 
d="M586 1491h282q-184 -179 -298 -343t-177 -362.5t-63 -431.5q0 -172 40 -377t103 -335h-242q-145 325 -145 710q0 688 500 1139z" />
    <glyph glyph-name="parenright" unicode=")" horiz-adv-x="741" 
d="M172 -358h-281q137 133 233.5 256t167 261t104.5 290.5t34 328.5q0 173 -40.5 378t-104.5 335h243q146 -335 146 -711q0 -688 -502 -1138z" />
    <glyph glyph-name="asterisk" unicode="*" horiz-adv-x="880" 
d="M539 1413h196l-100 -309l252 196l88 -180l-324 -119l269 -120l-125 -179l-203 201l-33 -313h-197l101 311l-248 -199l-88 179l319 123l-268 116l133 183l195 -201z" />
    <glyph glyph-name="plus" unicode="+" horiz-adv-x="1454" 
d="M610 1155h240v-455h446v-237h-446v-463h-240v463h-450v237h450v455z" />
    <glyph glyph-name="comma" unicode="," horiz-adv-x="520" 
d="M94 -219h-235q96 139 164 301t94 278h286q-40 -159 -125 -319t-184 -260z" />
    <glyph glyph-name="hyphen" unicode="-" horiz-adv-x="765" 
d="M135 645h547l-51 -239h-547z" />
    <glyph glyph-name="period" unicode="." horiz-adv-x="501" 
d="M289 0h-303l75 360h301z" />
    <glyph glyph-name="slash" unicode="/" horiz-adv-x="882" 
d="M190 -63h-237l813 1495h238z" />
    <glyph glyph-name="zero" unicode="0" horiz-adv-x="1198" 
d="M745 1372q199 0 302.5 -125.5t103.5 -331.5q0 -82 -9.5 -168t-32.5 -179t-56.5 -177.5t-85 -161t-115.5 -132.5t-151 -89t-187 -33q-201 0 -306.5 122t-105.5 331q0 79 10 164t33.5 178t58 178.5t87 163.5t116.5 135t151 91t187 34zM717 1145q-80 0 -145.5 -73.5
t-103 -186t-57.5 -231.5t-20 -224q0 -227 150 -227q70 0 128 57t93.5 142t60.5 188t35 189t10 151q0 215 -151 215z" />
    <glyph glyph-name="one" unicode="1" horiz-adv-x="747" 
d="M442 0h-276l221 1014q-85 -30 -264 -43l51 217q110 14 207 62t151 98h197z" />
    <glyph glyph-name="two" unicode="2" horiz-adv-x="1085" 
d="M907 0h-938l11 47q35 166 151 313.5t363 305.5q86 54 133.5 88t84.5 73.5t50.5 77.5t13.5 90q0 67 -35 110.5t-114 43.5q-92 0 -141.5 -56t-75.5 -173h-271q12 71 33.5 132.5t61.5 121.5t94 103t135 69t180 26q112 0 196 -33t130.5 -88.5t69 -118.5t22.5 -133
q0 -84 -19 -148t-65.5 -120.5t-105.5 -102.5t-158 -108q-83 -51 -124.5 -78t-93.5 -65.5t-83.5 -73t-53.5 -72.5h631z" />
    <glyph glyph-name="three" unicode="3" horiz-adv-x="1095" 
d="M455 987h-279q18 80 53.5 146t91.5 120t141.5 84.5t192.5 30.5q102 0 182.5 -27.5t128.5 -74.5t72.5 -105.5t24.5 -124.5q0 -118 -57 -198.5t-158 -118.5v-6q68 -33 118 -104t50 -177q0 -208 -142.5 -330t-381.5 -122q-118 0 -206.5 31.5t-141 88.5t-78 129.5
t-25.5 161.5h276q14 -188 197 -188q103 0 159 62t56 157q0 85 -49 131.5t-168 46.5h-84l45 225h78q112 0 170.5 40.5t58.5 142.5q0 137 -145 137q-75 0 -115 -42.5t-65 -115.5z" />
    <glyph glyph-name="four" unicode="4" horiz-adv-x="1120" 
d="M819 0h-262l68 311h-590l57 252l688 785h326l-174 -811h166l-74 -226h-137zM670 537l61 270q41 185 76 301q-35 -55 -117 -156.5t-190.5 -230t-153.5 -184.5h324z" />
    <glyph glyph-name="five" unicode="5" horiz-adv-x="1118" 
d="M1145 1348l-88 -234h-527q-52 -184 -77 -264q86 63 229 63q169 0 268 -106.5t99 -278.5q0 -116 -36.5 -215.5t-104.5 -173.5t-172.5 -116.5t-233.5 -42.5q-206 0 -325 106t-122 291h275q6 -79 53 -126.5t137 -47.5q112 0 176 78t64 202q0 96 -46 148.5t-141 52.5
q-79 0 -130 -33.5t-87 -97.5l-229 55q46 127 111 355.5t104 384.5h803z" />
    <glyph glyph-name="six" unicode="6" horiz-adv-x="1157" 
d="M1139 1014h-273q-16 131 -157 131q-107 0 -178 -94t-109 -256q108 108 287 108q168 0 266 -107.5t98 -289.5q0 -104 -35 -198.5t-99.5 -168.5t-165 -118t-222.5 -44q-119 0 -207 36.5t-140.5 104.5t-78 158.5t-25.5 204.5q0 67 8.5 142t29.5 162t52.5 168t82 157t113 132
t150 90t189.5 34q88 0 159 -20t118 -53.5t78.5 -79.5t45 -95.5t13.5 -103.5zM549 203q76 0 131 42.5t79.5 105.5t24.5 138q0 38 -8 70t-27 61.5t-56 46.5t-89 17q-111 0 -171 -76t-60 -188q0 -95 44.5 -156t131.5 -61z" />
    <glyph glyph-name="seven" unicode="7" horiz-adv-x="987" 
d="M190 1348h914l-47 -224q-210 -218 -398.5 -521t-310.5 -603h-309q74 196 206 417.5t262 392.5t255 304h-623z" />
    <glyph glyph-name="eight" unicode="8" horiz-adv-x="1103" 
d="M475 -25q-201 0 -322.5 103.5t-121.5 279.5q0 128 76 224.5t212 140.5q-56 33 -95.5 100.5t-39.5 147.5q0 178 127.5 289.5t345.5 111.5q188 0 298 -92t110 -240q0 -118 -58 -204t-149 -127q72 -38 116 -111.5t44 -169.5q0 -200 -148 -326.5t-395 -126.5zM639 1155
q-87 0 -137.5 -50.5t-50.5 -137.5q0 -64 41 -104t118 -40q92 0 139.5 51t47.5 134q0 64 -38.5 105.5t-119.5 41.5zM506 195q107 0 169 67t62 168q0 87 -51.5 131.5t-140.5 44.5q-105 0 -168.5 -64.5t-63.5 -162.5q0 -85 50.5 -134.5t142.5 -49.5z" />
    <glyph glyph-name="nine" unicode="9" horiz-adv-x="1155" 
d="M74 334h272q13 -64 50 -98.5t116 -34.5q111 0 185.5 99.5t115.5 272.5q-92 -98 -276 -98q-165 0 -272 104t-107 285q0 96 35.5 186t99.5 161t163.5 114t217.5 43q115 0 201.5 -36t138.5 -101.5t77 -152t25 -193.5q0 -70 -7.5 -145.5t-27.5 -166t-50 -172.5t-80.5 -160
t-114 -135t-154 -91.5t-197.5 -34.5q-90 0 -161 21t-115.5 55t-74.5 81.5t-43 95t-17 101.5zM668 1147q-106 0 -167 -77t-61 -191q0 -89 48 -137t128 -48q111 0 169.5 68.5t58.5 175.5q0 95 -41.5 152t-134.5 57z" />
    <glyph glyph-name="colon" unicode=":" horiz-adv-x="587" 
d="M477 709h-295l74 342h295zM328 0h-293l69 342h295z" />
    <glyph glyph-name="semicolon" unicode=";" horiz-adv-x="663" 
d="M539 692h-301l77 359h301zM166 -219h-236q92 152 153.5 306t88.5 273h287q-36 -148 -121.5 -315t-171.5 -264z" />
    <glyph glyph-name="less" unicode="&#x3c;" horiz-adv-x="1261" 
d="M162 467v231l938 476v-254l-682 -336l682 -344v-256z" />
    <glyph glyph-name="equal" unicode="=" horiz-adv-x="1460" 
d="M162 440h1136v-237h-1136v237zM162 965h1136v-238h-1136v238z" />
    <glyph glyph-name="greater" unicode="&#x3e;" horiz-adv-x="1261" 
d="M1100 690v-231l-938 -475v256l684 335l-684 345v254z" />
    <glyph glyph-name="question" unicode="?" horiz-adv-x="1042" 
d="M655 444h-295l11 45q25 110 79 188.5t185 174.5q6 4 30.5 22t33 24.5t29.5 23.5t30 27t23.5 27.5t20.5 32t11.5 33t5.5 37.5q0 56 -32.5 91.5t-102.5 35.5q-79 0 -123 -45t-69 -133h-281q86 404 487 404q108 0 188.5 -29t125 -78.5t65.5 -106t21 -120.5q0 -89 -36 -164.5
t-91.5 -130.5t-143.5 -115q-82 -58 -118 -107t-50 -114zM561 0h-293l72 340h293z" />
    <glyph glyph-name="at" unicode="@" horiz-adv-x="1976" 
d="M1397 -74l39 -178q-185 -110 -498 -110q-173 0 -322 53t-259 151.5t-173 247.5t-63 332q0 200 72.5 376.5t199 303.5t306.5 200.5t386 73.5q121 0 233.5 -25.5t212.5 -80.5t174.5 -133.5t117.5 -192t43 -248.5q0 -186 -63.5 -329.5t-185 -224.5t-284.5 -81q-90 0 -149 32
t-74 95q-57 -64 -124.5 -94.5t-160.5 -30.5q-132 0 -208 85t-76 241q0 154 62.5 286.5t165.5 209t220 76.5q91 0 145 -31t68 -84l29 94h248l-133 -541q-19 -78 -7.5 -107.5t62.5 -29.5q103 0 175.5 122t72.5 304q0 236 -158 367t-426 131q-212 0 -374 -98.5t-248.5 -272
t-86.5 -395.5q0 -261 159.5 -420.5t434.5 -159.5q271 0 447 86zM1030 766q-61 0 -114 -52t-82 -133.5t-29 -168.5q0 -76 26 -112t84 -36q73 0 124 64.5t79 177.5q35 141 14 200.5t-102 59.5z" />
    <glyph glyph-name="A" unicode="A" horiz-adv-x="1314" 
d="M885 334h-498l-174 -334h-303l760 1411h364l185 -1411h-291zM500 571h372q-51 450 -59 621h-2q-107 -228 -311 -621z" />
    <glyph glyph-name="B" unicode="B" horiz-adv-x="1331" 
d="M49 0l299 1411h539q204 0 311 -97t107 -253q0 -120 -65 -211.5t-185 -130.5q76 -32 128 -108.5t52 -170.5q0 -210 -150 -325t-403 -115h-633zM465 625l-84 -402h278q122 0 197.5 56.5t75.5 162.5q0 90 -56.5 136.5t-181.5 46.5h-229zM512 850h246q115 0 183.5 44.5
t68.5 139.5q0 154 -191 154h-235z" />
    <glyph glyph-name="C" unicode="C" horiz-adv-x="1372" 
d="M985 442h303q-153 -462 -647 -462q-257 0 -394.5 150.5t-137.5 418.5q0 81 13 165t41.5 171t71 166.5t104.5 149t138 121t176.5 81t214.5 29.5q237 0 375.5 -122.5t145.5 -344.5h-302q-12 237 -251 237q-100 0 -182 -60t-132 -156t-77 -208.5t-27 -224.5q0 -342 256 -342
q115 0 188 60t123 171z" />
    <glyph glyph-name="D" unicode="D" horiz-adv-x="1466" 
d="M49 0l299 1411h455q281 0 443.5 -158.5t162.5 -441.5q0 -171 -55 -318.5t-156.5 -257.5t-256.5 -172.5t-345 -62.5h-547zM588 1182l-201 -951h219q230 0 364 153.5t134 422.5q0 186 -86.5 280.5t-249.5 94.5h-180z" />
    <glyph glyph-name="E" unicode="E" horiz-adv-x="1220" 
d="M1149 854l-51 -238h-635l-80 -378h723l-84 -238h-973l299 1411h948l-51 -235h-663l-68 -322h635z" />
    <glyph glyph-name="F" unicode="F" horiz-adv-x="1177" 
d="M49 0l299 1411h944l-51 -235h-661l-74 -361h618l-51 -235h-618l-121 -580h-285z" />
    <glyph glyph-name="G" unicode="G" horiz-adv-x="1458" 
d="M1374 793l-151 -793h-226q-6 52 13 154q-70 -93 -165.5 -133.5t-230.5 -40.5q-162 0 -275.5 74.5t-167.5 201.5t-54 295q0 128 29.5 252.5t92 238.5t151.5 200.5t217.5 138t279.5 51.5q246 0 388 -126.5t142 -326.5h-289q-2 41 -17.5 78.5t-46 71t-85 53.5t-127.5 20
q-88 0 -162 -39t-123.5 -103.5t-84.5 -147.5t-50.5 -169.5t-15.5 -171.5q0 -170 70 -265t214 -95q85 0 148 26t101 75t59 101t36 122l3 6h-326l53 252h600z" />
    <glyph glyph-name="H" unicode="H" horiz-adv-x="1449" 
d="M49 0l299 1411h289l-117 -547h549l117 547h289l-299 -1411h-289l133 627h-549l-133 -627h-289z" />
    <glyph glyph-name="I" unicode="I" horiz-adv-x="610" 
d="M348 1411h289l-299 -1411h-289z" />
    <glyph glyph-name="J" unicode="J" horiz-adv-x="749" 
d="M285 403l213 1008h288l-219 -1028q-15 -75 -35 -131.5t-54.5 -109.5t-81 -87t-117 -54.5t-160.5 -20.5q-103 0 -193 22l49 229q49 -14 125 -14q88 0 126 44.5t59 141.5z" />
    <glyph glyph-name="K" unicode="K" horiz-adv-x="1308" 
d="M49 0l299 1411h285l-135 -629q61 64 315 297t356 332h355l-674 -600l403 -811h-317l-305 641l-193 -149l-102 -492h-287z" />
    <glyph glyph-name="L" unicode="L" horiz-adv-x="1146" 
d="M49 0l299 1411h289l-250 -1173h678l-80 -238h-936z" />
    <glyph glyph-name="M" unicode="M" horiz-adv-x="1736" 
d="M1182 0l110 530q83 392 154 682h-8q-193 -440 -572 -1212h-250q-53 922 -53 1217h-10q-37 -267 -131 -711l-109 -506h-266l299 1411h436q45 -669 45 -1034h2q33 84 112 248.5t199 406.5t185 379h436l-299 -1411h-280z" />
    <glyph glyph-name="N" unicode="N" horiz-adv-x="1482" 
d="M319 0h-272l299 1411h373q8 -26 45 -149.5t53.5 -180t50.5 -172t53 -183.5t42 -153.5t36 -143.5t19 -95h4q6 46 14.5 100t25 136.5t24.5 120.5t32.5 152.5t28.5 133.5l92 434h270l-301 -1411h-352q-275 948 -303 1130h-4q-23 -151 -135 -684z" />
    <glyph glyph-name="O" unicode="O" horiz-adv-x="1513" 
d="M883 1432q142 0 252 -45t178 -125.5t102.5 -186t34.5 -231.5q0 -133 -29 -256.5t-91 -235t-151.5 -193.5t-220 -130.5t-286.5 -48.5q-137 0 -244.5 43.5t-175 120.5t-102.5 180t-35 225q0 128 30 253t93.5 239t152.5 201t216 138.5t276 51.5zM864 1202q-87 0 -161.5 -38
t-126.5 -102t-89.5 -147.5t-55 -174t-17.5 -181.5q0 -164 74.5 -256t220.5 -92q92 0 168 38t126.5 101t85.5 146.5t50.5 172t15.5 179.5q0 164 -71 259t-220 95z" />
    <glyph glyph-name="P" unicode="P" horiz-adv-x="1296" 
d="M49 0l299 1411h494q217 0 341 -109.5t124 -287.5q0 -159 -75.5 -270t-204 -163.5t-300.5 -52.5h-283l-110 -528h-285zM584 1182l-90 -422h217q147 0 221 57t74 178q0 187 -224 187h-198z" />
    <glyph glyph-name="Q" unicode="Q" horiz-adv-x="1513" 
d="M883 1432q142 0 252 -45t178 -125.5t102.5 -186t34.5 -231.5q0 -204 -69.5 -385.5t-206.5 -302.5l290 -224l-174 -188l-362 272q-109 -36 -256 -36q-137 0 -244.5 43.5t-175 120.5t-102.5 180t-35 225q0 128 30 253t93.5 239t152.5 201t216 138.5t276 51.5zM864 1202
q-87 0 -161.5 -38t-126.5 -102t-89.5 -147.5t-55 -174t-17.5 -181.5q0 -164 74.5 -256t220.5 -92q92 0 168 38t126.5 101t85.5 146.5t50.5 172t15.5 179.5q0 164 -71 259t-220 95z" />
    <glyph glyph-name="R" unicode="R" horiz-adv-x="1318" 
d="M711 575h-254l-121 -575h-287l299 1411h539q201 0 315.5 -98t114.5 -271q0 -142 -78 -237t-213 -131q169 -80 117 -336q-31 -149 -42.5 -221t-6.5 -117h-275q-12 90 41 338q26 122 -5.5 179.5t-143.5 57.5zM584 1182l-80 -375h237q281 0 281 207q0 168 -205 168h-233z
" />
    <glyph glyph-name="S" unicode="S" horiz-adv-x="1239" 
d="M31 434h293q9 -110 79.5 -171.5t200.5 -61.5q242 0 242 186q0 80 -57 130.5t-201 100.5q-212 72 -302.5 165t-90.5 227q0 87 31.5 162t93.5 134t163.5 92.5t231.5 33.5q240 0 373.5 -113t136.5 -303h-293q-13 190 -232 190q-93 0 -149.5 -42t-56.5 -122
q0 -61 47.5 -103.5t177.5 -88.5q224 -78 327 -175.5t103 -252.5q0 -70 -17.5 -132t-59.5 -120t-106 -99t-164 -66t-227 -25q-259 0 -398.5 121t-145.5 333z" />
    <glyph glyph-name="T" unicode="T" horiz-adv-x="1138" 
d="M301 0l250 1176h-414l51 235h1112l-51 -235h-411l-248 -1176h-289z" />
    <glyph glyph-name="U" unicode="U" horiz-adv-x="1417" 
d="M328 1411h288l-186 -870q-36 -167 25 -250.5t202 -83.5q143 0 212.5 70.5t105.5 240.5l188 893h291l-197 -915q-59 -268 -200 -392t-426 -124q-103 0 -187 19.5t-153.5 62t-109 110t-52.5 164t16 223.5z" />
    <glyph glyph-name="V" unicode="V" horiz-adv-x="1294" 
d="M672 0h-328l-188 1411h286l74 -651q34 -294 39 -500h4q63 157 258 512l357 639h296z" />
    <glyph glyph-name="W" unicode="W" horiz-adv-x="1841" 
d="M530 0h-292l-45 1411h284q-1 -124 -1.5 -425.5t-3.5 -459t-11 -227.5h2q29 87 118 282t216 463.5t172 366.5h252q38 -861 28 -1096h2q22 68 66.5 178.5t86.5 208.5t140.5 325.5t165.5 383.5h285l-676 -1411h-293q-1 67 -14.5 469t-12.5 545h-2q-31 -90 -95.5 -237
t-119 -259.5t-141.5 -289.5t-111 -228z" />
    <glyph glyph-name="X" unicode="X" horiz-adv-x="1198" 
d="M1122 0h-307l-209 502h-2l-403 -502h-324l610 727l-303 684h308l198 -473h2l389 473h316l-588 -688z" />
    <glyph glyph-name="Y" unicode="Y" horiz-adv-x="1181" 
d="M596 0h-289l107 512q6 25 -2 47l-295 852h299q16 -57 93.5 -313.5t96.5 -345.5q41 66 123.5 181t191.5 262t158 216h310l-668 -868q-17 -26 -21 -45z" />
    <glyph glyph-name="Z" unicode="Z" horiz-adv-x="1163" 
d="M-70 0l43 211l908 965h-707l53 235h1045l-51 -233l-881 -940h770l-86 -238h-1094z" />
    <glyph glyph-name="bracketleft" unicode="[" horiz-adv-x="708" 
d="M444 -358h-479l393 1849h480l-41 -195h-244l-311 -1460h243z" />
    <glyph glyph-name="backslash" unicode="\" horiz-adv-x="864" 
d="M475 1432l203 -1487h-219l-199 1487h215z" />
    <glyph glyph-name="bracketright" unicode="]" horiz-adv-x="708" 
d="M279 1491h477l-394 -1849h-479l41 194h244l311 1460h-243z" />
    <glyph glyph-name="asciicircum" unicode="^" horiz-adv-x="1024" 
d="M961 618h-220l-233 537l-223 -537h-222l345 752h208z" />
    <glyph glyph-name="underscore" unicode="_" horiz-adv-x="1050" 
d="M-141 -160h1040l-22 -104h-1041z" />
    <glyph glyph-name="grave" unicode="`" 
d="M154 1507h317l201 -295h-240z" />
    <glyph glyph-name="a" unicode="a" horiz-adv-x="1140" 
d="M1047 696l-95 -436q-45 -201 -49 -260h-270q0 7 14 119q-25 -31 -46 -50.5t-58 -42.5t-91 -34.5t-124 -11.5q-75 0 -134 24.5t-93.5 65t-52 87t-17.5 95.5q0 85 29.5 152t75.5 108.5t113.5 71t131 44t141.5 23.5q65 6 238 11l10 49q8 29 6 60.5t-12 57t-43 42t-86 16.5
q-45 0 -76.5 -9.5t-51 -30t-28.5 -34.5t-20 -40q-3 -6 -4 -9h-285q16 68 47 122t86 99.5t145 70.5t209 25q100 0 178 -21.5t135.5 -67.5t76.5 -119t0 -177zM717 459l4 16q-92 0 -184 -10q-116 -19 -167 -58.5t-51 -107.5q0 -49 32.5 -79t97.5 -30q55 0 99 18t70.5 43
t48 65.5t31 70.5t19.5 72z" />
    <glyph glyph-name="b" unicode="b" horiz-adv-x="1214" 
d="M82 272l258 1223h278l-116 -553q115 139 309 139q161 0 250.5 -111t89.5 -288q0 -100 -21 -197.5t-67 -189.5t-111.5 -161.5t-161 -111.5t-208.5 -42q-103 0 -168 33t-92 87q-10 -50 -27 -100h-272q8 39 28.5 132t30.5 140zM565 207q76 0 136 44.5t93.5 114t50.5 143.5
t17 144q0 199 -176 199q-221 0 -285 -330q-62 -315 164 -315z" />
    <glyph glyph-name="c" unicode="c" horiz-adv-x="1091" 
d="M713 346h278q-104 -366 -514 -366q-198 0 -303.5 109t-105.5 302q0 95 21 190t66.5 185.5t110.5 160t161 112t210 42.5q98 0 176 -26.5t123.5 -67.5t74.5 -93.5t38 -100t4 -91.5h-271q-4 166 -153 166q-70 0 -125.5 -48t-86.5 -121.5t-47 -150t-16 -145.5
q0 -213 160 -213q134 0 199 156z" />
    <glyph glyph-name="d" unicode="d" horiz-adv-x="1226" 
d="M1016 1495h278l-254 -1208q-56 -268 -59 -287h-268q3 59 16 125q-105 -145 -307 -145q-168 0 -260 111.5t-92 307.5q0 98 22.5 195t69.5 185t112.5 155t157.5 107t199 40q106 0 179.5 -34.5t92.5 -77.5zM662 850q-71 0 -130 -38.5t-95.5 -100t-56.5 -134.5t-20 -145
q0 -221 172 -221q234 0 299 358q55 281 -169 281z" />
    <glyph glyph-name="e" unicode="e" horiz-adv-x="1120" 
d="M1034 467h-680q-8 -46 -8 -64q0 -93 40 -150.5t128 -57.5q79 0 123.5 34t75.5 95h291q-19 -52 -45 -97t-69.5 -92t-97 -80t-131.5 -54t-169 -21q-208 0 -316 117.5t-108 316.5q0 73 13.5 147.5t41 150.5t74 141.5t108 117t148 81t188.5 29.5q113 0 196.5 -32.5t131.5 -90
t71 -128.5t23 -156q0 -100 -29 -207zM391 653h402q4 18 4 47q0 76 -39 124t-125 48q-183 0 -242 -219z" />
    <glyph glyph-name="f" unicode="f" horiz-adv-x="643" 
d="M328 0h-279l176 848h-149l47 211h149l23 104q38 169 134.5 261t254.5 92q94 0 141 -15l-47 -223q-24 6 -67 6q-116 0 -140 -125l-20 -100h178l-47 -211h-178z" />
    <glyph glyph-name="g" unicode="g" horiz-adv-x="1202" 
d="M1128 795l-137 -641q-18 -82 -34 -140.5t-41 -123t-54.5 -109t-72.5 -86.5t-96 -66.5t-124.5 -39.5t-158.5 -15q-82 0 -148.5 12.5t-111 32t-77.5 49t-51 58t-29 64.5t-14 62.5t-4 57.5h283q3 -55 44 -91t130 -36q116 0 175.5 74t99.5 249l6 33q-103 -127 -295 -127
q-168 0 -260 112.5t-92 299.5q0 94 23 187.5t69.5 178t110 149.5t150.5 103.5t185 38.5q115 0 186 -36t95 -91q4 15 11 35.5t15.5 43t10.5 28.5h266q-6 -26 -18.5 -79.5t-23 -100t-18.5 -86.5zM647 856q-69 0 -126 -37.5t-91.5 -98t-53 -132t-18.5 -144.5q0 -100 43.5 -153
t128.5 -53q107 0 178.5 84t104.5 235q10 46 13 86t-4 80.5t-26 69t-57 46t-92 17.5z" />
    <glyph glyph-name="h" unicode="h" horiz-adv-x="1183" 
d="M23 0l315 1495h278l-118 -569q125 155 319 155q73 0 128.5 -21t97 -68.5t51 -124.5t-10.5 -189l-143 -678h-276l133 639q23 107 -3.5 158t-115.5 51q-100 0 -162 -66.5t-88 -181.5l-127 -600h-278z" />
    <glyph glyph-name="i" unicode="i" horiz-adv-x="542" 
d="M23 0l225 1061h278l-225 -1061h-278zM283 1233l55 262h278l-55 -262h-278z" />
    <glyph glyph-name="j" unicode="j" horiz-adv-x="542" 
d="M561 1233h-278l55 262h278zM248 1061h278l-241 -1133q-39 -189 -131 -271.5t-254 -82.5q-63 0 -129 8l61 232q12 -2 35 -2q69 0 99 33t44 108z" />
    <glyph glyph-name="k" unicode="k" horiz-adv-x="1093" 
d="M614 1495l-186 -866q44 44 121 118t180 171.5t150 142.5h335q-141 -135 -450 -414l246 -647h-312l-151 471l-178 -137l-70 -334h-279l318 1495h276z" />
    <glyph glyph-name="l" unicode="l" horiz-adv-x="542" 
d="M301 0h-278l315 1495h278z" />
    <glyph glyph-name="m" unicode="m" horiz-adv-x="1732" 
d="M23 0l161 762q7 34 20 95t23 111t17 93h272q-13 -86 -20 -125q58 72 125 108.5t170 36.5q208 0 241 -172q135 172 346 172q70 0 124 -20.5t93.5 -66.5t48 -121t-11.5 -183l-147 -690h-271l140 655q41 195 -115 195q-92 0 -142.5 -63t-76.5 -191l-127 -596h-275l142 659
q37 189 -115 189q-92 0 -144.5 -64t-80.5 -202l-123 -582h-274z" />
    <glyph glyph-name="n" unicode="n" horiz-adv-x="1183" 
d="M23 0l167 791q6 30 18 85t21 100t15 85h272q-4 -61 -20 -133q119 153 319 153q165 0 237 -107.5t23 -332.5l-135 -641h-276l135 643q22 95 -6 150t-113 55q-199 0 -264 -299l-115 -549h-278z" />
    <glyph glyph-name="o" unicode="o" horiz-adv-x="1161" 
d="M653 1081q200 0 320.5 -115t120.5 -341q0 -65 -13 -134t-40.5 -143t-75.5 -139t-111.5 -117t-155 -82t-200.5 -30q-214 0 -322 118t-108 320q0 88 21.5 178.5t68.5 178t113.5 155.5t165.5 109.5t216 41.5zM631 864q-69 0 -124 -45t-86.5 -114.5t-48 -144.5t-16.5 -144
q0 -109 43.5 -164t126.5 -55q71 0 127.5 45t88 116t47.5 147t16 148q0 211 -174 211z" />
    <glyph glyph-name="p" unicode="p" horiz-adv-x="1224" 
d="M-63 -406l245 1160q47 218 60 307h276q0 -8 -22 -143q113 163 323 163q159 0 249.5 -112.5t90.5 -302.5q0 -101 -23.5 -199t-72 -186t-116.5 -155t-162.5 -106.5t-204.5 -39.5q-94 0 -162.5 34t-98.5 84l-106 -504h-276zM401 526q-63 -319 168 -319q75 0 134.5 41.5
t94 106.5t52.5 137.5t18 142.5q0 111 -46.5 164t-129.5 53q-110 0 -185 -90t-106 -236z" />
    <glyph glyph-name="q" unicode="q" horiz-adv-x="1222" 
d="M616 -406l113 527q-63 -76 -138 -108.5t-179 -32.5q-70 0 -130 23t-109 70t-77 127.5t-28 186.5q0 132 41.5 257.5t113 222t176.5 155.5t224 59q215 0 276 -116q14 54 29 96h274q-27 -108 -78 -344l-239 -1123h-269zM668 856q-59 0 -110.5 -28t-87 -73.5t-61 -103.5
t-37.5 -118.5t-12 -118.5q0 -100 41 -155.5t123 -55.5q230 0 299 354q16 88 13 154t-45 105.5t-123 39.5z" />
    <glyph glyph-name="r" unicode="r" horiz-adv-x="786" 
d="M834 1081l-56 -280q-149 -2 -246 -86t-133 -254l-98 -461h-278l159 745q23 106 62 316h268q-5 -69 -31 -193q59 104 141 158.5t212 54.5z" />
    <glyph glyph-name="s" unicode="s" horiz-adv-x="1015" 
d="M16 328h281q12 -142 184 -142q152 0 152 121q0 49 -42.5 79.5t-146.5 62.5q-181 57 -252 124.5t-71 169.5q0 148 113.5 243t318.5 95q107 0 190.5 -26t133 -71t74 -101.5t22.5 -120.5h-283q-8 112 -151 112q-60 0 -100 -22.5t-40 -73.5q0 -40 38.5 -62t148.5 -59
q182 -57 258 -132.5t76 -188.5q0 -89 -38 -158.5t-103.5 -111.5t-148.5 -64t-179 -22q-213 0 -328.5 91.5t-106.5 256.5z" />
    <glyph glyph-name="t" unicode="t" horiz-adv-x="708" 
d="M90 848l47 213h158l61 285h277l-60 -285h199l-47 -213h-199l-112 -535q-10 -56 3.5 -82t71.5 -26q45 0 91 6l-41 -201q-63 -20 -189 -20q-156 0 -202.5 80t-14.5 231l115 547h-158z" />
    <glyph glyph-name="u" unicode="u" horiz-adv-x="1169" 
d="M1151 1061l-164 -778q-36 -164 -55 -283h-273q5 78 23 147q-114 -167 -336 -167q-152 0 -223.5 97.5t-34.5 276.5l150 707h276l-143 -670q-19 -90 4.5 -136t107.5 -46q96 0 169 81.5t108 250.5l112 520h279z" />
    <glyph glyph-name="v" unicode="v" horiz-adv-x="1026" 
d="M106 1061h275q51 -647 51 -801h2q19 46 43.5 99.5t63.5 133t71.5 145.5t98 197t112.5 226h291l-573 -1061h-320z" />
    <glyph glyph-name="w" unicode="w" horiz-adv-x="1554" 
d="M123 1061h276q11 -640 4 -782h5q80 200 342 782h264q5 -644 -8 -791h2q143 362 342 791h288l-532 -1061h-299q-16 473 -6 713h-2q-14 -40 -33 -86.5t-50.5 -116.5t-58.5 -129.5t-81 -175.5t-95 -205h-299z" />
    <glyph glyph-name="x" unicode="x" horiz-adv-x="960" 
d="M84 1061h295q30 -72 76.5 -191.5t54.5 -138.5h2q28 38 108.5 146t137.5 184h317l-436 -518l229 -543h-301q-30 72 -76 191t-55 139h-2q-188 -252 -248 -330h-311l436 537z" />
    <glyph glyph-name="y" unicode="y" horiz-adv-x="1036" 
d="M98 1061h279q56 -646 59 -834h2q220 486 391 834h291l-577 -1108q-53 -103 -101.5 -172t-92 -110t-97.5 -62.5t-102.5 -28t-122.5 -6.5q-70 0 -142 14l52 230q36 -8 92 -8q62 0 103 17.5t61.5 42t44.5 69.5z" />
    <glyph glyph-name="z" unicode="z" horiz-adv-x="960" 
d="M-41 0l45 211l604 633h-475l47 217h795l-47 -221l-590 -623h526l-80 -217h-825z" />
    <glyph glyph-name="braceleft" unicode="{" horiz-adv-x="761" 
d="M39 463l45 219q129 0 180.5 49t73.5 160l53 250q40 190 147 270t271 80h84l-41 -197h-31q-87 0 -128 -37.5t-60 -128.5l-58 -274q-57 -273 -290 -293q218 -44 159 -321l-38 -187q-24 -126 -0.5 -171.5t104.5 -45.5h31l-41 -196h-47q-48 0 -89.5 7t-83 24.5t-69 46.5
t-48 72.5t-21 103t13.5 137.5l47 225q11 52 11 85t-14.5 63t-54 44t-106.5 15z" />
    <glyph glyph-name="bar" unicode="|" horiz-adv-x="643" 
d="M184 1599h254v-2134h-254v2134z" />
    <glyph glyph-name="braceright" unicode="}" horiz-adv-x="761" 
d="M741 670l-45 -221q-130 0 -182 -49t-74 -160l-51 -250q-40 -190 -147 -270t-271 -80h-86l43 196h31q86 0 126.5 37.5t59.5 128.5l60 274q57 273 289 293q-220 44 -158 322l39 186q24 126 0.5 171.5t-107.5 45.5h-30l43 197h45q48 0 89.5 -7t83 -24.5t69 -46.5t48.5 -72.5
t21.5 -103t-12.5 -137.5l-47 -226q-11 -52 -11.5 -85t14 -62.5t54 -43t106.5 -13.5z" />
    <glyph glyph-name="asciitilde" unicode="~" horiz-adv-x="1421" 
d="M383 397h-207v76q0 85 22 147t60 95t81.5 48t94.5 15q70 0 154.5 -28t148 -61t127 -61t97.5 -28q42 0 61.5 29t19.5 102v35h203v-51q0 -334 -256 -334q-68 0 -150.5 28t-145 61t-128 61t-102.5 28q-80 0 -80 -119v-43z" />
    <glyph glyph-name="uni00A0" unicode="&#xa0;" horiz-adv-x="495" 
 />
    <glyph glyph-name="exclamdown" unicode="&#xa1;" horiz-adv-x="555" 
d="M147 549h226l-103 -655l-53 -246h-297l53 248zM233 1061h277l-72 -340h-276z" />
    <glyph glyph-name="cent" unicode="&#xa2;" horiz-adv-x="1105" 
d="M748 485h274q-79 -293 -389 -340l-33 -149h-235l34 154q-134 31 -202 134.5t-68 254.5q0 116 32 223.5t92 196.5t155 148.5t213 74.5l26 127h232l-31 -140q74 -20 126 -62t77 -94t33.5 -102.5t2.5 -99.5h-264q0 78 -33.5 123t-117.5 45q-54 0 -99.5 -30t-75 -77
t-50 -105.5t-29 -113.5t-8.5 -104q0 -207 151 -207q67 0 111 35.5t76 107.5z" />
    <glyph glyph-name="sterling" unicode="&#xa3;" horiz-adv-x="1073" 
d="M907 0h-946l43 207q49 19 83 51t56.5 80.5t35.5 103t24 133.5h-174l41 199h155q6 66 21 160q34 218 143.5 327t306.5 109q91 0 161 -24.5t110.5 -62.5t65 -88t31.5 -97t3 -94h-250q-7 155 -133 155q-74 0 -109 -51.5t-51 -159.5q-18 -118 -24 -174h270l-43 -199h-254
q-40 -249 -135 -344h649z" />
    <glyph glyph-name="currency" unicode="&#xa4;" horiz-adv-x="1085" 
d="M645 1122q123 0 209 -65l176 151l109 -155l-178 -156q28 -91 10 -205q-22 -129 -86 -223l123 -154l-168 -147l-115 147q-100 -59 -223 -59q-124 0 -205 63l-168 -151l-113 160l168 145q-30 93 -12 215q17 120 90 227l-106 148l168 145l104 -141q99 55 217 55zM604 913
q-83 0 -139 -55t-74 -168q-8 -66 -1 -110.5t30.5 -71t52 -38t62.5 -11.5q79 0 136 54.5t77 178.5q17 109 -22.5 165t-121.5 56z" />
    <glyph glyph-name="yen" unicode="&#xa5;" horiz-adv-x="997" 
d="M834 330h-248l-70 -330h-270l69 330h-243l34 157h242l21 99h-244l35 157h202l-206 605h297q93 -370 108 -490h2q67 127 320 490h303l-471 -605h209l-35 -157h-250l-21 -99h250z" />
    <glyph glyph-name="brokenbar" unicode="&#xa6;" horiz-adv-x="522" 
d="M143 1411h236v-729h-236v729zM143 367h236v-734h-236v734z" />
    <glyph glyph-name="section" unicode="&#xa7;" horiz-adv-x="1206" 
d="M444 756q-54 -27 -89.5 -73t-35.5 -105q0 -52 34.5 -98t125.5 -93q206 -107 232 -125q47 30 75.5 79.5t28.5 104.5q0 67 -40.5 113t-133.5 94q-33 18 -101.5 53t-95.5 50zM1135 1063h-267q1 30 -6.5 56t-25.5 51.5t-55 40t-89 14.5q-75 0 -121.5 -33.5t-46.5 -95.5
q0 -51 44.5 -85t179.5 -100q118 -57 186.5 -108.5t107.5 -125.5t39 -173q0 -252 -225 -389q45 -57 45 -158q0 -190 -126 -289.5t-357 -99.5q-230 0 -351 110.5t-102 301.5h279q-9 -95 45.5 -149t152.5 -54q85 0 135 37t50 106q0 54 -47 93t-183 104q-186 90 -261 179.5
t-75 217.5q0 123 63 220.5t179 156.5q-41 62 -41 149q0 82 25 150.5t76.5 124t139.5 86.5t206 31q99 0 177.5 -21t128 -56.5t79.5 -83.5t39.5 -100t1.5 -108z" />
    <glyph glyph-name="dieresis" unicode="&#xa8;" 
d="M444 1231h-227l55 260h228zM831 1231h-227l55 260h228z" />
    <glyph glyph-name="copyright" unicode="&#xa9;" horiz-adv-x="1609" 
d="M842 1430q147 0 276.5 -53.5t224 -147.5t149 -230t54.5 -294q0 -161 -54 -297t-147.5 -229.5t-223.5 -146t-279 -52.5t-279 51.5t-225 144t-150 229.5t-55 300q0 155 54 290t148 230.5t225.5 150t281.5 54.5zM840 1300q-120 0 -223 -41t-178.5 -116.5t-119 -189
t-43.5 -251.5q0 -125 43.5 -235t118.5 -188t179.5 -123t222.5 -45q119 0 221 39t178.5 112t120 186t43.5 254q0 131 -43.5 243t-118.5 189.5t-178.5 121.5t-222.5 44zM1001 596h189q-24 -132 -110.5 -206.5t-237.5 -74.5q-165 0 -261 104.5t-96 289.5q0 183 97.5 292
t273.5 109q83 0 147 -24t102.5 -65.5t59.5 -92t25 -109.5h-184q-13 63 -49.5 97t-108.5 34q-75 0 -121.5 -56.5t-46.5 -172.5q0 -115 43.5 -180.5t122.5 -65.5q120 0 155 121z" />
    <glyph glyph-name="ordfeminine" unicode="&#xaa;" horiz-adv-x="772" 
d="M778 981l-57 -281q-5 -29 -13 -68t-13.5 -65.5t-6.5 -34.5h-194q4 36 12 82q-67 -94 -211 -94q-96 0 -147.5 55.5t-51.5 131.5q0 57 20 101t50.5 70.5t77 45t90 26.5t98.5 13q73 6 150 6l4 24q5 43 -12 68.5t-74 25.5q-52 0 -75.5 -17t-33.5 -54h-203q8 38 28 73t56 68.5
t97.5 53.5t140.5 20q150 0 222.5 -61t45.5 -189zM549 827l2 13q-42 0 -100 -4q-70 -6 -106 -29t-36 -72q0 -27 21 -43t57 -16q67 0 109.5 45.5t52.5 105.5z" />
    <glyph glyph-name="guillemotleft" unicode="&#xab;" horiz-adv-x="1212" 
d="M741 938l-385 -424l193 -385h-236l-207 406l371 403h264zM1202 938l-385 -422l193 -387h-238l-205 406l369 403h266z" />
    <glyph glyph-name="logicalnot" unicode="&#xac;" horiz-adv-x="1460" 
d="M160 860h1136v-713h-239v480h-897v233z" />
    <glyph glyph-name="uni00AD" unicode="&#xad;" horiz-adv-x="765" 
d="M135 645h547l-51 -239h-547z" />
    <glyph glyph-name="registered" unicode="&#xae;" horiz-adv-x="731" 
d="M496 1432q155 0 250.5 -102.5t95.5 -252.5q0 -160 -95.5 -259t-250.5 -99q-149 0 -246.5 102t-97.5 256q0 155 95.5 255t248.5 100zM496 1352q-118 0 -188 -78.5t-70 -196.5q0 -117 74.5 -195.5t183.5 -78.5q124 0 192 73t68 199q0 125 -71.5 201t-188.5 76zM457 913
h-109v340h168q146 0 146 -98q0 -32 -16.5 -53t-41.5 -27q47 -15 47 -88q0 -56 4 -74h-108q-6 14 -6 70q0 29 -12 40t-42 11h-30v-121zM461 1178v-68h41q45 0 45 37q0 31 -47 31h-39z" />
    <glyph glyph-name="macron" unicode="&#xaf;" 
d="M293 1452h590l-47 -215h-590z" />
    <glyph glyph-name="degree" unicode="&#xb0;" horiz-adv-x="677" 
d="M494 1391q119 0 185 -69t66 -177q0 -143 -90.5 -237.5t-232.5 -94.5q-113 0 -179.5 68.5t-66.5 183.5q0 141 90 233.5t228 92.5zM479 1264q-72 0 -114.5 -56t-42.5 -135q0 -60 31.5 -96.5t88.5 -36.5q69 0 111.5 53t42.5 135q0 136 -117 136z" />
    <glyph glyph-name="plusminus" unicode="&#xb1;" horiz-adv-x="1460" 
d="M623 1407h219v-420h456v-215h-456v-422h-219v422h-461v215h461v420zM1300 0h-1136v215h1136v-215z" />
    <glyph glyph-name="two.sups" unicode="&#xb2;" horiz-adv-x="749" 
d="M655 877h-622l6 24q14 57 32 99.5t53 94.5t95.5 101.5t147.5 97.5q109 60 142.5 87.5t33.5 66.5q0 35 -21.5 56.5t-66.5 21.5q-92 0 -127 -113h-203q62 287 354 287q72 0 129 -21.5t90.5 -57.5t50.5 -77.5t17 -85.5q0 -92 -50 -153t-179 -127q-150 -75 -189 -134h371z
" />
    <glyph glyph-name="three.sups" unicode="&#xb3;" horiz-adv-x="774" 
d="M68 1126h213q3 -42 32 -72t86 -30q121 0 121 102q0 39 -29 61.5t-88 22.5h-73l39 172h61q117 0 117 91q0 30 -21 49.5t-63 19.5q-86 0 -115 -82h-203q11 43 31 80.5t57.5 76t102 61t149.5 22.5q133 0 208 -59.5t75 -151.5q0 -138 -145 -182q40 -13 80 -56t40 -112
q0 -124 -94.5 -197.5t-263.5 -73.5q-74 0 -133 18t-94 45.5t-57.5 63t-29.5 68.5t-3 63z" />
    <glyph glyph-name="acute" unicode="&#xb4;" 
d="M696 1507h363l-422 -295h-270z" />
    <glyph glyph-name="uni00B5" unicode="&#xb5;" horiz-adv-x="1163" 
d="M88 352l150 709h276l-135 -633q-12 -64 -11 -112.5t31 -77.5t90 -29q96 0 161 72t100 239l116 541h277l-158 -746q-52 -254 -59 -315h-262q-3 42 10 131q-49 -81 -113 -116t-149 -35q-88 0 -133 40q-2 -13 -18.5 -86t-38.5 -175.5t-36 -178.5h-268q20 93 84.5 384
t85.5 388z" />
    <glyph glyph-name="paragraph" unicode="&#xb6;" horiz-adv-x="1269" 
d="M848 -311h-195l123 575h-190q-108 0 -193.5 30t-140 84t-87.5 128t-35.5 161.5t15.5 184.5q47 226 201 347.5t393 121.5h260q24 82 48 125h180q-23 -89 -31 -129zM758 481h63l137 645h-92q-166 0 -227 -305q-69 -340 119 -340z" />
    <glyph glyph-name="periodcentered" unicode="&#xb7;" horiz-adv-x="501" 
d="M360 410h-303l76 360h301z" />
    <glyph glyph-name="cedilla" unicode="&#xb8;" 
d="M223 20l183 -20l-91 -88q71 -22 117.5 -67t46.5 -115q0 -110 -82 -169t-213 -59q-114 0 -209 31l39 152q56 -17 131 -17q103 0 103 53q0 60 -191 68l17 72z" />
    <glyph glyph-name="one.sups" unicode="&#xb9;" horiz-adv-x="532" 
d="M367 874h-222l125 592q-24 -2 -49.5 -2t-51.5 1t-36 1l35 154q67 3 127.5 25.5t93.5 52.5h154z" />
    <glyph glyph-name="ordmasculine" unicode="&#xba;" horiz-adv-x="796" 
d="M524 1231q143 0 223 -77.5t80 -201.5q0 -191 -113 -310.5t-300 -119.5q-134 0 -216.5 77.5t-82.5 209.5q0 111 48 206t143 155.5t218 60.5zM504 1073q-56 0 -96.5 -43.5t-58 -100.5t-17.5 -116q0 -65 27.5 -100t78.5 -35q45 0 80 26t55 66.5t30.5 85.5t10.5 88
q0 129 -110 129z" />
    <glyph glyph-name="guillemotright" unicode="&#xbb;" horiz-adv-x="1212" 
d="M477 129l385 424l-192 385h235l207 -406l-371 -403h-264zM16 129l385 422l-192 387h237l205 -406l-368 -403h-267z" />
    <glyph glyph-name="onequarter" unicode="&#xbc;" horiz-adv-x="1665" 
d="M362 0h-210l1089 1348h201zM414 532h-221l124 592q-24 -2 -49.5 -2t-51.5 1t-36 1l35 154q67 3 127.5 25.5t93.5 52.5h154zM1409 2h-203l41 191h-391l35 157l414 463h276l-100 -467h116l-49 -153h-100zM1094 346h184l29 121q36 153 43 180q-46 -61 -256 -301z" />
    <glyph glyph-name="onehalf" unicode="&#xbd;" horiz-adv-x="1744" 
d="M354 0h-211l1090 1348h201zM408 532h-222l125 592q-24 -2 -49.5 -2t-51.5 1t-36 1l35 154q67 3 127.5 25.5t93.5 52.5h154zM1561 0h-623l6 25q14 57 32 99.5t53 94.5t95.5 101.5t147.5 97.5q110 60 143 87t33 66q0 35 -21.5 56.5t-66.5 21.5q-92 0 -127 -112h-203
q62 286 354 286q140 0 213.5 -73t73.5 -168q0 -92 -50 -153.5t-179 -127.5q-151 -76 -189 -133h371z" />
    <glyph glyph-name="threequarters" unicode="&#xbe;" horiz-adv-x="1886" 
d="M592 0h-211l1089 1348h201zM1626 -4h-203l41 190h-391l35 158l414 463h276l-100 -467h117l-50 -154h-100zM1311 340h184l29 121q36 153 43 180q-46 -61 -256 -301zM96 784h213q3 -42 32.5 -72t86.5 -30q121 0 121 102q0 39 -29 61.5t-88 22.5h-74l39 172h62q116 0 116 90
q0 30 -20.5 50t-62.5 20q-86 0 -115 -82h-203q11 43 31 80.5t57.5 76t102 61t149.5 22.5q133 0 208 -59.5t75 -151.5q0 -137 -146 -182q40 -13 80.5 -56.5t40.5 -111.5q0 -124 -94.5 -197.5t-263.5 -73.5q-91 0 -159 26.5t-102 67.5t-48 83.5t-9 80.5z" />
    <glyph glyph-name="questiondown" unicode="&#xbf;" horiz-adv-x="1032" 
d="M412 614h293l-9 -45q-25 -110 -79 -188t-185 -174q-6 -5 -30 -22t-33 -24t-29.5 -24t-30 -27t-24 -27t-21 -31.5t-11.5 -32.5t-5 -37q0 -58 32.5 -93.5t102.5 -35.5q79 0 123 45.5t69 134.5h281q-86 -406 -487 -406q-108 0 -188.5 29.5t-125 79t-65.5 106.5t-21 121
q0 128 68 222t203 188q82 57 118 105.5t50 115.5zM506 1061h293l-72 -340h-293z" />
    <glyph glyph-name="Agrave" unicode="&#xc0;" horiz-adv-x="1314" 
d="M885 334h-498l-174 -334h-303l760 1411h364l185 -1411h-291zM500 571h372q-51 450 -59 621h-2q-107 -228 -311 -621zM365 1815h354l293 -285h-273z" />
    <glyph glyph-name="Aacute" unicode="&#xc1;" horiz-adv-x="1314" 
d="M885 334h-498l-174 -334h-303l760 1411h364l185 -1411h-291zM500 571h372q-51 450 -59 621h-2q-107 -228 -311 -621zM1069 1815h391l-467 -285h-284z" />
    <glyph glyph-name="Acircumflex" unicode="&#xc2;" horiz-adv-x="1314" 
d="M885 334h-498l-174 -334h-303l760 1411h364l185 -1411h-291zM500 571h372q-51 450 -59 621h-2q-107 -228 -311 -621zM780 1792h264l205 -281h-256l-104 144l-160 -144h-278z" />
    <glyph glyph-name="Atilde" unicode="&#xc3;" horiz-adv-x="1314" 
d="M885 334h-498l-174 -334h-303l760 1411h364l185 -1411h-291zM500 571h372q-51 450 -59 621h-2q-107 -228 -311 -621zM686 1516h-182l12 65q19 119 75 167t148 48q51 0 111.5 -21.5t109.5 -43t74 -21.5q27 0 42.5 15t21.5 55l2 16h180l-10 -61q-22 -129 -78 -177.5
t-152 -48.5q-53 0 -112 21t-106 42t-72 21q-52 0 -60 -49z" />
    <glyph glyph-name="Adieresis" unicode="&#xc4;" horiz-adv-x="1314" 
d="M885 334h-498l-174 -334h-303l760 1411h364l185 -1411h-291zM500 571h372q-51 450 -59 621h-2q-107 -228 -311 -621zM764 1540h-227l55 260h227zM1184 1540h-228l56 260h227z" />
    <glyph glyph-name="Aring" unicode="&#xc5;" horiz-adv-x="1314" 
d="M885 334h-498l-174 -334h-303l760 1411h364l185 -1411h-291zM500 571h372q-51 450 -59 621h-2q-107 -228 -311 -621zM858 1493q-100 0 -157.5 51t-57.5 133q0 104 76 170t190 66q100 0 155.5 -54t55.5 -135q0 -102 -73.5 -166.5t-188.5 -64.5zM868 1614q41 0 75 27t34 75
q0 35 -20 56.5t-62 21.5q-43 0 -75 -27t-32 -77q0 -27 20.5 -51.5t59.5 -24.5z" />
    <glyph glyph-name="AE" unicode="&#xc6;" horiz-adv-x="1941" 
d="M899 1411h1118l-49 -235h-663l-70 -322h637l-51 -236h-637l-78 -380h721l-86 -238h-969l88 418h-416l-313 -418h-311zM625 655h286l113 533h-6z" />
    <glyph glyph-name="Ccedilla" unicode="&#xc7;" horiz-adv-x="1372" 
d="M985 442h303q-140 -419 -561 -458l-72 -70q71 -22 117.5 -67t46.5 -115q0 -110 -82 -169t-213 -59q-114 0 -209 31l39 152q56 -17 131 -17q103 0 103 54q0 59 -191 67l17 72l116 125q-204 31 -312.5 177t-108.5 384q0 81 13 165t41.5 171t71 166.5t104.5 149t138 121
t176.5 81t214.5 29.5q237 0 375.5 -122.5t145.5 -344.5h-302q-12 237 -251 237q-100 0 -182 -60t-132 -156t-77 -208.5t-27 -224.5q0 -342 256 -342q115 0 188 60t123 171z" />
    <glyph glyph-name="Egrave" unicode="&#xc8;" horiz-adv-x="1220" 
d="M1149 854l-51 -238h-635l-80 -378h723l-84 -238h-973l299 1411h948l-51 -235h-663l-68 -322h635zM336 1819h354l293 -285h-272z" />
    <glyph glyph-name="Eacute" unicode="&#xc9;" horiz-adv-x="1220" 
d="M1149 854l-51 -238h-635l-80 -378h723l-84 -238h-973l299 1411h948l-51 -235h-663l-68 -322h635zM1024 1819h391l-467 -285h-284z" />
    <glyph glyph-name="Ecircumflex" unicode="&#xca;" horiz-adv-x="1220" 
d="M1149 854l-51 -238h-635l-80 -378h723l-84 -238h-973l299 1411h948l-51 -235h-663l-68 -322h635zM756 1815h264l205 -281h-256l-105 143l-159 -143h-279z" />
    <glyph glyph-name="Edieresis" unicode="&#xcb;" horiz-adv-x="1220" 
d="M1149 854l-51 -238h-635l-80 -378h723l-84 -238h-973l299 1411h948l-51 -235h-663l-68 -322h635zM743 1554h-227l55 261h228zM1163 1554h-227l55 261h228z" />
    <glyph glyph-name="Igrave" unicode="&#xcc;" horiz-adv-x="610" 
d="M348 1411h289l-299 -1411h-289zM6 1817h354l293 -285h-272z" />
    <glyph glyph-name="Iacute" unicode="&#xcd;" horiz-adv-x="610" 
d="M348 1411h289l-299 -1411h-289zM705 1817h391l-467 -285h-285z" />
    <glyph glyph-name="Icircumflex" unicode="&#xce;" horiz-adv-x="610" 
d="M348 1411h289l-299 -1411h-289zM444 1812h265l204 -280h-256l-104 143l-160 -143h-278z" />
    <glyph glyph-name="Idieresis" unicode="&#xcf;" horiz-adv-x="610" 
d="M348 1411h289l-299 -1411h-289zM416 1554h-228l56 261h227zM836 1554h-228l56 261h227z" />
    <glyph glyph-name="Eth" unicode="&#xd0;" horiz-adv-x="1486" 
d="M78 817h166l125 594h454q281 0 444 -158.5t163 -441.5q0 -171 -55 -318.5t-157 -257.5t-257 -172.5t-345 -62.5h-546l133 631h-164zM608 1182l-78 -365h326l-41 -186h-323l-84 -400h219q230 0 363.5 153.5t133.5 422.5q0 186 -86.5 280.5t-249.5 94.5h-180z" />
    <glyph glyph-name="Ntilde" unicode="&#xd1;" horiz-adv-x="1482" 
d="M319 0h-272l299 1411h373q8 -26 45 -149.5t53.5 -180t50.5 -172t53 -183.5t42 -153.5t36 -143.5t19 -95h4q6 46 14.5 100t25 136.5t24.5 120.5t32.5 152.5t28.5 133.5l92 434h270l-301 -1411h-352q-275 948 -303 1130h-4q-23 -151 -135 -684zM762 1540h-182l12 66
q19 119 75 167t148 48q51 0 111.5 -21.5t109.5 -43t74 -21.5q27 0 42.5 14.5t21.5 54.5l2 17h180l-10 -62q-22 -128 -78 -176.5t-152 -48.5q-53 0 -112 21t-106.5 42t-72.5 21q-51 0 -59 -49z" />
    <glyph glyph-name="Ograve" unicode="&#xd2;" horiz-adv-x="1513" 
d="M883 1432q142 0 252 -45t178 -125.5t102.5 -186t34.5 -231.5q0 -133 -29 -256.5t-91 -235t-151.5 -193.5t-220 -130.5t-286.5 -48.5q-137 0 -244.5 43.5t-175 120.5t-102.5 180t-35 225q0 128 30 253t93.5 239t152.5 201t216 138.5t276 51.5zM864 1202q-87 0 -161.5 -38
t-126.5 -102t-89.5 -147.5t-55 -174t-17.5 -181.5q0 -164 74.5 -256t220.5 -92q92 0 168 38t126.5 101t85.5 146.5t50.5 172t15.5 179.5q0 164 -71 259t-220 95zM471 1821h354l293 -285h-272z" />
    <glyph glyph-name="Oacute" unicode="&#xd3;" horiz-adv-x="1513" 
d="M883 1432q142 0 252 -45t178 -125.5t102.5 -186t34.5 -231.5q0 -133 -29 -256.5t-91 -235t-151.5 -193.5t-220 -130.5t-286.5 -48.5q-137 0 -244.5 43.5t-175 120.5t-102.5 180t-35 225q0 128 30 253t93.5 239t152.5 201t216 138.5t276 51.5zM864 1202q-87 0 -161.5 -38
t-126.5 -102t-89.5 -147.5t-55 -174t-17.5 -181.5q0 -164 74.5 -256t220.5 -92q92 0 168 38t126.5 101t85.5 146.5t50.5 172t15.5 179.5q0 164 -71 259t-220 95zM1067 1821h391l-467 -285h-284z" />
    <glyph glyph-name="Ocircumflex" unicode="&#xd4;" horiz-adv-x="1513" 
d="M883 1432q142 0 252 -45t178 -125.5t102.5 -186t34.5 -231.5q0 -133 -29 -256.5t-91 -235t-151.5 -193.5t-220 -130.5t-286.5 -48.5q-137 0 -244.5 43.5t-175 120.5t-102.5 180t-35 225q0 128 30 253t93.5 239t152.5 201t216 138.5t276 51.5zM864 1202q-87 0 -161.5 -38
t-126.5 -102t-89.5 -147.5t-55 -174t-17.5 -181.5q0 -164 74.5 -256t220.5 -92q92 0 168 38t126.5 101t85.5 146.5t50.5 172t15.5 179.5q0 164 -71 259t-220 95zM856 1815h264l205 -281h-256l-104 143l-160 -143h-279z" />
    <glyph glyph-name="Otilde" unicode="&#xd5;" horiz-adv-x="1513" 
d="M883 1432q142 0 252 -45t178 -125.5t102.5 -186t34.5 -231.5q0 -133 -29 -256.5t-91 -235t-151.5 -193.5t-220 -130.5t-286.5 -48.5q-137 0 -244.5 43.5t-175 120.5t-102.5 180t-35 225q0 128 30 253t93.5 239t152.5 201t216 138.5t276 51.5zM864 1202q-87 0 -161.5 -38
t-126.5 -102t-89.5 -147.5t-55 -174t-17.5 -181.5q0 -164 74.5 -256t220.5 -92q92 0 168 38t126.5 101t85.5 146.5t50.5 172t15.5 179.5q0 164 -71 259t-220 95zM731 1542h-182l12 66q19 119 75 167t148 48q51 0 111.5 -21.5t109.5 -43t74 -21.5q27 0 42.5 14.5t21.5 54.5
l2 17h180l-10 -62q-22 -128 -78 -176.5t-152 -48.5q-53 0 -112 21t-106 42t-72 21q-52 0 -60 -49z" />
    <glyph glyph-name="Odieresis" unicode="&#xd6;" horiz-adv-x="1513" 
d="M883 1432q142 0 252 -45t178 -125.5t102.5 -186t34.5 -231.5q0 -133 -29 -256.5t-91 -235t-151.5 -193.5t-220 -130.5t-286.5 -48.5q-137 0 -244.5 43.5t-175 120.5t-102.5 180t-35 225q0 128 30 253t93.5 239t152.5 201t216 138.5t276 51.5zM864 1202q-87 0 -161.5 -38
t-126.5 -102t-89.5 -147.5t-55 -174t-17.5 -181.5q0 -164 74.5 -256t220.5 -92q92 0 168 38t126.5 101t85.5 146.5t50.5 172t15.5 179.5q0 164 -71 259t-220 95zM844 1556h-228l56 261h227zM1264 1556h-228l56 261h227z" />
    <glyph glyph-name="multiply" unicode="&#xd7;" horiz-adv-x="1460" 
d="M1294 164l-155 -164l-408 424l-407 -424l-154 164l408 422l-408 424l149 157l412 -424l410 424l153 -157l-409 -426z" />
    <glyph glyph-name="Oslash" unicode="&#xd8;" horiz-adv-x="1513" 
d="M897 1432q207 0 346 -105l74 84h184l-162 -180q113 -153 113 -385q0 -131 -30 -255t-94.5 -235.5t-156.5 -194.5t-224.5 -132t-289.5 -49q-202 0 -338 104l-73 -84h-187l164 184q-106 144 -106 365q0 135 32 263t97 240.5t156.5 197t219 133.5t275.5 49zM866 1206
q-107 0 -197 -58.5t-146.5 -151.5t-88 -205t-31.5 -224q0 -78 23 -155l641 718q-79 76 -201 76zM698 205q92 0 170 39t131.5 103.5t92 148.5t56 173.5t17.5 178.5q0 86 -24 160l-641 -723q74 -80 198 -80z" />
    <glyph glyph-name="Ugrave" unicode="&#xd9;" horiz-adv-x="1417" 
d="M328 1411h288l-186 -870q-36 -167 25 -250.5t202 -83.5q143 0 212.5 70.5t105.5 240.5l188 893h291l-197 -915q-59 -268 -200 -392t-426 -124q-103 0 -187 19.5t-153.5 62t-109 110t-52.5 164t16 223.5zM406 1798h354l293 -285h-273z" />
    <glyph glyph-name="Uacute" unicode="&#xda;" horiz-adv-x="1417" 
d="M328 1411h288l-186 -870q-36 -167 25 -250.5t202 -83.5q143 0 212.5 70.5t105.5 240.5l188 893h291l-197 -915q-59 -268 -200 -392t-426 -124q-103 0 -187 19.5t-153.5 62t-109 110t-52.5 164t16 223.5zM1063 1798h391l-467 -285h-285z" />
    <glyph glyph-name="Ucircumflex" unicode="&#xdb;" horiz-adv-x="1417" 
d="M328 1411h288l-186 -870q-36 -167 25 -250.5t202 -83.5q143 0 212.5 70.5t105.5 240.5l188 893h291l-197 -915q-59 -268 -200 -392t-426 -124q-103 0 -187 19.5t-153.5 62t-109 110t-52.5 164t16 223.5zM829 1812h265l204 -280h-256l-104 143l-160 -143h-278z" />
    <glyph glyph-name="Udieresis" unicode="&#xdc;" horiz-adv-x="1417" 
d="M328 1411h288l-186 -870q-36 -167 25 -250.5t202 -83.5q143 0 212.5 70.5t105.5 240.5l188 893h291l-197 -915q-59 -268 -200 -392t-426 -124q-103 0 -187 19.5t-153.5 62t-109 110t-52.5 164t16 223.5zM799 1552h-228l56 260h227zM1219 1552h-228l56 260h227z" />
    <glyph glyph-name="Yacute" unicode="&#xdd;" horiz-adv-x="1181" 
d="M596 0h-289l107 512q6 25 -2 47l-295 852h299q16 -57 93.5 -313.5t96.5 -345.5q41 66 123.5 181t191.5 262t158 216h310l-668 -868q-17 -26 -21 -45zM942 1812h391l-467 -284h-284z" />
    <glyph glyph-name="Thorn" unicode="&#xde;" horiz-adv-x="1286" 
d="M43 0l299 1411h289l-56 -262h234q67 0 130.5 -14.5t120.5 -45.5t100 -75.5t68 -109.5t25 -142q0 -128 -46 -223.5t-129.5 -152t-191 -83.5t-239.5 -27h-256l-57 -276h-291zM526 918l-86 -410h232q131 0 207.5 56.5t76.5 166.5q0 87 -54.5 137t-164.5 50h-211z" />
    <glyph glyph-name="germandbls" unicode="&#xdf;" horiz-adv-x="1267" 
d="M522 1042l-225 -1042h-279l230 1063q27 127 74.5 215.5t117 140.5t155 74.5t198.5 22.5q120 0 214.5 -31t151.5 -83.5t86 -115.5t29 -133q0 -78 -21 -137l-335 -195l-3 -4l82 -84q94 -93 136.5 -173.5t42.5 -174.5q0 -80 -26.5 -151t-78.5 -128.5t-139 -91.5t-199 -34
q-204 0 -334 106l52 236q60 -56 136.5 -89.5t151.5 -33.5q74 0 116 39t42 110q0 99 -100 199l-113 112q-167 167 51 312l258 151q2 10 2 29q0 59 -50.5 101t-164.5 42q-104 0 -166 -52.5t-92 -199.5z" />
    <glyph glyph-name="agrave" unicode="&#xe0;" horiz-adv-x="1140" 
d="M1047 696l-95 -436q-45 -201 -49 -260h-270q0 7 14 119q-25 -31 -46 -50.5t-58 -42.5t-91 -34.5t-124 -11.5q-75 0 -134 24.5t-93.5 65t-52 87t-17.5 95.5q0 85 29.5 152t75.5 108.5t113.5 71t131 44t141.5 23.5q65 6 238 11l10 49q8 29 6 60.5t-12 57t-43 42t-86 16.5
q-45 0 -76.5 -9.5t-51 -30t-28.5 -34.5t-20 -40q-3 -6 -4 -9h-285q16 68 47 122t86 99.5t145 70.5t209 25q100 0 178 -21.5t135.5 -67.5t76.5 -119t0 -177zM717 459l4 16q-92 0 -184 -10q-116 -19 -167 -58.5t-51 -107.5q0 -49 32.5 -79t97.5 -30q55 0 99 18t70.5 43
t48 65.5t31 70.5t19.5 72zM338 1507h317l201 -295h-240z" />
    <glyph glyph-name="aacute" unicode="&#xe1;" horiz-adv-x="1140" 
d="M1047 696l-95 -436q-45 -201 -49 -260h-270q0 7 14 119q-25 -31 -46 -50.5t-58 -42.5t-91 -34.5t-124 -11.5q-75 0 -134 24.5t-93.5 65t-52 87t-17.5 95.5q0 85 29.5 152t75.5 108.5t113.5 71t131 44t141.5 23.5q65 6 238 11l10 49q8 29 6 60.5t-12 57t-43 42t-86 16.5
q-45 0 -76.5 -9.5t-51 -30t-28.5 -34.5t-20 -40q-3 -6 -4 -9h-285q16 68 47 122t86 99.5t145 70.5t209 25q100 0 178 -21.5t135.5 -67.5t76.5 -119t0 -177zM717 459l4 16q-92 0 -184 -10q-116 -19 -167 -58.5t-51 -107.5q0 -49 32.5 -79t97.5 -30q55 0 99 18t70.5 43
t48 65.5t31 70.5t19.5 72zM858 1507h363l-422 -295h-271z" />
    <glyph glyph-name="acircumflex" unicode="&#xe2;" horiz-adv-x="1140" 
d="M1047 696l-95 -436q-45 -201 -49 -260h-270q0 7 14 119q-25 -31 -46 -50.5t-58 -42.5t-91 -34.5t-124 -11.5q-75 0 -134 24.5t-93.5 65t-52 87t-17.5 95.5q0 85 29.5 152t75.5 108.5t113.5 71t131 44t141.5 23.5q65 6 238 11l10 49q8 29 6 60.5t-12 57t-43 42t-86 16.5
q-45 0 -76.5 -9.5t-51 -30t-28.5 -34.5t-20 -40q-3 -6 -4 -9h-285q16 68 47 122t86 99.5t145 70.5t209 25q100 0 178 -21.5t135.5 -67.5t76.5 -119t0 -177zM717 459l4 16q-92 0 -184 -10q-116 -19 -167 -58.5t-51 -107.5q0 -49 32.5 -79t97.5 -30q55 0 99 18t70.5 43
t48 65.5t31 70.5t19.5 72zM631 1479h262l154 -287h-246l-70 149l-125 -149h-260z" />
    <glyph glyph-name="atilde" unicode="&#xe3;" horiz-adv-x="1140" 
d="M1047 696l-95 -436q-45 -201 -49 -260h-270q0 7 14 119q-25 -31 -46 -50.5t-58 -42.5t-91 -34.5t-124 -11.5q-75 0 -134 24.5t-93.5 65t-52 87t-17.5 95.5q0 85 29.5 152t75.5 108.5t113.5 71t131 44t141.5 23.5q65 6 238 11l10 49q8 29 6 60.5t-12 57t-43 42t-86 16.5
q-45 0 -76.5 -9.5t-51 -30t-28.5 -34.5t-20 -40q-3 -6 -4 -9h-285q16 68 47 122t86 99.5t145 70.5t209 25q100 0 178 -21.5t135.5 -67.5t76.5 -119t0 -177zM717 459l4 16q-92 0 -184 -10q-116 -19 -167 -58.5t-51 -107.5q0 -49 32.5 -79t97.5 -30q55 0 99 18t70.5 43
t48 65.5t31 70.5t19.5 72zM541 1206h-181l15 80q23 118 75 161.5t138 43.5q51 0 103 -23.5t92.5 -47t64.5 -23.5q48 0 65 78l5 18h178l-13 -63q-23 -131 -78.5 -179.5t-148.5 -48.5q-51 0 -101 22.5t-88.5 45t-62.5 22.5q-44 0 -57 -55z" />
    <glyph glyph-name="adieresis" unicode="&#xe4;" horiz-adv-x="1140" 
d="M1047 696l-95 -436q-45 -201 -49 -260h-270q0 7 14 119q-25 -31 -46 -50.5t-58 -42.5t-91 -34.5t-124 -11.5q-75 0 -134 24.5t-93.5 65t-52 87t-17.5 95.5q0 85 29.5 152t75.5 108.5t113.5 71t131 44t141.5 23.5q65 6 238 11l10 49q8 29 6 60.5t-12 57t-43 42t-86 16.5
q-45 0 -76.5 -9.5t-51 -30t-28.5 -34.5t-20 -40q-3 -6 -4 -9h-285q16 68 47 122t86 99.5t145 70.5t209 25q100 0 178 -21.5t135.5 -67.5t76.5 -119t0 -177zM717 459l4 16q-92 0 -184 -10q-116 -19 -167 -58.5t-51 -107.5q0 -49 32.5 -79t97.5 -30q55 0 99 18t70.5 43
t48 65.5t31 70.5t19.5 72zM608 1231h-227l55 260h228zM995 1231h-227l55 260h228z" />
    <glyph glyph-name="aring" unicode="&#xe5;" horiz-adv-x="1140" 
d="M1047 696l-95 -436q-45 -201 -49 -260h-270q0 7 14 119q-25 -31 -46 -50.5t-58 -42.5t-91 -34.5t-124 -11.5q-75 0 -134 24.5t-93.5 65t-52 87t-17.5 95.5q0 85 29.5 152t75.5 108.5t113.5 71t131 44t141.5 23.5q65 6 238 11l10 49q8 29 6 60.5t-12 57t-43 42t-86 16.5
q-45 0 -76.5 -9.5t-51 -30t-28.5 -34.5t-20 -40q-3 -6 -4 -9h-285q16 68 47 122t86 99.5t145 70.5t209 25q100 0 178 -21.5t135.5 -67.5t76.5 -119t0 -177zM717 459l4 16q-92 0 -184 -10q-116 -19 -167 -58.5t-51 -107.5q0 -49 32.5 -79t97.5 -30q55 0 99 18t70.5 43
t48 65.5t31 70.5t19.5 72zM696 1153q-100 0 -157.5 51t-57.5 133q0 104 76.5 170t190.5 66q100 0 155 -54t55 -135q0 -102 -73.5 -166.5t-188.5 -64.5zM707 1274q40 0 74 27t34 75q0 35 -20 56.5t-62 21.5q-43 0 -74.5 -27t-31.5 -77q0 -27 20.5 -51.5t59.5 -24.5z" />
    <glyph glyph-name="ae" unicode="&#xe6;" horiz-adv-x="1751" 
d="M1296 1081q105 0 184 -32.5t124.5 -89t67.5 -124.5t22 -147q0 -12 -0.5 -24.5t-1 -22t-2 -22t-2 -19.5t-3 -20.5t-3.5 -18.5t-4.5 -20.5t-4.5 -19.5t-5 -22t-5 -22h-682q-8 -31 -8 -76q0 -93 41.5 -150.5t130.5 -57.5q82 0 131.5 38t81.5 109h278q-26 -80 -62.5 -140.5
t-95 -112.5t-149 -79.5t-209.5 -27.5q-250 0 -340 161q-75 -87 -167 -124t-232 -37q-162 0 -253 79.5t-91 216.5q0 192 141 290t402 98h184l6 34q6 31 8.5 54.5t-1.5 50t-16.5 43t-39.5 28t-68 11.5q-137 0 -176 -144h-299q22 91 67 157.5t108.5 106t139 58t164.5 18.5
q235 0 308 -114q129 114 331 114zM715 440l8 35h-156q-107 0 -174 -40t-67 -128q0 -44 31.5 -77t97.5 -33q202 0 260 243zM1022 664h403q7 23 7 53q0 70 -41 111.5t-121 41.5q-184 0 -248 -206z" />
    <glyph glyph-name="ccedilla" unicode="&#xe7;" horiz-adv-x="1091" 
d="M713 346h278q-91 -319 -420 -360l-65 -66q71 -22 117.5 -67t46.5 -115q0 -110 -81.5 -168.5t-213.5 -58.5q-117 0 -209 30l39 152q56 -17 131 -17q102 0 102 54q0 59 -190 67l16 72l111 119q-149 28 -228 132.5t-79 270.5q0 95 21 190t66.5 185.5t110.5 160t161 112
t210 42.5q98 0 176 -26.5t123.5 -67.5t74.5 -93.5t38 -100t4 -91.5h-271q-4 166 -153 166q-70 0 -125.5 -48t-86.5 -121.5t-47 -150t-16 -145.5q0 -213 160 -213q134 0 199 156z" />
    <glyph glyph-name="egrave" unicode="&#xe8;" horiz-adv-x="1120" 
d="M1034 467h-680q-8 -46 -8 -64q0 -93 40 -150.5t128 -57.5q79 0 123.5 34t75.5 95h291q-19 -52 -45 -97t-69.5 -92t-97 -80t-131.5 -54t-169 -21q-208 0 -316 117.5t-108 316.5q0 73 13.5 147.5t41 150.5t74 141.5t108 117t148 81t188.5 29.5q113 0 196.5 -32.5t131.5 -90
t71 -128.5t23 -156q0 -100 -29 -207zM391 653h402q4 18 4 47q0 76 -39 124t-125 48q-183 0 -242 -219zM324 1507h317l201 -295h-240z" />
    <glyph glyph-name="eacute" unicode="&#xe9;" horiz-adv-x="1120" 
d="M1034 467h-680q-8 -46 -8 -64q0 -93 40 -150.5t128 -57.5q79 0 123.5 34t75.5 95h291q-19 -52 -45 -97t-69.5 -92t-97 -80t-131.5 -54t-169 -21q-208 0 -316 117.5t-108 316.5q0 73 13.5 147.5t41 150.5t74 141.5t108 117t148 81t188.5 29.5q113 0 196.5 -32.5t131.5 -90
t71 -128.5t23 -156q0 -100 -29 -207zM391 653h402q4 18 4 47q0 76 -39 124t-125 48q-183 0 -242 -219zM846 1507h362l-422 -295h-270z" />
    <glyph glyph-name="ecircumflex" unicode="&#xea;" horiz-adv-x="1120" 
d="M1034 467h-680q-8 -46 -8 -64q0 -93 40 -150.5t128 -57.5q79 0 123.5 34t75.5 95h291q-19 -52 -45 -97t-69.5 -92t-97 -80t-131.5 -54t-169 -21q-208 0 -316 117.5t-108 316.5q0 73 13.5 147.5t41 150.5t74 141.5t108 117t148 81t188.5 29.5q113 0 196.5 -32.5t131.5 -90
t71 -128.5t23 -156q0 -100 -29 -207zM391 653h402q4 18 4 47q0 76 -39 124t-125 48q-183 0 -242 -219zM618 1491h263l153 -287h-246l-69 150l-125 -150h-260z" />
    <glyph glyph-name="edieresis" unicode="&#xeb;" horiz-adv-x="1120" 
d="M1034 467h-680q-8 -46 -8 -64q0 -93 40 -150.5t128 -57.5q79 0 123.5 34t75.5 95h291q-19 -52 -45 -97t-69.5 -92t-97 -80t-131.5 -54t-169 -21q-208 0 -316 117.5t-108 316.5q0 73 13.5 147.5t41 150.5t74 141.5t108 117t148 81t188.5 29.5q113 0 196.5 -32.5t131.5 -90
t71 -128.5t23 -156q0 -100 -29 -207zM391 653h402q4 18 4 47q0 76 -39 124t-125 48q-183 0 -242 -219zM596 1231h-227l55 260h227zM983 1231h-227l55 260h227z" />
    <glyph glyph-name="igrave" unicode="&#xec;" horiz-adv-x="542" 
d="M23 0l225 1061h278l-225 -1061h-278zM18 1507h318l201 -295h-240z" />
    <glyph glyph-name="iacute" unicode="&#xed;" horiz-adv-x="542" 
d="M23 0l225 1061h278l-225 -1061h-278zM596 1507h362l-421 -295h-271z" />
    <glyph glyph-name="icircumflex" unicode="&#xee;" horiz-adv-x="542" 
d="M23 0l225 1061h278l-225 -1061h-278zM332 1497h262l154 -287h-246l-70 150l-125 -150h-260z" />
    <glyph glyph-name="idieresis" unicode="&#xef;" horiz-adv-x="542" 
d="M23 0l225 1061h278l-225 -1061h-278zM328 1231h-228l56 260h227zM715 1231h-228l56 260h227z" />
    <glyph glyph-name="eth" unicode="&#xf0;" horiz-adv-x="1130" 
d="M287 1323l45 195q221 -18 399 -125l225 135l64 -125l-172 -103q217 -207 217 -546q0 -105 -17 -207t-61 -206.5t-110 -183t-173 -128t-241 -49.5q-202 0 -309 109.5t-107 305.5q0 112 38.5 219t107.5 192t176 137t233 52q111 0 162 -30q-16 112 -129 209l-256 -152
l-64 121l189 112q-92 47 -217 68zM614 782q-85 0 -151 -61.5t-97.5 -149.5t-31.5 -182q0 -86 39 -139t123 -53q72 0 129.5 45t89 113.5t47.5 136.5t16 126q0 164 -164 164z" />
    <glyph glyph-name="ntilde" unicode="&#xf1;" horiz-adv-x="1183" 
d="M23 0l167 791q6 30 18 85t21 100t15 85h272q-4 -61 -20 -133q119 153 319 153q165 0 237 -107.5t23 -332.5l-135 -641h-276l135 643q22 95 -6 150t-113 55q-199 0 -264 -299l-115 -549h-278zM565 1206h-180l14 80q23 118 75 161.5t138 43.5q51 0 103 -23.5t92.5 -47
t64.5 -23.5q49 0 66 78l4 18h178l-12 -63q-23 -131 -78.5 -179.5t-148.5 -48.5q-51 0 -101 22.5t-88.5 45t-62.5 22.5q-45 0 -58 -55z" />
    <glyph glyph-name="ograve" unicode="&#xf2;" horiz-adv-x="1161" 
d="M653 1081q200 0 320.5 -115t120.5 -341q0 -65 -13 -134t-40.5 -143t-75.5 -139t-111.5 -117t-155 -82t-200.5 -30q-214 0 -322 118t-108 320q0 88 21.5 178.5t68.5 178t113.5 155.5t165.5 109.5t216 41.5zM631 864q-69 0 -124 -45t-86.5 -114.5t-48 -144.5t-16.5 -144
q0 -109 43.5 -164t126.5 -55q71 0 127.5 45t88 116t47.5 147t16 148q0 211 -174 211zM350 1507h318l200 -295h-239z" />
    <glyph glyph-name="oacute" unicode="&#xf3;" horiz-adv-x="1161" 
d="M653 1081q200 0 320.5 -115t120.5 -341q0 -65 -13 -134t-40.5 -143t-75.5 -139t-111.5 -117t-155 -82t-200.5 -30q-214 0 -322 118t-108 320q0 88 21.5 178.5t68.5 178t113.5 155.5t165.5 109.5t216 41.5zM631 864q-69 0 -124 -45t-86.5 -114.5t-48 -144.5t-16.5 -144
q0 -109 43.5 -164t126.5 -55q71 0 127.5 45t88 116t47.5 147t16 148q0 211 -174 211zM870 1507h363l-422 -295h-270z" />
    <glyph glyph-name="ocircumflex" unicode="&#xf4;" horiz-adv-x="1161" 
d="M653 1081q200 0 320.5 -115t120.5 -341q0 -65 -13 -134t-40.5 -143t-75.5 -139t-111.5 -117t-155 -82t-200.5 -30q-214 0 -322 118t-108 320q0 88 21.5 178.5t68.5 178t113.5 155.5t165.5 109.5t216 41.5zM631 864q-69 0 -124 -45t-86.5 -114.5t-48 -144.5t-16.5 -144
q0 -109 43.5 -164t126.5 -55q71 0 127.5 45t88 116t47.5 147t16 148q0 211 -174 211zM639 1479h262l154 -287h-246l-70 149l-125 -149h-260z" />
    <glyph glyph-name="otilde" unicode="&#xf5;" horiz-adv-x="1161" 
d="M653 1081q200 0 320.5 -115t120.5 -341q0 -65 -13 -134t-40.5 -143t-75.5 -139t-111.5 -117t-155 -82t-200.5 -30q-214 0 -322 118t-108 320q0 88 21.5 178.5t68.5 178t113.5 155.5t165.5 109.5t216 41.5zM631 864q-69 0 -124 -45t-86.5 -114.5t-48 -144.5t-16.5 -144
q0 -109 43.5 -164t126.5 -55q71 0 127.5 45t88 116t47.5 147t16 148q0 211 -174 211zM553 1206h-180l14 80q23 118 75 161.5t138 43.5q51 0 103 -23.5t92.5 -47t64.5 -23.5q49 0 66 78l4 18h178l-12 -63q-23 -131 -79 -179.5t-149 -48.5q-51 0 -101 22.5t-88.5 45
t-62.5 22.5q-44 0 -57 -55z" />
    <glyph glyph-name="odieresis" unicode="&#xf6;" horiz-adv-x="1161" 
d="M653 1081q200 0 320.5 -115t120.5 -341q0 -65 -13 -134t-40.5 -143t-75.5 -139t-111.5 -117t-155 -82t-200.5 -30q-214 0 -322 118t-108 320q0 88 21.5 178.5t68.5 178t113.5 155.5t165.5 109.5t216 41.5zM631 864q-69 0 -124 -45t-86.5 -114.5t-48 -144.5t-16.5 -144
q0 -109 43.5 -164t126.5 -55q71 0 127.5 45t88 116t47.5 147t16 148q0 211 -174 211zM618 1231h-227l55 260h228zM1006 1231h-228l56 260h227z" />
    <glyph glyph-name="divide" unicode="&#xf7;" horiz-adv-x="1460" 
d="M852 -2h-242v281h242v-281zM1298 463h-1136v237h1136v-237zM852 883h-242v282h242v-282z" />
    <glyph glyph-name="oslash" unicode="&#xf8;" horiz-adv-x="1161" 
d="M662 1081q157 0 264 -73l47 55h153l-118 -133q86 -116 86 -295q0 -67 -14 -137.5t-42 -145t-77 -140.5t-113 -118.5t-156 -83t-200 -30.5q-156 0 -259 73l-67 -76h-152l138 156q-84 119 -84 287q0 91 21.5 182t68.5 178t114.5 153.5t168.5 107t221 40.5zM635 872
q-93 0 -161.5 -67.5t-101 -171.5t-32.5 -225q0 -22 4 -58l422 477q-51 45 -131 45zM520 186q72 0 132 47.5t96.5 121.5t56.5 157.5t20 161.5q0 17 -4 45l-428 -483q47 -50 127 -50z" />
    <glyph glyph-name="ugrave" unicode="&#xf9;" horiz-adv-x="1169" 
d="M1151 1061l-164 -778q-36 -164 -55 -283h-273q5 78 23 147q-114 -167 -336 -167q-152 0 -223.5 97.5t-34.5 276.5l150 707h276l-143 -670q-19 -90 4.5 -136t107.5 -46q96 0 169 81.5t108 250.5l112 520h279zM330 1507h317l201 -295h-240z" />
    <glyph glyph-name="uacute" unicode="&#xfa;" horiz-adv-x="1169" 
d="M1151 1061l-164 -778q-36 -164 -55 -283h-273q5 78 23 147q-114 -167 -336 -167q-152 0 -223.5 97.5t-34.5 276.5l150 707h276l-143 -670q-19 -90 4.5 -136t107.5 -46q96 0 169 81.5t108 250.5l112 520h279zM872 1507h363l-422 -295h-270z" />
    <glyph glyph-name="ucircumflex" unicode="&#xfb;" horiz-adv-x="1169" 
d="M1151 1061l-164 -778q-36 -164 -55 -283h-273q5 78 23 147q-114 -167 -336 -167q-152 0 -223.5 97.5t-34.5 276.5l150 707h276l-143 -670q-19 -90 4.5 -136t107.5 -46q96 0 169 81.5t108 250.5l112 520h279zM645 1479h262l154 -287h-246l-70 149l-124 -149h-261z" />
    <glyph glyph-name="udieresis" unicode="&#xfc;" horiz-adv-x="1169" 
d="M1151 1061l-164 -778q-36 -164 -55 -283h-273q5 78 23 147q-114 -167 -336 -167q-152 0 -223.5 97.5t-34.5 276.5l150 707h276l-143 -670q-19 -90 4.5 -136t107.5 -46q96 0 169 81.5t108 250.5l112 520h279zM623 1231h-228l56 260h227zM1010 1231h-228l56 260h227z" />
    <glyph glyph-name="yacute" unicode="&#xfd;" horiz-adv-x="1036" 
d="M98 1061h279q56 -646 59 -834h2q220 486 391 834h291l-577 -1108q-53 -103 -101.5 -172t-92 -110t-97.5 -62.5t-102.5 -28t-122.5 -6.5q-70 0 -142 14l52 230q36 -8 92 -8q62 0 103 17.5t61.5 42t44.5 69.5zM776 1491h363l-422 -295h-271z" />
    <glyph glyph-name="thorn" unicode="&#xfe;" horiz-adv-x="1220" 
d="M-63 -406l399 1901h276l-120 -575q119 161 325 161q162 0 252 -102t90 -293q0 -103 -24 -204t-72.5 -191.5t-116.5 -160t-163 -110t-205 -40.5q-95 0 -166.5 31.5t-92.5 76.5l-106 -494h-276zM401 526q-21 -94 -18.5 -165t48 -112.5t134.5 -41.5q74 0 134 43.5
t95.5 111.5t54.5 143t19 146q0 107 -45.5 154t-130.5 47q-107 0 -181.5 -91.5t-109.5 -234.5z" />
    <glyph glyph-name="ydieresis" unicode="&#xff;" horiz-adv-x="1036" 
d="M98 1061h279q56 -646 59 -834h2q220 486 391 834h291l-577 -1108q-53 -103 -101.5 -172t-92 -110t-97.5 -62.5t-102.5 -28t-122.5 -6.5q-70 0 -142 14l52 230q36 -8 92 -8q62 0 103 17.5t61.5 42t44.5 69.5zM535 1231h-228l55 260h228zM922 1231h-228l56 260h227z" />
    <glyph glyph-name="Amacron" unicode="&#x100;" horiz-adv-x="1314" 
d="M885 334h-498l-174 -334h-303l760 1411h364l185 -1411h-291zM500 571h372q-51 450 -59 621h-2q-107 -228 -311 -621zM598 1763h606l-43 -207h-606z" />
    <glyph glyph-name="amacron" unicode="&#x101;" horiz-adv-x="1140" 
d="M1047 696l-95 -436q-45 -201 -49 -260h-270q0 7 14 119q-25 -31 -46 -50.5t-58 -42.5t-91 -34.5t-124 -11.5q-75 0 -134 24.5t-93.5 65t-52 87t-17.5 95.5q0 85 29.5 152t75.5 108.5t113.5 71t131 44t141.5 23.5q65 6 238 11l10 49q8 29 6 60.5t-12 57t-43 42t-86 16.5
q-45 0 -76.5 -9.5t-51 -30t-28.5 -34.5t-20 -40q-3 -6 -4 -9h-285q16 68 47 122t86 99.5t145 70.5t209 25q100 0 178 -21.5t135.5 -67.5t76.5 -119t0 -177zM717 459l4 16q-92 0 -184 -10q-116 -19 -167 -58.5t-51 -107.5q0 -49 32.5 -79t97.5 -30q55 0 99 18t70.5 43
t48 65.5t31 70.5t19.5 72zM457 1452h590l-48 -215h-589z" />
    <glyph glyph-name="Abreve" unicode="&#x102;" horiz-adv-x="1314" 
d="M885 334h-498l-174 -334h-303l760 1411h364l185 -1411h-291zM500 571h372q-51 450 -59 621h-2q-107 -228 -311 -621zM578 1806h198q-2 -49 27.5 -79.5t89.5 -30.5q116 0 164 110h196q-22 -62 -48.5 -108.5t-70.5 -92t-112 -70t-156 -24.5q-85 0 -146.5 26.5t-92.5 70
t-43 94t-6 104.5z" />
    <glyph glyph-name="abreve" unicode="&#x103;" horiz-adv-x="1140" 
d="M1047 696l-95 -436q-45 -201 -49 -260h-270q0 7 14 119q-25 -31 -46 -50.5t-58 -42.5t-91 -34.5t-124 -11.5q-75 0 -134 24.5t-93.5 65t-52 87t-17.5 95.5q0 85 29.5 152t75.5 108.5t113.5 71t131 44t141.5 23.5q65 6 238 11l10 49q8 29 6 60.5t-12 57t-43 42t-86 16.5
q-45 0 -76.5 -9.5t-51 -30t-28.5 -34.5t-20 -40q-3 -6 -4 -9h-285q16 68 47 122t86 99.5t145 70.5t209 25q100 0 178 -21.5t135.5 -67.5t76.5 -119t0 -177zM717 459l4 16q-92 0 -184 -10q-116 -19 -167 -58.5t-51 -107.5q0 -49 32.5 -79t97.5 -30q55 0 99 18t70.5 43
t48 65.5t31 70.5t19.5 72zM440 1473h193q-2 -48 22.5 -77.5t77.5 -29.5q32 0 55.5 8t40.5 26t26.5 32.5t23.5 40.5h190q-95 -295 -364 -295q-103 0 -168.5 43.5t-87 108.5t-9.5 143z" />
    <glyph glyph-name="Aogonek" unicode="&#x104;" horiz-adv-x="1314" 
d="M885 334h-498l-174 -334h-303l760 1411h364l185 -1411h-25q-133 -120 -133 -195q0 -81 100 -81q61 0 105 14l-41 -193q-63 -28 -178 -28q-116 0 -181 56t-65 153q0 140 162 274h-35zM500 571h372q-51 450 -59 621h-2q-107 -228 -311 -621z" />
    <glyph glyph-name="aogonek" unicode="&#x105;" horiz-adv-x="1140" 
d="M1047 696l-95 -436q-45 -201 -49 -260h-14q-133 -120 -133 -195q0 -81 100 -81q61 0 105 14l-41 -193q-63 -28 -179 -28t-180.5 56t-64.5 153q0 141 161 274h-24q0 7 14 119q-25 -31 -46 -50.5t-58 -42.5t-91 -34.5t-124 -11.5q-75 0 -134 24.5t-93.5 65t-52 87
t-17.5 95.5q0 85 29.5 152t75.5 108.5t113.5 71t131 44t141.5 23.5q65 6 238 11l10 49q8 29 6 60.5t-12 57t-43 42t-86 16.5q-45 0 -76.5 -9.5t-51 -30t-28.5 -34.5t-20 -40q-3 -6 -4 -9h-285q16 68 47 122t86 99.5t145 70.5t209 25q100 0 178 -21.5t135.5 -67.5t76.5 -119
t0 -177zM717 459l4 16q-92 0 -184 -10q-116 -19 -167 -58.5t-51 -107.5q0 -49 32.5 -79t97.5 -30q55 0 99 18t70.5 43t48 65.5t31 70.5t19.5 72z" />
    <glyph glyph-name="Cacute" unicode="&#x106;" horiz-adv-x="1372" 
d="M985 442h303q-153 -462 -647 -462q-257 0 -394.5 150.5t-137.5 418.5q0 81 13 165t41.5 171t71 166.5t104.5 149t138 121t176.5 81t214.5 29.5q237 0 375.5 -122.5t145.5 -344.5h-302q-12 237 -251 237q-100 0 -182 -60t-132 -156t-77 -208.5t-27 -224.5q0 -342 256 -342
q115 0 188 60t123 171zM1071 1821h391l-467 -285h-284z" />
    <glyph glyph-name="cacute" unicode="&#x107;" horiz-adv-x="1091" 
d="M713 346h278q-104 -366 -514 -366q-198 0 -303.5 109t-105.5 302q0 95 21 190t66.5 185.5t110.5 160t161 112t210 42.5q98 0 176 -26.5t123.5 -67.5t74.5 -93.5t38 -100t4 -91.5h-271q-4 166 -153 166q-70 0 -125.5 -48t-86.5 -121.5t-47 -150t-16 -145.5
q0 -213 160 -213q134 0 199 156zM856 1507h363l-422 -295h-271z" />
    <glyph glyph-name="Ccircumflex" unicode="&#x108;" horiz-adv-x="1372" 
d="M985 442h303q-153 -462 -647 -462q-257 0 -394.5 150.5t-137.5 418.5q0 81 13 165t41.5 171t71 166.5t104.5 149t138 121t176.5 81t214.5 29.5q237 0 375.5 -122.5t145.5 -344.5h-302q-12 237 -251 237q-100 0 -182 -60t-132 -156t-77 -208.5t-27 -224.5q0 -342 256 -342
q115 0 188 60t123 171zM817 1806h264l205 -280h-256l-104 143l-160 -143h-279z" />
    <glyph glyph-name="ccircumflex" unicode="&#x109;" horiz-adv-x="1091" 
d="M713 346h278q-104 -366 -514 -366q-198 0 -303.5 109t-105.5 302q0 95 21 190t66.5 185.5t110.5 160t161 112t210 42.5q98 0 176 -26.5t123.5 -67.5t74.5 -93.5t38 -100t4 -91.5h-271q-4 166 -153 166q-70 0 -125.5 -48t-86.5 -121.5t-47 -150t-16 -145.5
q0 -213 160 -213q134 0 199 156zM625 1479h262l153 -287h-245l-70 149l-125 -149h-260z" />
    <glyph glyph-name="Cdotaccent" unicode="&#x10a;" horiz-adv-x="1372" 
d="M985 442h303q-153 -462 -647 -462q-257 0 -394.5 150.5t-137.5 418.5q0 81 13 165t41.5 171t71 166.5t104.5 149t138 121t176.5 81t214.5 29.5q237 0 375.5 -122.5t145.5 -344.5h-302q-12 237 -251 237q-100 0 -182 -60t-132 -156t-77 -208.5t-27 -224.5q0 -342 256 -342
q115 0 188 60t123 171zM1028 1552h-278l55 263h278z" />
    <glyph glyph-name="cdotaccent" unicode="&#x10b;" horiz-adv-x="1091" 
d="M713 346h278q-104 -366 -514 -366q-198 0 -303.5 109t-105.5 302q0 95 21 190t66.5 185.5t110.5 160t161 112t210 42.5q98 0 176 -26.5t123.5 -67.5t74.5 -93.5t38 -100t4 -91.5h-271q-4 166 -153 166q-70 0 -125.5 -48t-86.5 -121.5t-47 -150t-16 -145.5
q0 -213 160 -213q134 0 199 156zM807 1231h-279l56 260h278z" />
    <glyph glyph-name="Ccaron" unicode="&#x10c;" horiz-adv-x="1372" 
d="M985 442h303q-153 -462 -647 -462q-257 0 -394.5 150.5t-137.5 418.5q0 81 13 165t41.5 171t71 166.5t104.5 149t138 121t176.5 81t214.5 29.5q237 0 375.5 -122.5t145.5 -344.5h-302q-12 237 -251 237q-100 0 -182 -60t-132 -156t-77 -208.5t-27 -224.5q0 -342 256 -342
q115 0 188 60t123 171zM1014 1536h-266l-205 281h258l102 -148l160 148h278z" />
    <glyph glyph-name="ccaron" unicode="&#x10d;" horiz-adv-x="1091" 
d="M713 346h278q-104 -366 -514 -366q-198 0 -303.5 109t-105.5 302q0 95 21 190t66.5 185.5t110.5 160t161 112t210 42.5q98 0 176 -26.5t123.5 -67.5t74.5 -93.5t38 -100t4 -91.5h-271q-4 166 -153 166q-70 0 -125.5 -48t-86.5 -121.5t-47 -150t-16 -145.5
q0 -213 160 -213q134 0 199 156zM805 1190h-260l-156 285h240l69 -150l123 150h269z" />
    <glyph glyph-name="Dcaron" unicode="&#x10e;" horiz-adv-x="1466" 
d="M49 0l299 1411h455q281 0 443.5 -158.5t162.5 -441.5q0 -171 -55 -318.5t-156.5 -257.5t-256.5 -172.5t-345 -62.5h-547zM588 1182l-201 -951h219q230 0 364 153.5t134 422.5q0 186 -86.5 280.5t-249.5 94.5h-180zM936 1534h-266l-205 281h258l102 -148l160 148h279z" />
    <glyph glyph-name="dcaron" unicode="&#x10f;" horiz-adv-x="1400" 
d="M1016 1495h278l-254 -1208q-56 -268 -59 -287h-268q3 59 16 125q-105 -145 -307 -145q-168 0 -260 111.5t-92 307.5q0 98 22.5 195t69.5 185t112.5 155t157.5 107t199 40q106 0 179.5 -34.5t92.5 -77.5zM662 850q-71 0 -130 -38.5t-95.5 -100t-56.5 -134.5t-20 -145
q0 -221 172 -221q234 0 299 358q55 281 -169 281zM1411 1495h225l-143 -559h-193z" />
    <glyph glyph-name="Dcroat" unicode="&#x110;" horiz-adv-x="1486" 
d="M78 817h166l125 594h454q281 0 444 -158.5t163 -441.5q0 -171 -55 -318.5t-157 -257.5t-257 -172.5t-345 -62.5h-546l133 631h-164zM608 1182l-78 -365h326l-41 -186h-323l-84 -400h219q230 0 363.5 153.5t133.5 422.5q0 186 -86.5 280.5t-249.5 94.5h-180z" />
    <glyph glyph-name="dcroat" unicode="&#x111;" horiz-adv-x="1226" 
d="M473 1358h504l29 137h278l-29 -137h101l-37 -174h-100l-191 -897q-46 -220 -57 -287h-271q1 25 17 125q-54 -75 -125.5 -110t-190.5 -35q-160 0 -247.5 105t-87.5 304q0 94 23.5 189.5t71.5 182.5t114 154.5t158 107.5t196 40t171 -33.5t89 -77.5l49 232h-502zM659 831
q-74 0 -134 -39t-95.5 -101.5t-54.5 -134.5t-19 -144q0 -93 39.5 -147t118.5 -54q63 0 115.5 28.5t88.5 78t60.5 108t38.5 127.5q26 129 -11 203.5t-147 74.5z" />
    <glyph glyph-name="Emacron" unicode="&#x112;" horiz-adv-x="1220" 
d="M1149 854l-51 -238h-635l-80 -378h723l-84 -238h-973l299 1411h948l-51 -235h-663l-68 -322h635zM573 1769h607l-43 -206h-607z" />
    <glyph glyph-name="emacron" unicode="&#x113;" horiz-adv-x="1120" 
d="M1034 467h-680q-8 -46 -8 -64q0 -93 40 -150.5t128 -57.5q79 0 123.5 34t75.5 95h291q-19 -52 -45 -97t-69.5 -92t-97 -80t-131.5 -54t-169 -21q-208 0 -316 117.5t-108 316.5q0 73 13.5 147.5t41 150.5t74 141.5t108 117t148 81t188.5 29.5q113 0 196.5 -32.5t131.5 -90
t71 -128.5t23 -156q0 -100 -29 -207zM391 653h402q4 18 4 47q0 76 -39 124t-125 48q-183 0 -242 -219zM444 1452h590l-47 -215h-590z" />
    <glyph glyph-name="Ebreve" unicode="&#x114;" horiz-adv-x="1220" 
d="M1149 854l-51 -238h-635l-80 -378h723l-84 -238h-973l299 1411h948l-51 -235h-663l-68 -322h635zM535 1815h198q-2 -49 27.5 -80t89.5 -31q115 0 164 111h196q-22 -62 -48.5 -108.5t-70.5 -92t-112 -70t-156 -24.5q-85 0 -146.5 26.5t-92.5 70t-43 94t-6 104.5z" />
    <glyph glyph-name="ebreve" unicode="&#x115;" horiz-adv-x="1120" 
d="M1034 467h-680q-8 -46 -8 -64q0 -93 40 -150.5t128 -57.5q79 0 123.5 34t75.5 95h291q-19 -52 -45 -97t-69.5 -92t-97 -80t-131.5 -54t-169 -21q-208 0 -316 117.5t-108 316.5q0 73 13.5 147.5t41 150.5t74 141.5t108 117t148 81t188.5 29.5q113 0 196.5 -32.5t131.5 -90
t71 -128.5t23 -156q0 -100 -29 -207zM391 653h402q4 18 4 47q0 76 -39 124t-125 48q-183 0 -242 -219zM430 1481h193q-2 -48 22.5 -77.5t77.5 -29.5q31 0 54.5 8t41 26t26.5 32t23 41h191q-95 -295 -365 -295q-78 0 -135 24.5t-87 67t-40.5 94t-1.5 109.5z" />
    <glyph glyph-name="Edotaccent" unicode="&#x116;" horiz-adv-x="1220" 
d="M1149 854l-51 -238h-635l-80 -378h723l-84 -238h-973l299 1411h948l-51 -235h-663l-68 -322h635zM973 1569h-279l56 262h278z" />
    <glyph glyph-name="edotaccent" unicode="&#x117;" horiz-adv-x="1120" 
d="M1034 467h-680q-8 -46 -8 -64q0 -93 40 -150.5t128 -57.5q79 0 123.5 34t75.5 95h291q-19 -52 -45 -97t-69.5 -92t-97 -80t-131.5 -54t-169 -21q-208 0 -316 117.5t-108 316.5q0 73 13.5 147.5t41 150.5t74 141.5t108 117t148 81t188.5 29.5q113 0 196.5 -32.5t131.5 -90
t71 -128.5t23 -156q0 -100 -29 -207zM391 653h402q4 18 4 47q0 76 -39 124t-125 48q-183 0 -242 -219zM815 1231h-278l55 260h278z" />
    <glyph glyph-name="Eogonek" unicode="&#x118;" horiz-adv-x="1220" 
d="M1149 854l-51 -238h-635l-80 -378h723l-84 -238h-78q-133 -120 -133 -195q0 -81 100 -81q61 0 105 14l-41 -193q-63 -28 -178 -28q-116 0 -181 56t-65 153q0 140 162 274h-664l299 1411h948l-51 -235h-663l-68 -322h635z" />
    <glyph glyph-name="eogonek" unicode="&#x119;" horiz-adv-x="1120" 
d="M1034 467h-680q-8 -46 -8 -64q0 -93 40 -150.5t128 -57.5q79 0 123.5 34t75.5 95h291q-19 -52 -46.5 -98t-68.5 -92t-101 -81.5t-133 -54.5q-131 -115 -131 -193q0 -81 101 -81q60 0 104 14l-41 -193q-63 -28 -178 -28q-116 0 -181 56t-65 153q0 130 144 260
q-166 23 -253 137t-87 291q0 73 13.5 147.5t41 150.5t74 141.5t108 117t148 81t188.5 29.5q113 0 196.5 -32.5t131.5 -90t71 -128.5t23 -156q0 -100 -29 -207zM391 653h402q4 18 4 47q0 76 -39 124t-125 48q-183 0 -242 -219z" />
    <glyph glyph-name="Ecaron" unicode="&#x11a;" horiz-adv-x="1220" 
d="M1149 854l-51 -238h-635l-80 -378h723l-84 -238h-973l299 1411h948l-51 -235h-663l-68 -322h635zM956 1534h-266l-205 281h258l103 -148l160 148h278z" />
    <glyph glyph-name="ecaron" unicode="&#x11b;" horiz-adv-x="1120" 
d="M1034 467h-680q-8 -46 -8 -64q0 -93 40 -150.5t128 -57.5q79 0 123.5 34t75.5 95h291q-19 -52 -45 -97t-69.5 -92t-97 -80t-131.5 -54t-169 -21q-208 0 -316 117.5t-108 316.5q0 73 13.5 147.5t41 150.5t74 141.5t108 117t148 81t188.5 29.5q113 0 196.5 -32.5t131.5 -90
t71 -128.5t23 -156q0 -100 -29 -207zM391 653h402q4 18 4 47q0 76 -39 124t-125 48q-183 0 -242 -219zM815 1204h-260l-156 285h240l70 -150l122 150h269z" />
    <glyph glyph-name="Gcircumflex" unicode="&#x11c;" horiz-adv-x="1458" 
d="M1374 793l-151 -793h-226q-6 52 13 154q-70 -93 -165.5 -133.5t-230.5 -40.5q-162 0 -275.5 74.5t-167.5 201.5t-54 295q0 128 29.5 252.5t92 238.5t151.5 200.5t217.5 138t279.5 51.5q246 0 388 -126.5t142 -326.5h-289q-2 41 -17.5 78.5t-46 71t-85 53.5t-127.5 20
q-88 0 -162 -39t-123.5 -103.5t-84.5 -147.5t-50.5 -169.5t-15.5 -171.5q0 -170 70 -265t214 -95q85 0 148 26t101 75t59 101t36 122l3 6h-326l53 252h600zM850 1812h264l205 -280h-256l-105 143l-159 -143h-279z" />
    <glyph glyph-name="gcircumflex" unicode="&#x11d;" horiz-adv-x="1202" 
d="M1128 795l-137 -641q-18 -82 -34 -140.5t-41 -123t-54.5 -109t-72.5 -86.5t-96 -66.5t-124.5 -39.5t-158.5 -15q-82 0 -148.5 12.5t-111 32t-77.5 49t-51 58t-29 64.5t-14 62.5t-4 57.5h283q3 -55 44 -91t130 -36q116 0 175.5 74t99.5 249l6 33q-103 -127 -295 -127
q-168 0 -260 112.5t-92 299.5q0 94 23 187.5t69.5 178t110 149.5t150.5 103.5t185 38.5q115 0 186 -36t95 -91q4 15 11 35.5t15.5 43t10.5 28.5h266q-6 -26 -18.5 -79.5t-23 -100t-18.5 -86.5zM647 856q-69 0 -126 -37.5t-91.5 -98t-53 -132t-18.5 -144.5q0 -100 43.5 -153
t128.5 -53q107 0 178.5 84t104.5 235q10 46 13 86t-4 80.5t-26 69t-57 46t-92 17.5zM662 1493h262l153 -287h-246l-69 150l-125 -150h-260z" />
    <glyph glyph-name="Gbreve" unicode="&#x11e;" horiz-adv-x="1458" 
d="M1374 793l-151 -793h-226q-6 52 13 154q-70 -93 -165.5 -133.5t-230.5 -40.5q-162 0 -275.5 74.5t-167.5 201.5t-54 295q0 128 29.5 252.5t92 238.5t151.5 200.5t217.5 138t279.5 51.5q246 0 388 -126.5t142 -326.5h-289q-2 41 -17.5 78.5t-46 71t-85 53.5t-127.5 20
q-88 0 -162 -39t-123.5 -103.5t-84.5 -147.5t-50.5 -169.5t-15.5 -171.5q0 -170 70 -265t214 -95q85 0 148 26t101 75t59 101t36 122l3 6h-326l53 252h600zM612 1817h199q-2 -49 27.5 -80t89.5 -31q115 0 164 111h196q-22 -62 -48.5 -108.5t-70.5 -92t-112 -70t-156 -24.5
q-85 0 -146.5 26.5t-93 70t-43.5 94t-6 104.5z" />
    <glyph glyph-name="gbreve" unicode="&#x11f;" horiz-adv-x="1202" 
d="M1128 795l-137 -641q-18 -82 -34 -140.5t-41 -123t-54.5 -109t-72.5 -86.5t-96 -66.5t-124.5 -39.5t-158.5 -15q-82 0 -148.5 12.5t-111 32t-77.5 49t-51 58t-29 64.5t-14 62.5t-4 57.5h283q3 -55 44 -91t130 -36q116 0 175.5 74t99.5 249l6 33q-103 -127 -295 -127
q-168 0 -260 112.5t-92 299.5q0 94 23 187.5t69.5 178t110 149.5t150.5 103.5t185 38.5q115 0 186 -36t95 -91q4 15 11 35.5t15.5 43t10.5 28.5h266q-6 -26 -18.5 -79.5t-23 -100t-18.5 -86.5zM647 856q-69 0 -126 -37.5t-91.5 -98t-53 -132t-18.5 -144.5q0 -100 43.5 -153
t128.5 -53q107 0 178.5 84t104.5 235q10 46 13 86t-4 80.5t-26 69t-57 46t-92 17.5zM471 1479h193q-2 -48 22.5 -77.5t77.5 -29.5q31 0 54.5 8t41 26t26.5 32t23 41h191q-95 -295 -365 -295q-78 0 -135 24.5t-87 67t-40.5 94t-1.5 109.5z" />
    <glyph glyph-name="Gdotaccent" unicode="&#x120;" horiz-adv-x="1458" 
d="M1374 793l-151 -793h-226q-6 52 13 154q-70 -93 -165.5 -133.5t-230.5 -40.5q-162 0 -275.5 74.5t-167.5 201.5t-54 295q0 128 29.5 252.5t92 238.5t151.5 200.5t217.5 138t279.5 51.5q246 0 388 -126.5t142 -326.5h-289q-2 41 -17.5 78.5t-46 71t-85 53.5t-127.5 20
q-88 0 -162 -39t-123.5 -103.5t-84.5 -147.5t-50.5 -169.5t-15.5 -171.5q0 -170 70 -265t214 -95q85 0 148 26t101 75t59 101t36 122l3 6h-326l53 252h600zM1071 1569h-278l55 262h278z" />
    <glyph glyph-name="gdotaccent" unicode="&#x121;" horiz-adv-x="1202" 
d="M1128 795l-137 -641q-18 -82 -34 -140.5t-41 -123t-54.5 -109t-72.5 -86.5t-96 -66.5t-124.5 -39.5t-158.5 -15q-82 0 -148.5 12.5t-111 32t-77.5 49t-51 58t-29 64.5t-14 62.5t-4 57.5h283q3 -55 44 -91t130 -36q116 0 175.5 74t99.5 249l6 33q-103 -127 -295 -127
q-168 0 -260 112.5t-92 299.5q0 94 23 187.5t69.5 178t110 149.5t150.5 103.5t185 38.5q115 0 186 -36t95 -91q4 15 11 35.5t15.5 43t10.5 28.5h266q-6 -26 -18.5 -79.5t-23 -100t-18.5 -86.5zM647 856q-69 0 -126 -37.5t-91.5 -98t-53 -132t-18.5 -144.5q0 -100 43.5 -153
t128.5 -53q107 0 178.5 84t104.5 235q10 46 13 86t-4 80.5t-26 69t-57 46t-92 17.5zM858 1231h-278l55 260h278z" />
    <glyph glyph-name="uni0122" unicode="&#x122;" horiz-adv-x="1458" 
d="M1374 793l-151 -793h-226q-6 52 13 154q-70 -93 -165.5 -133.5t-230.5 -40.5q-162 0 -275.5 74.5t-167.5 201.5t-54 295q0 128 29.5 252.5t92 238.5t151.5 200.5t217.5 138t279.5 51.5q246 0 388 -126.5t142 -326.5h-289q-2 41 -17.5 78.5t-46 71t-85 53.5t-127.5 20
q-88 0 -162 -39t-123.5 -103.5t-84.5 -147.5t-50.5 -169.5t-15.5 -171.5q0 -170 70 -265t214 -95q85 0 148 26t101 75t59 101t36 122l3 6h-326l53 252h600zM532 -516h-249q76 89 132.5 201.5t76.5 193.5h276q-32 -123 -99 -227.5t-137 -167.5z" />
    <glyph glyph-name="uni0123" unicode="&#x123;" horiz-adv-x="1202" 
d="M819 1626h248q-142 -189 -215 -434h-283q33 113 104 237.5t146 196.5zM1128 795l-137 -641q-18 -82 -34 -140.5t-41 -123t-54.5 -109t-72.5 -86.5t-96 -66.5t-124.5 -39.5t-158.5 -15q-82 0 -148.5 12.5t-111 32t-77.5 49t-51 58t-29 64.5t-14 62.5t-4 57.5h283
q3 -55 44 -91t130 -36q116 0 175.5 74t99.5 249l6 33q-103 -127 -295 -127q-168 0 -260 112.5t-92 299.5q0 94 23 187.5t69.5 178t110 149.5t150.5 103.5t185 38.5q115 0 186 -36t95 -91q4 15 11 35.5t15.5 43t10.5 28.5h266q-6 -26 -18.5 -79.5t-23 -100t-18.5 -86.5z
M647 856q-69 0 -126 -37.5t-91.5 -98t-53 -132t-18.5 -144.5q0 -100 43.5 -153t128.5 -53q107 0 178.5 84t104.5 235q10 46 13 86t-4 80.5t-26 69t-57 46t-92 17.5z" />
    <glyph glyph-name="Hcircumflex" unicode="&#x124;" horiz-adv-x="1449" 
d="M49 0l299 1411h289l-117 -547h549l117 547h289l-299 -1411h-289l133 627h-549l-133 -627h-289zM846 1812h264l205 -280h-256l-105 143l-159 -143h-279z" />
    <glyph glyph-name="hcircumflex" unicode="&#x125;" horiz-adv-x="1183" 
d="M406 1823h282l164 -246h-225l-101 127l-145 -127h-246zM23 0l315 1495h278l-118 -569q125 155 319 155q73 0 128.5 -21t97 -68.5t51 -124.5t-10.5 -189l-143 -678h-276l133 639q23 107 -3.5 158t-115.5 51q-100 0 -162 -66.5t-88 -181.5l-127 -600h-278z" />
    <glyph glyph-name="Hbar" unicode="&#x126;" horiz-adv-x="1449" 
d="M510 817h551l37 176h-551zM49 0l211 993h-119l43 201h119l45 217h289l-47 -217h551l47 217h287l-45 -217h122l-45 -201h-121l-210 -993h-289l125 582h-551l-125 -582h-287z" />
    <glyph glyph-name="hbar" unicode="&#x127;" horiz-adv-x="1183" 
d="M23 0l249 1184h-143l37 174h143l29 137h278l-28 -137h459l-37 -174h-459l-57 -277q126 156 319 156q73 0 129 -21t97.5 -69t51 -125t-11.5 -189l-139 -659h-276l131 621q22 108 -4.5 158t-116.5 50q-100 0 -161.5 -66t-86.5 -181l-125 -582h-278z" />
    <glyph glyph-name="Itilde" unicode="&#x128;" horiz-adv-x="610" 
d="M348 1411h289l-299 -1411h-289zM328 1538h-183l13 66q19 119 75 167t148 48q51 0 111.5 -21.5t109.5 -43t74 -21.5q27 0 42 14.5t21 54.5l2 17h181l-11 -62q-22 -129 -77.5 -177t-151.5 -48q-53 0 -112 21t-106.5 42t-72.5 21q-51 0 -59 -49z" />
    <glyph glyph-name="itilde" unicode="&#x129;" horiz-adv-x="542" 
d="M23 0l225 1061h278l-225 -1061h-278zM244 1206h-181l15 80q23 118 75 161.5t138 43.5q51 0 103 -23.5t92.5 -47t64.5 -23.5q48 0 65 78l5 18h178l-13 -63q-23 -131 -78.5 -179.5t-148.5 -48.5q-51 0 -101 22.5t-88.5 45t-62.5 22.5q-44 0 -57 -55z" />
    <glyph glyph-name="Imacron" unicode="&#x12a;" horiz-adv-x="610" 
d="M348 1411h289l-299 -1411h-289zM246 1765h606l-43 -206h-606z" />
    <glyph glyph-name="imacron" unicode="&#x12b;" horiz-adv-x="542" 
d="M23 0l225 1061h278l-225 -1061h-278zM156 1452h589l-47 -215h-589z" />
    <glyph glyph-name="Iogonek" unicode="&#x12e;" horiz-adv-x="610" 
d="M348 1411h289l-299 -1411h-19q-133 -120 -133 -195q0 -81 101 -81q60 0 104 14l-41 -193q-63 -28 -178 -28q-116 0 -181 56t-65 153q0 140 162 274h-39z" />
    <glyph glyph-name="iogonek" unicode="&#x12f;" horiz-adv-x="542" 
d="M23 0l225 1061h278l-225 -1061h-20q-134 -121 -134 -195q0 -81 101 -81q60 0 104 14l-41 -193q-63 -28 -178 -28q-116 0 -181 56t-65 153q0 140 162 274h-26zM283 1233l55 262h278l-55 -262h-278z" />
    <glyph glyph-name="Idotaccent" unicode="&#x130;" horiz-adv-x="610" 
d="M348 1411h289l-299 -1411h-289zM659 1567h-278l55 262h279z" />
    <glyph glyph-name="dotlessi" unicode="&#x131;" horiz-adv-x="542" 
d="M23 0l225 1061h278l-225 -1061h-278z" />
    <glyph glyph-name="Jcircumflex" unicode="&#x134;" horiz-adv-x="749" 
d="M285 403l213 1008h288l-219 -1028q-15 -75 -35 -131.5t-54.5 -109.5t-81 -87t-117 -54.5t-160.5 -20.5q-103 0 -193 22l49 229q49 -14 125 -14q88 0 126 44.5t59 141.5zM580 1812h264l205 -280h-256l-105 143l-160 -143h-278z" />
    <glyph glyph-name="jcircumflex" unicode="&#x135;" horiz-adv-x="542" 
d="M248 1061h278l-241 -1133q-39 -189 -131 -271.5t-254 -82.5q-63 0 -129 8l61 232q12 -2 35 -2q69 0 99 33t44 108zM336 1499h262l154 -287h-246l-70 150l-125 -150h-260z" />
    <glyph glyph-name="uni0136" unicode="&#x136;" horiz-adv-x="1308" 
d="M49 0l299 1411h285l-135 -629q61 64 315 297t356 332h355l-674 -600l403 -811h-317l-305 641l-193 -149l-102 -492h-287zM498 -514h-250q76 89 132.5 201.5t76.5 193.5h276q-32 -123 -99 -228t-136 -167z" />
    <glyph glyph-name="uni0137" unicode="&#x137;" horiz-adv-x="1093" 
d="M614 1495l-186 -866q44 44 121 118t180 171.5t150 142.5h335q-141 -135 -450 -414l246 -647h-312l-151 471l-178 -137l-70 -334h-279l318 1495h276zM371 -512h-250q76 89 132.5 201.5t76.5 193.5h276q-32 -123 -99 -228t-136 -167z" />
    <glyph glyph-name="kgreenlandic" unicode="&#x138;" horiz-adv-x="1091" 
d="M522 1061l-94 -440q52 55 219 216.5t227 223.5h336q-82 -78 -233.5 -219.5t-214.5 -200.5l246 -641h-312l-153 475l-174 -141l-72 -334h-279l226 1061h278z" />
    <glyph glyph-name="Lacute" unicode="&#x139;" horiz-adv-x="1146" 
d="M49 0l299 1411h289l-250 -1173h678l-80 -238h-936zM721 1817h391l-467 -285h-285z" />
    <glyph glyph-name="lacute" unicode="&#x13a;" horiz-adv-x="542" 
d="M670 1849h342l-391 -250h-273zM301 0h-278l315 1495h278z" />
    <glyph glyph-name="uni013B" unicode="&#x13b;" horiz-adv-x="1146" 
d="M49 0l299 1411h289l-250 -1173h678l-80 -238h-936zM434 -518h-250q76 89 132.5 201.5t76.5 193.5h277q-32 -123 -99 -227.5t-137 -167.5z" />
    <glyph glyph-name="uni013C" unicode="&#x13c;" horiz-adv-x="542" 
d="M301 0h-278l315 1495h278zM39 -514h-250q76 89 132.5 201.5t76.5 193.5h276q-32 -123 -99 -228t-136 -167z" />
    <glyph glyph-name="Lcaron" unicode="&#x13d;" horiz-adv-x="1146" 
d="M49 0l299 1411h289l-250 -1173h678l-80 -238h-936zM893 1413h225l-143 -559h-193z" />
    <glyph glyph-name="lcaron" unicode="&#x13e;" horiz-adv-x="724" 
d="M301 0h-278l315 1495h278zM741 1495h226l-144 -559h-192z" />
    <glyph glyph-name="Ldot" unicode="&#x13f;" horiz-adv-x="1146" 
d="M1006 606h-289l71 342h289zM49 0l299 1411h289l-250 -1173h678l-80 -238h-936z" />
    <glyph glyph-name="ldot" unicode="&#x140;" horiz-adv-x="716" 
d="M801 737h-248l72 324h247zM301 0h-278l315 1495h278z" />
    <glyph glyph-name="Lslash" unicode="&#x141;" horiz-adv-x="1167" 
d="M817 819l-307 -104l-102 -477h677l-79 -238h-936l129 610l-191 -63l45 198l189 64l127 602h288l-106 -498l307 105z" />
    <glyph glyph-name="lslash" unicode="&#x142;" horiz-adv-x="557" 
d="M322 0h-279l137 647l-135 -59l47 225l135 59l131 623h279l-102 -485l155 69l-47 -225l-156 -70z" />
    <glyph glyph-name="Nacute" unicode="&#x143;" horiz-adv-x="1482" 
d="M319 0h-272l299 1411h373q8 -26 45 -149.5t53.5 -180t50.5 -172t53 -183.5t42 -153.5t36 -143.5t19 -95h4q6 46 14.5 100t25 136.5t24.5 120.5t32.5 152.5t28.5 133.5l92 434h270l-301 -1411h-352q-275 948 -303 1130h-4q-23 -151 -135 -684zM1110 1802h391l-467 -284
h-284z" />
    <glyph glyph-name="nacute" unicode="&#x144;" horiz-adv-x="1183" 
d="M23 0l167 791q6 30 18 85t21 100t15 85h272q-4 -61 -20 -133q119 153 319 153q165 0 237 -107.5t23 -332.5l-135 -641h-276l135 643q22 95 -6 150t-113 55q-199 0 -264 -299l-115 -549h-278zM881 1507h362l-422 -295h-270z" />
    <glyph glyph-name="uni0145" unicode="&#x145;" horiz-adv-x="1482" 
d="M319 0h-272l299 1411h373q8 -26 45 -149.5t53.5 -180t50.5 -172t53 -183.5t42 -153.5t36 -143.5t19 -95h4q6 46 14.5 100t25 136.5t24.5 120.5t32.5 152.5t28.5 133.5l92 434h270l-301 -1411h-352q-275 948 -303 1130h-4q-23 -151 -135 -684zM541 -514h-250
q76 89 132.5 201.5t76.5 193.5h276q-32 -123 -99 -228t-136 -167z" />
    <glyph glyph-name="uni0146" unicode="&#x146;" horiz-adv-x="1183" 
d="M23 0l167 791q6 30 18 85t21 100t15 85h272q-4 -61 -20 -133q119 153 319 153q165 0 237 -107.5t23 -332.5l-135 -641h-276l135 643q22 95 -6 150t-113 55q-199 0 -264 -299l-115 -549h-278zM373 -512h-250q76 89 132.5 201.5t76.5 193.5h276q-32 -123 -99 -228
t-136 -167z" />
    <glyph glyph-name="Ncaron" unicode="&#x147;" horiz-adv-x="1482" 
d="M319 0h-272l299 1411h373q8 -26 45 -149.5t53.5 -180t50.5 -172t53 -183.5t42 -153.5t36 -143.5t19 -95h4q6 46 14.5 100t25 136.5t24.5 120.5t32.5 152.5t28.5 133.5l92 434h270l-301 -1411h-352q-275 948 -303 1130h-4q-23 -151 -135 -684zM1069 1507h-266l-205 281
h258l102 -148l160 148h279z" />
    <glyph glyph-name="ncaron" unicode="&#x148;" horiz-adv-x="1183" 
d="M23 0l167 791q6 30 18 85t21 100t15 85h272q-4 -61 -20 -133q119 153 319 153q165 0 237 -107.5t23 -332.5l-135 -641h-276l135 643q22 95 -6 150t-113 55q-199 0 -264 -299l-115 -549h-278zM848 1190h-260l-156 285h240l69 -150l123 150h269z" />
    <glyph glyph-name="napostrophe" unicode="&#x149;" horiz-adv-x="1183" 
d="M332 1180h-215q60 85 115 211.5t75 216.5h254q-29 -121 -90.5 -239t-138.5 -189zM23 0l167 791q6 30 18 85t21 100t15 85h272q-4 -61 -20 -133q119 153 319 153q165 0 237 -107.5t23 -332.5l-135 -641h-276l135 643q22 95 -6 150t-113 55q-199 0 -264 -299l-115 -549
h-278z" />
    <glyph glyph-name="Omacron" unicode="&#x14c;" horiz-adv-x="1513" 
d="M883 1432q142 0 252 -45t178 -125.5t102.5 -186t34.5 -231.5q0 -133 -29 -256.5t-91 -235t-151.5 -193.5t-220 -130.5t-286.5 -48.5q-137 0 -244.5 43.5t-175 120.5t-102.5 180t-35 225q0 128 30 253t93.5 239t152.5 201t216 138.5t276 51.5zM864 1202q-87 0 -161.5 -38
t-126.5 -102t-89.5 -147.5t-55 -174t-17.5 -181.5q0 -164 74.5 -256t220.5 -92q92 0 168 38t126.5 101t85.5 146.5t50.5 172t15.5 179.5q0 164 -71 259t-220 95zM655 1769h607l-43 -206h-607z" />
    <glyph glyph-name="omacron" unicode="&#x14d;" horiz-adv-x="1161" 
d="M653 1081q200 0 320.5 -115t120.5 -341q0 -65 -13 -134t-40.5 -143t-75.5 -139t-111.5 -117t-155 -82t-200.5 -30q-214 0 -322 118t-108 320q0 88 21.5 178.5t68.5 178t113.5 155.5t165.5 109.5t216 41.5zM631 864q-69 0 -124 -45t-86.5 -114.5t-48 -144.5t-16.5 -144
q0 -109 43.5 -164t126.5 -55q71 0 127.5 45t88 116t47.5 147t16 148q0 211 -174 211zM457 1452h590l-48 -215h-589z" />
    <glyph glyph-name="Ohungarumlaut" unicode="&#x150;" horiz-adv-x="1513" 
d="M883 1432q142 0 252 -45t178 -125.5t102.5 -186t34.5 -231.5q0 -133 -29 -256.5t-91 -235t-151.5 -193.5t-220 -130.5t-286.5 -48.5q-137 0 -244.5 43.5t-175 120.5t-102.5 180t-35 225q0 128 30 253t93.5 239t152.5 201t216 138.5t276 51.5zM864 1202q-87 0 -161.5 -38
t-126.5 -102t-89.5 -147.5t-55 -174t-17.5 -181.5q0 -164 74.5 -256t220.5 -92q92 0 168 38t126.5 101t85.5 146.5t50.5 172t15.5 179.5q0 164 -71 259t-220 95zM827 1819h295l-325 -285h-242zM1255 1819h295l-325 -285h-242z" />
    <glyph glyph-name="ohungarumlaut" unicode="&#x151;" horiz-adv-x="1161" 
d="M653 1081q200 0 320.5 -115t120.5 -341q0 -65 -13 -134t-40.5 -143t-75.5 -139t-111.5 -117t-155 -82t-200.5 -30q-214 0 -322 118t-108 320q0 88 21.5 178.5t68.5 178t113.5 155.5t165.5 109.5t216 41.5zM631 864q-69 0 -124 -45t-86.5 -114.5t-48 -144.5t-16.5 -144
q0 -109 43.5 -164t126.5 -55q71 0 127.5 45t88 116t47.5 147t16 148q0 211 -174 211zM922 1493l-340 -303h-236l279 303h297zM1337 1493l-338 -303h-233l278 303h293z" />
    <glyph glyph-name="OE" unicode="&#x152;" horiz-adv-x="2082" 
d="M961 240l198 929q-59 21 -194 21q-161 0 -284.5 -74.5t-188 -201.5t-64.5 -285q0 -196 101 -298t284 -102q97 0 148 11zM2161 1411l-52 -235h-663l-68 -322h635l-51 -238h-635l-82 -378h723l-86 -238h-897q-10 0 -96 -3t-127 -3q-156 0 -279 48t-200 133t-117.5 196
t-40.5 241q0 128 35 247t107.5 222.5t176 180t250.5 121t320 44.5q78 0 179.5 -8t104.5 -8h863z" />
    <glyph glyph-name="oe" unicode="&#x153;" horiz-adv-x="1843" 
d="M1212 -20q-223 0 -319 159q-152 -159 -397 -159q-207 0 -316.5 122t-109.5 326q0 73 15.5 147.5t46 148t80 138t112.5 113.5t149 77.5t184 28.5q232 0 340 -159q142 159 369 159q111 0 194 -32.5t130.5 -90t70.5 -128.5t23 -156q0 -100 -29 -207h-680q-6 -34 -6 -61
q0 -94 39.5 -152.5t128.5 -58.5q78 0 122 34t75 95h290q-19 -52 -45 -97t-69.5 -92t-97 -80t-131.5 -54t-169 -21zM1112 653h401q5 22 5 47q0 75 -40 123.5t-120 48.5q-181 0 -246 -219zM637 864q-68 0 -124 -46t-88.5 -115.5t-49.5 -142.5t-17 -136q0 -110 44 -168.5
t126 -58.5q71 0 127 46t87.5 117.5t48 145.5t16.5 141q0 217 -170 217z" />
    <glyph glyph-name="Racute" unicode="&#x154;" horiz-adv-x="1318" 
d="M711 575h-254l-121 -575h-287l299 1411h539q201 0 315.5 -98t114.5 -271q0 -142 -78 -237t-213 -131q169 -80 117 -336q-31 -149 -42.5 -221t-6.5 -117h-275q-12 90 41 338q26 122 -5.5 179.5t-143.5 57.5zM584 1182l-80 -375h237q281 0 281 207q0 168 -205 168h-233z
M995 1817h391l-466 -285h-285z" />
    <glyph glyph-name="racute" unicode="&#x155;" horiz-adv-x="786" 
d="M834 1081l-56 -280q-149 -2 -246 -86t-133 -254l-98 -461h-278l159 745q23 106 62 316h268q-5 -69 -31 -193q59 104 141 158.5t212 54.5zM690 1507h363l-422 -295h-271z" />
    <glyph glyph-name="uni0156" unicode="&#x156;" horiz-adv-x="1318" 
d="M711 575h-254l-121 -575h-287l299 1411h539q201 0 315.5 -98t114.5 -271q0 -142 -78 -237t-213 -131q169 -80 117 -336q-31 -149 -42.5 -221t-6.5 -117h-275q-12 90 41 338q26 122 -5.5 179.5t-143.5 57.5zM584 1182l-80 -375h237q281 0 281 207q0 168 -205 168h-233z
M465 -494h-250q76 88 132.5 201.5t76.5 194.5h276q-32 -123 -99 -228.5t-136 -167.5z" />
    <glyph glyph-name="uni0157" unicode="&#x157;" horiz-adv-x="786" 
d="M834 1081l-56 -280q-149 -2 -246 -86t-133 -254l-98 -461h-278l159 745q23 106 62 316h268q-5 -69 -31 -193q59 104 141 158.5t212 54.5zM53 -514h-250q76 89 132.5 201.5t76.5 193.5h277q-32 -123 -99 -227.5t-137 -167.5z" />
    <glyph glyph-name="Rcaron" unicode="&#x158;" horiz-adv-x="1318" 
d="M711 575h-254l-121 -575h-287l299 1411h539q201 0 315.5 -98t114.5 -271q0 -142 -78 -237t-213 -131q169 -80 117 -336q-31 -149 -42.5 -221t-6.5 -117h-275q-12 90 41 338q26 122 -5.5 179.5t-143.5 57.5zM584 1182l-80 -375h237q281 0 281 207q0 168 -205 168h-233z
M963 1532h-267l-204 280h258l102 -147l160 147h278z" />
    <glyph glyph-name="rcaron" unicode="&#x159;" horiz-adv-x="786" 
d="M834 1081l-56 -280q-149 -2 -246 -86t-133 -254l-98 -461h-278l159 745q23 106 62 316h268q-5 -69 -31 -193q59 104 141 158.5t212 54.5zM655 1190h-260l-155 285h239l70 -150l123 150h268z" />
    <glyph glyph-name="Sacute" unicode="&#x15a;" horiz-adv-x="1239" 
d="M31 434h293q9 -110 79.5 -171.5t200.5 -61.5q242 0 242 186q0 80 -57 130.5t-201 100.5q-212 72 -302.5 165t-90.5 227q0 87 31.5 162t93.5 134t163.5 92.5t231.5 33.5q240 0 373.5 -113t136.5 -303h-293q-13 190 -232 190q-93 0 -149.5 -42t-56.5 -122
q0 -61 47.5 -103.5t177.5 -88.5q224 -78 327 -175.5t103 -252.5q0 -70 -17.5 -132t-59.5 -120t-106 -99t-164 -66t-227 -25q-259 0 -398.5 121t-145.5 333zM936 1837h391l-467 -285h-285z" />
    <glyph glyph-name="sacute" unicode="&#x15b;" horiz-adv-x="1015" 
d="M16 328h281q12 -142 184 -142q152 0 152 121q0 49 -42.5 79.5t-146.5 62.5q-181 57 -252 124.5t-71 169.5q0 148 113.5 243t318.5 95q107 0 190.5 -26t133 -71t74 -101.5t22.5 -120.5h-283q-8 112 -151 112q-60 0 -100 -22.5t-40 -73.5q0 -40 38.5 -62t148.5 -59
q182 -57 258 -132.5t76 -188.5q0 -89 -38 -158.5t-103.5 -111.5t-148.5 -64t-179 -22q-213 0 -328.5 91.5t-106.5 256.5zM795 1507h362l-422 -295h-270z" />
    <glyph glyph-name="Scircumflex" unicode="&#x15c;" horiz-adv-x="1239" 
d="M31 434h293q9 -110 79.5 -171.5t200.5 -61.5q242 0 242 186q0 80 -57 130.5t-201 100.5q-212 72 -302.5 165t-90.5 227q0 87 31.5 162t93.5 134t163.5 92.5t231.5 33.5q240 0 373.5 -113t136.5 -303h-293q-13 190 -232 190q-93 0 -149.5 -42t-56.5 -122
q0 -61 47.5 -103.5t177.5 -88.5q224 -78 327 -175.5t103 -252.5q0 -70 -17.5 -132t-59.5 -120t-106 -99t-164 -66t-227 -25q-259 0 -398.5 121t-145.5 333zM719 1815h264l205 -281h-256l-105 143l-159 -143h-279z" />
    <glyph glyph-name="scircumflex" unicode="&#x15d;" horiz-adv-x="1015" 
d="M16 328h281q12 -142 184 -142q152 0 152 121q0 49 -42.5 79.5t-146.5 62.5q-181 57 -252 124.5t-71 169.5q0 148 113.5 243t318.5 95q107 0 190.5 -26t133 -71t74 -101.5t22.5 -120.5h-283q-8 112 -151 112q-60 0 -100 -22.5t-40 -73.5q0 -40 38.5 -62t148.5 -59
q182 -57 258 -132.5t76 -188.5q0 -89 -38 -158.5t-103.5 -111.5t-148.5 -64t-179 -22q-213 0 -328.5 91.5t-106.5 256.5zM565 1479h262l154 -287h-246l-69 149l-125 -149h-260z" />
    <glyph glyph-name="uni015E" unicode="&#x15e;" horiz-adv-x="1239" 
d="M31 434h293q9 -110 79.5 -171.5t200.5 -61.5q242 0 242 186q0 80 -57 130.5t-201 100.5q-212 72 -302.5 165t-90.5 227q0 87 31.5 162t93.5 134t163.5 92.5t231.5 33.5q240 0 373.5 -113t136.5 -303h-293q-13 190 -232 190q-93 0 -149.5 -42t-56.5 -122
q0 -61 47.5 -103.5t177.5 -88.5q224 -78 327 -175.5t103 -252.5q0 -64 -14.5 -121.5t-49 -112t-87.5 -95.5t-134.5 -70t-185.5 -39l-74 -72q71 -22 117.5 -67t46.5 -115q0 -110 -82 -169t-213 -59q-114 0 -209 31l39 152q56 -17 131 -17q103 0 103 53q0 60 -191 68l16 72
l117 123q-214 23 -328 141t-120 309z" />
    <glyph glyph-name="uni015F" unicode="&#x15f;" horiz-adv-x="1015" 
d="M16 328h281q12 -142 184 -142q152 0 152 121q0 49 -42.5 79.5t-146.5 62.5q-181 57 -252 124.5t-71 169.5q0 148 113.5 243t318.5 95q107 0 190.5 -26t133 -71t74 -101.5t22.5 -120.5h-283q-8 112 -151 112q-60 0 -100 -22.5t-40 -73.5q0 -40 38.5 -62t148.5 -59
q182 -57 258 -132.5t76 -188.5q0 -154 -106.5 -243t-276.5 -109l-74 -72q71 -22 117.5 -67t46.5 -115q0 -110 -82 -169t-213 -59q-114 0 -209 31l39 152q56 -17 131 -17q102 0 102 53q0 60 -190 68l16 72l119 127q-162 22 -246.5 110t-77.5 230z" />
    <glyph glyph-name="Scaron" unicode="&#x160;" horiz-adv-x="1239" 
d="M31 434h293q9 -110 79.5 -171.5t200.5 -61.5q242 0 242 186q0 80 -57 130.5t-201 100.5q-212 72 -302.5 165t-90.5 227q0 87 31.5 162t93.5 134t163.5 92.5t231.5 33.5q240 0 373.5 -113t136.5 -303h-293q-13 190 -232 190q-93 0 -149.5 -42t-56.5 -122
q0 -61 47.5 -103.5t177.5 -88.5q224 -78 327 -175.5t103 -252.5q0 -70 -17.5 -132t-59.5 -120t-106 -99t-164 -66t-227 -25q-259 0 -398.5 121t-145.5 333zM905 1534h-266l-205 281h258l103 -148l159 148h279z" />
    <glyph glyph-name="scaron" unicode="&#x161;" horiz-adv-x="1015" 
d="M16 328h281q12 -142 184 -142q152 0 152 121q0 49 -42.5 79.5t-146.5 62.5q-181 57 -252 124.5t-71 169.5q0 148 113.5 243t318.5 95q107 0 190.5 -26t133 -71t74 -101.5t22.5 -120.5h-283q-8 112 -151 112q-60 0 -100 -22.5t-40 -73.5q0 -40 38.5 -62t148.5 -59
q182 -57 258 -132.5t76 -188.5q0 -89 -38 -158.5t-103.5 -111.5t-148.5 -64t-179 -22q-213 0 -328.5 91.5t-106.5 256.5zM741 1190h-260l-155 285h239l70 -150l123 150h268z" />
    <glyph glyph-name="uni0162" unicode="&#x162;" horiz-adv-x="1138" 
d="M301 0l250 1176h-414l51 235h1112l-51 -235h-411l-248 -1176h-35l-90 -88q71 -22 117.5 -67t46.5 -115q0 -110 -82 -169t-213 -59q-114 0 -209 31l39 152q56 -17 131 -17q102 0 102 53q0 60 -190 68l16 72l131 139h-53z" />
    <glyph glyph-name="uni0163" unicode="&#x163;" horiz-adv-x="708" 
d="M90 848l47 213h158l61 285h277l-60 -285h199l-47 -213h-199l-112 -535q-10 -56 3.5 -82t71.5 -26q45 0 91 6l-41 -201q-54 -16 -142 -20l-80 -78q71 -22 117.5 -67t46.5 -115q0 -110 -82 -169t-213 -59q-114 0 -209 31l39 152q56 -17 131 -17q103 0 103 53q0 60 -191 68
l17 72l141 151q-132 57 -84 289l115 547h-158z" />
    <glyph glyph-name="Tcaron" unicode="&#x164;" horiz-adv-x="1138" 
d="M301 0l250 1176h-414l51 235h1112l-51 -235h-411l-248 -1176h-289zM874 1530h-266l-205 280h259l102 -147l160 147h278z" />
    <glyph glyph-name="tcaron" unicode="&#x165;" horiz-adv-x="708" 
d="M840 1659h225l-145 -442h-193zM90 848l47 213h158l61 285h277l-60 -285h199l-47 -213h-199l-112 -535q-10 -56 3.5 -82t71.5 -26q45 0 91 6l-41 -201q-63 -20 -189 -20q-156 0 -202.5 80t-14.5 231l115 547h-158z" />
    <glyph glyph-name="Utilde" unicode="&#x168;" horiz-adv-x="1417" 
d="M328 1411h288l-186 -870q-36 -167 25 -250.5t202 -83.5q143 0 212.5 70.5t105.5 240.5l188 893h291l-197 -915q-59 -268 -200 -392t-426 -124q-103 0 -187 19.5t-153.5 62t-109 110t-52.5 164t16 223.5zM731 1540h-182l12 66q19 119 75 167t148 48q51 0 111.5 -21.5
t109.5 -43t74 -21.5q27 0 42.5 14.5t21.5 54.5l2 17h180l-10 -62q-22 -128 -78 -176.5t-152 -48.5q-53 0 -112 21t-106 42t-72 21q-52 0 -60 -49z" />
    <glyph glyph-name="utilde" unicode="&#x169;" horiz-adv-x="1169" 
d="M1151 1061l-164 -778q-36 -164 -55 -283h-273q5 78 23 147q-114 -167 -336 -167q-152 0 -223.5 97.5t-34.5 276.5l150 707h276l-143 -670q-19 -90 4.5 -136t107.5 -46q96 0 169 81.5t108 250.5l112 520h279zM559 1206h-180l14 80q23 118 75 161.5t138 43.5
q51 0 103 -23.5t92.5 -47t64.5 -23.5q49 0 66 78l4 18h178l-12 -63q-23 -131 -79 -179.5t-149 -48.5q-51 0 -100.5 22.5t-88 45t-62.5 22.5q-45 0 -58 -55z" />
    <glyph glyph-name="Umacron" unicode="&#x16a;" horiz-adv-x="1417" 
d="M328 1411h288l-186 -870q-36 -167 25 -250.5t202 -83.5q143 0 212.5 70.5t105.5 240.5l188 893h291l-197 -915q-59 -268 -200 -392t-426 -124q-103 0 -187 19.5t-153.5 62t-109 110t-52.5 164t16 223.5zM635 1757h606l-43 -207h-606z" />
    <glyph glyph-name="umacron" unicode="&#x16b;" horiz-adv-x="1169" 
d="M1151 1061l-164 -778q-36 -164 -55 -283h-273q5 78 23 147q-114 -167 -336 -167q-152 0 -223.5 97.5t-34.5 276.5l150 707h276l-143 -670q-19 -90 4.5 -136t107.5 -46q96 0 169 81.5t108 250.5l112 520h279zM471 1452h590l-47 -215h-590z" />
    <glyph glyph-name="Ubreve" unicode="&#x16c;" horiz-adv-x="1417" 
d="M328 1411h288l-186 -870q-36 -167 25 -250.5t202 -83.5q143 0 212.5 70.5t105.5 240.5l188 893h291l-197 -915q-59 -268 -200 -392t-426 -124q-103 0 -187 19.5t-153.5 62t-109 110t-52.5 164t16 223.5zM592 1796h199q-2 -49 27 -79.5t89 -30.5q116 0 164 110h197
q-22 -62 -48.5 -108.5t-70.5 -92t-112 -70t-156 -24.5q-85 0 -146.5 26.5t-93 70t-43.5 94t-6 104.5z" />
    <glyph glyph-name="ubreve" unicode="&#x16d;" horiz-adv-x="1169" 
d="M1151 1061l-164 -778q-36 -164 -55 -283h-273q5 78 23 147q-114 -167 -336 -167q-152 0 -223.5 97.5t-34.5 276.5l150 707h276l-143 -670q-19 -90 4.5 -136t107.5 -46q96 0 169 81.5t108 250.5l112 520h279zM455 1473h192q-2 -47 23 -77t78 -30q31 0 54.5 8t41 26
t26.5 32t23 41h190q-95 -295 -364 -295q-78 0 -135 24.5t-87 67t-40.5 94t-1.5 109.5z" />
    <glyph glyph-name="Uring" unicode="&#x16e;" horiz-adv-x="1417" 
d="M328 1411h288l-186 -870q-36 -167 25 -250.5t202 -83.5q143 0 212.5 70.5t105.5 240.5l188 893h291l-197 -915q-59 -268 -200 -392t-426 -124q-103 0 -187 19.5t-153.5 62t-109 110t-52.5 164t16 223.5zM885 1493q-100 0 -157.5 51t-57.5 133q0 104 76 170t190 66
q100 0 155.5 -54t55.5 -135q0 -102 -73.5 -166.5t-188.5 -64.5zM895 1614q41 0 75 27t34 75q0 35 -20 56.5t-62 21.5q-43 0 -75 -27t-32 -77q0 -27 20.5 -51.5t59.5 -24.5z" />
    <glyph glyph-name="uring" unicode="&#x16f;" horiz-adv-x="1169" 
d="M1151 1061l-164 -778q-36 -164 -55 -283h-273q5 78 23 147q-114 -167 -336 -167q-152 0 -223.5 97.5t-34.5 276.5l150 707h276l-143 -670q-19 -90 4.5 -136t107.5 -46q96 0 169 81.5t108 250.5l112 520h279zM711 1151q-100 0 -157.5 51t-57.5 133q0 104 76 170t190 66
q100 0 155.5 -54t55.5 -135q0 -102 -73.5 -166.5t-188.5 -64.5zM721 1272q40 0 74 27t34 75q0 35 -19.5 56.5t-61.5 21.5q-43 0 -75 -27t-32 -77q0 -27 20.5 -51.5t59.5 -24.5z" />
    <glyph glyph-name="Uhungarumlaut" unicode="&#x170;" horiz-adv-x="1417" 
d="M328 1411h288l-186 -870q-36 -167 25 -250.5t202 -83.5q143 0 212.5 70.5t105.5 240.5l188 893h291l-197 -915q-59 -268 -200 -392t-426 -124q-103 0 -187 19.5t-153.5 62t-109 110t-52.5 164t16 223.5zM801 1815h295l-326 -285h-242zM1229 1815h295l-326 -285h-242z" />
    <glyph glyph-name="uhungarumlaut" unicode="&#x171;" horiz-adv-x="1169" 
d="M1151 1061l-164 -778q-36 -164 -55 -283h-273q5 78 23 147q-114 -167 -336 -167q-152 0 -223.5 97.5t-34.5 276.5l150 707h276l-143 -670q-19 -90 4.5 -136t107.5 -46q96 0 169 81.5t108 250.5l112 520h279zM928 1493l-340 -303h-236l279 303h297zM1343 1493l-337 -303
h-234l279 303h292z" />
    <glyph glyph-name="Uogonek" unicode="&#x172;" horiz-adv-x="1417" 
d="M328 1411h288l-186 -870q-36 -167 25 -250.5t202 -83.5q143 0 212.5 70.5t105.5 240.5l188 893h291l-197 -915q-48 -218 -147 -339t-283 -159q-125 -115 -125 -188q0 -38 25 -60t76 -22q60 0 104 14l-41 -193q-63 -28 -178 -28q-116 0 -181 56t-65 153q0 130 136 252
q-94 5 -170.5 27.5t-138.5 66.5t-96.5 110.5t-45 159.5t17.5 213z" />
    <glyph glyph-name="uogonek" unicode="&#x173;" horiz-adv-x="1169" 
d="M1151 1061l-164 -778q-36 -164 -55 -283h-14q-134 -121 -134 -195q0 -81 101 -81q60 0 104 14l-41 -193q-63 -28 -178 -28q-116 0 -181 56t-65 153q0 140 162 274h-27q5 78 23 147q-114 -167 -336 -167q-152 0 -223.5 97.5t-34.5 276.5l150 707h276l-143 -670
q-19 -90 4.5 -136t107.5 -46q96 0 169 81.5t108 250.5l112 520h279z" />
    <glyph glyph-name="Wcircumflex" unicode="&#x174;" horiz-adv-x="1841" 
d="M530 0h-292l-45 1411h284q-1 -124 -1.5 -425.5t-3.5 -459t-11 -227.5h2q29 87 118 282t216 463.5t172 366.5h252q38 -861 28 -1096h2q22 68 66.5 178.5t86.5 208.5t140.5 325.5t165.5 383.5h285l-676 -1411h-293q-1 67 -14.5 469t-12.5 545h-2q-31 -90 -95.5 -237
t-119 -259.5t-141.5 -289.5t-111 -228zM1032 1794h264l205 -281h-256l-104 144l-160 -144h-279z" />
    <glyph glyph-name="wcircumflex" unicode="&#x175;" horiz-adv-x="1554" 
d="M123 1061h276q11 -640 4 -782h5q80 200 342 782h264q5 -644 -8 -791h2q143 362 342 791h288l-532 -1061h-299q-16 473 -6 713h-2q-14 -40 -33 -86.5t-50.5 -116.5t-58.5 -129.5t-81 -175.5t-95 -205h-299zM836 1479h262l153 -287h-245l-70 149l-125 -149h-260z" />
    <glyph glyph-name="Ycircumflex" unicode="&#x176;" horiz-adv-x="1181" 
d="M596 0h-289l107 512q6 25 -2 47l-295 852h299q16 -57 93.5 -313.5t96.5 -345.5q41 66 123.5 181t191.5 262t158 216h310l-668 -868q-17 -26 -21 -45zM672 1812h264l205 -280h-256l-105 143l-159 -143h-279z" />
    <glyph glyph-name="ycircumflex" unicode="&#x177;" horiz-adv-x="1036" 
d="M98 1061h279q56 -646 59 -834h2q220 486 391 834h291l-577 -1108q-53 -103 -101.5 -172t-92 -110t-97.5 -62.5t-102.5 -28t-122.5 -6.5q-70 0 -142 14l52 230q36 -8 92 -8q62 0 103 17.5t61.5 42t44.5 69.5zM561 1495h262l154 -287h-246l-69 150l-125 -150h-261z" />
    <glyph glyph-name="Ydieresis" unicode="&#x178;" horiz-adv-x="1181" 
d="M596 0h-289l107 512q6 25 -2 47l-295 852h299q16 -57 93.5 -313.5t96.5 -345.5q41 66 123.5 181t191.5 262t158 216h310l-668 -868q-17 -26 -21 -45zM641 1528h-227l55 260h227zM1061 1528h-227l55 260h227z" />
    <glyph glyph-name="Zacute" unicode="&#x179;" horiz-adv-x="1163" 
d="M-70 0l43 211l908 965h-707l53 235h1045l-51 -233l-881 -940h770l-86 -238h-1094zM934 1821h391l-467 -285h-285z" />
    <glyph glyph-name="zacute" unicode="&#x17a;" horiz-adv-x="960" 
d="M-41 0l45 211l604 633h-475l47 217h795l-47 -221l-590 -623h526l-80 -217h-825zM764 1507h362l-421 -295h-271z" />
    <glyph glyph-name="Zdotaccent" unicode="&#x17b;" horiz-adv-x="1163" 
d="M-70 0l43 211l908 965h-707l53 235h1045l-51 -233l-881 -940h770l-86 -238h-1094zM887 1569h-279l56 262h278z" />
    <glyph glyph-name="zdotaccent" unicode="&#x17c;" horiz-adv-x="960" 
d="M-41 0l45 211l604 633h-475l47 217h795l-47 -221l-590 -623h526l-80 -217h-825zM735 1231h-278l55 260h279z" />
    <glyph glyph-name="Zcaron" unicode="&#x17d;" horiz-adv-x="1163" 
d="M-70 0l43 211l908 965h-707l53 235h1045l-51 -233l-881 -940h770l-86 -238h-1094zM870 1534h-266l-205 281h258l103 -148l160 148h278z" />
    <glyph glyph-name="zcaron" unicode="&#x17e;" horiz-adv-x="960" 
d="M-41 0l45 211l604 633h-475l47 217h795l-47 -221l-590 -623h526l-80 -217h-825zM713 1204h-260l-156 285h240l69 -150l123 150h268z" />
    <glyph glyph-name="uni018F" unicode="&#x18f;" horiz-adv-x="1458" 
d="M1059 555h-676q-6 -36 -6 -68q0 -137 73 -209.5t212 -72.5q286 0 397 350zM1104 776q6 23 6 90q0 160 -73 248t-214 88q-118 0 -193.5 -49.5t-135.5 -153.5h-297q76 201 235.5 317t405.5 116q124 0 222.5 -32.5t162 -87.5t105.5 -132t59.5 -160t17.5 -178
q0 -79 -13 -160.5t-41.5 -166.5t-70.5 -162.5t-105 -146t-139.5 -118.5t-178.5 -79t-218 -29q-268 0 -408.5 145.5t-140.5 382.5q0 119 39 268h975z" />
    <glyph glyph-name="florin" unicode="&#x192;" horiz-adv-x="880" 
d="M971 1391l-58 -211q-44 20 -106 20q-66 0 -103.5 -59.5t-60.5 -165.5l-18 -94h221l-43 -203h-219l-92 -457q-17 -84 -36.5 -148.5t-51.5 -125.5t-73.5 -100.5t-102 -63t-136.5 -23.5q-126 0 -188 37l53 221q41 -20 113 -20q61 0 91 52.5t58 185.5l92 442h-182l43 203h182
l13 55q15 73 32.5 132t52 128.5t78 116.5t112 78.5t153.5 31.5q127 0 176 -32z" />
    <glyph glyph-name="Ohorn" unicode="&#x1a0;" horiz-adv-x="1513" 
d="M883 1432q238 0 385 -125q51 11 74.5 46t23.5 103q0 42 -6 76h252q4 -28 4 -53q0 -272 -223 -344q57 -126 57 -291q0 -133 -29 -256.5t-91 -235t-151.5 -193.5t-220 -130.5t-286.5 -48.5q-137 0 -244.5 43.5t-175 120.5t-102.5 180t-35 225q0 128 30 253t93.5 239
t152.5 201t216 138.5t276 51.5zM864 1202q-87 0 -161.5 -38t-126.5 -102t-89.5 -147.5t-55 -174t-17.5 -181.5q0 -164 74.5 -256t220.5 -92q92 0 168 38t126.5 101t85.5 146.5t50.5 172t15.5 179.5q0 164 -71 259t-220 95z" />
    <glyph glyph-name="ohorn" unicode="&#x1a1;" horiz-adv-x="1161" 
d="M653 1081q186 0 299 -96q48 14 70 49t22 101q0 41 -6 75h252q4 -28 4 -53q0 -274 -227 -346q27 -89 27 -186q0 -65 -13 -134t-40.5 -143t-75.5 -139t-111.5 -117t-155 -82t-200.5 -30q-214 0 -322 118t-108 320q0 88 21.5 178.5t68.5 178t113.5 155.5t165.5 109.5
t216 41.5zM631 864q-69 0 -124 -45t-86.5 -114.5t-48 -144.5t-16.5 -144q0 -109 43.5 -164t126.5 -55q71 0 127.5 45t88 116t47.5 147t16 148q0 211 -174 211z" />
    <glyph glyph-name="Uhorn" unicode="&#x1af;" horiz-adv-x="1417" 
d="M328 1411h288l-186 -870q-36 -167 25 -250.5t202 -83.5q143 0 212.5 70.5t105.5 240.5l188 893h90q69 8 100 43t31 113q0 41 -6 75h252q4 -28 4 -53q0 -267 -215 -342l-162 -751q-59 -268 -200 -392t-426 -124q-103 0 -187 19.5t-153.5 62t-109 110t-52.5 164t16 223.5z
" />
    <glyph glyph-name="uhorn" unicode="&#x1b0;" horiz-adv-x="1169" 
d="M682 147q-114 -167 -336 -167q-152 0 -223.5 97.5t-34.5 276.5l150 707h276l-143 -670q-19 -90 4.5 -136t107.5 -46q96 0 169 81.5t108 250.5l112 520h101q61 9 89 44t28 109q0 36 -7 76h252q4 -28 4 -53q0 -272 -223 -344l-129 -610q-36 -164 -55 -283h-273q5 78 23 147
z" />
    <glyph glyph-name="uni01CD" unicode="&#x1cd;" horiz-adv-x="1314" 
d="M885 334h-498l-174 -334h-303l760 1411h364l185 -1411h-291zM500 571h372q-51 450 -59 621h-2q-107 -228 -311 -621zM991 1520h-266l-205 280h258l103 -147l159 147h279z" />
    <glyph glyph-name="uni01CE" unicode="&#x1ce;" horiz-adv-x="1140" 
d="M1047 696l-95 -436q-45 -201 -49 -260h-270q0 7 14 119q-25 -31 -46 -50.5t-58 -42.5t-91 -34.5t-124 -11.5q-75 0 -134 24.5t-93.5 65t-52 87t-17.5 95.5q0 85 29.5 152t75.5 108.5t113.5 71t131 44t141.5 23.5q65 6 238 11l10 49q8 29 6 60.5t-12 57t-43 42t-86 16.5
q-45 0 -76.5 -9.5t-51 -30t-28.5 -34.5t-20 -40q-3 -6 -4 -9h-285q16 68 47 122t86 99.5t145 70.5t209 25q100 0 178 -21.5t135.5 -67.5t76.5 -119t0 -177zM717 459l4 16q-92 0 -184 -10q-116 -19 -167 -58.5t-51 -107.5q0 -49 32.5 -79t97.5 -30q55 0 99 18t70.5 43
t48 65.5t31 70.5t19.5 72zM825 1190h-260l-155 285h239l70 -150l123 150h268z" />
    <glyph glyph-name="uni01CF" unicode="&#x1cf;" horiz-adv-x="610" 
d="M348 1411h289l-299 -1411h-289zM649 1532h-266l-205 280h258l103 -147l159 147h279z" />
    <glyph glyph-name="uni01D0" unicode="&#x1d0;" horiz-adv-x="542" 
d="M23 0l225 1061h278l-225 -1061h-278zM528 1190h-260l-155 285h239l70 -150l123 150h268z" />
    <glyph glyph-name="uni01D1" unicode="&#x1d1;" horiz-adv-x="1513" 
d="M883 1432q142 0 252 -45t178 -125.5t102.5 -186t34.5 -231.5q0 -133 -29 -256.5t-91 -235t-151.5 -193.5t-220 -130.5t-286.5 -48.5q-137 0 -244.5 43.5t-175 120.5t-102.5 180t-35 225q0 128 30 253t93.5 239t152.5 201t216 138.5t276 51.5zM864 1202q-87 0 -161.5 -38
t-126.5 -102t-89.5 -147.5t-55 -174t-17.5 -181.5q0 -164 74.5 -256t220.5 -92q92 0 168 38t126.5 101t85.5 146.5t50.5 172t15.5 179.5q0 164 -71 259t-220 95zM1040 1534h-266l-205 281h258l103 -148l160 148h278z" />
    <glyph glyph-name="uni01D2" unicode="&#x1d2;" horiz-adv-x="1161" 
d="M653 1081q200 0 320.5 -115t120.5 -341q0 -65 -13 -134t-40.5 -143t-75.5 -139t-111.5 -117t-155 -82t-200.5 -30q-214 0 -322 118t-108 320q0 88 21.5 178.5t68.5 178t113.5 155.5t165.5 109.5t216 41.5zM631 864q-69 0 -124 -45t-86.5 -114.5t-48 -144.5t-16.5 -144
q0 -109 43.5 -164t126.5 -55q71 0 127.5 45t88 116t47.5 147t16 148q0 211 -174 211zM838 1200h-260l-156 285h240l69 -150l123 150h268z" />
    <glyph glyph-name="uni01D3" unicode="&#x1d3;" horiz-adv-x="1417" 
d="M328 1411h288l-186 -870q-36 -167 25 -250.5t202 -83.5q143 0 212.5 70.5t105.5 240.5l188 893h291l-197 -915q-59 -268 -200 -392t-426 -124q-103 0 -187 19.5t-153.5 62t-109 110t-52.5 164t16 223.5zM1032 1532h-266l-205 280h258l103 -147l159 147h279z" />
    <glyph glyph-name="uni01D4" unicode="&#x1d4;" horiz-adv-x="1169" 
d="M1151 1061l-164 -778q-36 -164 -55 -283h-273q5 78 23 147q-114 -167 -336 -167q-152 0 -223.5 97.5t-34.5 276.5l150 707h276l-143 -670q-19 -90 4.5 -136t107.5 -46q96 0 169 81.5t108 250.5l112 520h279zM842 1190h-260l-156 285h240l69 -150l123 150h268z" />
    <glyph glyph-name="uni01D5" unicode="&#x1d5;" horiz-adv-x="1417" 
d="M328 1411h288l-186 -870q-36 -167 25 -250.5t202 -83.5q143 0 212.5 70.5t105.5 240.5l188 893h291l-197 -915q-59 -268 -200 -392t-426 -124q-103 0 -187 19.5t-153.5 62t-109 110t-52.5 164t16 223.5zM1229 1831h-576l39 180h576zM786 1520h-225l45 215h228zM1194 1520
h-225l45 215h225z" />
    <glyph glyph-name="uni01D6" unicode="&#x1d6;" horiz-adv-x="1169" 
d="M1151 1061l-164 -778q-36 -164 -55 -283h-273q5 78 23 147q-114 -167 -336 -167q-152 0 -223.5 97.5t-34.5 276.5l150 707h276l-143 -670q-19 -90 4.5 -136t107.5 -46q96 0 169 81.5t108 250.5l112 520h279zM1059 1499h-578l41 189h578zM621 1174h-228l45 217h228z
M1014 1174h-228l45 217h228z" />
    <glyph glyph-name="uni01D7" unicode="&#x1d7;" horiz-adv-x="1417" 
d="M328 1411h288l-186 -870q-36 -167 25 -250.5t202 -83.5q143 0 212.5 70.5t105.5 240.5l188 893h291l-197 -915q-59 -268 -200 -392t-426 -124q-103 0 -187 19.5t-153.5 62t-109 110t-52.5 164t16 223.5zM1053 1810h-258l284 238h336zM616 1733h228l-45 -217h-228z
M1206 1516h-227l45 217h227z" />
    <glyph glyph-name="uni01D8" unicode="&#x1d8;" horiz-adv-x="1169" 
d="M1151 1061l-164 -778q-36 -164 -55 -283h-273q5 78 23 147q-114 -167 -336 -167q-152 0 -223.5 97.5t-34.5 276.5l150 707h276l-143 -670q-19 -90 4.5 -136t107.5 -46q96 0 169 81.5t108 250.5l112 520h279zM868 1460h-245l274 240h317zM440 1393h226l-45 -217h-226z
M1014 1176h-226l46 217h225z" />
    <glyph glyph-name="uni01D9" unicode="&#x1d9;" horiz-adv-x="1417" 
d="M328 1411h288l-186 -870q-36 -167 25 -250.5t202 -83.5q143 0 212.5 70.5t105.5 240.5l188 893h291l-197 -915q-59 -268 -200 -392t-426 -124q-103 0 -187 19.5t-153.5 62t-109 110t-52.5 164t16 223.5zM1073 1812h-256l-158 240h222l84 -119l135 119h237zM616 1735h228
l-45 -217h-228zM1206 1518h-227l45 217h227z" />
    <glyph glyph-name="uni01DA" unicode="&#x1da;" horiz-adv-x="1169" 
d="M1151 1061l-164 -778q-36 -164 -55 -283h-273q5 78 23 147q-114 -167 -336 -167q-152 0 -223.5 97.5t-34.5 276.5l150 707h276l-143 -670q-19 -90 4.5 -136t107.5 -46q96 0 169 81.5t108 250.5l112 520h279zM883 1460h-254l-154 242h230l75 -125l127 125h234zM442 1395
h226l-45 -217h-226zM1016 1178h-225l45 217h225z" />
    <glyph glyph-name="uni01DB" unicode="&#x1db;" horiz-adv-x="1417" 
d="M328 1411h288l-186 -870q-36 -167 25 -250.5t202 -83.5q143 0 212.5 70.5t105.5 240.5l188 893h291l-197 -915q-59 -268 -200 -392t-426 -124q-103 0 -187 19.5t-153.5 62t-109 110t-52.5 164t16 223.5zM1075 1800h-233l-285 238h311zM616 1733h226l-47 -215h-226z
M1202 1518h-225l47 215h225z" />
    <glyph glyph-name="uni01DC" unicode="&#x1dc;" horiz-adv-x="1169" 
d="M1151 1061l-164 -778q-36 -164 -55 -283h-273q5 78 23 147q-114 -167 -336 -167q-152 0 -223.5 97.5t-34.5 276.5l150 707h276l-143 -670q-19 -90 4.5 -136t107.5 -46q96 0 169 81.5t108 250.5l112 520h279zM391 1704h303l180 -240h-223zM440 1397h226l-45 -217h-228z
M1014 1180h-228l48 217h225z" />
    <glyph glyph-name="Gcaron" unicode="&#x1e6;" horiz-adv-x="1458" 
d="M1374 793l-151 -793h-226q-6 52 13 154q-70 -93 -165.5 -133.5t-230.5 -40.5q-162 0 -275.5 74.5t-167.5 201.5t-54 295q0 128 29.5 252.5t92 238.5t151.5 200.5t217.5 138t279.5 51.5q246 0 388 -126.5t142 -326.5h-289q-2 41 -17.5 78.5t-46 71t-85 53.5t-127.5 20
q-88 0 -162 -39t-123.5 -103.5t-84.5 -147.5t-50.5 -169.5t-15.5 -171.5q0 -170 70 -265t214 -95q85 0 148 26t101 75t59 101t36 122l3 6h-326l53 252h600zM1034 1544h-266l-205 281h258l103 -148l159 148h279z" />
    <glyph glyph-name="gcaron" unicode="&#x1e7;" horiz-adv-x="1202" 
d="M1128 795l-137 -641q-18 -82 -34 -140.5t-41 -123t-54.5 -109t-72.5 -86.5t-96 -66.5t-124.5 -39.5t-158.5 -15q-82 0 -148.5 12.5t-111 32t-77.5 49t-51 58t-29 64.5t-14 62.5t-4 57.5h283q3 -55 44 -91t130 -36q116 0 175.5 74t99.5 249l6 33q-103 -127 -295 -127
q-168 0 -260 112.5t-92 299.5q0 94 23 187.5t69.5 178t110 149.5t150.5 103.5t185 38.5q115 0 186 -36t95 -91q4 15 11 35.5t15.5 43t10.5 28.5h266q-6 -26 -18.5 -79.5t-23 -100t-18.5 -86.5zM647 856q-69 0 -126 -37.5t-91.5 -98t-53 -132t-18.5 -144.5q0 -100 43.5 -153
t128.5 -53q107 0 178.5 84t104.5 235q10 46 13 86t-4 80.5t-26 69t-57 46t-92 17.5zM856 1190h-260l-156 285h240l70 -150l122 150h269z" />
    <glyph glyph-name="uni0218" unicode="&#x218;" horiz-adv-x="1239" 
d="M31 434h293q9 -110 79.5 -171.5t200.5 -61.5q242 0 242 186q0 80 -57 130.5t-201 100.5q-212 72 -302.5 165t-90.5 227q0 87 31.5 162t93.5 134t163.5 92.5t231.5 33.5q240 0 373.5 -113t136.5 -303h-293q-13 190 -232 190q-93 0 -149.5 -42t-56.5 -122
q0 -61 47.5 -103.5t177.5 -88.5q224 -78 327 -175.5t103 -252.5q0 -70 -17.5 -132t-59.5 -120t-106 -99t-164 -66t-227 -25q-259 0 -398.5 121t-145.5 333zM457 -514h-250q76 89 132.5 201.5t76.5 193.5h276q-32 -123 -99 -228t-136 -167z" />
    <glyph glyph-name="uni0219" unicode="&#x219;" horiz-adv-x="1015" 
d="M16 328h281q12 -142 184 -142q152 0 152 121q0 49 -42.5 79.5t-146.5 62.5q-181 57 -252 124.5t-71 169.5q0 148 113.5 243t318.5 95q107 0 190.5 -26t133 -71t74 -101.5t22.5 -120.5h-283q-8 112 -151 112q-60 0 -100 -22.5t-40 -73.5q0 -40 38.5 -62t148.5 -59
q182 -57 258 -132.5t76 -188.5q0 -89 -38 -158.5t-103.5 -111.5t-148.5 -64t-179 -22q-213 0 -328.5 91.5t-106.5 256.5zM326 -516h-250q76 89 132.5 201.5t76.5 193.5h276q-32 -123 -99 -228t-136 -167z" />
    <glyph glyph-name="uni021A" unicode="&#x21a;" horiz-adv-x="1138" 
d="M301 0l250 1176h-414l51 235h1112l-51 -235h-411l-248 -1176h-289zM330 -514h-250q76 89 132.5 201.5t76.5 193.5h276q-32 -123 -99 -228t-136 -167z" />
    <glyph glyph-name="uni021B" unicode="&#x21b;" horiz-adv-x="708" 
d="M90 848l47 213h158l61 285h277l-60 -285h199l-47 -213h-199l-112 -535q-10 -56 3.5 -82t71.5 -26q45 0 91 6l-41 -201q-63 -20 -189 -20q-156 0 -202.5 80t-14.5 231l115 547h-158zM190 -516h-249q76 89 132.5 201.5t76.5 193.5h276q-32 -123 -99 -227.5t-137 -167.5z
" />
    <glyph glyph-name="uni0237" unicode="&#x237;" horiz-adv-x="542" 
d="M248 1061h278l-241 -1133q-39 -189 -131 -271.5t-254 -82.5q-63 0 -129 8l61 232q12 -2 35 -2q69 0 99 33t44 108z" />
    <glyph glyph-name="uni0251" unicode="&#x251;" horiz-adv-x="1226" 
d="M930 1061h274l-164 -774q-56 -268 -59 -287h-268q3 59 16 125q-54 -74 -127.5 -109.5t-193.5 -35.5q-155 0 -246.5 114t-91.5 307q0 123 39 243t109.5 218t180 158.5t238.5 60.5q106 0 176 -34.5t90 -79.5q24 87 27 94zM662 850q-70 0 -129 -39.5t-95.5 -101.5
t-57 -134.5t-20.5 -142.5q0 -100 39.5 -160.5t118.5 -60.5q123 0 201 99.5t112 258.5q28 135 -14 208t-155 73z" />
    <glyph glyph-name="uni0259" unicode="&#x259;" horiz-adv-x="1132" 
d="M94 594h680q8 46 8 63q0 93 -40 151t-128 58q-79 0 -123 -33.5t-75 -95.5h-291q19 52 45 97t69.5 92t97 80t131.5 54t169 21q208 0 316 -117.5t108 -316.5q0 -73 -13.5 -147.5t-41 -150.5t-74.5 -141.5t-108.5 -117t-148 -81t-188.5 -29.5q-113 0 -196.5 32.5t-131.5 90
t-70.5 128.5t-22.5 156q0 104 28 207zM737 408h-401q-4 -18 -4 -48q0 -76 39 -124t125 -48q182 0 241 220z" />
    <glyph glyph-name="uni0261" unicode="&#x261;" horiz-adv-x="1202" 
d="M1128 795l-137 -641q-18 -82 -34 -140.5t-41 -123t-54.5 -109t-72.5 -86.5t-96 -66.5t-124.5 -39.5t-158.5 -15q-82 0 -148.5 12.5t-111 32t-77.5 49t-51 58t-29 64.5t-14 62.5t-4 57.5h283q3 -55 44 -91t130 -36q116 0 175.5 74t99.5 249l6 33q-103 -127 -295 -127
q-168 0 -260 112.5t-92 299.5q0 94 23 187.5t69.5 178t110 149.5t150.5 103.5t185 38.5q115 0 186 -36t95 -91q4 15 11 35.5t15.5 43t10.5 28.5h266q-6 -26 -18.5 -79.5t-23 -100t-18.5 -86.5zM647 856q-69 0 -126 -37.5t-91.5 -98t-53 -132t-18.5 -144.5q0 -100 43.5 -153
t128.5 -53q107 0 178.5 84t104.5 235q10 46 13 86t-4 80.5t-26 69t-57 46t-92 17.5z" />
    <glyph glyph-name="uni02BB" unicode="&#x2bb;" horiz-adv-x="794" 
d="M561 1495h236q-72 -132 -137.5 -301t-92.5 -297h-286q36 148 116 317.5t164 280.5z" />
    <glyph glyph-name="uni02BC" unicode="&#x2bc;" horiz-adv-x="794" 
d="M516 897h-235q71 131 136.5 300t92.5 298h285q-35 -147 -114.5 -316.5t-164.5 -281.5z" />
    <glyph glyph-name="uni02BE" unicode="&#x2be;" horiz-adv-x="663" 
d="M399 1436l27 135q88 0 148.5 -50.5t60.5 -136.5q0 -111 -85 -174t-212 -61l31 137q42 3 70 26.5t28 59.5q0 54 -68 64z" />
    <glyph glyph-name="uni02BF" unicode="&#x2bf;" horiz-adv-x="663" 
d="M616 1282l-26 -135q-89 0 -149 50t-60 136q0 111 85 174.5t212 61.5l-31 -137q-42 -3 -70 -26.5t-28 -59.5q0 -54 67 -64z" />
    <glyph glyph-name="circumflex" unicode="&#x2c6;" 
d="M469 1479h262l154 -287h-246l-70 149l-125 -149h-260z" />
    <glyph glyph-name="caron" unicode="&#x2c7;" 
d="M676 1190h-260l-156 285h240l69 -150l123 150h269z" />
    <glyph glyph-name="uni02C8" unicode="&#x2c8;" horiz-adv-x="653" 
d="M575 1135h-239l80 391h243z" />
    <glyph glyph-name="uni02C9" unicode="&#x2c9;" horiz-adv-x="999" 
d="M401 1452h590l-47 -215h-590z" />
    <glyph glyph-name="uni02CA" unicode="&#x2ca;" horiz-adv-x="966" 
d="M698 1507h363l-422 -295h-270z" />
    <glyph glyph-name="uni02CB" unicode="&#x2cb;" horiz-adv-x="948" 
d="M356 1507h318l200 -295h-239z" />
    <glyph glyph-name="uni02CC" unicode="&#x2cc;" horiz-adv-x="653" 
d="M227 -504h-239l80 391h243z" />
    <glyph glyph-name="breve" unicode="&#x2d8;" 
d="M279 1473h192q-2 -48 22.5 -77.5t77.5 -29.5q32 0 55.5 8t40.5 26t26.5 32.5t23.5 40.5h190q-95 -295 -364 -295q-78 0 -135 24.5t-87 67t-40.5 94t-1.5 109.5z" />
    <glyph glyph-name="dotaccent" unicode="&#x2d9;" 
d="M666 1231h-279l55 260h279z" />
    <glyph glyph-name="ring" unicode="&#x2da;" 
d="M535 1151q-101 0 -158.5 51.5t-57.5 132.5q0 104 76.5 170t190.5 66q100 0 155.5 -54t55.5 -135q0 -102 -73.5 -166.5t-188.5 -64.5zM545 1272q40 0 74 27t34 75q0 35 -20 56.5t-62 21.5q-43 0 -74.5 -27t-31.5 -77q0 -27 20.5 -51.5t59.5 -24.5z" />
    <glyph glyph-name="ogonek" unicode="&#x2db;" 
d="M322 76l129 -74q-136 -119 -136 -197q0 -81 101 -81q60 0 104 14l-41 -193q-63 -28 -178 -28q-116 0 -181 56t-65 153q0 181 267 350z" />
    <glyph glyph-name="tilde" unicode="&#x2dc;" 
d="M383 1206h-180l14 80q23 118 75 161.5t138 43.5q51 0 103 -23.5t92.5 -47t64.5 -23.5q49 0 66 78l4 18h178l-12 -63q-23 -131 -79 -179.5t-149 -48.5q-51 0 -101 22.5t-88.5 45t-62.5 22.5q-44 0 -57 -55z" />
    <glyph glyph-name="hungarumlaut" unicode="&#x2dd;" 
d="M750 1493l-340 -303h-236l279 303h297zM1165 1493l-338 -303h-233l278 303h293z" />
    <glyph glyph-name="uni0300" unicode="&#x300;" horiz-adv-x="0" 
d="M-262 1507h317l201 -295h-240z" />
    <glyph glyph-name="uni0301" unicode="&#x301;" horiz-adv-x="0" 
d="M90 1507h363l-422 -295h-271z" />
    <glyph glyph-name="uni0302" unicode="&#x302;" horiz-adv-x="0" 
d="M-37 1479h262l154 -287h-246l-70 149l-124 -149h-261z" />
    <glyph glyph-name="uni0303" unicode="&#x303;" horiz-adv-x="0" 
d="M-123 1206h-180l14 80q23 118 75 161.5t138 43.5q51 0 103 -23.5t92.5 -47t64.5 -23.5q49 0 66 78l4 18h178l-12 -63q-23 -131 -78.5 -179.5t-148.5 -48.5q-51 0 -101 22.5t-88.5 45t-62.5 22.5q-45 0 -58 -55z" />
    <glyph glyph-name="uni0304" unicode="&#x304;" horiz-adv-x="0" 
d="M-213 1452h590l-47 -215h-590z" />
    <glyph glyph-name="uni0306" unicode="&#x306;" horiz-adv-x="0" 
d="M-227 1473h192q-2 -47 23 -77t78 -30q31 0 54.5 8t41 26t26.5 32t23 41h190q-95 -295 -364 -295q-78 0 -135 24.5t-87 67t-40.5 94t-1.5 109.5z" />
    <glyph glyph-name="uni0307" unicode="&#x307;" horiz-adv-x="0" 
d="M160 1231h-279l56 260h278z" />
    <glyph glyph-name="uni0308" unicode="&#x308;" horiz-adv-x="0" 
d="M-61 1231h-228l56 260h227zM326 1231h-228l56 260h227z" />
    <glyph glyph-name="uni0309" unicode="&#x309;" horiz-adv-x="0" 
d="M106 1188h-235q3 2 27.5 19.5t33.5 24.5t29.5 24.5t29.5 30t17 30t8 33.5q0 47 -57 47q-64 0 -111 -31l-32 141q100 66 219 66q97 0 151 -49t54 -115q0 -121 -134 -221z" />
    <glyph glyph-name="uni030A" unicode="&#x30a;" horiz-adv-x="0" 
d="M29 1151q-100 0 -157.5 51t-57.5 133q0 104 76 170t190 66q100 0 155.5 -54t55.5 -135q0 -102 -73.5 -166.5t-188.5 -64.5zM39 1272q40 0 74 27t34 75q0 35 -19.5 56.5t-61.5 21.5q-43 0 -75 -27t-32 -77q0 -27 20.5 -51.5t59.5 -24.5z" />
    <glyph glyph-name="uni030B" unicode="&#x30b;" horiz-adv-x="0" 
d="M164 1493l-340 -303h-236l279 303h297zM580 1493l-338 -303h-234l279 303h293z" />
    <glyph glyph-name="uni030C" unicode="&#x30c;" horiz-adv-x="0" 
d="M242 1190h-260l-156 285h240l69 -150l123 150h268z" />
    <glyph glyph-name="uni031B" unicode="&#x31b;" horiz-adv-x="0" 
d="M2 920l-39 190q69 8 100 43t31 113q0 40 -6 75h252q4 -28 4 -53q0 -335 -342 -368z" />
    <glyph glyph-name="uni0323" unicode="&#x323;" horiz-adv-x="0" 
d="M-147 -410h-289l59 287h291z" />
    <glyph glyph-name="uni0324" unicode="&#x324;" horiz-adv-x="0" 
d="M-410 -410h-227l55 260h228zM-23 -410h-227l55 260h228z" />
    <glyph glyph-name="uni0326" unicode="&#x326;" horiz-adv-x="0" 
d="M-201 -516h-250q76 89 132.5 201.5t76.5 193.5h277q-32 -123 -99 -227.5t-137 -167.5z" />
    <glyph glyph-name="uni0327" unicode="&#x327;" horiz-adv-x="0" 
d="M-283 20l183 -20l-90 -88q70 -21 116.5 -66t46.5 -116q0 -110 -82 -169t-213 -59q-113 0 -208 31l38 152q56 -17 132 -17q102 0 102 53q0 60 -191 68l17 72z" />
    <glyph glyph-name="uni0328" unicode="&#x328;" horiz-adv-x="0" 
d="M-213 76l129 -74q-135 -119 -135 -197q0 -81 100 -81q61 0 105 14l-41 -193q-63 -28 -178 -28q-116 0 -181 56t-65 153q0 182 266 350z" />
    <glyph glyph-name="uni032E" unicode="&#x32e;" horiz-adv-x="0" 
d="M-565 -125h192q-2 -47 23 -76.5t78 -29.5q41 0 71 17t42.5 35t31.5 54h190q-95 -295 -364 -295q-78 0 -135 24.5t-87 67t-40.5 94t-1.5 109.5z" />
    <glyph glyph-name="uni0331" unicode="&#x331;" horiz-adv-x="0" 
d="M-555 -156h590l-47 -215h-590z" />
    <glyph glyph-name="pi" unicode="&#x3c0;" horiz-adv-x="1183" 
d="M614 0l181 844h-299l-179 -844h-260l179 844q-124 0 -173 -10l50 206q86 21 340 21h825l-53 -217h-150l-184 -844h-277z" />
    <glyph glyph-name="uni1E0C" unicode="&#x1e0c;" horiz-adv-x="1466" 
d="M49 0l299 1411h455q281 0 443.5 -158.5t162.5 -441.5q0 -171 -55 -318.5t-156.5 -257.5t-256.5 -172.5t-345 -62.5h-547zM588 1182l-201 -951h219q230 0 364 153.5t134 422.5q0 186 -86.5 280.5t-249.5 94.5h-180zM643 -410h-289l60 287h291z" />
    <glyph glyph-name="uni1E0D" unicode="&#x1e0d;" horiz-adv-x="1226" 
d="M1016 1495h278l-254 -1208q-56 -268 -59 -287h-268q3 59 16 125q-105 -145 -307 -145q-168 0 -260 111.5t-92 307.5q0 98 22.5 195t69.5 185t112.5 155t157.5 107t199 40q106 0 179.5 -34.5t92.5 -77.5zM662 850q-71 0 -130 -38.5t-95.5 -100t-56.5 -134.5t-20 -145
q0 -221 172 -221q234 0 299 358q55 281 -169 281zM621 -410h-289l59 287h291z" />
    <glyph glyph-name="uni1E0E" unicode="&#x1e0e;" horiz-adv-x="1466" 
d="M49 0l299 1411h455q281 0 443.5 -158.5t162.5 -441.5q0 -171 -55 -318.5t-156.5 -257.5t-256.5 -172.5t-345 -62.5h-547zM588 1182l-201 -951h219q230 0 364 153.5t134 422.5q0 186 -86.5 280.5t-249.5 94.5h-180zM217 -156h590l-47 -215h-590z" />
    <glyph glyph-name="uni1E0F" unicode="&#x1e0f;" horiz-adv-x="1226" 
d="M1016 1495h278l-254 -1208q-56 -268 -59 -287h-268q3 59 16 125q-105 -145 -307 -145q-168 0 -260 111.5t-92 307.5q0 98 22.5 195t69.5 185t112.5 155t157.5 107t199 40q106 0 179.5 -34.5t92.5 -77.5zM662 850q-71 0 -130 -38.5t-95.5 -100t-56.5 -134.5t-20 -145
q0 -221 172 -221q234 0 299 358q55 281 -169 281zM199 -156h589l-47 -215h-589z" />
    <glyph glyph-name="uni1E20" unicode="&#x1e20;" horiz-adv-x="1458" 
d="M1374 793l-151 -793h-226q-6 52 13 154q-70 -93 -165.5 -133.5t-230.5 -40.5q-162 0 -275.5 74.5t-167.5 201.5t-54 295q0 128 29.5 252.5t92 238.5t151.5 200.5t217.5 138t279.5 51.5q246 0 388 -126.5t142 -326.5h-289q-2 41 -17.5 78.5t-46 71t-85 53.5t-127.5 20
q-88 0 -162 -39t-123.5 -103.5t-84.5 -147.5t-50.5 -169.5t-15.5 -171.5q0 -170 70 -265t214 -95q85 0 148 26t101 75t59 101t36 122l3 6h-326l53 252h600zM649 1763h606l-43 -207h-606z" />
    <glyph glyph-name="uni1E21" unicode="&#x1e21;" horiz-adv-x="1202" 
d="M1128 795l-137 -641q-18 -82 -34 -140.5t-41 -123t-54.5 -109t-72.5 -86.5t-96 -66.5t-124.5 -39.5t-158.5 -15q-82 0 -148.5 12.5t-111 32t-77.5 49t-51 58t-29 64.5t-14 62.5t-4 57.5h283q3 -55 44 -91t130 -36q116 0 175.5 74t99.5 249l6 33q-103 -127 -295 -127
q-168 0 -260 112.5t-92 299.5q0 94 23 187.5t69.5 178t110 149.5t150.5 103.5t185 38.5q115 0 186 -36t95 -91q4 15 11 35.5t15.5 43t10.5 28.5h266q-6 -26 -18.5 -79.5t-23 -100t-18.5 -86.5zM647 856q-69 0 -126 -37.5t-91.5 -98t-53 -132t-18.5 -144.5q0 -100 43.5 -153
t128.5 -53q107 0 178.5 84t104.5 235q10 46 13 86t-4 80.5t-26 69t-57 46t-92 17.5zM485 1452h590l-47 -215h-590z" />
    <glyph glyph-name="uni1E24" unicode="&#x1e24;" horiz-adv-x="1449" 
d="M49 0l299 1411h289l-117 -547h549l117 547h289l-299 -1411h-289l133 627h-549l-133 -627h-289zM690 -389h-289l60 287h291z" />
    <glyph glyph-name="uni1E25" unicode="&#x1e25;" horiz-adv-x="1183" 
d="M23 0l315 1495h278l-118 -569q125 155 319 155q73 0 128.5 -21t97 -68.5t51 -124.5t-10.5 -189l-143 -678h-276l133 639q23 107 -3.5 158t-115.5 51q-100 0 -162 -66.5t-88 -181.5l-127 -600h-278zM547 -410h-289l59 287h291z" />
    <glyph glyph-name="uni1E2A" unicode="&#x1e2a;" horiz-adv-x="1449" 
d="M49 0l299 1411h289l-117 -547h549l117 547h289l-299 -1411h-289l133 627h-549l-133 -627h-289zM285 -125h192q-2 -47 23 -76.5t78 -29.5q41 0 71 17t42.5 35t31.5 54h190q-95 -295 -364 -295q-78 0 -135 24.5t-87 67t-40.5 94t-1.5 109.5z" />
    <glyph glyph-name="uni1E2B" unicode="&#x1e2b;" horiz-adv-x="1183" 
d="M23 0l315 1495h278l-118 -569q125 155 319 155q73 0 128.5 -21t97 -68.5t51 -124.5t-10.5 -189l-143 -678h-276l133 639q23 107 -3.5 158t-115.5 51q-100 0 -162 -66.5t-88 -181.5l-127 -600h-278zM152 -125h192q-2 -48 22.5 -77t77.5 -29q32 0 55.5 8t40.5 25.5t26.5 32
t23.5 40.5h190q-95 -295 -364 -295q-78 0 -135 24.5t-87 67t-40.5 94t-1.5 109.5z" />
    <glyph glyph-name="uni1E36" unicode="&#x1e36;" horiz-adv-x="1146" 
d="M49 0l299 1411h289l-250 -1173h678l-80 -238h-936zM612 -410h-288l59 287h291z" />
    <glyph glyph-name="uni1E37" unicode="&#x1e37;" horiz-adv-x="542" 
d="M301 0h-278l315 1495h278zM227 -410h-288l59 287h291z" />
    <glyph glyph-name="uni1E38" unicode="&#x1e38;" horiz-adv-x="1146" 
d="M49 0l299 1411h289l-250 -1173h678l-80 -238h-936zM616 -410h-288l59 287h291zM250 1741h606l-43 -207h-606z" />
    <glyph glyph-name="uni1E39" unicode="&#x1e39;" horiz-adv-x="542" 
d="M301 0h-278l315 1495h278zM246 1847h590l-48 -215h-589zM227 -410h-288l59 287h291z" />
    <glyph glyph-name="uni1E3A" unicode="&#x1e3a;" horiz-adv-x="1146" 
d="M49 0l299 1411h289l-250 -1173h678l-80 -238h-936zM207 -154h590l-47 -215h-590z" />
    <glyph glyph-name="uni1E3B" unicode="&#x1e3b;" horiz-adv-x="542" 
d="M301 0h-278l315 1495h278zM-156 -154h590l-47 -215h-590z" />
    <glyph glyph-name="uni1E42" unicode="&#x1e42;" horiz-adv-x="1736" 
d="M1182 0l110 530q83 392 154 682h-8q-193 -440 -572 -1212h-250q-53 922 -53 1217h-10q-37 -267 -131 -711l-109 -506h-266l299 1411h436q45 -669 45 -1034h2q33 84 112 248.5t199 406.5t185 379h436l-299 -1411h-280zM809 -410h-289l60 287h290z" />
    <glyph glyph-name="uni1E43" unicode="&#x1e43;" horiz-adv-x="1732" 
d="M23 0l161 762q7 34 20 95t23 111t17 93h272q-13 -86 -20 -125q58 72 125 108.5t170 36.5q208 0 241 -172q135 172 346 172q70 0 124 -20.5t93.5 -66.5t48 -121t-11.5 -183l-147 -690h-271l140 655q41 195 -115 195q-92 0 -142.5 -63t-76.5 -191l-127 -596h-275l142 659
q37 189 -115 189q-92 0 -144.5 -64t-80.5 -202l-123 -582h-274zM821 -410h-289l60 287h291z" />
    <glyph glyph-name="uni1E44" unicode="&#x1e44;" horiz-adv-x="1482" 
d="M319 0h-272l299 1411h373q8 -26 45 -149.5t53.5 -180t50.5 -172t53 -183.5t42 -153.5t36 -143.5t19 -95h4q6 46 14.5 100t25 136.5t24.5 120.5t32.5 152.5t28.5 133.5l92 434h270l-301 -1411h-352q-275 948 -303 1130h-4q-23 -151 -135 -684zM1063 1528h-279l56 262h278z
" />
    <glyph glyph-name="uni1E45" unicode="&#x1e45;" horiz-adv-x="1183" 
d="M23 0l167 791q6 30 18 85t21 100t15 85h272q-4 -61 -20 -133q119 153 319 153q165 0 237 -107.5t23 -332.5l-135 -641h-276l135 643q22 95 -6 150t-113 55q-199 0 -264 -299l-115 -549h-278zM850 1231h-279l56 260h278z" />
    <glyph glyph-name="uni1E46" unicode="&#x1e46;" horiz-adv-x="1482" 
d="M319 0h-272l299 1411h373q8 -26 45 -149.5t53.5 -180t50.5 -172t53 -183.5t42 -153.5t36 -143.5t19 -95h4q6 46 14.5 100t25 136.5t24.5 120.5t32.5 152.5t28.5 133.5l92 434h270l-301 -1411h-352q-275 948 -303 1130h-4q-23 -151 -135 -684zM711 -406h-289l59 287h291z
" />
    <glyph glyph-name="uni1E47" unicode="&#x1e47;" horiz-adv-x="1183" 
d="M23 0l167 791q6 30 18 85t21 100t15 85h272q-4 -61 -20 -133q119 153 319 153q165 0 237 -107.5t23 -332.5l-135 -641h-276l135 643q22 95 -6 150t-113 55q-199 0 -264 -299l-115 -549h-278zM549 -410h-289l59 287h291z" />
    <glyph glyph-name="uni1E48" unicode="&#x1e48;" horiz-adv-x="1482" 
d="M319 0h-272l299 1411h373q8 -26 45 -149.5t53.5 -180t50.5 -172t53 -183.5t42 -153.5t36 -143.5t19 -95h4q6 46 14.5 100t25 136.5t24.5 120.5t32.5 152.5t28.5 133.5l92 434h270l-301 -1411h-352q-275 948 -303 1130h-4q-23 -151 -135 -684zM350 -147h590l-47 -215h-590
z" />
    <glyph glyph-name="uni1E49" unicode="&#x1e49;" horiz-adv-x="1183" 
d="M23 0l167 791q6 30 18 85t21 100t15 85h272q-4 -61 -20 -133q119 153 319 153q165 0 237 -107.5t23 -332.5l-135 -641h-276l135 643q22 95 -6 150t-113 55q-199 0 -264 -299l-115 -549h-278zM164 -156h590l-47 -215h-590z" />
    <glyph glyph-name="uni1E5A" unicode="&#x1e5a;" horiz-adv-x="1318" 
d="M711 575h-254l-121 -575h-287l299 1411h539q201 0 315.5 -98t114.5 -271q0 -142 -78 -237t-213 -131q169 -80 117 -336q-31 -149 -42.5 -221t-6.5 -117h-275q-12 90 41 338q26 122 -5.5 179.5t-143.5 57.5zM584 1182l-80 -375h237q281 0 281 207q0 168 -205 168h-233z
M655 -389h-288l59 287h291z" />
    <glyph glyph-name="uni1E5B" unicode="&#x1e5b;" horiz-adv-x="786" 
d="M834 1081l-56 -280q-149 -2 -246 -86t-133 -254l-98 -461h-278l159 745q23 106 62 316h268q-5 -69 -31 -193q59 104 141 158.5t212 54.5zM227 -410h-288l59 287h291z" />
    <glyph glyph-name="uni1E5C" unicode="&#x1e5c;" horiz-adv-x="1318" 
d="M711 575h-254l-121 -575h-287l299 1411h539q201 0 315.5 -98t114.5 -271q0 -142 -78 -237t-213 -131q169 -80 117 -336q-31 -149 -42.5 -221t-6.5 -117h-275q-12 90 41 338q26 122 -5.5 179.5t-143.5 57.5zM584 1182l-80 -375h237q281 0 281 207q0 168 -205 168h-233z
M655 -389h-288l59 287h291zM580 1765h606l-43 -206h-606z" />
    <glyph glyph-name="uni1E5D" unicode="&#x1e5d;" horiz-adv-x="786" 
d="M834 1081l-56 -280q-149 -2 -246 -86t-133 -254l-98 -461h-278l159 745q23 106 62 316h268q-5 -69 -31 -193q59 104 141 158.5t212 54.5zM303 1452h590l-47 -215h-590zM227 -410h-288l59 287h291z" />
    <glyph glyph-name="uni1E5E" unicode="&#x1e5e;" horiz-adv-x="1318" 
d="M711 575h-254l-121 -575h-287l299 1411h539q201 0 315.5 -98t114.5 -271q0 -142 -78 -237t-213 -131q169 -80 117 -336q-31 -149 -42.5 -221t-6.5 -117h-275q-12 90 41 338q26 122 -5.5 179.5t-143.5 57.5zM584 1182l-80 -375h237q281 0 281 207q0 168 -205 168h-233z
M252 -156h590l-47 -215h-590z" />
    <glyph glyph-name="uni1E5F" unicode="&#x1e5f;" horiz-adv-x="786" 
d="M834 1081l-56 -280q-149 -2 -246 -86t-133 -254l-98 -461h-278l159 745q23 106 62 316h268q-5 -69 -31 -193q59 104 141 158.5t212 54.5zM-150 -156h590l-47 -215h-590z" />
    <glyph glyph-name="uni1E60" unicode="&#x1e60;" horiz-adv-x="1239" 
d="M31 434h293q9 -110 79.5 -171.5t200.5 -61.5q242 0 242 186q0 80 -57 130.5t-201 100.5q-212 72 -302.5 165t-90.5 227q0 87 31.5 162t93.5 134t163.5 92.5t231.5 33.5q240 0 373.5 -113t136.5 -303h-293q-13 190 -232 190q-93 0 -149.5 -42t-56.5 -122
q0 -61 47.5 -103.5t177.5 -88.5q224 -78 327 -175.5t103 -252.5q0 -70 -17.5 -132t-59.5 -120t-106 -99t-164 -66t-227 -25q-259 0 -398.5 121t-145.5 333zM915 1542h-278l55 262h279z" />
    <glyph glyph-name="uni1E61" unicode="&#x1e61;" horiz-adv-x="1015" 
d="M16 328h281q12 -142 184 -142q152 0 152 121q0 49 -42.5 79.5t-146.5 62.5q-181 57 -252 124.5t-71 169.5q0 148 113.5 243t318.5 95q107 0 190.5 -26t133 -71t74 -101.5t22.5 -120.5h-283q-8 112 -151 112q-60 0 -100 -22.5t-40 -73.5q0 -40 38.5 -62t148.5 -59
q182 -57 258 -132.5t76 -188.5q0 -89 -38 -158.5t-103.5 -111.5t-148.5 -64t-179 -22q-213 0 -328.5 91.5t-106.5 256.5zM764 1231h-279l56 260h278z" />
    <glyph glyph-name="uni1E62" unicode="&#x1e62;" horiz-adv-x="1239" 
d="M31 434h293q9 -110 79.5 -171.5t200.5 -61.5q242 0 242 186q0 80 -57 130.5t-201 100.5q-212 72 -302.5 165t-90.5 227q0 87 31.5 162t93.5 134t163.5 92.5t231.5 33.5q240 0 373.5 -113t136.5 -303h-293q-13 190 -232 190q-93 0 -149.5 -42t-56.5 -122
q0 -61 47.5 -103.5t177.5 -88.5q224 -78 327 -175.5t103 -252.5q0 -70 -17.5 -132t-59.5 -120t-106 -99t-164 -66t-227 -25q-259 0 -398.5 121t-145.5 333zM614 -428h-288l59 287h291z" />
    <glyph glyph-name="uni1E63" unicode="&#x1e63;" horiz-adv-x="1015" 
d="M16 328h281q12 -142 184 -142q152 0 152 121q0 49 -42.5 79.5t-146.5 62.5q-181 57 -252 124.5t-71 169.5q0 148 113.5 243t318.5 95q107 0 190.5 -26t133 -71t74 -101.5t22.5 -120.5h-283q-8 112 -151 112q-60 0 -100 -22.5t-40 -73.5q0 -40 38.5 -62t148.5 -59
q182 -57 258 -132.5t76 -188.5q0 -89 -38 -158.5t-103.5 -111.5t-148.5 -64t-179 -22q-213 0 -328.5 91.5t-106.5 256.5zM485 -410h-288l59 287h291z" />
    <glyph glyph-name="uni1E6C" unicode="&#x1e6c;" horiz-adv-x="1138" 
d="M301 0l250 1176h-414l51 235h1112l-51 -235h-411l-248 -1176h-289zM508 -414h-289l60 287h290z" />
    <glyph glyph-name="uni1E6D" unicode="&#x1e6d;" horiz-adv-x="708" 
d="M90 848l47 213h158l61 285h277l-60 -285h199l-47 -213h-199l-112 -535q-10 -56 3.5 -82t71.5 -26q45 0 91 6l-41 -201q-63 -20 -189 -20q-156 0 -202.5 80t-14.5 231l115 547h-158zM354 -410h-288l59 287h291z" />
    <glyph glyph-name="uni1E6E" unicode="&#x1e6e;" horiz-adv-x="1138" 
d="M301 0l250 1176h-414l51 235h1112l-51 -235h-411l-248 -1176h-289zM133 -156h590l-47 -215h-590z" />
    <glyph glyph-name="uni1E6F" unicode="&#x1e6f;" horiz-adv-x="708" 
d="M90 848l47 213h158l61 285h277l-60 -285h199l-47 -213h-199l-112 -535q-10 -56 3.5 -82t71.5 -26q45 0 91 6l-41 -201q-63 -20 -189 -20q-156 0 -202.5 80t-14.5 231l115 547h-158zM-20 -147h589l-47 -215h-590z" />
    <glyph glyph-name="Wgrave" unicode="&#x1e80;" horiz-adv-x="1841" 
d="M530 0h-292l-45 1411h284q-1 -124 -1.5 -425.5t-3.5 -459t-11 -227.5h2q29 87 118 282t216 463.5t172 366.5h252q38 -861 28 -1096h2q22 68 66.5 178.5t86.5 208.5t140.5 325.5t165.5 383.5h285l-676 -1411h-293q-1 67 -14.5 469t-12.5 545h-2q-31 -90 -95.5 -237
t-119 -259.5t-141.5 -289.5t-111 -228zM596 1817h354l293 -285h-272z" />
    <glyph glyph-name="wgrave" unicode="&#x1e81;" horiz-adv-x="1554" 
d="M123 1061h276q11 -640 4 -782h5q80 200 342 782h264q5 -644 -8 -791h2q143 362 342 791h288l-532 -1061h-299q-16 473 -6 713h-2q-14 -40 -33 -86.5t-50.5 -116.5t-58.5 -129.5t-81 -175.5t-95 -205h-299zM520 1507h318l200 -295h-239z" />
    <glyph glyph-name="Wacute" unicode="&#x1e82;" horiz-adv-x="1841" 
d="M530 0h-292l-45 1411h284q-1 -124 -1.5 -425.5t-3.5 -459t-11 -227.5h2q29 87 118 282t216 463.5t172 366.5h252q38 -861 28 -1096h2q22 68 66.5 178.5t86.5 208.5t140.5 325.5t165.5 383.5h285l-676 -1411h-293q-1 67 -14.5 469t-12.5 545h-2q-31 -90 -95.5 -237
t-119 -259.5t-141.5 -289.5t-111 -228zM1311 1810h391l-467 -284h-285z" />
    <glyph glyph-name="wacute" unicode="&#x1e83;" horiz-adv-x="1554" 
d="M123 1061h276q11 -640 4 -782h5q80 200 342 782h264q5 -644 -8 -791h2q143 362 342 791h288l-532 -1061h-299q-16 473 -6 713h-2q-14 -40 -33 -86.5t-50.5 -116.5t-58.5 -129.5t-81 -175.5t-95 -205h-299zM1081 1507h363l-422 -295h-270z" />
    <glyph glyph-name="Wdieresis" unicode="&#x1e84;" horiz-adv-x="1841" 
d="M530 0h-292l-45 1411h284q-1 -124 -1.5 -425.5t-3.5 -459t-11 -227.5h2q29 87 118 282t216 463.5t172 366.5h252q38 -861 28 -1096h2q22 68 66.5 178.5t86.5 208.5t140.5 325.5t165.5 383.5h285l-676 -1411h-293q-1 67 -14.5 469t-12.5 545h-2q-31 -90 -95.5 -237
t-119 -259.5t-141.5 -289.5t-111 -228zM1010 1536h-228l56 260h227zM1430 1536h-228l55 260h228z" />
    <glyph glyph-name="wdieresis" unicode="&#x1e85;" horiz-adv-x="1554" 
d="M123 1061h276q11 -640 4 -782h5q80 200 342 782h264q5 -644 -8 -791h2q143 362 342 791h288l-532 -1061h-299q-16 473 -6 713h-2q-14 -40 -33 -86.5t-50.5 -116.5t-58.5 -129.5t-81 -175.5t-95 -205h-299zM813 1231h-227l55 260h227zM1200 1231h-227l55 260h227z" />
    <glyph glyph-name="uni1E8E" unicode="&#x1e8e;" horiz-adv-x="1181" 
d="M596 0h-289l107 512q6 25 -2 47l-295 852h299q16 -57 93.5 -313.5t96.5 -345.5q41 66 123.5 181t191.5 262t158 216h310l-668 -868q-17 -26 -21 -45zM883 1530h-279l55 262h279z" />
    <glyph glyph-name="uni1E8F" unicode="&#x1e8f;" horiz-adv-x="1036" 
d="M98 1061h279q56 -646 59 -834h2q220 486 391 834h291l-577 -1108q-53 -103 -101.5 -172t-92 -110t-97.5 -62.5t-102.5 -28t-122.5 -6.5q-70 0 -142 14l52 230q36 -8 92 -8q62 0 103 17.5t61.5 42t44.5 69.5zM756 1231h-279l55 260h279z" />
    <glyph glyph-name="uni1E92" unicode="&#x1e92;" horiz-adv-x="1163" 
d="M-70 0l43 211l908 965h-707l53 235h1045l-51 -233l-881 -940h770l-86 -238h-1094zM580 -430h-289l59 287h291z" />
    <glyph glyph-name="uni1E93" unicode="&#x1e93;" horiz-adv-x="960" 
d="M-41 0l45 211l604 633h-475l47 217h795l-47 -221l-590 -623h526l-80 -217h-825zM457 -428h-289l59 287h291z" />
    <glyph glyph-name="uni1E97" unicode="&#x1e97;" horiz-adv-x="708" 
d="M90 848l47 213h158l61 285h277l-60 -285h199l-47 -213h-199l-112 -535q-10 -56 3.5 -82t71.5 -26q45 0 91 6l-41 -201q-63 -20 -189 -20q-156 0 -202.5 80t-14.5 231l115 547h-158zM440 1456h-227l55 260h228zM827 1456h-227l55 260h228z" />
    <glyph glyph-name="uni1E9E" unicode="&#x1e9e;" horiz-adv-x="1400" 
d="M539 961l-207 -961h-287l209 981q20 93 51 165t73 120.5t90 82t108.5 51t120 25t132.5 7.5q113 0 204 -24t147.5 -62.5t94.5 -88.5t53 -98t15 -96q0 -69 -16 -119l-321 -170l-2 -10l83 -64q117 -91 166.5 -164t49.5 -176q0 -52 -14 -102.5t-48.5 -101t-85.5 -88.5
t-133 -62t-184 -24q-129 0 -227 36t-138 76l57 242q67 -66 151.5 -101.5t160.5 -37.5q79 0 125.5 36.5t46.5 102.5q0 49 -27 86.5t-102 91.5l-166 121q-70 53 -58.5 124t82.5 113l301 172q3 9 3 19q0 22 -9 45t-31.5 49.5t-72.5 43t-121 16.5q-120 0 -182.5 -58t-91.5 -198z
" />
    <glyph glyph-name="uni1EA0" unicode="&#x1ea0;" horiz-adv-x="1314" 
d="M885 334h-498l-174 -334h-303l760 1411h364l185 -1411h-291zM500 571h372q-51 450 -59 621h-2q-107 -228 -311 -621zM655 -389h-288l59 287h291z" />
    <glyph glyph-name="uni1EA1" unicode="&#x1ea1;" horiz-adv-x="1140" 
d="M1047 696l-95 -436q-45 -201 -49 -260h-270q0 7 14 119q-25 -31 -46 -50.5t-58 -42.5t-91 -34.5t-124 -11.5q-75 0 -134 24.5t-93.5 65t-52 87t-17.5 95.5q0 85 29.5 152t75.5 108.5t113.5 71t131 44t141.5 23.5q65 6 238 11l10 49q8 29 6 60.5t-12 57t-43 42t-86 16.5
q-45 0 -76.5 -9.5t-51 -30t-28.5 -34.5t-20 -40q-3 -6 -4 -9h-285q16 68 47 122t86 99.5t145 70.5t209 25q100 0 178 -21.5t135.5 -67.5t76.5 -119t0 -177zM717 459l4 16q-92 0 -184 -10q-116 -19 -167 -58.5t-51 -107.5q0 -49 32.5 -79t97.5 -30q55 0 99 18t70.5 43
t48 65.5t31 70.5t19.5 72zM547 -428h-289l59 287h291z" />
    <glyph glyph-name="uni1EA2" unicode="&#x1ea2;" horiz-adv-x="1314" 
d="M885 334h-498l-174 -334h-303l760 1411h364l185 -1411h-291zM500 571h372q-51 450 -59 621h-2q-107 -228 -311 -621zM958 1507h-235q3 2 27.5 19.5t33.5 24.5t29.5 24.5t29.5 30t17 30t8 33.5q0 47 -57 47q-65 0 -111 -30l-32 141q99 65 219 65q97 0 151 -49t54 -114
q0 -122 -134 -222z" />
    <glyph glyph-name="uni1EA3" unicode="&#x1ea3;" horiz-adv-x="1140" 
d="M1047 696l-95 -436q-45 -201 -49 -260h-270q0 7 14 119q-25 -31 -46 -50.5t-58 -42.5t-91 -34.5t-124 -11.5q-75 0 -134 24.5t-93.5 65t-52 87t-17.5 95.5q0 85 29.5 152t75.5 108.5t113.5 71t131 44t141.5 23.5q65 6 238 11l10 49q8 29 6 60.5t-12 57t-43 42t-86 16.5
q-45 0 -76.5 -9.5t-51 -30t-28.5 -34.5t-20 -40q-3 -6 -4 -9h-285q16 68 47 122t86 99.5t145 70.5t209 25q100 0 178 -21.5t135.5 -67.5t76.5 -119t0 -177zM717 459l4 16q-92 0 -184 -10q-116 -19 -167 -58.5t-51 -107.5q0 -49 32.5 -79t97.5 -30q55 0 99 18t70.5 43
t48 65.5t31 70.5t19.5 72zM817 1188h-235q3 2 27.5 19.5t33.5 24.5t29.5 24.5t29.5 30t17 30t8 33.5q0 47 -57 47q-64 0 -111 -31l-33 141q100 66 219 66q97 0 151 -49t54 -115q0 -121 -133 -221z" />
    <glyph glyph-name="uni1EA4" unicode="&#x1ea4;" horiz-adv-x="1314" 
d="M885 334h-498l-174 -334h-303l760 1411h364l185 -1411h-291zM500 571h372q-51 450 -59 621h-2q-107 -228 -311 -621zM772 1755h275l194 -250h-256l-98 123l-146 -123h-276zM1411 1939h313l-323 -237h-234z" />
    <glyph glyph-name="uni1EA5" unicode="&#x1ea5;" horiz-adv-x="1140" 
d="M1047 696l-95 -436q-45 -201 -49 -260h-270q0 7 14 119q-25 -31 -46 -50.5t-58 -42.5t-91 -34.5t-124 -11.5q-75 0 -134 24.5t-93.5 65t-52 87t-17.5 95.5q0 85 29.5 152t75.5 108.5t113.5 71t131 44t141.5 23.5q65 6 238 11l10 49q8 29 6 60.5t-12 57t-43 42t-86 16.5
q-45 0 -76.5 -9.5t-51 -30t-28.5 -34.5t-20 -40q-3 -6 -4 -9h-285q16 68 47 122t86 99.5t145 70.5t209 25q100 0 178 -21.5t135.5 -67.5t76.5 -119t0 -177zM717 459l4 16q-92 0 -184 -10q-116 -19 -167 -58.5t-51 -107.5q0 -49 32.5 -79t97.5 -30q55 0 99 18t70.5 43
t48 65.5t31 70.5t19.5 72zM612 1446h256l166 -268h-239l-78 137l-133 -137h-250zM1198 1661h299l-307 -254h-221z" />
    <glyph glyph-name="uni1EA6" unicode="&#x1ea6;" horiz-adv-x="1314" 
d="M885 334h-498l-174 -334h-303l760 1411h364l185 -1411h-291zM500 571h372q-51 450 -59 621h-2q-107 -228 -311 -621zM778 1763h275l194 -250h-256l-98 123l-145 -123h-277zM1040 1964h297l185 -258h-211z" />
    <glyph glyph-name="uni1EA7" unicode="&#x1ea7;" horiz-adv-x="1140" 
d="M1047 696l-95 -436q-45 -201 -49 -260h-270q0 7 14 119q-25 -31 -46 -50.5t-58 -42.5t-91 -34.5t-124 -11.5q-75 0 -134 24.5t-93.5 65t-52 87t-17.5 95.5q0 85 29.5 152t75.5 108.5t113.5 71t131 44t141.5 23.5q65 6 238 11l10 49q8 29 6 60.5t-12 57t-43 42t-86 16.5
q-45 0 -76.5 -9.5t-51 -30t-28.5 -34.5t-20 -40q-3 -6 -4 -9h-285q16 68 47 122t86 99.5t145 70.5t209 25q100 0 178 -21.5t135.5 -67.5t76.5 -119t0 -177zM717 459l4 16q-92 0 -184 -10q-116 -19 -167 -58.5t-51 -107.5q0 -49 32.5 -79t97.5 -30q55 0 99 18t70.5 43
t48 65.5t31 70.5t19.5 72zM612 1446h256l166 -268h-243l-78 137l-133 -137h-246zM848 1667h274l187 -299h-207z" />
    <glyph glyph-name="uni1EA8" unicode="&#x1ea8;" horiz-adv-x="1314" 
d="M885 334h-498l-174 -334h-303l760 1411h364l185 -1411h-291zM500 571h372q-51 450 -59 621h-2q-107 -228 -311 -621zM772 1755h275l196 -248h-258l-98 123l-146 -123h-276zM1397 1716h-217q30 20 43.5 30t39.5 32t38 43.5t12 42.5q0 41 -51 41q-52 0 -101 -27l-28 127
q82 59 208 59q86 0 130.5 -43t44.5 -104q0 -113 -119 -201z" />
    <glyph glyph-name="uni1EA9" unicode="&#x1ea9;" horiz-adv-x="1140" 
d="M1047 696l-95 -436q-45 -201 -49 -260h-270q0 7 14 119q-25 -31 -46 -50.5t-58 -42.5t-91 -34.5t-124 -11.5q-75 0 -134 24.5t-93.5 65t-52 87t-17.5 95.5q0 85 29.5 152t75.5 108.5t113.5 71t131 44t141.5 23.5q65 6 238 11l10 49q8 29 6 60.5t-12 57t-43 42t-86 16.5
q-45 0 -76.5 -9.5t-51 -30t-28.5 -34.5t-20 -40q-3 -6 -4 -9h-285q16 68 47 122t86 99.5t145 70.5t209 25q100 0 178 -21.5t135.5 -67.5t76.5 -119t0 -177zM717 459l4 16q-92 0 -184 -10q-116 -19 -167 -58.5t-51 -107.5q0 -49 32.5 -79t97.5 -30q55 0 99 18t70.5 43
t48 65.5t31 70.5t19.5 72zM612 1446h256l166 -268h-243l-78 137l-131 -137h-248zM1190 1376h-197q26 17 40.5 28t39.5 33t38 44.5t13 44.5q0 37 -49 37t-102 -29l-19 127q89 61 207 61q81 0 123.5 -40t42.5 -99q0 -123 -137 -207z" />
    <glyph glyph-name="uni1EAA" unicode="&#x1eaa;" horiz-adv-x="1314" 
d="M885 334h-498l-174 -334h-303l760 1411h364l185 -1411h-291zM500 571h372q-51 450 -59 621h-2q-107 -228 -311 -621zM750 1782h-175l7 33q24 108 75 151t136 43q75 0 175 -32.5t122 -32.5q25 0 39 10.5t20 38.5l2 12h168l-4 -27q-16 -110 -70.5 -154t-138.5 -44
q-65 0 -162.5 31.5t-134.5 31.5q-46 0 -57 -51zM748 1712h311l178 -213h-258l-94 105l-131 -105h-277z" />
    <glyph glyph-name="uni1EAB" unicode="&#x1eab;" horiz-adv-x="1140" 
d="M1047 696l-95 -436q-45 -201 -49 -260h-270q0 7 14 119q-25 -31 -46 -50.5t-58 -42.5t-91 -34.5t-124 -11.5q-75 0 -134 24.5t-93.5 65t-52 87t-17.5 95.5q0 85 29.5 152t75.5 108.5t113.5 71t131 44t141.5 23.5q65 6 238 11l10 49q8 29 6 60.5t-12 57t-43 42t-86 16.5
q-45 0 -76.5 -9.5t-51 -30t-28.5 -34.5t-20 -40q-3 -6 -4 -9h-285q16 68 47 122t86 99.5t145 70.5t209 25q100 0 178 -21.5t135.5 -67.5t76.5 -119t0 -177zM717 459l4 16q-92 0 -184 -10q-116 -19 -167 -58.5t-51 -107.5q0 -49 32.5 -79t97.5 -30q55 0 99 18t70.5 43
t48 65.5t31 70.5t19.5 72zM610 1473h-159l6 53q14 94 68.5 135t131.5 41q65 0 150.5 -33t105.5 -33q22 0 34 10.5t18 39.5l2 12h155l-4 -33q-14 -108 -64.5 -151.5t-127.5 -43.5q-54 0 -145 32t-117 32q-23 0 -34.5 -11.5t-17.5 -39.5zM612 1395h254l191 -230h-246l-92 115
l-133 -115h-256z" />
    <glyph glyph-name="uni1EAC" unicode="&#x1eac;" horiz-adv-x="1314" 
d="M885 334h-498l-174 -334h-303l760 1411h364l185 -1411h-291zM500 571h372q-51 450 -59 621h-2q-107 -228 -311 -621zM674 -389h-289l59 287h291zM784 1792h265l204 -281h-256l-104 144l-160 -144h-278z" />
    <glyph glyph-name="uni1EAD" unicode="&#x1ead;" horiz-adv-x="1140" 
d="M1047 696l-95 -436q-45 -201 -49 -260h-270q0 7 14 119q-25 -31 -46 -50.5t-58 -42.5t-91 -34.5t-124 -11.5q-75 0 -134 24.5t-93.5 65t-52 87t-17.5 95.5q0 85 29.5 152t75.5 108.5t113.5 71t131 44t141.5 23.5q65 6 238 11l10 49q8 29 6 60.5t-12 57t-43 42t-86 16.5
q-45 0 -76.5 -9.5t-51 -30t-28.5 -34.5t-20 -40q-3 -6 -4 -9h-285q16 68 47 122t86 99.5t145 70.5t209 25q100 0 178 -21.5t135.5 -67.5t76.5 -119t0 -177zM717 459l4 16q-92 0 -184 -10q-116 -19 -167 -58.5t-51 -107.5q0 -49 32.5 -79t97.5 -30q55 0 99 18t70.5 43
t48 65.5t31 70.5t19.5 72zM526 -410h-288l59 287h291zM631 1479h262l154 -287h-246l-70 149l-125 -149h-260z" />
    <glyph glyph-name="uni1EAE" unicode="&#x1eae;" horiz-adv-x="1314" 
d="M885 334h-498l-174 -334h-303l760 1411h364l185 -1411h-291zM500 571h372q-51 450 -59 621h-2q-107 -228 -311 -621zM995 2036h357l-338 -205h-246zM549 1767h205q16 -90 120 -90q110 0 164 90h215q-105 -260 -401 -260q-70 0 -125 18.5t-87 46t-53.5 64t-29 68.5
t-8.5 63z" />
    <glyph glyph-name="uni1EAF" unicode="&#x1eaf;" horiz-adv-x="1140" 
d="M1047 696l-95 -436q-45 -201 -49 -260h-270q0 7 14 119q-25 -31 -46 -50.5t-58 -42.5t-91 -34.5t-124 -11.5q-75 0 -134 24.5t-93.5 65t-52 87t-17.5 95.5q0 85 29.5 152t75.5 108.5t113.5 71t131 44t141.5 23.5q65 6 238 11l10 49q8 29 6 60.5t-12 57t-43 42t-86 16.5
q-45 0 -76.5 -9.5t-51 -30t-28.5 -34.5t-20 -40q-3 -6 -4 -9h-285q16 68 47 122t86 99.5t145 70.5t209 25q100 0 178 -21.5t135.5 -67.5t76.5 -119t0 -177zM717 459l4 16q-92 0 -184 -10q-116 -19 -167 -58.5t-51 -107.5q0 -49 32.5 -79t97.5 -30q55 0 99 18t70.5 43
t48 65.5t31 70.5t19.5 72zM860 1704h305l-336 -225h-215zM406 1427h194q0 -44 26.5 -70t82.5 -26q32 0 57 7.5t43 23.5t28.5 29.5t24.5 35.5h193q-22 -58 -51 -102.5t-72 -83.5t-105.5 -60.5t-140.5 -21.5q-76 0 -133 24t-88 64t-46 85.5t-13 94.5z" />
    <glyph glyph-name="uni1EB0" unicode="&#x1eb0;" horiz-adv-x="1314" 
d="M885 334h-498l-174 -334h-303l760 1411h364l185 -1411h-291zM500 571h372q-51 450 -59 621h-2q-107 -228 -311 -621zM500 2038h331l209 -207h-237zM549 1767h205q16 -90 123 -90t161 90h215q-18 -45 -40.5 -81.5t-56.5 -70.5t-76.5 -57t-101.5 -37t-130 -14
q-87 0 -149.5 27.5t-93 70.5t-43.5 83t-13 79z" />
    <glyph glyph-name="uni1EB1" unicode="&#x1eb1;" horiz-adv-x="1140" 
d="M1047 696l-95 -436q-45 -201 -49 -260h-270q0 7 14 119q-25 -31 -46 -50.5t-58 -42.5t-91 -34.5t-124 -11.5q-75 0 -134 24.5t-93.5 65t-52 87t-17.5 95.5q0 85 29.5 152t75.5 108.5t113.5 71t131 44t141.5 23.5q65 6 238 11l10 49q8 29 6 60.5t-12 57t-43 42t-86 16.5
q-45 0 -76.5 -9.5t-51 -30t-28.5 -34.5t-20 -40q-3 -6 -4 -9h-285q16 68 47 122t86 99.5t145 70.5t209 25q100 0 178 -21.5t135.5 -67.5t76.5 -119t0 -177zM717 459l4 16q-92 0 -184 -10q-116 -19 -167 -58.5t-51 -107.5q0 -49 32.5 -79t97.5 -30q55 0 99 18t70.5 43
t48 65.5t31 70.5t19.5 72zM367 1706h295l200 -225h-221zM406 1427h194q0 -44 26.5 -70t82.5 -26q61 0 95.5 26t57.5 70h193q-23 -58 -51 -102.5t-71 -84t-105.5 -60.5t-141.5 -21q-76 0 -133 23.5t-88.5 63t-46 85.5t-12.5 96z" />
    <glyph glyph-name="uni1EB2" unicode="&#x1eb2;" horiz-adv-x="1314" 
d="M885 334h-498l-174 -334h-303l760 1411h364l185 -1411h-291zM500 571h372q-51 450 -59 621h-2q-107 -228 -311 -621zM987 1819h-217q29 20 43 30t39 31.5t37 43t12 42.5q0 19 -14.5 30t-40.5 11q-60 0 -109 -27l4 136q71 51 181 51q87 0 135.5 -44t48.5 -104
q0 -112 -119 -200zM549 1765h207q13 -90 118 -90q110 0 164 90h215q-18 -45 -40.5 -81t-56.5 -70.5t-76 -57.5t-101.5 -37t-130.5 -14q-70 0 -125 19.5t-87 48t-52.5 65t-27.5 67.5t-7 60z" />
    <glyph glyph-name="uni1EB3" unicode="&#x1eb3;" horiz-adv-x="1140" 
d="M1047 696l-95 -436q-45 -201 -49 -260h-270q0 7 14 119q-25 -31 -46 -50.5t-58 -42.5t-91 -34.5t-124 -11.5q-75 0 -134 24.5t-93.5 65t-52 87t-17.5 95.5q0 85 29.5 152t75.5 108.5t113.5 71t131 44t141.5 23.5q65 6 238 11l10 49q8 29 6 60.5t-12 57t-43 42t-86 16.5
q-45 0 -76.5 -9.5t-51 -30t-28.5 -34.5t-20 -40q-3 -6 -4 -9h-285q16 68 47 122t86 99.5t145 70.5t209 25q100 0 178 -21.5t135.5 -67.5t76.5 -119t0 -177zM717 459l4 16q-92 0 -184 -10q-116 -19 -167 -58.5t-51 -107.5q0 -49 32.5 -79t97.5 -30q55 0 99 18t70.5 43
t48 65.5t31 70.5t19.5 72zM829 1470h-211q35 25 56 41t46 43.5t25 47.5q0 38 -51 38q-57 0 -100 -26l-27 127q78 59 199 59q86 0 132 -43.5t46 -103.5q0 -110 -115 -183zM406 1427h194q0 -44 26.5 -70t82.5 -26q61 0 95.5 26t57.5 70h193q-23 -58 -51 -102.5t-71 -84
t-105.5 -60.5t-141.5 -21q-76 0 -133 23.5t-88.5 63t-46 85.5t-12.5 96z" />
    <glyph glyph-name="uni1EB4" unicode="&#x1eb4;" horiz-adv-x="1314" 
d="M885 334h-498l-174 -334h-303l760 1411h364l185 -1411h-291zM500 571h372q-51 450 -59 621h-2q-107 -228 -311 -621zM750 1833h-166l8 43q22 106 72.5 145t132.5 39q63 0 161 -32.5t121 -32.5q26 0 39.5 10t20.5 39l2 12h162l-9 -43q-25 -103 -75.5 -142.5t-128.5 -39.5
q-51 0 -150.5 31.5t-132.5 31.5q-44 0 -55 -51zM567 1745h191q19 -82 114 -82q105 0 160 82h199q-103 -242 -371 -242q-82 0 -142.5 23t-92 61t-45.5 77.5t-13 80.5z" />
    <glyph glyph-name="uni1EB5" unicode="&#x1eb5;" horiz-adv-x="1140" 
d="M1047 696l-95 -436q-45 -201 -49 -260h-270q0 7 14 119q-25 -31 -46 -50.5t-58 -42.5t-91 -34.5t-124 -11.5q-75 0 -134 24.5t-93.5 65t-52 87t-17.5 95.5q0 85 29.5 152t75.5 108.5t113.5 71t131 44t141.5 23.5q65 6 238 11l10 49q8 29 6 60.5t-12 57t-43 42t-86 16.5
q-45 0 -76.5 -9.5t-51 -30t-28.5 -34.5t-20 -40q-3 -6 -4 -9h-285q16 68 47 122t86 99.5t145 70.5t209 25q100 0 178 -21.5t135.5 -67.5t76.5 -119t0 -177zM717 459l4 16q-92 0 -184 -10q-116 -19 -167 -58.5t-51 -107.5q0 -49 32.5 -79t97.5 -30q55 0 99 18t70.5 43
t48 65.5t31 70.5t19.5 72zM596 1503h-152l7 43q20 106 70 145.5t126 39.5q56 0 139 -33t105 -33q24 0 38.5 10t20.5 39l2 12h148l-8 -43q-23 -105 -74.5 -143.5t-126.5 -38.5q-47 0 -128 32t-108 32q-49 0 -57 -52zM428 1415h180q7 -82 103 -82q58 0 88.5 22t52.5 60h182
q-81 -252 -348 -252q-76 0 -130 22t-81 60t-38 80t-9 90z" />
    <glyph glyph-name="uni1EB6" unicode="&#x1eb6;" horiz-adv-x="1314" 
d="M885 334h-498l-174 -334h-303l760 1411h364l185 -1411h-291zM500 571h372q-51 450 -59 621h-2q-107 -228 -311 -621zM657 -387h-288l59 287h291zM571 1804h199q-2 -49 27.5 -79.5t89.5 -30.5q116 0 164 110h196q-22 -62 -48.5 -108.5t-70.5 -92t-112 -70t-156 -24.5
q-85 0 -146.5 26.5t-93 70t-43.5 94t-6 104.5z" />
    <glyph glyph-name="uni1EB7" unicode="&#x1eb7;" horiz-adv-x="1140" 
d="M1047 696l-95 -436q-45 -201 -49 -260h-270q0 7 14 119q-25 -31 -46 -50.5t-58 -42.5t-91 -34.5t-124 -11.5q-75 0 -134 24.5t-93.5 65t-52 87t-17.5 95.5q0 85 29.5 152t75.5 108.5t113.5 71t131 44t141.5 23.5q65 6 238 11l10 49q8 29 6 60.5t-12 57t-43 42t-86 16.5
q-45 0 -76.5 -9.5t-51 -30t-28.5 -34.5t-20 -40q-3 -6 -4 -9h-285q16 68 47 122t86 99.5t145 70.5t209 25q100 0 178 -21.5t135.5 -67.5t76.5 -119t0 -177zM717 459l4 16q-92 0 -184 -10q-116 -19 -167 -58.5t-51 -107.5q0 -49 32.5 -79t97.5 -30q55 0 99 18t70.5 43
t48 65.5t31 70.5t19.5 72zM438 1473h193q-2 -48 22.5 -77.5t77.5 -29.5q32 0 55.5 8t40.5 26t26.5 32.5t23.5 40.5h190q-95 -295 -365 -295q-78 0 -135 24.5t-87 67t-40.5 94t-1.5 109.5zM526 -412h-288l59 287h291z" />
    <glyph glyph-name="uni1EB8" unicode="&#x1eb8;" horiz-adv-x="1220" 
d="M1149 854l-51 -238h-635l-80 -378h723l-84 -238h-973l299 1411h948l-51 -235h-663l-68 -322h635zM649 -410h-289l60 287h291z" />
    <glyph glyph-name="uni1EB9" unicode="&#x1eb9;" horiz-adv-x="1120" 
d="M1034 467h-680q-8 -46 -8 -64q0 -93 40 -150.5t128 -57.5q79 0 123.5 34t75.5 95h291q-19 -52 -45 -97t-69.5 -92t-97 -80t-131.5 -54t-169 -21q-208 0 -316 117.5t-108 316.5q0 73 13.5 147.5t41 150.5t74 141.5t108 117t148 81t188.5 29.5q113 0 196.5 -32.5t131.5 -90
t71 -128.5t23 -156q0 -100 -29 -207zM391 653h402q4 18 4 47q0 76 -39 124t-125 48q-183 0 -242 -219zM549 -410h-289l59 287h291z" />
    <glyph glyph-name="uni1EBA" unicode="&#x1eba;" horiz-adv-x="1220" 
d="M1149 854l-51 -238h-635l-80 -378h723l-84 -238h-973l299 1411h948l-51 -235h-663l-68 -322h635zM918 1524h-236q3 2 27.5 19.5t33.5 24.5t29.5 24.5t29.5 30t17 30t8 33.5q0 47 -57 47q-64 0 -111 -31l-32 141q100 66 219 66q97 0 151 -49t54 -115q0 -121 -133 -221z
" />
    <glyph glyph-name="uni1EBB" unicode="&#x1ebb;" horiz-adv-x="1120" 
d="M1034 467h-680q-8 -46 -8 -64q0 -93 40 -150.5t128 -57.5q79 0 123.5 34t75.5 95h291q-19 -52 -45 -97t-69.5 -92t-97 -80t-131.5 -54t-169 -21q-208 0 -316 117.5t-108 316.5q0 73 13.5 147.5t41 150.5t74 141.5t108 117t148 81t188.5 29.5q113 0 196.5 -32.5t131.5 -90
t71 -128.5t23 -156q0 -100 -29 -207zM391 653h402q4 18 4 47q0 76 -39 124t-125 48q-183 0 -242 -219zM791 1188h-236q3 2 27.5 19.5t33.5 24.5t29.5 24.5t29.5 30t17 30t8 33.5q0 47 -57 47q-64 0 -111 -31l-32 141q100 66 219 66q97 0 151 -49t54 -115q0 -121 -133 -221z
" />
    <glyph glyph-name="uni1EBC" unicode="&#x1ebc;" horiz-adv-x="1220" 
d="M1149 854l-51 -238h-635l-80 -378h723l-84 -238h-973l299 1411h948l-51 -235h-663l-68 -322h635zM655 1579h-182l12 66q19 119 75.5 167t148.5 48q51 0 111.5 -21.5t109.5 -43t74 -21.5q27 0 42 14.5t21 54.5l2 17h180l-10 -62q-22 -129 -77.5 -177t-151.5 -48
q-53 0 -112 21t-106.5 42t-72.5 21q-52 0 -60 -49z" />
    <glyph glyph-name="uni1EBD" unicode="&#x1ebd;" horiz-adv-x="1120" 
d="M1034 467h-680q-8 -46 -8 -64q0 -93 40 -150.5t128 -57.5q79 0 123.5 34t75.5 95h291q-19 -52 -45 -97t-69.5 -92t-97 -80t-131.5 -54t-169 -21q-208 0 -316 117.5t-108 316.5q0 73 13.5 147.5t41 150.5t74 141.5t108 117t148 81t188.5 29.5q113 0 196.5 -32.5t131.5 -90
t71 -128.5t23 -156q0 -100 -29 -207zM391 653h402q4 18 4 47q0 76 -39 124t-125 48q-183 0 -242 -219zM530 1206h-180l15 80q23 118 75 161.5t138 43.5q51 0 103 -23.5t92.5 -47t64.5 -23.5q48 0 65 78l4 18h178l-12 -63q-23 -131 -78.5 -179.5t-148.5 -48.5
q-51 0 -101 22.5t-88.5 45t-62.5 22.5q-44 0 -57 -55z" />
    <glyph glyph-name="uni1EBE" unicode="&#x1ebe;" horiz-adv-x="1220" 
d="M1149 854l-51 -238h-635l-80 -378h723l-84 -238h-973l299 1411h948l-51 -235h-663l-68 -322h635zM748 1784h274l195 -250h-256l-99 123l-145 -123h-277zM1386 1968h314l-324 -237h-233z" />
    <glyph glyph-name="uni1EBF" unicode="&#x1ebf;" horiz-adv-x="1120" 
d="M1034 467h-680q-8 -46 -8 -64q0 -93 40 -150.5t128 -57.5q79 0 123.5 34t75.5 95h291q-19 -52 -45 -97t-69.5 -92t-97 -80t-131.5 -54t-169 -21q-208 0 -316 117.5t-108 316.5q0 73 13.5 147.5t41 150.5t74 141.5t108 117t148 81t188.5 29.5q113 0 196.5 -32.5t131.5 -90
t71 -128.5t23 -156q0 -100 -29 -207zM391 653h402q4 18 4 47q0 76 -39 124t-125 48q-183 0 -242 -219zM604 1460h256l166 -268h-240l-77 137l-134 -137h-249zM1190 1675h299l-307 -254h-221z" />
    <glyph glyph-name="uni1EC0" unicode="&#x1ec0;" horiz-adv-x="1220" 
d="M1149 854l-51 -238h-635l-80 -378h723l-84 -238h-973l299 1411h948l-51 -235h-663l-68 -322h635zM745 1786h275l194 -250h-256l-98 123l-145 -123h-277zM1008 1987h297l184 -258h-211z" />
    <glyph glyph-name="uni1EC1" unicode="&#x1ec1;" horiz-adv-x="1120" 
d="M1034 467h-680q-8 -46 -8 -64q0 -93 40 -150.5t128 -57.5q79 0 123.5 34t75.5 95h291q-19 -52 -45 -97t-69.5 -92t-97 -80t-131.5 -54t-169 -21q-208 0 -316 117.5t-108 316.5q0 73 13.5 147.5t41 150.5t74 141.5t108 117t148 81t188.5 29.5q113 0 196.5 -32.5t131.5 -90
t71 -128.5t23 -156q0 -100 -29 -207zM391 653h402q4 18 4 47q0 76 -39 124t-125 48q-183 0 -242 -219zM602 1456h256l166 -268h-244l-78 137l-133 -137h-245zM838 1677h274l186 -299h-206z" />
    <glyph glyph-name="uni1EC2" unicode="&#x1ec2;" horiz-adv-x="1220" 
d="M1149 854l-51 -238h-635l-80 -378h723l-84 -238h-973l299 1411h948l-51 -235h-663l-68 -322h635zM745 1778h275l197 -248h-259l-98 123l-145 -123h-277zM1370 1739h-217q32 22 43.5 30.5t39 31t39 43.5t11.5 42q0 41 -51 41q-52 0 -100 -26l-29 127q82 59 209 59
q86 0 130 -43.5t44 -104.5q0 -112 -119 -200z" />
    <glyph glyph-name="uni1EC3" unicode="&#x1ec3;" horiz-adv-x="1120" 
d="M1034 467h-680q-8 -46 -8 -64q0 -93 40 -150.5t128 -57.5q79 0 123.5 34t75.5 95h291q-19 -52 -45 -97t-69.5 -92t-97 -80t-131.5 -54t-169 -21q-208 0 -316 117.5t-108 316.5q0 73 13.5 147.5t41 150.5t74 141.5t108 117t148 81t188.5 29.5q113 0 196.5 -32.5t131.5 -90
t71 -128.5t23 -156q0 -100 -29 -207zM391 653h402q4 18 4 47q0 76 -39 124t-125 48q-183 0 -242 -219zM602 1452h256l166 -268h-244l-78 137l-131 -137h-247zM1180 1382h-197q26 17 40.5 28t39.5 33t38 44.5t13 44.5q0 37 -49 37t-102 -29l-19 127q90 62 207 62
q80 0 123 -40t43 -100q0 -123 -137 -207z" />
    <glyph glyph-name="uni1EC4" unicode="&#x1ec4;" horiz-adv-x="1220" 
d="M1149 854l-51 -238h-635l-80 -378h723l-84 -238h-973l299 1411h948l-51 -235h-663l-68 -322h635zM721 1815h-174l6 32q24 109 75 152t136 43q57 0 118.5 -16.5t108.5 -33t70 -16.5q25 0 39 10.5t20 38.5l2 13h168l-4 -27q-16 -110 -70.5 -154.5t-138.5 -44.5
q-65 0 -162.5 32t-134.5 32q-46 0 -57 -51zM719 1745h311l178 -213h-258l-94 104l-131 -104h-276z" />
    <glyph glyph-name="uni1EC5" unicode="&#x1ec5;" horiz-adv-x="1120" 
d="M1034 467h-680q-8 -46 -8 -64q0 -93 40 -150.5t128 -57.5q79 0 123.5 34t75.5 95h291q-19 -52 -45 -97t-69.5 -92t-97 -80t-131.5 -54t-169 -21q-208 0 -316 117.5t-108 316.5q0 73 13.5 147.5t41 150.5t74 141.5t108 117t148 81t188.5 29.5q113 0 196.5 -32.5t131.5 -90
t71 -128.5t23 -156q0 -100 -29 -207zM391 653h402q4 18 4 47q0 76 -39 124t-125 48q-183 0 -242 -219zM580 1470h-160l6 54q14 94 68.5 135t132.5 41q65 0 150.5 -33t105.5 -33q22 0 33.5 10t17.5 39l2 13h156l-5 -33q-14 -108 -64.5 -151.5t-127.5 -43.5q-54 0 -145 32
t-117 32q-23 0 -34 -11.5t-17 -39.5zM582 1393h254l190 -230h-246l-92 115l-133 -115h-256z" />
    <glyph glyph-name="uni1EC6" unicode="&#x1ec6;" horiz-adv-x="1220" 
d="M1149 854l-51 -238h-635l-80 -378h723l-84 -238h-973l299 1411h948l-51 -235h-663l-68 -322h635zM612 -410h-288l59 287h291zM754 1815h264l205 -281h-256l-105 143l-160 -143h-278z" />
    <glyph glyph-name="uni1EC7" unicode="&#x1ec7;" horiz-adv-x="1120" 
d="M1034 467h-680q-8 -46 -8 -64q0 -93 40 -150.5t128 -57.5q79 0 123.5 34t75.5 95h291q-19 -52 -45 -97t-69.5 -92t-97 -80t-131.5 -54t-169 -21q-208 0 -316 117.5t-108 316.5q0 73 13.5 147.5t41 150.5t74 141.5t108 117t148 81t188.5 29.5q113 0 196.5 -32.5t131.5 -90
t71 -128.5t23 -156q0 -100 -29 -207zM391 653h402q4 18 4 47q0 76 -39 124t-125 48q-183 0 -242 -219zM555 -410h-289l60 287h290zM618 1479h263l153 -287h-246l-69 149l-125 -149h-260z" />
    <glyph glyph-name="uni1EC8" unicode="&#x1ec8;" horiz-adv-x="610" 
d="M348 1411h289l-299 -1411h-289zM616 1518h-235q4 3 27.5 19.5t33.5 24t29.5 24.5t29 29.5t17.5 30t8 33.5q0 47 -57 47q-65 0 -111 -30l-32 141q100 66 219 66q97 0 151 -49t54 -115q0 -121 -134 -221z" />
    <glyph glyph-name="uni1EC9" unicode="&#x1ec9;" horiz-adv-x="542" 
d="M23 0l225 1061h278l-225 -1061h-278zM520 1188h-235q3 2 27.5 19.5t33.5 24.5t29.5 24.5t29.5 30t17 30t8 33.5q0 47 -57 47q-64 0 -111 -31l-33 141q100 66 220 66q97 0 150.5 -49t53.5 -115q0 -121 -133 -221z" />
    <glyph glyph-name="uni1ECA" unicode="&#x1eca;" horiz-adv-x="610" 
d="M348 1411h289l-299 -1411h-289zM254 -410h-289l60 287h290z" />
    <glyph glyph-name="uni1ECB" unicode="&#x1ecb;" horiz-adv-x="542" 
d="M23 0l225 1061h278l-225 -1061h-278zM283 1233l55 262h278l-55 -262h-278zM223 -412h-289l60 287h291z" />
    <glyph glyph-name="uni1ECC" unicode="&#x1ecc;" horiz-adv-x="1513" 
d="M883 1432q142 0 252 -45t178 -125.5t102.5 -186t34.5 -231.5q0 -133 -29 -256.5t-91 -235t-151.5 -193.5t-220 -130.5t-286.5 -48.5q-137 0 -244.5 43.5t-175 120.5t-102.5 180t-35 225q0 128 30 253t93.5 239t152.5 201t216 138.5t276 51.5zM864 1202q-87 0 -161.5 -38
t-126.5 -102t-89.5 -147.5t-55 -174t-17.5 -181.5q0 -164 74.5 -256t220.5 -92q92 0 168 38t126.5 101t85.5 146.5t50.5 172t15.5 179.5q0 164 -71 259t-220 95zM715 -410h-289l59 287h291z" />
    <glyph glyph-name="uni1ECD" unicode="&#x1ecd;" horiz-adv-x="1161" 
d="M653 1081q200 0 320.5 -115t120.5 -341q0 -65 -13 -134t-40.5 -143t-75.5 -139t-111.5 -117t-155 -82t-200.5 -30q-214 0 -322 118t-108 320q0 88 21.5 178.5t68.5 178t113.5 155.5t165.5 109.5t216 41.5zM631 864q-69 0 -124 -45t-86.5 -114.5t-48 -144.5t-16.5 -144
q0 -109 43.5 -164t126.5 -55q71 0 127.5 45t88 116t47.5 147t16 148q0 211 -174 211zM539 -428h-289l59 287h291z" />
    <glyph glyph-name="uni1ECE" unicode="&#x1ece;" horiz-adv-x="1513" 
d="M883 1432q142 0 252 -45t178 -125.5t102.5 -186t34.5 -231.5q0 -133 -29 -256.5t-91 -235t-151.5 -193.5t-220 -130.5t-286.5 -48.5q-137 0 -244.5 43.5t-175 120.5t-102.5 180t-35 225q0 128 30 253t93.5 239t152.5 201t216 138.5t276 51.5zM864 1202q-87 0 -161.5 -38
t-126.5 -102t-89.5 -147.5t-55 -174t-17.5 -181.5q0 -164 74.5 -256t220.5 -92q92 0 168 38t126.5 101t85.5 146.5t50.5 172t15.5 179.5q0 164 -71 259t-220 95zM1026 1520h-235q4 3 27.5 19.5t33.5 24t29.5 24.5t29 29.5t17.5 30t8 33.5q0 48 -57 48q-64 0 -111 -31
l-33 141q100 66 219 66q97 0 151 -49t54 -115q0 -121 -133 -221z" />
    <glyph glyph-name="uni1ECF" unicode="&#x1ecf;" horiz-adv-x="1161" 
d="M653 1081q200 0 320.5 -115t120.5 -341q0 -65 -13 -134t-40.5 -143t-75.5 -139t-111.5 -117t-155 -82t-200.5 -30q-214 0 -322 118t-108 320q0 88 21.5 178.5t68.5 178t113.5 155.5t165.5 109.5t216 41.5zM631 864q-69 0 -124 -45t-86.5 -114.5t-48 -144.5t-16.5 -144
q0 -109 43.5 -164t126.5 -55q71 0 127.5 45t88 116t47.5 147t16 148q0 211 -174 211zM809 1188h-236q4 3 27.5 19.5t33.5 24t30 25t29.5 30t17.5 30t8 33.5q0 47 -57 47q-64 0 -111 -31l-33 141q100 66 219 66q97 0 151 -49t54 -115q0 -121 -133 -221z" />
    <glyph glyph-name="uni1ED0" unicode="&#x1ed0;" horiz-adv-x="1513" 
d="M883 1432q142 0 252 -45t178 -125.5t102.5 -186t34.5 -231.5q0 -133 -29 -256.5t-91 -235t-151.5 -193.5t-220 -130.5t-286.5 -48.5q-137 0 -244.5 43.5t-175 120.5t-102.5 180t-35 225q0 128 30 253t93.5 239t152.5 201t216 138.5t276 51.5zM864 1202q-87 0 -161.5 -38
t-126.5 -102t-89.5 -147.5t-55 -174t-17.5 -181.5q0 -164 74.5 -256t220.5 -92q92 0 168 38t126.5 101t85.5 146.5t50.5 172t15.5 179.5q0 164 -71 259t-220 95zM823 1784h275l194 -250h-256l-98 123l-145 -123h-277zM1462 1968h314l-324 -237h-233z" />
    <glyph glyph-name="uni1ED1" unicode="&#x1ed1;" horiz-adv-x="1161" 
d="M653 1081q200 0 320.5 -115t120.5 -341q0 -65 -13 -134t-40.5 -143t-75.5 -139t-111.5 -117t-155 -82t-200.5 -30q-214 0 -322 118t-108 320q0 88 21.5 178.5t68.5 178t113.5 155.5t165.5 109.5t216 41.5zM631 864q-69 0 -124 -45t-86.5 -114.5t-48 -144.5t-16.5 -144
q0 -109 43.5 -164t126.5 -55q71 0 127.5 45t88 116t47.5 147t16 148q0 211 -174 211zM623 1446h256l165 -268h-239l-78 137l-133 -137h-250zM1208 1661h299l-307 -254h-221z" />
    <glyph glyph-name="uni1ED2" unicode="&#x1ed2;" horiz-adv-x="1513" 
d="M883 1432q142 0 252 -45t178 -125.5t102.5 -186t34.5 -231.5q0 -133 -29 -256.5t-91 -235t-151.5 -193.5t-220 -130.5t-286.5 -48.5q-137 0 -244.5 43.5t-175 120.5t-102.5 180t-35 225q0 128 30 253t93.5 239t152.5 201t216 138.5t276 51.5zM864 1202q-87 0 -161.5 -38
t-126.5 -102t-89.5 -147.5t-55 -174t-17.5 -181.5q0 -164 74.5 -256t220.5 -92q92 0 168 38t126.5 101t85.5 146.5t50.5 172t15.5 179.5q0 164 -71 259t-220 95zM821 1780h275l194 -250h-256l-98 123l-145 -123h-277zM1083 1980h297l185 -258h-211z" />
    <glyph glyph-name="uni1ED3" unicode="&#x1ed3;" horiz-adv-x="1161" 
d="M653 1081q200 0 320.5 -115t120.5 -341q0 -65 -13 -134t-40.5 -143t-75.5 -139t-111.5 -117t-155 -82t-200.5 -30q-214 0 -322 118t-108 320q0 88 21.5 178.5t68.5 178t113.5 155.5t165.5 109.5t216 41.5zM631 864q-69 0 -124 -45t-86.5 -114.5t-48 -144.5t-16.5 -144
q0 -109 43.5 -164t126.5 -55q71 0 127.5 45t88 116t47.5 147t16 148q0 211 -174 211zM623 1446h256l165 -268h-243l-78 137l-133 -137h-246zM858 1667h275l186 -299h-207z" />
    <glyph glyph-name="uni1ED4" unicode="&#x1ed4;" horiz-adv-x="1513" 
d="M883 1432q142 0 252 -45t178 -125.5t102.5 -186t34.5 -231.5q0 -133 -29 -256.5t-91 -235t-151.5 -193.5t-220 -130.5t-286.5 -48.5q-137 0 -244.5 43.5t-175 120.5t-102.5 180t-35 225q0 128 30 253t93.5 239t152.5 201t216 138.5t276 51.5zM864 1202q-87 0 -161.5 -38
t-126.5 -102t-89.5 -147.5t-55 -174t-17.5 -181.5q0 -164 74.5 -256t220.5 -92q92 0 168 38t126.5 101t85.5 146.5t50.5 172t15.5 179.5q0 164 -71 259t-220 95zM827 1776h275l196 -248h-258l-98 123l-145 -123h-277zM1452 1737h-217q32 22 43.5 30.5t39 31t39 43.5t11.5 42
q0 41 -51 41t-100 -27l-29 127q83 60 209 60q86 0 130 -43.5t44 -104.5q0 -112 -119 -200z" />
    <glyph glyph-name="uni1ED5" unicode="&#x1ed5;" horiz-adv-x="1161" 
d="M653 1081q200 0 320.5 -115t120.5 -341q0 -65 -13 -134t-40.5 -143t-75.5 -139t-111.5 -117t-155 -82t-200.5 -30q-214 0 -322 118t-108 320q0 88 21.5 178.5t68.5 178t113.5 155.5t165.5 109.5t216 41.5zM631 864q-69 0 -124 -45t-86.5 -114.5t-48 -144.5t-16.5 -144
q0 -109 43.5 -164t126.5 -55q71 0 127.5 45t88 116t47.5 147t16 148q0 211 -174 211zM623 1446h256l165 -268h-243l-78 137l-131 -137h-248zM1200 1376h-196q26 17 40.5 28t39.5 33t38 44.5t13 44.5q0 37 -50 37q-49 0 -102 -29l-18 127q89 61 206 61q81 0 123.5 -40
t42.5 -99q0 -123 -137 -207z" />
    <glyph glyph-name="uni1ED6" unicode="&#x1ed6;" horiz-adv-x="1513" 
d="M883 1432q142 0 252 -45t178 -125.5t102.5 -186t34.5 -231.5q0 -133 -29 -256.5t-91 -235t-151.5 -193.5t-220 -130.5t-286.5 -48.5q-137 0 -244.5 43.5t-175 120.5t-102.5 180t-35 225q0 128 30 253t93.5 239t152.5 201t216 138.5t276 51.5zM864 1202q-87 0 -161.5 -38
t-126.5 -102t-89.5 -147.5t-55 -174t-17.5 -181.5q0 -164 74.5 -256t220.5 -92q92 0 168 38t126.5 101t85.5 146.5t50.5 172t15.5 179.5q0 164 -71 259t-220 95zM807 1815h-174l6 32q24 109 75 152t136 43q57 0 118.5 -16.5t108.5 -33t70 -16.5q25 0 39 10.5t20 38.5l2 13
h168l-4 -27q-16 -110 -70.5 -154.5t-138.5 -44.5q-65 0 -162.5 32t-134.5 32q-46 0 -57 -51zM805 1745h311l178 -213h-258l-94 104l-131 -104h-276z" />
    <glyph glyph-name="uni1ED7" unicode="&#x1ed7;" horiz-adv-x="1161" 
d="M653 1081q200 0 320.5 -115t120.5 -341q0 -65 -13 -134t-40.5 -143t-75.5 -139t-111.5 -117t-155 -82t-200.5 -30q-214 0 -322 118t-108 320q0 88 21.5 178.5t68.5 178t113.5 155.5t165.5 109.5t216 41.5zM631 864q-69 0 -124 -45t-86.5 -114.5t-48 -144.5t-16.5 -144
q0 -109 43.5 -164t126.5 -55q71 0 127.5 45t88 116t47.5 147t16 148q0 211 -174 211zM600 1470h-160l6 54q14 94 68.5 135t132.5 41q65 0 150.5 -33t105.5 -33q22 0 33.5 10t17.5 39l2 13h156l-4 -33q-25 -195 -193 -195q-54 0 -145 32t-117 32q-23 0 -34 -11.5t-17 -39.5z
M602 1393h254l191 -230h-246l-92 115l-134 -115h-256z" />
    <glyph glyph-name="uni1ED8" unicode="&#x1ed8;" horiz-adv-x="1513" 
d="M883 1432q142 0 252 -45t178 -125.5t102.5 -186t34.5 -231.5q0 -133 -29 -256.5t-91 -235t-151.5 -193.5t-220 -130.5t-286.5 -48.5q-137 0 -244.5 43.5t-175 120.5t-102.5 180t-35 225q0 128 30 253t93.5 239t152.5 201t216 138.5t276 51.5zM864 1202q-87 0 -161.5 -38
t-126.5 -102t-89.5 -147.5t-55 -174t-17.5 -181.5q0 -164 74.5 -256t220.5 -92q92 0 168 38t126.5 101t85.5 146.5t50.5 172t15.5 179.5q0 164 -71 259t-220 95zM715 -410h-289l59 287h291zM860 1812h264l205 -280h-256l-104 143l-160 -143h-279z" />
    <glyph glyph-name="uni1ED9" unicode="&#x1ed9;" horiz-adv-x="1161" 
d="M653 1081q200 0 320.5 -115t120.5 -341q0 -65 -13 -134t-40.5 -143t-75.5 -139t-111.5 -117t-155 -82t-200.5 -30q-214 0 -322 118t-108 320q0 88 21.5 178.5t68.5 178t113.5 155.5t165.5 109.5t216 41.5zM631 864q-69 0 -124 -45t-86.5 -114.5t-48 -144.5t-16.5 -144
q0 -109 43.5 -164t126.5 -55q71 0 127.5 45t88 116t47.5 147t16 148q0 211 -174 211zM547 -410h-289l59 287h291zM641 1487h262l154 -287h-246l-70 150l-125 -150h-260z" />
    <glyph glyph-name="uni1EDA" unicode="&#x1eda;" horiz-adv-x="1513" 
d="M883 1432q238 0 385 -125q51 11 74.5 46t23.5 103q0 42 -6 76h252q4 -28 4 -53q0 -272 -223 -344q57 -126 57 -291q0 -133 -29 -256.5t-91 -235t-151.5 -193.5t-220 -130.5t-286.5 -48.5q-137 0 -244.5 43.5t-175 120.5t-102.5 180t-35 225q0 128 30 253t93.5 239
t152.5 201t216 138.5t276 51.5zM864 1202q-87 0 -161.5 -38t-126.5 -102t-89.5 -147.5t-55 -174t-17.5 -181.5q0 -164 74.5 -256t220.5 -92q92 0 168 38t126.5 101t85.5 146.5t50.5 172t15.5 179.5q0 164 -71 259t-220 95zM1114 1837h391l-467 -285h-284z" />
    <glyph glyph-name="uni1EDB" unicode="&#x1edb;" horiz-adv-x="1161" 
d="M653 1081q186 0 299 -96q48 14 70 49t22 101q0 41 -6 75h252q4 -28 4 -53q0 -274 -227 -346q27 -89 27 -186q0 -65 -13 -134t-40.5 -143t-75.5 -139t-111.5 -117t-155 -82t-200.5 -30q-214 0 -322 118t-108 320q0 88 21.5 178.5t68.5 178t113.5 155.5t165.5 109.5
t216 41.5zM631 864q-69 0 -124 -45t-86.5 -114.5t-48 -144.5t-16.5 -144q0 -109 43.5 -164t126.5 -55q71 0 127.5 45t88 116t47.5 147t16 148q0 211 -174 211zM868 1507h363l-422 -295h-270z" />
    <glyph glyph-name="uni1EDC" unicode="&#x1edc;" horiz-adv-x="1513" 
d="M883 1432q238 0 385 -125q51 11 74.5 46t23.5 103q0 42 -6 76h252q4 -28 4 -53q0 -272 -223 -344q57 -126 57 -291q0 -133 -29 -256.5t-91 -235t-151.5 -193.5t-220 -130.5t-286.5 -48.5q-137 0 -244.5 43.5t-175 120.5t-102.5 180t-35 225q0 128 30 253t93.5 239
t152.5 201t216 138.5t276 51.5zM864 1202q-87 0 -161.5 -38t-126.5 -102t-89.5 -147.5t-55 -174t-17.5 -181.5q0 -164 74.5 -256t220.5 -92q92 0 168 38t126.5 101t85.5 146.5t50.5 172t15.5 179.5q0 164 -71 259t-220 95zM461 1817h354l293 -285h-272z" />
    <glyph glyph-name="uni1EDD" unicode="&#x1edd;" horiz-adv-x="1161" 
d="M653 1081q186 0 299 -96q48 14 70 49t22 101q0 41 -6 75h252q4 -28 4 -53q0 -274 -227 -346q27 -89 27 -186q0 -65 -13 -134t-40.5 -143t-75.5 -139t-111.5 -117t-155 -82t-200.5 -30q-214 0 -322 118t-108 320q0 88 21.5 178.5t68.5 178t113.5 155.5t165.5 109.5
t216 41.5zM631 864q-69 0 -124 -45t-86.5 -114.5t-48 -144.5t-16.5 -144q0 -109 43.5 -164t126.5 -55q71 0 127.5 45t88 116t47.5 147t16 148q0 211 -174 211zM338 1507h317l201 -295h-240z" />
    <glyph glyph-name="uni1EDE" unicode="&#x1ede;" horiz-adv-x="1513" 
d="M883 1432q238 0 385 -125q51 11 74.5 46t23.5 103q0 42 -6 76h252q4 -28 4 -53q0 -272 -223 -344q57 -126 57 -291q0 -133 -29 -256.5t-91 -235t-151.5 -193.5t-220 -130.5t-286.5 -48.5q-137 0 -244.5 43.5t-175 120.5t-102.5 180t-35 225q0 128 30 253t93.5 239
t152.5 201t216 138.5t276 51.5zM864 1202q-87 0 -161.5 -38t-126.5 -102t-89.5 -147.5t-55 -174t-17.5 -181.5q0 -164 74.5 -256t220.5 -92q92 0 168 38t126.5 101t85.5 146.5t50.5 172t15.5 179.5q0 164 -71 259t-220 95zM1034 1524h-235q3 2 27.5 19.5t33.5 24.5
t29.5 24.5t29.5 30t17 30t8 33.5q0 47 -57 47q-64 0 -111 -31l-33 141q100 66 220 66q97 0 150.5 -49t53.5 -115q0 -121 -133 -221z" />
    <glyph glyph-name="uni1EDF" unicode="&#x1edf;" horiz-adv-x="1161" 
d="M653 1081q186 0 299 -96q48 14 70 49t22 101q0 41 -6 75h252q4 -28 4 -53q0 -274 -227 -346q27 -89 27 -186q0 -65 -13 -134t-40.5 -143t-75.5 -139t-111.5 -117t-155 -82t-200.5 -30q-214 0 -322 118t-108 320q0 88 21.5 178.5t68.5 178t113.5 155.5t165.5 109.5
t216 41.5zM631 864q-69 0 -124 -45t-86.5 -114.5t-48 -144.5t-16.5 -144q0 -109 43.5 -164t126.5 -55q71 0 127.5 45t88 116t47.5 147t16 148q0 211 -174 211zM809 1188h-236q4 3 27.5 19.5t33.5 24t30 25t29.5 30t17.5 30t8 33.5q0 47 -57 47q-64 0 -111 -31l-33 141
q100 66 219 66q97 0 151 -49t54 -115q0 -121 -133 -221z" />
    <glyph glyph-name="uni1EE0" unicode="&#x1ee0;" horiz-adv-x="1513" 
d="M883 1432q238 0 385 -125q51 11 74.5 46t23.5 103q0 42 -6 76h252q4 -28 4 -53q0 -272 -223 -344q57 -126 57 -291q0 -133 -29 -256.5t-91 -235t-151.5 -193.5t-220 -130.5t-286.5 -48.5q-137 0 -244.5 43.5t-175 120.5t-102.5 180t-35 225q0 128 30 253t93.5 239
t152.5 201t216 138.5t276 51.5zM864 1202q-87 0 -161.5 -38t-126.5 -102t-89.5 -147.5t-55 -174t-17.5 -181.5q0 -164 74.5 -256t220.5 -92q92 0 168 38t126.5 101t85.5 146.5t50.5 172t15.5 179.5q0 164 -71 259t-220 95zM758 1540h-183l13 66q19 119 75 167t148 48
q51 0 111.5 -21.5t109.5 -43t74 -21.5q27 0 42 14.5t21 54.5l2 17h181l-11 -62q-22 -129 -77.5 -177t-151.5 -48q-53 0 -112 21t-106.5 42t-72.5 21q-51 0 -59 -49z" />
    <glyph glyph-name="uni1EE1" unicode="&#x1ee1;" horiz-adv-x="1161" 
d="M653 1081q186 0 299 -96q48 14 70 49t22 101q0 41 -6 75h252q4 -28 4 -53q0 -274 -227 -346q27 -89 27 -186q0 -65 -13 -134t-40.5 -143t-75.5 -139t-111.5 -117t-155 -82t-200.5 -30q-214 0 -322 118t-108 320q0 88 21.5 178.5t68.5 178t113.5 155.5t165.5 109.5
t216 41.5zM631 864q-69 0 -124 -45t-86.5 -114.5t-48 -144.5t-16.5 -144q0 -109 43.5 -164t126.5 -55q71 0 127.5 45t88 116t47.5 147t16 148q0 211 -174 211zM553 1206h-180l14 80q23 118 75 161.5t138 43.5q51 0 103 -23.5t92.5 -47t64.5 -23.5q49 0 66 78l4 18h178
l-12 -63q-23 -131 -79 -179.5t-149 -48.5q-51 0 -101 22.5t-88.5 45t-62.5 22.5q-44 0 -57 -55z" />
    <glyph glyph-name="uni1EE2" unicode="&#x1ee2;" horiz-adv-x="1513" 
d="M883 1432q238 0 385 -125q51 11 74.5 46t23.5 103q0 42 -6 76h252q4 -28 4 -53q0 -272 -223 -344q57 -126 57 -291q0 -133 -29 -256.5t-91 -235t-151.5 -193.5t-220 -130.5t-286.5 -48.5q-137 0 -244.5 43.5t-175 120.5t-102.5 180t-35 225q0 128 30 253t93.5 239
t152.5 201t216 138.5t276 51.5zM864 1202q-87 0 -161.5 -38t-126.5 -102t-89.5 -147.5t-55 -174t-17.5 -181.5q0 -164 74.5 -256t220.5 -92q92 0 168 38t126.5 101t85.5 146.5t50.5 172t15.5 179.5q0 164 -71 259t-220 95zM715 -428h-289l59 287h291z" />
    <glyph glyph-name="uni1EE3" unicode="&#x1ee3;" horiz-adv-x="1161" 
d="M653 1081q186 0 299 -96q48 14 70 49t22 101q0 41 -6 75h252q4 -28 4 -53q0 -274 -227 -346q27 -89 27 -186q0 -65 -13 -134t-40.5 -143t-75.5 -139t-111.5 -117t-155 -82t-200.5 -30q-214 0 -322 118t-108 320q0 88 21.5 178.5t68.5 178t113.5 155.5t165.5 109.5
t216 41.5zM631 864q-69 0 -124 -45t-86.5 -114.5t-48 -144.5t-16.5 -144q0 -109 43.5 -164t126.5 -55q71 0 127.5 45t88 116t47.5 147t16 148q0 211 -174 211zM547 -410h-289l59 287h291z" />
    <glyph glyph-name="uni1EE4" unicode="&#x1ee4;" horiz-adv-x="1417" 
d="M328 1411h288l-186 -870q-36 -167 25 -250.5t202 -83.5q143 0 212.5 70.5t105.5 240.5l188 893h291l-197 -915q-59 -268 -200 -392t-426 -124q-103 0 -187 19.5t-153.5 62t-109 110t-52.5 164t16 223.5zM702 -426h-288l59 287h291z" />
    <glyph glyph-name="uni1EE5" unicode="&#x1ee5;" horiz-adv-x="1169" 
d="M1151 1061l-164 -778q-36 -164 -55 -283h-273q5 78 23 147q-114 -167 -336 -167q-152 0 -223.5 97.5t-34.5 276.5l150 707h276l-143 -670q-19 -90 4.5 -136t107.5 -46q96 0 169 81.5t108 250.5l112 520h279zM541 -428h-289l59 287h291z" />
    <glyph glyph-name="uni1EE6" unicode="&#x1ee6;" horiz-adv-x="1417" 
d="M328 1411h288l-186 -870q-36 -167 25 -250.5t202 -83.5q143 0 212.5 70.5t105.5 240.5l188 893h291l-197 -915q-59 -268 -200 -392t-426 -124q-103 0 -187 19.5t-153.5 62t-109 110t-52.5 164t16 223.5zM979 1497h-236q4 3 27.5 19.5t33.5 24t30 25t29.5 30t17.5 30
t8 33.5q0 47 -58 47q-63 0 -110 -31l-33 142q99 65 219 65q97 0 151 -49t54 -115q0 -121 -133 -221z" />
    <glyph glyph-name="uni1EE7" unicode="&#x1ee7;" horiz-adv-x="1169" 
d="M1151 1061l-164 -778q-36 -164 -55 -283h-273q5 78 23 147q-114 -167 -336 -167q-152 0 -223.5 97.5t-34.5 276.5l150 707h276l-143 -670q-19 -90 4.5 -136t107.5 -46q96 0 169 81.5t108 250.5l112 520h279zM813 1188h-235q3 2 27.5 19.5t33.5 24.5t29.5 24.5t29.5 30
t17 30t8 33.5q0 47 -57 47q-64 0 -111 -31l-33 141q100 66 219 66q97 0 151 -49t54 -115q0 -121 -133 -221z" />
    <glyph glyph-name="uni1EE8" unicode="&#x1ee8;" horiz-adv-x="1417" 
d="M328 1411h288l-186 -870q-36 -167 25 -250.5t202 -83.5q143 0 212.5 70.5t105.5 240.5l188 893h90q69 8 100 43t31 113q0 41 -6 75h252q4 -28 4 -53q0 -267 -215 -342l-162 -751q-59 -268 -200 -392t-426 -124q-103 0 -187 19.5t-153.5 62t-109 110t-52.5 164t16 223.5z
M1063 1815h391l-467 -285h-285z" />
    <glyph glyph-name="uni1EE9" unicode="&#x1ee9;" horiz-adv-x="1169" 
d="M682 147q-114 -167 -336 -167q-152 0 -223.5 97.5t-34.5 276.5l150 707h276l-143 -670q-19 -90 4.5 -136t107.5 -46q96 0 169 81.5t108 250.5l112 520h101q61 9 89 44t28 109q0 36 -7 76h252q4 -28 4 -53q0 -272 -223 -344l-129 -610q-36 -164 -55 -283h-273q5 78 23 147
zM872 1507h363l-422 -295h-270z" />
    <glyph glyph-name="uni1EEA" unicode="&#x1eea;" horiz-adv-x="1417" 
d="M328 1411h288l-186 -870q-36 -167 25 -250.5t202 -83.5q143 0 212.5 70.5t105.5 240.5l188 893h90q69 8 100 43t31 113q0 41 -6 75h252q4 -28 4 -53q0 -267 -215 -342l-162 -751q-59 -268 -200 -392t-426 -124q-103 0 -187 19.5t-153.5 62t-109 110t-52.5 164t16 223.5z
M426 1815h354l293 -285h-272z" />
    <glyph glyph-name="uni1EEB" unicode="&#x1eeb;" horiz-adv-x="1169" 
d="M682 147q-114 -167 -336 -167q-152 0 -223.5 97.5t-34.5 276.5l150 707h276l-143 -670q-19 -90 4.5 -136t107.5 -46q96 0 169 81.5t108 250.5l112 520h101q61 9 89 44t28 109q0 36 -7 76h252q4 -28 4 -53q0 -272 -223 -344l-129 -610q-36 -164 -55 -283h-273q5 78 23 147
zM334 1507h317l201 -295h-240z" />
    <glyph glyph-name="uni1EEC" unicode="&#x1eec;" horiz-adv-x="1417" 
d="M328 1411h288l-186 -870q-36 -167 25 -250.5t202 -83.5q143 0 212.5 70.5t105.5 240.5l188 893h90q69 8 100 43t31 113q0 41 -6 75h252q4 -28 4 -53q0 -267 -215 -342l-162 -751q-59 -268 -200 -392t-426 -124q-103 0 -187 19.5t-153.5 62t-109 110t-52.5 164t16 223.5z
M977 1483h-236q4 3 27.5 19.5t33.5 24t30 25t29.5 30t17.5 30t8 33.5q0 47 -58 47q-63 0 -110 -31l-33 141q100 66 219 66q97 0 151 -49t54 -115q0 -121 -133 -221z" />
    <glyph glyph-name="uni1EED" unicode="&#x1eed;" horiz-adv-x="1169" 
d="M682 147q-114 -167 -336 -167q-152 0 -223.5 97.5t-34.5 276.5l150 707h276l-143 -670q-19 -90 4.5 -136t107.5 -46q96 0 169 81.5t108 250.5l112 520h101q61 9 89 44t28 109q0 36 -7 76h252q4 -28 4 -53q0 -272 -223 -344l-129 -610q-36 -164 -55 -283h-273q5 78 23 147
zM799 1188h-236q4 3 27.5 19.5t33.5 24t30 25t29.5 30t17.5 30t8 33.5q0 47 -58 47q-63 0 -110 -31l-33 141q100 66 219 66q97 0 151 -49t54 -115q0 -121 -133 -221z" />
    <glyph glyph-name="uni1EEE" unicode="&#x1eee;" horiz-adv-x="1417" 
d="M328 1411h288l-186 -870q-36 -167 25 -250.5t202 -83.5q143 0 212.5 70.5t105.5 240.5l188 893h90q69 8 100 43t31 113q0 41 -6 75h252q4 -28 4 -53q0 -267 -215 -342l-162 -751q-59 -268 -200 -392t-426 -124q-103 0 -187 19.5t-153.5 62t-109 110t-52.5 164t16 223.5z
M723 1538h-182l12 66q19 119 75 167t148 48q51 0 111.5 -21.5t109.5 -43t74 -21.5q27 0 42.5 14.5t21.5 54.5l2 17h180l-10 -62q-22 -128 -78 -176.5t-152 -48.5q-53 0 -112 21t-106.5 42t-72.5 21q-51 0 -59 -49z" />
    <glyph glyph-name="uni1EEF" unicode="&#x1eef;" horiz-adv-x="1169" 
d="M682 147q-114 -167 -336 -167q-152 0 -223.5 97.5t-34.5 276.5l150 707h276l-143 -670q-19 -90 4.5 -136t107.5 -46q96 0 169 81.5t108 250.5l112 520h101q61 9 89 44t28 109q0 36 -7 76h252q4 -28 4 -53q0 -272 -223 -344l-129 -610q-36 -164 -55 -283h-273q5 78 23 147
zM559 1206h-180l14 80q23 118 75 161.5t138 43.5q51 0 103 -23.5t92.5 -47t64.5 -23.5q49 0 66 78l4 18h178l-12 -63q-23 -131 -79 -179.5t-149 -48.5q-51 0 -100.5 22.5t-88 45t-62.5 22.5q-45 0 -58 -55z" />
    <glyph glyph-name="uni1EF0" unicode="&#x1ef0;" horiz-adv-x="1417" 
d="M328 1411h288l-186 -870q-36 -167 25 -250.5t202 -83.5q143 0 212.5 70.5t105.5 240.5l188 893h90q69 8 100 43t31 113q0 41 -6 75h252q4 -28 4 -53q0 -267 -215 -342l-162 -751q-59 -268 -200 -392t-426 -124q-103 0 -187 19.5t-153.5 62t-109 110t-52.5 164t16 223.5z
M684 -426h-289l60 287h290z" />
    <glyph glyph-name="uni1EF1" unicode="&#x1ef1;" horiz-adv-x="1169" 
d="M682 147q-114 -167 -336 -167q-152 0 -223.5 97.5t-34.5 276.5l150 707h276l-143 -670q-19 -90 4.5 -136t107.5 -46q96 0 169 81.5t108 250.5l112 520h101q61 9 89 44t28 109q0 36 -7 76h252q4 -28 4 -53q0 -272 -223 -344l-129 -610q-36 -164 -55 -283h-273q5 78 23 147
zM543 -410h-289l59 287h291z" />
    <glyph glyph-name="Ygrave" unicode="&#x1ef2;" horiz-adv-x="1181" 
d="M596 0h-289l107 512q6 25 -2 47l-295 852h299q16 -57 93.5 -313.5t96.5 -345.5q41 66 123.5 181t191.5 262t158 216h310l-668 -868q-17 -26 -21 -45zM260 1796h354l293 -285h-272z" />
    <glyph glyph-name="ygrave" unicode="&#x1ef3;" horiz-adv-x="1036" 
d="M98 1061h279q56 -646 59 -834h2q220 486 391 834h291l-577 -1108q-53 -103 -101.5 -172t-92 -110t-97.5 -62.5t-102.5 -28t-122.5 -6.5q-70 0 -142 14l52 230q36 -8 92 -8q62 0 103 17.5t61.5 42t44.5 69.5zM238 1493h317l201 -295h-240z" />
    <glyph glyph-name="uni1EF4" unicode="&#x1ef4;" horiz-adv-x="1181" 
d="M596 0h-289l107 512q6 25 -2 47l-295 852h299q16 -57 93.5 -313.5t96.5 -345.5q41 66 123.5 181t191.5 262t158 216h310l-668 -868q-17 -26 -21 -45zM518 -410h-289l60 287h291z" />
    <glyph glyph-name="uni1EF5" unicode="&#x1ef5;" horiz-adv-x="1036" 
d="M98 1061h279q56 -646 59 -834h2q220 486 391 834h291l-577 -1108q-53 -103 -101.5 -172t-92 -110t-97.5 -62.5t-102.5 -28t-122.5 -6.5q-70 0 -142 14l52 230q36 -8 92 -8q62 0 103 17.5t61.5 42t44.5 69.5zM850 -414h-289l60 287h290z" />
    <glyph glyph-name="uni1EF6" unicode="&#x1ef6;" horiz-adv-x="1181" 
d="M596 0h-289l107 512q6 25 -2 47l-295 852h299q16 -57 93.5 -313.5t96.5 -345.5q41 66 123.5 181t191.5 262t158 216h310l-668 -868q-17 -26 -21 -45zM838 1499h-236q4 3 27.5 19.5t33.5 24t30 25t29.5 30t17.5 30t8 33.5q0 47 -58 47q-63 0 -110 -31l-33 142
q99 65 219 65q97 0 151 -49t54 -115q0 -121 -133 -221z" />
    <glyph glyph-name="uni1EF7" unicode="&#x1ef7;" horiz-adv-x="1036" 
d="M98 1061h279q56 -646 59 -834h2q220 486 391 834h291l-577 -1108q-53 -103 -101.5 -172t-92 -110t-97.5 -62.5t-102.5 -28t-122.5 -6.5q-70 0 -142 14l52 230q36 -8 92 -8q62 0 103 17.5t61.5 42t44.5 69.5zM725 1188h-236q4 3 27.5 19.5t33.5 24t30 25t29.5 30t17.5 30
t8 33.5q0 47 -57 47q-64 0 -111 -31l-33 141q100 66 219 66q97 0 151 -49t54 -115q0 -121 -133 -221z" />
    <glyph glyph-name="uni1EF8" unicode="&#x1ef8;" horiz-adv-x="1181" 
d="M596 0h-289l107 512q6 25 -2 47l-295 852h299q16 -57 93.5 -313.5t96.5 -345.5q41 66 123.5 181t191.5 262t158 216h310l-668 -868q-17 -26 -21 -45zM557 1538h-182l12 66q19 119 75 167t148 48q51 0 111.5 -21.5t109.5 -43t74 -21.5q27 0 42.5 14.5t21.5 54.5l2 17h180
l-10 -62q-22 -128 -78 -176.5t-152 -48.5q-53 0 -112 21t-106 42t-72 21q-52 0 -60 -49z" />
    <glyph glyph-name="uni1EF9" unicode="&#x1ef9;" horiz-adv-x="1036" 
d="M98 1061h279q56 -646 59 -834h2q220 486 391 834h291l-577 -1108q-53 -103 -101.5 -172t-92 -110t-97.5 -62.5t-102.5 -28t-122.5 -6.5q-70 0 -142 14l52 230q36 -8 92 -8q62 0 103 17.5t61.5 42t44.5 69.5zM469 1206h-180l14 80q23 118 75 161.5t138 43.5
q51 0 103 -23.5t92.5 -47t64.5 -23.5q49 0 66 78l4 18h178l-12 -63q-23 -131 -79 -179.5t-149 -48.5q-51 0 -101 22.5t-88.5 45t-62.5 22.5q-44 0 -57 -55z" />
    <glyph glyph-name="uni2007" unicode="&#x2007;" horiz-adv-x="1165" 
 />
    <glyph glyph-name="uni2010" unicode="&#x2010;" horiz-adv-x="765" 
d="M135 645h547l-51 -239h-547z" />
    <glyph glyph-name="figuredash" unicode="&#x2012;" horiz-adv-x="1165" 
d="M209 770h799l-52 -242h-798z" />
    <glyph glyph-name="endash" unicode="&#x2013;" horiz-adv-x="966" 
d="M135 645h750l-51 -239h-750z" />
    <glyph glyph-name="emdash" unicode="&#x2014;" horiz-adv-x="1783" 
d="M135 645h1565l-51 -239h-1565z" />
    <glyph glyph-name="uni2015" unicode="&#x2015;" horiz-adv-x="1783" 
d="M135 645h1565l-51 -239h-1565z" />
    <glyph glyph-name="quoteleft" unicode="&#x2018;" horiz-adv-x="520" 
d="M428 1495h236q-72 -132 -137.5 -301t-92.5 -297h-287q36 147 116.5 316.5t164.5 281.5z" />
    <glyph glyph-name="quoteright" unicode="&#x2019;" horiz-adv-x="520" 
d="M358 897h-235q71 131 136.5 300t92.5 298h285q-35 -147 -114.5 -316.5t-164.5 -281.5z" />
    <glyph glyph-name="quotesinglbase" unicode="&#x201a;" horiz-adv-x="520" 
d="M84 -276h-234q72 136 137.5 304t90.5 294h287q-35 -148 -115 -317t-166 -281z" />
    <glyph glyph-name="quotedblleft" unicode="&#x201c;" horiz-adv-x="933" 
d="M850 1495h225q-175 -355 -219 -598h-274q36 163 111 323t157 275zM422 1495h225q-169 -335 -221 -598h-272q39 167 115.5 331.5t152.5 266.5z" />
    <glyph glyph-name="quotedblright" unicode="&#x201d;" horiz-adv-x="935" 
d="M350 897h-223q175 355 219 598h275q-37 -164 -113 -326t-158 -272zM778 897h-223q170 337 219 598h275q-39 -166 -116.5 -330.5t-154.5 -267.5z" />
    <glyph glyph-name="quotedblbase" unicode="&#x201e;" horiz-adv-x="909" 
d="M80 -279h-223q170 345 219 601h272q-36 -166 -110.5 -327t-157.5 -274zM508 -279h-223q168 337 219 601h272q-37 -167 -113.5 -331t-154.5 -270z" />
    <glyph glyph-name="dagger" unicode="&#x2020;" horiz-adv-x="1048" 
d="M537 1329h241l-102 -426l321 15l-49 -234l-315 16l-195 -970h-241l223 970l-328 -16l49 234l322 -15z" />
    <glyph glyph-name="daggerdbl" unicode="&#x2021;" horiz-adv-x="1048" 
d="M344 348l86 402l-326 -15l50 234l319 -19l64 379h241l-92 -379l324 19l-49 -234l-318 15l-86 -402l324 14l-50 -231l-315 14l-78 -415h-241l106 415l-328 -14l50 231z" />
    <glyph glyph-name="bullet" unicode="&#x2022;" horiz-adv-x="849" 
d="M238 776h469l-107 -493h-469z" />
    <glyph glyph-name="ellipsis" unicode="&#x2026;" horiz-adv-x="1808" 
d="M319 0h-303l76 360h301zM930 0h-303l75 360h302zM1536 0h-303l76 360h301z" />
    <glyph glyph-name="perthousand" unicode="&#x2030;" horiz-adv-x="2676" 
d="M2308 754q135 0 214 -74.5t79 -218.5q0 -133 -48 -241.5t-146.5 -176.5t-231.5 -68q-141 0 -216 80.5t-75 216.5q0 87 27.5 171.5t78.5 154.5t134 113t184 43zM2288 578q-47 0 -84.5 -31.5t-58.5 -79t-31.5 -95.5t-10.5 -89q0 -131 105 -131q47 0 84 31.5t57.5 79
t30.5 95t10 88.5q0 132 -102 132zM578 1368q135 0 213.5 -74.5t78.5 -216.5q0 -133 -48 -241.5t-146.5 -176t-231.5 -67.5q-141 0 -215.5 79.5t-74.5 215.5q0 87 27.5 171t78.5 154t134 113t184 43zM557 1192q-48 0 -85.5 -31t-57.5 -78.5t-30.5 -95t-10.5 -88.5
q0 -70 26 -100.5t78 -30.5q47 0 84 31.5t56.5 79t29.5 95.5t10 89q0 129 -100 129zM545 0h-209l1083 1350h207zM1507 754q135 0 214 -74.5t79 -218.5q0 -133 -48 -241.5t-146.5 -176.5t-231.5 -68q-141 0 -216 80.5t-75 216.5q0 69 17 137t52.5 130.5t84.5 110t119 76
t151 28.5zM1487 578q-47 0 -84.5 -31.5t-58 -79t-31 -95.5t-10.5 -89q0 -131 104 -131q48 0 85 31t57 79t30 95.5t10 88.5q0 132 -102 132z" />
    <glyph glyph-name="uni2032" unicode="&#x2032;" horiz-adv-x="563" 
d="M410 895h-230l209 600h277z" />
    <glyph glyph-name="uni2033" unicode="&#x2033;" horiz-adv-x="929" 
d="M381 895h-201l205 600h252zM772 895h-199l207 600h252z" />
    <glyph glyph-name="guilsinglleft" unicode="&#x2039;" horiz-adv-x="774" 
d="M782 938l-415 -418l223 -391h-244l-240 406l394 403h282z" />
    <glyph glyph-name="guilsinglright" unicode="&#x203a;" horiz-adv-x="790" 
d="M18 129l416 418l-221 391h242l239 -406l-393 -403h-283z" />
    <glyph glyph-name="fraction" unicode="&#x2044;" horiz-adv-x="466" 
d="M-166 0h-211l1090 1348h200z" />
    <glyph glyph-name="zero.sups" unicode="&#x2070;" horiz-adv-x="815" 
d="M518 1700q146 0 222.5 -84t76.5 -227q0 -102 -26 -193.5t-76.5 -166.5t-134 -119t-189.5 -44q-146 0 -223.5 84.5t-77.5 237.5q0 88 26 175.5t76.5 164t135 124.5t190.5 48zM498 1522q-49 0 -86.5 -36.5t-57.5 -92.5t-29.5 -109.5t-9.5 -99.5q0 -72 27.5 -107t75.5 -35
q49 0 86 39.5t55.5 98.5t27.5 113t9 98q0 131 -98 131z" />
    <glyph glyph-name="four.sups" unicode="&#x2074;" horiz-adv-x="776" 
d="M594 879h-203l41 190h-391l35 158l413 463h277l-100 -467h116l-49 -154h-100zM279 1223h184l29 120q37 159 43 181q-46 -61 -256 -301z" />
    <glyph glyph-name="five.sups" unicode="&#x2075;" horiz-adv-x="784" 
d="M805 1690l-55 -170h-365q-4 -15 -18.5 -64.5t-20.5 -71.5q72 37 154 37q118 0 183 -68t65 -167q0 -152 -105.5 -235t-265.5 -83q-81 0 -142.5 22t-96.5 58.5t-52 79t-18 88.5h211q5 -40 32.5 -65t77.5 -25q59 0 96 36t37 97q0 107 -102 107q-84 0 -127 -62l-184 29
q67 188 137 457h559z" />
    <glyph glyph-name="six.sups" unicode="&#x2076;" horiz-adv-x="792" 
d="M801 1466h-211q-11 72 -98 72q-62 0 -104 -48t-60 -132q74 61 190 61q114 0 182 -66t68 -175q0 -133 -96.5 -222.5t-263.5 -89.5q-145 0 -232.5 87.5t-87.5 250.5q0 87 24.5 171.5t73 158.5t131.5 120t189 46q135 0 214 -64t81 -170zM416 1032q56 0 91.5 36t35.5 97
q0 47 -27 76t-78 29q-54 0 -90.5 -37t-36.5 -94q0 -45 26 -76t79 -31z" />
    <glyph glyph-name="seven.sups" unicode="&#x2077;" horiz-adv-x="720" 
d="M190 1690h607l-31 -152q-123 -125 -236.5 -302.5t-185.5 -358.5h-248q66 176 192 357.5t240 285.5h-370z" />
    <glyph glyph-name="eight.sups" unicode="&#x2078;" horiz-adv-x="772" 
d="M389 866q-148 0 -230.5 64.5t-82.5 156.5q0 149 170 213q-38 24 -59 63.5t-21 82.5q0 119 93 186.5t239 67.5q140 0 217.5 -62.5t77.5 -148.5q0 -64 -36 -113.5t-106 -75.5q46 -24 76.5 -66t30.5 -97q0 -88 -53.5 -151t-135 -91.5t-180.5 -28.5zM485 1554
q-47 0 -80.5 -27.5t-33.5 -76.5q0 -36 24 -58t70 -22q47 0 82 26t35 74q0 36 -24.5 60t-72.5 24zM410 1012q59 0 97 28.5t38 85.5q0 42 -30 68.5t-87 26.5q-61 0 -98 -30t-37 -85q0 -39 33 -66.5t84 -27.5z" />
    <glyph glyph-name="nine.sups" unicode="&#x2079;" horiz-adv-x="788" 
d="M70 1108h223q10 -82 102 -82q63 0 101 54t53 126q-59 -49 -180 -49q-108 0 -181 63t-73 169q0 133 98 222t252 89q157 0 242.5 -87.5t85.5 -236.5q0 -71 -12.5 -139t-43.5 -136.5t-77 -119.5t-119 -83t-164 -32q-147 0 -224.5 68.5t-82.5 173.5zM459 1540
q-55 0 -90 -34.5t-35 -90.5q0 -49 28.5 -75.5t81.5 -26.5q56 0 89.5 31t33.5 83q0 49 -25.5 81t-82.5 32z" />
    <glyph glyph-name="parenleft.sups" unicode="&#x207d;" horiz-adv-x="483" 
d="M401 1784h191q-147 -139 -216 -287t-69 -348q0 -229 66 -395h-174q-32 70 -54 172t-22 213q0 188 68 356t210 289z" />
    <glyph glyph-name="parenright.sups" unicode="&#x207e;" horiz-adv-x="483" 
d="M168 754h-191q149 152 217 298t68 345q0 107 -18 211.5t-47 175.5h174q78 -187 78 -385q0 -186 -72.5 -359.5t-208.5 -285.5z" />
    <glyph glyph-name="n.sups" unicode="&#x207f;" horiz-adv-x="800" 
d="M82 535l98 460q23 108 43 222h197q3 -22 -4 -80q77 94 217 94q92 0 148 -67.5t28 -200.5l-92 -428h-205l84 397q13 62 -1.5 94.5t-66.5 32.5q-53 0 -97.5 -39t-63.5 -127l-78 -358h-207z" />
    <glyph glyph-name="zero.subs" unicode="&#x2080;" horiz-adv-x="815" 
d="M258 469q146 0 222.5 -84t76.5 -227q0 -102 -26 -193.5t-76.5 -166.5t-134 -119t-189.5 -44q-146 0 -223.5 84.5t-77.5 237.5q0 88 26 175.5t76.5 164t135 124.5t190.5 48zM238 291q-49 0 -86.5 -36.5t-57.5 -92.5t-29.5 -109.5t-9.5 -99.5q0 -141 103 -141q49 0 86 39.5
t55.5 98t27.5 112.5t9 98q0 131 -98 131z" />
    <glyph glyph-name="one.subs" unicode="&#x2081;" horiz-adv-x="532" 
d="M106 -356h-221l125 592q-24 -2 -49.5 -2t-51.5 1t-36 1l35 153q67 3 127.5 25.5t93.5 52.5h154z" />
    <glyph glyph-name="two.subs" unicode="&#x2082;" horiz-adv-x="749" 
d="M395 -354h-622l6 24q15 58 32 100t52 94t95.5 101.5t147.5 97.5q110 60 143.5 87.5t33.5 66.5q0 35 -21.5 56.5t-66.5 21.5q-92 0 -127 -113h-203q62 287 354 287q72 0 129 -21.5t90.5 -57.5t50.5 -77.5t17 -85.5q0 -92 -50.5 -153t-179.5 -127q-150 -75 -188 -133h371z
" />
    <glyph glyph-name="three.subs" unicode="&#x2083;" horiz-adv-x="774" 
d="M-193 -104h213q3 -42 32.5 -72.5t86.5 -30.5q52 0 86.5 24t34.5 79q0 39 -29 61.5t-88 22.5h-73l39 172h61q117 0 117 90q0 30 -21 49.5t-63 19.5q-86 0 -115 -82h-203q11 43 31 80.5t57.5 76t102 61t149.5 22.5q133 0 208 -59.5t75 -151.5q0 -137 -146 -182
q40 -13 80.5 -56.5t40.5 -111.5q0 -123 -94.5 -196.5t-263.5 -73.5q-91 0 -159 26.5t-102 67.5t-48 83.5t-9 80.5z" />
    <glyph glyph-name="four.subs" unicode="&#x2084;" horiz-adv-x="776" 
d="M334 -352h-203l41 190h-391l35 158l413 463h277l-100 -467h116l-49 -154h-100zM18 -8h185l28 121q36 153 43 180q-46 -61 -256 -301z" />
    <glyph glyph-name="five.subs" unicode="&#x2085;" horiz-adv-x="784" 
d="M545 459l-56 -170h-364q-4 -16 -18.5 -64.5t-20.5 -70.5q70 36 154 36q118 0 182.5 -68t64.5 -167q0 -152 -105 -234.5t-265 -82.5q-81 0 -142.5 21.5t-96.5 58.5t-52.5 79t-18.5 88h211q5 -39 33 -64.5t78 -25.5q59 0 96 36t37 97q0 107 -102 107q-84 0 -127 -62
l-185 29q71 199 138 457h559z" />
    <glyph glyph-name="six.subs" unicode="&#x2086;" horiz-adv-x="792" 
d="M541 236h-211q-5 32 -30 51.5t-69 19.5q-62 0 -103.5 -48t-59.5 -132q74 61 190 61q114 0 182 -66t68 -175q0 -133 -97 -222.5t-264 -89.5q-145 0 -232 87.5t-87 250.5q0 87 24.5 171.5t73 158.5t131.5 120t189 46q135 0 214 -64t81 -169zM156 -199q56 0 91.5 35.5
t35.5 97.5q0 47 -27 76t-78 29q-54 0 -90.5 -37t-36.5 -94q0 -45 26 -76t79 -31z" />
    <glyph glyph-name="seven.subs" unicode="&#x2087;" horiz-adv-x="720" 
d="M-70 459h607l-31 -152q-123 -125 -236.5 -302.5t-185.5 -358.5h-248q66 176 192 357.5t240 285.5h-370z" />
    <glyph glyph-name="eight.subs" unicode="&#x2088;" horiz-adv-x="772" 
d="M129 -365q-148 0 -230.5 65t-82.5 157q0 149 170 213q-38 25 -59 63.5t-21 81.5q0 119 93 186.5t239 67.5q140 0 217 -62.5t77 -148.5q0 -64 -35.5 -113t-105.5 -75q46 -24 76.5 -66.5t30.5 -97.5q0 -88 -53.5 -151t-135 -91.5t-180.5 -28.5zM225 324q-47 0 -80.5 -28
t-33.5 -77q0 -36 24 -58t70 -22q47 0 82 26.5t35 74.5q0 36 -24.5 60t-72.5 24zM150 -219q59 0 97 29t38 86q0 42 -29.5 68t-87.5 26q-61 0 -98 -30t-37 -85q0 -39 33 -66.5t84 -27.5z" />
    <glyph glyph-name="nine.subs" unicode="&#x2089;" horiz-adv-x="788" 
d="M-190 -123h223q10 -82 102 -82q63 0 101 54t53 126q-59 -49 -180 -49q-108 0 -181 63t-73 169q0 133 98 222t252 89q157 0 242 -87.5t85 -236.5q0 -71 -12.5 -139t-43.5 -136.5t-76.5 -119.5t-118.5 -83t-164 -32q-147 0 -224.5 68.5t-82.5 173.5zM199 309
q-55 0 -90 -34.5t-35 -90.5q0 -49 28.5 -75.5t81.5 -26.5q56 0 89.5 31.5t33.5 83.5q0 48 -25.5 80t-82.5 32z" />
    <glyph glyph-name="parenleft.subs" unicode="&#x208d;" horiz-adv-x="483" 
d="M141 553h191q-147 -139 -216 -287t-69 -348q0 -229 66 -395h-174q-32 70 -54 172t-22 213q0 188 68 356t210 289z" />
    <glyph glyph-name="parenright.subs" unicode="&#x208e;" horiz-adv-x="483" 
d="M-92 -477h-191q149 152 217 298t68 345q0 107 -18 211.5t-47 175.5h174q77 -185 77 -385q0 -186 -72.5 -359.5t-207.5 -285.5z" />
    <glyph glyph-name="colonmonetary" unicode="&#x20a1;" horiz-adv-x="1085" 
d="M666 1130q-68 0 -125.5 -47.5t-94.5 -120.5t-63 -162.5t-37.5 -170.5t-11.5 -148q0 -133 39.5 -198.5t126.5 -65.5q81 0 131.5 40t89.5 122h272q-46 -140 -129 -229.5t-215 -126.5l-41 -201h-159l36 174h-41h-32l-37 -174h-156l43 211q-207 96 -207 438q0 91 15.5 188.5
t52.5 202.5t90.5 193.5t137 160.5t184.5 105l30 149h158l-25 -122h15q39 0 59 -2l27 124h155l-32 -165q95 -46 140.5 -138t37.5 -213h-260q-7 85 -44.5 130.5t-129.5 45.5z" />
    <glyph glyph-name="franc" unicode="&#x20a3;" horiz-adv-x="1054" 
d="M68 0l45 217h-158l39 184h158l200 947h797l-51 -234h-523l-61 -295h487l-49 -227h-487l-41 -191h252l-43 -184h-248l-45 -217h-272z" />
    <glyph glyph-name="lira" unicode="&#x20a4;" horiz-adv-x="1073" 
d="M750 721h-256q-2 -16 -8 -52t-9 -55v-6h250l-33 -153h-248q-39 -157 -104 -224h645l-80 -231h-946l43 209q74 30 113.5 88t62.5 158h-180l35 153h172q2 13 12 113h-164l35 156h148q4 38 8 57q33 218 142 327t306 109q92 0 163 -24.5t111.5 -62.5t64.5 -88t31 -97t3 -94
h-250q-7 155 -133 155q-74 0 -110 -52t-50 -159q-9 -63 -10 -71h270z" />
    <glyph glyph-name="uni20A6" unicode="&#x20a6;" horiz-adv-x="1083" 
d="M426 1124q-8 -81 -31 -211h58l-9 211h-18zM655 258h19q6 67 33 236h-62zM211 0h-219l104 494h-102l37 157h100l21 101h-105l35 161h104l93 435h331l19 -435h157q1 3 2.5 8.5t2.5 8.5l88 418h217l-92 -435h98l-37 -161h-94l-23 -101h96l-32 -157h-97l-104 -494h-319
l-21 494h-156q-2 -9 -6 -29t-6 -29zM735 651q3 16 9.5 50t9.5 51h-119l4 -101h96zM465 651l-4 101h-94q-10 -58 -21 -101h119z" />
    <glyph glyph-name="peseta" unicode="&#x20a7;" horiz-adv-x="1167" 
d="M31 0l172 815h-123l33 164h125l77 369h342q109 0 195.5 -30t139.5 -81.5t81.5 -117t30.5 -140.5h106l-34 -164h-86q-42 -189 -192.5 -283t-393.5 -94h-119l-92 -438h-262zM539 1149l-37 -170h342q-8 84 -55.5 127t-141.5 43h-108zM428 637h115q226 0 284 178h-360z" />
    <glyph glyph-name="dong" unicode="&#x20ab;" horiz-adv-x="1093" 
d="M-47 -141h878l-40 -181h-875zM756 821l53 240h-424l43 176h422l27 123h262l-27 -123h117l-41 -176h-113l-160 -746q-19 -84 -63 -315h-238q4 59 11 102q-50 -61 -114.5 -89.5t-172.5 -28.5q-142 0 -233 100t-91 274q0 104 31.5 203t90 181.5t153.5 133t211 50.5
q104 0 170 -32t86 -73zM539 721q-76 0 -134.5 -52.5t-86 -128.5t-27.5 -159q0 -93 40.5 -142t114.5 -49q92 0 155.5 71t90.5 194q29 127 -10 196.5t-143 69.5z" />
    <glyph glyph-name="Euro" unicode="&#x20ac;" horiz-adv-x="1148" 
d="M782 338h273q-59 -181 -180 -271t-314 -90q-104 0 -181 33.5t-123 96t-68.5 145.5t-22.5 188v43h-139l34 156h117q1 13 17 109h-109l33 157h117q33 99 79.5 179.5t110.5 146t152 101.5t192 36q106 0 186.5 -33t125 -89t65 -121.5t16.5 -137.5h-258q-3 85 -44 128.5
t-113 43.5q-81 0 -143 -68.5t-103 -185.5h354l-35 -157h-362q-14 -60 -19 -109h361l-35 -156h-336v-20q0 -270 156 -270q70 0 115 37.5t81 107.5z" />
    <glyph glyph-name="uni20B1" unicode="&#x20b1;" horiz-adv-x="1175" 
d="M33 0l149 707h-114l26 135h117l16 76h-116l28 135h117l61 295h363q178 0 282 -80t132 -215h137l-29 -135h-98q-4 -48 -8 -76h90l-27 -135h-100q-60 -140 -194 -216.5t-335 -76.5h-149l-86 -414h-262zM539 1147l-21 -94h307q-32 94 -149 94h-137zM426 616h152
q130 0 202 91h-336zM836 842q8 36 8 76h-355l-16 -76h363z" />
    <glyph glyph-name="uni20B2" unicode="&#x20b2;" horiz-adv-x="1155" 
d="M1137 989h-260q-4 29 -11.5 51.5t-25.5 45.5t-52 36t-83 13q-72 0 -130.5 -46.5t-93.5 -116t-59 -155.5t-33.5 -159.5t-9.5 -133.5q0 -59 6 -105t20.5 -88t38.5 -69t62.5 -43t89.5 -16q68 0 133 26l98 461h258l-124 -616q-118 -42 -197.5 -61t-169.5 -23l-35 -168h-215
l39 184q-137 39 -209 165t-72 321q0 84 13.5 173t40.5 183t73.5 178.5t107.5 154t148 115t189 56.5l26 121h211l-28 -134q130 -33 193.5 -124.5t60.5 -225.5z" />
    <glyph glyph-name="uni20B4" unicode="&#x20b4;" horiz-adv-x="1142" 
d="M504 1012h-258q20 75 56.5 137t92 113t137 79.5t181.5 28.5q99 0 175 -26t119.5 -71t65 -97.5t21.5 -112.5q0 -101 -45 -180h94l-29 -140h-194q-58 -43 -185 -108h336l-31 -141h-559q-47 -36 -69.5 -76t-22.5 -94q0 -57 40.5 -94t109.5 -37q149 0 217 147h264
q-67 -190 -190.5 -277.5t-340.5 -87.5q-164 0 -271 84t-107 234q0 118 53 201h-90l28 141h211q37 26 181 108h-344l28 140h557q94 69 94 159q0 47 -33 83t-98 36q-77 0 -120 -37.5t-74 -111.5z" />
    <glyph glyph-name="uni20B5" unicode="&#x20b5;" horiz-adv-x="1085" 
d="M674 1130q-59 0 -110.5 -33.5t-87.5 -90t-64 -125t-44.5 -143t-25 -140t-8.5 -119.5q0 -135 38 -198.5t124 -63.5q84 0 135 42t92 138h272q-56 -180 -159.5 -277t-282.5 -118l-39 -180h-213l39 184q-137 32 -211 148.5t-74 318.5q0 82 13.5 169.5t40.5 181.5t73.5 179.5
t107.5 156.5t148 119t189 62l28 132h213l-30 -140q137 -33 204 -135t58 -250h-260q0 87 -37 134.5t-129 47.5z" />
    <glyph glyph-name="uni20B9" unicode="&#x20b9;" horiz-adv-x="1067" 
d="M1106 920h-160q-28 -286 -340 -365l277 -555h-310l-249 530h-211l45 211h204q266 0 302 179h-467l32 161h422q-45 95 -180 95h-221l37 172h911l-37 -166h-276q36 -45 51 -101h203z" />
    <glyph glyph-name="uni20BA" unicode="&#x20ba;" horiz-adv-x="1175" 
d="M799 711l-250 -70l-84 -408q149 0 239.5 79.5t139.5 234.5h258q-15 -68 -38.5 -130t-60.5 -125.5t-91 -114.5t-122 -91.5t-161.5 -63t-202.5 -22.5h-301l119 555l-185 -51l35 164l185 51l22 112l-184 -51l33 166l188 51l74 351h280l-55 -267l254 70l-37 -166l-250 -70
l-22 -110l252 69z" />
    <glyph glyph-name="uni20BD" unicode="&#x20bd;" horiz-adv-x="1249" 
d="M90 0l47 225h-135l39 185h137l31 145h-137l45 217h137l123 576h438q112 0 198.5 -28.5t139.5 -78t80 -112t27 -134.5q0 -117 -42 -203t-121.5 -137t-185 -75.5t-241.5 -24.5h-174l-31 -145h323l-38 -185h-324l-47 -225h-289zM616 1133l-73 -361h166q252 0 252 205
q0 72 -48.5 114t-140.5 42h-156z" />
    <glyph glyph-name="uni2113" unicode="&#x2113;" horiz-adv-x="925" 
d="M551 1116l-72 -342q98 78 170 206t72 239q0 81 -53 81q-41 0 -68 -39.5t-49 -144.5zM608 371h248q-44 -196 -149.5 -291.5t-294.5 -95.5q-68 0 -122 15.5t-88 41.5t-58.5 61t-32.5 74.5t-11 81.5t6 82l7 25q-29 -19 -113 -60l-16 195q75 35 174 96l98 459
q52 244 158.5 351t261.5 107q58 0 108 -16t92 -49t66.5 -91t24.5 -136q0 -210 -135.5 -388t-415.5 -346l-17 -88q-22 -85 -7.5 -134.5t71.5 -49.5q51 0 84 35t61 121z" />
    <glyph glyph-name="uni2116" unicode="&#x2116;" horiz-adv-x="2123" 
d="M299 0h-256l291 1378h362q121 -537 165 -750t48 -292h2q22 182 125 649l82 393h258l-291 -1378h-348q-39 168 -70.5 312.5t-53.5 251t-38 185.5t-26.5 142.5t-16 95t-11 69t-5.5 40.5h-2q-32 -224 -129 -686zM1823 1298q141 0 228 -85t87 -236q0 -128 -52 -238t-157 -180
t-243 -70q-139 0 -220.5 82t-81.5 226q0 136 52.5 249.5t154 182.5t232.5 69zM1802 1104q-61 0 -105.5 -49.5t-62.5 -111.5t-18 -122q0 -135 104 -135q62 0 107 45.5t64.5 108t19.5 129.5q0 135 -109 135zM1341 379h619l-39 -186h-618z" />
    <glyph glyph-name="uni2117" unicode="&#x2117;" horiz-adv-x="1595" 
d="M823 1430q147 0 276 -54t222 -148.5t147 -230t54 -292.5q0 -207 -91 -373t-251 -259t-357 -93q-148 0 -277.5 52.5t-222.5 146t-146.5 229.5t-53.5 297q0 153 54 287.5t147 230.5t222.5 151.5t276.5 55.5zM821 1296q-245 0 -401 -159.5t-156 -434.5q0 -169 70 -303
t197.5 -210t289.5 -76q118 0 219.5 39.5t177 113t118 186t42.5 250.5q0 264 -157.5 429t-399.5 165zM545 342v748h319q45 0 86.5 -7.5t81.5 -26t69.5 -46t47.5 -71t18 -97.5q0 -128 -86 -192t-221 -64h-123v-244h-192zM739 934v-199h97q133 0 133 103q0 96 -131 96h-99z" />
    <glyph glyph-name="uni2120" unicode="&#x2120;" horiz-adv-x="1024" 
d="M133 1075h143q4 -33 27.5 -50t56.5 -17q70 0 70 43q0 23 -22 37t-80 26q-105 22 -141.5 61.5t-36.5 90.5q0 68 53 112.5t147 44.5q107 0 155.5 -42.5t53.5 -106.5h-137q-7 51 -76 51q-59 0 -59 -41q0 -31 78 -51q120 -29 164 -64.5t44 -101.5q0 -72 -56.5 -117
t-166.5 -45q-95 0 -153.5 47.5t-63.5 122.5zM1219 918h-138v131q0 116 13 262h-4q-30 -117 -109 -391h-127q-65 248 -94 391h-6q8 -180 8 -287v-106h-133v493h225q53 -190 72 -287h2q47 169 84 287h207v-493z" />
    <glyph glyph-name="trademark" unicode="&#x2122;" horiz-adv-x="1026" 
d="M158 1411h452v-125h-151v-368h-148v368h-153v125zM1253 918h-135v131q0 57 2 109t5 99.5t3 53.5h-4q-16 -65 -32.5 -127.5t-39.5 -143t-34 -120.5h-127q-65 248 -94 391h-6q8 -180 8 -287v-106h-133v493h225q53 -190 72 -287h2q24 95 84 287h204v-493z" />
    <glyph glyph-name="uni2126" unicode="&#x2126;" horiz-adv-x="1503" 
d="M872 1432q270 0 437.5 -155t167.5 -409q0 -214 -109.5 -377.5t-312.5 -252.5h315l-49 -238h-596l61 305q381 161 381 541q0 73 -15.5 133t-50.5 111.5t-100 80.5t-155 29q-128 0 -224 -71t-143 -182t-47 -242q0 -134 47.5 -242t134.5 -158l-63 -305h-592l49 238h346
q-105 94 -163 203t-58 253q0 150 53.5 284.5t148.5 235t234.5 159.5t302.5 59z" />
    </font>
</defs>
</svg>
