<?xml version="1.0" standalone="no"?>
<!DOCTYPE svg PUBLIC "-//W3C//DTD SVG 1.1//EN" "http://www.w3.org/Graphics/SVG/1.1/DTD/svg11.dtd" >
<svg xmlns="http://www.w3.org/2000/svg" xmlns:xlink="http://www.w3.org/1999/xlink" version="1.1">
<metadata>
Created by FontForge 20201107 at Tue Mar 11 11:28:47 2025
 By 
(c) 2014 Adobe Systems Incorporated. All Rights Reserved.
</metadata>
<defs>
<font id="AcuminPro-Italic" horiz-adv-x="819" >
  <font-face 
    font-family="Acumin Pro"
    font-weight="400"
    font-style="italic"
    font-stretch="normal"
    units-per-em="2048"
    panose-1="2 11 5 4 2 2 2 9 2 4"
    ascent="1638"
    descent="-410"
    x-height="1038"
    cap-height="1425"
    bbox="-594 -537 2476 2144"
    underline-thickness="102"
    underline-position="-204"
    slope="-12"
    unicode-range="U+0020-FB02"
  />
<missing-glyph horiz-adv-x="1024" 
d="M0 0v1434h1024v-1434h-1024zM512 809l348 522h-696zM573 717l349 -522v1044zM164 102h696l-348 523zM102 1239v-1044l349 522z" />
    <glyph glyph-name="f_f" unicode="ff" horiz-adv-x="1118" 
d="M801 899h-379l-189 -899h-170l189 899h-166l31 139h166l32 152q33 159 113 246.5t225 87.5q72 0 115 -15l-33 -143q-27 8 -80 8q-71 0 -111.5 -46.5t-60.5 -139.5l-30 -150h381l32 152q33 159 112 246.5t224 87.5q72 0 115 -15l-31 -143q-27 8 -82 8q-71 0 -110.5 -46.5
t-59.5 -139.5l-33 -150h205l-28 -139h-205l-191 -899h-170z" />
    <glyph glyph-name=".notdef" horiz-adv-x="1024" 
d="M0 0v1434h1024v-1434h-1024zM512 809l348 522h-696zM573 717l349 -522v1044zM164 102h696l-348 523zM102 1239v-1044l349 522z" />
    <glyph glyph-name=".null" horiz-adv-x="0" 
 />
    <glyph glyph-name="nonmarkingreturn" horiz-adv-x="682" 
 />
    <glyph glyph-name="space" unicode=" " horiz-adv-x="518" 
 />
    <glyph glyph-name="exclam" unicode="!" horiz-adv-x="600" 
d="M414 479h-142l129 697l54 249h180l-53 -251zM324 0h-170l61 283h170z" />
    <glyph glyph-name="quotedbl" unicode="&#x22;" horiz-adv-x="681" 
d="M332 952h-127l63 377l37 174h162l-37 -174zM653 952h-129l64 377l37 174h163l-36 -174z" />
    <glyph glyph-name="numbersign" unicode="#" horiz-adv-x="1110" 
d="M469 0l143 401h-258l-143 -401h-133l143 401h-162l21 150h194l115 317h-190l20 148h223l131 366h129l-131 -366h263l131 366h127l-129 -366h157l-20 -148h-191l-112 -317h192l-22 -150h-224l-141 -401h-133zM666 551l114 317h-260l-112 -317h258z" />
    <glyph glyph-name="dollar" unicode="$" horiz-adv-x="1017" 
d="M365 1001q0 -62 35 -106t120 -86l88 416h-8q-103 0 -169 -61t-66 -163zM750 367q0 76 -37.5 127t-130.5 100l-101 -473q124 6 196.5 70.5t72.5 175.5zM412 -211h-107l43 203q-164 22 -247 122.5t-74 266.5h168q-3 -105 45.5 -169t136.5 -83l106 508q-157 70 -226 148.5
t-69 193.5q0 169 120 274t317 105h12l31 147h108l-33 -157q76 -15 132.5 -51.5t86 -84t42 -98t8.5 -102.5h-162q-5 77 -35.5 126.5t-101.5 71.5l-95 -446q165 -73 236.5 -161t71.5 -208q0 -190 -129 -298t-344 -111z" />
    <glyph glyph-name="percent" unicode="%" horiz-adv-x="1800" 
d="M561 1368q129 0 201 -74t72 -209q0 -96 -27 -183t-77.5 -155t-129 -108.5t-174.5 -40.5q-131 0 -200.5 77.5t-69.5 211.5q0 84 26.5 167.5t75 154.5t128 115t175.5 44zM543 1249q-60 0 -108.5 -36.5t-76 -92.5t-41.5 -114.5t-14 -110.5q0 -176 146 -176q62 0 110.5 36
t75.5 92t41 114t14 110q0 178 -147 178zM455 0h-154l1122 1348h154zM1440 748q128 0 200 -73.5t72 -209.5q0 -95 -27 -182t-77 -155.5t-128.5 -109.5t-174.5 -41q-131 0 -201 78.5t-70 210.5q0 85 26.5 169t75.5 154.5t128.5 114.5t175.5 44zM1421 629q-60 0 -108.5 -36.5
t-75.5 -92.5t-41 -114.5t-14 -111.5q0 -176 145 -176q62 0 111 36.5t76 92.5t41 114.5t14 111.5q0 176 -148 176z" />
    <glyph glyph-name="ampersand" unicode="&#x26;" horiz-adv-x="1517" 
d="M514 139q92 0 168.5 43.5t175.5 149.5l-307 350q-146 -78 -209 -150.5t-63 -175.5q0 -89 65.5 -153t169.5 -64zM1315 868h194l-444 -524l301 -344h-217l-193 219q-54 -59 -98.5 -98t-101 -73.5t-122 -51t-142.5 -16.5q-175 0 -282.5 101t-107.5 261q0 76 24.5 139
t76.5 116.5t113.5 96.5t154.5 94q-119 149 -119 293q0 160 99 262.5t272 102.5q149 0 233 -87.5t84 -215.5q0 -58 -17 -107.5t-43 -85.5t-72.5 -72.5t-89.5 -62.5t-111 -61l260 -299zM715 1313q-94 0 -146.5 -64t-52.5 -149q0 -112 115 -246q126 72 187 135.5t61 151.5
q0 68 -40 120t-124 52z" />
    <glyph glyph-name="quotesingle" unicode="'" horiz-adv-x="352" 
d="M334 952h-141l65 377l37 174h172l-37 -174z" />
    <glyph glyph-name="parenleft" unicode="(" horiz-adv-x="665" 
d="M608 1503h185q-280 -264 -411.5 -532t-131.5 -615q0 -171 40 -372t107 -336h-155q-152 333 -152 708q0 687 518 1147z" />
    <glyph glyph-name="parenright" unicode=")" horiz-adv-x="665" 
d="M76 -352h-185q280 264 411.5 532t131.5 615q0 171 -40 372t-107 336h155q152 -333 152 -708q0 -351 -135.5 -638.5t-382.5 -508.5z" />
    <glyph glyph-name="asterisk" unicode="*" horiz-adv-x="792" 
d="M526 1425h146l-90 -299l264 183l63 -131l-315 -129l256 -140l-90 -125l-211 187l-39 -307h-148l93 307l-265 -189l-65 131l309 134l-248 131l95 131l204 -187z" />
    <glyph glyph-name="plus" unicode="+" horiz-adv-x="1431" 
d="M639 1139h154v-486h483v-153h-483v-500h-154v500h-485v153h485v486z" />
    <glyph glyph-name="comma" unicode="," horiz-adv-x="407" 
d="M35 -221h-152q150 227 230 522h174q-40 -160 -111 -301t-141 -221z" />
    <glyph glyph-name="hyphen" unicode="-" horiz-adv-x="745" 
d="M129 602h518l-33 -156h-518z" />
    <glyph glyph-name="period" unicode="." horiz-adv-x="401" 
d="M178 -2h-182l65 303h181z" />
    <glyph glyph-name="slash" unicode="/" horiz-adv-x="841" 
d="M125 -63h-158l821 1509h160z" />
    <glyph glyph-name="zero" unicode="0" horiz-adv-x="1132" 
d="M715 1370q95 0 166 -34t112.5 -95t61.5 -136.5t20 -166.5q0 -80 -9 -166t-30 -181t-53 -182t-80.5 -166.5t-108.5 -138t-142 -93t-177 -34.5q-179 0 -271.5 118.5t-92.5 330.5q0 77 10 161.5t32 177t55 178.5t82.5 164.5t109.5 136t141.5 92t173.5 34.5zM692 1223
q-82 0 -151.5 -56t-114.5 -143t-77 -195.5t-46 -210.5t-14 -190q0 -303 209 -303q84 0 154.5 59.5t115 150.5t76 203t44.5 213.5t13 186.5q0 136 -48.5 210.5t-160.5 74.5z" />
    <glyph glyph-name="one" unicode="1" horiz-adv-x="686" 
d="M358 0h-170l242 1126q-49 -26 -142.5 -50t-150.5 -29l33 141q101 16 197 62.5t151 97.5h127z" />
    <glyph glyph-name="two" unicode="2" horiz-adv-x="1030" 
d="M860 0h-885l7 33q35 158 153.5 296t343.5 289q21 14 61 41q52 34 76 50.5t60.5 44.5t52.5 45t37.5 43t29.5 50.5t14.5 55.5t6.5 68q0 94 -52 151.5t-159 57.5q-115 0 -183.5 -65t-107.5 -202h-165q19 89 54 160t90 129.5t137.5 90.5t186.5 32q95 0 169 -29t118 -78.5
t66 -110.5t22 -130q0 -40 -5.5 -76t-12.5 -65t-25 -59.5t-30.5 -50.5t-43 -49t-48 -44.5t-60.5 -46.5t-65.5 -46l-76.5 -51q-20 -13 -30 -20q-166 -109 -254.5 -188.5t-132.5 -178.5h704z" />
    <glyph glyph-name="three" unicode="3" horiz-adv-x="1046" 
d="M365 1026h-170q16 65 47 122.5t81 108.5t129 81t177 30q181 0 273.5 -90t92.5 -225q0 -126 -63 -208t-168 -116v-4q81 -35 135.5 -107.5t54.5 -191.5q0 -196 -131.5 -321t-359.5 -125q-108 0 -190.5 30.5t-131 84.5t-72.5 120.5t-26 144.5h172q7 -102 69 -168.5
t195 -66.5q144 0 221.5 84t77.5 209q0 235 -280 235h-82l28 148h74q148 0 225.5 56t77.5 181q0 89 -53.5 138t-155.5 49q-172 0 -247 -199z" />
    <glyph glyph-name="four" unicode="4" horiz-adv-x="1067" 
d="M741 0h-166l74 352h-610l37 158l753 838h199l-182 -852h170l-49 -144h-152zM680 496l82 376q41 194 78 312q-32 -50 -136 -170.5t-258.5 -293t-199.5 -224.5h434z" />
    <glyph glyph-name="five" unicode="5" horiz-adv-x="1060" 
d="M1073 1348l-55 -150h-555q-74 -276 -117 -397q58 49 122.5 73.5t154.5 24.5q160 0 257 -103t97 -276q0 -109 -33.5 -205.5t-96.5 -171.5t-162.5 -119t-223.5 -44q-183 0 -292 97.5t-116 274.5h170q9 -105 72 -166t178 -61q80 0 143.5 32t102.5 85t59.5 118.5t20.5 137.5
q0 118 -57.5 185t-176.5 67q-72 0 -128 -23.5t-87.5 -53.5t-68.5 -81l-142 47q85 245 209 709h725z" />
    <glyph glyph-name="six" unicode="6" horiz-adv-x="1091" 
d="M1067 1051h-168q-9 76 -58 125t-153 49q-64 0 -119.5 -27t-96 -72t-74.5 -109t-56 -131t-39 -145q53 66 137 110t197 44q170 0 265 -108t95 -285q0 -139 -56 -256.5t-168.5 -191.5t-260.5 -74q-206 0 -309 128.5t-103 350.5q0 74 9 154t30.5 169.5t53 172.5t80.5 159.5
t109 132.5t142 89.5t176 33.5q80 0 144.5 -20t104.5 -51.5t67 -74.5t38.5 -85.5t12.5 -87.5zM518 125q142 0 221.5 107t79.5 262q0 49 -11 91.5t-35.5 81t-72 61t-114.5 22.5q-142 0 -229 -93.5t-87 -236.5q0 -56 14 -107t42 -94t77.5 -68.5t114.5 -25.5z" />
    <glyph glyph-name="seven" unicode="7" horiz-adv-x="954" 
d="M203 1348h870l-31 -146q-217 -239 -426.5 -566.5t-343.5 -635.5h-186q84 208 227.5 447.5t280.5 422.5t266 328h-690z" />
    <glyph glyph-name="eight" unicode="8" horiz-adv-x="1054" 
d="M461 -23q-194 0 -304 105.5t-110 261.5q0 142 87 245t228 142q-65 32 -110 99t-45 155q0 166 117.5 275.5t316.5 109.5q170 0 270.5 -88t100.5 -231q0 -128 -67.5 -215.5t-162.5 -118.5q81 -37 130 -113t49 -182q0 -191 -136 -318t-364 -127zM625 1227q-117 0 -183.5 -67
t-66.5 -177q0 -82 55 -136t160 -54q123 0 187.5 65.5t64.5 173.5q0 85 -52 140t-165 55zM481 121q139 0 221 84t82 217q0 104 -62 164.5t-187 60.5q-139 0 -225.5 -83.5t-86.5 -205.5q0 -104 66.5 -170.5t191.5 -66.5z" />
    <glyph glyph-name="nine" unicode="9" horiz-adv-x="1097" 
d="M80 313h168q14 -95 64.5 -142.5t152.5 -47.5q289 0 391 526q-49 -73 -132.5 -112t-188.5 -39q-161 0 -264 100.5t-103 282.5q0 71 20 141t60.5 132.5t96.5 110t135 75.5t169 28q197 0 296 -125.5t99 -339.5q0 -68 -6.5 -141.5t-24.5 -165.5t-45.5 -176t-75 -166
t-107.5 -141.5t-147.5 -96t-191.5 -36.5q-81 0 -144 19.5t-102 51t-66 76.5t-38.5 89.5t-15.5 96.5zM635 1223q-93 0 -161.5 -49.5t-100 -124t-31.5 -160.5q0 -118 63 -184t168 -66q133 0 218.5 85.5t85.5 219.5q0 58 -12.5 106t-39.5 88t-75.5 62.5t-114.5 22.5z" />
    <glyph glyph-name="colon" unicode=":" horiz-adv-x="495" 
d="M379 739h-176l63 295h176zM223 0h-176l64 297h174z" />
    <glyph glyph-name="semicolon" unicode=";" horiz-adv-x="569" 
d="M434 733h-178l66 301h178zM92 -221h-149q143 224 223 522h174q-34 -142 -108.5 -296.5t-139.5 -225.5z" />
    <glyph glyph-name="less" unicode="&#x3c;" horiz-adv-x="1259" 
d="M170 500v149l920 498v-172l-750 -400l750 -411v-172z" />
    <glyph glyph-name="equal" unicode="=" horiz-adv-x="1460" 
d="M170 401h1120v-153h-1120v153zM170 911h1120v-153h-1120v153z" />
    <glyph glyph-name="greater" unicode="&#x3e;" horiz-adv-x="1259" 
d="M1090 639v-150l-920 -497v174l750 397l-750 414v170z" />
    <glyph glyph-name="question" unicode="?" horiz-adv-x="993" 
d="M569 430h-176l6 35q22 98 73 177t179 177q51 39 75.5 59t58 52.5t47.5 57.5t25 59.5t11 74.5q0 75 -47.5 124.5t-150.5 49.5q-101 0 -164.5 -54t-99.5 -163h-173q8 33 19 65t30 69.5t43 69.5t59 63t77 52.5t98.5 34.5t120.5 13q94 0 166 -26.5t113 -72t61 -99.5t20 -115
q0 -73 -19 -132.5t-61 -111t-84.5 -89t-113.5 -89.5q-89 -67 -131 -128t-58 -137zM477 0h-176l61 283h177z" />
    <glyph glyph-name="at" unicode="@" horiz-adv-x="1947" 
d="M1411 -109l35 -122q-81 -57 -214.5 -92t-307.5 -35q-172 0 -315.5 53t-247 151t-161 245t-57.5 327q0 152 42.5 295t124.5 261t193 206.5t256 138t306 49.5q123 0 234.5 -27.5t206.5 -84t164.5 -136.5t109 -191.5t39.5 -242.5q0 -275 -143.5 -451t-352.5 -176
q-187 0 -193 158q-113 -156 -301 -156q-128 0 -203 84t-75 244q0 150 58.5 283.5t162.5 216t227 82.5q58 0 103.5 -14.5t73 -39.5t44 -51t23.5 -55l35 139h156l-138 -549q-27 -117 -13.5 -161.5t73.5 -44.5q128 0 220.5 139.5t92.5 343.5q0 261 -168 409t-448 148
q-166 0 -307.5 -64t-237.5 -174.5t-150 -260t-55 -318.5q0 -289 169 -462t462 -173q300 0 477 108zM1014 838q-85 0 -154 -66.5t-104 -165t-35 -203.5q0 -206 156 -206q99 0 174 79t112 234q83 328 -149 328z" />
    <glyph glyph-name="A" unicode="A" horiz-adv-x="1259" 
d="M907 436h-549l-235 -436h-191l791 1425h215l215 -1425h-180zM438 588h455q-82 560 -90 680h-2q-88 -178 -363 -680z" />
    <glyph glyph-name="B" unicode="B" horiz-adv-x="1282" 
d="M66 0l301 1425h464q105 0 185 -27t126.5 -74t69.5 -106t23 -128q0 -132 -75 -222t-204 -125q90 -30 151.5 -109t61.5 -190q0 -148 -73.5 -249.5t-195.5 -148t-284 -46.5h-550zM385 682l-115 -535h351q102 0 181 30t129 97t50 164q2 112 -75 178t-232 66h-289zM418 829
h299q156 0 245 59.5t89 188.5q0 106 -69.5 153.5t-184.5 47.5h-285z" />
    <glyph glyph-name="C" unicode="C" horiz-adv-x="1337" 
d="M1071 422h189q-53 -139 -132 -234t-203 -150.5t-288 -55.5q-131 0 -232 44t-162.5 122.5t-92.5 181t-31 225.5q0 129 27.5 254t86.5 241t142.5 203.5t205 140t265.5 52.5q228 0 360.5 -120.5t141.5 -332.5h-185q-11 139 -94 221t-242 82q-123 0 -224 -64t-164 -170
t-96.5 -235.5t-33.5 -267.5q0 -91 19.5 -166t60 -135t109.5 -93.5t161 -33.5q279 0 412 291z" />
    <glyph glyph-name="D" unicode="D" horiz-adv-x="1443" 
d="M66 0l301 1425h411q276 0 436 -161.5t160 -440.5q0 -176 -55.5 -327t-157 -261t-253 -172.5t-335.5 -62.5h-507zM512 1276l-236 -1126h293q191 0 331 84.5t212 235.5t72 351q2 215 -110 335t-318 120h-244z" />
    <glyph glyph-name="E" unicode="E" horiz-adv-x="1163" 
d="M1081 827l-32 -151h-666l-109 -524h760l-55 -152h-913l301 1425h876l-31 -151h-700l-96 -447h665z" />
    <glyph glyph-name="F" unicode="F" horiz-adv-x="1120" 
d="M66 0l301 1425h878l-33 -151h-700l-100 -479h655l-33 -150h-655l-135 -645h-178z" />
    <glyph glyph-name="G" unicode="G" horiz-adv-x="1433" 
d="M1339 770l-157 -770h-144q2 46 33 217q-49 -76 -105.5 -125.5t-145 -79.5t-204.5 -30q-160 0 -272.5 74.5t-166.5 200.5t-54 292q0 133 29.5 261t92 243.5t150.5 202.5t214 138.5t274 51.5q230 0 367.5 -120.5t142.5 -315.5h-174q-15 125 -103.5 205.5t-257.5 80.5
q-104 0 -194 -41.5t-154 -112t-110 -164t-68.5 -198.5t-22.5 -213q0 -95 20.5 -173t62.5 -137.5t110.5 -92.5t159.5 -33q89 0 161.5 26t122.5 68.5t88 106t61 128.5t40 146l2 6h-418l33 158h587z" />
    <glyph glyph-name="H" unicode="H" horiz-adv-x="1429" 
d="M66 0l301 1425h178l-125 -587h717l125 587h178l-301 -1425h-178l143 686h-717l-143 -686h-178z" />
    <glyph glyph-name="I" unicode="I" horiz-adv-x="534" 
d="M369 1425h178l-301 -1425h-180z" />
    <glyph glyph-name="J" unicode="J" horiz-adv-x="690" 
d="M313 373l224 1052h178l-228 -1065q-40 -196 -129.5 -288t-267.5 -92q-102 0 -164 20l35 145q52 -14 131 -14q45 0 80 14t56.5 34t39 55.5t26.5 64.5t19 74z" />
    <glyph glyph-name="K" unicode="K" horiz-adv-x="1232" 
d="M66 0l301 1425h176l-150 -698q44 41 357 306t456 392h230l-717 -608l448 -817h-200l-385 711l-228 -172l-110 -539h-178z" />
    <glyph glyph-name="L" unicode="L" horiz-adv-x="1085" 
d="M66 0l301 1425h178l-271 -1273h715l-53 -152h-870z" />
    <glyph glyph-name="M" unicode="M" horiz-adv-x="1708" 
d="M1239 0l129 606q79 381 154 690h-6q-21 -45 -54.5 -112t-89 -170t-95 -176.5t-120 -218.5t-113 -203t-124.5 -223.5t-107 -192.5h-164q-8 65 -31 249t-39 318.5t-35 297t-30 274t-12 159.5h-6q-25 -167 -142 -727l-118 -571h-173l304 1425h270q131 -974 143 -1196h2
q28 63 127.5 242.5t289.5 516t247 437.5h272l-301 -1425h-178z" />
    <glyph glyph-name="N" unicode="N" horiz-adv-x="1458" 
d="M236 0h-173l304 1425h231q35 -97 152 -405.5t197 -527.5t97 -287h3q9 61 25.5 149t29.5 151.5t39.5 186t36.5 170.5l118 563h172l-301 -1425h-221q-396 1058 -452 1251h-2q-24 -150 -136 -673z" />
    <glyph glyph-name="O" unicode="O" horiz-adv-x="1486" 
d="M872 1446q261 0 402 -158.5t141 -431.5q0 -128 -27.5 -251t-88 -237t-146.5 -199.5t-213 -137t-278 -51.5q-257 0 -398 157.5t-141 415.5q0 128 29.5 254t91 241.5t148 204t211 141t269.5 52.5zM860 1296q-91 0 -171 -31.5t-139.5 -85.5t-106.5 -126t-76.5 -154.5
t-44.5 -168.5t-15 -171q0 -125 39 -219.5t125.5 -152.5t212.5 -58q108 0 199 42.5t154 114.5t107.5 166.5t65.5 198t21 209.5q0 201 -94.5 318.5t-276.5 117.5z" />
    <glyph glyph-name="P" unicode="P" horiz-adv-x="1239" 
d="M66 0l301 1425h454q206 0 320 -105t114 -273q0 -151 -71 -255.5t-193 -154t-286 -49.5h-340l-123 -588h-176zM512 1276l-115 -539h308q362 0 362 299q0 240 -291 240h-264z" />
    <glyph glyph-name="Q" unicode="Q" horiz-adv-x="1486" 
d="M872 1446q261 0 402 -158.5t141 -431.5q0 -223 -85 -424.5t-249 -322.5l324 -246l-111 -123l-372 283q-124 -43 -260 -43q-257 0 -398 157.5t-141 415.5q0 128 29.5 254t91 241.5t148 204t211 141t269.5 52.5zM860 1296q-91 0 -171 -31.5t-139.5 -85.5t-106.5 -126
t-76.5 -154.5t-44.5 -168.5t-15 -171q0 -125 39 -219.5t125.5 -152.5t212.5 -58q108 0 199 42.5t154 114.5t107.5 166.5t65.5 198t21 209.5q0 201 -94.5 318.5t-276.5 117.5z" />
    <glyph glyph-name="R" unicode="R" horiz-adv-x="1265" 
d="M676 637h-299l-133 -637h-178l301 1425h479q195 0 299 -93t104 -253q0 -154 -83.5 -250t-229.5 -129q23 -9 43 -21t42 -31t37.5 -47t25.5 -63.5t9.5 -85.5t-12.5 -108q-61 -283 -55 -344h-168q-10 98 49 338q33 155 -20 227t-211 72zM512 1276l-102 -490h280
q375 0 375 275q0 215 -254 215h-299z" />
    <glyph glyph-name="S" unicode="S" horiz-adv-x="1173" 
d="M47 414h180q12 -142 98.5 -215.5t237.5 -73.5q145 0 229.5 66.5t84.5 193.5q0 100 -62.5 166.5t-230.5 130.5q-197 75 -278 158.5t-81 208.5q0 80 29 150.5t84.5 126t146.5 88t207 32.5q115 0 204 -31.5t142.5 -86.5t80.5 -125t28 -152h-178q-13 118 -79.5 182.5
t-211.5 64.5q-128 0 -198 -65t-70 -164q0 -78 52.5 -130.5t205.5 -111.5q217 -80 307 -178t90 -239q0 -87 -29 -162t-88.5 -136t-163 -96.5t-239.5 -35.5q-240 0 -366.5 118t-131.5 316z" />
    <glyph glyph-name="T" unicode="T" horiz-adv-x="1091" 
d="M332 0l268 1274h-442l32 151h1065l-32 -151h-445l-268 -1274h-178z" />
    <glyph glyph-name="U" unicode="U" horiz-adv-x="1376" 
d="M346 1425h178l-186 -874q-22 -116 -12.5 -196t53.5 -130t105.5 -72t144.5 -22q188 0 275.5 92t135.5 326l189 876h178l-190 -890q-32 -153 -77.5 -254.5t-117 -170t-171 -98.5t-241.5 -30q-124 0 -218 32t-159.5 102t-83 180t12.5 265z" />
    <glyph glyph-name="V" unicode="V" horiz-adv-x="1253" 
d="M588 0h-203l-201 1425h178l99 -745q45 -342 55 -512h4q56 130 293 541l412 716h188z" />
    <glyph glyph-name="W" unicode="W" horiz-adv-x="1812" 
d="M463 0h-191l-65 1425h176q3 -131 13.5 -448.5t15 -523t0.5 -267.5h2q23 70 128 293t248.5 521t202.5 425h170q52 -1046 43 -1230h2q27 72 123 277.5t237 500.5t214 452h178l-703 -1425h-190q-45 1008 -39 1190h-2q-27 -73 -103 -238t-145 -307t-176.5 -361.5
t-138.5 -283.5z" />
    <glyph glyph-name="X" unicode="X" horiz-adv-x="1171" 
d="M1069 0h-192l-269 590h-2l-485 -590h-209l620 733l-319 692h193l251 -561h2l480 561h198l-604 -698z" />
    <glyph glyph-name="Y" unicode="Y" horiz-adv-x="1132" 
d="M524 0h-176l111 535q3 21 -2 36l-312 854h189q31 -93 130.5 -376t119.5 -351q29 44 100 139.5t137 181t169 218.5t145 188h196l-678 -864q-13 -17 -16 -37z" />
    <glyph glyph-name="Z" unicode="Z" horiz-adv-x="1142" 
d="M-51 0l28 135l1031 1139h-789l33 151h1005l-32 -147l-1018 -1126h846l-58 -152h-1046z" />
    <glyph glyph-name="bracketleft" unicode="[" horiz-adv-x="673" 
d="M406 -352h-424l395 1855h424l-27 -131h-274l-338 -1593h274z" />
    <glyph glyph-name="backslash" unicode="\" horiz-adv-x="829" 
d="M401 1446l238 -1493h-145l-238 1493h145z" />
    <glyph glyph-name="bracketright" unicode="]" horiz-adv-x="673" 
d="M283 1503h424l-394 -1855h-424l27 131h272l338 1593h-272z" />
    <glyph glyph-name="asciicircum" unicode="^" horiz-adv-x="983" 
d="M909 641h-151l-271 588l-260 -588h-153l346 729h147z" />
    <glyph glyph-name="underscore" unicode="_" horiz-adv-x="1048" 
d="M-143 -160h1040l-23 -104h-1040z" />
    <glyph glyph-name="grave" unicode="`" 
d="M201 1528h196l224 -311h-158z" />
    <glyph glyph-name="a" unicode="a" horiz-adv-x="1079" 
d="M961 702l-95 -444q-40 -193 -49 -258h-166q6 62 27 160q-22 -36 -47.5 -64t-66.5 -56.5t-101.5 -44t-136.5 -15.5q-75 0 -132 23t-89.5 61.5t-48 83.5t-15.5 94q0 85 31.5 151t78 105t115.5 66.5t128.5 39.5t131.5 19q14 1 252 10l15 69q42 226 -187 226
q-63 0 -108.5 -14.5t-73.5 -42.5t-43 -53t-29 -62h-174q15 63 45 114t80.5 95.5t131.5 69t186 24.5q188 0 283 -89.5t57 -267.5zM748 492l4 16q-158 -6 -213 -12q-54 -5 -98 -14t-86.5 -26t-70.5 -41.5t-45.5 -62.5t-17.5 -86q0 -63 42 -104t124 -41t145 29.5t104.5 84
t67.5 116t44 141.5z" />
    <glyph glyph-name="b" unicode="b" horiz-adv-x="1146" 
d="M102 276l258 1227h170l-131 -620q125 176 338 176q159 0 247.5 -101.5t88.5 -283.5q0 -99 -20.5 -196.5t-65 -187.5t-107.5 -159t-155 -110t-201 -41q-111 0 -182.5 44.5t-99.5 116.5q-23 -96 -37 -141h-166q5 22 14 60t23.5 103.5t25.5 112.5zM526 127q73 0 135.5 33.5
t105 88t72.5 125t44 143t14 142.5q0 250 -219 250q-140 0 -235.5 -111t-131.5 -284q-38 -184 15.5 -285.5t199.5 -101.5z" />
    <glyph glyph-name="c" unicode="c" horiz-adv-x="1026" 
d="M741 311h170q-55 -157 -169 -244t-291 -87q-185 0 -281 109.5t-96 295.5q0 96 20.5 190.5t64.5 182t105.5 154.5t151 107t194.5 40q84 0 151 -23t107.5 -60t66 -84.5t34 -93.5t4.5 -91h-166q-7 213 -207 213q-86 0 -156 -49.5t-110.5 -128.5t-62 -168t-21.5 -177
q0 -278 225 -278q176 0 266 192z" />
    <glyph glyph-name="d" unicode="d" horiz-adv-x="1155" 
d="M1036 1503h168l-256 -1214q-43 -205 -57 -289h-166q3 39 29 164q-118 -184 -344 -184q-163 0 -249.5 110t-86.5 293q0 93 21.5 187.5t66.5 182.5t108 156t153 109t195 41q119 0 193.5 -50.5t95.5 -111.5zM621 909q-87 0 -159 -47t-116.5 -122.5t-69 -164t-24.5 -176.5
q0 -136 56 -203t161 -67q78 0 142 33.5t108.5 93.5t74.5 133.5t48 163.5q35 168 -19.5 262t-201.5 94z" />
    <glyph glyph-name="e" unicode="e" horiz-adv-x="1052" 
d="M961 494h-709q-8 -82 -8 -99q0 -132 60 -203t169 -71q104 0 165 46.5t103 125.5h177q-131 -313 -465 -313q-188 0 -284.5 111.5t-96.5 299.5q0 91 19 182t62 179.5t104.5 156t154.5 109t204 41.5q101 0 175 -31t115.5 -85t61 -117.5t19.5 -137.5q0 -93 -26 -194zM281 623
h534q6 27 6 75q0 224 -215 224q-118 0 -201.5 -77.5t-123.5 -221.5z" />
    <glyph glyph-name="f" unicode="f" horiz-adv-x="567" 
d="M233 -2h-170l189 899h-166l33 139h164l32 150q33 155 117.5 246.5t229.5 91.5q71 0 120 -17l-32 -145q-33 10 -84 10q-73 0 -116.5 -46.5t-64.5 -141.5l-32 -148h204l-30 -139h-205z" />
    <glyph glyph-name="g" unicode="g" horiz-adv-x="1140" 
d="M1038 764l-141 -662q-19 -89 -39 -154.5t-49.5 -129t-68.5 -106t-91.5 -76t-123 -49t-158.5 -15.5q-387 0 -387 313h172q0 -77 57.5 -127.5t175.5 -50.5q64 0 114 18t84.5 49t62.5 83t46 108t37 135l21 93q-116 -189 -336 -189q-157 0 -247.5 105t-90.5 294
q0 94 21.5 187t66 177.5t106 149.5t147.5 103.5t185 38.5q124 0 200 -51t93 -117q26 106 43 147h162q-42 -174 -62 -274zM612 913q-84 0 -153.5 -43t-113.5 -114t-67.5 -159t-23.5 -181q0 -130 56.5 -197t162.5 -67q70 0 130 31t103.5 86.5t74 125.5t48.5 154
q19 75 14.5 141t-27 115.5t-75 78.5t-129.5 29z" />
    <glyph glyph-name="h" unicode="h" horiz-adv-x="1128" 
d="M43 0l317 1503h170l-135 -631q132 187 346 187q50 0 93.5 -10.5t85.5 -37t65 -71t32 -112t-13 -160.5l-140 -668h-170l135 641q28 135 -8 201.5t-149 66.5q-126 0 -215.5 -92.5t-122.5 -243.5l-123 -573h-168z" />
    <glyph glyph-name="i" unicode="i" horiz-adv-x="475" 
d="M43 0l219 1038h170l-221 -1038h-168zM313 1280l47 223h170l-47 -223h-170z" />
    <glyph glyph-name="j" unicode="j" horiz-adv-x="475" 
d="M483 1280h-170l47 223h170zM262 1038h170l-235 -1104q-19 -94 -43.5 -157t-63.5 -111.5t-96.5 -71t-136.5 -22.5q-43 0 -101 8l37 148q36 -4 51 -4q87 0 123 48t64 179z" />
    <glyph glyph-name="k" unicode="k" horiz-adv-x="985" 
d="M528 1503l-202 -942q54 49 262.5 230.5t281.5 246.5h215q-190 -167 -464 -403l274 -635h-193l-217 528l-194 -151l-80 -377h-170l319 1503h168z" />
    <glyph glyph-name="l" unicode="l" horiz-adv-x="475" 
d="M211 0h-168l317 1503h170z" />
    <glyph glyph-name="m" unicode="m" horiz-adv-x="1667" 
d="M43 0l158 748q37 183 57 290h166q-5 -65 -27 -159q37 54 75 90.5t99.5 63t137.5 26.5q215 0 239 -191q135 191 346 191q68 0 120 -20t91 -65.5t48 -119t-11 -180.5l-143 -674h-166l137 653q57 256 -145 256q-115 0 -190 -88t-105 -229l-125 -592h-166l133 635
q16 82 14 143t-39 96t-110 35q-118 0 -197 -94.5t-110 -243.5l-119 -571h-168z" />
    <glyph glyph-name="n" unicode="n" horiz-adv-x="1128" 
d="M43 0l164 774q27 135 51 264h166q-3 -50 -31 -176q124 197 348 197q159 0 231 -99.5t27 -310.5l-135 -649h-170l135 645q59 264 -159 264q-136 0 -223.5 -108.5t-124.5 -280.5l-111 -520h-168z" />
    <glyph glyph-name="o" unicode="o" horiz-adv-x="1097" 
d="M625 1059q181 0 287 -112.5t106 -315.5q0 -86 -18.5 -173t-61.5 -174t-105.5 -154t-157.5 -108.5t-210 -41.5q-187 0 -288 110.5t-101 306.5q0 89 20.5 180t65 178t107.5 154.5t155.5 108.5t200.5 41zM608 918q-86 0 -156.5 -49.5t-113 -127.5t-65.5 -167t-23 -175
q0 -132 60 -205t173 -73q72 0 133 32.5t102.5 86t70.5 121.5t42 138t13 138q0 134 -59.5 207.5t-176.5 73.5z" />
    <glyph glyph-name="p" unicode="p" horiz-adv-x="1155" 
d="M-45 -408l242 1141q45 206 61 305h168q-2 -18 -33 -178q133 199 355 199q155 0 242 -106t87 -287q0 -103 -22.5 -202t-69 -186.5t-110.5 -154t-153.5 -105t-191.5 -38.5q-117 0 -187.5 45t-100.5 114l-117 -547h-170zM313 514q-38 -180 14.5 -283.5t204.5 -103.5
q90 0 163 49t116 127t65.5 167.5t22.5 178.5q0 127 -56 193.5t-159 66.5q-71 0 -134 -33t-109 -89t-79 -125.5t-49 -147.5z" />
    <glyph glyph-name="q" unicode="q" horiz-adv-x="1153" 
d="M631 -408l121 564q-64 -87 -147.5 -131.5t-203.5 -44.5q-141 0 -234 101t-93 296q0 129 40 252t110 218.5t173 153.5t221 58q125 0 196 -46.5t91 -113.5q22 96 37 139h166q-31 -121 -70 -311l-241 -1135h-166zM627 913q-114 0 -202.5 -81.5t-131.5 -199t-43 -241.5
q0 -126 54.5 -195t160.5 -69q76 0 139.5 33t108 91.5t75.5 132.5t48 163q20 109 12.5 190.5t-63 128.5t-158.5 47z" />
    <glyph glyph-name="r" unicode="r" horiz-adv-x="700" 
d="M748 1059l-37 -176q-149 -10 -254 -116.5t-142 -281.5l-104 -485h-168l156 731q52 266 59 307h164q-5 -70 -39 -219q58 112 153 176t212 64z" />
    <glyph glyph-name="s" unicode="s" horiz-adv-x="929" 
d="M10 311h174q8 -87 66.5 -140.5t175.5 -53.5q102 0 157.5 46t55.5 122q0 69 -50 111.5t-167 84.5q-163 57 -227 120.5t-64 156.5q0 129 97.5 215t277.5 86q97 0 170 -25.5t114.5 -69t61.5 -95t18 -109.5h-172q-14 164 -209 164q-83 0 -134.5 -39.5t-51.5 -108.5
q0 -52 45.5 -85t161.5 -75q163 -59 234 -130.5t71 -178.5q0 -153 -112.5 -240t-301.5 -87q-192 0 -291.5 89.5t-99.5 241.5z" />
    <glyph glyph-name="t" unicode="t" horiz-adv-x="632" 
d="M98 899l31 139h174l64 299h168l-64 -299h221l-30 -139h-222l-131 -629q-19 -70 -4.5 -105.5t78.5 -35.5q63 0 102 10l-30 -135q-47 -16 -144 -16q-122 0 -164 60.5t-16 191.5l139 659h-172z" />
    <glyph glyph-name="u" unicode="u" horiz-adv-x="1110" 
d="M1065 1038l-162 -759q-30 -141 -53 -279h-166q4 68 29 178q-55 -93 -143 -145.5t-205 -52.5q-99 0 -163 38t-92.5 123t1.5 221l147 676h166l-139 -659q-12 -55 -13 -96.5t11 -79.5t49 -58t98 -20q126 0 220 101.5t138 312.5l107 499h170z" />
    <glyph glyph-name="v" unicode="v" horiz-adv-x="972" 
d="M129 1038h168q86 -703 94 -878h2q21 49 106.5 208t200.5 368t164 302h178l-581 -1038h-199z" />
    <glyph glyph-name="w" unicode="w" horiz-adv-x="1499" 
d="M143 1038h168q40 -647 37 -866h2q61 148 414 866h170q37 -717 31 -854h2q117 263 419 854h177l-541 -1038h-182q-42 655 -37 827h-2q-11 -27 -26.5 -63t-41 -90t-46 -96.5t-61 -125.5t-64 -131t-78 -157t-81.5 -164h-188z" />
    <glyph glyph-name="x" unicode="x" horiz-adv-x="892" 
d="M106 1038h183q36 -79 77 -170.5t64 -143.5t33 -73h2q136 167 321 387h199l-444 -508l245 -530h-186q-47 100 -110 241t-72 160h-2q-62 -87 -324 -401h-196l446 530z" />
    <glyph glyph-name="y" unicode="y" horiz-adv-x="978" 
d="M119 1038h170q100 -729 110 -905h2q18 34 78.5 160t160 324.5t216.5 420.5h180l-577 -1095q-54 -103 -100.5 -171t-86 -108t-87 -60.5t-88 -26t-105.5 -5.5q-69 0 -119 12l35 150q46 -8 94 -8q67 0 112.5 22t80 65t84.5 130z" />
    <glyph glyph-name="z" unicode="z" horiz-adv-x="901" 
d="M-47 0l29 135l698 762h-539l31 141h741l-32 -143l-686 -754h583l-53 -141h-772z" />
    <glyph glyph-name="braceleft" unicode="{" horiz-adv-x="731" 
d="M51 512l31 145q72 0 120.5 16t77 50t43 71t25.5 95l60 278q38 186 136 261t259 75h55l-29 -133h-20q-108 0 -165.5 -44.5t-82.5 -162.5l-61 -293q-55 -263 -256 -292q95 -23 126 -97.5t3 -208.5l-51 -237q-13 -62 -13 -107.5t10 -74t31.5 -45t47.5 -23t63 -6.5h31
l-29 -133h-35q-45 0 -83.5 7.5t-75.5 24.5t-61.5 45t-41.5 70t-16.5 99t14.5 131l55 258q9 44 12 74t-3 62t-25 50.5t-57 31t-95 13.5z" />
    <glyph glyph-name="bar" unicode="|" horiz-adv-x="581" 
d="M199 1599h163v-2136h-163v2136z" />
    <glyph glyph-name="braceright" unicode="}" horiz-adv-x="731" 
d="M696 637l-30 -145q-58 0 -101 -11.5t-70.5 -30t-47 -50t-29.5 -63t-19 -77.5l-57 -278q-39 -186 -137.5 -261t-259.5 -75h-54l27 133h21q109 0 166 45t81 162l62 293q55 263 256 292q-94 23 -125 98t-2 208l49 237q13 62 13.5 107.5t-9.5 74t-31.5 45t-47.5 23t-62 6.5
h-33l29 133h34q45 0 83.5 -7.5t75.5 -24.5t61.5 -45.5t42 -70.5t17 -99t-14.5 -132l-54 -256q-10 -44 -13 -74t2.5 -62t24.5 -51t57 -31t95 -13z" />
    <glyph glyph-name="asciitilde" unicode="~" horiz-adv-x="1372" 
d="M317 422h-139v55q0 140 64.5 204t169.5 64q70 0 153 -29t145.5 -64t131 -64t112.5 -29q55 0 78 34t23 109v35h139v-43q0 -280 -233 -280q-66 0 -147 29t-143.5 63t-132.5 63t-116 29q-105 0 -105 -143v-33z" />
    <glyph glyph-name="uni00A0" unicode="&#xa0;" horiz-adv-x="518" 
 />
    <glyph glyph-name="exclamdown" unicode="&#xa1;" horiz-adv-x="466" 
d="M145 559h142l-127 -694l-54 -252h-180l54 252zM236 1038h172l-62 -282h-170z" />
    <glyph glyph-name="cent" unicode="&#xa2;" horiz-adv-x="1048" 
d="M313 563q0 -106 36.5 -172t103.5 -88l155 731q-92 -14 -161 -91t-101.5 -177t-32.5 -203zM782 473h170q-99 -299 -420 -313l-40 -193h-111l41 197q-139 22 -210 128t-71 263q0 116 33.5 224t95 194t157 140t210.5 61l35 159h110l-34 -166q75 -11 130.5 -43.5t86 -79
t45 -97t12.5 -105.5h-164q-14 155 -141 186l-156 -733q145 16 221 178z" />
    <glyph glyph-name="sterling" unicode="&#xa3;" horiz-adv-x="1013" 
d="M866 0h-903l29 131q100 43 151.5 150.5t75.5 277.5q1 12 4 33.5t4 30.5h-184l29 129h170q13 117 22 180q29 220 130.5 328t279.5 108q91 0 159 -29.5t105 -79t53.5 -106t14.5 -119.5h-156q-6 93 -52 145t-134 52q-104 0 -155.5 -71t-74.5 -220q-11 -77 -22 -188h311
l-27 -129h-301l-6 -54q-42 -302 -172 -422h703z" />
    <glyph glyph-name="currency" unicode="&#xa4;" horiz-adv-x="1032" 
d="M616 1110q137 0 222 -82l166 143l73 -102l-168 -145q43 -106 23 -236q-24 -141 -105 -250l107 -137l-111 -98l-100 135q-109 -72 -238 -72q-133 0 -219 80l-160 -143l-75 108l162 140q-44 103 -23 241q22 142 106 246l-100 137l111 96l98 -133q106 72 231 72zM594 973
q-113 0 -186 -78.5t-93 -202.5q-23 -143 33 -219t156 -76q105 0 179.5 73.5t98.5 219.5q20 126 -27 204.5t-161 78.5z" />
    <glyph glyph-name="yen" unicode="&#xa5;" horiz-adv-x="948" 
d="M774 369h-254l-78 -369h-166l78 369h-248l25 110h246l29 129h-248l22 111h221l-223 629h182q151 -480 164 -555h2q26 47 107.5 159t298.5 396h188l-497 -629h225l-23 -111h-254l-28 -129h256z" />
    <glyph glyph-name="brokenbar" unicode="&#xa6;" horiz-adv-x="479" 
d="M158 1411h153v-729h-153v729zM158 367h153v-734h-153v734z" />
    <glyph glyph-name="section" unicode="&#xa7;" horiz-adv-x="1132" 
d="M422 829q-76 -31 -129 -97t-53 -142q0 -75 45.5 -131.5t167.5 -116.5q169 -84 235 -135q69 44 107.5 108t38.5 142q0 84 -45.5 139.5t-155.5 114.5q-105 54 -211 118zM1067 1090h-164q-1 44 -14.5 81.5t-40.5 69t-75 50t-111 18.5q-98 0 -162 -52.5t-64 -138.5
q0 -74 53 -120.5t209 -127.5q160 -80 233 -165t73 -218q0 -244 -224 -381q45 -65 45 -155q0 -181 -118 -281t-322 -100q-214 0 -321.5 105.5t-98.5 281.5h176q-6 -114 62 -180t196 -66q112 0 182 56t70 157q0 72 -54 126.5t-212 131.5q-172 85 -240.5 168t-68.5 207
q0 112 66.5 209.5t183.5 157.5q-54 70 -54 163q0 72 24 135t72 114t127 80.5t181 29.5q95 0 168.5 -23.5t116.5 -61t69.5 -85.5t34 -94.5t2.5 -91.5z" />
    <glyph glyph-name="dieresis" unicode="&#xa8;" 
d="M418 1280h-146l45 223h148zM776 1280h-145l47 223h145z" />
    <glyph glyph-name="copyright" unicode="&#xa9;" horiz-adv-x="1626" 
d="M844 1444q149 0 279.5 -54.5t223 -150t146 -231.5t53.5 -293q0 -159 -53.5 -296.5t-146.5 -233.5t-223 -150.5t-279 -54.5q-152 0 -283.5 53t-225 148t-147 233t-53.5 301q0 156 54.5 291.5t148.5 231.5t225.5 151t280.5 55zM842 1335q-124 0 -231.5 -42.5t-187.5 -121
t-125.5 -198t-45.5 -264.5q0 -176 77.5 -318.5t212.5 -222.5t300 -80q125 0 233 44t186.5 123.5t123.5 198t45 261.5q0 178 -75.5 320t-210 221t-302.5 79zM1063 584h127q-25 -131 -114 -207t-228 -76q-165 0 -266 111t-101 303q0 194 102.5 306t270.5 112q150 0 237 -82
t101 -209h-129q-21 82 -69.5 129t-141.5 47q-108 0 -171 -75t-63 -224q0 -142 64.5 -221.5t169.5 -79.5q158 0 211 166z" />
    <glyph glyph-name="ordfeminine" unicode="&#xaa;" horiz-adv-x="751" 
d="M737 987l-57 -285q-5 -27 -18 -92t-15 -80h-127q8 56 19 103q-80 -115 -228 -115q-97 0 -146.5 55.5t-49.5 128.5q0 57 22.5 101t55.5 70t84.5 44t96 25.5t103.5 13.5q107 5 129 5l4 22q5 40 2.5 72t-34 52.5t-91.5 20.5q-49 0 -81.5 -14.5t-46 -34.5t-25.5 -53h-131
q20 90 90.5 147.5t206.5 57.5q133 0 198 -62t39 -182zM584 852l2 16q-37 0 -103 -4q-54 -5 -90.5 -12.5t-70 -23.5t-50 -43.5t-16.5 -67.5q0 -37 25.5 -63.5t74.5 -26.5q93 0 150 59.5t78 165.5z" />
    <glyph glyph-name="guillemotleft" unicode="&#xab;" horiz-adv-x="1083" 
d="M668 928l-387 -412l202 -385h-153l-215 401l379 396h174zM1059 928l-389 -410l204 -387h-157l-213 401l377 396h178z" />
    <glyph glyph-name="logicalnot" unicode="&#xac;" horiz-adv-x="1460" 
d="M154 829h1122v-657h-156v504h-966v153z" />
    <glyph glyph-name="uni00AD" unicode="&#xad;" horiz-adv-x="745" 
d="M129 602h518l-33 -156h-518z" />
    <glyph glyph-name="registered" unicode="&#xae;" horiz-adv-x="718" 
d="M494 1446q148 0 240.5 -101t92.5 -245q0 -149 -92.5 -248.5t-240.5 -99.5q-143 0 -238.5 99.5t-95.5 248.5q0 147 94 246.5t240 99.5zM494 1376q-122 0 -191.5 -81t-69.5 -195q0 -116 74.5 -196.5t186.5 -80.5q122 0 189 76t67 199q0 119 -71 198.5t-185 79.5zM440 934
h-82v342h148q133 0 133 -98q0 -32 -16 -53t-41 -27q47 -17 47 -90q0 -49 4 -74h-82q-4 18 -4 72q0 36 -12 47.5t-46 11.5h-49v-131zM440 1214v-86h58q57 0 57 46q0 40 -61 40h-54z" />
    <glyph glyph-name="macron" unicode="&#xaf;" 
d="M293 1430h545l-31 -144h-547z" />
    <glyph glyph-name="degree" unicode="&#xb0;" horiz-adv-x="638" 
d="M485 1403q112 0 175 -67.5t63 -170.5q0 -138 -83.5 -227.5t-219.5 -89.5q-108 0 -173 67.5t-65 174.5q0 133 84.5 223t218.5 90zM469 1305q-81 0 -126.5 -61t-45.5 -146q0 -68 35.5 -109t101.5 -41q77 0 126.5 56t49.5 149q0 65 -34 108.5t-107 43.5z" />
    <glyph glyph-name="plusminus" unicode="&#xb1;" horiz-adv-x="1460" 
d="M657 1368h146v-463h487v-139h-487v-473h-146v473h-487v139h487v463zM1292 0h-1122v139h1122v-139z" />
    <glyph glyph-name="two.sups" unicode="&#xb2;" horiz-adv-x="714" 
d="M631 872h-588l4 23q23 107 99.5 196.5t234.5 178.5q56 32 79 46t52 34.5t38 34.5t16 33.5t7 45.5q0 53 -32.5 84t-96.5 31q-129 0 -174 -145h-135q63 262 324 262q124 0 191 -65t67 -161q0 -97 -53 -155t-193 -131q-181 -96 -229 -195h432z" />
    <glyph glyph-name="three.sups" unicode="&#xb3;" horiz-adv-x="735" 
d="M70 1114h135q9 -66 53 -104.5t119 -38.5q74 0 122 36t48 113q0 55 -35.5 90t-112.5 35h-77l24 115h68q155 0 155 125q0 44 -29 72t-91 28q-66 0 -100 -30.5t-58 -84.5h-133q9 37 26 70.5t50 71t92 60t137 22.5q120 0 186 -55.5t66 -147.5q0 -70 -39 -117t-105 -67
q45 -15 84 -62t39 -117q0 -114 -83 -190t-242 -76q-86 0 -148.5 25.5t-94 66t-45 81t-11.5 79.5z" />
    <glyph glyph-name="acute" unicode="&#xb4;" 
d="M760 1528h233l-411 -311h-185z" />
    <glyph glyph-name="uni00B5" unicode="&#xb5;" horiz-adv-x="1112" 
d="M111 348l147 690h166l-137 -645q-56 -268 153 -268q263 0 346 393l111 520h170l-158 -739q-45 -214 -55 -299h-162q-2 25 23 166q-101 -186 -318 -186q-138 0 -188 94q-62 -323 -100 -498h-168q30 130 95 428t75 344z" />
    <glyph glyph-name="paragraph" unicode="&#xb6;" horiz-adv-x="1193" 
d="M762 -322h-135l129 607h-195q-260 0 -371 151.5t-55 415.5q101 459 572 459h268q18 70 41 114h123q-18 -60 -41 -170zM717 428h69l158 748h-96q-55 0 -96.5 -25t-71 -75t-50 -110.5t-38.5 -146.5q-20 -97 -25.5 -164t5.5 -121t47 -80t98 -26z" />
    <glyph glyph-name="periodcentered" unicode="&#xb7;" horiz-adv-x="401" 
d="M207 408h-182l65 303h180z" />
    <glyph glyph-name="cedilla" unicode="&#xb8;" 
d="M238 23l127 -21l-97 -111q31 -6 60 -18t57.5 -32t46 -53t17.5 -75q0 -98 -73 -153.5t-194 -55.5q-94 0 -184 31l33 115q56 -23 139 -23q123 0 123 78q0 44 -57.5 67t-151.5 25l12 56z" />
    <glyph glyph-name="one.sups" unicode="&#xb9;" horiz-adv-x="491" 
d="M311 870h-143l139 658q-79 -21 -162 -21l25 107q137 16 217 82h98z" />
    <glyph glyph-name="ordmasculine" unicode="&#xba;" horiz-adv-x="747" 
d="M502 1231q126 0 201 -75t75 -202q0 -182 -106 -308t-285 -126q-121 0 -195.5 75.5t-74.5 205.5q0 81 26 157.5t73.5 137.5t122 98t163.5 37zM487 1120q-56 0 -101 -28t-71.5 -74.5t-40.5 -101t-14 -111.5q0 -82 35.5 -128t107.5 -46q76 0 131.5 50.5t79 120t23.5 144.5
q0 84 -39 129t-111 45z" />
    <glyph glyph-name="guillemotright" unicode="&#xbb;" horiz-adv-x="1083" 
d="M422 131l387 412l-203 385h156l215 -400l-379 -397h-176zM31 131l391 412l-207 385h158l213 -400l-377 -397h-178z" />
    <glyph glyph-name="onequarter" unicode="&#xbc;" horiz-adv-x="1574" 
d="M291 2h-150l1119 1348h143zM369 528h-144l140 658q-79 -21 -162 -21l24 107q137 16 217 82h99zM1309 4h-135l45 213h-398l23 105l459 493h178l-107 -491h121l-33 -107h-110zM989 324h252l39 176q39 169 47 196q-19 -25 -74 -85.5t-151.5 -165t-112.5 -121.5z" />
    <glyph glyph-name="onehalf" unicode="&#xbd;" horiz-adv-x="1687" 
d="M274 0h-149l1118 1348h143zM350 528h-143l139 658q-79 -21 -162 -21l25 107q137 16 217 82h98zM1513 0h-587l4 23q23 106 99.5 195.5t234.5 178.5q55 31 79 46t52 35t37.5 34.5t16.5 34t7 45.5q0 53 -32.5 84t-96.5 31q-129 0 -174 -146h-135q63 262 323 262
q124 0 191 -65t67 -160q0 -97 -53 -155.5t-192 -131.5q-183 -97 -230 -194h432z" />
    <glyph glyph-name="threequarters" unicode="&#xbe;" horiz-adv-x="1751" 
d="M504 0h-150l1119 1348h143zM1483 -25h-135l45 213h-398l23 105l459 493h178l-107 -491h121l-33 -107h-110zM1163 295h252l39 176q41 175 47 197q-24 -31 -338 -373zM104 772h136q9 -66 53 -104.5t119 -38.5q74 0 122 36t48 113q0 55 -35.5 90t-112.5 35h-78l25 115h68
q155 0 155 125q0 44 -29.5 72t-91.5 28q-66 0 -99.5 -30.5t-57.5 -84.5h-133q9 37 26 70.5t50 71t92 60t137 22.5q120 0 186 -55.5t66 -147.5q0 -70 -39 -117t-105 -67q45 -15 84 -62t39 -117q0 -114 -83.5 -190t-242.5 -76q-86 0 -148.5 25.5t-94 66t-45 81t-11.5 79.5z
" />
    <glyph glyph-name="questiondown" unicode="&#xbf;" horiz-adv-x="940" 
d="M424 606h176l-6 -33q-20 -97 -71.5 -177.5t-180.5 -178.5q-64 -49 -93 -74t-63.5 -63.5t-47.5 -77t-13 -86.5q0 -75 48 -125.5t151 -50.5q100 0 164 54.5t100 162.5h172q-11 -48 -29 -92.5t-53.5 -96t-82 -89t-120 -62.5t-162.5 -25q-94 0 -166 26.5t-113 72t-61 99.5
t-20 116q0 72 19 131t61 111t84.5 89.5t113.5 90.5q90 67 132 126.5t57 135.5zM516 1038h176l-59 -282h-178z" />
    <glyph glyph-name="Agrave" unicode="&#xc0;" horiz-adv-x="1259" 
d="M907 436h-549l-235 -436h-191l791 1425h215l215 -1425h-180zM438 588h455q-82 560 -90 680h-2q-88 -178 -363 -680zM436 1821h226l280 -281h-178z" />
    <glyph glyph-name="Aacute" unicode="&#xc1;" horiz-adv-x="1259" 
d="M907 436h-549l-235 -436h-191l791 1425h215l215 -1425h-180zM438 588h455q-82 560 -90 680h-2q-88 -178 -363 -680zM1106 1821h252l-430 -281h-193z" />
    <glyph glyph-name="Acircumflex" unicode="&#xc2;" horiz-adv-x="1259" 
d="M907 436h-549l-235 -436h-191l791 1425h215l215 -1425h-180zM438 588h455q-82 560 -90 680h-2q-88 -178 -363 -680zM801 1796h172l211 -264h-172l-138 166l-208 -166h-189z" />
    <glyph glyph-name="Atilde" unicode="&#xc3;" horiz-adv-x="1259" 
d="M907 436h-549l-235 -436h-191l791 1425h215l215 -1425h-180zM438 588h455q-82 560 -90 680h-2q-88 -178 -363 -680zM637 1556h-123l8 52q16 103 62.5 142.5t122.5 39.5q51 0 110 -26t109 -52t80 -26t47 19.5t26 68.5l2 18h125l-10 -57q-19 -104 -65.5 -144.5
t-124.5 -40.5q-39 0 -83 16.5t-76 36t-69.5 36t-64.5 16.5q-58 0 -68 -62z" />
    <glyph glyph-name="Adieresis" unicode="&#xc4;" horiz-adv-x="1259" 
d="M907 436h-549l-235 -436h-191l791 1425h215l215 -1425h-180zM438 588h455q-82 560 -90 680h-2q-88 -178 -363 -680zM705 1565h-148l47 225h146zM1112 1565h-145l45 225h147z" />
    <glyph glyph-name="Aring" unicode="&#xc5;" horiz-adv-x="1259" 
d="M907 436h-549l-235 -436h-191l791 1425h215l215 -1425h-180zM438 588h455q-82 560 -90 680h-2q-88 -178 -363 -680zM844 1520q-87 0 -139 50t-52 124q0 97 67.5 161t170.5 64q86 0 136 -51.5t50 -126.5q0 -98 -65.5 -159.5t-167.5 -61.5zM854 1612q44 0 78.5 34.5
t34.5 88.5q0 92 -88 92q-48 0 -81.5 -34t-33.5 -93q0 -32 23.5 -60t66.5 -28z" />
    <glyph glyph-name="AE" unicode="&#xc6;" horiz-adv-x="1888" 
d="M979 1425h991l-31 -151h-702l-96 -445h669l-32 -153h-670l-109 -524h760l-57 -152h-911l104 500h-453l-397 -500h-203zM559 651h369l135 631h-6z" />
    <glyph glyph-name="Ccedilla" unicode="&#xc7;" horiz-adv-x="1337" 
d="M1071 422h189q-160 -419 -576 -438l-70 -80q31 -6 60 -18t57.5 -32t46 -53t17.5 -75q0 -98 -73 -153.5t-194 -55.5q-96 0 -184 30l33 115q54 -22 139 -22q123 0 123 77q0 44 -57.5 67.5t-151.5 25.5l12 55l103 123q-212 28 -319 182t-107 385q0 129 27.5 254t86.5 241
t142.5 203.5t205 140t265.5 52.5q228 0 360.5 -120.5t141.5 -332.5h-185q-11 139 -94 221t-242 82q-123 0 -224 -64t-164 -170t-96.5 -235.5t-33.5 -267.5q0 -91 19.5 -166t60 -135t109.5 -93.5t161 -33.5q279 0 412 291z" />
    <glyph glyph-name="Egrave" unicode="&#xc8;" horiz-adv-x="1163" 
d="M1081 827l-32 -151h-666l-109 -524h760l-55 -152h-913l301 1425h876l-31 -151h-700l-96 -447h665zM420 1841h225l281 -280h-178z" />
    <glyph glyph-name="Eacute" unicode="&#xc9;" horiz-adv-x="1163" 
d="M1081 827l-32 -151h-666l-109 -524h760l-55 -152h-913l301 1425h876l-31 -151h-700l-96 -447h665zM1053 1841h252l-431 -280h-192z" />
    <glyph glyph-name="Ecircumflex" unicode="&#xca;" horiz-adv-x="1163" 
d="M1081 827l-32 -151h-666l-109 -524h760l-55 -152h-913l301 1425h876l-31 -151h-700l-96 -447h665zM791 1825h172l211 -264h-173l-137 165l-209 -165h-188z" />
    <glyph glyph-name="Edieresis" unicode="&#xcb;" horiz-adv-x="1163" 
d="M1081 827l-32 -151h-666l-109 -524h760l-55 -152h-913l301 1425h876l-31 -151h-700l-96 -447h665zM692 1573h-147l47 225h145zM1100 1573h-146l45 225h148z" />
    <glyph glyph-name="Igrave" unicode="&#xcc;" horiz-adv-x="534" 
d="M369 1425h178l-301 -1425h-180zM63 1833h226l280 -281h-178z" />
    <glyph glyph-name="Iacute" unicode="&#xcd;" horiz-adv-x="534" 
d="M369 1425h178l-301 -1425h-180zM739 1833h252l-430 -281h-192z" />
    <glyph glyph-name="Icircumflex" unicode="&#xce;" horiz-adv-x="534" 
d="M369 1425h178l-301 -1425h-180zM438 1817h172l211 -265h-172l-137 166l-209 -166h-188z" />
    <glyph glyph-name="Idieresis" unicode="&#xcf;" horiz-adv-x="534" 
d="M369 1425h178l-301 -1425h-180zM350 1577h-147l47 225h145zM758 1577h-146l45 225h148z" />
    <glyph glyph-name="Eth" unicode="&#xd0;" horiz-adv-x="1464" 
d="M63 801h193l131 624h412q276 0 436 -161.5t160 -440.5q0 -176 -55.5 -327t-157 -261t-253 -172.5t-335.5 -62.5h-508l141 672h-192zM532 1276l-100 -475h393l-28 -129h-391l-109 -522h293q287 0 450.5 183.5t163.5 487.5q2 215 -110 335t-318 120h-244z" />
    <glyph glyph-name="Ntilde" unicode="&#xd1;" horiz-adv-x="1458" 
d="M236 0h-173l304 1425h231q35 -97 152 -405.5t197 -527.5t97 -287h3q9 61 25.5 149t29.5 151.5t39.5 186t36.5 170.5l118 563h172l-301 -1425h-221q-396 1058 -452 1251h-2q-24 -150 -136 -673zM721 1573h-123l8 51q16 103 62.5 142.5t122.5 39.5q51 0 110 -26t109 -52
t80 -26t47 19.5t26 68.5l2 18h125l-10 -57q-19 -103 -65 -143.5t-125 -40.5q-49 0 -105 26t-105.5 52t-82.5 26q-58 0 -68 -61z" />
    <glyph glyph-name="Ograve" unicode="&#xd2;" horiz-adv-x="1486" 
d="M872 1446q261 0 402 -158.5t141 -431.5q0 -128 -27.5 -251t-88 -237t-146.5 -199.5t-213 -137t-278 -51.5q-257 0 -398 157.5t-141 415.5q0 128 29.5 254t91 241.5t148 204t211 141t269.5 52.5zM860 1296q-91 0 -171 -31.5t-139.5 -85.5t-106.5 -126t-76.5 -154.5
t-44.5 -168.5t-15 -171q0 -125 39 -219.5t125.5 -152.5t212.5 -58q108 0 199 42.5t154 114.5t107.5 166.5t65.5 198t21 209.5q0 201 -94.5 318.5t-276.5 117.5zM539 1858h225l280 -281h-178z" />
    <glyph glyph-name="Oacute" unicode="&#xd3;" horiz-adv-x="1486" 
d="M872 1446q261 0 402 -158.5t141 -431.5q0 -128 -27.5 -251t-88 -237t-146.5 -199.5t-213 -137t-278 -51.5q-257 0 -398 157.5t-141 415.5q0 128 29.5 254t91 241.5t148 204t211 141t269.5 52.5zM860 1296q-91 0 -171 -31.5t-139.5 -85.5t-106.5 -126t-76.5 -154.5
t-44.5 -168.5t-15 -171q0 -125 39 -219.5t125.5 -152.5t212.5 -58q108 0 199 42.5t154 114.5t107.5 166.5t65.5 198t21 209.5q0 201 -94.5 318.5t-276.5 117.5zM1133 1853h251l-430 -280h-192z" />
    <glyph glyph-name="Ocircumflex" unicode="&#xd4;" horiz-adv-x="1486" 
d="M872 1446q261 0 402 -158.5t141 -431.5q0 -128 -27.5 -251t-88 -237t-146.5 -199.5t-213 -137t-278 -51.5q-257 0 -398 157.5t-141 415.5q0 128 29.5 254t91 241.5t148 204t211 141t269.5 52.5zM860 1296q-91 0 -171 -31.5t-139.5 -85.5t-106.5 -126t-76.5 -154.5
t-44.5 -168.5t-15 -171q0 -125 39 -219.5t125.5 -152.5t212.5 -58q108 0 199 42.5t154 114.5t107.5 166.5t65.5 198t21 209.5q0 201 -94.5 318.5t-276.5 117.5zM887 1829h172l211 -264h-172l-137 166l-209 -166h-189z" />
    <glyph glyph-name="Otilde" unicode="&#xd5;" horiz-adv-x="1486" 
d="M872 1446q261 0 402 -158.5t141 -431.5q0 -128 -27.5 -251t-88 -237t-146.5 -199.5t-213 -137t-278 -51.5q-257 0 -398 157.5t-141 415.5q0 128 29.5 254t91 241.5t148 204t211 141t269.5 52.5zM860 1296q-91 0 -171 -31.5t-139.5 -85.5t-106.5 -126t-76.5 -154.5
t-44.5 -168.5t-15 -171q0 -125 39 -219.5t125.5 -152.5t212.5 -58q108 0 199 42.5t154 114.5t107.5 166.5t65.5 198t21 209.5q0 201 -94.5 318.5t-276.5 117.5zM705 1585h-123l8 51q16 103 62 143t122 40q51 0 110 -26.5t109 -52.5t80 -26q31 0 48 19.5t26 68.5l2 19h125
l-10 -58q-19 -103 -65.5 -143.5t-125.5 -40.5q-49 0 -105 26t-105.5 52t-82.5 26q-57 0 -67 -61z" />
    <glyph glyph-name="Odieresis" unicode="&#xd6;" horiz-adv-x="1486" 
d="M872 1446q261 0 402 -158.5t141 -431.5q0 -128 -27.5 -251t-88 -237t-146.5 -199.5t-213 -137t-278 -51.5q-257 0 -398 157.5t-141 415.5q0 128 29.5 254t91 241.5t148 204t211 141t269.5 52.5zM860 1296q-91 0 -171 -31.5t-139.5 -85.5t-106.5 -126t-76.5 -154.5
t-44.5 -168.5t-15 -171q0 -125 39 -219.5t125.5 -152.5t212.5 -58q108 0 199 42.5t154 114.5t107.5 166.5t65.5 198t21 209.5q0 201 -94.5 318.5t-276.5 117.5zM780 1587h-147l47 225h145zM1188 1587h-146l45 225h148z" />
    <glyph glyph-name="multiply" unicode="&#xd7;" horiz-adv-x="1460" 
d="M1284 109l-102 -109l-451 469l-450 -469l-103 109l451 469l-451 469l101 104l452 -469l451 469l102 -104l-450 -472z" />
    <glyph glyph-name="Oslash" unicode="&#xd8;" horiz-adv-x="1486" 
d="M887 1446q215 0 350 -117l86 96h139l-153 -174q108 -148 108 -385q0 -133 -29.5 -259t-92 -240t-151.5 -200t-217 -136.5t-280 -50.5q-217 0 -352 122l-90 -102h-144l162 184q-100 145 -100 365q0 131 31 259t95 243.5t153.5 203.5t214.5 139.5t270 51.5zM870 1296
q-134 0 -245 -66t-180 -173t-106.5 -236.5t-37.5 -263.5q0 -136 47 -233l774 876q-93 96 -252 96zM670 129q110 0 203.5 41.5t159.5 112.5t112.5 166t69 201.5t22.5 219.5q0 143 -51 242l-776 -881q96 -102 260 -102z" />
    <glyph glyph-name="Ugrave" unicode="&#xd9;" horiz-adv-x="1376" 
d="M346 1425h178l-186 -874q-22 -116 -12.5 -196t53.5 -130t105.5 -72t144.5 -22q188 0 275.5 92t135.5 326l189 876h178l-190 -890q-32 -153 -77.5 -254.5t-117 -170t-171 -98.5t-241.5 -30q-124 0 -218 32t-159.5 102t-83 180t12.5 265zM496 1825h225l280 -281h-178z" />
    <glyph glyph-name="Uacute" unicode="&#xda;" horiz-adv-x="1376" 
d="M346 1425h178l-186 -874q-22 -116 -12.5 -196t53.5 -130t105.5 -72t144.5 -22q188 0 275.5 92t135.5 326l189 876h178l-190 -890q-32 -153 -77.5 -254.5t-117 -170t-171 -98.5t-241.5 -30q-124 0 -218 32t-159.5 102t-83 180t12.5 265zM1096 1825h252l-430 -281h-193z
" />
    <glyph glyph-name="Ucircumflex" unicode="&#xdb;" horiz-adv-x="1376" 
d="M346 1425h178l-186 -874q-22 -116 -12.5 -196t53.5 -130t105.5 -72t144.5 -22q188 0 275.5 92t135.5 326l189 876h178l-190 -890q-32 -153 -77.5 -254.5t-117 -170t-171 -98.5t-241.5 -30q-124 0 -218 32t-159.5 102t-83 180t12.5 265zM852 1817h172l211 -265h-172
l-137 166l-209 -166h-189z" />
    <glyph glyph-name="Udieresis" unicode="&#xdc;" horiz-adv-x="1376" 
d="M346 1425h178l-186 -874q-22 -116 -12.5 -196t53.5 -130t105.5 -72t144.5 -22q188 0 275.5 92t135.5 326l189 876h178l-190 -890q-32 -153 -77.5 -254.5t-117 -170t-171 -98.5t-241.5 -30q-124 0 -218 32t-159.5 102t-83 180t12.5 265zM750 1565h-148l47 225h146z
M1157 1565h-145l45 225h147z" />
    <glyph glyph-name="Yacute" unicode="&#xdd;" horiz-adv-x="1132" 
d="M524 0h-176l111 535q3 21 -2 36l-312 854h189q31 -93 130.5 -376t119.5 -351q29 44 100 139.5t137 181t169 218.5t145 188h196l-678 -864q-13 -17 -16 -37zM963 1806h251l-430 -280h-192z" />
    <glyph glyph-name="Thorn" unicode="&#xde;" horiz-adv-x="1222" 
d="M63 0l302 1425h178l-60 -286h269q121 0 217.5 -41t156.5 -127.5t60 -206.5q0 -124 -44.5 -215t-126 -144.5t-185 -78.5t-232.5 -25h-293l-63 -301h-179zM451 989l-113 -538h262q88 0 156 13.5t125.5 45.5t88.5 91.5t31 143.5q0 110 -72.5 177t-219.5 67h-258z" />
    <glyph glyph-name="germandbls" unicode="&#xdf;" horiz-adv-x="1200" 
d="M438 1073l-227 -1073h-170l231 1085q53 243 167.5 341t324.5 98q103 0 185 -28.5t132.5 -76.5t76.5 -106.5t26 -122.5q0 -75 -17 -125l-385 -231l-2 -5l113 -100q100 -92 145 -171t45 -177q0 -178 -107.5 -289.5t-313.5 -111.5q-214 0 -336 131l32 161q133 -153 314 -153
q111 0 174 64t63 173q0 63 -27 122.5t-106 129.5l-131 119q-118 112 41 213l324 199q4 16 4 45q0 35 -13 67.5t-41 63.5t-82 50t-128 19q-59 0 -101 -11t-84.5 -42t-74 -95t-52.5 -163z" />
    <glyph glyph-name="agrave" unicode="&#xe0;" horiz-adv-x="1079" 
d="M961 702l-95 -444q-40 -193 -49 -258h-166q6 62 27 160q-22 -36 -47.5 -64t-66.5 -56.5t-101.5 -44t-136.5 -15.5q-75 0 -132 23t-89.5 61.5t-48 83.5t-15.5 94q0 85 31.5 151t78 105t115.5 66.5t128.5 39.5t131.5 19q14 1 252 10l15 69q42 226 -187 226
q-63 0 -108.5 -14.5t-73.5 -42.5t-43 -53t-29 -62h-174q15 63 45 114t80.5 95.5t131.5 69t186 24.5q188 0 283 -89.5t57 -267.5zM748 492l4 16q-158 -6 -213 -12q-54 -5 -98 -14t-86.5 -26t-70.5 -41.5t-45.5 -62.5t-17.5 -86q0 -63 42 -104t124 -41t145 29.5t104.5 84
t67.5 116t44 141.5zM354 1528h197l223 -311h-158z" />
    <glyph glyph-name="aacute" unicode="&#xe1;" horiz-adv-x="1079" 
d="M961 702l-95 -444q-40 -193 -49 -258h-166q6 62 27 160q-22 -36 -47.5 -64t-66.5 -56.5t-101.5 -44t-136.5 -15.5q-75 0 -132 23t-89.5 61.5t-48 83.5t-15.5 94q0 85 31.5 151t78 105t115.5 66.5t128.5 39.5t131.5 19q14 1 252 10l15 69q42 226 -187 226
q-63 0 -108.5 -14.5t-73.5 -42.5t-43 -53t-29 -62h-174q15 63 45 114t80.5 95.5t131.5 69t186 24.5q188 0 283 -89.5t57 -267.5zM748 492l4 16q-158 -6 -213 -12q-54 -5 -98 -14t-86.5 -26t-70.5 -41.5t-45.5 -62.5t-17.5 -86q0 -63 42 -104t124 -41t145 29.5t104.5 84
t67.5 116t44 141.5zM889 1528h233l-411 -311h-185z" />
    <glyph glyph-name="acircumflex" unicode="&#xe2;" horiz-adv-x="1079" 
d="M961 702l-95 -444q-40 -193 -49 -258h-166q6 62 27 160q-22 -36 -47.5 -64t-66.5 -56.5t-101.5 -44t-136.5 -15.5q-75 0 -132 23t-89.5 61.5t-48 83.5t-15.5 94q0 85 31.5 151t78 105t115.5 66.5t128.5 39.5t131.5 19q14 1 252 10l15 69q42 226 -187 226
q-63 0 -108.5 -14.5t-73.5 -42.5t-43 -53t-29 -62h-174q15 63 45 114t80.5 95.5t131.5 69t186 24.5q188 0 283 -89.5t57 -267.5zM748 492l4 16q-158 -6 -213 -12q-54 -5 -98 -14t-86.5 -26t-70.5 -41.5t-45.5 -62.5t-17.5 -86q0 -63 42 -104t124 -41t145 29.5t104.5 84
t67.5 116t44 141.5zM649 1513h166l148 -292h-162l-88 190l-178 -190h-173z" />
    <glyph glyph-name="atilde" unicode="&#xe3;" horiz-adv-x="1079" 
d="M961 702l-95 -444q-40 -193 -49 -258h-166q6 62 27 160q-22 -36 -47.5 -64t-66.5 -56.5t-101.5 -44t-136.5 -15.5q-75 0 -132 23t-89.5 61.5t-48 83.5t-15.5 94q0 85 31.5 151t78 105t115.5 66.5t128.5 39.5t131.5 19q14 1 252 10l15 69q42 226 -187 226
q-63 0 -108.5 -14.5t-73.5 -42.5t-43 -53t-29 -62h-174q15 63 45 114t80.5 95.5t131.5 69t186 24.5q188 0 283 -89.5t57 -267.5zM748 492l4 16q-158 -6 -213 -12q-54 -5 -98 -14t-86.5 -26t-70.5 -41.5t-45.5 -62.5t-17.5 -86q0 -63 42 -104t124 -41t145 29.5t104.5 84
t67.5 116t44 141.5zM479 1245h-123l11 51q19 103 64 142t122 39q47 0 99.5 -25.5t96 -50.5t68.5 -25q27 0 43 19t25 67l4 21h121l-9 -45q-19 -109 -63.5 -152t-120.5 -43q-44 0 -94.5 25.5t-95.5 51.5t-76 26q-47 0 -64 -68z" />
    <glyph glyph-name="adieresis" unicode="&#xe4;" horiz-adv-x="1079" 
d="M961 702l-95 -444q-40 -193 -49 -258h-166q6 62 27 160q-22 -36 -47.5 -64t-66.5 -56.5t-101.5 -44t-136.5 -15.5q-75 0 -132 23t-89.5 61.5t-48 83.5t-15.5 94q0 85 31.5 151t78 105t115.5 66.5t128.5 39.5t131.5 19q14 1 252 10l15 69q42 226 -187 226
q-63 0 -108.5 -14.5t-73.5 -42.5t-43 -53t-29 -62h-174q15 63 45 114t80.5 95.5t131.5 69t186 24.5q188 0 283 -89.5t57 -267.5zM748 492l4 16q-158 -6 -213 -12q-54 -5 -98 -14t-86.5 -26t-70.5 -41.5t-45.5 -62.5t-17.5 -86q0 -63 42 -104t124 -41t145 29.5t104.5 84
t67.5 116t44 141.5zM561 1280h-145l45 223h147zM920 1280h-146l47 223h146z" />
    <glyph glyph-name="aring" unicode="&#xe5;" horiz-adv-x="1079" 
d="M961 702l-95 -444q-40 -193 -49 -258h-166q6 62 27 160q-22 -36 -47.5 -64t-66.5 -56.5t-101.5 -44t-136.5 -15.5q-75 0 -132 23t-89.5 61.5t-48 83.5t-15.5 94q0 85 31.5 151t78 105t115.5 66.5t128.5 39.5t131.5 19q14 1 252 10l15 69q42 226 -187 226
q-63 0 -108.5 -14.5t-73.5 -42.5t-43 -53t-29 -62h-174q15 63 45 114t80.5 95.5t131.5 69t186 24.5q188 0 283 -89.5t57 -267.5zM748 492l4 16q-158 -6 -213 -12q-54 -5 -98 -14t-86.5 -26t-70.5 -41.5t-45.5 -62.5t-17.5 -86q0 -63 42 -104t124 -41t145 29.5t104.5 84
t67.5 116t44 141.5zM662 1163q-87 0 -139 50t-52 124q0 97 67.5 161.5t170.5 64.5q86 0 136 -52t50 -127q0 -98 -65.5 -159.5t-167.5 -61.5zM672 1255q44 0 78 34.5t34 88.5q0 92 -88 92q-48 0 -81 -34t-33 -93q0 -32 23.5 -60t66.5 -28z" />
    <glyph glyph-name="ae" unicode="&#xe6;" horiz-adv-x="1710" 
d="M1284 1059q95 0 167 -30t113 -81t61 -112t20 -131q0 -108 -29 -201h-711q-12 -82 -12 -115q0 -132 59.5 -200t169.5 -68q56 0 100.5 13.5t77 40t55 55t44.5 69.5h170q-59 -154 -169 -236.5t-304 -82.5q-141 0 -222 62.5t-106 152.5q-134 -215 -412 -215q-151 0 -231 78
t-80 202q0 185 142 279t395 94h194l15 69q40 224 -177 224q-202 0 -252 -178h-180q37 158 152 234.5t291 76.5q125 0 203 -42.5t96 -115.5q126 158 360 158zM739 465l9 39h-177q-348 0 -348 -230q0 -65 44 -108t126 -43q141 0 224 85.5t122 256.5zM936 633h539q6 31 6 74
q0 101 -54 157t-165 56q-118 0 -202 -74.5t-124 -212.5z" />
    <glyph glyph-name="ccedilla" unicode="&#xe7;" horiz-adv-x="1026" 
d="M741 311h170q-104 -295 -391 -327l-76 -88q31 -6 60 -18t57.5 -32.5t46 -53.5t17.5 -75q0 -98 -73 -153.5t-194 -55.5q-94 0 -184 31l33 115q56 -23 139 -23q123 0 123 78q0 44 -57.5 67t-151.5 25l12 56l107 127q-150 21 -227.5 128t-77.5 273q0 96 20.5 190.5t64.5 182
t105.5 154.5t151 107t194.5 40q84 0 151 -23t107.5 -60t66 -84.5t34 -93.5t4.5 -91h-166q-7 213 -207 213q-86 0 -156 -49.5t-110.5 -128.5t-62 -168t-21.5 -177q0 -278 225 -278q176 0 266 192z" />
    <glyph glyph-name="egrave" unicode="&#xe8;" horiz-adv-x="1052" 
d="M961 494h-709q-8 -82 -8 -99q0 -132 60 -203t169 -71q104 0 165 46.5t103 125.5h177q-131 -313 -465 -313q-188 0 -284.5 111.5t-96.5 299.5q0 91 19 182t62 179.5t104.5 156t154.5 109t204 41.5q101 0 175 -31t115.5 -85t61 -117.5t19.5 -137.5q0 -93 -26 -194zM281 623
h534q6 27 6 75q0 224 -215 224q-118 0 -201.5 -77.5t-123.5 -221.5zM348 1528h197l223 -311h-158z" />
    <glyph glyph-name="eacute" unicode="&#xe9;" horiz-adv-x="1052" 
d="M961 494h-709q-8 -82 -8 -99q0 -132 60 -203t169 -71q104 0 165 46.5t103 125.5h177q-131 -313 -465 -313q-188 0 -284.5 111.5t-96.5 299.5q0 91 19 182t62 179.5t104.5 156t154.5 109t204 41.5q101 0 175 -31t115.5 -85t61 -117.5t19.5 -137.5q0 -93 -26 -194zM281 623
h534q6 27 6 75q0 224 -215 224q-118 0 -201.5 -77.5t-123.5 -221.5zM877 1528h233l-412 -311h-184z" />
    <glyph glyph-name="ecircumflex" unicode="&#xea;" horiz-adv-x="1052" 
d="M961 494h-709q-8 -82 -8 -99q0 -132 60 -203t169 -71q104 0 165 46.5t103 125.5h177q-131 -313 -465 -313q-188 0 -284.5 111.5t-96.5 299.5q0 91 19 182t62 179.5t104.5 156t154.5 109t204 41.5q101 0 175 -31t115.5 -85t61 -117.5t19.5 -137.5q0 -93 -26 -194zM281 623
h534q6 27 6 75q0 224 -215 224q-118 0 -201.5 -77.5t-123.5 -221.5zM637 1518h166l147 -293h-162l-88 190l-178 -190h-172z" />
    <glyph glyph-name="edieresis" unicode="&#xeb;" horiz-adv-x="1052" 
d="M961 494h-709q-8 -82 -8 -99q0 -132 60 -203t169 -71q104 0 165 46.5t103 125.5h177q-131 -313 -465 -313q-188 0 -284.5 111.5t-96.5 299.5q0 91 19 182t62 179.5t104.5 156t154.5 109t204 41.5q101 0 175 -31t115.5 -85t61 -117.5t19.5 -137.5q0 -93 -26 -194zM281 623
h534q6 27 6 75q0 224 -215 224q-118 0 -201.5 -77.5t-123.5 -221.5zM547 1280h-146l45 223h148zM905 1280h-145l47 223h145z" />
    <glyph glyph-name="igrave" unicode="&#xec;" horiz-adv-x="475" 
d="M43 0l219 1038h170l-221 -1038h-168zM43 1528h197l223 -311h-158z" />
    <glyph glyph-name="iacute" unicode="&#xed;" horiz-adv-x="475" 
d="M43 0l219 1038h170l-221 -1038h-168zM629 1528h233l-411 -311h-185z" />
    <glyph glyph-name="icircumflex" unicode="&#xee;" horiz-adv-x="475" 
d="M43 0l219 1038h170l-221 -1038h-168zM360 1522h166l148 -293h-162l-88 190l-178 -190h-172z" />
    <glyph glyph-name="idieresis" unicode="&#xef;" horiz-adv-x="475" 
d="M43 0l219 1038h170l-221 -1038h-168zM276 1280h-145l45 223h148zM635 1280h-146l48 223h145z" />
    <glyph glyph-name="eth" unicode="&#xf0;" horiz-adv-x="1062" 
d="M303 1399l31 125q206 -28 362 -140l244 152l47 -94l-207 -127q209 -206 209 -547q0 -72 -8 -146t-28 -152.5t-49.5 -148.5t-75.5 -133t-102 -109t-132.5 -72.5t-165.5 -26.5q-178 0 -275.5 107t-97.5 296q0 91 22 181.5t67 173.5t107.5 146.5t151 101.5t189.5 38
q68 0 124.5 -19.5t86.5 -52.5q-27 160 -156 281l-264 -162l-47 92l223 137q-117 72 -256 99zM592 885q-83 0 -153.5 -45t-115 -118t-69.5 -161.5t-25 -179.5q0 -120 55 -190t169 -70q89 0 161 56t113 142.5t62.5 179t21.5 177.5q0 94 -52.5 151.5t-166.5 57.5z" />
    <glyph glyph-name="ntilde" unicode="&#xf1;" horiz-adv-x="1128" 
d="M43 0l164 774q27 135 51 264h166q-3 -50 -31 -176q124 197 348 197q159 0 231 -99.5t27 -310.5l-135 -649h-170l135 645q59 264 -159 264q-136 0 -223.5 -108.5t-124.5 -280.5l-111 -520h-168zM522 1245h-123l11 51q19 103 64 142t122 39q47 0 99.5 -25.5t96 -50.5
t68.5 -25q27 0 43 19t25 67l4 21h121l-9 -45q-19 -109 -63.5 -152t-120.5 -43q-44 0 -94.5 25.5t-95.5 51.5t-76 26q-47 0 -64 -68z" />
    <glyph glyph-name="ograve" unicode="&#xf2;" horiz-adv-x="1097" 
d="M625 1059q181 0 287 -112.5t106 -315.5q0 -86 -18.5 -173t-61.5 -174t-105.5 -154t-157.5 -108.5t-210 -41.5q-187 0 -288 110.5t-101 306.5q0 89 20.5 180t65 178t107.5 154.5t155.5 108.5t200.5 41zM608 918q-86 0 -156.5 -49.5t-113 -127.5t-65.5 -167t-23 -175
q0 -132 60 -205t173 -73q72 0 133 32.5t102.5 86t70.5 121.5t42 138t13 138q0 134 -59.5 207.5t-176.5 73.5zM369 1528h196l223 -311h-157z" />
    <glyph glyph-name="oacute" unicode="&#xf3;" horiz-adv-x="1097" 
d="M625 1059q181 0 287 -112.5t106 -315.5q0 -86 -18.5 -173t-61.5 -174t-105.5 -154t-157.5 -108.5t-210 -41.5q-187 0 -288 110.5t-101 306.5q0 89 20.5 180t65 178t107.5 154.5t155.5 108.5t200.5 41zM608 918q-86 0 -156.5 -49.5t-113 -127.5t-65.5 -167t-23 -175
q0 -132 60 -205t173 -73q72 0 133 32.5t102.5 86t70.5 121.5t42 138t13 138q0 134 -59.5 207.5t-176.5 73.5zM915 1528h234l-412 -311h-184z" />
    <glyph glyph-name="ocircumflex" unicode="&#xf4;" horiz-adv-x="1097" 
d="M625 1059q181 0 287 -112.5t106 -315.5q0 -86 -18.5 -173t-61.5 -174t-105.5 -154t-157.5 -108.5t-210 -41.5q-187 0 -288 110.5t-101 306.5q0 89 20.5 180t65 178t107.5 154.5t155.5 108.5t200.5 41zM608 918q-86 0 -156.5 -49.5t-113 -127.5t-65.5 -167t-23 -175
q0 -132 60 -205t173 -73q72 0 133 32.5t102.5 86t70.5 121.5t42 138t13 138q0 134 -59.5 207.5t-176.5 73.5zM659 1513h166l148 -292h-162l-88 190l-178 -190h-172z" />
    <glyph glyph-name="otilde" unicode="&#xf5;" horiz-adv-x="1097" 
d="M625 1059q181 0 287 -112.5t106 -315.5q0 -86 -18.5 -173t-61.5 -174t-105.5 -154t-157.5 -108.5t-210 -41.5q-187 0 -288 110.5t-101 306.5q0 89 20.5 180t65 178t107.5 154.5t155.5 108.5t200.5 41zM608 918q-86 0 -156.5 -49.5t-113 -127.5t-65.5 -167t-23 -175
q0 -132 60 -205t173 -73q72 0 133 32.5t102.5 86t70.5 121.5t42 138t13 138q0 134 -59.5 207.5t-176.5 73.5zM508 1245h-123l10 51q19 103 64 142t123 39q47 0 99.5 -25.5t96 -50.5t68.5 -25q26 0 42 18.5t25 67.5l5 21h120l-8 -45q-19 -109 -63.5 -152t-120.5 -43
q-44 0 -94.5 25.5t-95.5 51.5t-76 26q-47 0 -64 -68z" />
    <glyph glyph-name="odieresis" unicode="&#xf6;" horiz-adv-x="1097" 
d="M625 1059q181 0 287 -112.5t106 -315.5q0 -86 -18.5 -173t-61.5 -174t-105.5 -154t-157.5 -108.5t-210 -41.5q-187 0 -288 110.5t-101 306.5q0 89 20.5 180t65 178t107.5 154.5t155.5 108.5t200.5 41zM608 918q-86 0 -156.5 -49.5t-113 -127.5t-65.5 -167t-23 -175
q0 -132 60 -205t173 -73q72 0 133 32.5t102.5 86t70.5 121.5t42 138t13 138q0 134 -59.5 207.5t-176.5 73.5zM569 1280h-145l45 223h147zM928 1280h-146l47 223h146z" />
    <glyph glyph-name="divide" unicode="&#xf7;" horiz-adv-x="1460" 
d="M805 0h-154v264h154v-264zM1290 500h-1120v153h1120v-153zM805 879h-154v266h154v-266z" />
    <glyph glyph-name="oslash" unicode="&#xf8;" horiz-adv-x="1097" 
d="M631 1059q159 0 256 -78l63 72h123l-123 -142q66 -101 66 -264q0 -88 -19 -178t-62.5 -179t-106 -157t-157 -110.5t-208.5 -42.5q-160 0 -256 81l-74 -84h-123l135 154q-67 101 -67 262q0 89 20 179.5t64.5 178.5t107 156t156.5 110t205 42zM612 920q-70 0 -130.5 -31
t-102.5 -83.5t-72 -121t-44.5 -143.5t-14.5 -152q0 -65 16 -121l518 592q-63 60 -170 60zM479 117q73 0 135.5 35.5t104.5 92t72 128.5t43.5 144.5t13.5 139.5q0 63 -17 119l-520 -594q59 -65 168 -65z" />
    <glyph glyph-name="ugrave" unicode="&#xf9;" horiz-adv-x="1110" 
d="M1065 1038l-162 -759q-30 -141 -53 -279h-166q4 68 29 178q-55 -93 -143 -145.5t-205 -52.5q-99 0 -163 38t-92.5 123t1.5 221l147 676h166l-139 -659q-12 -55 -13 -96.5t11 -79.5t49 -58t98 -20q126 0 220 101.5t138 312.5l107 499h170zM354 1528h197l223 -311h-158z
" />
    <glyph glyph-name="uacute" unicode="&#xfa;" horiz-adv-x="1110" 
d="M1065 1038l-162 -759q-30 -141 -53 -279h-166q4 68 29 178q-55 -93 -143 -145.5t-205 -52.5q-99 0 -163 38t-92.5 123t1.5 221l147 676h166l-139 -659q-12 -55 -13 -96.5t11 -79.5t49 -58t98 -20q126 0 220 101.5t138 312.5l107 499h170zM913 1528h234l-412 -311h-184z
" />
    <glyph glyph-name="ucircumflex" unicode="&#xfb;" horiz-adv-x="1110" 
d="M1065 1038l-162 -759q-30 -141 -53 -279h-166q4 68 29 178q-55 -93 -143 -145.5t-205 -52.5q-99 0 -163 38t-92.5 123t1.5 221l147 676h166l-139 -659q-12 -55 -13 -96.5t11 -79.5t49 -58t98 -20q126 0 220 101.5t138 312.5l107 499h170zM674 1513h166l147 -292h-162
l-88 190l-178 -190h-172z" />
    <glyph glyph-name="udieresis" unicode="&#xfc;" horiz-adv-x="1110" 
d="M1065 1038l-162 -759q-30 -141 -53 -279h-166q4 68 29 178q-55 -93 -143 -145.5t-205 -52.5q-99 0 -163 38t-92.5 123t1.5 221l147 676h166l-139 -659q-12 -55 -13 -96.5t11 -79.5t49 -58t98 -20q126 0 220 101.5t138 312.5l107 499h170zM580 1280h-146l45 223h148z
M938 1280h-145l47 223h145z" />
    <glyph glyph-name="yacute" unicode="&#xfd;" horiz-adv-x="978" 
d="M119 1038h170q100 -729 110 -905h2q18 34 78.5 160t160 324.5t216.5 420.5h180l-577 -1095q-54 -103 -100.5 -171t-86 -108t-87 -60.5t-88 -26t-105.5 -5.5q-69 0 -119 12l35 150q46 -8 94 -8q67 0 112.5 22t80 65t84.5 130zM829 1522h234l-412 -312h-184z" />
    <glyph glyph-name="thorn" unicode="&#xfe;" horiz-adv-x="1153" 
d="M-45 -408l403 1911h168l-133 -641q126 197 352 197q157 0 244.5 -103t87.5 -282q0 -130 -38 -253t-106.5 -222t-176 -159t-236.5 -60q-112 0 -184.5 46.5t-95.5 110.5l-115 -545h-170zM313 514q-40 -182 9 -284.5t200 -102.5q74 0 137 33t106.5 87.5t74 124.5t45 143
t14.5 144q0 118 -57 184t-158 66q-94 0 -172 -56t-126.5 -143t-72.5 -196z" />
    <glyph glyph-name="ydieresis" unicode="&#xff;" horiz-adv-x="978" 
d="M119 1038h170q100 -729 110 -905h2q18 34 78.5 160t160 324.5t216.5 420.5h180l-577 -1095q-54 -103 -100.5 -171t-86 -108t-87 -60.5t-88 -26t-105.5 -5.5q-69 0 -119 12l35 150q46 -8 94 -8q67 0 112.5 22t80 65t84.5 130zM492 1280h-146l45 223h148zM850 1280h-145
l47 223h145z" />
    <glyph glyph-name="Amacron" unicode="&#x100;" horiz-adv-x="1259" 
d="M907 436h-549l-235 -436h-191l791 1425h215l215 -1425h-180zM438 588h455q-82 560 -90 680h-2q-88 -178 -363 -680zM594 1724h553l-31 -139h-553z" />
    <glyph glyph-name="amacron" unicode="&#x101;" horiz-adv-x="1079" 
d="M961 702l-95 -444q-40 -193 -49 -258h-166q6 62 27 160q-22 -36 -47.5 -64t-66.5 -56.5t-101.5 -44t-136.5 -15.5q-75 0 -132 23t-89.5 61.5t-48 83.5t-15.5 94q0 85 31.5 151t78 105t115.5 66.5t128.5 39.5t131.5 19q14 1 252 10l15 69q42 226 -187 226
q-63 0 -108.5 -14.5t-73.5 -42.5t-43 -53t-29 -62h-174q15 63 45 114t80.5 95.5t131.5 69t186 24.5q188 0 283 -89.5t57 -267.5zM748 492l4 16q-158 -6 -213 -12q-54 -5 -98 -14t-86.5 -26t-70.5 -41.5t-45.5 -62.5t-17.5 -86q0 -63 42 -104t124 -41t145 29.5t104.5 84
t67.5 116t44 141.5zM436 1430h545l-31 -144h-547z" />
    <glyph glyph-name="Abreve" unicode="&#x102;" horiz-adv-x="1259" 
d="M907 436h-549l-235 -436h-191l791 1425h215l215 -1425h-180zM438 588h455q-82 560 -90 680h-2q-88 -178 -363 -680zM586 1798h131q4 -131 143 -131q141 0 201 131h133q-45 -122 -128.5 -190t-221.5 -68q-74 0 -127.5 22.5t-82 61t-40 82t-8.5 92.5z" />
    <glyph glyph-name="abreve" unicode="&#x103;" horiz-adv-x="1079" 
d="M961 702l-95 -444q-40 -193 -49 -258h-166q6 62 27 160q-22 -36 -47.5 -64t-66.5 -56.5t-101.5 -44t-136.5 -15.5q-75 0 -132 23t-89.5 61.5t-48 83.5t-15.5 94q0 85 31.5 151t78 105t115.5 66.5t128.5 39.5t131.5 19q14 1 252 10l15 69q42 226 -187 226
q-63 0 -108.5 -14.5t-73.5 -42.5t-43 -53t-29 -62h-174q15 63 45 114t80.5 95.5t131.5 69t186 24.5q188 0 283 -89.5t57 -267.5zM748 492l4 16q-158 -6 -213 -12q-54 -5 -98 -14t-86.5 -26t-70.5 -41.5t-45.5 -62.5t-17.5 -86q0 -63 42 -104t124 -41t145 29.5t104.5 84
t67.5 116t44 141.5zM432 1479h129q-2 -61 28 -99.5t97 -38.5q32 0 59.5 9.5t44.5 21t34.5 34.5t25 35.5t20.5 37.5h129q-87 -267 -329 -267q-70 0 -121 23t-77.5 61.5t-36.5 85t-3 97.5z" />
    <glyph glyph-name="Aogonek" unicode="&#x104;" horiz-adv-x="1259" 
d="M907 436h-549l-235 -436h-191l791 1425h215l215 -1425h-10q-74 -62 -115 -117t-41 -110q0 -48 30 -73.5t81 -25.5q60 0 114 21l-24 -133q-59 -29 -154 -29q-101 0 -159 51t-58 142q0 137 160 274h-4zM438 588h455q-82 560 -90 680h-2q-88 -178 -363 -680z" />
    <glyph glyph-name="aogonek" unicode="&#x105;" horiz-adv-x="1079" 
d="M961 702l-95 -444q-40 -193 -49 -258h-6q-74 -62 -115 -117t-41 -110q0 -48 30 -73.5t81 -25.5q61 0 115 21l-25 -133q-59 -29 -154 -29q-101 0 -159 51t-58 142q0 138 166 280q6 57 27 154q-22 -36 -47.5 -64t-66.5 -56.5t-101.5 -44t-136.5 -15.5q-75 0 -132 23
t-89.5 61.5t-48 83.5t-15.5 94q0 85 31.5 151t78 105t115.5 66.5t128.5 39.5t131.5 19q14 1 252 10l15 69q42 226 -187 226q-63 0 -108.5 -14.5t-73.5 -42.5t-43 -53t-29 -62h-174q15 63 45 114t80.5 95.5t131.5 69t186 24.5q188 0 283 -89.5t57 -267.5zM748 492l4 16
q-158 -6 -213 -12q-54 -5 -98 -14t-86.5 -26t-70.5 -41.5t-45.5 -62.5t-17.5 -86q0 -63 42 -104t124 -41t145 29.5t104.5 84t67.5 116t44 141.5z" />
    <glyph glyph-name="Cacute" unicode="&#x106;" horiz-adv-x="1337" 
d="M1071 422h189q-53 -139 -132 -234t-203 -150.5t-288 -55.5q-131 0 -232 44t-162.5 122.5t-92.5 181t-31 225.5q0 129 27.5 254t86.5 241t142.5 203.5t205 140t265.5 52.5q228 0 360.5 -120.5t141.5 -332.5h-185q-11 139 -94 221t-242 82q-123 0 -224 -64t-164 -170
t-96.5 -235.5t-33.5 -267.5q0 -91 19.5 -166t60 -135t109.5 -93.5t161 -33.5q279 0 412 291zM1124 1853h252l-430 -280h-192z" />
    <glyph glyph-name="cacute" unicode="&#x107;" horiz-adv-x="1026" 
d="M741 311h170q-55 -157 -169 -244t-291 -87q-185 0 -281 109.5t-96 295.5q0 96 20.5 190.5t64.5 182t105.5 154.5t151 107t194.5 40q84 0 151 -23t107.5 -60t66 -84.5t34 -93.5t4.5 -91h-166q-7 213 -207 213q-86 0 -156 -49.5t-110.5 -128.5t-62 -168t-21.5 -177
q0 -278 225 -278q176 0 266 192zM897 1528h233l-411 -311h-184z" />
    <glyph glyph-name="Ccircumflex" unicode="&#x108;" horiz-adv-x="1337" 
d="M1071 422h189q-53 -139 -132 -234t-203 -150.5t-288 -55.5q-131 0 -232 44t-162.5 122.5t-92.5 181t-31 225.5q0 129 27.5 254t86.5 241t142.5 203.5t205 140t265.5 52.5q228 0 360.5 -120.5t141.5 -332.5h-185q-11 139 -94 221t-242 82q-123 0 -224 -64t-164 -170
t-96.5 -235.5t-33.5 -267.5q0 -91 19.5 -166t60 -135t109.5 -93.5t161 -33.5q279 0 412 291zM850 1825h172l211 -264h-172l-137 165l-209 -165h-189z" />
    <glyph glyph-name="ccircumflex" unicode="&#x109;" horiz-adv-x="1026" 
d="M741 311h170q-55 -157 -169 -244t-291 -87q-185 0 -281 109.5t-96 295.5q0 96 20.5 190.5t64.5 182t105.5 154.5t151 107t194.5 40q84 0 151 -23t107.5 -60t66 -84.5t34 -93.5t4.5 -91h-166q-7 213 -207 213q-86 0 -156 -49.5t-110.5 -128.5t-62 -168t-21.5 -177
q0 -278 225 -278q176 0 266 192zM645 1513h166l147 -292h-161l-88 190l-179 -190h-172z" />
    <glyph glyph-name="Cdotaccent" unicode="&#x10a;" horiz-adv-x="1337" 
d="M1071 422h189q-53 -139 -132 -234t-203 -150.5t-288 -55.5q-131 0 -232 44t-162.5 122.5t-92.5 181t-31 225.5q0 129 27.5 254t86.5 241t142.5 203.5t205 140t265.5 52.5q228 0 360.5 -120.5t141.5 -332.5h-185q-11 139 -94 221t-242 82q-123 0 -224 -64t-164 -170
t-96.5 -235.5t-33.5 -267.5q0 -91 19.5 -166t60 -135t109.5 -93.5t161 -33.5q279 0 412 291zM954 1604h-170l47 223h170z" />
    <glyph glyph-name="cdotaccent" unicode="&#x10b;" horiz-adv-x="1026" 
d="M741 311h170q-55 -157 -169 -244t-291 -87q-185 0 -281 109.5t-96 295.5q0 96 20.5 190.5t64.5 182t105.5 154.5t151 107t194.5 40q84 0 151 -23t107.5 -60t66 -84.5t34 -93.5t4.5 -91h-166q-7 213 -207 213q-86 0 -156 -49.5t-110.5 -128.5t-62 -168t-21.5 -177
q0 -278 225 -278q176 0 266 192zM741 1280h-172l47 223h170z" />
    <glyph glyph-name="Ccaron" unicode="&#x10c;" horiz-adv-x="1337" 
d="M1071 422h189q-53 -139 -132 -234t-203 -150.5t-288 -55.5q-131 0 -232 44t-162.5 122.5t-92.5 181t-31 225.5q0 129 27.5 254t86.5 241t142.5 203.5t205 140t265.5 52.5q228 0 360.5 -120.5t141.5 -332.5h-185q-11 139 -94 221t-242 82q-123 0 -224 -64t-164 -170
t-96.5 -235.5t-33.5 -267.5q0 -91 19.5 -166t60 -135t109.5 -93.5t161 -33.5q279 0 412 291zM961 1571h-175l-208 258h172l137 -166l205 166h192z" />
    <glyph glyph-name="ccaron" unicode="&#x10d;" horiz-adv-x="1026" 
d="M741 311h170q-55 -157 -169 -244t-291 -87q-185 0 -281 109.5t-96 295.5q0 96 20.5 190.5t64.5 182t105.5 154.5t151 107t194.5 40q84 0 151 -23t107.5 -60t66 -84.5t34 -93.5t4.5 -91h-166q-7 213 -207 213q-86 0 -156 -49.5t-110.5 -128.5t-62 -168t-21.5 -177
q0 -278 225 -278q176 0 266 192zM733 1206h-166l-153 291h157l95 -194l174 194h174z" />
    <glyph glyph-name="Dcaron" unicode="&#x10e;" horiz-adv-x="1443" 
d="M66 0l301 1425h411q276 0 436 -161.5t160 -440.5q0 -176 -55.5 -327t-157 -261t-253 -172.5t-335.5 -62.5h-507zM512 1276l-236 -1126h293q191 0 331 84.5t212 235.5t72 351q2 215 -110 335t-318 120h-244zM889 1559h-174l-209 258h172l137 -166l205 166h192z" />
    <glyph glyph-name="dcaron" unicode="&#x10f;" horiz-adv-x="1286" 
d="M1036 1503h168l-256 -1214q-43 -205 -57 -289h-166q3 39 29 164q-118 -184 -344 -184q-163 0 -249.5 110t-86.5 293q0 93 21.5 187.5t66.5 182.5t108 156t153 109t195 41q119 0 193.5 -50.5t95.5 -111.5zM621 909q-87 0 -159 -47t-116.5 -122.5t-69 -164t-24.5 -176.5
q0 -136 56 -203t161 -67q78 0 142 33.5t108.5 93.5t74.5 133.5t48 163.5q35 168 -19.5 262t-201.5 94zM1360 1503h151l-120 -510h-136z" />
    <glyph glyph-name="Dcroat" unicode="&#x110;" horiz-adv-x="1464" 
d="M63 801h193l131 624h412q276 0 436 -161.5t160 -440.5q0 -176 -55.5 -327t-157 -261t-253 -172.5t-335.5 -62.5h-508l141 672h-192zM532 1276l-100 -475h393l-28 -129h-391l-109 -522h293q287 0 450.5 183.5t163.5 487.5q2 215 -110 335t-318 120h-244z" />
    <glyph glyph-name="dcroat" unicode="&#x111;" horiz-adv-x="1155" 
d="M492 1325h499l39 178h170l-37 -178h121l-27 -119h-120l-195 -917q-43 -205 -57 -289h-164q3 53 27 164q-57 -89 -139.5 -136.5t-211.5 -47.5q-158 0 -241.5 106.5t-83.5 292.5q0 94 22 188.5t68 182t110 155t155 108t196 40.5q118 0 187.5 -50t88.5 -110l68 313h-502z
M627 901q-90 0 -163.5 -45.5t-119 -119.5t-70 -163.5t-24.5 -183.5q-2 -122 52.5 -190t154.5 -68q79 0 144 33t109.5 93t74.5 132t49 160q34 165 -15 258.5t-192 93.5z" />
    <glyph glyph-name="Emacron" unicode="&#x112;" horiz-adv-x="1163" 
d="M1081 827l-32 -151h-666l-109 -524h760l-55 -152h-913l301 1425h876l-31 -151h-700l-96 -447h665zM580 1753h553l-31 -139h-553z" />
    <glyph glyph-name="emacron" unicode="&#x113;" horiz-adv-x="1052" 
d="M961 494h-709q-8 -82 -8 -99q0 -132 60 -203t169 -71q104 0 165 46.5t103 125.5h177q-131 -313 -465 -313q-188 0 -284.5 111.5t-96.5 299.5q0 91 19 182t62 179.5t104.5 156t154.5 109t204 41.5q101 0 175 -31t115.5 -85t61 -117.5t19.5 -137.5q0 -93 -26 -194zM281 623
h534q6 27 6 75q0 224 -215 224q-118 0 -201.5 -77.5t-123.5 -221.5zM422 1430h545l-31 -144h-547z" />
    <glyph glyph-name="Ebreve" unicode="&#x114;" horiz-adv-x="1163" 
d="M1081 827l-32 -151h-666l-109 -524h760l-55 -152h-913l301 1425h876l-31 -151h-700l-96 -447h665zM549 1815h131q2 -59 36 -95.5t107 -36.5q141 0 201 132h133q-95 -259 -350 -259q-74 0 -127.5 22.5t-82 61t-40 82.5t-8.5 93z" />
    <glyph glyph-name="ebreve" unicode="&#x115;" horiz-adv-x="1052" 
d="M961 494h-709q-8 -82 -8 -99q0 -132 60 -203t169 -71q104 0 165 46.5t103 125.5h177q-131 -313 -465 -313q-188 0 -284.5 111.5t-96.5 299.5q0 91 19 182t62 179.5t104.5 156t154.5 109t204 41.5q101 0 175 -31t115.5 -85t61 -117.5t19.5 -137.5q0 -93 -26 -194zM281 623
h534q6 27 6 75q0 224 -215 224q-118 0 -201.5 -77.5t-123.5 -221.5zM420 1483h129q-2 -61 28 -99t97 -38q32 0 59.5 9.5t44.5 21t34.5 33.5t25 35t20.5 38h129q-87 -266 -330 -266q-70 0 -121 23t-77.5 61.5t-36 84.5t-2.5 97z" />
    <glyph glyph-name="Edotaccent" unicode="&#x116;" horiz-adv-x="1163" 
d="M1081 827l-32 -151h-666l-109 -524h760l-55 -152h-913l301 1425h876l-31 -151h-700l-96 -447h665zM895 1593h-170l47 224h170z" />
    <glyph glyph-name="edotaccent" unicode="&#x117;" horiz-adv-x="1052" 
d="M961 494h-709q-8 -82 -8 -99q0 -132 60 -203t169 -71q104 0 165 46.5t103 125.5h177q-131 -313 -465 -313q-188 0 -284.5 111.5t-96.5 299.5q0 91 19 182t62 179.5t104.5 156t154.5 109t204 41.5q101 0 175 -31t115.5 -85t61 -117.5t19.5 -137.5q0 -93 -26 -194zM281 623
h534q6 27 6 75q0 224 -215 224q-118 0 -201.5 -77.5t-123.5 -221.5zM727 1280h-172l47 223h170z" />
    <glyph glyph-name="Eogonek" unicode="&#x118;" horiz-adv-x="1163" 
d="M1081 827l-32 -151h-666l-109 -524h760l-55 -152h-86q-74 -62 -115 -117t-41 -110q0 -48 30 -73.5t81 -25.5q61 0 115 21l-25 -133q-59 -29 -154 -29q-101 0 -159 51t-58 142q0 137 160 274h-661l301 1425h876l-31 -151h-700l-96 -447h665z" />
    <glyph glyph-name="eogonek" unicode="&#x119;" horiz-adv-x="1052" 
d="M961 494h-709q-8 -82 -8 -99q0 -132 60 -203t169 -71q104 0 165 46.5t103 125.5h177q-98 -235 -312 -295q-153 -128 -153 -225q0 -48 29.5 -73.5t80.5 -25.5q61 0 115 21l-25 -133q-59 -29 -153 -29q-101 0 -159 51t-58 142q0 130 137 254q-172 10 -260 121t-88 290
q0 91 19 182t62 179.5t104.5 156t154.5 109t204 41.5q101 0 175 -31t115.5 -85t61 -117.5t19.5 -137.5q0 -93 -26 -194zM281 623h534q6 27 6 75q0 224 -215 224q-118 0 -201.5 -77.5t-123.5 -221.5z" />
    <glyph glyph-name="Ecaron" unicode="&#x11a;" horiz-adv-x="1163" 
d="M1081 827l-32 -151h-666l-109 -524h760l-55 -152h-913l301 1425h876l-31 -151h-700l-96 -447h665zM893 1563h-174l-209 258h172l137 -166l205 166h193z" />
    <glyph glyph-name="ecaron" unicode="&#x11b;" horiz-adv-x="1052" 
d="M961 494h-709q-8 -82 -8 -99q0 -132 60 -203t169 -71q104 0 165 46.5t103 125.5h177q-131 -313 -465 -313q-188 0 -284.5 111.5t-96.5 299.5q0 91 19 182t62 179.5t104.5 156t154.5 109t204 41.5q101 0 175 -31t115.5 -85t61 -117.5t19.5 -137.5q0 -93 -26 -194zM281 623
h534q6 27 6 75q0 224 -215 224q-118 0 -201.5 -77.5t-123.5 -221.5zM733 1212h-166l-153 291h157l95 -194l174 194h174z" />
    <glyph glyph-name="Gcircumflex" unicode="&#x11c;" horiz-adv-x="1433" 
d="M1339 770l-157 -770h-144q2 46 33 217q-49 -76 -105.5 -125.5t-145 -79.5t-204.5 -30q-160 0 -272.5 74.5t-166.5 200.5t-54 292q0 133 29.5 261t92 243.5t150.5 202.5t214 138.5t274 51.5q230 0 367.5 -120.5t142.5 -315.5h-174q-15 125 -103.5 205.5t-257.5 80.5
q-104 0 -194 -41.5t-154 -112t-110 -164t-68.5 -198.5t-22.5 -213q0 -95 20.5 -173t62.5 -137.5t110.5 -92.5t159.5 -33q89 0 161.5 26t122.5 68.5t88 106t61 128.5t40 146l2 6h-418l33 158h587zM879 1817h172l211 -265h-172l-138 166l-209 -166h-188z" />
    <glyph glyph-name="gcircumflex" unicode="&#x11d;" horiz-adv-x="1140" 
d="M1038 764l-141 -662q-19 -89 -39 -154.5t-49.5 -129t-68.5 -106t-91.5 -76t-123 -49t-158.5 -15.5q-387 0 -387 313h172q0 -77 57.5 -127.5t175.5 -50.5q64 0 114 18t84.5 49t62.5 83t46 108t37 135l21 93q-116 -189 -336 -189q-157 0 -247.5 105t-90.5 294
q0 94 21.5 187t66 177.5t106 149.5t147.5 103.5t185 38.5q124 0 200 -51t93 -117q26 106 43 147h162q-42 -174 -62 -274zM612 913q-84 0 -153.5 -43t-113.5 -114t-67.5 -159t-23.5 -181q0 -130 56.5 -197t162.5 -67q70 0 130 31t103.5 86.5t74 125.5t48.5 154
q19 75 14.5 141t-27 115.5t-75 78.5t-129.5 29zM680 1520h166l147 -293h-162l-88 190l-178 -190h-172z" />
    <glyph glyph-name="Gbreve" unicode="&#x11e;" horiz-adv-x="1433" 
d="M1339 770l-157 -770h-144q2 46 33 217q-49 -76 -105.5 -125.5t-145 -79.5t-204.5 -30q-160 0 -272.5 74.5t-166.5 200.5t-54 292q0 133 29.5 261t92 243.5t150.5 202.5t214 138.5t274 51.5q230 0 367.5 -120.5t142.5 -315.5h-174q-15 125 -103.5 205.5t-257.5 80.5
q-104 0 -194 -41.5t-154 -112t-110 -164t-68.5 -198.5t-22.5 -213q0 -95 20.5 -173t62.5 -137.5t110.5 -92.5t159.5 -33q89 0 161.5 26t122.5 68.5t88 106t61 128.5t40 146l2 6h-418l33 158h587zM645 1821h131q2 -59 36.5 -95t107.5 -36q140 0 200 131h133
q-45 -122 -128.5 -190t-221.5 -68q-74 0 -127.5 22.5t-82 61t-40 82t-8.5 92.5z" />
    <glyph glyph-name="gbreve" unicode="&#x11f;" horiz-adv-x="1140" 
d="M1038 764l-141 -662q-19 -89 -39 -154.5t-49.5 -129t-68.5 -106t-91.5 -76t-123 -49t-158.5 -15.5q-387 0 -387 313h172q0 -77 57.5 -127.5t175.5 -50.5q64 0 114 18t84.5 49t62.5 83t46 108t37 135l21 93q-116 -189 -336 -189q-157 0 -247.5 105t-90.5 294
q0 94 21.5 187t66 177.5t106 149.5t147.5 103.5t185 38.5q124 0 200 -51t93 -117q26 106 43 147h162q-42 -174 -62 -274zM612 913q-84 0 -153.5 -43t-113.5 -114t-67.5 -159t-23.5 -181q0 -130 56.5 -197t162.5 -67q70 0 130 31t103.5 86.5t74 125.5t48.5 154
q19 75 14.5 141t-27 115.5t-75 78.5t-129.5 29zM463 1481h129q-2 -61 28 -99.5t97 -38.5q32 0 59.5 9.5t44.5 21t34.5 34.5t25 35.5t20.5 37.5h129q-87 -267 -330 -267q-56 0 -100.5 15t-71.5 41t-45 60.5t-21 72.5t1 78z" />
    <glyph glyph-name="Gdotaccent" unicode="&#x120;" horiz-adv-x="1433" 
d="M1339 770l-157 -770h-144q2 46 33 217q-49 -76 -105.5 -125.5t-145 -79.5t-204.5 -30q-160 0 -272.5 74.5t-166.5 200.5t-54 292q0 133 29.5 261t92 243.5t150.5 202.5t214 138.5t274 51.5q230 0 367.5 -120.5t142.5 -315.5h-174q-15 125 -103.5 205.5t-257.5 80.5
q-104 0 -194 -41.5t-154 -112t-110 -164t-68.5 -198.5t-22.5 -213q0 -95 20.5 -173t62.5 -137.5t110.5 -92.5t159.5 -33q89 0 161.5 26t122.5 68.5t88 106t61 128.5t40 146l2 6h-418l33 158h587zM1008 1593h-170l47 224h170z" />
    <glyph glyph-name="gdotaccent" unicode="&#x121;" horiz-adv-x="1140" 
d="M1038 764l-141 -662q-19 -89 -39 -154.5t-49.5 -129t-68.5 -106t-91.5 -76t-123 -49t-158.5 -15.5q-387 0 -387 313h172q0 -77 57.5 -127.5t175.5 -50.5q64 0 114 18t84.5 49t62.5 83t46 108t37 135l21 93q-116 -189 -336 -189q-157 0 -247.5 105t-90.5 294
q0 94 21.5 187t66 177.5t106 149.5t147.5 103.5t185 38.5q124 0 200 -51t93 -117q26 106 43 147h162q-42 -174 -62 -274zM612 913q-84 0 -153.5 -43t-113.5 -114t-67.5 -159t-23.5 -181q0 -130 56.5 -197t162.5 -67q70 0 130 31t103.5 86.5t74 125.5t48.5 154
q19 75 14.5 141t-27 115.5t-75 78.5t-129.5 29zM770 1280h-172l47 223h170z" />
    <glyph glyph-name="uni0122" unicode="&#x122;" horiz-adv-x="1433" 
d="M1339 770l-157 -770h-144q2 46 33 217q-49 -76 -105.5 -125.5t-145 -79.5t-204.5 -30q-160 0 -272.5 74.5t-166.5 200.5t-54 292q0 133 29.5 261t92 243.5t150.5 202.5t214 138.5t274 51.5q230 0 367.5 -120.5t142.5 -315.5h-174q-15 125 -103.5 205.5t-257.5 80.5
q-104 0 -194 -41.5t-154 -112t-110 -164t-68.5 -198.5t-22.5 -213q0 -95 20.5 -173t62.5 -137.5t110.5 -92.5t159.5 -33q89 0 161.5 26t122.5 68.5t88 106t61 128.5t40 146l2 6h-418l33 158h587zM492 -530h-162q74 90 131.5 198.5t77.5 196.5h178q-33 -123 -99 -232.5
t-126 -162.5z" />
    <glyph glyph-name="uni0123" unicode="&#x123;" horiz-adv-x="1140" 
d="M836 1606h159q-83 -90 -147.5 -199t-99.5 -213h-177q35 108 113.5 229.5t151.5 182.5zM1038 764l-141 -662q-19 -89 -39 -154.5t-49.5 -129t-68.5 -106t-91.5 -76t-123 -49t-158.5 -15.5q-387 0 -387 313h172q0 -77 57.5 -127.5t175.5 -50.5q64 0 114 18t84.5 49t62.5 83
t46 108t37 135l21 93q-116 -189 -336 -189q-157 0 -247.5 105t-90.5 294q0 94 21.5 187t66 177.5t106 149.5t147.5 103.5t185 38.5q124 0 200 -51t93 -117q26 106 43 147h162q-42 -174 -62 -274zM612 913q-84 0 -153.5 -43t-113.5 -114t-67.5 -159t-23.5 -181
q0 -130 56.5 -197t162.5 -67q70 0 130 31t103.5 86.5t74 125.5t48.5 154q19 75 14.5 141t-27 115.5t-75 78.5t-129.5 29z" />
    <glyph glyph-name="Hcircumflex" unicode="&#x124;" horiz-adv-x="1429" 
d="M66 0l301 1425h178l-125 -587h717l125 587h178l-301 -1425h-178l143 686h-717l-143 -686h-178zM879 1817h172l211 -265h-172l-138 166l-209 -166h-188z" />
    <glyph glyph-name="hcircumflex" unicode="&#x125;" horiz-adv-x="1128" 
d="M414 1812h174l174 -223h-156l-119 135l-168 -135h-174zM43 0l317 1503h170l-135 -631q132 187 346 187q50 0 93.5 -10.5t85.5 -37t65 -71t32 -112t-13 -160.5l-140 -668h-170l135 641q28 135 -8 201.5t-149 66.5q-126 0 -215.5 -92.5t-122.5 -243.5l-123 -573h-168z" />
    <glyph glyph-name="Hbar" unicode="&#x126;" horiz-adv-x="1429" 
d="M412 813h723l45 215h-723zM66 0l217 1028h-129l30 135h127l56 262h176l-56 -262h721l56 262h176l-56 -262h121l-28 -135h-121l-217 -1028h-176l139 662h-721l-139 -662h-176z" />
    <glyph glyph-name="hbar" unicode="&#x127;" horiz-adv-x="1128" 
d="M43 0l254 1206h-145l24 119h148l36 178h170l-36 -178h462l-26 -119h-463l-72 -342q127 189 346 189q41 0 77.5 -7t73.5 -24.5t62 -46.5t44 -72.5t19 -103t-13 -137.5l-140 -662h-170l133 633q29 136 -6.5 202t-148.5 66q-126 0 -216.5 -92.5t-121.5 -243.5l-123 -565
h-168z" />
    <glyph glyph-name="Itilde" unicode="&#x128;" horiz-adv-x="534" 
d="M369 1425h178l-301 -1425h-180zM272 1561h-122l8 51q16 103 62 142.5t122 39.5q51 0 110 -26t109 -52t80 -26q31 0 48 19.5t26 68.5l2 18h125l-11 -57q-19 -104 -65.5 -144.5t-124.5 -40.5q-39 0 -83 16.5t-76 36t-69.5 36t-64.5 16.5q-57 0 -67 -62z" />
    <glyph glyph-name="itilde" unicode="&#x129;" horiz-adv-x="475" 
d="M43 0l219 1038h170l-221 -1038h-168zM197 1245h-123l10 51q19 103 64 142t122 39q47 0 99.5 -25.5t96.5 -50.5t69 -25q26 0 42 18.5t25 67.5l4 21h121l-8 -45q-19 -109 -63.5 -152t-120.5 -43q-35 0 -75 16t-69.5 35.5t-63.5 35.5t-59 16q-46 0 -63 -68z" />
    <glyph glyph-name="Imacron" unicode="&#x12a;" horiz-adv-x="534" 
d="M369 1425h178l-301 -1425h-180zM231 1737h553l-30 -140h-553z" />
    <glyph glyph-name="imacron" unicode="&#x12b;" horiz-adv-x="475" 
d="M43 0l219 1038h170l-221 -1038h-168zM133 1430h545l-31 -144h-547z" />
    <glyph glyph-name="Iogonek" unicode="&#x12e;" horiz-adv-x="534" 
d="M369 1425h178l-301 -1425h-10q-74 -62 -115 -117t-41 -110q0 -48 29.5 -73.5t80.5 -25.5q61 0 115 21l-24 -133q-59 -29 -154 -29q-101 0 -159 51t-58 142q0 137 160 274h-4z" />
    <glyph glyph-name="iogonek" unicode="&#x12f;" horiz-adv-x="475" 
d="M248 -438q-59 -29 -154 -29q-101 0 -159 51t-58 142q0 142 168 280l217 1032h170l-221 -1038h-8q-74 -62 -115 -117t-41 -110q0 -48 30 -73.5t81 -25.5q60 0 114 21zM313 1280l47 223h170l-47 -223h-170z" />
    <glyph glyph-name="Idotaccent" unicode="&#x130;" horiz-adv-x="534" 
d="M369 1425h178l-301 -1425h-180zM567 1583h-170l47 223h170z" />
    <glyph glyph-name="dotlessi" unicode="&#x131;" horiz-adv-x="475" 
d="M43 0l219 1038h170l-221 -1038h-168z" />
    <glyph glyph-name="Jcircumflex" unicode="&#x134;" horiz-adv-x="690" 
d="M313 373l224 1052h178l-228 -1065q-40 -196 -129.5 -288t-267.5 -92q-102 0 -164 20l35 145q52 -14 131 -14q45 0 80 14t56.5 34t39 55.5t26.5 64.5t19 74zM604 1817h172l211 -265h-172l-137 166l-209 -166h-188z" />
    <glyph glyph-name="jcircumflex" unicode="&#x135;" horiz-adv-x="475" 
d="M262 1038h170l-235 -1104q-19 -94 -43.5 -157t-63.5 -111.5t-96.5 -71t-136.5 -22.5q-43 0 -101 8l37 148q36 -4 51 -4q87 0 123 48t64 179zM354 1536h166l148 -293h-162l-88 191l-178 -191h-172z" />
    <glyph glyph-name="uni0136" unicode="&#x136;" horiz-adv-x="1232" 
d="M66 0l301 1425h176l-150 -698q44 41 357 306t456 392h230l-717 -608l448 -817h-200l-385 711l-228 -172l-110 -539h-178zM420 -518h-162q74 90 131.5 198.5t77.5 196.5h178q-33 -123 -99 -232.5t-126 -162.5z" />
    <glyph glyph-name="uni0137" unicode="&#x137;" horiz-adv-x="985" 
d="M528 1503l-202 -942q54 49 262.5 230.5t281.5 246.5h215q-190 -167 -464 -403l274 -635h-193l-217 528l-194 -151l-80 -377h-170l319 1503h168zM289 -504h-162q74 90 131.5 198.5t77.5 196.5h178q-33 -123 -99 -232.5t-126 -162.5z" />
    <glyph glyph-name="kgreenlandic" unicode="&#x138;" horiz-adv-x="985" 
d="M430 1038l-104 -485q59 56 275 247.5t267 237.5h215q-290 -255 -471 -411l283 -627h-190l-226 524l-190 -151l-78 -373h-170l219 1038h170z" />
    <glyph glyph-name="Lacute" unicode="&#x139;" horiz-adv-x="1085" 
d="M66 0l301 1425h178l-271 -1273h715l-53 -152h-870zM745 1833h252l-430 -281h-192z" />
    <glyph glyph-name="lacute" unicode="&#x13a;" horiz-adv-x="475" 
d="M672 1835h227l-352 -225h-182zM211 0h-168l317 1503h170z" />
    <glyph glyph-name="uni013B" unicode="&#x13b;" horiz-adv-x="1085" 
d="M66 0l301 1425h178l-271 -1273h715l-53 -152h-870zM377 -530h-162q74 90 131.5 198.5t77.5 196.5h178q-33 -123 -99 -232.5t-126 -162.5z" />
    <glyph glyph-name="uni013C" unicode="&#x13c;" horiz-adv-x="475" 
d="M211 0h-168l317 1503h170zM-33 -520h-162q74 90 131.5 198.5t77.5 196.5h179q-33 -123 -99 -232.5t-127 -162.5z" />
    <glyph glyph-name="Lcaron" unicode="&#x13d;" horiz-adv-x="1085" 
d="M66 0l301 1425h178l-271 -1273h715l-53 -152h-870zM842 1425h151l-121 -510h-135z" />
    <glyph glyph-name="lcaron" unicode="&#x13e;" horiz-adv-x="622" 
d="M211 0h-168l317 1503h170zM692 1505h152l-121 -510h-135z" />
    <glyph glyph-name="Ldot" unicode="&#x13f;" horiz-adv-x="1085" 
d="M868 612h-174l64 295h174zM66 0l301 1425h178l-271 -1273h715l-53 -152h-870z" />
    <glyph glyph-name="ldot" unicode="&#x140;" horiz-adv-x="567" 
d="M645 750h-160l64 288h158zM211 0h-168l317 1503h170z" />
    <glyph glyph-name="Lslash" unicode="&#x141;" horiz-adv-x="1105" 
d="M776 842l-362 -127l-119 -563h715l-54 -152h-870l137 649l-203 -71l31 141l201 72l135 634h178l-121 -567l361 127z" />
    <glyph glyph-name="lslash" unicode="&#x142;" horiz-adv-x="493" 
d="M231 0h-168l160 756l-153 -68l30 148l154 67l127 600h170l-111 -518l170 76l-32 -150l-168 -73z" />
    <glyph glyph-name="Nacute" unicode="&#x143;" horiz-adv-x="1458" 
d="M236 0h-173l304 1425h231q35 -97 152 -405.5t197 -527.5t97 -287h3q9 61 25.5 149t29.5 151.5t39.5 186t36.5 170.5l118 563h172l-301 -1425h-221q-396 1058 -452 1251h-2q-24 -150 -136 -673zM1143 1815h252l-430 -281h-193z" />
    <glyph glyph-name="nacute" unicode="&#x144;" horiz-adv-x="1128" 
d="M43 0l164 774q27 135 51 264h166q-3 -50 -31 -176q124 197 348 197q159 0 231 -99.5t27 -310.5l-135 -649h-170l135 645q59 264 -159 264q-136 0 -223.5 -108.5t-124.5 -280.5l-111 -520h-168zM928 1528h233l-411 -311h-185z" />
    <glyph glyph-name="uni0145" unicode="&#x145;" horiz-adv-x="1458" 
d="M236 0h-173l304 1425h231q35 -97 152 -405.5t197 -527.5t97 -287h3q9 61 25.5 149t29.5 151.5t39.5 186t36.5 170.5l118 563h172l-301 -1425h-221q-396 1058 -452 1251h-2q-24 -150 -136 -673zM477 -518h-162q74 90 131.5 198.5t77.5 196.5h178q-33 -123 -99 -232.5
t-126 -162.5z" />
    <glyph glyph-name="uni0146" unicode="&#x146;" horiz-adv-x="1128" 
d="M43 0l164 774q27 135 51 264h166q-3 -50 -31 -176q124 197 348 197q159 0 231 -99.5t27 -310.5l-135 -649h-170l135 645q59 264 -159 264q-136 0 -223.5 -108.5t-124.5 -280.5l-111 -520h-168zM307 -504h-162q74 90 131.5 198.5t77.5 196.5h178q-33 -123 -99 -232.5
t-126 -162.5z" />
    <glyph glyph-name="Ncaron" unicode="&#x147;" horiz-adv-x="1458" 
d="M236 0h-173l304 1425h231q35 -97 152 -405.5t197 -527.5t97 -287h3q9 61 25.5 149t29.5 151.5t39.5 186t36.5 170.5l118 563h172l-301 -1425h-221q-396 1058 -452 1251h-2q-24 -150 -136 -673zM1008 1518h-174l-209 258h172l137 -166l205 166h192z" />
    <glyph glyph-name="ncaron" unicode="&#x148;" horiz-adv-x="1128" 
d="M43 0l164 774q27 135 51 264h166q-3 -50 -31 -176q124 197 348 197q159 0 231 -99.5t27 -310.5l-135 -649h-170l135 645q59 264 -159 264q-136 0 -223.5 -108.5t-124.5 -280.5l-111 -520h-168zM770 1206h-166l-153 291h157l94 -194l175 194h174z" />
    <glyph glyph-name="napostrophe" unicode="&#x149;" horiz-adv-x="1128" 
d="M262 1190h-143q66 97 118 208.5t74 203.5h164q-29 -116 -91.5 -233t-121.5 -179zM43 0l164 774q27 135 51 264h166q-3 -50 -31 -176q124 197 348 197q159 0 231 -99.5t27 -310.5l-135 -649h-170l135 645q59 264 -159 264q-136 0 -223.5 -108.5t-124.5 -280.5l-111 -520
h-168z" />
    <glyph glyph-name="Omacron" unicode="&#x14c;" horiz-adv-x="1486" 
d="M872 1446q261 0 402 -158.5t141 -431.5q0 -128 -27.5 -251t-88 -237t-146.5 -199.5t-213 -137t-278 -51.5q-257 0 -398 157.5t-141 415.5q0 128 29.5 254t91 241.5t148 204t211 141t269.5 52.5zM860 1296q-91 0 -171 -31.5t-139.5 -85.5t-106.5 -126t-76.5 -154.5
t-44.5 -168.5t-15 -171q0 -125 39 -219.5t125.5 -152.5t212.5 -58q108 0 199 42.5t154 114.5t107.5 166.5t65.5 198t21 209.5q0 201 -94.5 318.5t-276.5 117.5zM659 1759h553l-30 -139h-553z" />
    <glyph glyph-name="omacron" unicode="&#x14d;" horiz-adv-x="1097" 
d="M625 1059q181 0 287 -112.5t106 -315.5q0 -86 -18.5 -173t-61.5 -174t-105.5 -154t-157.5 -108.5t-210 -41.5q-187 0 -288 110.5t-101 306.5q0 89 20.5 180t65 178t107.5 154.5t155.5 108.5t200.5 41zM608 918q-86 0 -156.5 -49.5t-113 -127.5t-65.5 -167t-23 -175
q0 -132 60 -205t173 -73q72 0 133 32.5t102.5 86t70.5 121.5t42 138t13 138q0 134 -59.5 207.5t-176.5 73.5zM428 1430h545l-31 -144h-547z" />
    <glyph glyph-name="Ohungarumlaut" unicode="&#x150;" horiz-adv-x="1486" 
d="M872 1446q261 0 402 -158.5t141 -431.5q0 -128 -27.5 -251t-88 -237t-146.5 -199.5t-213 -137t-278 -51.5q-257 0 -398 157.5t-141 415.5q0 128 29.5 254t91 241.5t148 204t211 141t269.5 52.5zM860 1296q-91 0 -171 -31.5t-139.5 -85.5t-106.5 -126t-76.5 -154.5
t-44.5 -168.5t-15 -171q0 -125 39 -219.5t125.5 -152.5t212.5 -58q108 0 199 42.5t154 114.5t107.5 166.5t65.5 198t21 209.5q0 201 -94.5 318.5t-276.5 117.5zM899 1845h203l-338 -280h-166zM1278 1845h199l-336 -280h-168z" />
    <glyph glyph-name="ohungarumlaut" unicode="&#x151;" horiz-adv-x="1097" 
d="M625 1059q181 0 287 -112.5t106 -315.5q0 -86 -18.5 -173t-61.5 -174t-105.5 -154t-157.5 -108.5t-210 -41.5q-187 0 -288 110.5t-101 306.5q0 89 20.5 180t65 178t107.5 154.5t155.5 108.5t200.5 41zM608 918q-86 0 -156.5 -49.5t-113 -127.5t-65.5 -167t-23 -175
q0 -132 60 -205t173 -73q72 0 133 32.5t102.5 86t70.5 121.5t42 138t13 138q0 134 -59.5 207.5t-176.5 73.5zM860 1503l-323 -315h-162l295 315h190zM1225 1503l-326 -315h-160l295 315h191z" />
    <glyph glyph-name="OE" unicode="&#x152;" horiz-adv-x="2029" 
d="M965 154l235 1116q-80 14 -213 14q-304 0 -487 -185t-183 -485q0 -219 124.5 -345t340.5 -126q104 0 183 11zM2114 1425l-33 -151h-701l-96 -447h670l-33 -151h-670l-110 -524h757l-57 -152h-866q-22 0 -96.5 -4t-124.5 -4q-150 0 -270.5 48.5t-196.5 133t-116 194.5
t-40 238q0 174 59 324.5t169 263.5t279.5 177.5t379.5 64.5q81 0 176 -5.5t96 -5.5h824z" />
    <glyph glyph-name="oe" unicode="&#x153;" horiz-adv-x="1804" 
d="M1204 -20q-128 0 -210 57.5t-117 159.5q-149 -217 -414 -217q-185 0 -287 112.5t-102 310.5q0 87 21 177t66 176t108.5 153.5t156.5 108.5t201 41q124 0 212.5 -57.5t129.5 -165.5q145 223 401 223q100 0 173.5 -31t115 -84.5t61 -117.5t19.5 -138q0 -89 -27 -194h-708
q-9 -92 -9 -99q0 -130 60.5 -202t169.5 -72q104 0 165 46.5t103 125.5h176q-131 -313 -465 -313zM1032 623h535q8 36 8 73q0 107 -56.5 166.5t-162.5 59.5q-116 0 -200 -79t-124 -220zM612 918q-70 0 -130.5 -33.5t-102 -87.5t-71.5 -122.5t-44 -138.5t-14 -135
q0 -131 59.5 -205.5t171.5 -74.5q72 0 133 33.5t102 87.5t70.5 122.5t42.5 137.5t13 133q0 133 -59 208t-171 75z" />
    <glyph glyph-name="Racute" unicode="&#x154;" horiz-adv-x="1265" 
d="M676 637h-299l-133 -637h-178l301 1425h479q195 0 299 -93t104 -253q0 -154 -83.5 -250t-229.5 -129q23 -9 43 -21t42 -31t37.5 -47t25.5 -63.5t9.5 -85.5t-12.5 -108q-61 -283 -55 -344h-168q-10 98 49 338q33 155 -20 227t-211 72zM512 1276l-102 -490h280
q375 0 375 275q0 215 -254 215h-299zM1036 1833h252l-430 -281h-192z" />
    <glyph glyph-name="racute" unicode="&#x155;" horiz-adv-x="700" 
d="M748 1059l-37 -176q-149 -10 -254 -116.5t-142 -281.5l-104 -485h-168l156 731q52 266 59 307h164q-5 -70 -39 -219q58 112 153 176t212 64zM754 1528h233l-412 -311h-184z" />
    <glyph glyph-name="uni0156" unicode="&#x156;" horiz-adv-x="1265" 
d="M676 637h-299l-133 -637h-178l301 1425h479q195 0 299 -93t104 -253q0 -154 -83.5 -250t-229.5 -129q23 -9 43 -21t42 -31t37.5 -47t25.5 -63.5t9.5 -85.5t-12.5 -108q-61 -283 -55 -344h-168q-10 98 49 338q33 155 -20 227t-211 72zM512 1276l-102 -490h280
q375 0 375 275q0 215 -254 215h-299zM410 -498h-162q74 90 131.5 198.5t77.5 197.5h178q-33 -123 -99 -233t-126 -163z" />
    <glyph glyph-name="uni0157" unicode="&#x157;" horiz-adv-x="700" 
d="M748 1059l-37 -176q-149 -10 -254 -116.5t-142 -281.5l-104 -485h-168l156 731q52 266 59 307h164q-5 -70 -39 -219q58 112 153 176t212 64zM-20 -520h-162q74 90 131.5 198.5t77.5 196.5h178q-33 -123 -99 -232.5t-126 -162.5z" />
    <glyph glyph-name="Rcaron" unicode="&#x158;" horiz-adv-x="1265" 
d="M676 637h-299l-133 -637h-178l301 1425h479q195 0 299 -93t104 -253q0 -154 -83.5 -250t-229.5 -129q23 -9 43 -21t42 -31t37.5 -47t25.5 -63.5t9.5 -85.5t-12.5 -108q-61 -283 -55 -344h-168q-10 98 49 338q33 155 -20 227t-211 72zM512 1276l-102 -490h280
q375 0 375 275q0 215 -254 215h-299zM887 1552h-174l-209 258h172l137 -165l205 165h192z" />
    <glyph glyph-name="rcaron" unicode="&#x159;" horiz-adv-x="700" 
d="M748 1059l-37 -176q-149 -10 -254 -116.5t-142 -281.5l-104 -485h-168l156 731q52 266 59 307h164q-5 -70 -39 -219q58 112 153 176t212 64zM582 1206h-166l-154 291h158l94 -194l174 194h174z" />
    <glyph glyph-name="Sacute" unicode="&#x15a;" horiz-adv-x="1173" 
d="M47 414h180q12 -142 98.5 -215.5t237.5 -73.5q145 0 229.5 66.5t84.5 193.5q0 100 -62.5 166.5t-230.5 130.5q-197 75 -278 158.5t-81 208.5q0 80 29 150.5t84.5 126t146.5 88t207 32.5q115 0 204 -31.5t142.5 -86.5t80.5 -125t28 -152h-178q-13 118 -79.5 182.5
t-211.5 64.5q-128 0 -198 -65t-70 -164q0 -78 52.5 -130.5t205.5 -111.5q217 -80 307 -178t90 -239q0 -87 -29 -162t-88.5 -136t-163 -96.5t-239.5 -35.5q-240 0 -366.5 118t-131.5 316zM979 1858h252l-430 -281h-193z" />
    <glyph glyph-name="sacute" unicode="&#x15b;" horiz-adv-x="929" 
d="M10 311h174q8 -87 66.5 -140.5t175.5 -53.5q102 0 157.5 46t55.5 122q0 69 -50 111.5t-167 84.5q-163 57 -227 120.5t-64 156.5q0 129 97.5 215t277.5 86q97 0 170 -25.5t114.5 -69t61.5 -95t18 -109.5h-172q-14 164 -209 164q-83 0 -134.5 -39.5t-51.5 -108.5
q0 -52 45.5 -85t161.5 -75q163 -59 234 -130.5t71 -178.5q0 -153 -112.5 -240t-301.5 -87q-192 0 -291.5 89.5t-99.5 241.5zM815 1528h234l-412 -311h-184z" />
    <glyph glyph-name="Scircumflex" unicode="&#x15c;" horiz-adv-x="1173" 
d="M47 414h180q12 -142 98.5 -215.5t237.5 -73.5q145 0 229.5 66.5t84.5 193.5q0 100 -62.5 166.5t-230.5 130.5q-197 75 -278 158.5t-81 208.5q0 80 29 150.5t84.5 126t146.5 88t207 32.5q115 0 204 -31.5t142.5 -86.5t80.5 -125t28 -152h-178q-13 118 -79.5 182.5
t-211.5 64.5q-128 0 -198 -65t-70 -164q0 -78 52.5 -130.5t205.5 -111.5q217 -80 307 -178t90 -239q0 -87 -29 -162t-88.5 -136t-163 -96.5t-239.5 -35.5q-240 0 -366.5 118t-131.5 316zM727 1829h172l211 -264h-172l-137 166l-209 -166h-189z" />
    <glyph glyph-name="scircumflex" unicode="&#x15d;" horiz-adv-x="929" 
d="M10 311h174q8 -87 66.5 -140.5t175.5 -53.5q102 0 157.5 46t55.5 122q0 69 -50 111.5t-167 84.5q-163 57 -227 120.5t-64 156.5q0 129 97.5 215t277.5 86q97 0 170 -25.5t114.5 -69t61.5 -95t18 -109.5h-172q-14 164 -209 164q-83 0 -134.5 -39.5t-51.5 -108.5
q0 -52 45.5 -85t161.5 -75q163 -59 234 -130.5t71 -178.5q0 -153 -112.5 -240t-301.5 -87q-192 0 -291.5 89.5t-99.5 241.5zM563 1513h166l148 -292h-162l-88 190l-178 -190h-173z" />
    <glyph glyph-name="uni015E" unicode="&#x15e;" horiz-adv-x="1173" 
d="M47 414h180q12 -142 98.5 -215.5t237.5 -73.5q145 0 229.5 66.5t84.5 193.5q0 100 -62.5 166.5t-230.5 130.5q-197 75 -278 158.5t-81 208.5q0 80 29 150.5t84.5 126t146.5 88t207 32.5q115 0 204 -31.5t142.5 -86.5t80.5 -125t28 -152h-178q-13 118 -79.5 182.5
t-211.5 64.5q-128 0 -198 -65t-70 -164q0 -78 52.5 -130.5t205.5 -111.5q217 -80 307 -178t90 -239q0 -83 -26.5 -155t-81 -132.5t-147.5 -97.5t-216 -43l-78 -91q31 -6 60 -18t57.5 -32t45.5 -53t17 -75q0 -98 -72.5 -153.5t-193.5 -55.5q-94 0 -184 31l33 115
q56 -23 139 -23q123 0 123 78q0 44 -57.5 67t-151.5 25l12 56l111 131q-197 23 -300 137.5t-108 292.5z" />
    <glyph glyph-name="uni015F" unicode="&#x15f;" horiz-adv-x="929" 
d="M10 311h174q8 -87 66.5 -140.5t175.5 -53.5q102 0 157.5 46t55.5 122q0 69 -50 111.5t-167 84.5q-163 57 -227 120.5t-64 156.5q0 129 97.5 215t277.5 86q97 0 170 -25.5t114.5 -69t61.5 -95t18 -109.5h-172q-14 164 -209 164q-83 0 -134.5 -39.5t-51.5 -108.5
q0 -52 45.5 -85t161.5 -75q163 -59 234 -130.5t71 -178.5q0 -143 -97.5 -228t-264.5 -97l-78 -91q31 -6 60 -18t57.5 -32t45.5 -53t17 -75q0 -98 -72.5 -153.5t-193.5 -55.5q-95 0 -185 31l33 115q56 -23 139 -23q123 0 123 78q0 44 -57.5 67t-151.5 25l13 56l110 133
q-150 20 -226.5 106t-76.5 219z" />
    <glyph glyph-name="Scaron" unicode="&#x160;" horiz-adv-x="1173" 
d="M47 414h180q12 -142 98.5 -215.5t237.5 -73.5q145 0 229.5 66.5t84.5 193.5q0 100 -62.5 166.5t-230.5 130.5q-197 75 -278 158.5t-81 208.5q0 80 29 150.5t84.5 126t146.5 88t207 32.5q115 0 204 -31.5t142.5 -86.5t80.5 -125t28 -152h-178q-13 118 -79.5 182.5
t-211.5 64.5q-128 0 -198 -65t-70 -164q0 -78 52.5 -130.5t205.5 -111.5q217 -80 307 -178t90 -239q0 -87 -29 -162t-88.5 -136t-163 -96.5t-239.5 -35.5q-240 0 -366.5 118t-131.5 316zM834 1563h-175l-208 258h172l137 -166l205 166h192z" />
    <glyph glyph-name="scaron" unicode="&#x161;" horiz-adv-x="929" 
d="M10 311h174q8 -87 66.5 -140.5t175.5 -53.5q102 0 157.5 46t55.5 122q0 69 -50 111.5t-167 84.5q-163 57 -227 120.5t-64 156.5q0 129 97.5 215t277.5 86q97 0 170 -25.5t114.5 -69t61.5 -95t18 -109.5h-172q-14 164 -209 164q-83 0 -134.5 -39.5t-51.5 -108.5
q0 -52 45.5 -85t161.5 -75q163 -59 234 -130.5t71 -178.5q0 -153 -112.5 -240t-301.5 -87q-192 0 -291.5 89.5t-99.5 241.5zM639 1206h-166l-154 291h158l94 -194l174 194h175z" />
    <glyph glyph-name="uni0162" unicode="&#x162;" horiz-adv-x="1091" 
d="M332 0l268 1274h-442l32 151h1065l-32 -151h-445l-268 -1274h-14l-95 -109q31 -6 60 -18t57.5 -32t46 -53t17.5 -75q0 -98 -73 -153.5t-194 -55.5q-94 0 -184 31l33 115q56 -23 139 -23q123 0 123 78q0 44 -57.5 67t-151.5 25l12 56l123 147h-20z" />
    <glyph glyph-name="uni0163" unicode="&#x163;" horiz-adv-x="632" 
d="M98 899l31 139h174l64 299h168l-64 -299h221l-30 -139h-222l-131 -629q-19 -70 -4.5 -105.5t78.5 -35.5q63 0 102 10l-30 -135q-49 -16 -113 -16l-84 -97q31 -6 60 -18t57.5 -32t45.5 -53t17 -75q0 -98 -72.5 -153.5t-193.5 -55.5q-94 0 -184 31l32 115q56 -23 140 -23
q123 0 123 78q0 44 -57.5 67t-151.5 25l12 56l125 149q-62 23 -81.5 81.5t1.5 156.5l139 659h-172z" />
    <glyph glyph-name="Tcaron" unicode="&#x164;" horiz-adv-x="1091" 
d="M332 0l268 1274h-442l32 151h1065l-32 -151h-445l-268 -1274h-178zM813 1542h-174l-209 258h172l137 -166l205 166h193z" />
    <glyph glyph-name="tcaron" unicode="&#x165;" horiz-adv-x="632" 
d="M772 1667h154l-131 -428h-133zM98 899l31 139h174l64 299h168l-64 -299h221l-30 -139h-222l-131 -629q-19 -70 -4.5 -105.5t78.5 -35.5q63 0 102 10l-30 -135q-47 -16 -144 -16q-122 0 -164 60.5t-16 191.5l139 659h-172z" />
    <glyph glyph-name="Utilde" unicode="&#x168;" horiz-adv-x="1376" 
d="M346 1425h178l-186 -874q-22 -116 -12.5 -196t53.5 -130t105.5 -72t144.5 -22q188 0 275.5 92t135.5 326l189 876h178l-190 -890q-32 -153 -77.5 -254.5t-117 -170t-171 -98.5t-241.5 -30q-124 0 -218 32t-159.5 102t-83 180t12.5 265zM690 1573h-123l8 51
q16 103 62.5 142.5t122.5 39.5q51 0 110 -26t109 -52t80 -26q31 0 48 19.5t26 68.5l2 18h125l-11 -57q-19 -103 -65 -143.5t-125 -40.5q-49 0 -105 26t-105.5 52t-82.5 26q-58 0 -68 -61z" />
    <glyph glyph-name="utilde" unicode="&#x169;" horiz-adv-x="1110" 
d="M1065 1038l-162 -759q-30 -141 -53 -279h-166q4 68 29 178q-55 -93 -143 -145.5t-205 -52.5q-99 0 -163 38t-92.5 123t1.5 221l147 676h166l-139 -659q-12 -55 -13 -96.5t11 -79.5t49 -58t98 -20q126 0 220 101.5t138 312.5l107 499h170zM514 1245h-123l10 51
q19 103 64 142t123 39q47 0 99.5 -25.5t96 -50.5t68.5 -25q27 0 43 19t25 67l4 21h120l-8 -45q-19 -109 -63.5 -152t-120.5 -43q-44 0 -94.5 25.5t-95.5 51.5t-76 26q-47 0 -64 -68z" />
    <glyph glyph-name="Umacron" unicode="&#x16a;" horiz-adv-x="1376" 
d="M346 1425h178l-186 -874q-22 -116 -12.5 -196t53.5 -130t105.5 -72t144.5 -22q188 0 275.5 92t135.5 326l189 876h178l-190 -890q-32 -153 -77.5 -254.5t-117 -170t-171 -98.5t-241.5 -30q-124 0 -218 32t-159.5 102t-83 180t12.5 265zM637 1737h553l-31 -140h-553z" />
    <glyph glyph-name="umacron" unicode="&#x16b;" horiz-adv-x="1110" 
d="M1065 1038l-162 -759q-30 -141 -53 -279h-166q4 68 29 178q-55 -93 -143 -145.5t-205 -52.5q-99 0 -163 38t-92.5 123t1.5 221l147 676h166l-139 -659q-12 -55 -13 -96.5t11 -79.5t49 -58t98 -20q126 0 220 101.5t138 312.5l107 499h170zM451 1430h544l-30 -144h-547z
" />
    <glyph glyph-name="Ubreve" unicode="&#x16c;" horiz-adv-x="1376" 
d="M346 1425h178l-186 -874q-22 -116 -12.5 -196t53.5 -130t105.5 -72t144.5 -22q188 0 275.5 92t135.5 326l189 876h178l-190 -890q-32 -153 -77.5 -254.5t-117 -170t-171 -98.5t-241.5 -30q-124 0 -218 32t-159.5 102t-83 180t12.5 265zM614 1792h131q2 -59 36.5 -95
t107.5 -36q141 0 201 131h133q-95 -258 -351 -258q-74 0 -127.5 22.5t-82 61t-40 82t-8.5 92.5z" />
    <glyph glyph-name="ubreve" unicode="&#x16d;" horiz-adv-x="1110" 
d="M1065 1038l-162 -759q-30 -141 -53 -279h-166q4 68 29 178q-55 -93 -143 -145.5t-205 -52.5q-99 0 -163 38t-92.5 123t1.5 221l147 676h166l-139 -659q-12 -55 -13 -96.5t11 -79.5t49 -58t98 -20q126 0 220 101.5t138 312.5l107 499h170zM449 1479h129q-2 -61 27.5 -99.5
t96.5 -38.5q40 0 71 12t53.5 36.5t33.5 41.5t27 48h129q-87 -267 -330 -267q-56 0 -100.5 15t-71.5 41t-45 60.5t-21 72.5t1 78z" />
    <glyph glyph-name="Uring" unicode="&#x16e;" horiz-adv-x="1376" 
d="M346 1425h178l-186 -874q-22 -116 -12.5 -196t53.5 -130t105.5 -72t144.5 -22q188 0 275.5 92t135.5 326l189 876h178l-190 -890q-32 -153 -77.5 -254.5t-117 -170t-171 -98.5t-241.5 -30q-124 0 -218 32t-159.5 102t-83 180t12.5 265zM881 1520q-87 0 -139 50t-52 124
q0 97 67.5 161t170.5 64q86 0 136 -51.5t50 -126.5q0 -98 -65.5 -159.5t-167.5 -61.5zM891 1612q44 0 78.5 34.5t34.5 88.5q0 92 -89 92q-48 0 -81 -34t-33 -93q0 -32 23.5 -60t66.5 -28z" />
    <glyph glyph-name="uring" unicode="&#x16f;" horiz-adv-x="1110" 
d="M1065 1038l-162 -759q-30 -141 -53 -279h-166q4 68 29 178q-55 -93 -143 -145.5t-205 -52.5q-99 0 -163 38t-92.5 123t1.5 221l147 676h166l-139 -659q-12 -55 -13 -96.5t11 -79.5t49 -58t98 -20q126 0 220 101.5t138 312.5l107 499h170zM670 1153q-87 0 -139 50t-52 124
q0 97 67.5 161t170.5 64q86 0 136 -51.5t50 -126.5q0 -98 -65.5 -159.5t-167.5 -61.5zM680 1245q44 0 78.5 34.5t34.5 88.5q0 92 -88 92q-48 0 -81.5 -34t-33.5 -93q0 -32 23.5 -60t66.5 -28z" />
    <glyph glyph-name="Uhungarumlaut" unicode="&#x170;" horiz-adv-x="1376" 
d="M346 1425h178l-186 -874q-22 -116 -12.5 -196t53.5 -130t105.5 -72t144.5 -22q188 0 275.5 92t135.5 326l189 876h178l-190 -890q-32 -153 -77.5 -254.5t-117 -170t-171 -98.5t-241.5 -30q-124 0 -218 32t-159.5 102t-83 180t12.5 265zM879 1825h202l-338 -281h-165z
M1257 1825h199l-336 -281h-168z" />
    <glyph glyph-name="uhungarumlaut" unicode="&#x171;" horiz-adv-x="1110" 
d="M1065 1038l-162 -759q-30 -141 -53 -279h-166q4 68 29 178q-55 -93 -143 -145.5t-205 -52.5q-99 0 -163 38t-92.5 123t1.5 221l147 676h166l-139 -659q-12 -55 -13 -96.5t11 -79.5t49 -58t98 -20q126 0 220 101.5t138 312.5l107 499h170zM881 1503l-324 -315h-162
l295 315h191zM1245 1503l-325 -315h-160l295 315h190z" />
    <glyph glyph-name="Uogonek" unicode="&#x172;" horiz-adv-x="1376" 
d="M346 1425h178l-186 -874q-22 -116 -12.5 -196t53.5 -130t105.5 -72t144.5 -22q188 0 275.5 92t135.5 326l189 876h178l-190 -890q-55 -261 -158.5 -387.5t-300.5 -155.5q-146 -125 -146 -219q0 -48 30 -73.5t81 -25.5q61 0 115 21l-25 -133q-59 -29 -154 -29
q-101 0 -159 51t-58 142q0 129 140 256q-118 4 -206.5 38.5t-150 104.5t-77 178t13.5 258z" />
    <glyph glyph-name="uogonek" unicode="&#x173;" horiz-adv-x="1110" 
d="M1065 1038l-162 -759q-30 -141 -53 -279h-6q-74 -62 -115 -117t-41 -110q0 -48 30 -73.5t81 -25.5q60 0 114 21l-24 -133q-59 -29 -154 -29q-101 0 -159 51t-58 142q0 138 166 280q10 90 29 172q-55 -93 -143 -145.5t-205 -52.5q-99 0 -163 38t-92.5 123t1.5 221l147 676
h166l-139 -659q-12 -55 -13 -96.5t11 -79.5t49 -58t98 -20q126 0 220 101.5t138 312.5l107 499h170z" />
    <glyph glyph-name="Wcircumflex" unicode="&#x174;" horiz-adv-x="1812" 
d="M463 0h-191l-65 1425h176q3 -131 13.5 -448.5t15 -523t0.5 -267.5h2q23 70 128 293t248.5 521t202.5 425h170q52 -1046 43 -1230h2q27 72 123 277.5t237 500.5t214 452h178l-703 -1425h-190q-45 1008 -39 1190h-2q-27 -73 -103 -238t-145 -307t-176.5 -361.5
t-138.5 -283.5zM1067 1808h172l211 -264h-172l-137 166l-209 -166h-189z" />
    <glyph glyph-name="wcircumflex" unicode="&#x175;" horiz-adv-x="1499" 
d="M143 1038h168q40 -647 37 -866h2q61 148 414 866h170q37 -717 31 -854h2q117 263 419 854h177l-541 -1038h-182q-42 655 -37 827h-2q-11 -27 -26.5 -63t-41 -90t-46 -96.5t-61 -125.5t-64 -131t-78 -157t-81.5 -164h-188zM860 1513h166l148 -292h-162l-88 190l-179 -190
h-172z" />
    <glyph glyph-name="Ycircumflex" unicode="&#x176;" horiz-adv-x="1132" 
d="M524 0h-176l111 535q3 21 -2 36l-312 854h189q31 -93 130.5 -376t119.5 -351q29 44 100 139.5t137 181t169 218.5t145 188h196l-678 -864q-13 -17 -16 -37zM702 1812h172l211 -264h-172l-137 166l-209 -166h-188z" />
    <glyph glyph-name="ycircumflex" unicode="&#x177;" horiz-adv-x="978" 
d="M119 1038h170q100 -729 110 -905h2q18 34 78.5 160t160 324.5t216.5 420.5h180l-577 -1095q-54 -103 -100.5 -171t-86 -108t-87 -60.5t-88 -26t-105.5 -5.5q-69 0 -119 12l35 150q46 -8 94 -8q67 0 112.5 22t80 65t84.5 130zM594 1520h166l147 -293h-162l-88 190
l-178 -190h-172z" />
    <glyph glyph-name="Ydieresis" unicode="&#x178;" horiz-adv-x="1132" 
d="M524 0h-176l111 535q3 21 -2 36l-312 854h189q31 -93 130.5 -376t119.5 -351q29 44 100 139.5t137 181t169 218.5t145 188h196l-678 -864q-13 -17 -16 -37zM600 1542h-147l47 225h145zM1008 1542h-146l45 225h148z" />
    <glyph glyph-name="Zacute" unicode="&#x179;" horiz-adv-x="1142" 
d="M-51 0l28 135l1031 1139h-789l33 151h1005l-32 -147l-1018 -1126h846l-58 -152h-1046zM1004 1853h251l-430 -280h-192z" />
    <glyph glyph-name="zacute" unicode="&#x17a;" horiz-adv-x="901" 
d="M-47 0l29 135l698 762h-539l31 141h741l-32 -143l-686 -754h583l-53 -141h-772zM786 1528h234l-412 -311h-184z" />
    <glyph glyph-name="Zdotaccent" unicode="&#x17b;" horiz-adv-x="1142" 
d="M-51 0l28 135l1031 1139h-789l33 151h1005l-32 -147l-1018 -1126h846l-58 -152h-1046zM836 1589h-170l47 223h170z" />
    <glyph glyph-name="zdotaccent" unicode="&#x17c;" horiz-adv-x="901" 
d="M-47 0l29 135l698 762h-539l31 141h741l-32 -143l-686 -754h583l-53 -141h-772zM651 1280h-172l47 223h170z" />
    <glyph glyph-name="Zcaron" unicode="&#x17d;" horiz-adv-x="1142" 
d="M-51 0l28 135l1031 1139h-789l33 151h1005l-32 -147l-1018 -1126h846l-58 -152h-1046zM836 1559h-174l-209 258h172l137 -166l205 166h192z" />
    <glyph glyph-name="zcaron" unicode="&#x17e;" horiz-adv-x="901" 
d="M-47 0l29 135l698 762h-539l31 141h741l-32 -143l-686 -754h583l-53 -141h-772zM631 1212h-166l-154 291h158l94 -194l174 194h174z" />
    <glyph glyph-name="uni018F" unicode="&#x18f;" horiz-adv-x="1439" 
d="M1153 604h-864q-10 -36 -10 -102q0 -187 98.5 -281t261.5 -94q185 0 319 119.5t195 357.5zM1182 748q8 52 8 133q0 200 -96.5 307.5t-262.5 107.5q-107 0 -190.5 -34.5t-136 -87.5t-101.5 -134h-186q36 82 88.5 151.5t127.5 128.5t179.5 92.5t227.5 33.5
q112 0 202.5 -31.5t151 -85t101.5 -127t59 -155.5t18 -173q0 -85 -12.5 -171.5t-41 -175t-69.5 -168t-103 -149.5t-137.5 -120.5t-175.5 -80t-215 -29.5q-241 0 -379.5 139t-138.5 385q0 108 33 244h1049z" />
    <glyph glyph-name="florin" unicode="&#x192;" 
d="M918 1395l-44 -140q-36 25 -108 25q-37 0 -67.5 -17t-50.5 -42t-37 -66t-27 -77.5t-21 -86.5l-26 -133h237l-29 -133h-237l-105 -510q-17 -85 -35.5 -148.5t-47.5 -124t-65 -98.5t-87.5 -61t-116.5 -23q-106 0 -168 39l39 142q56 -29 123 -29q77 0 116.5 71t74.5 240
l104 502h-197l31 133h195l20 100q13 61 26.5 109.5t35 106t50 99.5t65.5 79t87.5 56t110.5 19q114 0 154 -32z" />
    <glyph glyph-name="Ohorn" unicode="&#x1a0;" horiz-adv-x="1486" 
d="M872 1446q248 0 388 -143q74 12 104.5 51t30.5 112q0 46 -6 76h163q4 -24 4 -61q0 -119 -54.5 -192.5t-158.5 -100.5q72 -141 72 -332q0 -128 -27.5 -251t-88 -237t-146.5 -199.5t-213 -137t-278 -51.5q-257 0 -398 157.5t-141 415.5q0 128 29.5 254t91 241.5t148 204
t211 141t269.5 52.5zM860 1296q-91 0 -171 -31.5t-139.5 -85.5t-106.5 -126t-76.5 -154.5t-44.5 -168.5t-15 -171q0 -125 39 -219.5t125.5 -152.5t212.5 -58q108 0 199 42.5t154 114.5t107.5 166.5t65.5 198t21 209.5q0 201 -94.5 318.5t-276.5 117.5z" />
    <glyph glyph-name="ohorn" unicode="&#x1a1;" horiz-adv-x="1097" 
d="M625 1059q179 0 282 -109q72 13 101.5 52t29.5 112q0 46 -6 76h164q4 -24 4 -62q0 -239 -217 -294q35 -87 35 -203q0 -86 -18.5 -173t-61.5 -174t-105.5 -154t-157.5 -108.5t-210 -41.5q-187 0 -288 110.5t-101 306.5q0 89 20.5 180t65 178t107.5 154.5t155.5 108.5
t200.5 41zM608 918q-86 0 -156.5 -49.5t-113 -127.5t-65.5 -167t-23 -175q0 -132 60 -205t173 -73q72 0 133 32.5t102.5 86t70.5 121.5t42 138t13 138q0 134 -59.5 207.5t-176.5 73.5z" />
    <glyph glyph-name="Uhorn" unicode="&#x1af;" horiz-adv-x="1376" 
d="M346 1425h178l-186 -874q-22 -116 -12.5 -196t53.5 -130t105.5 -72t144.5 -22q188 0 275.5 92t135.5 326l189 876h51q93 7 130.5 47t37.5 121q0 46 -6 76h164q4 -24 4 -61q0 -246 -228 -297l-165 -776q-32 -153 -77.5 -254.5t-117 -170t-171 -98.5t-241.5 -30
q-124 0 -218 32t-159.5 102t-83 180t12.5 265z" />
    <glyph glyph-name="uhorn" unicode="&#x1b0;" horiz-adv-x="1110" 
d="M713 178q-55 -93 -143 -145.5t-205 -52.5q-99 0 -163 38t-92.5 123t1.5 221l147 676h166l-139 -659q-12 -55 -13 -96.5t11 -79.5t49 -58t98 -20q126 0 220 101.5t138 312.5l107 499h55v2q93 7 130.5 47t37.5 121q0 46 -6 76h164q4 -24 4 -61q0 -254 -240 -299l-137 -645
q-30 -141 -53 -279h-166q4 68 29 178z" />
    <glyph glyph-name="uni01CD" unicode="&#x1cd;" horiz-adv-x="1259" 
d="M907 436h-549l-235 -436h-191l791 1425h215l215 -1425h-180zM438 588h455q-82 560 -90 680h-2q-88 -178 -363 -680zM924 1534h-174l-209 258h172l137 -166l205 166h192z" />
    <glyph glyph-name="uni01CE" unicode="&#x1ce;" horiz-adv-x="1079" 
d="M961 702l-95 -444q-40 -193 -49 -258h-166q6 62 27 160q-22 -36 -47.5 -64t-66.5 -56.5t-101.5 -44t-136.5 -15.5q-75 0 -132 23t-89.5 61.5t-48 83.5t-15.5 94q0 85 31.5 151t78 105t115.5 66.5t128.5 39.5t131.5 19q14 1 252 10l15 69q42 226 -187 226
q-63 0 -108.5 -14.5t-73.5 -42.5t-43 -53t-29 -62h-174q15 63 45 114t80.5 95.5t131.5 69t186 24.5q188 0 283 -89.5t57 -267.5zM748 492l4 16q-158 -6 -213 -12q-54 -5 -98 -14t-86.5 -26t-70.5 -41.5t-45.5 -62.5t-17.5 -86q0 -63 42 -104t124 -41t145 29.5t104.5 84
t67.5 116t44 141.5zM737 1206h-166l-153 291h157l95 -194l174 194h174z" />
    <glyph glyph-name="uni01CF" unicode="&#x1cf;" horiz-adv-x="534" 
d="M369 1425h178l-301 -1425h-180zM565 1552h-174l-209 258h172l138 -165l204 165h193z" />
    <glyph glyph-name="uni01D0" unicode="&#x1d0;" horiz-adv-x="475" 
d="M43 0l219 1038h170l-221 -1038h-168zM451 1206h-166l-154 291h158l94 -194l174 194h174z" />
    <glyph glyph-name="uni01D1" unicode="&#x1d1;" horiz-adv-x="1486" 
d="M872 1446q261 0 402 -158.5t141 -431.5q0 -128 -27.5 -251t-88 -237t-146.5 -199.5t-213 -137t-278 -51.5q-257 0 -398 157.5t-141 415.5q0 128 29.5 254t91 241.5t148 204t211 141t269.5 52.5zM860 1296q-91 0 -171 -31.5t-139.5 -85.5t-106.5 -126t-76.5 -154.5
t-44.5 -168.5t-15 -171q0 -125 39 -219.5t125.5 -152.5t212.5 -58q108 0 199 42.5t154 114.5t107.5 166.5t65.5 198t21 209.5q0 201 -94.5 318.5t-276.5 117.5zM979 1563h-174l-209 258h172l137 -166l205 166h193z" />
    <glyph glyph-name="uni01D2" unicode="&#x1d2;" horiz-adv-x="1097" 
d="M625 1059q181 0 287 -112.5t106 -315.5q0 -86 -18.5 -173t-61.5 -174t-105.5 -154t-157.5 -108.5t-210 -41.5q-187 0 -288 110.5t-101 306.5q0 89 20.5 180t65 178t107.5 154.5t155.5 108.5t200.5 41zM608 918q-86 0 -156.5 -49.5t-113 -127.5t-65.5 -167t-23 -175
q0 -132 60 -205t173 -73q72 0 133 32.5t102.5 86t70.5 121.5t42 138t13 138q0 134 -59.5 207.5t-176.5 73.5zM756 1210h-166l-154 291h158l94 -194l174 194h174z" />
    <glyph glyph-name="uni01D3" unicode="&#x1d3;" horiz-adv-x="1376" 
d="M346 1425h178l-186 -874q-22 -116 -12.5 -196t53.5 -130t105.5 -72t144.5 -22q188 0 275.5 92t135.5 326l189 876h178l-190 -890q-32 -153 -77.5 -254.5t-117 -170t-171 -98.5t-241.5 -30q-124 0 -218 32t-159.5 102t-83 180t12.5 265zM965 1552h-174l-209 258h172
l137 -165l205 165h192z" />
    <glyph glyph-name="uni01D4" unicode="&#x1d4;" horiz-adv-x="1110" 
d="M1065 1038l-162 -759q-30 -141 -53 -279h-166q4 68 29 178q-55 -93 -143 -145.5t-205 -52.5q-99 0 -163 38t-92.5 123t1.5 221l147 676h166l-139 -659q-12 -55 -13 -96.5t11 -79.5t49 -58t98 -20q126 0 220 101.5t138 312.5l107 499h170zM762 1206h-166l-154 291h158
l94 -194l174 194h174z" />
    <glyph glyph-name="uni01D5" unicode="&#x1d5;" horiz-adv-x="1376" 
d="M346 1425h178l-186 -874q-22 -116 -12.5 -196t53.5 -130t105.5 -72t144.5 -22q188 0 275.5 92t135.5 326l189 876h178l-190 -890q-32 -153 -77.5 -254.5t-117 -170t-171 -98.5t-241.5 -30q-124 0 -218 32t-159.5 102t-83 180t12.5 265zM1182 1821h-516l28 129h516z
M739 1538h-151l37 180h151zM1143 1538h-150l37 180h152z" />
    <glyph glyph-name="uni01D6" unicode="&#x1d6;" horiz-adv-x="1110" 
d="M1065 1038l-162 -759q-30 -141 -53 -279h-166q4 68 29 178q-55 -93 -143 -145.5t-205 -52.5q-99 0 -163 38t-92.5 123t1.5 221l147 676h166l-139 -659q-12 -55 -13 -96.5t11 -79.5t49 -58t98 -20q126 0 220 101.5t138 312.5l107 499h170zM993 1483h-516l29 131h516z
M559 1171h-151l36 183h152zM934 1171h-150l37 183h150z" />
    <glyph glyph-name="uni01D7" unicode="&#x1d7;" horiz-adv-x="1376" 
d="M346 1425h178l-186 -874q-22 -116 -12.5 -196t53.5 -130t105.5 -72t144.5 -22q188 0 275.5 92t135.5 326l189 876h178l-190 -890q-32 -153 -77.5 -254.5t-117 -170t-171 -98.5t-241.5 -30q-124 0 -218 32t-159.5 102t-83 180t12.5 265zM993 1784h-174l301 244h219z
M641 1706h152l-37 -178h-152zM1161 1528h-151l37 178h151z" />
    <glyph glyph-name="uni01D8" unicode="&#x1d8;" horiz-adv-x="1110" 
d="M1065 1038l-162 -759q-30 -141 -53 -279h-166q4 68 29 178q-55 -93 -143 -145.5t-205 -52.5q-99 0 -163 38t-92.5 123t1.5 221l147 676h166l-139 -659q-12 -55 -13 -96.5t11 -79.5t49 -58t98 -20q126 0 220 101.5t138 312.5l107 499h170zM784 1436h-168l281 245h205z
M446 1358h152l-39 -180h-151zM934 1178h-150l37 180h152z" />
    <glyph glyph-name="uni01D9" unicode="&#x1d9;" horiz-adv-x="1376" 
d="M346 1425h178l-186 -874q-22 -116 -12.5 -196t53.5 -130t105.5 -72t144.5 -22q188 0 275.5 92t135.5 326l189 876h178l-190 -890q-32 -153 -77.5 -254.5t-117 -170t-171 -98.5t-241.5 -30q-124 0 -218 32t-159.5 102t-83 180t12.5 265zM1006 1796h-158l-193 234h156
l127 -144l190 144h172zM641 1718h152l-37 -178h-152zM1161 1540h-151l37 178h151z" />
    <glyph glyph-name="uni01DA" unicode="&#x1da;" horiz-adv-x="1110" 
d="M1065 1038l-162 -759q-30 -141 -53 -279h-166q4 68 29 178q-55 -93 -143 -145.5t-205 -52.5q-99 0 -163 38t-92.5 123t1.5 221l147 676h166l-139 -659q-12 -55 -13 -96.5t11 -79.5t49 -58t98 -20q126 0 220 101.5t138 312.5l107 499h170zM793 1430h-158l-162 245h156
l100 -153l166 153h166zM449 1358h151l-37 -180h-151zM938 1178h-152l39 180h150z" />
    <glyph glyph-name="uni01DB" unicode="&#x1db;" horiz-adv-x="1376" 
d="M346 1425h178l-186 -874q-22 -116 -12.5 -196t53.5 -130t105.5 -72t144.5 -22q188 0 275.5 92t135.5 326l189 876h178l-190 -890q-32 -153 -77.5 -254.5t-117 -170t-171 -98.5t-241.5 -30q-124 0 -218 32t-159.5 102t-83 180t12.5 265zM1026 1788h-160l-272 244h205z
M643 1724h152l-39 -180h-150zM1161 1544h-151l37 180h151z" />
    <glyph glyph-name="uni01DC" unicode="&#x1dc;" horiz-adv-x="1110" 
d="M1065 1038l-162 -759q-30 -141 -53 -279h-166q4 68 29 178q-55 -93 -143 -145.5t-205 -52.5q-99 0 -163 38t-92.5 123t1.5 221l147 676h166l-139 -659q-12 -55 -13 -96.5t11 -79.5t49 -58t98 -20q126 0 220 101.5t138 312.5l107 499h170zM416 1686h194l193 -246h-152z
M451 1360h149l-37 -180h-151zM938 1180h-150l37 180h150z" />
    <glyph glyph-name="Gcaron" unicode="&#x1e6;" horiz-adv-x="1433" 
d="M1339 770l-157 -770h-144q2 46 33 217q-49 -76 -105.5 -125.5t-145 -79.5t-204.5 -30q-160 0 -272.5 74.5t-166.5 200.5t-54 292q0 133 29.5 261t92 243.5t150.5 202.5t214 138.5t274 51.5q230 0 367.5 -120.5t142.5 -315.5h-174q-15 125 -103.5 205.5t-257.5 80.5
q-104 0 -194 -41.5t-154 -112t-110 -164t-68.5 -198.5t-22.5 -213q0 -95 20.5 -173t62.5 -137.5t110.5 -92.5t159.5 -33q89 0 161.5 26t122.5 68.5t88 106t61 128.5t40 146l2 6h-418l33 158h587zM985 1569h-174l-209 258h172l137 -166l205 166h193z" />
    <glyph glyph-name="gcaron" unicode="&#x1e7;" horiz-adv-x="1140" 
d="M1038 764l-141 -662q-19 -89 -39 -154.5t-49.5 -129t-68.5 -106t-91.5 -76t-123 -49t-158.5 -15.5q-387 0 -387 313h172q0 -77 57.5 -127.5t175.5 -50.5q64 0 114 18t84.5 49t62.5 83t46 108t37 135l21 93q-116 -189 -336 -189q-157 0 -247.5 105t-90.5 294
q0 94 21.5 187t66 177.5t106 149.5t147.5 103.5t185 38.5q124 0 200 -51t93 -117q26 106 43 147h162q-42 -174 -62 -274zM612 913q-84 0 -153.5 -43t-113.5 -114t-67.5 -159t-23.5 -181q0 -130 56.5 -197t162.5 -67q70 0 130 31t103.5 86.5t74 125.5t48.5 154
q19 75 14.5 141t-27 115.5t-75 78.5t-129.5 29zM764 1206h-166l-154 291h158l94 -194l174 194h174z" />
    <glyph glyph-name="uni0218" unicode="&#x218;" horiz-adv-x="1173" 
d="M47 414h180q12 -142 98.5 -215.5t237.5 -73.5q145 0 229.5 66.5t84.5 193.5q0 100 -62.5 166.5t-230.5 130.5q-197 75 -278 158.5t-81 208.5q0 80 29 150.5t84.5 126t146.5 88t207 32.5q115 0 204 -31.5t142.5 -86.5t80.5 -125t28 -152h-178q-13 118 -79.5 182.5
t-211.5 64.5q-128 0 -198 -65t-70 -164q0 -78 52.5 -130.5t205.5 -111.5q217 -80 307 -178t90 -239q0 -87 -29 -162t-88.5 -136t-163 -96.5t-239.5 -35.5q-240 0 -366.5 118t-131.5 316zM367 -520h-162q74 90 131.5 198.5t77.5 196.5h178q-33 -123 -99 -232.5t-126 -162.5z
" />
    <glyph glyph-name="uni0219" unicode="&#x219;" horiz-adv-x="929" 
d="M10 311h174q8 -87 66.5 -140.5t175.5 -53.5q102 0 157.5 46t55.5 122q0 69 -50 111.5t-167 84.5q-163 57 -227 120.5t-64 156.5q0 129 97.5 215t277.5 86q97 0 170 -25.5t114.5 -69t61.5 -95t18 -109.5h-172q-14 164 -209 164q-83 0 -134.5 -39.5t-51.5 -108.5
q0 -52 45.5 -85t161.5 -75q163 -59 234 -130.5t71 -178.5q0 -153 -112.5 -240t-301.5 -87q-192 0 -291.5 89.5t-99.5 241.5zM223 -530h-162q74 90 131.5 198.5t77.5 196.5h179q-33 -123 -99 -232.5t-127 -162.5z" />
    <glyph glyph-name="uni021A" unicode="&#x21a;" horiz-adv-x="1091" 
d="M332 0l268 1274h-442l32 151h1065l-32 -151h-445l-268 -1274h-178zM266 -518h-162q74 90 131.5 198.5t77.5 196.5h179q-33 -123 -99 -232.5t-127 -162.5z" />
    <glyph glyph-name="uni021B" unicode="&#x21b;" horiz-adv-x="632" 
d="M98 899l31 139h174l64 299h168l-64 -299h221l-30 -139h-222l-131 -629q-19 -70 -4.5 -105.5t78.5 -35.5q63 0 102 10l-30 -135q-47 -16 -144 -16q-122 0 -164 60.5t-16 191.5l139 659h-172zM104 -530h-161q74 90 131.5 198.5t77.5 196.5h178q-33 -123 -99 -232.5
t-127 -162.5z" />
    <glyph glyph-name="uni0237" unicode="&#x237;" horiz-adv-x="475" 
d="M262 1038h170l-235 -1104q-19 -94 -43.5 -157t-63.5 -111.5t-96.5 -71t-136.5 -22.5q-43 0 -101 8l37 148q36 -4 51 -4q87 0 123 48t64 179z" />
    <glyph glyph-name="uni0251" unicode="&#x251;" horiz-adv-x="1155" 
d="M940 1038h168l-160 -749q-47 -231 -57 -289h-166q3 39 29 164q-57 -89 -140.5 -136.5t-212.5 -47.5q-157 0 -242 113t-85 292q0 94 22.5 189t69 182t111 154.5t155 108t193.5 40.5q119 0 190.5 -51t89.5 -117q2 7 18 76t17 71zM625 907q-86 0 -159 -47t-118.5 -121.5
t-70.5 -163t-25 -176.5q0 -128 54 -198t153 -70q79 0 145 33.5t111.5 92.5t76 131t48.5 159q35 167 -17.5 263.5t-197.5 96.5z" />
    <glyph glyph-name="uni0259" unicode="&#x259;" horiz-adv-x="1056" 
d="M82 545h709q8 82 8 98q0 132 -60.5 203.5t-169.5 71.5q-55 0 -99 -14t-75.5 -40.5t-52.5 -54t-41 -64.5h-176q132 314 465 314q188 0 284.5 -112t96.5 -300q0 -91 -19 -182t-62.5 -179t-105 -155.5t-154.5 -109t-204 -41.5q-101 0 -175 30.5t-115.5 84.5t-61 117.5
t-19.5 137.5q0 90 27 195zM762 416h-535q-6 -27 -6 -76q0 -223 215 -223q118 0 202 78t124 221z" />
    <glyph glyph-name="uni0261" unicode="&#x261;" horiz-adv-x="1140" 
d="M1038 764l-141 -662q-19 -89 -39 -154.5t-49.5 -129t-68.5 -106t-91.5 -76t-123 -49t-158.5 -15.5q-387 0 -387 313h172q0 -77 57.5 -127.5t175.5 -50.5q64 0 114 18t84.5 49t62.5 83t46 108t37 135l21 93q-116 -189 -336 -189q-157 0 -247.5 105t-90.5 294
q0 94 21.5 187t66 177.5t106 149.5t147.5 103.5t185 38.5q124 0 200 -51t93 -117q26 106 43 147h162q-42 -174 -62 -274zM612 913q-84 0 -153.5 -43t-113.5 -114t-67.5 -159t-23.5 -181q0 -130 56.5 -197t162.5 -67q70 0 130 31t103.5 86.5t74 125.5t48.5 154
q19 75 14.5 141t-27 115.5t-75 78.5t-129.5 29z" />
    <glyph glyph-name="uni02BB" unicode="&#x2bb;" horiz-adv-x="692" 
d="M547 1503h147q-74 -120 -136.5 -272.5t-86.5 -263.5h-174q30 134 104 290t146 246z" />
    <glyph glyph-name="uni02BC" unicode="&#x2bc;" horiz-adv-x="692" 
d="M444 967h-147q74 120 136.5 272.5t86.5 263.5h174q-31 -133 -105.5 -289.5t-144.5 -246.5z" />
    <glyph glyph-name="uni02BE" unicode="&#x2be;" horiz-adv-x="634" 
d="M399 1446l23 106q80 -5 131 -53t51 -125q0 -102 -75 -165.5t-193 -63.5l24 106q51 5 86 35t35 82q0 35 -23 55t-59 23z" />
    <glyph glyph-name="uni02BF" unicode="&#x2bf;" horiz-adv-x="634" 
d="M584 1251l-23 -106q-80 5 -131 53t-51 125q0 102 75 165.5t193 63.5l-24 -106q-51 -5 -86 -35t-35 -82q0 -35 23 -55t59 -23z" />
    <glyph glyph-name="circumflex" unicode="&#x2c6;" 
d="M520 1513h166l148 -292h-162l-88 190l-178 -190h-173z" />
    <glyph glyph-name="caron" unicode="&#x2c7;" 
d="M670 1206h-166l-154 291h158l94 -194l174 194h174z" />
    <glyph glyph-name="uni02C8" unicode="&#x2c8;" horiz-adv-x="569" 
d="M500 1163h-160l78 367h157z" />
    <glyph glyph-name="uni02C9" unicode="&#x2c9;" horiz-adv-x="956" 
d="M399 1430h545l-31 -144h-546z" />
    <glyph glyph-name="uni02CA" unicode="&#x2ca;" horiz-adv-x="854" 
d="M717 1528h233l-411 -311h-185z" />
    <glyph glyph-name="uni02CB" unicode="&#x2cb;" horiz-adv-x="858" 
d="M373 1528h196l224 -311h-158z" />
    <glyph glyph-name="uni02CC" unicode="&#x2cc;" horiz-adv-x="569" 
d="M152 -475h-160l78 366h157z" />
    <glyph glyph-name="breve" unicode="&#x2d8;" 
d="M303 1479h129q-2 -61 28 -99.5t97 -38.5q32 0 59.5 9.5t44.5 21t34.5 34.5t25 35.5t20.5 37.5h129q-87 -267 -329 -267q-70 0 -121 23t-77.5 61.5t-36.5 85t-3 97.5z" />
    <glyph glyph-name="dotaccent" unicode="&#x2d9;" 
d="M610 1280h-172l47 223h170z" />
    <glyph glyph-name="ring" unicode="&#x2da;" 
d="M524 1153q-87 0 -138.5 50t-51.5 124q0 97 67 161t170 64q86 0 136.5 -51.5t50.5 -126.5q0 -98 -66 -159.5t-168 -61.5zM535 1245q44 0 78 34.5t34 88.5q0 92 -88 92q-48 0 -81.5 -34t-33.5 -93q0 -32 24 -60t67 -28z" />
    <glyph glyph-name="ogonek" unicode="&#x2db;" 
d="M356 74l66 -74q-74 -62 -115 -117t-41 -110q0 -48 30 -73.5t81 -25.5q61 0 115 21l-25 -133q-59 -29 -154 -29q-101 0 -159 51t-58 142q0 94 70 182.5t190 165.5z" />
    <glyph glyph-name="tilde" unicode="&#x2dc;" 
d="M369 1245h-123l10 51q19 103 64 142t122 39q47 0 99.5 -25.5t96.5 -50.5t69 -25q26 0 42 18.5t25 67.5l4 21h121l-8 -45q-19 -109 -63.5 -152t-120.5 -43q-35 0 -75 16t-69.5 35.5t-63.5 35.5t-59 16q-46 0 -63 -68z" />
    <glyph glyph-name="hungarumlaut" unicode="&#x2dd;" 
d="M717 1503l-324 -315h-162l295 315h191zM1081 1503l-325 -315h-160l295 315h190z" />
    <glyph glyph-name="uni0300" unicode="&#x300;" horiz-adv-x="0" 
d="M-217 1528h197l223 -311h-158z" />
    <glyph glyph-name="uni0301" unicode="&#x301;" horiz-adv-x="0" 
d="M156 1528h233l-412 -311h-184z" />
    <glyph glyph-name="uni0302" unicode="&#x302;" horiz-adv-x="0" 
d="M12 1513h166l148 -292h-162l-88 190l-178 -190h-172z" />
    <glyph glyph-name="uni0303" unicode="&#x303;" horiz-adv-x="0" 
d="M-139 1245h-123l10 51q19 103 64 142t122 39q47 0 99.5 -25.5t96.5 -50.5t69 -25q26 0 42 18.5t25 67.5l4 21h121l-8 -45q-19 -109 -63.5 -152t-120.5 -43q-35 0 -75 16t-69.5 35.5t-63.5 35.5t-59 16q-46 0 -63 -68z" />
    <glyph glyph-name="uni0304" unicode="&#x304;" horiz-adv-x="0" 
d="M-215 1430h545l-31 -144h-547z" />
    <glyph glyph-name="uni0306" unicode="&#x306;" horiz-adv-x="0" 
d="M-205 1479h129q-2 -61 28 -99.5t97 -38.5q32 0 59.5 9.5t44.5 21t34.5 34.5t25 35.5t20.5 37.5h129q-87 -267 -329 -267q-70 0 -121 23t-77.5 61.5t-36.5 85t-3 97.5z" />
    <glyph glyph-name="uni0307" unicode="&#x307;" horiz-adv-x="0" 
d="M102 1280h-172l47 223h170z" />
    <glyph glyph-name="uni0308" unicode="&#x308;" horiz-adv-x="0" 
d="M-90 1280h-146l46 223h147zM268 1280h-145l47 223h145z" />
    <glyph glyph-name="uni0309" unicode="&#x309;" horiz-adv-x="0" 
d="M74 1196h-172q166 98 166 176q0 28 -19 47t-61 19q-59 0 -123 -33l-27 98q81 56 193 56q90 0 138 -45t48 -107q0 -120 -143 -211z" />
    <glyph glyph-name="uni030A" unicode="&#x30a;" horiz-adv-x="0" 
d="M16 1153q-87 0 -138.5 50t-51.5 124q0 97 67 161t170 64q86 0 136.5 -51.5t50.5 -126.5q0 -98 -66 -159.5t-168 -61.5zM27 1245q44 0 78 34.5t34 88.5q0 92 -88 92q-48 0 -81 -34t-33 -93q0 -32 23.5 -60t66.5 -28z" />
    <glyph glyph-name="uni030B" unicode="&#x30b;" horiz-adv-x="0" 
d="M135 1503l-323 -315h-162l295 315h190zM500 1503l-326 -315h-160l295 315h191z" />
    <glyph glyph-name="uni030C" unicode="&#x30c;" horiz-adv-x="0" 
d="M193 1206h-166l-154 291h158l94 -194l174 194h174z" />
    <glyph glyph-name="uni031B" unicode="&#x31b;" horiz-adv-x="0" 
d="M18 961l-30 124q93 7 130.5 47t37.5 121q0 46 -6 76h163q4 -24 4 -61q0 -141 -76.5 -218.5t-222.5 -88.5z" />
    <glyph glyph-name="uni0323" unicode="&#x323;" horiz-adv-x="0" 
d="M-197 -377h-182l47 221h180z" />
    <glyph glyph-name="uni0324" unicode="&#x324;" horiz-adv-x="0" 
d="M-442 -383h-146l45 223h148zM-84 -383h-145l47 223h145z" />
    <glyph glyph-name="uni0326" unicode="&#x326;" horiz-adv-x="0" 
d="M-250 -530h-162q74 90 131.5 198.5t77.5 196.5h178q-33 -123 -99 -232.5t-126 -162.5z" />
    <glyph glyph-name="uni0327" unicode="&#x327;" horiz-adv-x="0" 
d="M-270 23l127 -21l-97 -111q31 -6 60 -18t57.5 -32t46 -53t17.5 -75q0 -98 -73 -153.5t-194 -55.5q-94 0 -184 31l33 115q56 -23 139 -23q123 0 123 78q0 44 -57.5 67t-151.5 25l12 56z" />
    <glyph glyph-name="uni0328" unicode="&#x328;" horiz-adv-x="0" 
d="M-190 74l65 -74q-74 -62 -115 -117t-41 -110q0 -48 30 -73.5t81 -25.5q61 0 115 21l-25 -133q-59 -29 -153 -29q-102 0 -160 51.5t-58 141.5q0 94 70.5 182.5t190.5 165.5z" />
    <glyph glyph-name="uni032E" unicode="&#x32e;" horiz-adv-x="0" 
d="M-545 -127h129q-2 -61 28 -99t97 -38q40 0 71 11.5t53.5 36t33.5 41.5t27 48h129q-87 -266 -330 -266q-70 0 -121 23t-77.5 61.5t-36.5 84.5t-3 97z" />
    <glyph glyph-name="uni0331" unicode="&#x331;" horiz-adv-x="0" 
d="M-561 -203h545l-31 -143h-547z" />
    <glyph glyph-name="pi" unicode="&#x3c0;" horiz-adv-x="1116" 
d="M633 0l192 897h-403l-191 -897h-159l188 897q-147 0 -182 -6l28 137q72 10 330 10h750l-35 -141h-156l-194 -897h-168z" />
    <glyph glyph-name="uni1E0C" unicode="&#x1e0c;" horiz-adv-x="1443" 
d="M66 0l301 1425h411q276 0 436 -161.5t160 -440.5q0 -176 -55.5 -327t-157 -261t-253 -172.5t-335.5 -62.5h-507zM512 1276l-236 -1126h293q191 0 331 84.5t212 235.5t72 351q2 215 -110 335t-318 120h-244zM571 -377h-182l47 221h180z" />
    <glyph glyph-name="uni1E0D" unicode="&#x1e0d;" horiz-adv-x="1155" 
d="M1036 1503h168l-256 -1214q-43 -205 -57 -289h-166q3 39 29 164q-118 -184 -344 -184q-163 0 -249.5 110t-86.5 293q0 93 21.5 187.5t66.5 182.5t108 156t153 109t195 41q119 0 193.5 -50.5t95.5 -111.5zM621 909q-87 0 -159 -47t-116.5 -122.5t-69 -164t-24.5 -176.5
q0 -136 56 -203t161 -67q78 0 142 33.5t108.5 93.5t74.5 133.5t48 163.5q35 168 -19.5 262t-201.5 94zM504 -377h-182l47 221h180z" />
    <glyph glyph-name="uni1E0E" unicode="&#x1e0e;" horiz-adv-x="1443" 
d="M66 0l301 1425h411q276 0 436 -161.5t160 -440.5q0 -176 -55.5 -327t-157 -261t-253 -172.5t-335.5 -62.5h-507zM512 1276l-236 -1126h293q191 0 331 84.5t212 235.5t72 351q2 215 -110 335t-318 120h-244zM225 -203h545l-31 -143h-546z" />
    <glyph glyph-name="uni1E0F" unicode="&#x1e0f;" horiz-adv-x="1155" 
d="M1036 1503h168l-256 -1214q-43 -205 -57 -289h-166q3 39 29 164q-118 -184 -344 -184q-163 0 -249.5 110t-86.5 293q0 93 21.5 187.5t66.5 182.5t108 156t153 109t195 41q119 0 193.5 -50.5t95.5 -111.5zM621 909q-87 0 -159 -47t-116.5 -122.5t-69 -164t-24.5 -176.5
q0 -136 56 -203t161 -67q78 0 142 33.5t108.5 93.5t74.5 133.5t48 163.5q35 168 -19.5 262t-201.5 94zM170 -203h545l-31 -143h-547z" />
    <glyph glyph-name="uni1E20" unicode="&#x1e20;" horiz-adv-x="1433" 
d="M1339 770l-157 -770h-144q2 46 33 217q-49 -76 -105.5 -125.5t-145 -79.5t-204.5 -30q-160 0 -272.5 74.5t-166.5 200.5t-54 292q0 133 29.5 261t92 243.5t150.5 202.5t214 138.5t274 51.5q230 0 367.5 -120.5t142.5 -315.5h-174q-15 125 -103.5 205.5t-257.5 80.5
q-104 0 -194 -41.5t-154 -112t-110 -164t-68.5 -198.5t-22.5 -213q0 -95 20.5 -173t62.5 -137.5t110.5 -92.5t159.5 -33q89 0 161.5 26t122.5 68.5t88 106t61 128.5t40 146l2 6h-418l33 158h587zM670 1745h553l-31 -139h-553z" />
    <glyph glyph-name="uni1E21" unicode="&#x1e21;" horiz-adv-x="1140" 
d="M1038 764l-141 -662q-19 -89 -39 -154.5t-49.5 -129t-68.5 -106t-91.5 -76t-123 -49t-158.5 -15.5q-387 0 -387 313h172q0 -77 57.5 -127.5t175.5 -50.5q64 0 114 18t84.5 49t62.5 83t46 108t37 135l21 93q-116 -189 -336 -189q-157 0 -247.5 105t-90.5 294
q0 94 21.5 187t66 177.5t106 149.5t147.5 103.5t185 38.5q124 0 200 -51t93 -117q26 106 43 147h162q-42 -174 -62 -274zM612 913q-84 0 -153.5 -43t-113.5 -114t-67.5 -159t-23.5 -181q0 -130 56.5 -197t162.5 -67q70 0 130 31t103.5 86.5t74 125.5t48.5 154
q19 75 14.5 141t-27 115.5t-75 78.5t-129.5 29zM453 1430h544l-30 -144h-547z" />
    <glyph glyph-name="uni1E24" unicode="&#x1e24;" horiz-adv-x="1429" 
d="M66 0l301 1425h178l-125 -587h717l125 587h178l-301 -1425h-178l143 686h-717l-143 -686h-178zM625 -356h-183l47 221h181z" />
    <glyph glyph-name="uni1E25" unicode="&#x1e25;" horiz-adv-x="1128" 
d="M43 0l317 1503h170l-135 -631q132 187 346 187q50 0 93.5 -10.5t85.5 -37t65 -71t32 -112t-13 -160.5l-140 -668h-170l135 641q28 135 -8 201.5t-149 66.5q-126 0 -215.5 -92.5t-122.5 -243.5l-123 -573h-168zM475 -377h-182l47 221h180z" />
    <glyph glyph-name="uni1E2A" unicode="&#x1e2a;" horiz-adv-x="1429" 
d="M66 0l301 1425h178l-125 -587h717l125 587h178l-301 -1425h-178l143 686h-717l-143 -686h-178zM305 -127h129q-2 -61 28 -99t97 -38q32 0 59.5 9.5t44.5 21t34.5 33.5t25 35t20.5 38h129q-87 -266 -329 -266q-70 0 -121 23t-77.5 61.5t-36.5 84.5t-3 97z" />
    <glyph glyph-name="uni1E2B" unicode="&#x1e2b;" horiz-adv-x="1128" 
d="M43 0l317 1503h170l-135 -631q132 187 346 187q50 0 93.5 -10.5t85.5 -37t65 -71t32 -112t-13 -160.5l-140 -668h-170l135 641q28 135 -8 201.5t-149 66.5q-126 0 -215.5 -92.5t-122.5 -243.5l-123 -573h-168zM156 -127h129q-2 -61 28 -99t97 -38q32 0 59.5 9.5t44.5 21
t34.5 33.5t25 35t20.5 38h129q-87 -266 -330 -266q-70 0 -121 23t-77.5 61.5t-36 84.5t-2.5 97z" />
    <glyph glyph-name="uni1E36" unicode="&#x1e36;" horiz-adv-x="1085" 
d="M66 0l301 1425h178l-271 -1273h715l-53 -152h-870zM543 -377h-183l48 221h180z" />
    <glyph glyph-name="uni1E37" unicode="&#x1e37;" horiz-adv-x="475" 
d="M211 0h-168l317 1503h170zM145 -377h-182l47 221h180z" />
    <glyph glyph-name="uni1E38" unicode="&#x1e38;" horiz-adv-x="1085" 
d="M66 0l301 1425h178l-271 -1273h715l-53 -152h-870zM545 -377h-183l48 221h180zM233 1714h553l-30 -139h-553z" />
    <glyph glyph-name="uni1E39" unicode="&#x1e39;" horiz-adv-x="475" 
d="M211 0h-168l317 1503h170zM223 1784h545l-31 -144h-547zM145 -377h-182l47 221h180z" />
    <glyph glyph-name="uni1E3A" unicode="&#x1e3a;" horiz-adv-x="1085" 
d="M66 0l301 1425h178l-271 -1273h715l-53 -152h-870zM190 -193h545l-30 -143h-547z" />
    <glyph glyph-name="uni1E3B" unicode="&#x1e3b;" horiz-adv-x="475" 
d="M211 0h-168l317 1503h170zM-174 -190h545l-31 -144h-547z" />
    <glyph glyph-name="uni1E42" unicode="&#x1e42;" horiz-adv-x="1708" 
d="M1239 0l129 606q79 381 154 690h-6q-21 -45 -54.5 -112t-89 -170t-95 -176.5t-120 -218.5t-113 -203t-124.5 -223.5t-107 -192.5h-164q-8 65 -31 249t-39 318.5t-35 297t-30 274t-12 159.5h-6q-25 -167 -142 -727l-118 -571h-173l304 1425h270q131 -974 143 -1196h2
q28 63 127.5 242.5t289.5 516t247 437.5h272l-301 -1425h-178zM743 -377h-182l47 221h180z" />
    <glyph glyph-name="uni1E43" unicode="&#x1e43;" horiz-adv-x="1667" 
d="M43 0l158 748q37 183 57 290h166q-5 -65 -27 -159q37 54 75 90.5t99.5 63t137.5 26.5q215 0 239 -191q135 191 346 191q68 0 120 -20t91 -65.5t48 -119t-11 -180.5l-143 -674h-166l137 653q57 256 -145 256q-115 0 -190 -88t-105 -229l-125 -592h-166l133 635
q16 82 14 143t-39 96t-110 35q-118 0 -197 -94.5t-110 -243.5l-119 -571h-168zM741 -377h-182l47 221h180z" />
    <glyph glyph-name="uni1E44" unicode="&#x1e44;" horiz-adv-x="1458" 
d="M236 0h-173l304 1425h231q35 -97 152 -405.5t197 -527.5t97 -287h3q9 61 25.5 149t29.5 151.5t39.5 186t36.5 170.5l118 563h172l-301 -1425h-221q-396 1058 -452 1251h-2q-24 -150 -136 -673zM999 1554h-170l48 224h170z" />
    <glyph glyph-name="uni1E45" unicode="&#x1e45;" horiz-adv-x="1128" 
d="M43 0l164 774q27 135 51 264h166q-3 -50 -31 -176q124 197 348 197q159 0 231 -99.5t27 -310.5l-135 -649h-170l135 645q59 264 -159 264q-136 0 -223.5 -108.5t-124.5 -280.5l-111 -520h-168zM772 1280h-172l47 223h170z" />
    <glyph glyph-name="uni1E46" unicode="&#x1e46;" horiz-adv-x="1458" 
d="M236 0h-173l304 1425h231q35 -97 152 -405.5t197 -527.5t97 -287h3q9 61 25.5 149t29.5 151.5t39.5 186t36.5 170.5l118 563h172l-301 -1425h-221q-396 1058 -452 1251h-2q-24 -150 -136 -673zM639 -362h-182l47 221h180z" />
    <glyph glyph-name="uni1E47" unicode="&#x1e47;" horiz-adv-x="1128" 
d="M43 0l164 774q27 135 51 264h166q-3 -50 -31 -176q124 197 348 197q159 0 231 -99.5t27 -310.5l-135 -649h-170l135 645q59 264 -159 264q-136 0 -223.5 -108.5t-124.5 -280.5l-111 -520h-168zM479 -377h-182l47 221h180z" />
    <glyph glyph-name="uni1E48" unicode="&#x1e48;" horiz-adv-x="1458" 
d="M236 0h-173l304 1425h231q35 -97 152 -405.5t197 -527.5t97 -287h3q9 61 25.5 149t29.5 151.5t39.5 186t36.5 170.5l118 563h172l-301 -1425h-221q-396 1058 -452 1251h-2q-24 -150 -136 -673zM330 -199h544l-30 -143h-547z" />
    <glyph glyph-name="uni1E49" unicode="&#x1e49;" horiz-adv-x="1128" 
d="M43 0l164 774q27 135 51 264h166q-3 -50 -31 -176q124 197 348 197q159 0 231 -99.5t27 -310.5l-135 -649h-170l135 645q59 264 -159 264q-136 0 -223.5 -108.5t-124.5 -280.5l-111 -520h-168zM152 -203h544l-30 -143h-547z" />
    <glyph glyph-name="uni1E5A" unicode="&#x1e5a;" horiz-adv-x="1265" 
d="M676 637h-299l-133 -637h-178l301 1425h479q195 0 299 -93t104 -253q0 -154 -83.5 -250t-229.5 -129q23 -9 43 -21t42 -31t37.5 -47t25.5 -63.5t9.5 -85.5t-12.5 -108q-61 -283 -55 -344h-168q-10 98 49 338q33 155 -20 227t-211 72zM512 1276l-102 -490h280
q375 0 375 275q0 215 -254 215h-299zM580 -356h-183l47 221h181z" />
    <glyph glyph-name="uni1E5B" unicode="&#x1e5b;" horiz-adv-x="700" 
d="M748 1059l-37 -176q-149 -10 -254 -116.5t-142 -281.5l-104 -485h-168l156 731q52 266 59 307h164q-5 -70 -39 -219q58 112 153 176t212 64zM145 -377h-182l47 221h180z" />
    <glyph glyph-name="uni1E5C" unicode="&#x1e5c;" horiz-adv-x="1265" 
d="M676 637h-299l-133 -637h-178l301 1425h479q195 0 299 -93t104 -253q0 -154 -83.5 -250t-229.5 -129q23 -9 43 -21t42 -31t37.5 -47t25.5 -63.5t9.5 -85.5t-12.5 -108q-61 -283 -55 -344h-168q-10 98 49 338q33 155 -20 227t-211 72zM512 1276l-102 -490h280
q375 0 375 275q0 215 -254 215h-299zM580 -356h-183l47 221h181zM571 1739h553l-30 -140h-553z" />
    <glyph glyph-name="uni1E5D" unicode="&#x1e5d;" horiz-adv-x="700" 
d="M748 1059l-37 -176q-149 -10 -254 -116.5t-142 -281.5l-104 -485h-168l156 731q52 266 59 307h164q-5 -70 -39 -219q58 112 153 176t212 64zM281 1430h544l-30 -144h-547zM147 -377h-182l47 221h181z" />
    <glyph glyph-name="uni1E5E" unicode="&#x1e5e;" horiz-adv-x="1265" 
d="M676 637h-299l-133 -637h-178l301 1425h479q195 0 299 -93t104 -253q0 -154 -83.5 -250t-229.5 -129q23 -9 43 -21t42 -31t37.5 -47t25.5 -63.5t9.5 -85.5t-12.5 -108q-61 -283 -55 -344h-168q-10 98 49 338q33 155 -20 227t-211 72zM512 1276l-102 -490h280
q375 0 375 275q0 215 -254 215h-299zM242 -203h544l-30 -143h-547z" />
    <glyph glyph-name="uni1E5F" unicode="&#x1e5f;" horiz-adv-x="700" 
d="M748 1059l-37 -176q-149 -10 -254 -116.5t-142 -281.5l-104 -485h-168l156 731q52 266 59 307h164q-5 -70 -39 -219q58 112 153 176t212 64zM-145 -203h544l-30 -143h-547z" />
    <glyph glyph-name="uni1E60" unicode="&#x1e60;" horiz-adv-x="1173" 
d="M47 414h180q12 -142 98.5 -215.5t237.5 -73.5q145 0 229.5 66.5t84.5 193.5q0 100 -62.5 166.5t-230.5 130.5q-197 75 -278 158.5t-81 208.5q0 80 29 150.5t84.5 126t146.5 88t207 32.5q115 0 204 -31.5t142.5 -86.5t80.5 -125t28 -152h-178q-13 118 -79.5 182.5
t-211.5 64.5q-128 0 -198 -65t-70 -164q0 -78 52.5 -130.5t205.5 -111.5q217 -80 307 -178t90 -239q0 -87 -29 -162t-88.5 -136t-163 -96.5t-239.5 -35.5q-240 0 -366.5 118t-131.5 316zM821 1573h-170l47 223h170z" />
    <glyph glyph-name="uni1E61" unicode="&#x1e61;" horiz-adv-x="929" 
d="M10 311h174q8 -87 66.5 -140.5t175.5 -53.5q102 0 157.5 46t55.5 122q0 69 -50 111.5t-167 84.5q-163 57 -227 120.5t-64 156.5q0 129 97.5 215t277.5 86q97 0 170 -25.5t114.5 -69t61.5 -95t18 -109.5h-172q-14 164 -209 164q-83 0 -134.5 -39.5t-51.5 -108.5
q0 -52 45.5 -85t161.5 -75q163 -59 234 -130.5t71 -178.5q0 -153 -112.5 -240t-301.5 -87q-192 0 -291.5 89.5t-99.5 241.5zM666 1280h-172l47 223h170z" />
    <glyph glyph-name="uni1E62" unicode="&#x1e62;" horiz-adv-x="1173" 
d="M47 414h180q12 -142 98.5 -215.5t237.5 -73.5q145 0 229.5 66.5t84.5 193.5q0 100 -62.5 166.5t-230.5 130.5q-197 75 -278 158.5t-81 208.5q0 80 29 150.5t84.5 126t146.5 88t207 32.5q115 0 204 -31.5t142.5 -86.5t80.5 -125t28 -152h-178q-13 118 -79.5 182.5
t-211.5 64.5q-128 0 -198 -65t-70 -164q0 -78 52.5 -130.5t205.5 -111.5q217 -80 307 -178t90 -239q0 -87 -29 -162t-88.5 -136t-163 -96.5t-239.5 -35.5q-240 0 -366.5 118t-131.5 316zM532 -385h-182l47 221h181z" />
    <glyph glyph-name="uni1E63" unicode="&#x1e63;" horiz-adv-x="929" 
d="M10 311h174q8 -87 66.5 -140.5t175.5 -53.5q102 0 157.5 46t55.5 122q0 69 -50 111.5t-167 84.5q-163 57 -227 120.5t-64 156.5q0 129 97.5 215t277.5 86q97 0 170 -25.5t114.5 -69t61.5 -95t18 -109.5h-172q-14 164 -209 164q-83 0 -134.5 -39.5t-51.5 -108.5
q0 -52 45.5 -85t161.5 -75q163 -59 234 -130.5t71 -178.5q0 -153 -112.5 -240t-301.5 -87q-192 0 -291.5 89.5t-99.5 241.5zM406 -377h-183l47 221h181z" />
    <glyph glyph-name="uni1E6C" unicode="&#x1e6c;" horiz-adv-x="1091" 
d="M332 0l268 1274h-442l32 151h1065l-32 -151h-445l-268 -1274h-178zM434 -401h-182l47 221h180z" />
    <glyph glyph-name="uni1E6D" unicode="&#x1e6d;" horiz-adv-x="632" 
d="M98 899l31 139h174l64 299h168l-64 -299h221l-30 -139h-222l-131 -629q-19 -70 -4.5 -105.5t78.5 -35.5q63 0 102 10l-30 -135q-47 -16 -144 -16q-122 0 -164 60.5t-16 191.5l139 659h-172zM289 -377h-183l48 221h180z" />
    <glyph glyph-name="uni1E6E" unicode="&#x1e6e;" horiz-adv-x="1091" 
d="M332 0l268 1274h-442l32 151h1065l-32 -151h-445l-268 -1274h-178zM125 -203h545l-31 -143h-547z" />
    <glyph glyph-name="uni1E6F" unicode="&#x1e6f;" horiz-adv-x="632" 
d="M98 899l31 139h174l64 299h168l-64 -299h221l-30 -139h-222l-131 -629q-19 -70 -4.5 -105.5t78.5 -35.5q63 0 102 10l-30 -135q-47 -16 -144 -16q-122 0 -164 60.5t-16 191.5l139 659h-172zM-39 -199h545l-31 -143h-547z" />
    <glyph glyph-name="Wgrave" unicode="&#x1e80;" horiz-adv-x="1812" 
d="M463 0h-191l-65 1425h176q3 -131 13.5 -448.5t15 -523t0.5 -267.5h2q23 70 128 293t248.5 521t202.5 425h170q52 -1046 43 -1230h2q27 72 123 277.5t237 500.5t214 452h178l-703 -1425h-190q-45 1008 -39 1190h-2q-27 -73 -103 -238t-145 -307t-176.5 -361.5
t-138.5 -283.5zM686 1833h225l281 -281h-178z" />
    <glyph glyph-name="wgrave" unicode="&#x1e81;" horiz-adv-x="1499" 
d="M143 1038h168q40 -647 37 -866h2q61 148 414 866h170q37 -717 31 -854h2q117 263 419 854h177l-541 -1038h-182q-42 655 -37 827h-2q-11 -27 -26.5 -63t-41 -90t-46 -96.5t-61 -125.5t-64 -131t-78 -157t-81.5 -164h-188zM541 1528h196l224 -311h-158z" />
    <glyph glyph-name="Wacute" unicode="&#x1e82;" horiz-adv-x="1812" 
d="M463 0h-191l-65 1425h176q3 -131 13.5 -448.5t15 -523t0.5 -267.5h2q23 70 128 293t248.5 521t202.5 425h170q52 -1046 43 -1230h2q27 72 123 277.5t237 500.5t214 452h178l-703 -1425h-190q-45 1008 -39 1190h-2q-27 -73 -103 -238t-145 -307t-176.5 -361.5
t-138.5 -283.5zM1358 1839h252l-430 -280h-193z" />
    <glyph glyph-name="wacute" unicode="&#x1e83;" horiz-adv-x="1499" 
d="M143 1038h168q40 -647 37 -866h2q61 148 414 866h170q37 -717 31 -854h2q117 263 419 854h177l-541 -1038h-182q-42 655 -37 827h-2q-11 -27 -26.5 -63t-41 -90t-46 -96.5t-61 -125.5t-64 -131t-78 -157t-81.5 -164h-188zM1122 1528h234l-412 -311h-184z" />
    <glyph glyph-name="Wdieresis" unicode="&#x1e84;" horiz-adv-x="1812" 
d="M463 0h-191l-65 1425h176q3 -131 13.5 -448.5t15 -523t0.5 -267.5h2q23 70 128 293t248.5 521t202.5 425h170q52 -1046 43 -1230h2q27 72 123 277.5t237 500.5t214 452h178l-703 -1425h-190q-45 1008 -39 1190h-2q-27 -73 -103 -238t-145 -307t-176.5 -361.5
t-138.5 -283.5zM961 1569h-148l47 225h146zM1368 1569h-145l45 225h147z" />
    <glyph glyph-name="wdieresis" unicode="&#x1e85;" horiz-adv-x="1499" 
d="M143 1038h168q40 -647 37 -866h2q61 148 414 866h170q37 -717 31 -854h2q117 263 419 854h177l-541 -1038h-182q-42 655 -37 827h-2q-11 -27 -26.5 -63t-41 -90t-46 -96.5t-61 -125.5t-64 -131t-78 -157t-81.5 -164h-188zM770 1280h-145l45 223h147zM1128 1280h-145
l47 223h146z" />
    <glyph glyph-name="uni1E8E" unicode="&#x1e8e;" horiz-adv-x="1132" 
d="M524 0h-176l111 535q3 21 -2 36l-312 854h189q31 -93 130.5 -376t119.5 -351q29 44 100 139.5t137 181t169 218.5t145 188h196l-678 -864q-13 -17 -16 -37zM813 1569h-170l47 223h170z" />
    <glyph glyph-name="uni1E8F" unicode="&#x1e8f;" horiz-adv-x="978" 
d="M119 1038h170q100 -729 110 -905h2q18 34 78.5 160t160 324.5t216.5 420.5h180l-577 -1095q-54 -103 -100.5 -171t-86 -108t-87 -60.5t-88 -26t-105.5 -5.5q-69 0 -119 12l35 150q46 -8 94 -8q67 0 112.5 22t80 65t84.5 130zM684 1280h-172l47 223h170z" />
    <glyph glyph-name="uni1E92" unicode="&#x1e92;" horiz-adv-x="1142" 
d="M-51 0l28 135l1031 1139h-789l33 151h1005l-32 -147l-1018 -1126h846l-58 -152h-1046zM532 -397h-182l47 221h181z" />
    <glyph glyph-name="uni1E93" unicode="&#x1e93;" horiz-adv-x="901" 
d="M-47 0l29 135l698 762h-539l31 141h741l-32 -143l-686 -754h583l-53 -141h-772zM389 -385h-182l47 221h180z" />
    <glyph glyph-name="uni1E97" unicode="&#x1e97;" horiz-adv-x="632" 
d="M98 899l31 139h174l64 299h168l-64 -299h221l-30 -139h-222l-131 -629q-19 -70 -4.5 -105.5t78.5 -35.5q63 0 102 10l-30 -135q-47 -16 -144 -16q-122 0 -164 60.5t-16 191.5l139 659h-172zM369 1456h-146l45 223h148zM727 1456h-145l47 223h145z" />
    <glyph glyph-name="uni1E9E" unicode="&#x1e9e;" horiz-adv-x="1333" 
d="M455 1024l-219 -1024h-177l220 1038q25 118 72.5 199t116.5 126t148 64t181 19q125 0 219.5 -30t147.5 -80t78.5 -106.5t25.5 -117.5q0 -58 -17 -111l-377 -210l-2 -11l129 -90q115 -84 168.5 -161t53.5 -177q0 -73 -26 -138t-77.5 -118t-139 -84.5t-200.5 -31.5
q-124 0 -218.5 38.5t-145.5 98.5l39 164q138 -157 333 -160q116 0 185 58t69 159q0 65 -37.5 117.5t-123.5 113.5l-195 133q-42 29 -37 75.5t53 74.5l381 221q2 6 2 29q1 32 -11.5 63.5t-43 64t-94.5 53t-154 20.5q-131 0 -212.5 -62t-114.5 -217z" />
    <glyph glyph-name="uni1EA0" unicode="&#x1ea0;" horiz-adv-x="1259" 
d="M907 436h-549l-235 -436h-191l791 1425h215l215 -1425h-180zM438 588h455q-82 560 -90 680h-2q-88 -178 -363 -680zM578 -356h-183l47 221h181z" />
    <glyph glyph-name="uni1EA1" unicode="&#x1ea1;" horiz-adv-x="1079" 
d="M961 702l-95 -444q-40 -193 -49 -258h-166q6 62 27 160q-22 -36 -47.5 -64t-66.5 -56.5t-101.5 -44t-136.5 -15.5q-75 0 -132 23t-89.5 61.5t-48 83.5t-15.5 94q0 85 31.5 151t78 105t115.5 66.5t128.5 39.5t131.5 19q14 1 252 10l15 69q42 226 -187 226
q-63 0 -108.5 -14.5t-73.5 -42.5t-43 -53t-29 -62h-174q15 63 45 114t80.5 95.5t131.5 69t186 24.5q188 0 283 -89.5t57 -267.5zM748 492l4 16q-158 -6 -213 -12q-54 -5 -98 -14t-86.5 -26t-70.5 -41.5t-45.5 -62.5t-17.5 -86q0 -63 42 -104t124 -41t145 29.5t104.5 84
t67.5 116t44 141.5zM465 -385h-182l47 221h180z" />
    <glyph glyph-name="uni1EA2" unicode="&#x1ea2;" horiz-adv-x="1259" 
d="M907 436h-549l-235 -436h-191l791 1425h215l215 -1425h-180zM438 588h455q-82 560 -90 680h-2q-88 -178 -363 -680zM903 1522h-172q166 98 166 176q0 28 -19 46.5t-61 18.5q-61 0 -123 -32l-26 98q80 55 192 55q91 0 139 -45t48 -106q0 -119 -144 -211z" />
    <glyph glyph-name="uni1EA3" unicode="&#x1ea3;" horiz-adv-x="1079" 
d="M961 702l-95 -444q-40 -193 -49 -258h-166q6 62 27 160q-22 -36 -47.5 -64t-66.5 -56.5t-101.5 -44t-136.5 -15.5q-75 0 -132 23t-89.5 61.5t-48 83.5t-15.5 94q0 85 31.5 151t78 105t115.5 66.5t128.5 39.5t131.5 19q14 1 252 10l15 69q42 226 -187 226
q-63 0 -108.5 -14.5t-73.5 -42.5t-43 -53t-29 -62h-174q15 63 45 114t80.5 95.5t131.5 69t186 24.5q188 0 283 -89.5t57 -267.5zM748 492l4 16q-158 -6 -213 -12q-54 -5 -98 -14t-86.5 -26t-70.5 -41.5t-45.5 -62.5t-17.5 -86q0 -63 42 -104t124 -41t145 29.5t104.5 84
t67.5 116t44 141.5zM735 1196h-172q166 98 166 176q0 28 -19 47t-61 19q-59 0 -123 -33l-26 98q81 56 192 56q90 0 138.5 -45.5t48.5 -106.5q0 -119 -144 -211z" />
    <glyph glyph-name="uni1EA4" unicode="&#x1ea4;" horiz-adv-x="1259" 
d="M907 436h-549l-235 -436h-191l791 1425h215l215 -1425h-180zM438 588h455q-82 560 -90 680h-2q-88 -178 -363 -680zM797 1763h174l200 -233h-170l-131 141l-186 -141h-190zM1366 1960h217l-313 -227h-170z" />
    <glyph glyph-name="uni1EA5" unicode="&#x1ea5;" horiz-adv-x="1079" 
d="M961 702l-95 -444q-40 -193 -49 -258h-166q6 62 27 160q-22 -36 -47.5 -64t-66.5 -56.5t-101.5 -44t-136.5 -15.5q-75 0 -132 23t-89.5 61.5t-48 83.5t-15.5 94q0 85 31.5 151t78 105t115.5 66.5t128.5 39.5t131.5 19q14 1 252 10l15 69q42 226 -187 226
q-63 0 -108.5 -14.5t-73.5 -42.5t-43 -53t-29 -62h-174q15 63 45 114t80.5 95.5t131.5 69t186 24.5q188 0 283 -89.5t57 -267.5zM748 492l4 16q-158 -6 -213 -12q-54 -5 -98 -14t-86.5 -26t-70.5 -41.5t-45.5 -62.5t-17.5 -86q0 -63 42 -104t124 -41t145 29.5t104.5 84
t67.5 116t44 141.5zM633 1452h155l166 -272h-161l-99 176l-170 -176h-170zM1174 1675h208l-321 -260h-158z" />
    <glyph glyph-name="uni1EA6" unicode="&#x1ea6;" horiz-adv-x="1259" 
d="M907 436h-549l-235 -436h-191l791 1425h215l215 -1425h-180zM438 588h455q-82 560 -90 680h-2q-88 -178 -363 -680zM797 1769h174l200 -233h-170l-131 141l-186 -141h-190zM999 1974h199l219 -254h-149z" />
    <glyph glyph-name="uni1EA7" unicode="&#x1ea7;" horiz-adv-x="1079" 
d="M961 702l-95 -444q-40 -193 -49 -258h-166q6 62 27 160q-22 -36 -47.5 -64t-66.5 -56.5t-101.5 -44t-136.5 -15.5q-75 0 -132 23t-89.5 61.5t-48 83.5t-15.5 94q0 85 31.5 151t78 105t115.5 66.5t128.5 39.5t131.5 19q14 1 252 10l15 69q42 226 -187 226
q-63 0 -108.5 -14.5t-73.5 -42.5t-43 -53t-29 -62h-174q15 63 45 114t80.5 95.5t131.5 69t186 24.5q188 0 283 -89.5t57 -267.5zM748 492l4 16q-158 -6 -213 -12q-54 -5 -98 -14t-86.5 -26t-70.5 -41.5t-45.5 -62.5t-17.5 -86q0 -63 42 -104t124 -41t145 29.5t104.5 84
t67.5 116t44 141.5zM629 1454h157l166 -272h-161l-99 176l-172 -176h-168zM821 1683h180l185 -297h-139z" />
    <glyph glyph-name="uni1EA8" unicode="&#x1ea8;" horiz-adv-x="1259" 
d="M907 436h-549l-235 -436h-191l791 1425h215l215 -1425h-180zM438 588h455q-82 560 -90 680h-2q-88 -178 -363 -680zM797 1765h176l201 -235h-170l-132 143l-186 -143h-192zM1278 1720h-162q144 88 144 164q0 53 -66 53q-60 0 -111 -28l-22 94q77 51 178 51
q78 0 120 -40.5t42 -96.5q0 -108 -123 -197z" />
    <glyph glyph-name="uni1EA9" unicode="&#x1ea9;" horiz-adv-x="1079" 
d="M961 702l-95 -444q-40 -193 -49 -258h-166q6 62 27 160q-22 -36 -47.5 -64t-66.5 -56.5t-101.5 -44t-136.5 -15.5q-75 0 -132 23t-89.5 61.5t-48 83.5t-15.5 94q0 85 31.5 151t78 105t115.5 66.5t128.5 39.5t131.5 19q14 1 252 10l15 69q42 226 -187 226
q-63 0 -108.5 -14.5t-73.5 -42.5t-43 -53t-29 -62h-174q15 63 45 114t80.5 95.5t131.5 69t186 24.5q188 0 283 -89.5t57 -267.5zM748 492l4 16q-158 -6 -213 -12q-54 -5 -98 -14t-86.5 -26t-70.5 -41.5t-45.5 -62.5t-17.5 -86q0 -63 42 -104t124 -41t145 29.5t104.5 84
t67.5 116t44 141.5zM625 1454h157l166 -272h-162l-98 176l-172 -176h-168zM1081 1389h-147q31 21 45 31.5t42.5 35t42 49.5t13.5 51q0 22 -16 35t-45 13q-68 0 -115 -33l-20 92q78 57 182 57q70 0 110.5 -38.5t40.5 -94.5q0 -65 -37 -115.5t-96 -82.5z" />
    <glyph glyph-name="uni1EAA" unicode="&#x1eaa;" horiz-adv-x="1259" 
d="M907 436h-549l-235 -436h-191l791 1425h215l215 -1425h-180zM438 588h455q-82 560 -90 680h-2q-88 -178 -363 -680zM702 1792h-122l6 29q35 166 184 166q68 0 163 -37t128 -37q54 0 67 55l2 14h121l-4 -24q-27 -168 -188 -168q-55 0 -149 38t-138 38q-53 0 -65 -62z
M778 1714h195l201 -196h-181l-127 112l-172 -112h-198z" />
    <glyph glyph-name="uni1EAB" unicode="&#x1eab;" horiz-adv-x="1079" 
d="M961 702l-95 -444q-40 -193 -49 -258h-166q6 62 27 160q-22 -36 -47.5 -64t-66.5 -56.5t-101.5 -44t-136.5 -15.5q-75 0 -132 23t-89.5 61.5t-48 83.5t-15.5 94q0 85 31.5 151t78 105t115.5 66.5t128.5 39.5t131.5 19q14 1 252 10l15 69q42 226 -187 226
q-63 0 -108.5 -14.5t-73.5 -42.5t-43 -53t-29 -62h-174q15 63 45 114t80.5 95.5t131.5 69t186 24.5q188 0 283 -89.5t57 -267.5zM748 492l4 16q-158 -6 -213 -12q-54 -5 -98 -14t-86.5 -26t-70.5 -41.5t-45.5 -62.5t-17.5 -86q0 -63 42 -104t124 -41t145 29.5t104.5 84
t67.5 116t44 141.5zM551 1470h-109l7 37q23 154 169 154q59 0 140.5 -37t105.5 -37t38.5 13t21.5 45l4 14h106l-4 -27q-13 -89 -54.5 -125.5t-109.5 -36.5q-49 0 -133 37t-115 37q-51 0 -65 -61zM612 1386h168l185 -212h-166l-115 129l-164 -129h-176z" />
    <glyph glyph-name="uni1EAC" unicode="&#x1eac;" horiz-adv-x="1259" 
d="M907 436h-549l-235 -436h-191l791 1425h215l215 -1425h-180zM438 588h455q-82 560 -90 680h-2q-88 -178 -363 -680zM596 -356h-182l47 221h180zM805 1794h172l211 -264h-172l-137 166l-209 -166h-189z" />
    <glyph glyph-name="uni1EAD" unicode="&#x1ead;" horiz-adv-x="1079" 
d="M961 702l-95 -444q-40 -193 -49 -258h-166q6 62 27 160q-22 -36 -47.5 -64t-66.5 -56.5t-101.5 -44t-136.5 -15.5q-75 0 -132 23t-89.5 61.5t-48 83.5t-15.5 94q0 85 31.5 151t78 105t115.5 66.5t128.5 39.5t131.5 19q14 1 252 10l15 69q42 226 -187 226
q-63 0 -108.5 -14.5t-73.5 -42.5t-43 -53t-29 -62h-174q15 63 45 114t80.5 95.5t131.5 69t186 24.5q188 0 283 -89.5t57 -267.5zM748 492l4 16q-158 -6 -213 -12q-54 -5 -98 -14t-86.5 -26t-70.5 -41.5t-45.5 -62.5t-17.5 -86q0 -63 42 -104t124 -41t145 29.5t104.5 84
t67.5 116t44 141.5zM444 -377h-182l47 221h180zM649 1513h166l148 -292h-162l-88 190l-178 -190h-173z" />
    <glyph glyph-name="uni1EAE" unicode="&#x1eae;" horiz-adv-x="1259" 
d="M907 436h-549l-235 -436h-191l791 1425h215l215 -1425h-180zM438 588h455q-82 560 -90 680h-2q-88 -178 -363 -680zM1020 2034h229l-301 -213h-174zM549 1772h139q29 -115 158 -115q78 0 123.5 31t77.5 84h143q-103 -236 -359 -236q-62 0 -111.5 16.5t-79.5 41.5
t-50.5 58t-29 62t-11.5 58z" />
    <glyph glyph-name="uni1EAF" unicode="&#x1eaf;" horiz-adv-x="1079" 
d="M961 702l-95 -444q-40 -193 -49 -258h-166q6 62 27 160q-22 -36 -47.5 -64t-66.5 -56.5t-101.5 -44t-136.5 -15.5q-75 0 -132 23t-89.5 61.5t-48 83.5t-15.5 94q0 85 31.5 151t78 105t115.5 66.5t128.5 39.5t131.5 19q14 1 252 10l15 69q42 226 -187 226
q-63 0 -108.5 -14.5t-73.5 -42.5t-43 -53t-29 -62h-174q15 63 45 114t80.5 95.5t131.5 69t186 24.5q188 0 283 -89.5t57 -267.5zM748 492l4 16q-158 -6 -213 -12q-54 -5 -98 -14t-86.5 -26t-70.5 -41.5t-45.5 -62.5t-17.5 -86q0 -63 42 -104t124 -41t145 29.5t104.5 84
t67.5 116t44 141.5zM868 1696h207l-321 -240h-156zM393 1405h129q5 -52 38.5 -84.5t98.5 -32.5q72 0 114 32t71 85h131q-91 -240 -332 -240q-126 0 -189.5 71.5t-60.5 168.5z" />
    <glyph glyph-name="uni1EB0" unicode="&#x1eb0;" horiz-adv-x="1259" 
d="M907 436h-549l-235 -436h-191l791 1425h215l215 -1425h-180zM438 588h455q-82 560 -90 680h-2q-88 -178 -363 -680zM553 2044h215l199 -227h-158zM549 1772h139q11 -53 50.5 -84t109.5 -31q78 0 122 31t77 84h143q-48 -110 -133 -173t-228 -63q-76 0 -133 24.5t-86.5 63
t-43.5 75.5t-17 73z" />
    <glyph glyph-name="uni1EB1" unicode="&#x1eb1;" horiz-adv-x="1079" 
d="M961 702l-95 -444q-40 -193 -49 -258h-166q6 62 27 160q-22 -36 -47.5 -64t-66.5 -56.5t-101.5 -44t-136.5 -15.5q-75 0 -132 23t-89.5 61.5t-48 83.5t-15.5 94q0 85 31.5 151t78 105t115.5 66.5t128.5 39.5t131.5 19q14 1 252 10l15 69q42 226 -187 226
q-63 0 -108.5 -14.5t-73.5 -42.5t-43 -53t-29 -62h-174q15 63 45 114t80.5 95.5t131.5 69t186 24.5q188 0 283 -89.5t57 -267.5zM748 492l4 16q-158 -6 -213 -12q-54 -5 -98 -14t-86.5 -26t-70.5 -41.5t-45.5 -62.5t-17.5 -86q0 -63 42 -104t124 -41t145 29.5t104.5 84
t67.5 116t44 141.5zM393 1700h191l200 -240h-149zM395 1407h129q5 -50 39 -83.5t99 -33.5q73 0 114 31.5t70 85.5h131q-94 -240 -332 -240q-128 0 -190.5 71.5t-59.5 168.5z" />
    <glyph glyph-name="uni1EB2" unicode="&#x1eb2;" horiz-adv-x="1259" 
d="M907 436h-549l-235 -436h-191l791 1425h215l215 -1425h-180zM438 588h455q-82 560 -90 680h-2q-88 -178 -363 -680zM934 1798h-162q143 88 143 164q0 51 -67 51q-57 0 -115 -28l-10 98q73 49 168 49q78 0 121 -40.5t43 -96.5q0 -112 -121 -197zM549 1759h141
q24 -114 156 -114q135 0 201 114h143q-100 -235 -361 -235q-61 0 -111 16.5t-80 41.5t-50.5 58t-29 62t-9.5 57z" />
    <glyph glyph-name="uni1EB3" unicode="&#x1eb3;" horiz-adv-x="1079" 
d="M961 702l-95 -444q-40 -193 -49 -258h-166q6 62 27 160q-22 -36 -47.5 -64t-66.5 -56.5t-101.5 -44t-136.5 -15.5q-75 0 -132 23t-89.5 61.5t-48 83.5t-15.5 94q0 85 31.5 151t78 105t115.5 66.5t128.5 39.5t131.5 19q14 1 252 10l15 69q42 226 -187 226
q-63 0 -108.5 -14.5t-73.5 -42.5t-43 -53t-29 -62h-174q15 63 45 114t80.5 95.5t131.5 69t186 24.5q188 0 283 -89.5t57 -267.5zM748 492l4 16q-158 -6 -213 -12q-54 -5 -98 -14t-86.5 -26t-70.5 -41.5t-45.5 -62.5t-17.5 -86q0 -63 42 -104t124 -41t145 29.5t104.5 84
t67.5 116t44 141.5zM754 1446h-156q150 92 150 162q0 51 -66 51q-56 0 -113 -31l-20 92q76 54 174 54q78 0 119 -41t41 -97q0 -111 -129 -190zM393 1405h129q5 -51 38 -84t99 -33q73 0 114 32t71 85h131q-94 -240 -332 -240q-128 0 -190.5 71.5t-59.5 168.5z" />
    <glyph glyph-name="uni1EB4" unicode="&#x1eb4;" horiz-adv-x="1259" 
d="M907 436h-549l-235 -436h-191l791 1425h215l215 -1425h-180zM438 588h455q-82 560 -90 680h-2q-88 -178 -363 -680zM723 1839h-119l6 31q17 90 61 124t113 34q58 0 150.5 -36t118.5 -36q27 0 43 10.5t24 42.5l2 14h115l-6 -30q-20 -87 -63.5 -121.5t-110.5 -34.5
q-51 0 -142 37t-124 37q-54 0 -66 -62zM586 1745h129q18 -105 137 -105q75 0 118 28t70 77h134q-39 -100 -123.5 -160.5t-208.5 -60.5q-69 0 -121 20t-80 53.5t-41.5 70.5t-13.5 77z" />
    <glyph glyph-name="uni1EB5" unicode="&#x1eb5;" horiz-adv-x="1079" 
d="M961 702l-95 -444q-40 -193 -49 -258h-166q6 62 27 160q-22 -36 -47.5 -64t-66.5 -56.5t-101.5 -44t-136.5 -15.5q-75 0 -132 23t-89.5 61.5t-48 83.5t-15.5 94q0 85 31.5 151t78 105t115.5 66.5t128.5 39.5t131.5 19q14 1 252 10l15 69q42 226 -187 226
q-63 0 -108.5 -14.5t-73.5 -42.5t-43 -53t-29 -62h-174q15 63 45 114t80.5 95.5t131.5 69t186 24.5q188 0 283 -89.5t57 -267.5zM748 492l4 16q-158 -6 -213 -12q-54 -5 -98 -14t-86.5 -26t-70.5 -41.5t-45.5 -62.5t-17.5 -86q0 -63 42 -104t124 -41t145 29.5t104.5 84
t67.5 116t44 141.5zM535 1487h-109l4 31q17 90 59.5 123.5t108.5 33.5q54 0 136 -35.5t108 -35.5t41.5 11t23.5 42l2 16h107l-6 -31q-32 -155 -168 -155q-48 0 -129.5 37t-112.5 37q-51 0 -63 -64zM406 1391h122q5 -48 36 -76.5t91 -28.5q69 0 108 27.5t68 77.5h123
q-79 -226 -313 -226q-66 0 -114 20t-73.5 54.5t-37 72t-10.5 79.5z" />
    <glyph glyph-name="uni1EB6" unicode="&#x1eb6;" horiz-adv-x="1259" 
d="M907 436h-549l-235 -436h-191l791 1425h215l215 -1425h-180zM438 588h455q-82 560 -90 680h-2q-88 -178 -363 -680zM580 -344h-183l47 221h181zM580 1798h131q4 -131 143 -131q141 0 201 131h133q-45 -122 -128.5 -190t-221.5 -68q-74 0 -127.5 22.5t-82 61t-40 82
t-8.5 92.5z" />
    <glyph glyph-name="uni1EB7" unicode="&#x1eb7;" horiz-adv-x="1079" 
d="M961 702l-95 -444q-40 -193 -49 -258h-166q6 62 27 160q-22 -36 -47.5 -64t-66.5 -56.5t-101.5 -44t-136.5 -15.5q-75 0 -132 23t-89.5 61.5t-48 83.5t-15.5 94q0 85 31.5 151t78 105t115.5 66.5t128.5 39.5t131.5 19q14 1 252 10l15 69q42 226 -187 226
q-63 0 -108.5 -14.5t-73.5 -42.5t-43 -53t-29 -62h-174q15 63 45 114t80.5 95.5t131.5 69t186 24.5q188 0 283 -89.5t57 -267.5zM748 492l4 16q-158 -6 -213 -12q-54 -5 -98 -14t-86.5 -26t-70.5 -41.5t-45.5 -62.5t-17.5 -86q0 -63 42 -104t124 -41t145 29.5t104.5 84
t67.5 116t44 141.5zM426 1479h129q-2 -61 28 -99.5t97 -38.5q32 0 59.5 9.5t44.5 21t34.5 34.5t25 35.5t20.5 37.5h129q-87 -267 -329 -267q-70 0 -121 23t-77.5 61.5t-36.5 85t-3 97.5zM449 -387h-183l47 221h181z" />
    <glyph glyph-name="uni1EB8" unicode="&#x1eb8;" horiz-adv-x="1163" 
d="M1081 827l-32 -151h-666l-109 -524h760l-55 -152h-913l301 1425h876l-31 -151h-700l-96 -447h665zM584 -377h-183l48 221h180z" />
    <glyph glyph-name="uni1EB9" unicode="&#x1eb9;" horiz-adv-x="1052" 
d="M961 494h-709q-8 -82 -8 -99q0 -132 60 -203t169 -71q104 0 165 46.5t103 125.5h177q-131 -313 -465 -313q-188 0 -284.5 111.5t-96.5 299.5q0 91 19 182t62 179.5t104.5 156t154.5 109t204 41.5q101 0 175 -31t115.5 -85t61 -117.5t19.5 -137.5q0 -93 -26 -194zM281 623
h534q6 27 6 75q0 224 -215 224q-118 0 -201.5 -77.5t-123.5 -221.5zM483 -377h-182l47 221h180z" />
    <glyph glyph-name="uni1EBA" unicode="&#x1eba;" horiz-adv-x="1163" 
d="M1081 827l-32 -151h-666l-109 -524h760l-55 -152h-913l301 1425h876l-31 -151h-700l-96 -447h665zM870 1540h-172q166 98 166 176q0 28 -19 47t-61 19q-58 0 -122 -33l-27 98q81 56 192 56q90 0 138.5 -45.5t48.5 -106.5q0 -119 -144 -211z" />
    <glyph glyph-name="uni1EBB" unicode="&#x1ebb;" horiz-adv-x="1052" 
d="M961 494h-709q-8 -82 -8 -99q0 -132 60 -203t169 -71q104 0 165 46.5t103 125.5h177q-131 -313 -465 -313q-188 0 -284.5 111.5t-96.5 299.5q0 91 19 182t62 179.5t104.5 156t154.5 109t204 41.5q101 0 175 -31t115.5 -85t61 -117.5t19.5 -137.5q0 -93 -26 -194zM281 623
h534q6 27 6 75q0 224 -215 224q-118 0 -201.5 -77.5t-123.5 -221.5zM735 1196h-172q166 98 166 176q0 28 -19 47t-61 19q-59 0 -123 -33l-26 98q81 56 192 56q90 0 138.5 -45.5t48.5 -106.5q0 -119 -144 -211z" />
    <glyph glyph-name="uni1EBC" unicode="&#x1ebc;" horiz-adv-x="1163" 
d="M1081 827l-32 -151h-666l-109 -524h760l-55 -152h-913l301 1425h876l-31 -151h-700l-96 -447h665zM614 1604h-122l8 51q16 103 62 142.5t122 39.5q51 0 110 -26t109 -52t80 -26q31 0 48 19.5t26 68.5l2 18h125l-10 -57q-19 -103 -65.5 -144t-125.5 -41q-49 0 -105 26.5
t-105.5 52.5t-82.5 26q-57 0 -67 -62z" />
    <glyph glyph-name="uni1EBD" unicode="&#x1ebd;" horiz-adv-x="1052" 
d="M961 494h-709q-8 -82 -8 -99q0 -132 60 -203t169 -71q104 0 165 46.5t103 125.5h177q-131 -313 -465 -313q-188 0 -284.5 111.5t-96.5 299.5q0 91 19 182t62 179.5t104.5 156t154.5 109t204 41.5q101 0 175 -31t115.5 -85t61 -117.5t19.5 -137.5q0 -93 -26 -194zM281 623
h534q6 27 6 75q0 224 -215 224q-118 0 -201.5 -77.5t-123.5 -221.5zM473 1245h-123l10 51q19 103 64 142t123 39q47 0 99.5 -25.5t96 -50.5t68.5 -25q27 0 43 19t25 67l4 21h121l-9 -45q-19 -109 -63.5 -152t-120.5 -43q-44 0 -94.5 25.5t-95.5 51.5t-76 26q-47 0 -64 -68z
" />
    <glyph glyph-name="uni1EBE" unicode="&#x1ebe;" horiz-adv-x="1163" 
d="M1081 827l-32 -151h-666l-109 -524h760l-55 -152h-913l301 1425h876l-31 -151h-700l-96 -447h665zM776 1798h174l201 -233h-170l-131 141l-186 -141h-191zM1346 1995h217l-314 -228h-170z" />
    <glyph glyph-name="uni1EBF" unicode="&#x1ebf;" horiz-adv-x="1052" 
d="M961 494h-709q-8 -82 -8 -99q0 -132 60 -203t169 -71q104 0 165 46.5t103 125.5h177q-131 -313 -465 -313q-188 0 -284.5 111.5t-96.5 299.5q0 91 19 182t62 179.5t104.5 156t154.5 109t204 41.5q101 0 175 -31t115.5 -85t61 -117.5t19.5 -137.5q0 -93 -26 -194zM281 623
h534q6 27 6 75q0 224 -215 224q-118 0 -201.5 -77.5t-123.5 -221.5zM631 1456h155l166 -272h-161l-99 176l-170 -176h-170zM1171 1679h209l-321 -260h-158z" />
    <glyph glyph-name="uni1EC0" unicode="&#x1ec0;" horiz-adv-x="1163" 
d="M1081 827l-32 -151h-666l-109 -524h760l-55 -152h-913l301 1425h876l-31 -151h-700l-96 -447h665zM774 1802h174l201 -233h-170l-131 141l-186 -141h-191zM977 2007h199l219 -254h-150z" />
    <glyph glyph-name="uni1EC1" unicode="&#x1ec1;" horiz-adv-x="1052" 
d="M961 494h-709q-8 -82 -8 -99q0 -132 60 -203t169 -71q104 0 165 46.5t103 125.5h177q-131 -313 -465 -313q-188 0 -284.5 111.5t-96.5 299.5q0 91 19 182t62 179.5t104.5 156t154.5 109t204 41.5q101 0 175 -31t115.5 -85t61 -117.5t19.5 -137.5q0 -93 -26 -194zM281 623
h534q6 27 6 75q0 224 -215 224q-118 0 -201.5 -77.5t-123.5 -221.5zM625 1452h157l166 -272h-162l-98 176l-172 -176h-168zM817 1681h180l185 -297h-140z" />
    <glyph glyph-name="uni1EC2" unicode="&#x1ec2;" horiz-adv-x="1163" 
d="M1081 827l-32 -151h-666l-109 -524h760l-55 -152h-913l301 1425h876l-31 -151h-700l-96 -447h665zM774 1794h176l201 -235h-170l-131 143l-186 -143h-193zM1255 1749h-161q143 88 143 164q0 53 -66 53q-57 0 -110 -29l-23 95q77 51 179 51q78 0 119.5 -40.5t41.5 -96.5
q0 -108 -123 -197z" />
    <glyph glyph-name="uni1EC3" unicode="&#x1ec3;" horiz-adv-x="1052" 
d="M961 494h-709q-8 -82 -8 -99q0 -132 60 -203t169 -71q104 0 165 46.5t103 125.5h177q-131 -313 -465 -313q-188 0 -284.5 111.5t-96.5 299.5q0 91 19 182t62 179.5t104.5 156t154.5 109t204 41.5q101 0 175 -31t115.5 -85t61 -117.5t19.5 -137.5q0 -93 -26 -194zM281 623
h534q6 27 6 75q0 224 -215 224q-118 0 -201.5 -77.5t-123.5 -221.5zM625 1450h157l166 -272h-162l-98 176l-172 -176h-168zM1081 1384h-147q24 16 35 23.5t35.5 28t37 35.5t24 37.5t11.5 43.5q0 22 -16 34.5t-45 12.5q-69 0 -115 -32l-20 92q78 57 182 57q70 0 110.5 -38.5
t40.5 -94.5q0 -65 -37 -116t-96 -83z" />
    <glyph glyph-name="uni1EC4" unicode="&#x1ec4;" horiz-adv-x="1163" 
d="M1081 827l-32 -151h-666l-109 -524h760l-55 -152h-913l301 1425h876l-31 -151h-700l-96 -447h665zM676 1835h-123l6 29q35 166 184 166q68 0 163 -37t128 -37q55 0 68 55l2 14h121l-4 -24q-27 -168 -189 -168q-55 0 -149 38t-138 38q-53 0 -65 -62zM752 1757h194
l201 -196h-180l-127 112l-172 -112h-199z" />
    <glyph glyph-name="uni1EC5" unicode="&#x1ec5;" horiz-adv-x="1052" 
d="M961 494h-709q-8 -82 -8 -99q0 -132 60 -203t169 -71q104 0 165 46.5t103 125.5h177q-131 -313 -465 -313q-188 0 -284.5 111.5t-96.5 299.5q0 91 19 182t62 179.5t104.5 156t154.5 109t204 41.5q101 0 175 -31t115.5 -85t61 -117.5t19.5 -137.5q0 -93 -26 -194zM281 623
h534q6 27 6 75q0 224 -215 224q-118 0 -201.5 -77.5t-123.5 -221.5zM528 1460h-108l6 37q23 154 170 154q59 0 140.5 -37t105.5 -37t38 12.5t21 44.5l4 15h107l-4 -27q-13 -89 -54.5 -125.5t-109.5 -36.5q-49 0 -133 37t-115 37q-52 0 -66 -61zM590 1376h168l184 -213h-166
l-114 129l-164 -129h-176z" />
    <glyph glyph-name="uni1EC6" unicode="&#x1ec6;" horiz-adv-x="1163" 
d="M1081 827l-32 -151h-666l-109 -524h760l-55 -152h-913l301 1425h876l-31 -151h-700l-96 -447h665zM569 -377h-182l47 221h180zM776 1827h172l211 -264h-172l-137 166l-209 -166h-188z" />
    <glyph glyph-name="uni1EC7" unicode="&#x1ec7;" horiz-adv-x="1052" 
d="M961 494h-709q-8 -82 -8 -99q0 -132 60 -203t169 -71q104 0 165 46.5t103 125.5h177q-131 -313 -465 -313q-188 0 -284.5 111.5t-96.5 299.5q0 91 19 182t62 179.5t104.5 156t154.5 109t204 41.5q101 0 175 -31t115.5 -85t61 -117.5t19.5 -137.5q0 -93 -26 -194zM281 623
h534q6 27 6 75q0 224 -215 224q-118 0 -201.5 -77.5t-123.5 -221.5zM473 -377h-182l47 221h180zM637 1513h166l147 -292h-162l-88 190l-178 -190h-172z" />
    <glyph glyph-name="uni1EC8" unicode="&#x1ec8;" horiz-adv-x="534" 
d="M369 1425h178l-301 -1425h-180zM545 1536h-172q166 98 166 176q0 28 -19 47t-61 19q-59 0 -123 -33l-27 98q80 55 193 55q90 0 138 -45t48 -106q0 -120 -143 -211z" />
    <glyph glyph-name="uni1EC9" unicode="&#x1ec9;" horiz-adv-x="475" 
d="M43 0l219 1038h170l-221 -1038h-168zM455 1196h-172q166 98 166 176q0 28 -19 47t-61 19q-59 0 -123 -33l-27 98q81 56 193 56q90 0 138 -45t48 -107q0 -120 -143 -211z" />
    <glyph glyph-name="uni1ECA" unicode="&#x1eca;" horiz-adv-x="534" 
d="M369 1425h178l-301 -1425h-180zM170 -377h-182l47 221h180z" />
    <glyph glyph-name="uni1ECB" unicode="&#x1ecb;" horiz-adv-x="475" 
d="M43 0l219 1038h170l-221 -1038h-168zM313 1280l47 223h170l-47 -223h-170zM141 -389h-182l47 221h180z" />
    <glyph glyph-name="uni1ECC" unicode="&#x1ecc;" horiz-adv-x="1486" 
d="M872 1446q261 0 402 -158.5t141 -431.5q0 -128 -27.5 -251t-88 -237t-146.5 -199.5t-213 -137t-278 -51.5q-257 0 -398 157.5t-141 415.5q0 128 29.5 254t91 241.5t148 204t211 141t269.5 52.5zM860 1296q-91 0 -171 -31.5t-139.5 -85.5t-106.5 -126t-76.5 -154.5
t-44.5 -168.5t-15 -171q0 -125 39 -219.5t125.5 -152.5t212.5 -58q108 0 199 42.5t154 114.5t107.5 166.5t65.5 198t21 209.5q0 201 -94.5 318.5t-276.5 117.5zM662 -377h-183l47 221h181z" />
    <glyph glyph-name="uni1ECD" unicode="&#x1ecd;" horiz-adv-x="1097" 
d="M625 1059q181 0 287 -112.5t106 -315.5q0 -86 -18.5 -173t-61.5 -174t-105.5 -154t-157.5 -108.5t-210 -41.5q-187 0 -288 110.5t-101 306.5q0 89 20.5 180t65 178t107.5 154.5t155.5 108.5t200.5 41zM608 918q-86 0 -156.5 -49.5t-113 -127.5t-65.5 -167t-23 -175
q0 -132 60 -205t173 -73q72 0 133 32.5t102.5 86t70.5 121.5t42 138t13 138q0 134 -59.5 207.5t-176.5 73.5zM467 -385h-182l47 221h180z" />
    <glyph glyph-name="uni1ECE" unicode="&#x1ece;" horiz-adv-x="1486" 
d="M872 1446q261 0 402 -158.5t141 -431.5q0 -128 -27.5 -251t-88 -237t-146.5 -199.5t-213 -137t-278 -51.5q-257 0 -398 157.5t-141 415.5q0 128 29.5 254t91 241.5t148 204t211 141t269.5 52.5zM860 1296q-91 0 -171 -31.5t-139.5 -85.5t-106.5 -126t-76.5 -154.5
t-44.5 -168.5t-15 -171q0 -125 39 -219.5t125.5 -152.5t212.5 -58q108 0 199 42.5t154 114.5t107.5 166.5t65.5 198t21 209.5q0 201 -94.5 318.5t-276.5 117.5zM981 1548h-172q166 98 166 176q0 28 -19 47t-61 19q-59 0 -123 -33l-27 98q81 56 193 56q90 0 138 -45t48 -107
q0 -120 -143 -211z" />
    <glyph glyph-name="uni1ECF" unicode="&#x1ecf;" horiz-adv-x="1097" 
d="M625 1059q181 0 287 -112.5t106 -315.5q0 -86 -18.5 -173t-61.5 -174t-105.5 -154t-157.5 -108.5t-210 -41.5q-187 0 -288 110.5t-101 306.5q0 89 20.5 180t65 178t107.5 154.5t155.5 108.5t200.5 41zM608 918q-86 0 -156.5 -49.5t-113 -127.5t-65.5 -167t-23 -175
q0 -132 60 -205t173 -73q72 0 133 32.5t102.5 86t70.5 121.5t42 138t13 138q0 134 -59.5 207.5t-176.5 73.5zM745 1196h-172q166 98 166 176q0 28 -19 47t-61 19q-58 0 -122 -33l-27 98q81 56 192 56q90 0 138.5 -45.5t48.5 -106.5q0 -119 -144 -211z" />
    <glyph glyph-name="uni1ED0" unicode="&#x1ed0;" horiz-adv-x="1486" 
d="M872 1446q261 0 402 -158.5t141 -431.5q0 -128 -27.5 -251t-88 -237t-146.5 -199.5t-213 -137t-278 -51.5q-257 0 -398 157.5t-141 415.5q0 128 29.5 254t91 241.5t148 204t211 141t269.5 52.5zM860 1296q-91 0 -171 -31.5t-139.5 -85.5t-106.5 -126t-76.5 -154.5
t-44.5 -168.5t-15 -171q0 -125 39 -219.5t125.5 -152.5t212.5 -58q108 0 199 42.5t154 114.5t107.5 166.5t65.5 198t21 209.5q0 201 -94.5 318.5t-276.5 117.5zM870 1802h174l201 -233h-170l-131 141l-186 -141h-191zM1440 1999h217l-314 -227h-169z" />
    <glyph glyph-name="uni1ED1" unicode="&#x1ed1;" horiz-adv-x="1097" 
d="M625 1059q181 0 287 -112.5t106 -315.5q0 -86 -18.5 -173t-61.5 -174t-105.5 -154t-157.5 -108.5t-210 -41.5q-187 0 -288 110.5t-101 306.5q0 89 20.5 180t65 178t107.5 154.5t155.5 108.5t200.5 41zM608 918q-86 0 -156.5 -49.5t-113 -127.5t-65.5 -167t-23 -175
q0 -132 60 -205t173 -73q72 0 133 32.5t102.5 86t70.5 121.5t42 138t13 138q0 134 -59.5 207.5t-176.5 73.5zM639 1454h156l166 -272h-162l-99 176l-170 -176h-170zM1180 1677h209l-322 -260h-158z" />
    <glyph glyph-name="uni1ED2" unicode="&#x1ed2;" horiz-adv-x="1486" 
d="M872 1446q261 0 402 -158.5t141 -431.5q0 -128 -27.5 -251t-88 -237t-146.5 -199.5t-213 -137t-278 -51.5q-257 0 -398 157.5t-141 415.5q0 128 29.5 254t91 241.5t148 204t211 141t269.5 52.5zM860 1296q-91 0 -171 -31.5t-139.5 -85.5t-106.5 -126t-76.5 -154.5
t-44.5 -168.5t-15 -171q0 -125 39 -219.5t125.5 -152.5t212.5 -58q108 0 199 42.5t154 114.5t107.5 166.5t65.5 198t21 209.5q0 201 -94.5 318.5t-276.5 117.5zM866 1792h174l201 -233h-170l-131 141l-186 -141h-191zM1069 1997h199l219 -254h-150z" />
    <glyph glyph-name="uni1ED3" unicode="&#x1ed3;" horiz-adv-x="1097" 
d="M625 1059q181 0 287 -112.5t106 -315.5q0 -86 -18.5 -173t-61.5 -174t-105.5 -154t-157.5 -108.5t-210 -41.5q-187 0 -288 110.5t-101 306.5q0 89 20.5 180t65 178t107.5 154.5t155.5 108.5t200.5 41zM608 918q-86 0 -156.5 -49.5t-113 -127.5t-65.5 -167t-23 -175
q0 -132 60 -205t173 -73q72 0 133 32.5t102.5 86t70.5 121.5t42 138t13 138q0 134 -59.5 207.5t-176.5 73.5zM637 1450h158l166 -272h-162l-99 176l-172 -176h-168zM829 1679h181l184 -297h-139z" />
    <glyph glyph-name="uni1ED4" unicode="&#x1ed4;" horiz-adv-x="1486" 
d="M872 1446q261 0 402 -158.5t141 -431.5q0 -128 -27.5 -251t-88 -237t-146.5 -199.5t-213 -137t-278 -51.5q-257 0 -398 157.5t-141 415.5q0 128 29.5 254t91 241.5t148 204t211 141t269.5 52.5zM860 1296q-91 0 -171 -31.5t-139.5 -85.5t-106.5 -126t-76.5 -154.5
t-44.5 -168.5t-15 -171q0 -125 39 -219.5t125.5 -152.5t212.5 -58q108 0 199 42.5t154 114.5t107.5 166.5t65.5 198t21 209.5q0 201 -94.5 318.5t-276.5 117.5zM860 1792h176l201 -236h-170l-131 144l-186 -144h-193zM1341 1747h-161q143 88 143 164q0 53 -66 53
q-57 0 -110 -29l-23 95q77 51 179 51q78 0 119.5 -40.5t41.5 -96.5q0 -108 -123 -197z" />
    <glyph glyph-name="uni1ED5" unicode="&#x1ed5;" horiz-adv-x="1097" 
d="M625 1059q181 0 287 -112.5t106 -315.5q0 -86 -18.5 -173t-61.5 -174t-105.5 -154t-157.5 -108.5t-210 -41.5q-187 0 -288 110.5t-101 306.5q0 89 20.5 180t65 178t107.5 154.5t155.5 108.5t200.5 41zM608 918q-86 0 -156.5 -49.5t-113 -127.5t-65.5 -167t-23 -175
q0 -132 60 -205t173 -73q72 0 133 32.5t102.5 86t70.5 121.5t42 138t13 138q0 134 -59.5 207.5t-176.5 73.5zM637 1450h158l166 -272h-162l-99 176l-172 -176h-168zM1094 1384h-148q31 21 45.5 31.5t43 35.5t42 50t13.5 51q0 22 -16.5 34.5t-45.5 12.5q-69 0 -115 -32
l-20 92q78 57 182 57q70 0 111 -39t41 -94q0 -65 -37 -116t-96 -83z" />
    <glyph glyph-name="uni1ED6" unicode="&#x1ed6;" horiz-adv-x="1486" 
d="M872 1446q261 0 402 -158.5t141 -431.5q0 -128 -27.5 -251t-88 -237t-146.5 -199.5t-213 -137t-278 -51.5q-257 0 -398 157.5t-141 415.5q0 128 29.5 254t91 241.5t148 204t211 141t269.5 52.5zM860 1296q-91 0 -171 -31.5t-139.5 -85.5t-106.5 -126t-76.5 -154.5
t-44.5 -168.5t-15 -171q0 -125 39 -219.5t125.5 -152.5t212.5 -58q108 0 199 42.5t154 114.5t107.5 166.5t65.5 198t21 209.5q0 201 -94.5 318.5t-276.5 117.5zM774 1831h-123l6 29q35 165 185 165q68 0 163 -36.5t128 -36.5q54 0 67 55l2 14h121l-4 -24q-27 -168 -189 -168
q-55 0 -148.5 38t-137.5 38q-54 0 -66 -62zM850 1753h194l201 -197h-180l-127 113l-172 -113h-199z" />
    <glyph glyph-name="uni1ED7" unicode="&#x1ed7;" horiz-adv-x="1097" 
d="M625 1059q181 0 287 -112.5t106 -315.5q0 -86 -18.5 -173t-61.5 -174t-105.5 -154t-157.5 -108.5t-210 -41.5q-187 0 -288 110.5t-101 306.5q0 89 20.5 180t65 178t107.5 154.5t155.5 108.5t200.5 41zM608 918q-86 0 -156.5 -49.5t-113 -127.5t-65.5 -167t-23 -175
q0 -132 60 -205t173 -73q72 0 133 32.5t102.5 86t70.5 121.5t42 138t13 138q0 134 -59.5 207.5t-176.5 73.5zM551 1462h-109l7 37q23 154 169 154q59 0 140.5 -37t105.5 -37q25 0 39 12.5t21 44.5l4 15h106l-4 -27q-13 -89 -54.5 -125.5t-109.5 -36.5q-49 0 -133 37t-115 37
q-51 0 -65 -61zM612 1378h168l185 -213h-166l-115 129l-164 -129h-176z" />
    <glyph glyph-name="uni1ED8" unicode="&#x1ed8;" horiz-adv-x="1486" 
d="M872 1446q261 0 402 -158.5t141 -431.5q0 -128 -27.5 -251t-88 -237t-146.5 -199.5t-213 -137t-278 -51.5q-257 0 -398 157.5t-141 415.5q0 128 29.5 254t91 241.5t148 204t211 141t269.5 52.5zM860 1296q-91 0 -171 -31.5t-139.5 -85.5t-106.5 -126t-76.5 -154.5
t-44.5 -168.5t-15 -171q0 -125 39 -219.5t125.5 -152.5t212.5 -58q108 0 199 42.5t154 114.5t107.5 166.5t65.5 198t21 209.5q0 201 -94.5 318.5t-276.5 117.5zM662 -377h-183l47 221h181zM899 1817h172l211 -265h-172l-137 166l-209 -166h-189z" />
    <glyph glyph-name="uni1ED9" unicode="&#x1ed9;" horiz-adv-x="1097" 
d="M625 1059q181 0 287 -112.5t106 -315.5q0 -86 -18.5 -173t-61.5 -174t-105.5 -154t-157.5 -108.5t-210 -41.5q-187 0 -288 110.5t-101 306.5q0 89 20.5 180t65 178t107.5 154.5t155.5 108.5t200.5 41zM608 918q-86 0 -156.5 -49.5t-113 -127.5t-65.5 -167t-23 -175
q0 -132 60 -205t173 -73q72 0 133 32.5t102.5 86t70.5 121.5t42 138t13 138q0 134 -59.5 207.5t-176.5 73.5zM471 -377h-182l47 221h180zM659 1516h166l148 -293h-162l-88 190l-178 -190h-172z" />
    <glyph glyph-name="uni1EDA" unicode="&#x1eda;" horiz-adv-x="1486" 
d="M872 1446q248 0 388 -143q74 12 104.5 51t30.5 112q0 46 -6 76h163q4 -24 4 -61q0 -119 -54.5 -192.5t-158.5 -100.5q72 -141 72 -332q0 -128 -27.5 -251t-88 -237t-146.5 -199.5t-213 -137t-278 -51.5q-257 0 -398 157.5t-141 415.5q0 128 29.5 254t91 241.5t148 204
t211 141t269.5 52.5zM860 1296q-91 0 -171 -31.5t-139.5 -85.5t-106.5 -126t-76.5 -154.5t-44.5 -168.5t-15 -171q0 -125 39 -219.5t125.5 -152.5t212.5 -58q108 0 199 42.5t154 114.5t107.5 166.5t65.5 198t21 209.5q0 201 -94.5 318.5t-276.5 117.5zM1174 1853h251
l-430 -280h-192z" />
    <glyph glyph-name="uni1EDB" unicode="&#x1edb;" horiz-adv-x="1097" 
d="M625 1059q179 0 282 -109q72 13 101.5 52t29.5 112q0 46 -6 76h164q4 -24 4 -62q0 -239 -217 -294q35 -87 35 -203q0 -86 -18.5 -173t-61.5 -174t-105.5 -154t-157.5 -108.5t-210 -41.5q-187 0 -288 110.5t-101 306.5q0 89 20.5 180t65 178t107.5 154.5t155.5 108.5
t200.5 41zM608 918q-86 0 -156.5 -49.5t-113 -127.5t-65.5 -167t-23 -175q0 -132 60 -205t173 -73q72 0 133 32.5t102.5 86t70.5 121.5t42 138t13 138q0 134 -59.5 207.5t-176.5 73.5zM909 1528h234l-412 -311h-184z" />
    <glyph glyph-name="uni1EDC" unicode="&#x1edc;" horiz-adv-x="1486" 
d="M872 1446q248 0 388 -143q74 12 104.5 51t30.5 112q0 46 -6 76h163q4 -24 4 -61q0 -119 -54.5 -192.5t-158.5 -100.5q72 -141 72 -332q0 -128 -27.5 -251t-88 -237t-146.5 -199.5t-213 -137t-278 -51.5q-257 0 -398 157.5t-141 415.5q0 128 29.5 254t91 241.5t148 204
t211 141t269.5 52.5zM860 1296q-91 0 -171 -31.5t-139.5 -85.5t-106.5 -126t-76.5 -154.5t-44.5 -168.5t-15 -171q0 -125 39 -219.5t125.5 -152.5t212.5 -58q108 0 199 42.5t154 114.5t107.5 166.5t65.5 198t21 209.5q0 201 -94.5 318.5t-276.5 117.5zM535 1833h225
l280 -281h-178z" />
    <glyph glyph-name="uni1EDD" unicode="&#x1edd;" horiz-adv-x="1097" 
d="M625 1059q179 0 282 -109q72 13 101.5 52t29.5 112q0 46 -6 76h164q4 -24 4 -62q0 -239 -217 -294q35 -87 35 -203q0 -86 -18.5 -173t-61.5 -174t-105.5 -154t-157.5 -108.5t-210 -41.5q-187 0 -288 110.5t-101 306.5q0 89 20.5 180t65 178t107.5 154.5t155.5 108.5
t200.5 41zM608 918q-86 0 -156.5 -49.5t-113 -127.5t-65.5 -167t-23 -175q0 -132 60 -205t173 -73q72 0 133 32.5t102.5 86t70.5 121.5t42 138t13 138q0 134 -59.5 207.5t-176.5 73.5zM365 1528h196l223 -311h-157z" />
    <glyph glyph-name="uni1EDE" unicode="&#x1ede;" horiz-adv-x="1486" 
d="M872 1446q248 0 388 -143q74 12 104.5 51t30.5 112q0 46 -6 76h163q4 -24 4 -61q0 -119 -54.5 -192.5t-158.5 -100.5q72 -141 72 -332q0 -128 -27.5 -251t-88 -237t-146.5 -199.5t-213 -137t-278 -51.5q-257 0 -398 157.5t-141 415.5q0 128 29.5 254t91 241.5t148 204
t211 141t269.5 52.5zM860 1296q-91 0 -171 -31.5t-139.5 -85.5t-106.5 -126t-76.5 -154.5t-44.5 -168.5t-15 -171q0 -125 39 -219.5t125.5 -152.5t212.5 -58q108 0 199 42.5t154 114.5t107.5 166.5t65.5 198t21 209.5q0 201 -94.5 318.5t-276.5 117.5zM995 1544h-172
q166 98 166 176q0 28 -19 47t-61 19q-59 0 -123 -33l-26 98q81 56 192 56q90 0 138.5 -45.5t48.5 -106.5q0 -119 -144 -211z" />
    <glyph glyph-name="uni1EDF" unicode="&#x1edf;" horiz-adv-x="1097" 
d="M625 1059q179 0 282 -109q72 13 101.5 52t29.5 112q0 46 -6 76h164q4 -24 4 -62q0 -239 -217 -294q35 -87 35 -203q0 -86 -18.5 -173t-61.5 -174t-105.5 -154t-157.5 -108.5t-210 -41.5q-187 0 -288 110.5t-101 306.5q0 89 20.5 180t65 178t107.5 154.5t155.5 108.5
t200.5 41zM608 918q-86 0 -156.5 -49.5t-113 -127.5t-65.5 -167t-23 -175q0 -132 60 -205t173 -73q72 0 133 32.5t102.5 86t70.5 121.5t42 138t13 138q0 134 -59.5 207.5t-176.5 73.5zM745 1196h-172q166 98 166 176q0 28 -19 47t-61 19q-58 0 -122 -33l-27 98q81 56 192 56
q90 0 138.5 -45.5t48.5 -106.5q0 -119 -144 -211z" />
    <glyph glyph-name="uni1EE0" unicode="&#x1ee0;" horiz-adv-x="1486" 
d="M872 1446q248 0 388 -143q74 12 104.5 51t30.5 112q0 46 -6 76h163q4 -24 4 -61q0 -119 -54.5 -192.5t-158.5 -100.5q72 -141 72 -332q0 -128 -27.5 -251t-88 -237t-146.5 -199.5t-213 -137t-278 -51.5q-257 0 -398 157.5t-141 415.5q0 128 29.5 254t91 241.5t148 204
t211 141t269.5 52.5zM860 1296q-91 0 -171 -31.5t-139.5 -85.5t-106.5 -126t-76.5 -154.5t-44.5 -168.5t-15 -171q0 -125 39 -219.5t125.5 -152.5t212.5 -58q108 0 199 42.5t154 114.5t107.5 166.5t65.5 198t21 209.5q0 201 -94.5 318.5t-276.5 117.5zM715 1573h-123l8 51
q16 103 62 142.5t122 39.5q51 0 110 -26t109 -52t80 -26q31 0 48 19.5t26 68.5l2 18h125l-10 -57q-19 -103 -65.5 -143.5t-125.5 -40.5q-49 0 -104.5 26t-105 52t-82.5 26q-58 0 -68 -61z" />
    <glyph glyph-name="uni1EE1" unicode="&#x1ee1;" horiz-adv-x="1097" 
d="M625 1059q179 0 282 -109q72 13 101.5 52t29.5 112q0 46 -6 76h164q4 -24 4 -62q0 -239 -217 -294q35 -87 35 -203q0 -86 -18.5 -173t-61.5 -174t-105.5 -154t-157.5 -108.5t-210 -41.5q-187 0 -288 110.5t-101 306.5q0 89 20.5 180t65 178t107.5 154.5t155.5 108.5
t200.5 41zM608 918q-86 0 -156.5 -49.5t-113 -127.5t-65.5 -167t-23 -175q0 -132 60 -205t173 -73q72 0 133 32.5t102.5 86t70.5 121.5t42 138t13 138q0 134 -59.5 207.5t-176.5 73.5zM508 1245h-123l10 51q19 103 64 142t123 39q47 0 99.5 -25.5t96 -50.5t68.5 -25
q26 0 42 18.5t25 67.5l5 21h120l-8 -45q-19 -109 -63.5 -152t-120.5 -43q-44 0 -94.5 25.5t-95.5 51.5t-76 26q-47 0 -64 -68z" />
    <glyph glyph-name="uni1EE2" unicode="&#x1ee2;" horiz-adv-x="1486" 
d="M872 1446q248 0 388 -143q74 12 104.5 51t30.5 112q0 46 -6 76h163q4 -24 4 -61q0 -119 -54.5 -192.5t-158.5 -100.5q72 -141 72 -332q0 -128 -27.5 -251t-88 -237t-146.5 -199.5t-213 -137t-278 -51.5q-257 0 -398 157.5t-141 415.5q0 128 29.5 254t91 241.5t148 204
t211 141t269.5 52.5zM860 1296q-91 0 -171 -31.5t-139.5 -85.5t-106.5 -126t-76.5 -154.5t-44.5 -168.5t-15 -171q0 -125 39 -219.5t125.5 -152.5t212.5 -58q108 0 199 42.5t154 114.5t107.5 166.5t65.5 198t21 209.5q0 201 -94.5 318.5t-276.5 117.5zM662 -385h-183l47 221
h181z" />
    <glyph glyph-name="uni1EE3" unicode="&#x1ee3;" horiz-adv-x="1097" 
d="M625 1059q179 0 282 -109q72 13 101.5 52t29.5 112q0 46 -6 76h164q4 -24 4 -62q0 -239 -217 -294q35 -87 35 -203q0 -86 -18.5 -173t-61.5 -174t-105.5 -154t-157.5 -108.5t-210 -41.5q-187 0 -288 110.5t-101 306.5q0 89 20.5 180t65 178t107.5 154.5t155.5 108.5
t200.5 41zM608 918q-86 0 -156.5 -49.5t-113 -127.5t-65.5 -167t-23 -175q0 -132 60 -205t173 -73q72 0 133 32.5t102.5 86t70.5 121.5t42 138t13 138q0 134 -59.5 207.5t-176.5 73.5zM471 -377h-182l47 221h180z" />
    <glyph glyph-name="uni1EE4" unicode="&#x1ee4;" horiz-adv-x="1376" 
d="M346 1425h178l-186 -874q-22 -116 -12.5 -196t53.5 -130t105.5 -72t144.5 -22q188 0 275.5 92t135.5 326l189 876h178l-190 -890q-32 -153 -77.5 -254.5t-117 -170t-171 -98.5t-241.5 -30q-124 0 -218 32t-159.5 102t-83 180t12.5 265zM621 -371h-183l47 221h181z" />
    <glyph glyph-name="uni1EE5" unicode="&#x1ee5;" horiz-adv-x="1110" 
d="M1065 1038l-162 -759q-30 -141 -53 -279h-166q4 68 29 178q-55 -93 -143 -145.5t-205 -52.5q-99 0 -163 38t-92.5 123t1.5 221l147 676h166l-139 -659q-12 -55 -13 -96.5t11 -79.5t49 -58t98 -20q126 0 220 101.5t138 312.5l107 499h170zM461 -385h-182l47 221h180z" />
    <glyph glyph-name="uni1EE6" unicode="&#x1ee6;" horiz-adv-x="1376" 
d="M346 1425h178l-186 -874q-22 -116 -12.5 -196t53.5 -130t105.5 -72t144.5 -22q188 0 275.5 92t135.5 326l189 876h178l-190 -890q-32 -153 -77.5 -254.5t-117 -170t-171 -98.5t-241.5 -30q-124 0 -218 32t-159.5 102t-83 180t12.5 265zM934 1513h-172q166 98 166 177
q0 28 -19 46.5t-61 18.5q-59 0 -123 -33l-27 99q80 55 193 55q90 0 138 -45t48 -107q0 -120 -143 -211z" />
    <glyph glyph-name="uni1EE7" unicode="&#x1ee7;" horiz-adv-x="1110" 
d="M1065 1038l-162 -759q-30 -141 -53 -279h-166q4 68 29 178q-55 -93 -143 -145.5t-205 -52.5q-99 0 -163 38t-92.5 123t1.5 221l147 676h166l-139 -659q-12 -55 -13 -96.5t11 -79.5t49 -58t98 -20q126 0 220 101.5t138 312.5l107 499h170zM741 1196h-172q166 98 166 176
q0 28 -19 47t-61 19q-59 0 -123 -33l-26 98q81 56 192 56q90 0 138.5 -45.5t48.5 -106.5q0 -119 -144 -211z" />
    <glyph glyph-name="uni1EE8" unicode="&#x1ee8;" horiz-adv-x="1376" 
d="M346 1425h178l-186 -874q-22 -116 -12.5 -196t53.5 -130t105.5 -72t144.5 -22q188 0 275.5 92t135.5 326l189 876h51q93 7 130.5 47t37.5 121q0 46 -6 76h164q4 -24 4 -61q0 -246 -228 -297l-165 -776q-32 -153 -77.5 -254.5t-117 -170t-171 -98.5t-241.5 -30
q-124 0 -218 32t-159.5 102t-83 180t12.5 265zM1108 1823h252l-430 -281h-193z" />
    <glyph glyph-name="uni1EE9" unicode="&#x1ee9;" horiz-adv-x="1110" 
d="M713 178q-55 -93 -143 -145.5t-205 -52.5q-99 0 -163 38t-92.5 123t1.5 221l147 676h166l-139 -659q-12 -55 -13 -96.5t11 -79.5t49 -58t98 -20q126 0 220 101.5t138 312.5l107 499h55v2q93 7 130.5 47t37.5 121q0 46 -6 76h164q4 -24 4 -61q0 -254 -240 -299l-137 -645
q-30 -141 -53 -279h-166q4 68 29 178zM905 1528h234l-412 -311h-184z" />
    <glyph glyph-name="uni1EEA" unicode="&#x1eea;" horiz-adv-x="1376" 
d="M346 1425h178l-186 -874q-22 -116 -12.5 -196t53.5 -130t105.5 -72t144.5 -22q188 0 275.5 92t135.5 326l189 876h51q93 7 130.5 47t37.5 121q0 46 -6 76h164q4 -24 4 -61q0 -246 -228 -297l-165 -776q-32 -153 -77.5 -254.5t-117 -170t-171 -98.5t-241.5 -30
q-124 0 -218 32t-159.5 102t-83 180t12.5 265zM510 1823h225l281 -281h-178z" />
    <glyph glyph-name="uni1EEB" unicode="&#x1eeb;" horiz-adv-x="1110" 
d="M713 178q-55 -93 -143 -145.5t-205 -52.5q-99 0 -163 38t-92.5 123t1.5 221l147 676h166l-139 -659q-12 -55 -13 -96.5t11 -79.5t49 -58t98 -20q126 0 220 101.5t138 312.5l107 499h55v2q93 7 130.5 47t37.5 121q0 46 -6 76h164q4 -24 4 -61q0 -254 -240 -299l-137 -645
q-30 -141 -53 -279h-166q4 68 29 178zM375 1528h196l224 -311h-158z" />
    <glyph glyph-name="uni1EEC" unicode="&#x1eec;" horiz-adv-x="1376" 
d="M346 1425h178l-186 -874q-22 -116 -12.5 -196t53.5 -130t105.5 -72t144.5 -22q188 0 275.5 92t135.5 326l189 876h51q93 7 130.5 47t37.5 121q0 46 -6 76h164q4 -24 4 -61q0 -246 -228 -297l-165 -776q-32 -153 -77.5 -254.5t-117 -170t-171 -98.5t-241.5 -30
q-124 0 -218 32t-159.5 102t-83 180t12.5 265zM936 1511h-172q166 98 166 177q0 28 -19 46.5t-61 18.5q-59 0 -123 -33l-27 99q80 55 193 55q90 0 138 -45t48 -107q0 -120 -143 -211z" />
    <glyph glyph-name="uni1EED" unicode="&#x1eed;" horiz-adv-x="1110" 
d="M713 178q-55 -93 -143 -145.5t-205 -52.5q-99 0 -163 38t-92.5 123t1.5 221l147 676h166l-139 -659q-12 -55 -13 -96.5t11 -79.5t49 -58t98 -20q126 0 220 101.5t138 312.5l107 499h55v2q93 7 130.5 47t37.5 121q0 46 -6 76h164q4 -24 4 -61q0 -254 -240 -299l-137 -645
q-30 -141 -53 -279h-166q4 68 29 178zM758 1196h-172q166 98 166 176q0 28 -19 47t-61 19q-59 0 -123 -33l-27 98q81 56 193 56q90 0 138 -45t48 -107q0 -120 -143 -211z" />
    <glyph glyph-name="uni1EEE" unicode="&#x1eee;" horiz-adv-x="1376" 
d="M346 1425h178l-186 -874q-22 -116 -12.5 -196t53.5 -130t105.5 -72t144.5 -22q188 0 275.5 92t135.5 326l189 876h51q93 7 130.5 47t37.5 121q0 46 -6 76h164q4 -24 4 -61q0 -246 -228 -297l-165 -776q-32 -153 -77.5 -254.5t-117 -170t-171 -98.5t-241.5 -30
q-124 0 -218 32t-159.5 102t-83 180t12.5 265zM698 1563h-123l9 51q16 103 62 142.5t122 39.5q51 0 110 -26t109 -52t80 -26q31 0 48 19.5t26 68.5l2 18h125l-11 -57q-19 -104 -65.5 -144.5t-124.5 -40.5q-39 0 -83 16.5t-76 36t-69.5 36t-64.5 16.5q-57 0 -67 -62z" />
    <glyph glyph-name="uni1EEF" unicode="&#x1eef;" horiz-adv-x="1110" 
d="M713 178q-55 -93 -143 -145.5t-205 -52.5q-99 0 -163 38t-92.5 123t1.5 221l147 676h166l-139 -659q-12 -55 -13 -96.5t11 -79.5t49 -58t98 -20q126 0 220 101.5t138 312.5l107 499h55v2q93 7 130.5 47t37.5 121q0 46 -6 76h164q4 -24 4 -61q0 -254 -240 -299l-137 -645
q-30 -141 -53 -279h-166q4 68 29 178zM514 1245h-123l10 51q19 103 64 142t123 39q47 0 99.5 -25.5t96 -50.5t68.5 -25q27 0 43 19t25 67l4 21h120l-8 -45q-19 -109 -63.5 -152t-120.5 -43q-44 0 -94.5 25.5t-95.5 51.5t-76 26q-47 0 -64 -68z" />
    <glyph glyph-name="uni1EF0" unicode="&#x1ef0;" horiz-adv-x="1376" 
d="M346 1425h178l-186 -874q-22 -116 -12.5 -196t53.5 -130t105.5 -72t144.5 -22q188 0 275.5 92t135.5 326l189 876h51q93 7 130.5 47t37.5 121q0 46 -6 76h164q4 -24 4 -61q0 -246 -228 -297l-165 -776q-32 -153 -77.5 -254.5t-117 -170t-171 -98.5t-241.5 -30
q-124 0 -218 32t-159.5 102t-83 180t12.5 265zM614 -371h-182l47 221h180z" />
    <glyph glyph-name="uni1EF1" unicode="&#x1ef1;" horiz-adv-x="1110" 
d="M713 178q-55 -93 -143 -145.5t-205 -52.5q-99 0 -163 38t-92.5 123t1.5 221l147 676h166l-139 -659q-12 -55 -13 -96.5t11 -79.5t49 -58t98 -20q126 0 220 101.5t138 312.5l107 499h55v2q93 7 130.5 47t37.5 121q0 46 -6 76h164q4 -24 4 -61q0 -254 -240 -299l-137 -645
q-30 -141 -53 -279h-166q4 68 29 178zM473 -377h-182l47 221h180z" />
    <glyph glyph-name="Ygrave" unicode="&#x1ef2;" horiz-adv-x="1132" 
d="M524 0h-176l111 535q3 21 -2 36l-312 854h189q31 -93 130.5 -376t119.5 -351q29 44 100 139.5t137 181t169 218.5t145 188h196l-678 -864q-13 -17 -16 -37zM332 1812h225l281 -280h-179z" />
    <glyph glyph-name="ygrave" unicode="&#x1ef3;" horiz-adv-x="978" 
d="M119 1038h170q100 -729 110 -905h2q18 34 78.5 160t160 324.5t216.5 420.5h180l-577 -1095q-54 -103 -100.5 -171t-86 -108t-87 -60.5t-88 -26t-105.5 -5.5q-69 0 -119 12l35 150q46 -8 94 -8q67 0 112.5 22t80 65t84.5 130zM272 1522h197l223 -312h-157z" />
    <glyph glyph-name="uni1EF4" unicode="&#x1ef4;" horiz-adv-x="1132" 
d="M524 0h-176l111 535q3 21 -2 36l-312 854h189q31 -93 130.5 -376t119.5 -351q29 44 100 139.5t137 181t169 218.5t145 188h196l-678 -864q-13 -17 -16 -37zM455 -377h-183l47 221h181z" />
    <glyph glyph-name="uni1EF5" unicode="&#x1ef5;" horiz-adv-x="978" 
d="M119 1038h170q100 -729 110 -905h2q18 34 78.5 160t160 324.5t216.5 420.5h180l-577 -1095q-54 -103 -100.5 -171t-86 -108t-87 -60.5t-88 -26t-105.5 -5.5q-69 0 -119 12l35 150q46 -8 94 -8q67 0 112.5 22t80 65t84.5 130zM725 -403h-182l47 221h180z" />
    <glyph glyph-name="uni1EF6" unicode="&#x1ef6;" horiz-adv-x="1132" 
d="M524 0h-176l111 535q3 21 -2 36l-312 854h189q31 -93 130.5 -376t119.5 -351q29 44 100 139.5t137 181t169 218.5t145 188h196l-678 -864q-13 -17 -16 -37zM782 1505h-172q166 98 166 176q0 28 -19 47t-61 19q-59 0 -123 -33l-26 98q81 56 192 56q90 0 138.5 -45.5
t48.5 -106.5q0 -119 -144 -211z" />
    <glyph glyph-name="uni1EF7" unicode="&#x1ef7;" horiz-adv-x="978" 
d="M119 1038h170q100 -729 110 -905h2q18 34 78.5 160t160 324.5t216.5 420.5h180l-577 -1095q-54 -103 -100.5 -171t-86 -108t-87 -60.5t-88 -26t-105.5 -5.5q-69 0 -119 12l35 150q46 -8 94 -8q67 0 112.5 22t80 65t84.5 130zM651 1196h-172q166 98 166 176q0 28 -19 47
t-61 19q-59 0 -123 -33l-26 98q81 56 192 56q90 0 138.5 -45.5t48.5 -106.5q0 -119 -144 -211z" />
    <glyph glyph-name="uni1EF8" unicode="&#x1ef8;" horiz-adv-x="1132" 
d="M524 0h-176l111 535q3 21 -2 36l-312 854h189q31 -93 130.5 -376t119.5 -351q29 44 100 139.5t137 181t169 218.5t145 188h196l-678 -864q-13 -17 -16 -37zM537 1556h-123l8 52q16 103 62 142.5t122 39.5q51 0 110 -26t109 -52t80 -26q31 0 48 19.5t26 68.5l2 18h125
l-10 -57q-19 -103 -65.5 -144t-125.5 -41q-39 0 -83 16.5t-76 36t-69.5 36t-64.5 16.5q-57 0 -67 -62z" />
    <glyph glyph-name="uni1EF9" unicode="&#x1ef9;" horiz-adv-x="978" 
d="M119 1038h170q100 -729 110 -905h2q18 34 78.5 160t160 324.5t216.5 420.5h180l-577 -1095q-54 -103 -100.5 -171t-86 -108t-87 -60.5t-88 -26t-105.5 -5.5q-69 0 -119 12l35 150q46 -8 94 -8q67 0 112.5 22t80 65t84.5 130zM414 1245h-123l10 51q19 103 64 142t122 39
q47 0 99.5 -25.5t96.5 -50.5t69 -25q26 0 42 18.5t25 67.5l4 21h121l-8 -45q-19 -109 -63.5 -152t-120.5 -43q-35 0 -75 16t-69.5 35.5t-63.5 35.5t-59 16q-46 0 -63 -68z" />
    <glyph glyph-name="uni2007" unicode="&#x2007;" horiz-adv-x="1118" 
 />
    <glyph glyph-name="uni2010" unicode="&#x2010;" horiz-adv-x="745" 
d="M129 602h518l-33 -156h-518z" />
    <glyph glyph-name="figuredash" unicode="&#x2012;" horiz-adv-x="1118" 
d="M207 748h737l-33 -160h-737z" />
    <glyph glyph-name="endash" unicode="&#x2013;" horiz-adv-x="1013" 
d="M129 602h786l-32 -156h-787z" />
    <glyph glyph-name="emdash" unicode="&#x2014;" horiz-adv-x="1832" 
d="M129 602h1606l-33 -156h-1606z" />
    <glyph glyph-name="uni2015" unicode="&#x2015;" horiz-adv-x="1832" 
d="M129 602h1606l-33 -156h-1606z" />
    <glyph glyph-name="quoteleft" unicode="&#x2018;" horiz-adv-x="407" 
d="M403 1503h148q-74 -120 -136.5 -272.5t-86.5 -263.5h-174q30 134 104 290.5t145 245.5z" />
    <glyph glyph-name="quoteright" unicode="&#x2019;" horiz-adv-x="415" 
d="M293 967h-148q74 120 137 273t87 263h174q-31 -133 -105.5 -289.5t-144.5 -246.5z" />
    <glyph glyph-name="quotesinglbase" unicode="&#x201a;" horiz-adv-x="415" 
d="M-10 -264h-150q74 120 136.5 273t86.5 265h177q-31 -134 -105.5 -291t-144.5 -247z" />
    <glyph glyph-name="quotedblleft" unicode="&#x201c;" horiz-adv-x="733" 
d="M729 1503h145q-75 -131 -135 -276t-86 -260h-168q30 136 102.5 289.5t141.5 246.5zM399 1503h146q-72 -124 -134.5 -273t-86.5 -263h-168q32 139 104.5 294.5t138.5 241.5z" />
    <glyph glyph-name="quotedblright" unicode="&#x201d;" horiz-adv-x="741" 
d="M293 967h-146q76 132 136 277t84 259h170q-32 -137 -104 -291t-140 -245zM623 967h-146q71 124 133 273t88 263h168q-32 -139 -104.5 -294.5t-138.5 -241.5z" />
    <glyph glyph-name="quotedblbase" unicode="&#x201e;" horiz-adv-x="692" 
d="M-8 -264h-146q76 131 136 276t86 260h168q-31 -137 -103 -291t-141 -245zM322 -264h-144q72 123 133.5 272t85.5 264h170q-34 -141 -106 -296.5t-139 -239.5z" />
    <glyph glyph-name="dagger" unicode="&#x2020;" horiz-adv-x="1001" 
d="M547 1329h160l-107 -452l330 12l-33 -158l-326 12l-204 -1013h-160l229 1013l-334 -12l33 158l330 -12z" />
    <glyph glyph-name="daggerdbl" unicode="&#x2021;" horiz-adv-x="1001" 
d="M346 315l103 482l-334 -11l30 156l330 -14l72 401h160l-97 -401l332 14l-33 -156l-325 11l-103 -482l330 11l-33 -156l-325 14l-86 -454h-160l110 454l-333 -14l32 156z" />
    <glyph glyph-name="bullet" unicode="&#x2022;" horiz-adv-x="747" 
d="M221 727h383l-90 -412h-381z" />
    <glyph glyph-name="ellipsis" unicode="&#x2026;" horiz-adv-x="1658" 
d="M229 -2h-182l66 303h180zM788 -2h-182l66 303h180zM1341 -2h-182l66 303h180z" />
    <glyph glyph-name="perthousand" unicode="&#x2030;" horiz-adv-x="2572" 
d="M2204 748q127 0 199.5 -74t72.5 -209q0 -95 -27.5 -182t-78 -155.5t-129 -109.5t-173.5 -41q-130 0 -200 78.5t-70 210.5q0 85 26 169t75 154.5t128.5 114.5t176.5 44zM2185 629q-60 0 -108.5 -36.5t-75.5 -92.5t-41 -114.5t-14 -111.5q0 -176 143 -176q50 0 92.5 24.5
t69 62.5t45.5 86.5t27 94t8 87.5q0 176 -146 176zM561 1368q129 0 201 -74t72 -209q0 -96 -27 -183t-77.5 -155t-129 -108.5t-174.5 -40.5q-131 0 -200.5 77.5t-69.5 211.5q0 84 26.5 167.5t75 154.5t128 115t175.5 44zM543 1249q-60 0 -108.5 -36.5t-76 -92.5t-41.5 -114.5
t-14 -110.5q0 -176 146 -176q62 0 110.5 36t75.5 92t41 114t14 110q0 178 -147 178zM455 0h-154l1122 1348h154zM1440 748q128 0 200 -73.5t72 -209.5q0 -95 -27 -182t-77 -155.5t-128.5 -109.5t-174.5 -41q-131 0 -201 78.5t-70 210.5q0 85 26.5 169t75.5 154.5
t128.5 114.5t175.5 44zM1421 629q-60 0 -108.5 -36.5t-75.5 -92.5t-41 -114.5t-14 -111.5q0 -176 145 -176q62 0 111 36.5t76 92.5t41 114.5t14 111.5q0 176 -148 176z" />
    <glyph glyph-name="uni2032" unicode="&#x2032;" horiz-adv-x="458" 
d="M334 952h-141l198 551h172z" />
    <glyph glyph-name="uni2033" unicode="&#x2033;" horiz-adv-x="765" 
d="M319 952h-126l194 551h164zM641 952h-129l197 551h161z" />
    <glyph glyph-name="guilsinglleft" unicode="&#x2039;" horiz-adv-x="724" 
d="M711 928l-420 -408l233 -389h-162l-247 401l407 396h189z" />
    <glyph glyph-name="guilsinglright" unicode="&#x203a;" horiz-adv-x="733" 
d="M31 131l420 408l-234 389h162l248 -400l-408 -397h-188z" />
    <glyph glyph-name="fraction" unicode="&#x2044;" horiz-adv-x="468" 
d="M-213 0h-149l1118 1348h143z" />
    <glyph glyph-name="zero.sups" unicode="&#x2070;" horiz-adv-x="768" 
d="M496 1696q128 0 198 -79.5t70 -221.5q0 -77 -13.5 -151t-44.5 -143.5t-75.5 -122t-111.5 -84.5t-148 -32q-130 0 -200.5 83t-70.5 226q0 72 14 143.5t45.5 141t76.5 122.5t112 85.5t148 32.5zM479 1577q-60 0 -107 -42.5t-72.5 -107.5t-38.5 -131.5t-13 -126.5
q0 -94 37 -141t102 -47q63 0 110.5 44t72.5 111.5t36.5 134t11.5 126.5q0 92 -37 136t-102 44z" />
    <glyph glyph-name="four.sups" unicode="&#x2074;" horiz-adv-x="729" 
d="M537 877h-136l45 213h-397l23 104l458 494h179l-107 -492h121l-33 -106h-110zM217 1196h252l39 176q41 175 47 197q-24 -31 -338 -373z" />
    <glyph glyph-name="five.sups" unicode="&#x2075;" horiz-adv-x="753" 
d="M764 1688l-39 -117h-379q-57 -197 -59 -205q73 49 176 49q116 0 180 -67.5t64 -167.5q0 -142 -94.5 -228t-247.5 -86q-137 0 -210.5 69.5t-76.5 172.5h135q7 -61 51.5 -97t108.5 -36q86 0 135 50.5t49 135.5q0 64 -32 105t-107 41q-112 0 -178 -84l-115 26
q40 113 131 439h508z" />
    <glyph glyph-name="six.sups" unicode="&#x2076;" horiz-adv-x="749" 
d="M758 1479h-137q-7 45 -40 74.5t-96 29.5q-91 0 -149.5 -71.5t-79.5 -188.5q86 90 217 90q115 0 180.5 -69t65.5 -173q0 -134 -93 -221.5t-235 -87.5q-132 0 -212.5 83t-80.5 239q0 70 14 139.5t46 137t77.5 119t113.5 83t149 31.5q120 0 189 -62.5t71 -152.5zM393 975
q80 0 128 51t48 137q0 66 -36 104t-105 38q-75 0 -129.5 -43.5t-54.5 -116.5q0 -71 35.5 -120.5t113.5 -49.5z" />
    <glyph glyph-name="seven.sups" unicode="&#x2077;" horiz-adv-x="679" 
d="M186 1688h570l-21 -103q-132 -125 -261.5 -320t-205.5 -388h-159q69 181 207 383t257 311h-411z" />
    <glyph glyph-name="eight.sups" unicode="&#x2078;" horiz-adv-x="722" 
d="M365 862q-132 0 -206.5 62.5t-74.5 152.5q0 163 182 223q-41 21 -63.5 63t-22.5 87q0 110 82 178t217 68q122 0 189 -60t67 -141q0 -71 -40 -124.5t-111 -76.5q52 -21 85 -66t33 -102q0 -126 -96.5 -195t-240.5 -69zM469 1593q-66 0 -110 -36t-44 -101q0 -48 32.5 -77
t92.5 -29q65 0 109.5 34.5t44.5 98.5q0 48 -30.5 79t-94.5 31zM381 969q80 0 129 37.5t49 115.5q0 55 -40 87t-111 32q-76 0 -127.5 -39.5t-51.5 -111.5q0 -55 42 -88t110 -33z" />
    <glyph glyph-name="nine.sups" unicode="&#x2079;" horiz-adv-x="731" 
d="M76 1085h141q16 -112 143 -112q159 0 215 264q-82 -76 -200 -76q-108 0 -177 66.5t-69 169.5q0 127 87.5 213t227.5 86q134 0 210.5 -77.5t76.5 -223.5q0 -73 -10.5 -142.5t-37.5 -142t-69 -126t-111 -88t-157 -34.5q-128 0 -196.5 65t-73.5 158zM436 1583
q-76 0 -122 -48.5t-46 -125.5q0 -62 40 -98.5t104 -36.5q81 0 128.5 42t47.5 111q0 73 -39 114.5t-113 41.5z" />
    <glyph glyph-name="parenleft.sups" unicode="&#x207d;" horiz-adv-x="434" 
d="M403 1784h136q-160 -155 -227.5 -295.5t-67.5 -337.5q0 -226 73 -406h-120q-33 74 -56.5 182t-23.5 218q0 188 74 355t212 284z" />
    <glyph glyph-name="parenright.sups" unicode="&#x207e;" horiz-adv-x="434" 
d="M117 745h-135q160 161 227 301t67 338q0 218 -73 400h119q33 -74 56 -182t23 -218q0 -186 -75.5 -355.5t-208.5 -283.5z" />
    <glyph glyph-name="n.sups" unicode="&#x207f;" horiz-adv-x="757" 
d="M92 535l98 462q27 126 43 217h129q3 -14 -14 -100q84 117 234 117q39 0 74 -12.5t67 -43.5t41 -82t-4 -128l-92 -430h-138l86 403q9 50 7.5 88.5t-26.5 62t-75 23.5q-78 0 -136.5 -56.5t-82.5 -170.5l-76 -350h-135z" />
    <glyph glyph-name="zero.subs" unicode="&#x2080;" horiz-adv-x="768" 
d="M236 465q128 0 198 -79.5t70 -221.5q0 -77 -13.5 -151t-44.5 -143.5t-75.5 -122t-111.5 -84.5t-148 -32q-130 0 -200.5 83.5t-70.5 226.5q0 72 14 143.5t45.5 140.5t76.5 122t112 85.5t148 32.5zM219 346q-60 0 -107 -42t-72.5 -107t-38.5 -131.5t-13 -126.5
q0 -94 37 -141.5t102 -47.5q63 0 110.5 44t72.5 111.5t36.5 134t11.5 126.5q0 92 -37 136t-102 44z" />
    <glyph glyph-name="one.subs" unicode="&#x2081;" horiz-adv-x="491" 
d="M51 -360h-143l139 657q-79 -21 -162 -21l25 107q137 16 217 82h98z" />
    <glyph glyph-name="two.subs" unicode="&#x2082;" horiz-adv-x="714" 
d="M371 -358h-588l4 22q23 107 99.5 196.5t234.5 178.5q56 32 79 46t52 34.5t38 34.5t16 33.5t7 45.5q0 53 -32.5 84t-96.5 31q-129 0 -174 -145h-135q63 262 324 262q124 0 191 -65t67 -160q0 -67 -26.5 -115t-76 -85.5t-143.5 -86.5q-181 -96 -229 -195h432z" />
    <glyph glyph-name="three.subs" unicode="&#x2083;" horiz-adv-x="735" 
d="M-190 -117h135q9 -66 53 -104.5t119 -38.5q74 0 122 36t48 113q0 55 -35.5 90t-112.5 35h-78l25 115h68q155 0 155 125q0 44 -29.5 72t-91.5 28q-66 0 -99.5 -30t-57.5 -84h-133q7 29 18 55t34.5 58.5t55 55t83 38.5t114.5 16q120 0 186 -55.5t66 -147.5q0 -70 -39 -117
t-105 -67q45 -15 84 -61.5t39 -116.5q0 -114 -83 -190.5t-242 -76.5q-86 0 -148.5 25.5t-94 66t-45 81t-11.5 79.5z" />
    <glyph glyph-name="four.subs" unicode="&#x2084;" horiz-adv-x="729" 
d="M276 -354h-135l45 213h-397l23 104l458 494h179l-107 -492h121l-33 -106h-111zM-43 -35h252l39 176q41 175 47 197q-24 -31 -338 -373z" />
    <glyph glyph-name="five.subs" unicode="&#x2085;" horiz-adv-x="753" 
d="M504 457l-39 -117h-379q-57 -197 -59 -205q73 49 176 49q116 0 179.5 -67.5t63.5 -167.5q0 -142 -94.5 -228t-247.5 -86q-137 0 -210 69.5t-76 172.5h135q7 -61 51.5 -97t108.5 -36q86 0 135 50.5t49 135.5q0 64 -32 105t-107 41q-112 0 -178 -84l-115 26q40 113 131 439
h508z" />
    <glyph glyph-name="six.subs" unicode="&#x2086;" horiz-adv-x="749" 
d="M498 248h-138q-7 45 -39.5 74.5t-95.5 29.5q-91 0 -149.5 -71.5t-79.5 -188.5q86 90 217 90q115 0 180.5 -68.5t65.5 -172.5q0 -134 -93 -222t-235 -88q-132 0 -212.5 83t-80.5 239q0 70 14 139.5t46 137t77.5 119t113.5 83t149 31.5q120 0 189 -62.5t71 -152.5z
M133 -256q80 0 128 51t48 137q0 66 -36 104t-105 38q-75 0 -129.5 -43.5t-54.5 -116.5q0 -71 35.5 -120.5t113.5 -49.5z" />
    <glyph glyph-name="seven.subs" unicode="&#x2087;" horiz-adv-x="679" 
d="M-74 457h570l-21 -103q-132 -125 -261.5 -320t-205.5 -388h-160q69 181 207.5 383t257.5 311h-411z" />
    <glyph glyph-name="eight.subs" unicode="&#x2088;" horiz-adv-x="722" 
d="M104 -369q-132 0 -206 62.5t-74 152.5q0 80 46.5 137.5t135.5 86.5q-41 21 -63.5 62.5t-22.5 86.5q0 110 82 178t217 68q122 0 189 -60t67 -141q0 -71 -40 -124.5t-111 -76.5q53 -21 85.5 -65.5t32.5 -101.5q0 -126 -97 -195.5t-241 -69.5zM209 362q-66 0 -110 -36
t-44 -101q0 -48 32.5 -77t92.5 -29q65 0 109.5 34.5t44.5 98.5q0 48 -30.5 79t-94.5 31zM121 -262q80 0 129 37.5t49 115.5q0 55 -40.5 87t-111.5 32q-76 0 -127 -39.5t-51 -111.5q0 -55 42 -88t110 -33z" />
    <glyph glyph-name="nine.subs" unicode="&#x2089;" horiz-adv-x="731" 
d="M-184 -145h141q17 -113 143 -113q159 0 215 264q-82 -76 -200 -76q-108 0 -177 66.5t-69 169.5q0 127 87.5 213t227.5 86q134 0 210.5 -77.5t76.5 -223.5q0 -73 -10.5 -142.5t-37.5 -142t-69 -126t-111 -88t-157 -34.5q-128 0 -196.5 65.5t-73.5 158.5zM176 352
q-76 0 -122 -48.5t-46 -125.5q0 -62 40 -98.5t104 -36.5q81 0 128.5 42t47.5 112q0 73 -39 114t-113 41z" />
    <glyph glyph-name="parenleft.subs" unicode="&#x208d;" horiz-adv-x="434" 
d="M143 553h136q-160 -155 -227.5 -295.5t-67.5 -337.5q0 -225 73 -405h-120q-33 74 -56.5 181.5t-23.5 217.5q0 188 74 355t212 284z" />
    <glyph glyph-name="parenright.subs" unicode="&#x208e;" horiz-adv-x="434" 
d="M-143 -485h-136q107 108 168.5 198.5t94 198t32.5 242.5q0 217 -73 399h118q33 -74 56.5 -181.5t23.5 -217.5q0 -186 -75.5 -355.5t-208.5 -283.5z" />
    <glyph glyph-name="colonmonetary" unicode="&#x20a1;" horiz-adv-x="1040" 
d="M457 133q20 0 30 2l230 1077q-45 5 -60 5q-16 0 -34 -3l-228 -1073q24 -8 62 -8zM233 463q0 -192 78 -273l211 990q-132 -77 -210.5 -281t-78.5 -436zM764 360h168q-56 -155 -146.5 -244t-232.5 -116l-39 -188h-94l37 178h-29q-23 0 -63 4l-39 -182h-95l45 206
q-106 46 -162.5 159.5t-56.5 283.5q0 100 16.5 205.5t55 216t94.5 202t142.5 161t191.5 95.5l33 152h92l-29 -137q12 2 35 2q24 0 60 -4l28 139h92l-32 -158q110 -37 164 -128.5t51 -215.5h-162q-6 130 -86 189l-215 -1022q51 23 92.5 71.5t83.5 130.5z" />
    <glyph glyph-name="franc" unicode="&#x20a3;" horiz-adv-x="993" 
d="M82 0l57 270h-176l27 123h176l203 955h721l-33 -150h-551l-88 -418h512l-31 -145h-512l-51 -242h280l-28 -123h-279l-57 -270h-170z" />
    <glyph glyph-name="lira" unicode="&#x20a4;" horiz-adv-x="1013" 
d="M709 745h-299q-2 -17 -8.5 -64.5t-10.5 -78.5h289l-25 -110h-282q-47 -250 -152 -342h699l-54 -150h-903l29 133q89 39 138 129t75 230h-201l25 110h192q4 26 19 143h-183l25 113h170q2 13 5 38t5 36q29 220 130.5 328t279.5 108q75 0 134 -19.5t96.5 -52t62 -76t33 -90
t6.5 -96.5h-158q-3 94 -48.5 145.5t-133.5 51.5q-105 0 -158 -71.5t-74 -219.5q-9 -70 -10 -82h313z" />
    <glyph glyph-name="uni20A6" unicode="&#x20a6;" horiz-adv-x="1030" 
d="M377 1206q-17 -138 -53 -323h106l-43 323h-10zM653 168h13q19 142 57 348h-115zM139 0h-141l108 516h-104l25 113h104l29 139h-109l27 115h106l99 465h217l61 -465h236l100 465h141l-98 -465h100l-24 -115h-101l-28 -139h100l-24 -113h-101l-108 -516h-205l-70 516h-231z
M743 629q5 24 14.5 69.5t14.5 69.5h-197l19 -139h149zM465 629l-19 139h-145q-6 -25 -15.5 -73.5t-13.5 -65.5h193z" />
    <glyph glyph-name="peseta" unicode="&#x20a7;" horiz-adv-x="1079" 
d="M23 0l184 872h-119l23 117h120l76 359h314q190 0 296.5 -99.5t106.5 -259.5h100l-24 -117h-86q-63 -372 -557 -372h-164l-105 -500h-165zM449 1214l-50 -225h461q-3 110 -67.5 167.5t-184.5 57.5h-159zM319 633h166q312 0 365 239h-477z" />
    <glyph glyph-name="dong" unicode="&#x20ab;" horiz-adv-x="1089" 
d="M-14 -156h807l-27 -125h-807zM815 801l64 295h-455l29 123h452l33 147h164l-31 -147h127l-31 -123h-123l-165 -779q-12 -53 -33.5 -158.5t-32.5 -158.5h-149q3 43 22 143q-53 -80 -127.5 -120.5t-191.5 -40.5q-141 0 -227.5 98t-86.5 276q0 82 18.5 163.5t58.5 158
t96.5 135t139 94t179.5 35.5q115 0 183.5 -43.5t86.5 -97.5zM553 803q-80 0 -144.5 -40.5t-103 -105.5t-58.5 -140t-20 -150q0 -122 51.5 -183t147.5 -61q53 0 101.5 19.5t93.5 60t80.5 111t56.5 163.5q35 164 -24.5 245t-180.5 81z" />
    <glyph glyph-name="Euro" unicode="&#x20ac;" horiz-adv-x="1069" 
d="M803 299h170q-66 -165 -174.5 -242t-276.5 -77q-182 0 -270 122t-88 342q0 49 2 74h-137l24 113h121q9 65 21 129h-115l24 112h119q31 106 76.5 192.5t109 156t149.5 108.5t187 39q96 0 168 -31.5t111 -84t57.5 -111t16.5 -121.5h-160q-6 95 -59 153t-146 58
q-121 0 -206.5 -98.5t-135.5 -260.5h408l-27 -112h-410q-8 -43 -20 -129h406l-25 -113h-389q-2 -23 -2 -63q0 -336 213 -336q85 0 145 44t113 136z" />
    <glyph glyph-name="uni20B1" unicode="&#x20b1;" horiz-adv-x="1099" 
d="M23 0l159 752h-125l21 106h127l22 105h-127l23 106h127l59 279h318q158 0 257.5 -75t127.5 -204h137l-23 -106h-104q0 -39 -8 -105h90l-21 -106h-100q-55 -137 -184.5 -212t-325.5 -75h-186l-99 -465h-165zM446 1214l-30 -145h424q-50 145 -222 145h-172zM856 961v2h-463
l-22 -105h475q10 52 10 103zM315 600h185q104 0 184 38t123 114h-459z" />
    <glyph glyph-name="uni20B2" unicode="&#x20b2;" horiz-adv-x="1095" 
d="M285 502q0 -282 149 -346l223 1052q-77 -9 -142 -62t-106 -129t-70 -169.5t-41.5 -180.5t-12.5 -165zM1065 1012h-162q-4 34 -11 59.5t-21.5 53.5t-41 47.5t-63.5 29.5l-227 -1067h8q110 0 194 47l103 486h164l-121 -584q-70 -32 -113 -48t-114 -30t-150 -14h-2l-43 -203
h-109l45 215q-141 32 -214.5 154.5t-73.5 322.5q0 70 8.5 145.5t29 160t50.5 163t77 151t104.5 127t136 88.5t169.5 38l33 151h108l-32 -157q134 -23 203.5 -114t64.5 -222z" />
    <glyph glyph-name="uni20B4" unicode="&#x20b4;" horiz-adv-x="1048" 
d="M379 1040h-162q45 159 154.5 243.5t277.5 84.5q90 0 159.5 -26t110 -69t60.5 -93t20 -103q0 -121 -71 -211h106l-22 -106h-207q-55 -37 -236 -129h394l-25 -107h-559q-64 -46 -96.5 -98t-32.5 -123q0 -75 59 -128.5t154 -53.5q119 0 186.5 52.5t110.5 156.5h166
q-62 -182 -176.5 -267.5t-313.5 -85.5q-159 0 -259.5 87t-100.5 223q0 135 86 237h-96l24 107h199q73 48 225 129h-373l23 106h549q118 82 118 199q0 65 -49 115.5t-145 50.5t-157 -47.5t-101 -143.5z" />
    <glyph glyph-name="uni20B5" unicode="&#x20b5;" horiz-adv-x="1040" 
d="M244 463q0 -267 147 -318l225 1067q-86 -14 -158 -84t-118 -174.5t-71 -231t-25 -259.5zM424 -211h-109l43 207q-140 25 -214 144.5t-74 320.5q0 90 13.5 184.5t40.5 194t74 187.5t108.5 160t149.5 117t191 52l31 149h110l-32 -151q148 -21 224 -121.5t71 -241.5h-162
q-10 186 -164 219l-227 -1073q88 6 150 56t116 159h168q-63 -177 -173 -265t-292 -97z" />
    <glyph glyph-name="uni20B9" unicode="&#x20b9;" horiz-adv-x="1024" 
d="M1063 979h-160q-6 -172 -109 -267.5t-278 -123.5l291 -588h-193l-276 578h-234l31 139h230q353 0 364 262h-539l27 113h496q-25 64 -84.5 100.5t-145.5 36.5h-239l26 119h871l-25 -117h-305q60 -60 80 -139h194z" />
    <glyph glyph-name="uni20BA" unicode="&#x20ba;" horiz-adv-x="1095" 
d="M741 733l-284 -86l-105 -504q199 0 319.5 95.5t180.5 289.5h162q-23 -92 -57 -166.5t-89.5 -143.5t-128.5 -116t-177 -74.5t-232 -27.5h-185l125 592l-215 -66l27 119l215 66l31 145l-217 -65l26 120l215 66l80 371h170l-65 -318l284 86l-24 -119l-285 -86l-31 -145
l285 86z" />
    <glyph glyph-name="uni20BD" unicode="&#x20bd;" horiz-adv-x="1208" 
d="M137 0l72 336h-160l27 127h160l32 151h-159l30 142h160l125 592h375q101 0 179.5 -27t126 -74t71.5 -105.5t24 -125.5q0 -402 -526 -402h-230l-32 -151h381l-27 -127h-381l-72 -336h-176zM567 1204l-92 -448h223q320 0 320 245q0 93 -62.5 148t-181.5 55h-207z" />
    <glyph glyph-name="uni2113" unicode="&#x2113;" horiz-adv-x="833" 
d="M459 1120l-92 -436q352 276 352 565q0 121 -88 121q-64 0 -103.5 -56.5t-68.5 -193.5zM592 330h156q-45 -179 -135 -263.5t-242 -84.5q-67 0 -117.5 17.5t-80 49t-46.5 75t-16.5 94.5t10.5 108l16 82q-49 -33 -117 -68l-24 125q99 55 174 102l111 516q26 122 62.5 207
t83.5 132.5t99 68t117 20.5q106 0 171 -67t65 -191q0 -116 -40 -222t-117 -199.5t-172.5 -173.5t-223.5 -162l-27 -131q-49 -232 98 -232q64 0 112 44.5t83 152.5z" />
    </font>
</defs>
</svg>
