<?xml version="1.0" standalone="no"?>
<!DOCTYPE svg PUBLIC "-//W3C//DTD SVG 1.1//EN" "http://www.w3.org/Graphics/SVG/1.1/DTD/svg11.dtd" >
<svg xmlns="http://www.w3.org/2000/svg" xmlns:xlink="http://www.w3.org/1999/xlink" version="1.1">
<metadata>
Created by FontForge 20201107 at Tue Mar 11 11:28:48 2025
 By 
(c) 2014 Adobe Systems Incorporated. All Rights Reserved.
</metadata>
<defs>
<font id="AcuminPro-Regular" horiz-adv-x="819" >
  <font-face 
    font-family="Acumin Pro"
    font-weight="400"
    font-stretch="normal"
    units-per-em="2048"
    panose-1="2 11 5 4 2 2 2 2 2 4"
    ascent="1638"
    descent="-410"
    x-height="1038"
    cap-height="1425"
    bbox="-375 -537 2509 2134"
    underline-thickness="102"
    underline-position="-204"
    unicode-range="U+0020-FB02"
  />
<missing-glyph horiz-adv-x="1024" 
d="M0 0v1434h1024v-1434h-1024zM512 809l348 522h-696zM573 717l349 -522v1044zM164 102h696l-348 523zM102 1239v-1044l349 522z" />
    <glyph glyph-name="f_f" unicode="ff" horiz-adv-x="1136" 
d="M741 893h-376v-893h-181v893h-166v145h166v123q0 363 301 363q63 0 103 -15v-149q-41 12 -86 12q-74 0 -105.5 -49.5t-31.5 -155.5v-129h376v123q0 363 301 363q62 0 103 -15v-149q-41 12 -86 12q-74 0 -105.5 -49.5t-31.5 -155.5v-129h204v-145h-204v-893h-181v893z" />
    <glyph glyph-name=".notdef" horiz-adv-x="1024" 
d="M0 0v1434h1024v-1434h-1024zM512 809l348 522h-696zM573 717l349 -522v1044zM164 102h696l-348 523zM102 1239v-1044l349 522z" />
    <glyph glyph-name=".null" horiz-adv-x="0" 
 />
    <glyph glyph-name="nonmarkingreturn" horiz-adv-x="682" 
 />
    <glyph glyph-name="space" unicode=" " horiz-adv-x="518" 
 />
    <glyph glyph-name="exclam" unicode="!" horiz-adv-x="620" 
d="M444 479h-151l-21 697v249h193v-251zM455 -2h-179v283h179v-283z" />
    <glyph glyph-name="quotedbl" unicode="&#x22;" horiz-adv-x="706" 
d="M254 952h-133l-19 377v174h170v-174zM586 952h-133l-17 377v174h170v-174z" />
    <glyph glyph-name="numbersign" unicode="#" horiz-adv-x="1210" 
d="M571 0l99 406h-271l-96 -406h-139l98 406h-180v149h217l78 317h-197v148h232l88 362h133l-86 -362h272l88 362h131l-86 -362h170l-2 -148h-202l-76 -317h186v-149h-221l-96 -406h-140zM707 555l77 317h-272l-76 -317h271z" />
    <glyph glyph-name="dollar" unicode="$" horiz-adv-x="1064" 
d="M260 1022q0 -78 44.5 -128t156.5 -89v416q-53 -4 -93 -22t-63 -45.5t-34 -60.5t-11 -71zM795 348q0 87 -47.5 144.5t-169.5 99.5v-463q217 22 217 219zM578 -199h-117v187q-181 15 -288 113t-122 249h180q20 -93 80.5 -149t149.5 -70v496q-205 62 -292 147t-87 227
q0 153 106 250.5t273 108.5v139h117v-141q97 -10 170.5 -44.5t114 -84t61.5 -99.5t26 -102h-176q-44 161 -196 189v-447q224 -64 313.5 -161t89.5 -242q0 -169 -106 -267t-297 -112v-187z" />
    <glyph glyph-name="percent" unicode="%" horiz-adv-x="1798" 
d="M422 1372q159 0 250.5 -102.5t91.5 -280.5q0 -170 -90 -278.5t-256 -108.5q-159 0 -248.5 104t-89.5 281q0 79 22 148t64 122t108 84t148 31zM420 1241q-86 0 -136.5 -66t-50.5 -186q0 -118 49.5 -187t141.5 -69q90 0 140 67.5t50 188.5q0 120 -51 186t-143 66zM547 0
h-154l877 1348h153zM1393 743q160 0 252 -102.5t92 -280.5q0 -110 -38 -196t-117.5 -138t-190.5 -53q-161 0 -250.5 106t-89.5 279q0 165 90 275t252 110zM1393 612q-85 0 -137 -67.5t-52 -184.5t50 -186.5t143 -69.5q89 0 138.5 68t49.5 188t-50.5 186t-141.5 66z" />
    <glyph glyph-name="ampersand" unicode="&#x26;" horiz-adv-x="1525" 
d="M522 139q98 0 170.5 42t161.5 155l-348 342q-126 -83 -171.5 -148.5t-45.5 -154.5q0 -95 67.5 -165.5t165.5 -70.5zM1233 903h192l-362 -532l377 -371h-244l-233 229q-102 -130 -204 -189.5t-251 -59.5q-96 0 -175 32.5t-128.5 86.5t-76 120.5t-26.5 136.5
q0 125 68 219.5t240 200.5q-88 92 -129 162t-41 162q0 145 96.5 245.5t261.5 100.5q154 0 249 -95t95 -233q0 -105 -64.5 -184.5t-213.5 -169.5l288 -285zM596 1307q-84 0 -134 -52t-50 -145q0 -60 37 -117t120 -139q120 80 162.5 135.5t42.5 126.5q0 79 -46.5 135
t-131.5 56z" />
    <glyph glyph-name="quotesingle" unicode="'" horiz-adv-x="364" 
d="M256 952h-147l-17 377v174h180v-174z" />
    <glyph glyph-name="parenleft" unicode="(" horiz-adv-x="690" 
d="M428 1503h182q-323 -423 -323 -915q0 -516 323 -940h-182q-63 83 -115 178t-97.5 213t-71 259.5t-25.5 291.5q0 508 309 913z" />
    <glyph glyph-name="parenright" unicode=")" horiz-adv-x="690" 
d="M264 -352h-184q323 423 323 915q0 516 -323 940h184q62 -83 113.5 -178t97 -213t71 -260t25.5 -291q0 -506 -307 -913z" />
    <glyph glyph-name="asterisk" unicode="*" horiz-adv-x="821" 
d="M336 1425h147l-26 -303l235 189l80 -133l-289 -131l287 -134l-78 -135l-237 193l30 -307h-151l28 307l-233 -193l-78 135l287 134l-289 131l80 133l231 -189z" />
    <glyph glyph-name="plus" unicode="+" horiz-adv-x="1431" 
d="M635 1139h162v-484h479v-159h-479v-496h-162v496h-481v159h481v484z" />
    <glyph glyph-name="comma" unicode="," horiz-adv-x="430" 
d="M154 -236h-148q127 267 148 537h182q-14 -142 -62.5 -288t-119.5 -249z" />
    <glyph glyph-name="hyphen" unicode="-" horiz-adv-x="774" 
d="M119 606h536v-164h-536v164z" />
    <glyph glyph-name="period" unicode="." horiz-adv-x="415" 
d="M301 0h-188v303h188v-303z" />
    <glyph glyph-name="slash" unicode="/" horiz-adv-x="915" 
d="M252 -104h-160l572 1550h161z" />
    <glyph glyph-name="zero" unicode="0" horiz-adv-x="1144" 
d="M578 1372q105 0 187 -39t133 -103.5t84.5 -155.5t46.5 -186t13 -204q0 -107 -12.5 -202.5t-45.5 -190.5t-84 -163t-135.5 -110.5t-193.5 -42.5q-107 0 -190.5 40t-135.5 105.5t-85.5 158t-46.5 189t-13 206.5q0 109 14.5 206t49 188.5t88 157.5t137 106t189.5 40z
M580 1219q-85 0 -144 -42t-89.5 -121t-43 -170t-12.5 -212q0 -545 282 -545q69 0 120.5 31.5t81.5 82t48.5 125.5t24.5 148.5t6 165.5q0 537 -274 537z" />
    <glyph glyph-name="one" unicode="1" horiz-adv-x="745" 
d="M545 0h-185v1133q-49 -35 -134.5 -70.5t-143.5 -46.5v145q79 22 169.5 75t158.5 118h135v-1354z" />
    <glyph glyph-name="two" unicode="2" horiz-adv-x="1075" 
d="M985 0h-893v10q0 301 406 608q74 56 113 88t76 68t52 65.5t24 64.5t9 81q0 107 -58.5 171.5t-174.5 64.5q-120 0 -183.5 -61t-85.5 -189h-176q20 180 133.5 290.5t311.5 110.5q109 0 192.5 -33t131.5 -88.5t71.5 -121.5t23.5 -140q0 -62 -12 -111t-32.5 -88.5t-66 -86
t-92.5 -86t-132 -105.5q-141 -109 -217.5 -193t-100.5 -161h707z" />
    <glyph glyph-name="three" unicode="3" horiz-adv-x="1126" 
d="M303 1026h-174q7 52 25 100t52.5 93.5t81.5 78.5t116 53.5t153 20.5q101 0 180.5 -29t127.5 -78.5t73 -111.5t25 -131q0 -112 -53 -181.5t-126 -97.5v-4q103 -33 169.5 -116.5t66.5 -223.5q0 -84 -27 -157.5t-80.5 -134.5t-146 -96.5t-213.5 -35.5q-111 0 -198.5 32.5
t-141 87.5t-83.5 119t-38 134h178q22 -98 95 -160.5t196 -62.5q137 0 206 77t69 195q0 132 -76.5 197t-216.5 65h-97v148h80q132 0 193 51t61 158q0 94 -59.5 149.5t-169.5 55.5q-113 0 -169 -51.5t-79 -143.5z" />
    <glyph glyph-name="four" unicode="4" horiz-adv-x="1103" 
d="M879 0h-172v346h-633v164l612 838h193v-846h174l-19 -156h-155v-346zM707 502v340q0 149 4 325q-11 -21 -33 -56.5t-58 -88t-65.5 -95t-80.5 -114.5t-76.5 -107t-80.5 -111.5t-67 -92.5h457z" />
    <glyph glyph-name="five" unicode="5" horiz-adv-x="1116" 
d="M983 1348l-27 -156h-563q-21 -188 -59 -385q98 108 282 108q185 0 295.5 -121t110.5 -327q0 -80 -16.5 -151.5t-53 -134.5t-90 -108.5t-131.5 -71.5t-174 -26q-181 0 -301.5 96.5t-146.5 266.5h182q25 -98 93 -155.5t179 -57.5q135 0 205 88.5t70 241.5q0 140 -63 223.5
t-197 83.5q-115 0 -177 -43.5t-100 -132.5l-168 30q28 120 61.5 349t49.5 383h739z" />
    <glyph glyph-name="six" unicode="6" horiz-adv-x="1124" 
d="M993 1055h-178q-48 170 -227 170q-297 0 -307 -498q108 188 342 188q191 0 302 -125t111 -323q0 -101 -29.5 -189.5t-85.5 -156t-143.5 -107t-195.5 -39.5q-482 0 -482 680q0 117 15 218.5t51.5 194.5t92.5 159.5t142 105.5t195 39q98 0 174.5 -29.5t121.5 -77.5t70 -101
t31 -109zM580 127q70 0 124 27t85 73.5t46 103.5t15 122q0 48 -7.5 91t-26 84t-48 70.5t-76 47.5t-106.5 18q-130 0 -207.5 -80t-77.5 -229q0 -37 7.5 -77t27 -86t49.5 -82t80.5 -59.5t114.5 -23.5z" />
    <glyph glyph-name="seven" unicode="7" horiz-adv-x="974" 
d="M43 1348h885v-148q-179 -240 -325.5 -573t-196.5 -627h-187q44 279 197 623t321 567h-694v158z" />
    <glyph glyph-name="eight" unicode="8" horiz-adv-x="1128" 
d="M557 -25q-201 0 -333 111t-132 295q0 90 38.5 163.5t91 115.5t116.5 67q-188 90 -188 285q0 162 110.5 261t314.5 99q186 0 297 -99t111 -257q0 -105 -50.5 -177t-135.5 -104q101 -33 170 -126t69 -222q0 -190 -133 -301t-346 -111zM565 125q131 0 209 68.5t78 195.5
q0 126 -76 193t-211 67q-142 0 -214 -72t-72 -188t76.5 -190t209.5 -74zM569 1223q-124 0 -182.5 -56t-58.5 -155q0 -91 61 -150t182 -59q118 0 176 53t58 150q0 95 -60 156t-176 61z" />
    <glyph glyph-name="nine" unicode="9" horiz-adv-x="1107" 
d="M109 295h184q30 -85 87 -126.5t152 -41.5q54 0 98 21t73 52.5t51.5 80t34 92t19.5 101t10.5 94t4.5 83.5q-89 -159 -321 -159q-188 0 -301 119.5t-113 308.5q0 125 52.5 227t157.5 163.5t245 61.5q98 0 176 -30.5t131 -85t88 -133t50.5 -170.5t15.5 -201
q0 -81 -5.5 -154.5t-19.5 -153.5t-36.5 -146t-60 -127t-86 -102.5t-117.5 -66.5t-153 -25q-97 0 -173.5 27t-124.5 73.5t-77 100.5t-42 117zM539 1221q-132 0 -198.5 -81t-66.5 -212t69.5 -209t188.5 -78q271 0 271 279q0 30 -4.5 63t-21.5 77.5t-44 78.5t-77.5 58
t-116.5 24z" />
    <glyph glyph-name="colon" unicode=":" horiz-adv-x="512" 
d="M348 0h-182v297h182v-297zM348 739h-182v295h182v-295z" />
    <glyph glyph-name="semicolon" unicode=";" horiz-adv-x="516" 
d="M174 -236h-145q132 282 145 537h182q-10 -145 -63.5 -296t-118.5 -241zM354 733h-184v301h184v-301z" />
    <glyph glyph-name="less" unicode="&#x3c;" horiz-adv-x="1259" 
d="M170 500v149l920 498v-178l-744 -394l744 -405v-178z" />
    <glyph glyph-name="equal" unicode="=" horiz-adv-x="1460" 
d="M170 403h1120v-159h-1120v159zM170 913h1120v-159h-1120v159z" />
    <glyph glyph-name="greater" unicode="&#x3e;" horiz-adv-x="1259" 
d="M1090 639v-150l-920 -497v178l741 393l-741 408v176z" />
    <glyph glyph-name="question" unicode="?" horiz-adv-x="1017" 
d="M602 430h-184v31q0 91 40.5 172.5t153.5 181.5q81 74 109.5 136.5t28.5 133.5q0 83 -56 147t-164 64q-204 0 -243 -233h-176q2 42 14 88t42.5 100.5t76 96.5t121 70t170.5 28q86 -1 156 -24t114 -60t74 -86t42.5 -97.5t12.5 -97.5q0 -108 -42.5 -189t-154.5 -183
q-75 -68 -105 -128t-30 -135v-16zM602 0h-184v283h184v-283z" />
    <glyph glyph-name="at" unicode="@" horiz-adv-x="1914" 
d="M1391 -104l39 -127q-181 -127 -502 -127q-173 0 -320 58t-252.5 163t-165 259.5t-59.5 340.5q0 192 63 358.5t177 287.5t281.5 190t367.5 69q126 0 240.5 -29.5t210.5 -89t167 -144t110.5 -200.5t39.5 -252q0 -271 -128 -432.5t-329 -161.5q-92 0 -146.5 39t-58.5 121
q-56 -80 -123 -119t-167 -39q-130 0 -210.5 92.5t-80.5 264.5q0 153 56 280t153 200t213 73q110 0 168 -47t75 -111l35 137h162l-123 -575q-22 -95 -0.5 -134.5t80.5 -39.5q118 0 193 122.5t75 321.5q0 267 -169.5 426.5t-448.5 159.5q-216 0 -380 -96.5t-252 -271
t-89 -402.5q-1 -191 77 -344.5t226 -242.5t340 -89q270 0 455 111zM985 834q-80 0 -142 -59t-93 -150.5t-31 -196.5q0 -109 42 -167t118 -58q96 0 162.5 72t103.5 235q71 324 -160 324z" />
    <glyph glyph-name="A" unicode="A" horiz-adv-x="1351" 
d="M950 428h-567l-154 -428h-188l508 1425h231l531 -1425h-203zM432 590h471q-212 581 -241 682h-3q-33 -115 -227 -682z" />
    <glyph glyph-name="B" unicode="B" horiz-adv-x="1323" 
d="M188 0v1425h547q216 0 328.5 -100t112.5 -256q0 -118 -58 -199t-147 -112q42 -13 82.5 -38t80.5 -64.5t64.5 -101.5t24.5 -136q0 -131 -63 -226.5t-169.5 -143.5t-242.5 -48h-560zM373 831h325q150 0 218.5 57t68.5 165q0 98 -67.5 156.5t-190.5 58.5h-354v-437zM373 676
v-520h352q139 0 221 66.5t82 195.5q0 121 -82.5 189.5t-257.5 68.5h-315z" />
    <glyph glyph-name="C" unicode="C" horiz-adv-x="1404" 
d="M1126 403h191q-50 -192 -192.5 -306.5t-374.5 -114.5q-125 0 -230 37t-180 103t-127.5 157t-78 199.5t-25.5 230.5q0 148 41 279t119.5 234t204 163.5t282.5 60.5q240 0 383.5 -120t177.5 -310h-189q-20 62 -49.5 109t-73.5 85t-108.5 58t-146.5 20q-92 0 -167 -32
t-125.5 -86.5t-85 -129t-50 -156t-15.5 -169.5q0 -87 15 -168t49 -156t85 -130.5t128.5 -88.5t173.5 -33q79 0 141.5 21t105.5 60t71 83t50 100z" />
    <glyph glyph-name="D" unicode="D" horiz-adv-x="1476" 
d="M188 0v1425h508q302 0 487 -190.5t185 -507.5q0 -210 -82.5 -375t-237.5 -258.5t-358 -93.5h-502zM377 1264v-1104h299q123 0 218.5 42.5t154.5 118.5t89.5 177.5t30.5 224.5q0 109 -29 204t-86.5 171.5t-154.5 121t-223 44.5h-299z" />
    <glyph glyph-name="E" unicode="E" horiz-adv-x="1222" 
d="M1081 827v-161h-708v-504h778l-25 -162h-938v1425h928v-161h-743v-437h708z" />
    <glyph glyph-name="F" unicode="F" horiz-adv-x="1155" 
d="M188 0v1425h916v-161h-729v-463h682v-162h-682v-639h-187z" />
    <glyph glyph-name="G" unicode="G" horiz-adv-x="1490" 
d="M1343 770v-770h-145q-15 41 -18 193q-129 -211 -443 -211q-151 0 -271.5 54.5t-197.5 151.5t-118 227t-41 283q0 161 43.5 297t126 236.5t209 157.5t284.5 57q243 0 395.5 -119t184.5 -315h-189q-85 276 -395 276q-120 0 -210.5 -45.5t-144 -126.5t-80 -183.5
t-26.5 -225.5q0 -114 26 -213t79 -180t142.5 -128t205.5 -47q399 0 399 453v16h-401v162h585z" />
    <glyph glyph-name="H" unicode="H" horiz-adv-x="1495" 
d="M188 0v1425h189v-596h741v596h191v-1425h-191v668h-741v-668h-189z" />
    <glyph glyph-name="I" unicode="I" horiz-adv-x="565" 
d="M188 1425h189v-1425h-189v1425z" />
    <glyph glyph-name="J" unicode="J" horiz-adv-x="753" 
d="M575 1425v-1009q0 -235 -90 -335.5t-276 -100.5q-78 0 -150 14v158q50 -11 131 -11q50 0 86 15t57 38.5t33 60.5t15.5 72.5t3.5 82.5v1015h190z" />
    <glyph glyph-name="K" unicode="K" horiz-adv-x="1308" 
d="M188 0v1425h187v-700q45 48 307.5 311t384.5 389h236l-613 -602l643 -823h-229l-547 702l-182 -165v-537h-187z" />
    <glyph glyph-name="L" unicode="L" horiz-adv-x="1148" 
d="M188 0v1425h189v-1263h743l-26 -162h-906z" />
    <glyph glyph-name="M" unicode="M" horiz-adv-x="1777" 
d="M1405 0v606q0 434 10 684h-8q-17 -66 -52 -172.5t-89.5 -259t-97 -269.5t-114.5 -311.5t-102 -277.5h-170q-27 80 -106.5 313.5t-131.5 387.5t-109 331t-79 262h-6q17 -282 17 -727v-567h-179v1425h281q129 -352 252 -708.5t158 -485.5h2q24 96 160 464.5t276 729.5h272
v-1425h-184z" />
    <glyph glyph-name="N" unicode="N" horiz-adv-x="1523" 
d="M367 0h-179v1425h250q43 -69 243.5 -393.5t325 -529t160.5 -273.5h2q-12 156 -12 639v557h178v-1425h-235q-656 1078 -740 1231h-4q11 -178 11 -662v-569z" />
    <glyph glyph-name="O" unicode="O" horiz-adv-x="1538" 
d="M778 1446q197 0 346 -93t227.5 -257t78.5 -375q0 -119 -26 -228t-80.5 -202.5t-132 -162.5t-188 -108.5t-241.5 -39.5q-154 0 -278.5 57t-206 156t-125 232.5t-43.5 287.5t44.5 287t127.5 232.5t211 156.5t286 57zM770 1284q-94 0 -171.5 -30t-131 -82t-90 -123.5
t-53.5 -154t-17 -175.5q0 -117 30 -220t86 -183.5t145.5 -127.5t201.5 -47q120 0 211 47t145 128.5t80.5 182.5t26.5 218q0 93 -18 177t-55.5 155.5t-91 123.5t-130 81.5t-168.5 29.5z" />
    <glyph glyph-name="P" unicode="P" horiz-adv-x="1288" 
d="M188 0v1425h541q210 0 338.5 -111.5t128.5 -303.5q0 -202 -132 -313t-347 -111h-338v-586h-191zM379 1266v-521h330q145 0 218.5 67.5t73.5 193.5q0 127 -78 193.5t-208 66.5h-336z" />
    <glyph glyph-name="Q" unicode="Q" horiz-adv-x="1552" 
d="M778 1446q197 0 346 -93t227.5 -257t78.5 -375q0 -186 -64.5 -344.5t-187.5 -259.5l346 -246l-115 -131l-399 280q-110 -40 -248 -40q-154 0 -278.5 57t-206 156t-125 232.5t-43.5 287.5t44.5 287t127.5 232.5t211 156.5t286 57zM770 1284q-94 0 -171.5 -30t-131 -82
t-90 -123.5t-53.5 -154t-17 -175.5q0 -117 30 -220t86 -183.5t145.5 -127.5t201.5 -47q120 0 211 47t145 128.5t80.5 182.5t26.5 218q0 93 -18 177t-55.5 155.5t-91 123.5t-130 81.5t-168.5 29.5z" />
    <glyph glyph-name="R" unicode="R" horiz-adv-x="1314" 
d="M666 627h-291v-627h-187v1425h557q214 0 331.5 -105t117.5 -276q0 -133 -67.5 -219.5t-176.5 -115.5q217 -57 217 -365v-61v-42.5v-47.5t0.5 -43t2 -45.5t3.5 -39t6 -37.5t9 -28h-184q-12 27 -17.5 75t-6.5 87t-1 119v26v29q0 80 -13 131.5t-47.5 89.5t-95.5 54t-157 16z
M375 1266v-480h309q162 0 237.5 60t75.5 182q0 115 -73.5 176.5t-216.5 61.5h-332z" />
    <glyph glyph-name="S" unicode="S" horiz-adv-x="1241" 
d="M84 397h192q60 -264 363 -264q158 0 233.5 66t75.5 174q0 75 -28.5 125t-106.5 91t-219 75q-249 61 -351 152.5t-102 244.5q0 168 122.5 276.5t350.5 108.5q122 0 217.5 -33t153.5 -89.5t89.5 -121.5t39.5 -139h-192q-49 229 -314 229q-130 0 -200 -55.5t-70 -157.5
q0 -99 70 -150.5t260 -97.5q119 -29 205.5 -66.5t138 -77.5t82 -90.5t41 -98t10.5 -107.5q0 -180 -133.5 -294.5t-384.5 -114.5q-130 0 -231 33.5t-164 92.5t-99.5 131t-48.5 158z" />
    <glyph glyph-name="T" unicode="T" horiz-adv-x="1142" 
d="M475 0v1264h-459v161h1110v-161h-460v-1264h-191z" />
    <glyph glyph-name="U" unicode="U" horiz-adv-x="1462" 
d="M174 1425h193v-858q0 -97 21 -173t55 -123t82.5 -77.5t99 -42.5t108.5 -12q84 0 147.5 21t114 68.5t77 133t26.5 205.5v858h190v-847q0 -596 -559 -596q-93 0 -172.5 18t-151 60.5t-122 108t-80 166t-29.5 228.5v862z" />
    <glyph glyph-name="V" unicode="V" horiz-adv-x="1314" 
d="M760 0h-223l-519 1425h203l250 -710q144 -405 178 -551h4q34 128 187 545l262 716h194z" />
    <glyph glyph-name="W" unicode="W" horiz-adv-x="1916" 
d="M631 0h-203l-383 1425h201q40 -168 113.5 -466t119.5 -489t58 -263h2q20 99 152.5 579t172.5 639h185q278 -1032 311 -1212h2q21 109 82 336.5t139.5 507t102.5 368.5h186l-416 -1425h-203q-282 1074 -303 1178h-2q-19 -96 -72.5 -295t-141 -512t-103.5 -371z" />
    <glyph glyph-name="X" unicode="X" horiz-adv-x="1183" 
d="M1188 0h-221l-379 586h-2l-381 -586h-209l481 721l-463 704h219l359 -555h2l369 555h208l-473 -688z" />
    <glyph glyph-name="Y" unicode="Y" horiz-adv-x="1210" 
d="M692 0h-190v522q0 26 -10 39l-502 864h217q334 -598 401 -725q59 118 408 725h203l-519 -868q-8 -16 -8 -37v-520z" />
    <glyph glyph-name="Z" unicode="Z" horiz-adv-x="1222" 
d="M61 0v145l869 1119h-826v161h1043v-157l-852 -1106h881l-27 -162h-1088z" />
    <glyph glyph-name="bracketleft" unicode="[" horiz-adv-x="700" 
d="M621 -352h-445v1855h445v-143h-285v-1567h285v-145z" />
    <glyph glyph-name="backslash" unicode="\" horiz-adv-x="915" 
d="M664 -104l-572 1550h160l573 -1550h-161z" />
    <glyph glyph-name="bracketright" unicode="]" horiz-adv-x="700" 
d="M80 1503h444v-1855h-444v143h285v1567h-285v145z" />
    <glyph glyph-name="asciicircum" unicode="^" horiz-adv-x="983" 
d="M909 641h-151l-271 588l-260 -588h-153l346 729h147z" />
    <glyph glyph-name="underscore" unicode="_" horiz-adv-x="1087" 
d="M2 -160h1085v-104h-1085v104z" />
    <glyph glyph-name="grave" unicode="`" 
d="M53 1524h223l263 -314h-170z" />
    <glyph glyph-name="a" unicode="a" horiz-adv-x="1083" 
d="M928 723v-496q0 -155 14 -227h-172q-13 37 -16 135q-87 -160 -322 -160q-89 0 -158 27t-110 73t-61.5 101.5t-20.5 116.5q0 170 127 254t364 84h177v88q0 40 -8 71.5t-30 63.5t-69.5 50t-116.5 18q-61 0 -103.5 -13.5t-65.5 -40.5t-33.5 -51t-18.5 -61h-174q5 46 18.5 87
t43 82.5t73 71t112 48t154.5 18.5q396 0 396 -340zM752 473v33h-168q-159 0 -238.5 -48.5t-79.5 -154.5q0 -83 54 -134.5t149 -51.5q73 0 125.5 20t82.5 50.5t47.5 79.5t22.5 96t5 110z" />
    <glyph glyph-name="b" unicode="b" horiz-adv-x="1169" 
d="M154 348v1155h180v-612q25 48 63.5 84.5t108 62t158.5 25.5q194 0 310 -144.5t116 -377.5q0 -160 -51 -286.5t-155.5 -203t-246.5 -76.5q-119 0 -192 41.5t-113 120.5q0 -79 -8 -137h-172q2 117 2 348zM905 537q0 171 -74.5 272.5t-207.5 101.5q-160 0 -229.5 -100
t-69.5 -295q0 -389 288 -389q137 0 215 110t78 300z" />
    <glyph glyph-name="c" unicode="c" horiz-adv-x="1036" 
d="M795 317h178q-17 -71 -48.5 -129.5t-81.5 -107.5t-126.5 -77t-171.5 -28q-215 0 -339 144t-124 395q0 111 31.5 209.5t89.5 174.5t149.5 120.5t204.5 44.5q86 0 156.5 -23.5t116 -60t77.5 -83.5t47 -91.5t19 -87.5h-178q-47 196 -242 196q-135 0 -211 -107t-76 -286
q0 -181 74 -288t207 -107q181 0 248 192z" />
    <glyph glyph-name="d" unicode="d" horiz-adv-x="1169" 
d="M838 1503h180v-1210q0 -193 2 -293h-172q-10 45 -10 147q-80 -172 -326 -172q-199 0 -315.5 147t-116.5 386q0 159 55.5 284.5t162 198t247.5 72.5q125 0 196.5 -39.5t96.5 -93.5v573zM266 514q0 -183 78.5 -285t204.5 -102q71 0 124 21t85.5 56.5t52.5 89t27.5 111
t7.5 130.5q0 74 -7 128.5t-25.5 103t-50 79t-81.5 48t-119 17.5q-139 0 -218 -104.5t-79 -292.5z" />
    <glyph glyph-name="e" unicode="e" horiz-adv-x="1071" 
d="M993 487h-733q2 -161 78.5 -261.5t206.5 -100.5q58 0 102.5 13.5t72.5 39.5t44 50.5t31 58.5h182q-17 -56 -46.5 -105.5t-79.5 -99t-130.5 -78.5t-181.5 -29q-95 0 -172.5 30t-130 81t-88.5 120t-52 144.5t-16 157.5q0 117 30 217t87 176t148 119t206 43q97 0 175 -30
t127 -78.5t82 -114t46.5 -131.5t13.5 -136q0 -59 -2 -86zM266 612h547q-2 136 -69.5 223t-194.5 87q-252 0 -283 -310z" />
    <glyph glyph-name="f" unicode="f" horiz-adv-x="579" 
d="M365 0h-181v893h-166v145h166v125q0 75 15.5 137t49.5 114t94.5 81t143.5 29q74 0 115 -13v-153q-42 10 -90 10q-79 0 -113 -51t-34 -166v-113h208v-145h-208v-893z" />
    <glyph glyph-name="g" unicode="g" horiz-adv-x="1161" 
d="M1010 739v-645q0 -258 -114.5 -390t-363.5 -132q-91 0 -163.5 20t-119 51t-79 74t-47.5 84.5t-21 87.5h183q23 -85 89 -129.5t167 -44.5q70 0 121 18t84 49.5t53 81t27.5 106.5t7.5 132v84q-43 -90 -120.5 -136t-203.5 -46q-192 0 -311 142.5t-119 371.5q0 124 35 227.5
t95.5 172.5t142 107t175.5 38q135 0 210 -49t96 -113q3 64 10 137h168q0 -25 -1 -135t-1 -164zM266 526q0 -164 79 -266t206 -102q158 0 223.5 98t65.5 283q0 187 -62.5 279.5t-220.5 92.5q-140 0 -215.5 -106t-75.5 -279z" />
    <glyph glyph-name="h" unicode="h" horiz-adv-x="1159" 
d="M154 1503h180v-618q99 178 323 178q53 0 100.5 -11.5t94.5 -40.5t80.5 -73t54.5 -114.5t21 -159.5v-664h-181v633q0 134 -56 204t-169 70q-268 0 -268 -340v-567h-180v1503z" />
    <glyph glyph-name="i" unicode="i" horiz-adv-x="485" 
d="M154 0v1038h180v-1038h-180zM334 1280h-180v223h180v-223z" />
    <glyph glyph-name="j" unicode="j" horiz-adv-x="485" 
d="M154 1038h180v-1073q0 -218 -63 -305.5t-230 -87.5q-38 0 -70 4v152q12 -2 39 -2q89 0 116.5 45.5t27.5 162.5v1104zM334 1280h-180v223h180v-223z" />
    <glyph glyph-name="k" unicode="k" horiz-adv-x="1034" 
d="M334 1503v-960q49 58 226 248.5t228 246.5h216l-392 -403l437 -635h-211l-349 518l-155 -149v-369h-180v1503h180z" />
    <glyph glyph-name="l" unicode="l" horiz-adv-x="485" 
d="M334 0h-180v1503h180v-1503z" />
    <glyph glyph-name="m" unicode="m" horiz-adv-x="1732" 
d="M154 0v770q0 184 -2 268h172q8 -62 8 -159q94 184 301 184q108 0 183 -49.5t106 -136.5q104 186 329 186q67 0 123.5 -20.5t103.5 -64t74 -119t27 -177.5v-682h-176v662q0 48 -9.5 89t-31.5 77.5t-64 57.5t-100 21q-123 0 -183.5 -83.5t-60.5 -227.5v-596h-176v655
q0 54 -8.5 96t-29.5 79t-62 57t-100 20q-121 0 -183.5 -89.5t-62.5 -242.5v-575h-178z" />
    <glyph glyph-name="n" unicode="n" horiz-adv-x="1159" 
d="M154 0v776q0 182 -2 262h174q8 -41 8 -170q91 195 325 195q157 0 253 -98.5t96 -296.5v-668h-181v645q0 262 -219 262q-141 0 -207.5 -96t-66.5 -262v-549h-180z" />
    <glyph glyph-name="o" unicode="o" horiz-adv-x="1126" 
d="M569 1063q217 0 347.5 -148t130.5 -393q0 -114 -32.5 -213t-93 -173.5t-154.5 -117.5t-210 -43q-219 0 -348 152t-129 391q0 155 56 277.5t168.5 195t264.5 72.5zM561 913q-143 0 -220 -106t-77 -287q0 -174 82 -284.5t219 -110.5q139 0 218 107t79 286t-79 287t-222 108
z" />
    <glyph glyph-name="p" unicode="p" horiz-adv-x="1167" 
d="M332 -408h-178v1192q0 174 -2 254h174q6 -52 6 -164q102 189 340 189q182 0 297.5 -141t115.5 -375q0 -137 -35 -246.5t-96 -180t-142.5 -108t-176.5 -37.5q-217 0 -303 154v-537zM901 539q0 168 -73 269t-203 101q-158 0 -229.5 -97t-71.5 -292q0 -194 65 -293.5
t221 -99.5q141 0 216 109t75 303z" />
    <glyph glyph-name="q" unicode="q" horiz-adv-x="1167" 
d="M840 -408v558q-85 -175 -330 -175q-185 0 -307.5 141.5t-122.5 391.5q0 253 131.5 404t325.5 151q131 0 205.5 -47t97.5 -109q-2 42 6 131h170q-2 -109 -2 -286v-1160h-174zM266 516q0 -109 30 -195t96 -140t161 -54q160 0 225.5 101t65.5 296t-62 290t-221 95
q-142 0 -218.5 -108t-76.5 -285z" />
    <glyph glyph-name="r" unicode="r" horiz-adv-x="720" 
d="M154 0v756q0 84 -1 175t-1 107h176q6 -87 6 -211q41 107 131.5 170t216.5 66v-178q-166 -5 -257 -98t-91 -283v-504h-180z" />
    <glyph glyph-name="s" unicode="s" horiz-adv-x="968" 
d="M61 297h181q22 -86 86 -133t168 -47q211 0 211 159q0 75 -50 116t-196 75q-110 27 -181.5 58t-110 69.5t-53 80t-14.5 97.5t22 107t65.5 93t117.5 66.5t170 24.5t171.5 -26t120.5 -70t69.5 -95.5t29.5 -107.5h-172q-7 29 -20.5 53.5t-38 50.5t-67.5 41t-99 15
q-100 0 -145 -39.5t-45 -98.5q0 -60 47 -94t186 -67q116 -28 192 -62t116 -76.5t55.5 -88t15.5 -107.5q0 -140 -107.5 -228t-296.5 -88q-193 0 -300 87.5t-128 234.5z" />
    <glyph glyph-name="t" unicode="t" horiz-adv-x="653" 
d="M20 893v145h181v308h178v-308h229v-145h-229v-608q0 -81 25.5 -117.5t93.5 -36.5q51 0 90 8v-135q-48 -18 -156 -18q-120 0 -175.5 63t-55.5 193v651h-181z" />
    <glyph glyph-name="u" unicode="u" horiz-adv-x="1140" 
d="M987 1038v-735q0 -56 1 -167t1 -136h-174q-4 28 -8 156q-80 -181 -313 -181q-70 0 -128.5 19t-108.5 61t-78.5 118.5t-28.5 182.5v682h178v-645q0 -262 215 -262q142 0 203 85.5t61 281.5v540h180z" />
    <glyph glyph-name="v" unicode="v" horiz-adv-x="991" 
d="M25 1038h192q239 -728 275 -870h2q25 117 290 870h183l-381 -1038h-199z" />
    <glyph glyph-name="w" unicode="w" horiz-adv-x="1570" 
d="M51 1038h189q203 -767 221 -872h2q18 97 239 872h177q23 -82 50 -180t42.5 -154.5t34.5 -125.5t29.5 -107t22.5 -83.5t18.5 -70.5t13 -52.5t10 -45t6.5 -33.5h2q48 197 229 852h183l-320 -1038h-194q-38 145 -93.5 348t-88 323.5t-42.5 170.5h-2q-3 -19 -8.5 -44
t-14.5 -62t-17.5 -69.5t-23.5 -87.5t-25.5 -94t-31 -110t-32.5 -114t-36.5 -128.5t-37.5 -132.5h-201z" />
    <glyph glyph-name="x" unicode="x" horiz-adv-x="927" 
d="M14 1038h203q59 -93 117 -184.5t85.5 -134.5t43.5 -68h2q23 34 108.5 165t145.5 222h201l-351 -499l355 -539h-207q-243 388 -256 410h-2q-182 -296 -254 -410h-201l348 518z" />
    <glyph glyph-name="y" unicode="y" horiz-adv-x="985" 
d="M20 1038h195q258 -765 289 -878h2q57 206 276 878h181l-373 -1085q-53 -156 -103.5 -236t-116.5 -112.5t-175 -32.5q-51 0 -113 6v156q54 -4 86 -4q96 0 145.5 48.5t96.5 180.5z" />
    <glyph glyph-name="z" unicode="z" horiz-adv-x="923" 
d="M51 0v145l598 742h-567v151h772v-149l-590 -737h619l-29 -152h-803z" />
    <glyph glyph-name="braceleft" unicode="{" horiz-adv-x="757" 
d="M55 502v149q72 0 118 15.5t69 49t31 71t8 94.5v266q0 174 96.5 265t257.5 91h43v-137h-33q-196 0 -196 -227v-254q0 -266 -199 -305q105 -24 152 -99.5t47 -210.5v-254q0 -113 53.5 -173t146.5 -60h29v-137h-43q-71 0 -132 19.5t-112 60t-80.5 111.5t-29.5 165v270
q0 44 -4 74t-17.5 62t-37.5 51t-66 31t-101 12z" />
    <glyph glyph-name="bar" unicode="|" horiz-adv-x="581" 
d="M209 1599h164v-2136h-164v2136z" />
    <glyph glyph-name="braceright" unicode="}" horiz-adv-x="757" 
d="M678 647v-149q-72 0 -118 -15.5t-68.5 -49t-30.5 -71t-8 -94.5v-266q0 -174 -97 -265t-258 -91h-43v137h33q197 0 197 227v254q0 266 198 305q-104 24 -151 99.5t-47 210.5v254q0 113 -54 173t-147 60h-29v137h43q56 0 106.5 -12t96.5 -39t79 -67t53 -101t20 -137v-270
q0 -44 4 -74t17 -62t37 -51t66 -31t101 -12z" />
    <glyph glyph-name="asciitilde" unicode="~" horiz-adv-x="1372" 
d="M317 416h-139v61q-1 140 64 204t170 64q70 0 152.5 -29t144.5 -64t130.5 -64t112.5 -29q55 0 79 34.5t24 108.5v35h139v-43q0 -82 -19 -140t-53.5 -88.5t-73.5 -44t-87 -13.5q-66 0 -147 29t-143.5 64t-132.5 64t-116 29q-105 0 -105 -139v-39z" />
    <glyph glyph-name="uni00A0" unicode="&#xa0;" horiz-adv-x="518" 
 />
    <glyph glyph-name="exclamdown" unicode="&#xa1;" horiz-adv-x="505" 
d="M145 557h148l24 -694v-250h-194v250zM133 1038h178v-282h-178v282z" />
    <glyph glyph-name="cent" unicode="&#xa2;" horiz-adv-x="1089" 
d="M834 475h178q-29 -130 -127.5 -214t-253.5 -97v-187h-119v189q-188 20 -299 157t-111 345q0 130 46.5 238t140.5 180t223 88v143h119v-141q77 -5 141.5 -29t106 -57t71.5 -74.5t44 -79t18 -72.5h-178q-22 66 -68.5 109.5t-134.5 54.5v-717q81 10 128.5 50t74.5 114z
M287 674q0 -138 57.5 -236.5t167.5 -122.5v709q-113 -21 -169 -112.5t-56 -237.5z" />
    <glyph glyph-name="sterling" unicode="&#xa3;" horiz-adv-x="1052" 
d="M993 0h-921v145q86 45 122.5 148t36.5 264v61h-186v142h180q-4 94 -4 164q0 205 95 325.5t286 120.5q77 0 139 -21t102.5 -54t69 -78t41.5 -90t17 -93h-174q-14 85 -63 134t-136 49q-110 0 -153.5 -69.5t-43.5 -209.5q0 -40 5 -178h309v-142h-305v-51q0 -278 -109 -407
h717z" />
    <glyph glyph-name="currency" unicode="&#xa4;" horiz-adv-x="1101" 
d="M555 1139q139 0 246 -80l139 145l102 -106l-141 -150q60 -107 60 -237q0 -138 -62 -244l143 -148l-102 -110l-139 143q-107 -80 -250 -80q-140 0 -244 80l-135 -143l-104 110l141 144q-64 106 -64 246q0 134 66 241l-143 148l104 106l139 -145q104 77 244 80zM553 995
q-121 0 -187.5 -78.5t-66.5 -205.5q0 -145 74.5 -222t179.5 -77q114 0 183 73.5t69 223.5q0 128 -64.5 207t-187.5 79z" />
    <glyph glyph-name="yen" unicode="&#xa5;" horiz-adv-x="985" 
d="M848 342h-270v-342h-183v342h-266v125h266v129h-266v125h238l-371 627h207q260 -465 293 -541h2q21 47 297 541h190l-379 -627h242v-125h-270v-129h270v-125z" />
    <glyph glyph-name="brokenbar" unicode="&#xa6;" horiz-adv-x="479" 
d="M168 367h154v-734h-154v734zM168 1411h154v-729h-154v729z" />
    <glyph glyph-name="section" unicode="&#xa7;" horiz-adv-x="1146" 
d="M977 1096h-172q-18 71 -75.5 121.5t-164.5 50.5q-111 0 -163 -47.5t-52 -126.5q0 -45 16.5 -77.5t66 -63t84.5 -46.5t127 -52q5 -2 7 -3q134 -55 215 -110.5t124.5 -130.5t43.5 -173q0 -180 -153 -299q82 -79 82 -215q0 -157 -112.5 -249.5t-305.5 -92.5
q-199 0 -315 88.5t-138 247.5h178q22 -88 91 -141t188 -53q237 0 237 186q0 61 -24.5 100.5t-93 79t-201.5 86.5q-214 77 -298.5 166.5t-84.5 228.5q0 91 49.5 171.5t128.5 127.5q-84 78 -84 207q0 143 103.5 236.5t291.5 93.5q88 0 158.5 -21.5t114 -54t73 -76t42.5 -82
t16 -77.5zM250 598q0 -40 9 -70t35.5 -62t78.5 -61.5t133 -60.5q194 -70 268 -119q40 31 64 82t24 105q0 91 -53 151t-203 127q-147 60 -231 105q-125 -81 -125 -197z" />
    <glyph glyph-name="dieresis" unicode="&#xa8;" 
d="M301 1280h-158v223h158v-223zM674 1280h-156v223h156v-223z" />
    <glyph glyph-name="copyright" unicode="&#xa9;" horiz-adv-x="1619" 
d="M1020 569h129q-30 -125 -116 -196.5t-222 -71.5q-164 0 -267.5 115.5t-103.5 298.5q0 182 103 300t272 118q77 1 140 -23t103 -64t63.5 -87.5t29.5 -98.5h-129q-48 158 -209 158q-106 0 -170.5 -78t-64.5 -221q0 -138 66 -219.5t169 -81.5q154 0 207 151zM803 1444
q150 0 280 -54.5t222.5 -150.5t145 -231.5t52.5 -292.5t-53.5 -294t-146 -233.5t-222.5 -152t-278 -55.5q-202 0 -362.5 91.5t-251.5 259.5t-91 384q0 155 54 290.5t147.5 231.5t224.5 151.5t279 55.5zM801 1337q-124 0 -231 -43t-186 -121.5t-124 -198t-45 -265.5
q0 -176 76.5 -319t210.5 -223.5t299 -80.5q255 0 420 172t165 457q0 271 -165 446.5t-420 175.5z" />
    <glyph glyph-name="ordfeminine" unicode="&#xaa;" horiz-adv-x="720" 
d="M625 1001v-317q0 -117 2 -152h-133q-2 15 -4.5 54t-2.5 41q-58 -103 -208 -103q-112 0 -173 60t-61 151q0 111 81 166t226 55h131v54q0 52 -30 86t-103 34q-66 0 -96.5 -26.5t-38.5 -79.5h-137q5 42 20.5 77t46 66t84.5 48.5t127 17.5q78 0 133 -20t83.5 -55t40.5 -73
t12 -84zM487 840v18h-125q-174 0 -174 -108q0 -50 32.5 -80.5t98.5 -30.5q85 0 126.5 54t41.5 147z" />
    <glyph glyph-name="guillemotleft" unicode="&#xab;" horiz-adv-x="1118" 
d="M602 928l-309 -396l309 -401h-170l-315 401l315 396h170zM1001 928l-313 -396l313 -401h-174l-313 401l313 396h174z" />
    <glyph glyph-name="logicalnot" unicode="&#xac;" horiz-adv-x="1460" 
d="M154 829h1122v-657h-162v498h-960v159z" />
    <glyph glyph-name="uni00AD" unicode="&#xad;" horiz-adv-x="774" 
d="M119 606h536v-164h-536v164z" />
    <glyph glyph-name="registered" unicode="&#xae;" horiz-adv-x="718" 
d="M326 934h-82v342h145q60 0 97.5 -23.5t37.5 -74.5q0 -30 -17.5 -51.5t-39.5 -28.5q47 -17 47 -90q0 -49 4 -74h-80q-8 24 -8 72q0 34 -11 47.5t-44 13.5h-49v-133zM326 1219v-93h57q55 0 55 48q0 45 -55 45h-57zM379 1446q147 0 240.5 -101.5t93.5 -244.5
q0 -149 -93 -248.5t-241 -99.5q-143 0 -239.5 99.5t-96.5 248.5q0 146 95 246t241 100zM379 1376q-123 0 -191.5 -80.5t-68.5 -195.5q0 -117 74 -197t186 -80q122 0 189 76t67 199q0 119 -71 198.5t-185 79.5z" />
    <glyph glyph-name="macron" unicode="&#xaf;" 
d="M125 1432h567v-146h-567v146z" />
    <glyph glyph-name="degree" unicode="&#xb0;" horiz-adv-x="663" 
d="M342 1403q125 0 200.5 -80t75.5 -193q0 -127 -81 -204.5t-199 -77.5q-121 0 -196.5 76.5t-75.5 195.5q0 123 78.5 203t197.5 80zM340 1305q-75 0 -117.5 -52t-42.5 -129q0 -76 44.5 -126t115.5 -50q74 0 119 49.5t45 128.5q0 71 -42.5 125t-121.5 54z" />
    <glyph glyph-name="plusminus" unicode="&#xb1;" horiz-adv-x="1460" 
d="M655 1368h150v-461h485v-145h-485v-469h-150v469h-485v145h485v461zM1292 0h-1122v147h1122v-147z" />
    <glyph glyph-name="two.sups" unicode="&#xb2;" horiz-adv-x="741" 
d="M672 879h-596v10q0 109 64 202t204 179q104 65 134 97t30 83q0 60 -35 95.5t-102 35.5q-134 0 -158 -147h-141q12 122 94 195t211 73q61 0 111 -16t81.5 -41t53 -58.5t30.5 -66t9 -64.5q0 -49 -12.5 -85.5t-44 -68.5t-65 -55t-94.5 -59q-167 -99 -198 -189h446z" />
    <glyph glyph-name="three.sups" unicode="&#xb3;" horiz-adv-x="761" 
d="M301 1247v123h68q70 0 103.5 27t33.5 73q0 50 -33 82.5t-106 32.5q-74 0 -108 -33.5t-48 -83.5h-133q3 26 11.5 53t30.5 60.5t53 58.5t83 42.5t117 17.5q134 0 206 -62t72 -159q0 -63 -34.5 -104.5t-81.5 -59.5q64 -19 107.5 -69.5t43.5 -125.5q0 -104 -77 -178t-236 -74
q-70 0 -126 18t-88.5 44.5t-55 61.5t-31.5 63.5t-13 56.5h142q11 -55 58 -92t118 -37q76 0 117 36.5t41 96.5q0 66 -42 98.5t-116 32.5h-76z" />
    <glyph glyph-name="acute" unicode="&#xb4;" 
d="M547 1524h221l-315 -314h-168z" />
    <glyph glyph-name="uni00B5" unicode="&#xb5;" horiz-adv-x="1132" 
d="M508 -20q-124 0 -191 90q11 -173 11 -490h-178q1 72 1 217t-0.5 324.5t-0.5 234.5v682h178v-645q0 -43 5 -77.5t19 -69.5t36.5 -58.5t60.5 -38t88 -14.5q124 0 194 83t70 255v565h180v-739q0 -201 4 -299h-174q-6 40 -10 164q-41 -91 -109 -137.5t-184 -46.5z" />
    <glyph glyph-name="paragraph" unicode="&#xb6;" horiz-adv-x="1230" 
d="M975 -322h-144v607h-260q-235 0 -359 137t-124 379q0 239 124 374.5t359 135.5h263q0 68 8 114h135q-2 -39 -2 -170v-1577zM735 432h96v737h-94q-41 0 -72 -12t-51 -38t-32 -54.5t-18 -74t-8 -83.5t-3 -96q0 -167 15 -232q33 -141 156 -147h11z" />
    <glyph glyph-name="periodcentered" unicode="&#xb7;" horiz-adv-x="415" 
d="M301 410h-188v303h188v-303z" />
    <glyph glyph-name="cedilla" unicode="&#xb8;" 
d="M379 20l127 -20l-84 -104q33 -5 63 -16t63 -32t53 -58.5t20 -86.5q0 -58 -23.5 -99t-63.5 -61.5t-80.5 -29.5t-86.5 -9q-92 0 -148 25v123q23 -10 64.5 -16.5t68.5 -6.5q109 0 109 72q0 27 -17 46t-49.5 28t-66 13t-78.5 5v57z" />
    <glyph glyph-name="one.sups" unicode="&#xb9;" horiz-adv-x="509" 
d="M367 877h-148v643q-31 -17 -86.5 -30t-85.5 -13v112q123 20 219 113h101v-825z" />
    <glyph glyph-name="ordmasculine" unicode="&#xba;" horiz-adv-x="772" 
d="M391 1233q150 0 238 -96t88 -258q0 -170 -93 -262.5t-243 -92.5q-145 0 -235.5 97t-90.5 256q0 163 95 259.5t241 96.5zM385 1122q-89 0 -137.5 -63.5t-48.5 -179.5q0 -110 49.5 -177t136.5 -67q91 0 139.5 61.5t48.5 182.5q-2 115 -49 179t-139 64z" />
    <glyph glyph-name="guillemotright" unicode="&#xbb;" horiz-adv-x="1118" 
d="M518 131l307 397l-309 400h172l313 -400l-313 -397h-170zM117 131l313 397l-313 400h174l313 -400l-313 -397h-174z" />
    <glyph glyph-name="onequarter" unicode="&#xbc;" horiz-adv-x="1591" 
d="M367 2h-146l883 1348h143zM387 535h-147v643q-31 -17 -86.5 -30t-85.5 -13v112q123 20 219 113h100v-825zM1409 0h-137v211h-406v113l371 485h172v-483h125l-12 -115h-113v-211zM1012 326h260v166q0 126 6 196q-15 -24 -61 -87t-112.5 -151t-92.5 -124z" />
    <glyph glyph-name="onehalf" unicode="&#xbd;" horiz-adv-x="1665" 
d="M362 0h-145l883 1348h143zM393 535h-147v643q-31 -17 -86.5 -30t-85.5 -13v112q123 20 219 113h100v-825zM1577 0h-596v10q0 109 64 202t204 179q104 65 134 97t30 83q0 60 -35 95.5t-102 35.5q-134 0 -158 -147h-141q12 122 94 195t211 73q76 0 134 -23.5t89 -61.5
t46.5 -78.5t15.5 -81.5q0 -49 -12.5 -86t-43.5 -68.5t-65 -55.5t-94 -59q-169 -100 -199 -188h446z" />
    <glyph glyph-name="threequarters" unicode="&#xbe;" horiz-adv-x="1761" 
d="M590 2h-146l883 1348h143zM1591 0h-137v211h-405v113l370 485h172v-483h125l-12 -115h-113v-211zM1194 326h260v166q0 126 6 196q-15 -24 -61 -87t-112.5 -151t-92.5 -124zM332 905v123h67q70 0 104 27.5t34 72.5q0 50 -33.5 82.5t-106.5 32.5q-74 0 -107.5 -33
t-47.5 -84h-133q3 26 11.5 53t30 60.5t52.5 58.5t83 42.5t117 17.5q134 0 206.5 -62t72.5 -159q0 -63 -35 -104.5t-82 -59.5q64 -19 108 -69.5t44 -125.5q0 -104 -77.5 -178t-236.5 -74q-70 0 -125.5 18t-88 44.5t-55.5 61.5t-31.5 63.5t-12.5 56.5h141q11 -55 58.5 -92
t118.5 -37q76 0 116.5 36.5t40.5 96.5q0 66 -41.5 98.5t-115.5 32.5h-76z" />
    <glyph glyph-name="questiondown" unicode="&#xbf;" horiz-adv-x="913" 
d="M45 -47q0 110 42.5 195t152.5 184q76 70 106.5 127t30.5 131v16h184v-33q0 -89 -40.5 -168t-153.5 -180q-85 -78 -114.5 -139t-29.5 -131q0 -85 59.5 -150t168.5 -65q111 0 175 58.5t81 183.5h161q-2 -51 -14 -100.5t-43 -103.5t-77 -94t-122.5 -66t-173.5 -26
q-98 0 -175.5 31t-123.5 82.5t-70 114.5t-24 133zM377 1038h184v-282h-184v282z" />
    <glyph glyph-name="Agrave" unicode="&#xc0;" horiz-adv-x="1351" 
d="M950 428h-567l-154 -428h-188l508 1425h231l531 -1425h-203zM432 590h471q-212 581 -241 682h-3q-33 -115 -227 -682zM244 1833h237l281 -281h-182z" />
    <glyph glyph-name="Aacute" unicode="&#xc1;" horiz-adv-x="1351" 
d="M950 428h-567l-154 -428h-188l508 1425h231l531 -1425h-203zM432 590h471q-212 581 -241 682h-3q-33 -115 -227 -682zM868 1833h236l-350 -281h-187z" />
    <glyph glyph-name="Acircumflex" unicode="&#xc2;" horiz-adv-x="1351" 
d="M950 428h-567l-154 -428h-188l508 1425h231l531 -1425h-203zM432 590h471q-212 581 -241 682h-3q-33 -115 -227 -682zM575 1821h189l266 -269h-190l-172 170l-183 -170h-188z" />
    <glyph glyph-name="Atilde" unicode="&#xc3;" horiz-adv-x="1351" 
d="M950 428h-567l-154 -428h-188l508 1425h231l531 -1425h-203zM432 590h471q-212 581 -241 682h-3q-33 -115 -227 -682zM444 1569h-131v45q0 107 45.5 154t130.5 47q54 0 120.5 -27.5t123 -54.5t86.5 -27q66 0 66 88v25h125v-43q0 -115 -44 -163t-130 -48q-50 0 -115 27
t-123.5 54t-93.5 27q-60 0 -60 -69v-35z" />
    <glyph glyph-name="Adieresis" unicode="&#xc4;" horiz-adv-x="1351" 
d="M950 428h-567l-154 -428h-188l508 1425h231l531 -1425h-203zM432 590h471q-212 581 -241 682h-3q-33 -115 -227 -682zM541 1577h-158v225h158v-225zM940 1577h-156v225h156v-225z" />
    <glyph glyph-name="Aring" unicode="&#xc5;" horiz-adv-x="1351" 
d="M950 428h-567l-154 -428h-188l508 1425h231l531 -1425h-203zM432 590h471q-212 581 -241 682h-3q-33 -115 -227 -682zM664 1501q-99 0 -159.5 57t-60.5 142t60 144t160 59q99 0 158 -57t59 -144q0 -86 -60.5 -143.5t-156.5 -57.5zM664 1593q51 0 78.5 32t27.5 75
q0 44 -27 77t-79 33t-79.5 -31t-27.5 -75q0 -45 27 -78t80 -33z" />
    <glyph glyph-name="AE" unicode="&#xc6;" horiz-adv-x="1982" 
d="M846 1425h1030v-163h-741v-433h706v-163h-706v-502h776l-25 -164h-938v485h-483l-303 -485h-205zM555 649h393v627h-6z" />
    <glyph glyph-name="Ccedilla" unicode="&#xc7;" horiz-adv-x="1404" 
d="M1126 403h191q-45 -174 -167.5 -285t-318.5 -132l-71 -90q26 -4 49.5 -11t52 -22t48.5 -35t34 -52.5t14 -72.5q0 -58 -23.5 -99t-63 -61.5t-80 -29.5t-86.5 -9q-92 0 -148 25v123q23 -10 64.5 -16.5t68.5 -6.5q109 0 109 72q0 27 -17 46t-49.5 28t-66 13t-78.5 5v57
l100 134q-141 11 -252.5 71.5t-182 158.5t-107.5 224t-37 271q0 148 41 279t119.5 234t204 163.5t282.5 60.5q240 0 383.5 -120t177.5 -310h-189q-20 62 -49.5 109t-73.5 85t-108.5 58t-146.5 20q-92 0 -167 -32t-125.5 -86.5t-85 -129t-50 -156t-15.5 -169.5q0 -87 15 -168
t49 -156t85 -130.5t128.5 -88.5t173.5 -33q79 0 141.5 21t105.5 60t71 83t50 100z" />
    <glyph glyph-name="Egrave" unicode="&#xc8;" horiz-adv-x="1222" 
d="M1081 827v-161h-708v-504h778l-25 -162h-938v1425h928v-161h-743v-437h708zM258 1853h238l280 -280h-182z" />
    <glyph glyph-name="Eacute" unicode="&#xc9;" horiz-adv-x="1222" 
d="M1081 827v-161h-708v-504h778l-25 -162h-938v1425h928v-161h-743v-437h708zM836 1849h235l-350 -280h-186z" />
    <glyph glyph-name="Ecircumflex" unicode="&#xca;" horiz-adv-x="1222" 
d="M1081 827v-161h-708v-504h778l-25 -162h-938v1425h928v-161h-743v-437h708zM563 1833h189l266 -268h-191l-172 170l-182 -170h-188z" />
    <glyph glyph-name="Edieresis" unicode="&#xcb;" horiz-adv-x="1222" 
d="M1081 827v-161h-708v-504h778l-25 -162h-938v1425h928v-161h-743v-437h708zM532 1587h-157v225h157v-225zM932 1587h-156v225h156v-225z" />
    <glyph glyph-name="Igrave" unicode="&#xcc;" horiz-adv-x="565" 
d="M188 1425h189v-1425h-189v1425zM-135 1839h237l281 -280h-182z" />
    <glyph glyph-name="Iacute" unicode="&#xcd;" horiz-adv-x="565" 
d="M188 1425h189v-1425h-189v1425zM487 1833h236l-350 -281h-187z" />
    <glyph glyph-name="Icircumflex" unicode="&#xce;" horiz-adv-x="565" 
d="M188 1425h189v-1425h-189v1425zM195 1821h188l266 -269h-190l-172 170l-183 -170h-188z" />
    <glyph glyph-name="Idieresis" unicode="&#xcf;" horiz-adv-x="565" 
d="M188 1425h189v-1425h-189v1425zM162 1577h-158v225h158v-225zM561 1577h-155v225h155v-225z" />
    <glyph glyph-name="Eth" unicode="&#xd0;" horiz-adv-x="1495" 
d="M37 805h172v620h508q302 0 487 -190.5t185 -507.5q0 -210 -82.5 -375t-237.5 -258.5t-358 -93.5h-502v662h-172v143zM397 1264v-459h369v-143h-369v-502h299q123 0 218.5 42.5t155 118.5t90 177.5t30.5 224.5q0 86 -17.5 164t-56.5 147.5t-95.5 120t-140 80t-184.5 29.5
h-299z" />
    <glyph glyph-name="Ntilde" unicode="&#xd1;" horiz-adv-x="1523" 
d="M367 0h-179v1425h250q43 -69 243.5 -393.5t325 -529t160.5 -273.5h2q-12 156 -12 639v557h178v-1425h-235q-656 1078 -740 1231h-4q11 -178 11 -662v-569zM545 1569h-131v45q0 107 45.5 154t130.5 47q54 0 120.5 -27.5t123 -54.5t86.5 -27q65 0 65 88v25h125v-43
q0 -115 -44 -163t-130 -48q-50 0 -115 27t-123.5 54t-93.5 27q-59 0 -59 -69v-35z" />
    <glyph glyph-name="Ograve" unicode="&#xd2;" horiz-adv-x="1538" 
d="M778 1446q197 0 346 -93t227.5 -257t78.5 -375q0 -119 -26 -228t-80.5 -202.5t-132 -162.5t-188 -108.5t-241.5 -39.5q-154 0 -278.5 57t-206 156t-125 232.5t-43.5 287.5t44.5 287t127.5 232.5t211 156.5t286 57zM770 1284q-94 0 -171.5 -30t-131 -82t-90 -123.5
t-53.5 -154t-17 -175.5q0 -117 30 -220t86 -183.5t145.5 -127.5t201.5 -47q120 0 211 47t145 128.5t80.5 182.5t26.5 218q0 93 -18 177t-55.5 155.5t-91 123.5t-130 81.5t-168.5 29.5zM375 1860h237l281 -281h-182z" />
    <glyph glyph-name="Oacute" unicode="&#xd3;" horiz-adv-x="1538" 
d="M778 1446q197 0 346 -93t227.5 -257t78.5 -375q0 -119 -26 -228t-80.5 -202.5t-132 -162.5t-188 -108.5t-241.5 -39.5q-154 0 -278.5 57t-206 156t-125 232.5t-43.5 287.5t44.5 287t127.5 232.5t211 156.5t286 57zM770 1284q-94 0 -171.5 -30t-131 -82t-90 -123.5
t-53.5 -154t-17 -175.5q0 -117 30 -220t86 -183.5t145.5 -127.5t201.5 -47q120 0 211 47t145 128.5t80.5 182.5t26.5 218q0 93 -18 177t-55.5 155.5t-91 123.5t-130 81.5t-168.5 29.5zM958 1847h236l-350 -280h-187z" />
    <glyph glyph-name="Ocircumflex" unicode="&#xd4;" horiz-adv-x="1538" 
d="M778 1446q197 0 346 -93t227.5 -257t78.5 -375q0 -119 -26 -228t-80.5 -202.5t-132 -162.5t-188 -108.5t-241.5 -39.5q-154 0 -278.5 57t-206 156t-125 232.5t-43.5 287.5t44.5 287t127.5 232.5t211 156.5t286 57zM770 1284q-94 0 -171.5 -30t-131 -82t-90 -123.5
t-53.5 -154t-17 -175.5q0 -117 30 -220t86 -183.5t145.5 -127.5t201.5 -47q120 0 211 47t145 128.5t80.5 182.5t26.5 218q0 93 -18 177t-55.5 155.5t-91 123.5t-130 81.5t-168.5 29.5zM682 1829h188l267 -268h-191l-172 170l-182 -170h-189z" />
    <glyph glyph-name="Otilde" unicode="&#xd5;" horiz-adv-x="1538" 
d="M778 1446q197 0 346 -93t227.5 -257t78.5 -375q0 -119 -26 -228t-80.5 -202.5t-132 -162.5t-188 -108.5t-241.5 -39.5q-154 0 -278.5 57t-206 156t-125 232.5t-43.5 287.5t44.5 287t127.5 232.5t211 156.5t286 57zM770 1284q-94 0 -171.5 -30t-131 -82t-90 -123.5
t-53.5 -154t-17 -175.5q0 -117 30 -220t86 -183.5t145.5 -127.5t201.5 -47q120 0 211 47t145 128.5t80.5 182.5t26.5 218q0 93 -18 177t-55.5 155.5t-91 123.5t-130 81.5t-168.5 29.5zM553 1579h-131v45q0 107 45.5 154t130.5 47q54 0 120.5 -27.5t123 -54.5t86.5 -27
q65 0 65 88v25h125v-43q0 -115 -44 -163t-130 -48q-50 0 -115 27t-123.5 54t-93.5 27q-59 0 -59 -69v-35z" />
    <glyph glyph-name="Odieresis" unicode="&#xd6;" horiz-adv-x="1538" 
d="M778 1446q197 0 346 -93t227.5 -257t78.5 -375q0 -119 -26 -228t-80.5 -202.5t-132 -162.5t-188 -108.5t-241.5 -39.5q-154 0 -278.5 57t-206 156t-125 232.5t-43.5 287.5t44.5 287t127.5 232.5t211 156.5t286 57zM770 1284q-94 0 -171.5 -30t-131 -82t-90 -123.5
t-53.5 -154t-17 -175.5q0 -117 30 -220t86 -183.5t145.5 -127.5t201.5 -47q120 0 211 47t145 128.5t80.5 182.5t26.5 218q0 93 -18 177t-55.5 155.5t-91 123.5t-130 81.5t-168.5 29.5zM649 1587h-157v225h157v-225zM1049 1587h-156v225h156v-225z" />
    <glyph glyph-name="multiply" unicode="&#xd7;" horiz-adv-x="1460" 
d="M1284 111l-106 -111l-447 467l-446 -467l-107 111l449 464l-449 469l105 107l448 -467l449 467l104 -107l-448 -469z" />
    <glyph glyph-name="Oslash" unicode="&#xd8;" horiz-adv-x="1538" 
d="M778 1446q196 0 350 -96l54 75h143l-106 -147q103 -99 159 -243t56 -314q0 -122 -26 -231.5t-80.5 -203t-133 -161.5t-189 -106.5t-243.5 -38.5q-223 0 -381 118l-70 -98h-143l127 178q-91 99 -138.5 237t-47.5 298q0 151 45.5 284t129.5 233t211.5 158t282.5 58z
M299 719q0 -230 107 -385l624 878q-113 76 -260 76q-150 0 -257.5 -74.5t-160.5 -201.5t-53 -293zM770 137q97 0 175.5 30t132.5 82.5t90.5 126.5t53.5 159t17 182q0 260 -123 413l-633 -888q118 -105 287 -105z" />
    <glyph glyph-name="Ugrave" unicode="&#xd9;" horiz-adv-x="1462" 
d="M174 1425h193v-858q0 -97 21 -173t55 -123t82.5 -77.5t99 -42.5t108.5 -12q84 0 147.5 21t114 68.5t77 133t26.5 205.5v858h190v-847q0 -596 -559 -596q-93 0 -172.5 18t-151 60.5t-122 108t-80 166t-29.5 228.5v862zM340 1833h238l280 -281h-182z" />
    <glyph glyph-name="Uacute" unicode="&#xda;" horiz-adv-x="1462" 
d="M174 1425h193v-858q0 -97 21 -173t55 -123t82.5 -77.5t99 -42.5t108.5 -12q84 0 147.5 21t114 68.5t77 133t26.5 205.5v858h190v-847q0 -596 -559 -596q-93 0 -172.5 18t-151 60.5t-122 108t-80 166t-29.5 228.5v862zM915 1833h236l-350 -281h-187z" />
    <glyph glyph-name="Ucircumflex" unicode="&#xdb;" horiz-adv-x="1462" 
d="M174 1425h193v-858q0 -97 21 -173t55 -123t82.5 -77.5t99 -42.5t108.5 -12q84 0 147.5 21t114 68.5t77 133t26.5 205.5v858h190v-847q0 -596 -559 -596q-93 0 -172.5 18t-151 60.5t-122 108t-80 166t-29.5 228.5v862zM643 1837h188l267 -268h-191l-172 170l-182 -170
h-188z" />
    <glyph glyph-name="Udieresis" unicode="&#xdc;" horiz-adv-x="1462" 
d="M174 1425h193v-858q0 -97 21 -173t55 -123t82.5 -77.5t99 -42.5t108.5 -12q84 0 147.5 21t114 68.5t77 133t26.5 205.5v858h190v-847q0 -596 -559 -596q-93 0 -172.5 18t-151 60.5t-122 108t-80 166t-29.5 228.5v862zM610 1577h-157v225h157v-225zM1010 1577h-156v225
h156v-225z" />
    <glyph glyph-name="Yacute" unicode="&#xdd;" horiz-adv-x="1210" 
d="M692 0h-190v522q0 26 -10 39l-502 864h217q334 -598 401 -725q59 118 408 725h203l-519 -868q-8 -16 -8 -37v-520zM793 1829h235l-350 -281h-186z" />
    <glyph glyph-name="Thorn" unicode="&#xde;" horiz-adv-x="1286" 
d="M188 0v1425h189v-280h325q238 0 361 -114t123 -296q0 -201 -133.5 -313.5t-366.5 -112.5h-309v-309h-189zM377 987v-518h303q148 0 230.5 60t82.5 204q0 124 -80 189t-227 65h-309z" />
    <glyph glyph-name="germandbls" unicode="&#xdf;" horiz-adv-x="1200" 
d="M614 1526q117 0 207.5 -34t143 -90.5t79.5 -122t29 -136.5q0 -43 -4 -66l-348 -237v-2l164 -115q141 -100 194.5 -185t53.5 -196q0 -161 -105 -260.5t-287 -99.5q-102 0 -182 26.5t-129 69.5v180q62 -64 144.5 -97.5t162.5 -33.5q111 0 165 59t54 138q0 71 -38.5 129
t-139.5 129l-184 129q-73 52 -73.5 110t75.5 111l293 201q1 31 -6 61.5t-26 64t-49 59t-81 42t-115 16.5q-136 0 -208 -67.5t-72 -231.5v-1077h-180v1090q0 115 34.5 200.5t97.5 136t145 75t185 24.5z" />
    <glyph glyph-name="agrave" unicode="&#xe0;" horiz-adv-x="1083" 
d="M928 723v-496q0 -155 14 -227h-172q-13 37 -16 135q-87 -160 -322 -160q-89 0 -158 27t-110 73t-61.5 101.5t-20.5 116.5q0 170 127 254t364 84h177v88q0 40 -8 71.5t-30 63.5t-69.5 50t-116.5 18q-61 0 -103.5 -13.5t-65.5 -40.5t-33.5 -51t-18.5 -61h-174q5 46 18.5 87
t43 82.5t73 71t112 48t154.5 18.5q396 0 396 -340zM752 473v33h-168q-159 0 -238.5 -48.5t-79.5 -154.5q0 -83 54 -134.5t149 -51.5q73 0 125.5 20t82.5 50.5t47.5 79.5t22.5 96t5 110zM170 1524h223l262 -314h-170z" />
    <glyph glyph-name="aacute" unicode="&#xe1;" horiz-adv-x="1083" 
d="M928 723v-496q0 -155 14 -227h-172q-13 37 -16 135q-87 -160 -322 -160q-89 0 -158 27t-110 73t-61.5 101.5t-20.5 116.5q0 170 127 254t364 84h177v88q0 40 -8 71.5t-30 63.5t-69.5 50t-116.5 18q-61 0 -103.5 -13.5t-65.5 -40.5t-33.5 -51t-18.5 -61h-174q5 46 18.5 87
t43 82.5t73 71t112 48t154.5 18.5q396 0 396 -340zM752 473v33h-168q-159 0 -238.5 -48.5t-79.5 -154.5q0 -83 54 -134.5t149 -51.5q73 0 125.5 20t82.5 50.5t47.5 79.5t22.5 96t5 110zM680 1524h221l-315 -314h-168z" />
    <glyph glyph-name="acircumflex" unicode="&#xe2;" horiz-adv-x="1083" 
d="M928 723v-496q0 -155 14 -227h-172q-13 37 -16 135q-87 -160 -322 -160q-89 0 -158 27t-110 73t-61.5 101.5t-20.5 116.5q0 170 127 254t364 84h177v88q0 40 -8 71.5t-30 63.5t-69.5 50t-116.5 18q-61 0 -103.5 -13.5t-65.5 -40.5t-33.5 -51t-18.5 -61h-174q5 46 18.5 87
t43 82.5t73 71t112 48t154.5 18.5q396 0 396 -340zM752 473v33h-168q-159 0 -238.5 -48.5t-79.5 -154.5q0 -83 54 -134.5t149 -51.5q73 0 125.5 20t82.5 50.5t47.5 79.5t22.5 96t5 110zM457 1503h170l227 -311h-176l-137 207l-135 -207h-175z" />
    <glyph glyph-name="atilde" unicode="&#xe3;" horiz-adv-x="1083" 
d="M928 723v-496q0 -155 14 -227h-172q-13 37 -16 135q-87 -160 -322 -160q-89 0 -158 27t-110 73t-61.5 101.5t-20.5 116.5q0 170 127 254t364 84h177v88q0 40 -8 71.5t-30 63.5t-69.5 50t-116.5 18q-61 0 -103.5 -13.5t-65.5 -40.5t-33.5 -51t-18.5 -61h-174q5 46 18.5 87
t43 82.5t73 71t112 48t154.5 18.5q396 0 396 -340zM752 473v33h-168q-159 0 -238.5 -48.5t-79.5 -154.5q0 -83 54 -134.5t149 -51.5q73 0 125.5 20t82.5 50.5t47.5 79.5t22.5 96t5 110zM352 1239h-127v47q0 197 166 197q49 0 105 -25.5t104 -50.5t78 -25q29 0 43 18.5
t14 67.5v21h125v-43q0 -209 -170 -209q-50 0 -102.5 25.5t-99.5 51t-82 25.5q-54 0 -54 -67v-33z" />
    <glyph glyph-name="adieresis" unicode="&#xe4;" horiz-adv-x="1083" 
d="M928 723v-496q0 -155 14 -227h-172q-13 37 -16 135q-87 -160 -322 -160q-89 0 -158 27t-110 73t-61.5 101.5t-20.5 116.5q0 170 127 254t364 84h177v88q0 40 -8 71.5t-30 63.5t-69.5 50t-116.5 18q-61 0 -103.5 -13.5t-65.5 -40.5t-33.5 -51t-18.5 -61h-174q5 46 18.5 87
t43 82.5t73 71t112 48t154.5 18.5q396 0 396 -340zM752 473v33h-168q-159 0 -238.5 -48.5t-79.5 -154.5q0 -83 54 -134.5t149 -51.5q73 0 125.5 20t82.5 50.5t47.5 79.5t22.5 96t5 110zM434 1280h-158v223h158v-223zM807 1280h-156v223h156v-223z" />
    <glyph glyph-name="aring" unicode="&#xe5;" horiz-adv-x="1083" 
d="M928 723v-496q0 -155 14 -227h-172q-13 37 -16 135q-87 -160 -322 -160q-89 0 -158 27t-110 73t-61.5 101.5t-20.5 116.5q0 170 127 254t364 84h177v88q0 40 -8 71.5t-30 63.5t-69.5 50t-116.5 18q-61 0 -103.5 -13.5t-65.5 -40.5t-33.5 -51t-18.5 -61h-174q5 46 18.5 87
t43 82.5t73 71t112 48t154.5 18.5q396 0 396 -340zM752 473v33h-168q-159 0 -238.5 -48.5t-79.5 -154.5q0 -83 54 -134.5t149 -51.5q73 0 125.5 20t82.5 50.5t47.5 79.5t22.5 96t5 110zM543 1159q-99 0 -159 57t-60 142t60 144t159 59t158 -57t59 -144q0 -86 -60.5 -143.5
t-156.5 -57.5zM543 1251q51 0 78.5 32t27.5 75q0 44 -27 77t-79 33t-79.5 -31t-27.5 -75q0 -45 27 -78t80 -33z" />
    <glyph glyph-name="ae" unicode="&#xe6;" horiz-adv-x="1740" 
d="M1473 291h178q-18 -62 -48 -113.5t-80.5 -98t-130.5 -73t-182 -26.5q-145 0 -241 58.5t-144 145.5q-107 -204 -381 -204q-174 0 -268 91t-94 224q0 61 18 110t47 82.5t73.5 58.5t90.5 39.5t105 23t110.5 11.5t112.5 3h119v88q0 41 -9 75.5t-30.5 67t-65.5 51.5t-106 19
q-107 0 -157 -42.5t-64 -129.5h-191q12 144 115.5 225.5t284.5 81.5q134 0 222.5 -42t121.5 -124q50 74 139.5 120t212.5 46q111 0 197 -41t135.5 -109t74.5 -149t25 -170q0 -67 -2 -96h-733q-1 -170 77.5 -270.5t213.5 -100.5q106 0 163.5 42t90.5 126zM760 473v21h-131
q-88 0 -149.5 -7.5t-113 -27.5t-77 -59t-25.5 -97q0 -74 59 -126t152 -52q153 0 219 87t66 261zM932 623h555q-3 131 -70.5 212.5t-195.5 82.5q-125 2 -200.5 -74.5t-88.5 -220.5z" />
    <glyph glyph-name="ccedilla" unicode="&#xe7;" horiz-adv-x="1036" 
d="M795 317h178q-31 -129 -113.5 -219.5t-224.5 -115.5l-70 -86q33 -5 63 -16t63 -32t53 -58.5t20 -86.5q0 -58 -23.5 -99t-63.5 -61.5t-80.5 -29.5t-86.5 -9q-92 0 -148 25v123q23 -10 64.5 -16.5t69.5 -6.5q108 0 108 72q0 27 -17 46t-49.5 28t-66 13t-78.5 5v57l96 127
q-191 19 -299 161.5t-108 375.5q0 111 31.5 209.5t89.5 174.5t149.5 120.5t204.5 44.5q86 0 156.5 -23.5t116 -60t77.5 -83.5t47 -91.5t19 -87.5h-178q-47 196 -242 196q-135 0 -211 -107t-76 -286q0 -181 74 -288t207 -107q181 0 248 192z" />
    <glyph glyph-name="egrave" unicode="&#xe8;" horiz-adv-x="1071" 
d="M993 487h-733q2 -161 78.5 -261.5t206.5 -100.5q58 0 102.5 13.5t72.5 39.5t44 50.5t31 58.5h182q-17 -56 -46.5 -105.5t-79.5 -99t-130.5 -78.5t-181.5 -29q-95 0 -172.5 30t-130 81t-88.5 120t-52 144.5t-16 157.5q0 117 30 217t87 176t148 119t206 43q97 0 175 -30
t127 -78.5t82 -114t46.5 -131.5t13.5 -136q0 -59 -2 -86zM266 612h547q-2 136 -69.5 223t-194.5 87q-252 0 -283 -310zM180 1524h223l263 -314h-170z" />
    <glyph glyph-name="eacute" unicode="&#xe9;" horiz-adv-x="1071" 
d="M993 487h-733q2 -161 78.5 -261.5t206.5 -100.5q58 0 102.5 13.5t72.5 39.5t44 50.5t31 58.5h182q-17 -56 -46.5 -105.5t-79.5 -99t-130.5 -78.5t-181.5 -29q-95 0 -172.5 30t-130 81t-88.5 120t-52 144.5t-16 157.5q0 117 30 217t87 176t148 119t206 43q97 0 175 -30
t127 -78.5t82 -114t46.5 -131.5t13.5 -136q0 -59 -2 -86zM266 612h547q-2 136 -69.5 223t-194.5 87q-252 0 -283 -310zM688 1524h221l-315 -314h-168z" />
    <glyph glyph-name="ecircumflex" unicode="&#xea;" horiz-adv-x="1071" 
d="M993 487h-733q2 -161 78.5 -261.5t206.5 -100.5q58 0 102.5 13.5t72.5 39.5t44 50.5t31 58.5h182q-17 -56 -46.5 -105.5t-79.5 -99t-130.5 -78.5t-181.5 -29q-95 0 -172.5 30t-130 81t-88.5 120t-52 144.5t-16 157.5q0 117 30 217t87 176t148 119t206 43q97 0 175 -30
t127 -78.5t82 -114t46.5 -131.5t13.5 -136q0 -59 -2 -86zM266 612h547q-2 136 -69.5 223t-194.5 87q-252 0 -283 -310zM471 1503h170l227 -311h-176l-137 207l-135 -207h-174z" />
    <glyph glyph-name="edieresis" unicode="&#xeb;" horiz-adv-x="1071" 
d="M993 487h-733q2 -161 78.5 -261.5t206.5 -100.5q58 0 102.5 13.5t72.5 39.5t44 50.5t31 58.5h182q-17 -56 -46.5 -105.5t-79.5 -99t-130.5 -78.5t-181.5 -29q-95 0 -172.5 30t-130 81t-88.5 120t-52 144.5t-16 157.5q0 117 30 217t87 176t148 119t206 43q97 0 175 -30
t127 -78.5t82 -114t46.5 -131.5t13.5 -136q0 -59 -2 -86zM266 612h547q-2 136 -69.5 223t-194.5 87q-252 0 -283 -310zM434 1280h-158v223h158v-223zM807 1280h-156v223h156v-223z" />
    <glyph glyph-name="igrave" unicode="&#xec;" horiz-adv-x="485" 
d="M154 0v1038h180v-1038h-180zM-154 1524h224l262 -314h-170z" />
    <glyph glyph-name="iacute" unicode="&#xed;" horiz-adv-x="485" 
d="M154 0v1038h180v-1038h-180zM416 1524h221l-315 -314h-168z" />
    <glyph glyph-name="icircumflex" unicode="&#xee;" horiz-adv-x="485" 
d="M154 0v1038h180v-1038h-180zM158 1503h170l227 -311h-176l-137 207l-136 -207h-174z" />
    <glyph glyph-name="idieresis" unicode="&#xef;" horiz-adv-x="485" 
d="M154 0v1038h180v-1038h-180zM135 1280h-158v223h158v-223zM508 1280h-156v223h156v-223z" />
    <glyph glyph-name="eth" unicode="&#xf0;" horiz-adv-x="1105" 
d="M215 1384v142q222 -31 389 -131l221 151l58 -96l-181 -123q153 -122 235.5 -307t82.5 -430q0 -156 -36 -275t-101.5 -192.5t-152 -110.5t-191.5 -37q-143 0 -249 70.5t-160 190t-54 270.5q0 241 136 381.5t345 140.5q76 0 125 -18t94 -52q-69 171 -209 279l-260 -176
l-57 94l213 145q-101 53 -248 84zM557 879q-142 0 -220.5 -106.5t-78.5 -272.5q0 -156 78 -264.5t213 -108.5q145 0 218 118t73 322q0 139 -68 225.5t-215 86.5z" />
    <glyph glyph-name="ntilde" unicode="&#xf1;" horiz-adv-x="1159" 
d="M154 0v776q0 182 -2 262h174q8 -41 8 -170q91 195 325 195q157 0 253 -98.5t96 -296.5v-668h-181v645q0 262 -219 262q-141 0 -207.5 -96t-66.5 -262v-549h-180zM383 1245h-127v47q0 197 166 197q49 0 105 -25t104 -50t78 -25q29 0 43 18.5t14 67.5v20h125v-43
q0 -209 -170 -209q-39 0 -81.5 16t-72.5 35.5t-66.5 35.5t-64.5 16q-53 0 -53 -68v-33z" />
    <glyph glyph-name="ograve" unicode="&#xf2;" horiz-adv-x="1126" 
d="M569 1063q217 0 347.5 -148t130.5 -393q0 -114 -32.5 -213t-93 -173.5t-154.5 -117.5t-210 -43q-219 0 -348 152t-129 391q0 155 56 277.5t168.5 195t264.5 72.5zM561 913q-143 0 -220 -106t-77 -287q0 -174 82 -284.5t219 -110.5q139 0 218 107t79 286t-79 287t-222 108
zM193 1524h223l262 -314h-170z" />
    <glyph glyph-name="oacute" unicode="&#xf3;" horiz-adv-x="1126" 
d="M569 1063q217 0 347.5 -148t130.5 -393q0 -114 -32.5 -213t-93 -173.5t-154.5 -117.5t-210 -43q-219 0 -348 152t-129 391q0 155 56 277.5t168.5 195t264.5 72.5zM561 913q-143 0 -220 -106t-77 -287q0 -174 82 -284.5t219 -110.5q139 0 218 107t79 286t-79 287t-222 108
zM700 1524h222l-316 -314h-168z" />
    <glyph glyph-name="ocircumflex" unicode="&#xf4;" horiz-adv-x="1126" 
d="M569 1063q217 0 347.5 -148t130.5 -393q0 -114 -32.5 -213t-93 -173.5t-154.5 -117.5t-210 -43q-219 0 -348 152t-129 391q0 155 56 277.5t168.5 195t264.5 72.5zM561 913q-143 0 -220 -106t-77 -287q0 -174 82 -284.5t219 -110.5q139 0 218 107t79 286t-79 287t-222 108
zM475 1503h170l227 -311h-176l-137 207l-135 -207h-174z" />
    <glyph glyph-name="otilde" unicode="&#xf5;" horiz-adv-x="1126" 
d="M569 1063q217 0 347.5 -148t130.5 -393q0 -114 -32.5 -213t-93 -173.5t-154.5 -117.5t-210 -43q-219 0 -348 152t-129 391q0 155 56 277.5t168.5 195t264.5 72.5zM561 913q-143 0 -220 -106t-77 -287q0 -174 82 -284.5t219 -110.5q139 0 218 107t79 286t-79 287t-222 108
zM371 1239h-127v47q0 197 166 197q49 0 105 -25.5t103.5 -50.5t77.5 -25t44 18.5t14 67.5v21h125v-43q0 -209 -170 -209q-50 0 -103 25.5t-100 51t-82 25.5q-53 0 -53 -67v-33z" />
    <glyph glyph-name="odieresis" unicode="&#xf6;" horiz-adv-x="1126" 
d="M569 1063q217 0 347.5 -148t130.5 -393q0 -114 -32.5 -213t-93 -173.5t-154.5 -117.5t-210 -43q-219 0 -348 152t-129 391q0 155 56 277.5t168.5 195t264.5 72.5zM561 913q-143 0 -220 -106t-77 -287q0 -174 82 -284.5t219 -110.5q139 0 218 107t79 286t-79 287t-222 108
zM453 1280h-158v223h158v-223zM825 1280h-155v223h155v-223z" />
    <glyph glyph-name="divide" unicode="&#xf7;" horiz-adv-x="1460" 
d="M809 0h-160v266h160v-266zM1290 496h-1120v159h1120v-159zM809 877h-160v268h160v-268z" />
    <glyph glyph-name="oslash" unicode="&#xf8;" horiz-adv-x="1126" 
d="M569 1063q152 0 267 -78l49 68h125l-97 -135q134 -150 134 -400q0 -247 -134.5 -396t-357.5 -149q-150 0 -262 76l-51 -69h-123l98 137q-139 151 -139 399q0 252 137 399.5t354 147.5zM561 920q-147 0 -226 -109t-79 -291q0 -154 61 -260l428 598q-78 62 -184 62z
M563 117q141 0 223 107.5t82 291.5q0 164 -57 260l-426 -596q72 -63 178 -63z" />
    <glyph glyph-name="ugrave" unicode="&#xf9;" horiz-adv-x="1140" 
d="M987 1038v-735q0 -56 1 -167t1 -136h-174q-4 28 -8 156q-80 -181 -313 -181q-70 0 -128.5 19t-108.5 61t-78.5 118.5t-28.5 182.5v682h178v-645q0 -262 215 -262q142 0 203 85.5t61 281.5v540h180zM201 1524h223l262 -314h-170z" />
    <glyph glyph-name="uacute" unicode="&#xfa;" horiz-adv-x="1140" 
d="M987 1038v-735q0 -56 1 -167t1 -136h-174q-4 28 -8 156q-80 -181 -313 -181q-70 0 -128.5 19t-108.5 61t-78.5 118.5t-28.5 182.5v682h178v-645q0 -262 215 -262q142 0 203 85.5t61 281.5v540h180zM721 1524h221l-315 -314h-168z" />
    <glyph glyph-name="ucircumflex" unicode="&#xfb;" horiz-adv-x="1140" 
d="M987 1038v-735q0 -56 1 -167t1 -136h-174q-4 28 -8 156q-80 -181 -313 -181q-70 0 -128.5 19t-108.5 61t-78.5 118.5t-28.5 182.5v682h178v-645q0 -262 215 -262q142 0 203 85.5t61 281.5v540h180zM483 1503h170l228 -311h-176l-138 207l-135 -207h-174z" />
    <glyph glyph-name="udieresis" unicode="&#xfc;" horiz-adv-x="1140" 
d="M987 1038v-735q0 -56 1 -167t1 -136h-174q-4 28 -8 156q-80 -181 -313 -181q-70 0 -128.5 19t-108.5 61t-78.5 118.5t-28.5 182.5v682h178v-645q0 -262 215 -262q142 0 203 85.5t61 281.5v540h180zM461 1280h-158v223h158v-223zM834 1280h-156v223h156v-223z" />
    <glyph glyph-name="yacute" unicode="&#xfd;" horiz-adv-x="985" 
d="M20 1038h195q258 -765 289 -878h2q57 206 276 878h181l-373 -1085q-53 -156 -103.5 -236t-116.5 -112.5t-175 -32.5q-51 0 -113 6v156q54 -4 86 -4q96 0 145.5 48.5t96.5 180.5zM637 1524h221l-315 -314h-168z" />
    <glyph glyph-name="thorn" unicode="&#xfe;" horiz-adv-x="1167" 
d="M332 -420h-178v1923h178v-629q101 185 336 185q184 0 300.5 -139.5t116.5 -376.5q1 -265 -128.5 -415.5t-329.5 -150.5q-204 0 -295 152v-549zM903 535q0 171 -77 270.5t-205 99.5q-148 0 -222.5 -106t-74.5 -279q0 -66 7.5 -120.5t27 -105.5t50.5 -86t81.5 -56
t117.5 -21q137 0 216 108.5t79 295.5z" />
    <glyph glyph-name="ydieresis" unicode="&#xff;" horiz-adv-x="985" 
d="M20 1038h195q258 -765 289 -878h2q57 206 276 878h181l-373 -1085q-53 -156 -103.5 -236t-116.5 -112.5t-175 -32.5q-51 0 -113 6v156q54 -4 86 -4q96 0 145.5 48.5t96.5 180.5zM383 1280h-158v223h158v-223zM756 1280h-156v223h156v-223z" />
    <glyph glyph-name="Amacron" unicode="&#x100;" horiz-adv-x="1351" 
d="M950 428h-567l-154 -428h-188l508 1425h231l531 -1425h-203zM432 590h471q-212 581 -241 682h-3q-33 -115 -227 -682zM381 1731h573v-142h-573v142z" />
    <glyph glyph-name="amacron" unicode="&#x101;" horiz-adv-x="1083" 
d="M928 723v-496q0 -155 14 -227h-172q-13 37 -16 135q-87 -160 -322 -160q-89 0 -158 27t-110 73t-61.5 101.5t-20.5 116.5q0 170 127 254t364 84h177v88q0 40 -8 71.5t-30 63.5t-69.5 50t-116.5 18q-61 0 -103.5 -13.5t-65.5 -40.5t-33.5 -51t-18.5 -61h-174q5 46 18.5 87
t43 82.5t73 71t112 48t154.5 18.5q396 0 396 -340zM752 473v33h-168q-159 0 -238.5 -48.5t-79.5 -154.5q0 -83 54 -134.5t149 -51.5q73 0 125.5 20t82.5 50.5t47.5 79.5t22.5 96t5 110zM258 1432h567v-146h-567v146z" />
    <glyph glyph-name="Abreve" unicode="&#x102;" horiz-adv-x="1351" 
d="M950 428h-567l-154 -428h-188l508 1425h231l531 -1425h-203zM432 590h471q-212 581 -241 682h-3q-33 -115 -227 -682zM350 1810h139q12 -62 59 -99.5t120 -37.5q150 0 180 137h137q-18 -120 -99 -194t-220 -74q-148 0 -227 78t-89 190z" />
    <glyph glyph-name="abreve" unicode="&#x103;" horiz-adv-x="1083" 
d="M928 723v-496q0 -155 14 -227h-172q-13 37 -16 135q-87 -160 -322 -160q-89 0 -158 27t-110 73t-61.5 101.5t-20.5 116.5q0 170 127 254t364 84h177v88q0 40 -8 71.5t-30 63.5t-69.5 50t-116.5 18q-61 0 -103.5 -13.5t-65.5 -40.5t-33.5 -51t-18.5 -61h-174q5 46 18.5 87
t43 82.5t73 71t112 48t154.5 18.5q396 0 396 -340zM752 473v33h-168q-159 0 -238.5 -48.5t-79.5 -154.5q0 -83 54 -134.5t149 -51.5q73 0 125.5 20t82.5 50.5t47.5 79.5t22.5 96t5 110zM246 1481h133q15 -63 55 -102.5t107 -39.5q42 0 72.5 11.5t48.5 34t27.5 44t17.5 52.5
h131q-16 -123 -91.5 -201t-205.5 -78q-73 0 -130 24t-90.5 64.5t-52 88.5t-22.5 102z" />
    <glyph glyph-name="Aogonek" unicode="&#x104;" horiz-adv-x="1351" 
d="M950 428h-567l-154 -428h-188l508 1425h231l531 -1425h-11q-135 -113 -135 -217q0 -51 32 -80t83 -29q68 0 117 19v-139q-59 -33 -164 -33q-110 0 -175 60t-65 165q0 123 127 254h-12zM432 590h471q-212 581 -241 682h-3q-33 -115 -227 -682z" />
    <glyph glyph-name="aogonek" unicode="&#x105;" horiz-adv-x="1083" 
d="M928 723v-496q0 -155 14 -227h-2q-135 -113 -135 -217q0 -51 32 -80t83 -29q67 0 116 19v-139q-59 -33 -164 -33q-110 0 -174.5 60t-64.5 165q0 127 135 262q-11 33 -14 127q-87 -160 -322 -160q-89 0 -158 27t-110 73t-61.5 101.5t-20.5 116.5q0 170 127 254t364 84h177
v88q0 40 -8 71.5t-30 63.5t-69.5 50t-116.5 18q-61 0 -103.5 -13.5t-65.5 -40.5t-33.5 -51t-18.5 -61h-174q5 46 18.5 87t43 82.5t73 71t112 48t154.5 18.5q396 0 396 -340zM752 473v33h-168q-159 0 -238.5 -48.5t-79.5 -154.5q0 -83 54 -134.5t149 -51.5q73 0 125.5 20
t82.5 50.5t47.5 79.5t22.5 96t5 110z" />
    <glyph glyph-name="Cacute" unicode="&#x106;" horiz-adv-x="1404" 
d="M1126 403h191q-50 -192 -192.5 -306.5t-374.5 -114.5q-125 0 -230 37t-180 103t-127.5 157t-78 199.5t-25.5 230.5q0 148 41 279t119.5 234t204 163.5t282.5 60.5q240 0 383.5 -120t177.5 -310h-189q-20 62 -49.5 109t-73.5 85t-108.5 58t-146.5 20q-92 0 -167 -32
t-125.5 -86.5t-85 -129t-50 -156t-15.5 -169.5q0 -87 15 -168t49 -156t85 -130.5t128.5 -88.5t173.5 -33q79 0 141.5 21t105.5 60t71 83t50 100zM907 1845h236l-350 -280h-187z" />
    <glyph glyph-name="cacute" unicode="&#x107;" horiz-adv-x="1036" 
d="M795 317h178q-17 -71 -48.5 -129.5t-81.5 -107.5t-126.5 -77t-171.5 -28q-215 0 -339 144t-124 395q0 111 31.5 209.5t89.5 174.5t149.5 120.5t204.5 44.5q86 0 156.5 -23.5t116 -60t77.5 -83.5t47 -91.5t19 -87.5h-178q-47 196 -242 196q-135 0 -211 -107t-76 -286
q0 -181 74 -288t207 -107q181 0 248 192zM686 1524h221l-315 -314h-168z" />
    <glyph glyph-name="Ccircumflex" unicode="&#x108;" horiz-adv-x="1404" 
d="M1126 403h191q-50 -192 -192.5 -306.5t-374.5 -114.5q-125 0 -230 37t-180 103t-127.5 157t-78 199.5t-25.5 230.5q0 148 41 279t119.5 234t204 163.5t282.5 60.5q240 0 383.5 -120t177.5 -310h-189q-20 62 -49.5 109t-73.5 85t-108.5 58t-146.5 20q-92 0 -167 -32
t-125.5 -86.5t-85 -129t-50 -156t-15.5 -169.5q0 -87 15 -168t49 -156t85 -130.5t128.5 -88.5t173.5 -33q79 0 141.5 21t105.5 60t71 83t50 100zM651 1827h189l266 -268h-191l-172 170l-182 -170h-188z" />
    <glyph glyph-name="ccircumflex" unicode="&#x109;" horiz-adv-x="1036" 
d="M795 317h178q-17 -71 -48.5 -129.5t-81.5 -107.5t-126.5 -77t-171.5 -28q-215 0 -339 144t-124 395q0 111 31.5 209.5t89.5 174.5t149.5 120.5t204.5 44.5q86 0 156.5 -23.5t116 -60t77.5 -83.5t47 -91.5t19 -87.5h-178q-47 196 -242 196q-135 0 -211 -107t-76 -286
q0 -181 74 -288t207 -107q181 0 248 192zM461 1503h170l227 -311h-176l-137 207l-135 -207h-174z" />
    <glyph glyph-name="Cdotaccent" unicode="&#x10a;" horiz-adv-x="1404" 
d="M1126 403h191q-50 -192 -192.5 -306.5t-374.5 -114.5q-125 0 -230 37t-180 103t-127.5 157t-78 199.5t-25.5 230.5q0 148 41 279t119.5 234t204 163.5t282.5 60.5q240 0 383.5 -120t177.5 -310h-189q-20 62 -49.5 109t-73.5 85t-108.5 58t-146.5 20q-92 0 -167 -32
t-125.5 -86.5t-85 -129t-50 -156t-15.5 -169.5q0 -87 15 -168t49 -156t85 -130.5t128.5 -88.5t173.5 -33q79 0 141.5 21t105.5 60t71 83t50 100zM827 1593h-184v224h184v-224z" />
    <glyph glyph-name="cdotaccent" unicode="&#x10b;" horiz-adv-x="1036" 
d="M795 317h178q-17 -71 -48.5 -129.5t-81.5 -107.5t-126.5 -77t-171.5 -28q-215 0 -339 144t-124 395q0 111 31.5 209.5t89.5 174.5t149.5 120.5t204.5 44.5q86 0 156.5 -23.5t116 -60t77.5 -83.5t47 -91.5t19 -87.5h-178q-47 196 -242 196q-135 0 -211 -107t-76 -286
q0 -181 74 -288t207 -107q181 0 248 192zM635 1280h-176v223h176v-223z" />
    <glyph glyph-name="Ccaron" unicode="&#x10c;" horiz-adv-x="1404" 
d="M1126 403h191q-50 -192 -192.5 -306.5t-374.5 -114.5q-125 0 -230 37t-180 103t-127.5 157t-78 199.5t-25.5 230.5q0 148 41 279t119.5 234t204 163.5t282.5 60.5q240 0 383.5 -120t177.5 -310h-189q-20 62 -49.5 109t-73.5 85t-108.5 58t-146.5 20q-92 0 -167 -32
t-125.5 -86.5t-85 -129t-50 -156t-15.5 -169.5q0 -87 15 -168t49 -156t85 -130.5t128.5 -88.5t173.5 -33q79 0 141.5 21t105.5 60t71 83t50 100zM838 1559h-183l-270 268h190l173 -170l182 170h188z" />
    <glyph glyph-name="ccaron" unicode="&#x10d;" horiz-adv-x="1036" 
d="M795 317h178q-17 -71 -48.5 -129.5t-81.5 -107.5t-126.5 -77t-171.5 -28q-215 0 -339 144t-124 395q0 111 31.5 209.5t89.5 174.5t149.5 120.5t204.5 44.5q86 0 156.5 -23.5t116 -60t77.5 -83.5t47 -91.5t19 -87.5h-178q-47 196 -242 196q-135 0 -211 -107t-76 -286
q0 -181 74 -288t207 -107q181 0 248 192zM635 1192h-174l-225 311h174l139 -205l135 205h174z" />
    <glyph glyph-name="Dcaron" unicode="&#x10e;" horiz-adv-x="1476" 
d="M188 0v1425h508q302 0 487 -190.5t185 -507.5q0 -210 -82.5 -375t-237.5 -258.5t-358 -93.5h-502zM377 1264v-1104h299q123 0 218.5 42.5t154.5 118.5t89.5 177.5t30.5 224.5q0 109 -29 204t-86.5 171.5t-154.5 121t-223 44.5h-299zM750 1563h-183l-270 268h190l172 -170
l183 170h188z" />
    <glyph glyph-name="dcaron" unicode="&#x10f;" horiz-adv-x="1247" 
d="M838 1503h180v-1210q0 -193 2 -293h-172q-10 45 -10 147q-80 -172 -326 -172q-199 0 -315.5 147t-116.5 386q0 159 55.5 284.5t162 198t247.5 72.5q125 0 196.5 -39.5t96.5 -93.5v573zM266 514q0 -183 78.5 -285t204.5 -102q71 0 124 21t85.5 56.5t52.5 89t27.5 111
t7.5 130.5q0 74 -7 128.5t-25.5 103t-50 79t-81.5 48t-119 17.5q-139 0 -218 -104.5t-79 -292.5zM1286 993h-133l-8 510h149z" />
    <glyph glyph-name="Dcroat" unicode="&#x110;" horiz-adv-x="1495" 
d="M37 805h172v620h508q302 0 487 -190.5t185 -507.5q0 -210 -82.5 -375t-237.5 -258.5t-358 -93.5h-502v662h-172v143zM397 1264v-459h369v-143h-369v-502h299q123 0 218.5 42.5t155 118.5t90 177.5t30.5 224.5q0 86 -17.5 164t-56.5 147.5t-95.5 120t-140 80t-184.5 29.5
h-299z" />
    <glyph glyph-name="dcroat" unicode="&#x111;" horiz-adv-x="1169" 
d="M838 1503h180v-178h143v-119h-143v-913q0 -193 2 -293h-172q-10 45 -10 158q-42 -90 -119.5 -136.5t-208.5 -46.5q-134 0 -233 72t-148 190.5t-49 266.5q0 152 54.5 276t162 199.5t248.5 75.5q127 0 197 -43t96 -101v295h-459v119h459v178zM266 514q0 -175 79 -279
t204 -104q297 0 297 404q0 61 -7 111t-26 98.5t-50 81.5t-81 53t-117 20q-136 0 -217.5 -102.5t-81.5 -282.5z" />
    <glyph glyph-name="Emacron" unicode="&#x112;" horiz-adv-x="1222" 
d="M1081 827v-161h-708v-504h778l-25 -162h-938v1425h928v-161h-743v-437h708zM371 1757h573v-141h-573v141z" />
    <glyph glyph-name="emacron" unicode="&#x113;" horiz-adv-x="1071" 
d="M993 487h-733q2 -161 78.5 -261.5t206.5 -100.5q58 0 102.5 13.5t72.5 39.5t44 50.5t31 58.5h182q-17 -56 -46.5 -105.5t-79.5 -99t-130.5 -78.5t-181.5 -29q-95 0 -172.5 30t-130 81t-88.5 120t-52 144.5t-16 157.5q0 117 30 217t87 176t148 119t206 43q97 0 175 -30
t127 -78.5t82 -114t46.5 -131.5t13.5 -136q0 -59 -2 -86zM266 612h547q-2 136 -69.5 223t-194.5 87q-252 0 -283 -310zM272 1432h568v-146h-568v146z" />
    <glyph glyph-name="Ebreve" unicode="&#x114;" horiz-adv-x="1222" 
d="M1081 827v-161h-708v-504h778l-25 -162h-938v1425h928v-161h-743v-437h708zM344 1819h139q12 -62 59 -100t120 -38q150 0 180 138h137q-18 -120 -99.5 -194.5t-220.5 -74.5q-148 0 -226.5 78.5t-88.5 190.5z" />
    <glyph glyph-name="ebreve" unicode="&#x115;" horiz-adv-x="1071" 
d="M993 487h-733q2 -161 78.5 -261.5t206.5 -100.5q58 0 102.5 13.5t72.5 39.5t44 50.5t31 58.5h182q-17 -56 -46.5 -105.5t-79.5 -99t-130.5 -78.5t-181.5 -29q-95 0 -172.5 30t-130 81t-88.5 120t-52 144.5t-16 157.5q0 117 30 217t87 176t148 119t206 43q97 0 175 -30
t127 -78.5t82 -114t46.5 -131.5t13.5 -136q0 -59 -2 -86zM266 612h547q-2 136 -69.5 223t-194.5 87q-252 0 -283 -310zM260 1481h133q15 -63 55 -102.5t107 -39.5q42 0 72.5 11.5t48.5 34t27.5 44t17.5 52.5h131q-16 -123 -91.5 -201t-205.5 -78q-73 0 -130 24t-90.5 64.5
t-52 88.5t-22.5 102z" />
    <glyph glyph-name="Edotaccent" unicode="&#x116;" horiz-adv-x="1222" 
d="M1081 827v-161h-708v-504h778l-25 -162h-938v1425h928v-161h-743v-437h708zM745 1589h-184v223h184v-223z" />
    <glyph glyph-name="edotaccent" unicode="&#x117;" horiz-adv-x="1071" 
d="M993 487h-733q2 -161 78.5 -261.5t206.5 -100.5q58 0 102.5 13.5t72.5 39.5t44 50.5t31 58.5h182q-17 -56 -46.5 -105.5t-79.5 -99t-130.5 -78.5t-181.5 -29q-95 0 -172.5 30t-130 81t-88.5 120t-52 144.5t-16 157.5q0 117 30 217t87 176t148 119t206 43q97 0 175 -30
t127 -78.5t82 -114t46.5 -131.5t13.5 -136q0 -59 -2 -86zM266 612h547q-2 136 -69.5 223t-194.5 87q-252 0 -283 -310zM645 1280h-176v223h176v-223z" />
    <glyph glyph-name="Eogonek" unicode="&#x118;" horiz-adv-x="1222" 
d="M1081 827v-161h-708v-504h778l-25 -162h-71q-135 -113 -135 -217q0 -51 31.5 -80t82.5 -29q68 0 117 19v-139q-59 -33 -164 -33q-110 0 -174.5 60t-64.5 165q0 124 126 254h-686v1425h928v-161h-743v-437h708z" />
    <glyph glyph-name="eogonek" unicode="&#x119;" horiz-adv-x="1071" 
d="M993 487h-733q2 -161 78.5 -261.5t206.5 -100.5q58 0 102.5 13.5t72.5 39.5t44 50.5t31 58.5h182q-67 -212 -254 -281q-125 -109 -125 -209q0 -51 32 -79.5t83 -28.5q69 0 116 18v-139q-59 -33 -163 -33q-110 0 -175 60t-65 165t92 215q-90 3 -164.5 34.5t-124.5 82.5
t-84 119t-49.5 142.5t-15.5 154.5q0 117 30 217t87 176t148 119t206 43q97 0 175 -30t127 -78.5t82 -114t46.5 -131.5t13.5 -136q0 -59 -2 -86zM266 612h547q-2 136 -69.5 223t-194.5 87q-252 0 -283 -310z" />
    <glyph glyph-name="Ecaron" unicode="&#x11a;" horiz-adv-x="1222" 
d="M1081 827v-161h-708v-504h778l-25 -162h-938v1425h928v-161h-743v-437h708zM748 1552h-183l-270 269h190l172 -170l183 170h188z" />
    <glyph glyph-name="ecaron" unicode="&#x11b;" horiz-adv-x="1071" 
d="M993 487h-733q2 -161 78.5 -261.5t206.5 -100.5q58 0 102.5 13.5t72.5 39.5t44 50.5t31 58.5h182q-17 -56 -46.5 -105.5t-79.5 -99t-130.5 -78.5t-181.5 -29q-95 0 -172.5 30t-130 81t-88.5 120t-52 144.5t-16 157.5q0 117 30 217t87 176t148 119t206 43q97 0 175 -30
t127 -78.5t82 -114t46.5 -131.5t13.5 -136q0 -59 -2 -86zM266 612h547q-2 136 -69.5 223t-194.5 87q-252 0 -283 -310zM645 1192h-174l-225 311h174l139 -205l135 205h174z" />
    <glyph glyph-name="Gcircumflex" unicode="&#x11c;" horiz-adv-x="1490" 
d="M1343 770v-770h-145q-15 41 -18 193q-129 -211 -443 -211q-151 0 -271.5 54.5t-197.5 151.5t-118 227t-41 283q0 161 43.5 297t126 236.5t209 157.5t284.5 57q243 0 395.5 -119t184.5 -315h-189q-85 276 -395 276q-120 0 -210.5 -45.5t-144 -126.5t-80 -183.5
t-26.5 -225.5q0 -114 26 -213t79 -180t142.5 -128t205.5 -47q399 0 399 453v16h-401v162h585zM670 1821h188l266 -269h-190l-172 170l-182 -170h-189z" />
    <glyph glyph-name="gcircumflex" unicode="&#x11d;" horiz-adv-x="1161" 
d="M1010 739v-645q0 -258 -114.5 -390t-363.5 -132q-91 0 -163.5 20t-119 51t-79 74t-47.5 84.5t-21 87.5h183q23 -85 89 -129.5t167 -44.5q70 0 121 18t84 49.5t53 81t27.5 106.5t7.5 132v84q-43 -90 -120.5 -136t-203.5 -46q-192 0 -311 142.5t-119 371.5q0 124 35 227.5
t95.5 172.5t142 107t175.5 38q135 0 210 -49t96 -113q3 64 10 137h168q0 -25 -1 -135t-1 -164zM266 526q0 -164 79 -266t206 -102q158 0 223.5 98t65.5 283q0 187 -62.5 279.5t-220.5 92.5q-140 0 -215.5 -106t-75.5 -279zM494 1503h170l227 -311h-176l-137 207l-136 -207
h-174z" />
    <glyph glyph-name="Gbreve" unicode="&#x11e;" horiz-adv-x="1490" 
d="M1343 770v-770h-145q-15 41 -18 193q-129 -211 -443 -211q-151 0 -271.5 54.5t-197.5 151.5t-118 227t-41 283q0 161 43.5 297t126 236.5t209 157.5t284.5 57q243 0 395.5 -119t184.5 -315h-189q-85 276 -395 276q-120 0 -210.5 -45.5t-144 -126.5t-80 -183.5
t-26.5 -225.5q0 -114 26 -213t79 -180t142.5 -128t205.5 -47q399 0 399 453v16h-401v162h585zM442 1829h140q12 -62 58.5 -99.5t119.5 -37.5q150 0 180 137h137q-18 -120 -99 -194t-220 -74q-148 0 -227 78t-89 190z" />
    <glyph glyph-name="gbreve" unicode="&#x11f;" horiz-adv-x="1161" 
d="M1010 739v-645q0 -258 -114.5 -390t-363.5 -132q-91 0 -163.5 20t-119 51t-79 74t-47.5 84.5t-21 87.5h183q23 -85 89 -129.5t167 -44.5q70 0 121 18t84 49.5t53 81t27.5 106.5t7.5 132v84q-43 -90 -120.5 -136t-203.5 -46q-192 0 -311 142.5t-119 371.5q0 124 35 227.5
t95.5 172.5t142 107t175.5 38q135 0 210 -49t96 -113q3 64 10 137h168q0 -25 -1 -135t-1 -164zM266 526q0 -164 79 -266t206 -102q158 0 223.5 98t65.5 283q0 187 -62.5 279.5t-220.5 92.5q-140 0 -215.5 -106t-75.5 -279zM283 1481h133q15 -63 55 -102.5t107 -39.5
q42 0 72 11.5t48 34t27.5 44t17.5 52.5h131q-16 -123 -91 -201t-205 -78q-73 0 -130 24t-90.5 64.5t-52 88.5t-22.5 102z" />
    <glyph glyph-name="Gdotaccent" unicode="&#x120;" horiz-adv-x="1490" 
d="M1343 770v-770h-145q-15 41 -18 193q-129 -211 -443 -211q-151 0 -271.5 54.5t-197.5 151.5t-118 227t-41 283q0 161 43.5 297t126 236.5t209 157.5t284.5 57q243 0 395.5 -119t184.5 -315h-189q-85 276 -395 276q-120 0 -210.5 -45.5t-144 -126.5t-80 -183.5
t-26.5 -225.5q0 -114 26 -213t79 -180t142.5 -128t205.5 -47q399 0 399 453v16h-401v162h585zM850 1577h-184v223h184v-223z" />
    <glyph glyph-name="gdotaccent" unicode="&#x121;" horiz-adv-x="1161" 
d="M1010 739v-645q0 -258 -114.5 -390t-363.5 -132q-91 0 -163.5 20t-119 51t-79 74t-47.5 84.5t-21 87.5h183q23 -85 89 -129.5t167 -44.5q70 0 121 18t84 49.5t53 81t27.5 106.5t7.5 132v84q-43 -90 -120.5 -136t-203.5 -46q-192 0 -311 142.5t-119 371.5q0 124 35 227.5
t95.5 172.5t142 107t175.5 38q135 0 210 -49t96 -113q3 64 10 137h168q0 -25 -1 -135t-1 -164zM266 526q0 -164 79 -266t206 -102q158 0 223.5 98t65.5 283q0 187 -62.5 279.5t-220.5 92.5q-140 0 -215.5 -106t-75.5 -279zM668 1280h-176v223h176v-223z" />
    <glyph glyph-name="uni0122" unicode="&#x122;" horiz-adv-x="1490" 
d="M1343 770v-770h-145q-15 41 -18 193q-129 -211 -443 -211q-151 0 -271.5 54.5t-197.5 151.5t-118 227t-41 283q0 161 43.5 297t126 236.5t209 157.5t284.5 57q243 0 395.5 -119t184.5 -315h-189q-85 276 -395 276q-120 0 -210.5 -45.5t-144 -126.5t-80 -183.5
t-26.5 -225.5q0 -114 26 -213t79 -180t142.5 -128t205.5 -47q399 0 399 453v16h-401v162h585zM735 -516h-151q102 218 114 405h183q-6 -105 -49.5 -221t-96.5 -184z" />
    <glyph glyph-name="uni0123" unicode="&#x123;" horiz-adv-x="1161" 
d="M602 1612h160q-115 -255 -127 -414h-178q9 101 50.5 217t94.5 197zM1010 739v-645q0 -258 -114.5 -390t-363.5 -132q-91 0 -163.5 20t-119 51t-79 74t-47.5 84.5t-21 87.5h183q23 -85 89 -129.5t167 -44.5q70 0 121 18t84 49.5t53 81t27.5 106.5t7.5 132v84
q-43 -90 -120.5 -136t-203.5 -46q-192 0 -311 142.5t-119 371.5q0 124 35 227.5t95.5 172.5t142 107t175.5 38q135 0 210 -49t96 -113q3 64 10 137h168q0 -25 -1 -135t-1 -164zM266 526q0 -164 79 -266t206 -102q158 0 223.5 98t65.5 283q0 187 -62.5 279.5t-220.5 92.5
q-140 0 -215.5 -106t-75.5 -279z" />
    <glyph glyph-name="Hcircumflex" unicode="&#x124;" horiz-adv-x="1495" 
d="M188 0v1425h189v-596h741v596h191v-1425h-191v668h-741v-668h-189zM659 1821h189l266 -269h-190l-172 170l-183 -170h-188z" />
    <glyph glyph-name="hcircumflex" unicode="&#x125;" horiz-adv-x="1159" 
d="M127 1833h229l224 -223h-193l-145 131l-144 -131h-190zM154 1503h180v-618q99 178 323 178q53 0 100.5 -11.5t94.5 -40.5t80.5 -73t54.5 -114.5t21 -159.5v-664h-181v633q0 134 -56 204t-169 70q-268 0 -268 -340v-567h-180v1503z" />
    <glyph glyph-name="Hbar" unicode="&#x126;" horiz-adv-x="1495" 
d="M53 1198h135v227h189v-227h741v227h191v-227h133v-141h-133v-1057h-191v668h-741v-668h-189v1057h-135v141zM377 829h741v228h-741v-228z" />
    <glyph glyph-name="hbar" unicode="&#x127;" horiz-adv-x="1159" 
d="M154 1503h180v-178h428v-119h-428v-336q98 185 330 185q53 0 100 -11.5t92.5 -40.5t78.5 -73t53 -115t20 -162v-653h-181v625q0 274 -221 274q-132 0 -202 -89t-70 -245v-565h-180v1206h-170v119h170v178z" />
    <glyph glyph-name="Itilde" unicode="&#x128;" horiz-adv-x="565" 
d="M188 1425h189v-1425h-189v1425zM66 1569h-132v45q0 201 177 201q54 0 120 -27.5t122.5 -54.5t86.5 -27q66 0 66 88v25h125v-43q0 -115 -44 -163t-130 -48q-51 0 -115.5 27t-123 54t-93.5 27q-59 0 -59 -69v-35z" />
    <glyph glyph-name="itilde" unicode="&#x129;" horiz-adv-x="485" 
d="M154 0v1038h180v-1038h-180zM53 1239h-127v47q0 197 166 197q49 0 105 -25.5t104 -50.5t78 -25q29 0 43 18.5t14 67.5v21h125v-43q0 -209 -170 -209q-50 0 -103 25.5t-100 51t-82 25.5q-53 0 -53 -67v-33z" />
    <glyph glyph-name="Imacron" unicode="&#x12a;" horiz-adv-x="565" 
d="M188 1425h189v-1425h-189v1425zM-4 1731h573v-142h-573v142z" />
    <glyph glyph-name="imacron" unicode="&#x12b;" horiz-adv-x="485" 
d="M154 0v1038h180v-1038h-180zM-41 1432h567v-146h-567v146z" />
    <glyph glyph-name="Iogonek" unicode="&#x12e;" horiz-adv-x="565" 
d="M188 1425h189v-1425h-8q-136 -114 -136 -217q0 -51 32 -80t83 -29q68 0 117 19v-139q-59 -33 -164 -33q-110 0 -175 60t-65 165q0 123 127 254v1425z" />
    <glyph glyph-name="iogonek" unicode="&#x12f;" horiz-adv-x="485" 
d="M424 -446q-59 -33 -164 -33q-110 0 -175 60t-65 165q0 130 134 260v1032h180v-1038h-6q-135 -113 -135 -217q0 -51 31.5 -80t82.5 -29q68 0 117 19v-139zM334 1280h-180v223h180v-223z" />
    <glyph glyph-name="Idotaccent" unicode="&#x130;" horiz-adv-x="565" 
d="M188 1425h189v-1425h-189v1425zM375 1577h-185v223h185v-223z" />
    <glyph glyph-name="dotlessi" unicode="&#x131;" horiz-adv-x="485" 
d="M154 0v1038h180v-1038h-180z" />
    <glyph glyph-name="Jcircumflex" unicode="&#x134;" horiz-adv-x="753" 
d="M575 1425v-1009q0 -235 -90 -335.5t-276 -100.5q-78 0 -150 14v158q50 -11 131 -11q50 0 86 15t57 38.5t33 60.5t15.5 72.5t3.5 82.5v1015h190zM391 1821h189l266 -269h-191l-172 170l-182 -170h-188z" />
    <glyph glyph-name="jcircumflex" unicode="&#x135;" horiz-adv-x="485" 
d="M154 1038h180v-1073q0 -218 -63 -305.5t-230 -87.5q-38 0 -70 4v152q16 -2 45 -2q81 0 109.5 48t28.5 160v1104zM158 1503h170l227 -311h-176l-137 207l-136 -207h-174z" />
    <glyph glyph-name="uni0136" unicode="&#x136;" horiz-adv-x="1308" 
d="M188 0v1425h187v-700q45 48 307.5 311t384.5 389h236l-613 -602l643 -823h-229l-547 702l-182 -165v-537h-187zM647 -516h-151q102 218 114 405h183q-6 -105 -49.5 -221t-96.5 -184z" />
    <glyph glyph-name="uni0137" unicode="&#x137;" horiz-adv-x="1034" 
d="M334 1503v-960q49 58 226 248.5t228 246.5h216l-392 -403l437 -635h-211l-349 518l-155 -149v-369h-180v1503h180zM504 -516h-152q103 220 115 405h182q-6 -105 -49 -221.5t-96 -183.5z" />
    <glyph glyph-name="kgreenlandic" unicode="&#x138;" horiz-adv-x="1028" 
d="M334 1038v-493q39 47 119.5 135.5t186 201.5t144.5 156h213q-65 -68 -202.5 -207.5t-202.5 -207.5q43 -60 204 -284t246 -339h-211q-39 56 -172 240t-190 268l-135 -135v-373h-180v1038h180z" />
    <glyph glyph-name="Lacute" unicode="&#x139;" horiz-adv-x="1148" 
d="M188 0v1425h189v-1263h743l-26 -162h-906zM487 1835h236l-350 -281h-187z" />
    <glyph glyph-name="lacute" unicode="&#x13a;" horiz-adv-x="485" 
d="M399 1858h230l-303 -244h-176zM334 0h-180v1503h180v-1503z" />
    <glyph glyph-name="uni013B" unicode="&#x13b;" horiz-adv-x="1148" 
d="M188 0v1425h189v-1263h743l-26 -162h-906zM612 -516h-151q102 218 114 405h183q-6 -105 -49.5 -221t-96.5 -184z" />
    <glyph glyph-name="uni013C" unicode="&#x13c;" horiz-adv-x="485" 
d="M334 0h-180v1503h180v-1503zM190 -516h-151q103 220 115 405h182q-6 -105 -49.5 -221t-96.5 -184z" />
    <glyph glyph-name="Lcaron" unicode="&#x13d;" horiz-adv-x="1148" 
d="M188 0v1425h189v-1263h743l-26 -162h-906zM858 918h-133l-8 509h149z" />
    <glyph glyph-name="lcaron" unicode="&#x13e;" horiz-adv-x="598" 
d="M334 0h-180v1503h180v-1503zM621 993h-134l-8 510h150z" />
    <glyph glyph-name="Ldot" unicode="&#x13f;" horiz-adv-x="1148" 
d="M903 631h-180v295h180v-295zM188 0v1425h189v-1263h743l-26 -162h-906z" />
    <glyph glyph-name="ldot" unicode="&#x140;" horiz-adv-x="557" 
d="M596 743h-166v295h166v-295zM334 0h-180v1503h180v-1503z" />
    <glyph glyph-name="Lslash" unicode="&#x141;" horiz-adv-x="1169" 
d="M711 877l-314 -148v-567h744l-27 -162h-905v639l-189 -88v141l189 90v643h188v-553l314 152v-147z" />
    <glyph glyph-name="lslash" unicode="&#x142;" horiz-adv-x="518" 
d="M350 0h-180v717l-133 -72v160l133 74v624h180v-526l148 80v-162l-148 -80v-815z" />
    <glyph glyph-name="Nacute" unicode="&#x143;" horiz-adv-x="1523" 
d="M367 0h-179v1425h250q43 -69 243.5 -393.5t325 -529t160.5 -273.5h2q-12 156 -12 639v557h178v-1425h-235q-656 1078 -740 1231h-4q11 -178 11 -662v-569zM950 1833h236l-350 -281h-187z" />
    <glyph glyph-name="nacute" unicode="&#x144;" horiz-adv-x="1159" 
d="M154 0v776q0 182 -2 262h174q8 -41 8 -170q91 195 325 195q157 0 253 -98.5t96 -296.5v-668h-181v645q0 262 -219 262q-141 0 -207.5 -96t-66.5 -262v-549h-180zM729 1524h221l-315 -314h-168z" />
    <glyph glyph-name="uni0145" unicode="&#x145;" horiz-adv-x="1523" 
d="M367 0h-179v1425h250q43 -69 243.5 -393.5t325 -529t160.5 -273.5h2q-12 156 -12 639v557h178v-1425h-235q-656 1078 -740 1231h-4q11 -178 11 -662v-569zM739 -516h-151q102 218 114 405h183q-6 -105 -49.5 -221t-96.5 -184z" />
    <glyph glyph-name="uni0146" unicode="&#x146;" horiz-adv-x="1159" 
d="M154 0v776q0 182 -2 262h174q8 -41 8 -170q91 195 325 195q157 0 253 -98.5t96 -296.5v-668h-181v645q0 262 -219 262q-141 0 -207.5 -96t-66.5 -262v-549h-180zM532 -516h-151q103 220 115 405h182q-6 -105 -49.5 -221t-96.5 -184z" />
    <glyph glyph-name="Ncaron" unicode="&#x147;" horiz-adv-x="1523" 
d="M367 0h-179v1425h250q43 -69 243.5 -393.5t325 -529t160.5 -273.5h2q-12 156 -12 639v557h178v-1425h-235q-656 1078 -740 1231h-4q11 -178 11 -662v-569zM852 1550h-182l-271 269h191l172 -170l182 170h189z" />
    <glyph glyph-name="ncaron" unicode="&#x148;" horiz-adv-x="1159" 
d="M154 0v776q0 182 -2 262h174q8 -41 8 -170q91 195 325 195q157 0 253 -98.5t96 -296.5v-668h-181v645q0 262 -219 262q-141 0 -207.5 -96t-66.5 -262v-549h-180zM668 1200h-174l-226 311h174l140 -204l135 204h174z" />
    <glyph glyph-name="napostrophe" unicode="&#x149;" horiz-adv-x="1159" 
d="M168 1190h-137q61 201 73 412h175q-6 -108 -38 -225.5t-73 -186.5zM154 0v776q0 182 -2 262h174q8 -41 8 -170q91 195 325 195q157 0 253 -98.5t96 -296.5v-668h-181v645q0 262 -219 262q-141 0 -207.5 -96t-66.5 -262v-549h-180z" />
    <glyph glyph-name="Omacron" unicode="&#x14c;" horiz-adv-x="1538" 
d="M778 1446q197 0 346 -93t227.5 -257t78.5 -375q0 -119 -26 -228t-80.5 -202.5t-132 -162.5t-188 -108.5t-241.5 -39.5q-154 0 -278.5 57t-206 156t-125 232.5t-43.5 287.5t44.5 287t127.5 232.5t211 156.5t286 57zM770 1284q-94 0 -171.5 -30t-131 -82t-90 -123.5
t-53.5 -154t-17 -175.5q0 -117 30 -220t86 -183.5t145.5 -127.5t201.5 -47q120 0 211 47t145 128.5t80.5 182.5t26.5 218q0 93 -18 177t-55.5 155.5t-91 123.5t-130 81.5t-168.5 29.5zM483 1755h574v-141h-574v141z" />
    <glyph glyph-name="omacron" unicode="&#x14d;" horiz-adv-x="1126" 
d="M569 1063q217 0 347.5 -148t130.5 -393q0 -114 -32.5 -213t-93 -173.5t-154.5 -117.5t-210 -43q-219 0 -348 152t-129 391q0 155 56 277.5t168.5 195t264.5 72.5zM561 913q-143 0 -220 -106t-77 -287q0 -174 82 -284.5t219 -110.5q139 0 218 107t79 286t-79 287t-222 108
zM276 1432h568v-146h-568v146z" />
    <glyph glyph-name="Ohungarumlaut" unicode="&#x150;" horiz-adv-x="1538" 
d="M778 1446q197 0 346 -93t227.5 -257t78.5 -375q0 -119 -26 -228t-80.5 -202.5t-132 -162.5t-188 -108.5t-241.5 -39.5q-154 0 -278.5 57t-206 156t-125 232.5t-43.5 287.5t44.5 287t127.5 232.5t211 156.5t286 57zM770 1284q-94 0 -171.5 -30t-131 -82t-90 -123.5
t-53.5 -154t-17 -175.5q0 -117 30 -220t86 -183.5t145.5 -127.5t201.5 -47q120 0 211 47t145 128.5t80.5 182.5t26.5 218q0 93 -18 177t-55.5 155.5t-91 123.5t-130 81.5t-168.5 29.5zM702 1837h205l-274 -281h-160zM1073 1837h203l-275 -281h-159z" />
    <glyph glyph-name="ohungarumlaut" unicode="&#x151;" horiz-adv-x="1126" 
d="M569 1063q217 0 347.5 -148t130.5 -393q0 -114 -32.5 -213t-93 -173.5t-154.5 -117.5t-210 -43q-219 0 -348 152t-129 391q0 155 56 277.5t168.5 195t264.5 72.5zM561 913q-143 0 -220 -106t-77 -287q0 -174 82 -284.5t219 -110.5q139 0 218 107t79 286t-79 287t-222 108
zM422 1188h-150l207 317h189zM795 1188h-150l207 317h190z" />
    <glyph glyph-name="OE" unicode="&#x152;" horiz-adv-x="2084" 
d="M1978 1425v-165h-702v-431h666v-165h-666v-498h737l-22 -166h-858q-165 -18 -281 -18q-179 0 -321 55.5t-233.5 153.5t-140 231t-48.5 291q0 150 51.5 282t147 231t241.5 156.5t325 57.5q136 0 275 -15h829zM1085 160v1104q-58 16 -213 16q-256 0 -410.5 -145.5
t-154.5 -415.5q0 -274 152.5 -426t404.5 -152q154 0 221 19z" />
    <glyph glyph-name="oe" unicode="&#x153;" horiz-adv-x="1857" 
d="M1325 -25q-131 0 -224.5 59.5t-148.5 160.5q-61 -103 -161.5 -161.5t-233.5 -58.5q-219 0 -348 152t-129 391q0 155 56 277.5t168.5 195t264.5 72.5q128 0 228 -57.5t159 -161.5q56 102 152.5 160.5t228.5 58.5q93 0 169.5 -29.5t126.5 -78t84.5 -112t49.5 -129.5
t15 -134q0 -66 -4 -93h-731q2 -161 79 -261.5t205 -100.5q180 0 250 162h180q-13 -43 -34 -83.5t-58 -83.5t-83 -74t-114 -51t-147 -20zM561 913q-143 0 -220 -106t-77 -287q0 -174 82 -284.5t219 -110.5q139 0 218 107t79 286t-79 287t-222 108zM1053 612h546
q-2 135 -72 222t-194 88q-128 1 -197 -82t-83 -228z" />
    <glyph glyph-name="Racute" unicode="&#x154;" horiz-adv-x="1314" 
d="M666 627h-291v-627h-187v1425h557q214 0 331.5 -105t117.5 -276q0 -133 -67.5 -219.5t-176.5 -115.5q217 -57 217 -365v-61v-42.5v-47.5t0.5 -43t2 -45.5t3.5 -39t6 -37.5t9 -28h-184q-12 27 -17.5 75t-6.5 87t-1 119v26v29q0 80 -13 131.5t-47.5 89.5t-95.5 54t-157 16z
M375 1266v-480h309q162 0 237.5 60t75.5 182q0 115 -73.5 176.5t-216.5 61.5h-332zM846 1833h235l-350 -281h-186z" />
    <glyph glyph-name="racute" unicode="&#x155;" horiz-adv-x="720" 
d="M154 0v756q0 84 -1 175t-1 107h176q6 -87 6 -211q41 107 131.5 170t216.5 66v-178q-166 -5 -257 -98t-91 -283v-504h-180zM535 1524h221l-316 -314h-168z" />
    <glyph glyph-name="uni0156" unicode="&#x156;" horiz-adv-x="1314" 
d="M666 627h-291v-627h-187v1425h557q214 0 331.5 -105t117.5 -276q0 -133 -67.5 -219.5t-176.5 -115.5q217 -57 217 -365v-61v-42.5v-47.5t0.5 -43t2 -45.5t3.5 -39t6 -37.5t9 -28h-184q-12 27 -17.5 75t-6.5 87t-1 119v26v29q0 80 -13 131.5t-47.5 89.5t-95.5 54t-157 16z
M375 1266v-480h309q162 0 237.5 60t75.5 182q0 115 -73.5 176.5t-216.5 61.5h-332zM641 -516h-152q103 220 115 405h182q-6 -105 -49 -221.5t-96 -183.5z" />
    <glyph glyph-name="uni0157" unicode="&#x157;" horiz-adv-x="720" 
d="M154 0v756q0 84 -1 175t-1 107h176q6 -87 6 -211q41 107 131.5 170t216.5 66v-178q-166 -5 -257 -98t-91 -283v-504h-180zM190 -516h-151q103 220 115 405h182q-6 -105 -49.5 -221t-96.5 -184z" />
    <glyph glyph-name="Rcaron" unicode="&#x158;" horiz-adv-x="1314" 
d="M666 627h-291v-627h-187v1425h557q214 0 331.5 -105t117.5 -276q0 -133 -67.5 -219.5t-176.5 -115.5q217 -57 217 -365v-61v-42.5v-47.5t0.5 -43t2 -45.5t3.5 -39t6 -37.5t9 -28h-184q-12 27 -17.5 75t-6.5 87t-1 119v26v29q0 80 -13 131.5t-47.5 89.5t-95.5 54t-157 16z
M375 1266v-480h309q162 0 237.5 60t75.5 182q0 115 -73.5 176.5t-216.5 61.5h-332zM748 1552h-183l-270 269h190l172 -170l183 170h188z" />
    <glyph glyph-name="rcaron" unicode="&#x159;" horiz-adv-x="720" 
d="M154 0v756q0 84 -1 175t-1 107h176q6 -87 6 -211q41 107 131.5 170t216.5 66v-178q-166 -5 -257 -98t-91 -283v-504h-180zM481 1192h-174l-225 311h174l139 -205l135 205h175z" />
    <glyph glyph-name="Sacute" unicode="&#x15a;" horiz-adv-x="1241" 
d="M84 397h192q60 -264 363 -264q158 0 233.5 66t75.5 174q0 75 -28.5 125t-106.5 91t-219 75q-249 61 -351 152.5t-102 244.5q0 168 122.5 276.5t350.5 108.5q122 0 217.5 -33t153.5 -89.5t89.5 -121.5t39.5 -139h-192q-49 229 -314 229q-130 0 -200 -55.5t-70 -157.5
q0 -99 70 -150.5t260 -97.5q119 -29 205.5 -66.5t138 -77.5t82 -90.5t41 -98t10.5 -107.5q0 -180 -133.5 -294.5t-384.5 -114.5q-130 0 -231 33.5t-164 92.5t-99.5 131t-48.5 158zM809 1845h235l-350 -280h-186z" />
    <glyph glyph-name="sacute" unicode="&#x15b;" horiz-adv-x="968" 
d="M61 297h181q22 -86 86 -133t168 -47q211 0 211 159q0 75 -50 116t-196 75q-110 27 -181.5 58t-110 69.5t-53 80t-14.5 97.5t22 107t65.5 93t117.5 66.5t170 24.5t171.5 -26t120.5 -70t69.5 -95.5t29.5 -107.5h-172q-7 29 -20.5 53.5t-38 50.5t-67.5 41t-99 15
q-100 0 -145 -39.5t-45 -98.5q0 -60 47 -94t186 -67q116 -28 192 -62t116 -76.5t55.5 -88t15.5 -107.5q0 -140 -107.5 -228t-296.5 -88q-193 0 -300 87.5t-128 234.5zM623 1524h221l-316 -314h-168z" />
    <glyph glyph-name="Scircumflex" unicode="&#x15c;" horiz-adv-x="1241" 
d="M84 397h192q60 -264 363 -264q158 0 233.5 66t75.5 174q0 75 -28.5 125t-106.5 91t-219 75q-249 61 -351 152.5t-102 244.5q0 168 122.5 276.5t350.5 108.5q122 0 217.5 -33t153.5 -89.5t89.5 -121.5t39.5 -139h-192q-49 229 -314 229q-130 0 -200 -55.5t-70 -157.5
q0 -99 70 -150.5t260 -97.5q119 -29 205.5 -66.5t138 -77.5t82 -90.5t41 -98t10.5 -107.5q0 -180 -133.5 -294.5t-384.5 -114.5q-130 0 -231 33.5t-164 92.5t-99.5 131t-48.5 158zM532 1821h189l266 -269h-190l-172 170l-183 -170h-188z" />
    <glyph glyph-name="scircumflex" unicode="&#x15d;" horiz-adv-x="968" 
d="M61 297h181q22 -86 86 -133t168 -47q211 0 211 159q0 75 -50 116t-196 75q-110 27 -181.5 58t-110 69.5t-53 80t-14.5 97.5t22 107t65.5 93t117.5 66.5t170 24.5t171.5 -26t120.5 -70t69.5 -95.5t29.5 -107.5h-172q-7 29 -20.5 53.5t-38 50.5t-67.5 41t-99 15
q-100 0 -145 -39.5t-45 -98.5q0 -60 47 -94t186 -67q116 -28 192 -62t116 -76.5t55.5 -88t15.5 -107.5q0 -140 -107.5 -228t-296.5 -88q-193 0 -300 87.5t-128 234.5zM399 1503h170l228 -311h-176l-138 207l-135 -207h-174z" />
    <glyph glyph-name="uni015E" unicode="&#x15e;" horiz-adv-x="1241" 
d="M84 397h192q60 -264 363 -264q158 0 233.5 66t75.5 174q0 75 -28.5 125t-106.5 91t-219 75q-249 61 -351 152.5t-102 244.5q0 168 122.5 276.5t350.5 108.5q122 0 217.5 -33t153.5 -89.5t89.5 -121.5t39.5 -139h-192q-49 229 -314 229q-130 0 -200 -55.5t-70 -157.5
q0 -99 70 -150.5t260 -97.5q119 -29 205.5 -66.5t138 -77.5t82 -90.5t41 -98t10.5 -107.5q0 -165 -113 -276t-327 -129l-72 -90q26 -4 49.5 -11t52 -22t48.5 -35t34 -52.5t14 -72.5q0 -58 -23.5 -99t-63 -61.5t-80 -29.5t-86.5 -9q-92 0 -148 25v123q23 -10 64.5 -16.5
t68.5 -6.5q109 0 109 72q0 27 -17 46t-49.5 28t-66 13t-78.5 5v57l100 134q-113 8 -201 44.5t-144 94t-88.5 126t-43.5 148.5z" />
    <glyph glyph-name="uni015F" unicode="&#x15f;" horiz-adv-x="968" 
d="M61 297h181q22 -86 86 -133t168 -47q211 0 211 159q0 75 -50 116t-196 75q-110 27 -181.5 58t-110 69.5t-53 80t-14.5 97.5t22 107t65.5 93t117.5 66.5t170 24.5t171.5 -26t120.5 -70t69.5 -95.5t29.5 -107.5h-172q-7 29 -20.5 53.5t-38 50.5t-67.5 41t-99 15
q-100 0 -145 -39.5t-45 -98.5q0 -60 47 -94t186 -67q116 -28 192 -62t116 -76.5t55.5 -88t15.5 -107.5q0 -125 -86 -209t-242 -102l-67 -84q26 -4 49.5 -11t52 -22t48.5 -35t34 -52.5t14 -72.5q0 -58 -23.5 -99t-63.5 -61.5t-80.5 -29.5t-86.5 -9q-91 0 -147 25v123
q23 -10 64.5 -16.5t68.5 -6.5q109 0 109 72q0 27 -17 46t-49.5 28t-66 13t-78.5 5v57l96 127q-161 17 -251 102t-110 218z" />
    <glyph glyph-name="Scaron" unicode="&#x160;" horiz-adv-x="1241" 
d="M84 397h192q60 -264 363 -264q158 0 233.5 66t75.5 174q0 75 -28.5 125t-106.5 91t-219 75q-249 61 -351 152.5t-102 244.5q0 168 122.5 276.5t350.5 108.5q122 0 217.5 -33t153.5 -89.5t89.5 -121.5t39.5 -139h-192q-49 229 -314 229q-130 0 -200 -55.5t-70 -157.5
q0 -99 70 -150.5t260 -97.5q119 -29 205.5 -66.5t138 -77.5t82 -90.5t41 -98t10.5 -107.5q0 -180 -133.5 -294.5t-384.5 -114.5q-130 0 -231 33.5t-164 92.5t-99.5 131t-48.5 158zM707 1552h-183l-270 269h190l172 -170l183 170h188z" />
    <glyph glyph-name="scaron" unicode="&#x161;" horiz-adv-x="968" 
d="M61 297h181q22 -86 86 -133t168 -47q211 0 211 159q0 75 -50 116t-196 75q-110 27 -181.5 58t-110 69.5t-53 80t-14.5 97.5t22 107t65.5 93t117.5 66.5t170 24.5t171.5 -26t120.5 -70t69.5 -95.5t29.5 -107.5h-172q-7 29 -20.5 53.5t-38 50.5t-67.5 41t-99 15
q-100 0 -145 -39.5t-45 -98.5q0 -60 47 -94t186 -67q116 -28 192 -62t116 -76.5t55.5 -88t15.5 -107.5q0 -140 -107.5 -228t-296.5 -88q-193 0 -300 87.5t-128 234.5zM573 1192h-174l-225 311h174l139 -205l136 205h174z" />
    <glyph glyph-name="uni0162" unicode="&#x162;" horiz-adv-x="1142" 
d="M475 0v1264h-459v161h1110v-161h-460v-1264h-13l-84 -104q33 -5 63 -16t63 -32t53 -58.5t20 -86.5q0 -58 -23.5 -99t-63.5 -61.5t-80.5 -29.5t-86.5 -9q-91 0 -147 25v123q23 -10 64.5 -16.5t68.5 -6.5q108 0 108 72q0 27 -17 46t-49.5 28t-66 13t-78.5 5v57l113 150h-35
z" />
    <glyph glyph-name="uni0163" unicode="&#x163;" horiz-adv-x="653" 
d="M20 893v145h181v308h178v-308h229v-145h-229v-608q0 -81 25.5 -117.5t93.5 -36.5q51 0 90 8v-135q-39 -14 -115 -18l-74 -90q33 -5 63 -16t63 -32t53 -58.5t20 -86.5q0 -58 -23.5 -99t-63.5 -61.5t-80.5 -29.5t-86.5 -9q-91 0 -147 25v123q23 -10 64.5 -16.5t68.5 -6.5
q108 0 108 72q0 27 -17 46t-49.5 28t-66 13t-78.5 5v57l113 148q-139 42 -139 244v651h-181z" />
    <glyph glyph-name="Tcaron" unicode="&#x164;" horiz-adv-x="1142" 
d="M475 0v1264h-459v161h1110v-161h-460v-1264h-191zM657 1552h-182l-270 269h190l172 -170l183 170h188z" />
    <glyph glyph-name="tcaron" unicode="&#x165;" horiz-adv-x="653" 
d="M662 1214h-119l-4 441h153zM20 893v145h181v308h178v-308h229v-145h-229v-608q0 -81 25.5 -117.5t93.5 -36.5q51 0 90 8v-135q-48 -18 -156 -18q-120 0 -175.5 63t-55.5 193v651h-181z" />
    <glyph glyph-name="Utilde" unicode="&#x168;" horiz-adv-x="1462" 
d="M174 1425h193v-858q0 -97 21 -173t55 -123t82.5 -77.5t99 -42.5t108.5 -12q84 0 147.5 21t114 68.5t77 133t26.5 205.5v858h190v-847q0 -596 -559 -596q-93 0 -172.5 18t-151 60.5t-122 108t-80 166t-29.5 228.5v862zM514 1579h-131v45q0 107 45.5 154t130.5 47
q54 0 120.5 -27.5t123 -54.5t86.5 -27q65 0 65 88v25h125v-43q0 -115 -44 -163t-130 -48q-51 0 -115.5 27t-123 54t-93.5 27q-59 0 -59 -69v-35z" />
    <glyph glyph-name="utilde" unicode="&#x169;" horiz-adv-x="1140" 
d="M987 1038v-735q0 -56 1 -167t1 -136h-174q-4 28 -8 156q-80 -181 -313 -181q-70 0 -128.5 19t-108.5 61t-78.5 118.5t-28.5 182.5v682h178v-645q0 -262 215 -262q142 0 203 85.5t61 281.5v540h180zM379 1239h-127v47q0 197 166 197q49 0 105 -25.5t104 -50.5t78 -25
q29 0 43 18.5t14 67.5v21h125v-43q0 -209 -170 -209q-50 0 -103 25.5t-100 51t-82 25.5q-53 0 -53 -67v-33z" />
    <glyph glyph-name="Umacron" unicode="&#x16a;" horiz-adv-x="1462" 
d="M174 1425h193v-858q0 -97 21 -173t55 -123t82.5 -77.5t99 -42.5t108.5 -12q84 0 147.5 21t114 68.5t77 133t26.5 205.5v858h190v-847q0 -596 -559 -596q-93 0 -172.5 18t-151 60.5t-122 108t-80 166t-29.5 228.5v862zM444 1749h574v-141h-574v141z" />
    <glyph glyph-name="umacron" unicode="&#x16b;" horiz-adv-x="1140" 
d="M987 1038v-735q0 -56 1 -167t1 -136h-174q-4 28 -8 156q-80 -181 -313 -181q-70 0 -128.5 19t-108.5 61t-78.5 118.5t-28.5 182.5v682h178v-645q0 -262 215 -262q142 0 203 85.5t61 281.5v540h180zM285 1432h567v-146h-567v146z" />
    <glyph glyph-name="Ubreve" unicode="&#x16c;" horiz-adv-x="1462" 
d="M174 1425h193v-858q0 -97 21 -173t55 -123t82.5 -77.5t99 -42.5t108.5 -12q84 0 147.5 21t114 68.5t77 133t26.5 205.5v858h190v-847q0 -596 -559 -596q-93 0 -172.5 18t-151 60.5t-122 108t-80 166t-29.5 228.5v862zM414 1821h139q12 -62 58.5 -100t119.5 -38
q150 0 180 138h138q-18 -120 -99.5 -194.5t-220.5 -74.5q-148 0 -226.5 78.5t-88.5 190.5z" />
    <glyph glyph-name="ubreve" unicode="&#x16d;" horiz-adv-x="1140" 
d="M987 1038v-735q0 -56 1 -167t1 -136h-174q-4 28 -8 156q-80 -181 -313 -181q-70 0 -128.5 19t-108.5 61t-78.5 118.5t-28.5 182.5v682h178v-645q0 -262 215 -262q142 0 203 85.5t61 281.5v540h180zM272 1481h134q15 -64 55 -103t106 -39q42 0 72.5 11.5t48.5 34t27.5 44
t17.5 52.5h131q-16 -123 -91.5 -201t-205.5 -78q-73 0 -130 24t-90.5 64.5t-52 88.5t-22.5 102z" />
    <glyph glyph-name="Uring" unicode="&#x16e;" horiz-adv-x="1462" 
d="M174 1425h193v-858q0 -97 21 -173t55 -123t82.5 -77.5t99 -42.5t108.5 -12q84 0 147.5 21t114 68.5t77 133t26.5 205.5v858h190v-847q0 -596 -559 -596q-93 0 -172.5 18t-151 60.5t-122 108t-80 166t-29.5 228.5v862zM731 1509q-99 0 -159 57t-60 142t60 144t159 59
t158 -57t59 -144q0 -86 -60.5 -143.5t-156.5 -57.5zM731 1602q51 0 79 31.5t28 74.5q0 44 -27.5 77.5t-79.5 33.5t-79 -31.5t-27 -75.5q0 -45 26.5 -77.5t79.5 -32.5z" />
    <glyph glyph-name="uring" unicode="&#x16f;" horiz-adv-x="1140" 
d="M987 1038v-735q0 -56 1 -167t1 -136h-174q-4 28 -8 156q-80 -181 -313 -181q-70 0 -128.5 19t-108.5 61t-78.5 118.5t-28.5 182.5v682h178v-645q0 -262 215 -262q142 0 203 85.5t61 281.5v540h180zM569 1159q-99 0 -159 57t-60 142t60 144t159 59t158 -57t59 -144
q0 -86 -60.5 -143.5t-156.5 -57.5zM569 1251q51 0 79 32t28 75q0 44 -27.5 77t-79.5 33t-79 -31t-27 -75q0 -45 26.5 -78t79.5 -33z" />
    <glyph glyph-name="Uhungarumlaut" unicode="&#x170;" horiz-adv-x="1462" 
d="M174 1425h193v-858q0 -97 21 -173t55 -123t82.5 -77.5t99 -42.5t108.5 -12q84 0 147.5 21t114 68.5t77 133t26.5 205.5v858h190v-847q0 -596 -559 -596q-93 0 -172.5 18t-151 60.5t-122 108t-80 166t-29.5 228.5v862zM664 1845h204l-274 -280h-160zM1034 1845h203
l-274 -280h-160z" />
    <glyph glyph-name="uhungarumlaut" unicode="&#x171;" horiz-adv-x="1140" 
d="M987 1038v-735q0 -56 1 -167t1 -136h-174q-4 28 -8 156q-80 -181 -313 -181q-70 0 -128.5 19t-108.5 61t-78.5 118.5t-28.5 182.5v682h178v-645q0 -262 215 -262q142 0 203 85.5t61 281.5v540h180zM420 1188h-150l207 317h189zM793 1188h-150l207 317h190z" />
    <glyph glyph-name="Uogonek" unicode="&#x172;" horiz-adv-x="1462" 
d="M174 1425h193v-858q0 -97 21 -173t55 -123t82.5 -77.5t99 -42.5t108.5 -12q84 0 147.5 21t114 68.5t77 133t26.5 205.5v858h190v-847q0 -443 -309 -558q-129 -108 -129 -210q0 -51 32 -80t83 -29q69 0 116 18v-139q-59 -33 -163 -33q-110 0 -175 60.5t-65 165.5
q0 103 88 209h-37q-93 0 -172.5 18t-151 60.5t-122 108t-80 166t-29.5 228.5v862z" />
    <glyph glyph-name="uogonek" unicode="&#x173;" horiz-adv-x="1140" 
d="M987 1038v-735q0 -56 1 -167t1 -136h-4q-135 -113 -135 -217q0 -51 32 -80t83 -29q67 0 116 19v-139q-59 -33 -163 -33q-110 0 -175 60t-65 165q0 131 135 262q-2 32 -6 148q-80 -181 -313 -181q-70 0 -128.5 19t-108.5 61t-78.5 118.5t-28.5 182.5v682h178v-645
q0 -262 215 -262q142 0 203 85.5t61 281.5v540h180z" />
    <glyph glyph-name="Wcircumflex" unicode="&#x174;" horiz-adv-x="1916" 
d="M631 0h-203l-383 1425h201q40 -168 113.5 -466t119.5 -489t58 -263h2q20 99 152.5 579t172.5 639h185q278 -1032 311 -1212h2q21 109 82 336.5t139.5 507t102.5 368.5h186l-416 -1425h-203q-282 1074 -303 1178h-2q-19 -96 -72.5 -295t-141 -512t-103.5 -371zM868 1821
h189l266 -269h-190l-172 170l-183 -170h-188z" />
    <glyph glyph-name="wcircumflex" unicode="&#x175;" horiz-adv-x="1570" 
d="M51 1038h189q203 -767 221 -872h2q18 97 239 872h177q23 -82 50 -180t42.5 -154.5t34.5 -125.5t29.5 -107t22.5 -83.5t18.5 -70.5t13 -52.5t10 -45t6.5 -33.5h2q48 197 229 852h183l-320 -1038h-194q-38 145 -93.5 348t-88 323.5t-42.5 170.5h-2q-3 -19 -8.5 -44
t-14.5 -62t-17.5 -69.5t-23.5 -87.5t-25.5 -94t-31 -110t-32.5 -114t-36.5 -128.5t-37.5 -132.5h-201zM698 1503h170l228 -311h-176l-138 207l-135 -207h-174z" />
    <glyph glyph-name="Ycircumflex" unicode="&#x176;" horiz-adv-x="1210" 
d="M692 0h-190v522q0 26 -10 39l-502 864h217q334 -598 401 -725q59 118 408 725h203l-519 -868q-8 -16 -8 -37v-520zM516 1821h189l266 -269h-191l-172 170l-182 -170h-188z" />
    <glyph glyph-name="ycircumflex" unicode="&#x177;" horiz-adv-x="985" 
d="M20 1038h195q258 -765 289 -878h2q57 206 276 878h181l-373 -1085q-53 -156 -103.5 -236t-116.5 -112.5t-175 -32.5q-51 0 -113 6v156q54 -4 86 -4q96 0 145.5 48.5t96.5 180.5zM406 1503h169l228 -311h-176l-138 207l-135 -207h-174z" />
    <glyph glyph-name="Ydieresis" unicode="&#x178;" horiz-adv-x="1210" 
d="M692 0h-190v522q0 26 -10 39l-502 864h217q334 -598 401 -725q59 118 408 725h203l-519 -868q-8 -16 -8 -37v-520zM483 1575h-157v225h157v-225zM883 1575h-156v225h156v-225z" />
    <glyph glyph-name="Zacute" unicode="&#x179;" horiz-adv-x="1222" 
d="M61 0v145l869 1119h-826v161h1043v-157l-852 -1106h881l-27 -162h-1088zM793 1845h235l-350 -280h-186z" />
    <glyph glyph-name="zacute" unicode="&#x17a;" horiz-adv-x="923" 
d="M51 0v145l598 742h-567v151h772v-149l-590 -737h619l-29 -152h-803zM598 1524h221l-315 -314h-168z" />
    <glyph glyph-name="Zdotaccent" unicode="&#x17b;" horiz-adv-x="1222" 
d="M61 0v145l869 1119h-826v161h1043v-157l-852 -1106h881l-27 -162h-1088zM702 1597h-184v224h184v-224z" />
    <glyph glyph-name="zdotaccent" unicode="&#x17c;" horiz-adv-x="923" 
d="M51 0v145l598 742h-567v151h772v-149l-590 -737h619l-29 -152h-803zM549 1280h-176v223h176v-223z" />
    <glyph glyph-name="Zcaron" unicode="&#x17d;" horiz-adv-x="1222" 
d="M61 0v145l869 1119h-826v161h1043v-157l-852 -1106h881l-27 -162h-1088zM696 1571h-182l-270 268h190l172 -170l182 170h189z" />
    <glyph glyph-name="zcaron" unicode="&#x17e;" horiz-adv-x="923" 
d="M51 0v145l598 742h-567v151h772v-149l-590 -737h619l-29 -152h-803zM549 1192h-174l-225 311h174l139 -205l135 205h174z" />
    <glyph glyph-name="uni018F" unicode="&#x18f;" horiz-adv-x="1466" 
d="M1358 733q-1 -220 -73 -388t-218 -266.5t-350 -98.5q-151 0 -270 51t-194.5 142.5t-115 216t-39.5 274.5q0 32 4 98h1059q-3 244 -120 383t-326 139q-87 0 -156.5 -19.5t-117.5 -57t-80 -80.5t-58 -99h-184q19 63 50.5 120.5t83.5 112.5t117.5 95.5t156.5 65t196 24.5
q127 0 232.5 -38.5t179 -105.5t124.5 -158t75 -194.5t24 -216.5zM1159 614h-864q-1 -225 116.5 -351t311.5 -126q188 0 301 125t135 352z" />
    <glyph glyph-name="florin" unicode="&#x192;" horiz-adv-x="1073" 
d="M1026 1391l-37 -144q-47 27 -112 27q-39 0 -69.5 -16t-50 -41t-35 -64.5t-24 -76t-16.5 -85.5l-25 -151h244v-144h-264l-76 -481q-13 -85 -29.5 -149t-43.5 -124t-63 -98t-88.5 -61t-119.5 -23q-123 0 -188 41l39 146q51 -29 135 -29q80 0 113.5 66t62.5 239l76 473h-199
v144h223l19 118q11 73 25.5 131.5t43 124.5t66 110t97 73.5t134.5 29.5q117 0 162 -36z" />
    <glyph glyph-name="Ohorn" unicode="&#x1a0;" horiz-adv-x="1538" 
d="M778 1446q238 0 400 -131q98 31 98 125q0 58 -23 121h166q17 -53 17 -115q0 -80 -39.5 -144.5t-114.5 -95.5q148 -193 148 -485q0 -119 -26 -228t-80.5 -202.5t-132 -162.5t-188 -108.5t-241.5 -39.5q-154 0 -278.5 57t-206 156t-125 232.5t-43.5 287.5t44.5 287
t127.5 232.5t211 156.5t286 57zM770 1284q-94 0 -171.5 -30t-131 -82t-90 -123.5t-53.5 -154t-17 -175.5q0 -117 30 -220t86 -183.5t145.5 -127.5t201.5 -47q120 0 211 47t145 128.5t80.5 182.5t26.5 218q0 93 -18 177t-55.5 155.5t-91 123.5t-130 81.5t-168.5 29.5z" />
    <glyph glyph-name="ohorn" unicode="&#x1a1;" horiz-adv-x="1126" 
d="M569 1063q179 0 305 -107q115 27 115 129q0 61 -22 121h166q16 -50 16 -114q0 -89 -46 -155.5t-134 -94.5q78 -137 78 -320q0 -114 -32.5 -213t-93 -173.5t-154.5 -117.5t-210 -43q-219 0 -348 152t-129 391q0 155 56 277.5t168.5 195t264.5 72.5zM561 913
q-143 0 -220 -106t-77 -287q0 -174 82 -284.5t219 -110.5q139 0 218 107t79 286t-79 287t-222 108z" />
    <glyph glyph-name="Uhorn" unicode="&#x1af;" horiz-adv-x="1462" 
d="M174 1425h193v-858q0 -97 21 -173t55 -123t82.5 -77.5t99 -42.5t108.5 -12q84 0 147.5 21t114 68.5t77 133t26.5 205.5v858h102q123 25 123 131q0 58 -23 121h166q17 -53 17 -114q0 -92 -50.5 -160t-144.5 -92v-733q0 -596 -559 -596q-93 0 -172.5 18t-151 60.5t-122 108
t-80 166t-29.5 228.5v862z" />
    <glyph glyph-name="uhorn" unicode="&#x1b0;" horiz-adv-x="1140" 
d="M807 156q-80 -181 -313 -181q-70 0 -128.5 19t-108.5 61t-78.5 118.5t-28.5 182.5v682h178v-645q0 -262 215 -262q142 0 203 85.5t61 281.5v540h78v2q143 22 143 136q0 60 -22 120h165q17 -53 17 -114q0 -93 -52 -161.5t-149 -92.5v-625q0 -56 1 -167t1 -136h-174
q-4 28 -8 156z" />
    <glyph glyph-name="uni01CD" unicode="&#x1cd;" horiz-adv-x="1351" 
d="M950 428h-567l-154 -428h-188l508 1425h231l531 -1425h-203zM432 590h471q-212 581 -241 682h-3q-33 -115 -227 -682zM756 1552h-183l-270 269h191l172 -170l182 170h188z" />
    <glyph glyph-name="uni01CE" unicode="&#x1ce;" horiz-adv-x="1083" 
d="M928 723v-496q0 -155 14 -227h-172q-13 37 -16 135q-87 -160 -322 -160q-89 0 -158 27t-110 73t-61.5 101.5t-20.5 116.5q0 170 127 254t364 84h177v88q0 40 -8 71.5t-30 63.5t-69.5 50t-116.5 18q-61 0 -103.5 -13.5t-65.5 -40.5t-33.5 -51t-18.5 -61h-174q5 46 18.5 87
t43 82.5t73 71t112 48t154.5 18.5q396 0 396 -340zM752 473v33h-168q-159 0 -238.5 -48.5t-79.5 -154.5q0 -83 54 -134.5t149 -51.5q73 0 125.5 20t82.5 50.5t47.5 79.5t22.5 96t5 110zM631 1192h-174l-226 311h175l139 -205l135 205h174z" />
    <glyph glyph-name="uni01CF" unicode="&#x1cf;" horiz-adv-x="565" 
d="M188 1425h189v-1425h-189v1425zM375 1552h-182l-271 269h191l172 -170l182 170h188z" />
    <glyph glyph-name="uni01D0" unicode="&#x1d0;" horiz-adv-x="485" 
d="M154 0v1038h180v-1038h-180zM332 1192h-174l-226 311h174l140 -205l135 205h174z" />
    <glyph glyph-name="uni01D1" unicode="&#x1d1;" horiz-adv-x="1538" 
d="M778 1446q197 0 346 -93t227.5 -257t78.5 -375q0 -119 -26 -228t-80.5 -202.5t-132 -162.5t-188 -108.5t-241.5 -39.5q-154 0 -278.5 57t-206 156t-125 232.5t-43.5 287.5t44.5 287t127.5 232.5t211 156.5t286 57zM770 1284q-94 0 -171.5 -30t-131 -82t-90 -123.5
t-53.5 -154t-17 -175.5q0 -117 30 -220t86 -183.5t145.5 -127.5t201.5 -47q120 0 211 47t145 128.5t80.5 182.5t26.5 218q0 93 -18 177t-55.5 155.5t-91 123.5t-130 81.5t-168.5 29.5zM856 1563h-182l-271 268h191l172 -170l182 170h189z" />
    <glyph glyph-name="uni01D2" unicode="&#x1d2;" horiz-adv-x="1126" 
d="M569 1063q217 0 347.5 -148t130.5 -393q0 -114 -32.5 -213t-93 -173.5t-154.5 -117.5t-210 -43q-219 0 -348 152t-129 391q0 155 56 277.5t168.5 195t264.5 72.5zM561 913q-143 0 -220 -106t-77 -287q0 -174 82 -284.5t219 -110.5q139 0 218 107t79 286t-79 287t-222 108
zM649 1192h-174l-225 311h174l139 -205l135 205h174z" />
    <glyph glyph-name="uni01D3" unicode="&#x1d3;" horiz-adv-x="1462" 
d="M174 1425h193v-858q0 -97 21 -173t55 -123t82.5 -77.5t99 -42.5t108.5 -12q84 0 147.5 21t114 68.5t77 133t26.5 205.5v858h190v-847q0 -596 -559 -596q-93 0 -172.5 18t-151 60.5t-122 108t-80 166t-29.5 228.5v862zM817 1565h-182l-270 268h190l172 -170l182 170h189z
" />
    <glyph glyph-name="uni01D4" unicode="&#x1d4;" horiz-adv-x="1140" 
d="M987 1038v-735q0 -56 1 -167t1 -136h-174q-4 28 -8 156q-80 -181 -313 -181q-70 0 -128.5 19t-108.5 61t-78.5 118.5t-28.5 182.5v682h178v-645q0 -262 215 -262q142 0 203 85.5t61 281.5v540h180zM657 1192h-174l-225 311h174l139 -205l136 205h174z" />
    <glyph glyph-name="uni01D5" unicode="&#x1d5;" horiz-adv-x="1462" 
d="M174 1425h193v-858q0 -97 21 -173t55 -123t82.5 -77.5t99 -42.5t108.5 -12q84 0 147.5 21t114 68.5t77 133t26.5 205.5v858h190v-847q0 -596 -559 -596q-93 0 -172.5 18t-151 60.5t-122 108t-80 166t-29.5 228.5v862zM598 1554h-156v181h156v-181zM999 1833h-538v133h538
v-133zM1020 1554h-158v181h158v-181z" />
    <glyph glyph-name="uni01D6" unicode="&#x1d6;" horiz-adv-x="1140" 
d="M987 1038v-735q0 -56 1 -167t1 -136h-174q-4 28 -8 156q-80 -181 -313 -181q-70 0 -128.5 19t-108.5 61t-78.5 118.5t-28.5 182.5v682h178v-645q0 -262 215 -262q142 0 203 85.5t61 281.5v540h180zM453 1165h-158v181h158v-181zM838 1460h-539v131h539v-131zM844 1165
h-158v181h158v-181z" />
    <glyph glyph-name="uni01D7" unicode="&#x1d7;" horiz-adv-x="1462" 
d="M174 1425h193v-858q0 -97 21 -173t55 -123t82.5 -77.5t99 -42.5t108.5 -12q84 0 147.5 21t114 68.5t77 133t26.5 205.5v858h190v-847q0 -596 -559 -596q-93 0 -172.5 18t-151 60.5t-122 108t-80 166t-29.5 228.5v862zM442 1726h156v-178h-156v178zM637 1792l201 244h225
l-260 -244h-166zM1020 1548h-158v178h158v-178z" />
    <glyph glyph-name="uni01D8" unicode="&#x1d8;" horiz-adv-x="1140" 
d="M987 1038v-735q0 -56 1 -167t1 -136h-174q-4 28 -8 156q-80 -181 -313 -181q-70 0 -128.5 19t-108.5 61t-78.5 118.5t-28.5 182.5v682h178v-645q0 -262 215 -262q142 0 203 85.5t61 281.5v540h180zM295 1346h158v-181h-158v181zM633 1407h-164l199 248h217zM844 1165
h-158v181h158v-181z" />
    <glyph glyph-name="uni01D9" unicode="&#x1d9;" horiz-adv-x="1462" 
d="M174 1425h193v-858q0 -97 21 -173t55 -123t82.5 -77.5t99 -42.5t108.5 -12q84 0 147.5 21t114 68.5t77 133t26.5 205.5v858h190v-847q0 -596 -559 -596q-93 0 -172.5 18t-151 60.5t-122 108t-80 166t-29.5 228.5v862zM813 1784h-176l-221 246h170l139 -152l141 152h168z
M602 1546h-156v178h156v-178zM1024 1546h-158v178h158v-178z" />
    <glyph glyph-name="uni01DA" unicode="&#x1da;" horiz-adv-x="1140" 
d="M987 1038v-735q0 -56 1 -167t1 -136h-174q-4 28 -8 156q-80 -181 -313 -181q-70 0 -128.5 19t-108.5 61t-78.5 118.5t-28.5 182.5v682h178v-645q0 -262 215 -262q142 0 203 85.5t61 281.5v540h180zM655 1399h-170l-219 248h166l139 -156l140 156h163zM453 1157h-158v180
h158v-180zM844 1157h-158v180h158v-180z" />
    <glyph glyph-name="uni01DB" unicode="&#x1db;" horiz-adv-x="1462" 
d="M174 1425h193v-858q0 -97 21 -173t55 -123t82.5 -77.5t99 -42.5t108.5 -12q84 0 147.5 21t114 68.5t77 133t26.5 205.5v858h190v-847q0 -596 -559 -596q-93 0 -172.5 18t-151 60.5t-122 108t-80 166t-29.5 228.5v862zM442 1726h156v-178h-156v178zM823 1792h-164
l-260 244h217zM1020 1548h-158v178h158v-178z" />
    <glyph glyph-name="uni01DC" unicode="&#x1dc;" horiz-adv-x="1140" 
d="M987 1038v-735q0 -56 1 -167t1 -136h-174q-4 28 -8 156q-80 -181 -313 -181q-70 0 -128.5 19t-108.5 61t-78.5 118.5t-28.5 182.5v682h178v-645q0 -262 215 -262q142 0 203 85.5t61 281.5v540h180zM295 1337h158v-180h-158v180zM254 1647h221l195 -248h-162zM844 1157
h-158v180h158v-180z" />
    <glyph glyph-name="Gcaron" unicode="&#x1e6;" horiz-adv-x="1490" 
d="M1343 770v-770h-145q-15 41 -18 193q-129 -211 -443 -211q-151 0 -271.5 54.5t-197.5 151.5t-118 227t-41 283q0 161 43.5 297t126 236.5t209 157.5t284.5 57q243 0 395.5 -119t184.5 -315h-189q-85 276 -395 276q-120 0 -210.5 -45.5t-144 -126.5t-80 -183.5
t-26.5 -225.5q0 -114 26 -213t79 -180t142.5 -128t205.5 -47q399 0 399 453v16h-401v162h585zM844 1565h-182l-271 268h191l172 -170l182 170h188z" />
    <glyph glyph-name="gcaron" unicode="&#x1e7;" horiz-adv-x="1161" 
d="M1010 739v-645q0 -258 -114.5 -390t-363.5 -132q-91 0 -163.5 20t-119 51t-79 74t-47.5 84.5t-21 87.5h183q23 -85 89 -129.5t167 -44.5q70 0 121 18t84 49.5t53 81t27.5 106.5t7.5 132v84q-43 -90 -120.5 -136t-203.5 -46q-192 0 -311 142.5t-119 371.5q0 124 35 227.5
t95.5 172.5t142 107t175.5 38q135 0 210 -49t96 -113q3 64 10 137h168q0 -25 -1 -135t-1 -164zM266 526q0 -164 79 -266t206 -102q158 0 223.5 98t65.5 283q0 187 -62.5 279.5t-220.5 92.5q-140 0 -215.5 -106t-75.5 -279zM664 1192h-175l-225 311h174l140 -205l135 205h174
z" />
    <glyph glyph-name="uni0218" unicode="&#x218;" horiz-adv-x="1241" 
d="M84 397h192q60 -264 363 -264q158 0 233.5 66t75.5 174q0 75 -28.5 125t-106.5 91t-219 75q-249 61 -351 152.5t-102 244.5q0 168 122.5 276.5t350.5 108.5q122 0 217.5 -33t153.5 -89.5t89.5 -121.5t39.5 -139h-192q-49 229 -314 229q-130 0 -200 -55.5t-70 -157.5
q0 -99 70 -150.5t260 -97.5q119 -29 205.5 -66.5t138 -77.5t82 -90.5t41 -98t10.5 -107.5q0 -180 -133.5 -294.5t-384.5 -114.5q-130 0 -231 33.5t-164 92.5t-99.5 131t-48.5 158zM596 -520h-152q103 220 115 405h182q-6 -105 -49 -221.5t-96 -183.5z" />
    <glyph glyph-name="uni0219" unicode="&#x219;" horiz-adv-x="968" 
d="M61 297h181q22 -86 86 -133t168 -47q211 0 211 159q0 75 -50 116t-196 75q-110 27 -181.5 58t-110 69.5t-53 80t-14.5 97.5t22 107t65.5 93t117.5 66.5t170 24.5t171.5 -26t120.5 -70t69.5 -95.5t29.5 -107.5h-172q-7 29 -20.5 53.5t-38 50.5t-67.5 41t-99 15
q-100 0 -145 -39.5t-45 -98.5q0 -60 47 -94t186 -67q116 -28 192 -62t116 -76.5t55.5 -88t15.5 -107.5q0 -140 -107.5 -228t-296.5 -88q-193 0 -300 87.5t-128 234.5zM455 -516h-152q103 220 115 405h182q-6 -105 -49 -221.5t-96 -183.5z" />
    <glyph glyph-name="uni021A" unicode="&#x21a;" horiz-adv-x="1142" 
d="M475 0v1264h-459v161h1110v-161h-460v-1264h-191zM516 -516h-151q102 218 114 405h183q-6 -105 -49.5 -221t-96.5 -184z" />
    <glyph glyph-name="uni021B" unicode="&#x21b;" horiz-adv-x="653" 
d="M20 893v145h181v308h178v-308h229v-145h-229v-608q0 -81 25.5 -117.5t93.5 -36.5q51 0 90 8v-135q-48 -18 -156 -18q-120 0 -175.5 63t-55.5 193v651h-181zM309 -516h-151q102 218 114 405h183q-6 -105 -49.5 -221t-96.5 -184z" />
    <glyph glyph-name="uni0237" unicode="&#x237;" horiz-adv-x="485" 
d="M154 1038h180v-1073q0 -218 -63 -305.5t-230 -87.5q-38 0 -70 4v152q16 -2 45 -2q81 0 109.5 48t28.5 160v1104z" />
    <glyph glyph-name="uni0251" unicode="&#x251;" horiz-adv-x="1175" 
d="M838 1038h180v-788q0 -160 10 -252h-164q-7 43 -16 162q-83 -185 -332 -185q-197 0 -316.5 147t-119.5 386q0 154 55.5 279.5t162.5 200.5t247 75q126 0 197 -43t96 -102v120zM266 514q0 -179 79.5 -281t203.5 -102q297 0 297 404q0 64 -7 115.5t-26.5 101t-50.5 82.5
t-81 53t-116 20q-136 0 -217.5 -104t-81.5 -289z" />
    <glyph glyph-name="uni0259" unicode="&#x259;" horiz-adv-x="1058" 
d="M66 551h733q-2 161 -78.5 261.5t-206.5 100.5q-58 0 -102.5 -13.5t-72.5 -39.5t-44 -50t-31 -58h-182q17 56 46.5 105.5t79.5 98.5t130.5 78t181.5 29q95 0 172.5 -30t130 -81t88.5 -120t52 -144.5t16 -157.5q0 -117 -30 -217t-87 -176t-148 -119t-206 -43q-97 0 -175 30
t-127.5 78.5t-82.5 114t-46.5 131.5t-13.5 136q0 45 3 86zM793 426h-547q2 -136 69.5 -222.5t194.5 -86.5q252 0 283 309z" />
    <glyph glyph-name="uni0261" unicode="&#x261;" horiz-adv-x="1161" 
d="M1010 739v-645q0 -258 -114.5 -390t-363.5 -132q-91 0 -163.5 20t-119 51t-79 74t-47.5 84.5t-21 87.5h183q23 -85 89 -129.5t167 -44.5q70 0 121 18t84 49.5t53 81t27.5 106.5t7.5 132v84q-43 -90 -120.5 -136t-203.5 -46q-192 0 -311 142.5t-119 371.5q0 124 35 227.5
t95.5 172.5t142 107t175.5 38q135 0 210 -49t96 -113q3 64 10 137h168q0 -25 -1 -135t-1 -164zM266 526q0 -164 79 -266t206 -102q158 0 223.5 98t65.5 283q0 187 -62.5 279.5t-220.5 92.5q-140 0 -215.5 -106t-75.5 -279z" />
    <glyph glyph-name="uni02BB" unicode="&#x2bb;" horiz-adv-x="690" 
d="M336 1503h149q-40 -124 -65.5 -278t-28.5 -262h-186q9 128 47 284.5t84 255.5z" />
    <glyph glyph-name="uni02BC" unicode="&#x2bc;" horiz-adv-x="690" 
d="M354 963h-149q39 125 65 280t29 260h186q-9 -127 -47 -284.5t-84 -255.5z" />
    <glyph glyph-name="uni02BE" unicode="&#x2be;" horiz-adv-x="638" 
d="M205 1257q48 3 76 28t28 69q0 41 -29 64t-75 28v110q97 0 163 -56t66 -146q0 -93 -66 -150t-163 -57v110z" />
    <glyph glyph-name="uni02BF" unicode="&#x2bf;" horiz-adv-x="638" 
d="M434 1255v-110q-97 0 -163 56.5t-66 146.5q0 93 66 149.5t163 56.5v-110q-47 -3 -74.5 -27.5t-27.5 -68.5q0 -41 29 -64.5t73 -28.5z" />
    <glyph glyph-name="circumflex" unicode="&#x2c6;" 
d="M324 1503h170l227 -311h-176l-137 207l-136 -207h-174z" />
    <glyph glyph-name="caron" unicode="&#x2c7;" 
d="M498 1192h-174l-226 311h174l140 -205l135 205h174z" />
    <glyph glyph-name="uni02C8" unicode="&#x2c8;" horiz-adv-x="575" 
d="M371 1163h-166v367h166v-367z" />
    <glyph glyph-name="uni02C9" unicode="&#x2c9;" horiz-adv-x="976" 
d="M205 1432h567v-146h-567v146z" />
    <glyph glyph-name="uni02CA" unicode="&#x2ca;" horiz-adv-x="860" 
d="M477 1524h221l-315 -314h-168z" />
    <glyph glyph-name="uni02CB" unicode="&#x2cb;" horiz-adv-x="860" 
d="M160 1524h223l262 -314h-170z" />
    <glyph glyph-name="uni02CC" unicode="&#x2cc;" horiz-adv-x="575" 
d="M371 -475h-166v366h166v-366z" />
    <glyph glyph-name="breve" unicode="&#x2d8;" 
d="M113 1481h133q15 -63 55 -102.5t107 -39.5q42 0 72 11.5t48 34t27.5 44t17.5 52.5h132q-16 -123 -91.5 -201t-205.5 -78q-73 0 -130 24t-90.5 64.5t-52 88.5t-22.5 102z" />
    <glyph glyph-name="dotaccent" unicode="&#x2d9;" 
d="M498 1280h-176v223h176v-223z" />
    <glyph glyph-name="ring" unicode="&#x2da;" 
d="M410 1159q-99 0 -159.5 57t-60.5 142t60 144t160 59q99 0 158 -57t59 -144q0 -86 -60.5 -143.5t-156.5 -57.5zM410 1251q51 0 78.5 32t27.5 75q0 44 -27 77t-79 33t-79.5 -31t-27.5 -75q0 -45 27 -78t80 -33z" />
    <glyph glyph-name="ogonek" unicode="&#x2db;" 
d="M395 31l148 -31q-135 -113 -135 -217q0 -51 31.5 -80t82.5 -29q68 0 117 19v-139q-59 -33 -164 -33q-110 0 -174.5 60t-64.5 165q0 142 159 285z" />
    <glyph glyph-name="tilde" unicode="&#x2dc;" 
d="M219 1239h-127v47q0 197 166 197q49 0 105 -25.5t104 -50.5t78 -25q29 0 43 18.5t14 67.5v21h125v-43q0 -209 -170 -209q-50 0 -103 25.5t-100 51t-82 25.5q-53 0 -53 -67v-33z" />
    <glyph glyph-name="hungarumlaut" unicode="&#x2dd;" 
d="M260 1188h-149l206 317h189zM633 1188h-150l207 317h191z" />
    <glyph glyph-name="uni0300" unicode="&#x300;" horiz-adv-x="0" 
d="M-270 1524h223l262 -314h-170z" />
    <glyph glyph-name="uni0301" unicode="&#x301;" horiz-adv-x="0" 
d="M47 1524h221l-315 -314h-168z" />
    <glyph glyph-name="uni0302" unicode="&#x302;" horiz-adv-x="0" 
d="M-86 1503h170l227 -311h-176l-137 207l-135 -207h-174z" />
    <glyph glyph-name="uni0303" unicode="&#x303;" horiz-adv-x="0" 
d="M-190 1239h-127v47q0 197 165 197q49 0 105 -25.5t104 -50.5t78 -25t44 18.5t14 67.5v21h124v-43q0 -209 -170 -209q-50 0 -102.5 25.5t-99.5 51t-82 25.5q-53 0 -53 -67v-33z" />
    <glyph glyph-name="uni0304" unicode="&#x304;" horiz-adv-x="0" 
d="M-285 1432h568v-146h-568v146z" />
    <glyph glyph-name="uni0306" unicode="&#x306;" horiz-adv-x="0" 
d="M-297 1481h133q15 -63 55 -102.5t107 -39.5q42 0 72.5 11.5t48.5 34t27.5 44t17.5 52.5h131q-16 -123 -91.5 -201t-205.5 -78q-73 0 -130 24t-90.5 64.5t-52 88.5t-22.5 102z" />
    <glyph glyph-name="uni0307" unicode="&#x307;" horiz-adv-x="0" 
d="M88 1280h-176v223h176v-223z" />
    <glyph glyph-name="uni0308" unicode="&#x308;" horiz-adv-x="0" 
d="M-109 1280h-157v223h157v-223zM264 1280h-155v223h155v-223z" />
    <glyph glyph-name="uni0309" unicode="&#x309;" horiz-adv-x="0" 
d="M84 1196h-168q64 55 92.5 94.5t28.5 79.5q0 33 -21.5 54.5t-64.5 21.5q-62 0 -123 -35l-41 109q86 59 203 59q97 0 152 -51.5t55 -126.5q0 -35 -9.5 -66.5t-29.5 -58t-34.5 -42t-39.5 -38.5z" />
    <glyph glyph-name="uni030A" unicode="&#x30a;" horiz-adv-x="0" 
d="M0 1159q-99 0 -159 57t-60 142t60 144t159 59t158 -57t59 -144q0 -86 -60.5 -143.5t-156.5 -57.5zM0 1251q51 0 78.5 32t27.5 75q0 44 -27 77t-79 33t-79 -31t-27 -75q0 -45 26.5 -78t79.5 -33z" />
    <glyph glyph-name="uni030B" unicode="&#x30b;" horiz-adv-x="0" 
d="M-225 1188h-150l207 317h188zM147 1188h-149l207 317h190z" />
    <glyph glyph-name="uni030C" unicode="&#x30c;" horiz-adv-x="0" 
d="M88 1192h-174l-225 311h174l139 -205l135 205h174z" />
    <glyph glyph-name="uni031B" unicode="&#x31b;" horiz-adv-x="0" 
d="M-76 965l-57 120q143 22 143 136q0 59 -22 120h166q16 -50 16 -114q0 -104 -63.5 -176.5t-182.5 -85.5z" />
    <glyph glyph-name="uni0323" unicode="&#x323;" horiz-adv-x="0" 
d="M94 -377h-190v221h190v-221z" />
    <glyph glyph-name="uni0324" unicode="&#x324;" horiz-adv-x="0" 
d="M-109 -383h-157v223h157v-223zM264 -383h-155v223h155v-223z" />
    <glyph glyph-name="uni0326" unicode="&#x326;" horiz-adv-x="0" 
d="M-16 -516h-152q103 220 115 405h182q-6 -105 -49 -221.5t-96 -183.5z" />
    <glyph glyph-name="uni0327" unicode="&#x327;" horiz-adv-x="0" 
d="M-31 20l127 -20l-84 -104q33 -5 63 -16t63 -32t53 -58.5t20 -86.5q0 -58 -23.5 -99t-63.5 -61.5t-80.5 -29.5t-86.5 -9q-91 0 -147 25v123q23 -10 64.5 -16.5t68.5 -6.5q108 0 108 72q0 27 -17 46t-49.5 28t-66 13t-78.5 5v57z" />
    <glyph glyph-name="uni0328" unicode="&#x328;" horiz-adv-x="0" 
d="M-57 31l147 -31q-135 -113 -135 -217q0 -51 32 -80t83 -29q67 0 116 19v-139q-59 -33 -163 -33q-110 0 -175 60t-65 165q0 141 160 285z" />
    <glyph glyph-name="uni032E" unicode="&#x32e;" horiz-adv-x="0" 
d="M-297 -125h133q15 -63 55 -102t107 -39q42 0 72.5 11.5t48.5 33.5t27.5 43.5t17.5 52.5h131q-16 -123 -91.5 -200.5t-205.5 -77.5q-73 0 -130 23.5t-90.5 64.5t-52 88.5t-22.5 101.5z" />
    <glyph glyph-name="uni0331" unicode="&#x331;" horiz-adv-x="0" 
d="M-285 -201h568v-145h-568v145z" />
    <glyph glyph-name="pi" unicode="&#x3c0;" horiz-adv-x="1110" 
d="M756 0l4 891h-418v-891h-178v891q-139 0 -174 -6v141q61 12 332 12h784v-147h-170v-891h-180z" />
    <glyph glyph-name="uni1E0C" unicode="&#x1e0c;" horiz-adv-x="1476" 
d="M188 0v1425h508q302 0 487 -190.5t185 -507.5q0 -210 -82.5 -375t-237.5 -258.5t-358 -93.5h-502zM377 1264v-1104h299q123 0 218.5 42.5t154.5 118.5t89.5 177.5t30.5 224.5q0 109 -29 204t-86.5 171.5t-154.5 121t-223 44.5h-299zM778 -377h-190v221h190v-221z" />
    <glyph glyph-name="uni1E0D" unicode="&#x1e0d;" horiz-adv-x="1169" 
d="M838 1503h180v-1210q0 -193 2 -293h-172q-10 45 -10 147q-80 -172 -326 -172q-199 0 -315.5 147t-116.5 386q0 159 55.5 284.5t162 198t247.5 72.5q125 0 196.5 -39.5t96.5 -93.5v573zM266 514q0 -183 78.5 -285t204.5 -102q71 0 124 21t85.5 56.5t52.5 89t27.5 111
t7.5 130.5q0 74 -7 128.5t-25.5 103t-50 79t-81.5 48t-119 17.5q-139 0 -218 -104.5t-79 -292.5zM678 -377h-191v221h191v-221z" />
    <glyph glyph-name="uni1E0E" unicode="&#x1e0e;" horiz-adv-x="1476" 
d="M188 0v1425h508q302 0 487 -190.5t185 -507.5q0 -210 -82.5 -375t-237.5 -258.5t-358 -93.5h-502zM377 1264v-1104h299q123 0 218.5 42.5t154.5 118.5t89.5 177.5t30.5 224.5q0 109 -29 204t-86.5 171.5t-154.5 121t-223 44.5h-299zM399 -201h568v-145h-568v145z" />
    <glyph glyph-name="uni1E0F" unicode="&#x1e0f;" horiz-adv-x="1169" 
d="M838 1503h180v-1210q0 -193 2 -293h-172q-10 45 -10 147q-80 -172 -326 -172q-199 0 -315.5 147t-116.5 386q0 159 55.5 284.5t162 198t247.5 72.5q125 0 196.5 -39.5t96.5 -93.5v573zM266 514q0 -183 78.5 -285t204.5 -102q71 0 124 21t85.5 56.5t52.5 89t27.5 111
t7.5 130.5q0 74 -7 128.5t-25.5 103t-50 79t-81.5 48t-119 17.5q-139 0 -218 -104.5t-79 -292.5zM299 -201h567v-145h-567v145z" />
    <glyph glyph-name="uni1E20" unicode="&#x1e20;" horiz-adv-x="1490" 
d="M1343 770v-770h-145q-15 41 -18 193q-129 -211 -443 -211q-151 0 -271.5 54.5t-197.5 151.5t-118 227t-41 283q0 161 43.5 297t126 236.5t209 157.5t284.5 57q243 0 395.5 -119t184.5 -315h-189q-85 276 -395 276q-120 0 -210.5 -45.5t-144 -126.5t-80 -183.5
t-26.5 -225.5q0 -114 26 -213t79 -180t142.5 -128t205.5 -47q399 0 399 453v16h-401v162h585zM471 1755h573v-141h-573v141z" />
    <glyph glyph-name="uni1E21" unicode="&#x1e21;" horiz-adv-x="1161" 
d="M1010 739v-645q0 -258 -114.5 -390t-363.5 -132q-91 0 -163.5 20t-119 51t-79 74t-47.5 84.5t-21 87.5h183q23 -85 89 -129.5t167 -44.5q70 0 121 18t84 49.5t53 81t27.5 106.5t7.5 132v84q-43 -90 -120.5 -136t-203.5 -46q-192 0 -311 142.5t-119 371.5q0 124 35 227.5
t95.5 172.5t142 107t175.5 38q135 0 210 -49t96 -113q3 64 10 137h168q0 -25 -1 -135t-1 -164zM266 526q0 -164 79 -266t206 -102q158 0 223.5 98t65.5 283q0 187 -62.5 279.5t-220.5 92.5q-140 0 -215.5 -106t-75.5 -279zM295 1432h567v-146h-567v146z" />
    <glyph glyph-name="uni1E24" unicode="&#x1e24;" horiz-adv-x="1495" 
d="M188 0v1425h189v-596h741v596h191v-1425h-191v668h-741v-668h-189zM842 -377h-191v221h191v-221z" />
    <glyph glyph-name="uni1E25" unicode="&#x1e25;" horiz-adv-x="1159" 
d="M154 1503h180v-618q99 178 323 178q53 0 100.5 -11.5t94.5 -40.5t80.5 -73t54.5 -114.5t21 -159.5v-664h-181v633q0 134 -56 204t-169 70q-268 0 -268 -340v-567h-180v1503zM674 -377h-191v221h191v-221z" />
    <glyph glyph-name="uni1E2A" unicode="&#x1e2a;" horiz-adv-x="1495" 
d="M188 0v1425h189v-596h741v596h191v-1425h-191v668h-741v-668h-189zM451 -125h133q15 -63 54.5 -102t106.5 -39q42 0 72.5 11.5t48.5 33.5t27.5 43.5t17.5 52.5h131q-16 -123 -91.5 -200.5t-205.5 -77.5q-73 0 -129.5 23.5t-90.5 64.5t-52 88.5t-22 101.5z" />
    <glyph glyph-name="uni1E2B" unicode="&#x1e2b;" horiz-adv-x="1159" 
d="M154 1503h180v-618q99 178 323 178q53 0 100.5 -11.5t94.5 -40.5t80.5 -73t54.5 -114.5t21 -159.5v-664h-181v633q0 134 -56 204t-169 70q-268 0 -268 -340v-567h-180v1503zM283 -125h133q15 -63 55 -102t107 -39q42 0 72 11.5t48 33.5t27.5 43.5t17.5 52.5h131
q-16 -123 -91 -200.5t-205 -77.5q-73 0 -130 23.5t-90.5 64.5t-52 88.5t-22.5 101.5z" />
    <glyph glyph-name="uni1E36" unicode="&#x1e36;" horiz-adv-x="1148" 
d="M188 0v1425h189v-1263h743l-26 -162h-906zM737 -377h-190v221h190v-221z" />
    <glyph glyph-name="uni1E37" unicode="&#x1e37;" horiz-adv-x="485" 
d="M334 0h-180v1503h180v-1503zM338 -377h-191v221h191v-221z" />
    <glyph glyph-name="uni1E38" unicode="&#x1e38;" horiz-adv-x="1148" 
d="M188 0v1425h189v-1263h743l-26 -162h-906zM737 -377h-190v221h190v-221zM8 1729h574v-142h-574v142z" />
    <glyph glyph-name="uni1E39" unicode="&#x1e39;" horiz-adv-x="485" 
d="M334 0h-180v1503h180v-1503zM-41 1778h567v-146h-567v146zM338 -377h-191v221h191v-221z" />
    <glyph glyph-name="uni1E3A" unicode="&#x1e3a;" horiz-adv-x="1148" 
d="M188 0v1425h189v-1263h743l-26 -162h-906zM365 -201h567v-145h-567v145z" />
    <glyph glyph-name="uni1E3B" unicode="&#x1e3b;" horiz-adv-x="485" 
d="M334 0h-180v1503h180v-1503zM-41 -201h567v-145h-567v145z" />
    <glyph glyph-name="uni1E42" unicode="&#x1e42;" horiz-adv-x="1777" 
d="M1405 0v606q0 434 10 684h-8q-17 -66 -52 -172.5t-89.5 -259t-97 -269.5t-114.5 -311.5t-102 -277.5h-170q-27 80 -106.5 313.5t-131.5 387.5t-109 331t-79 262h-6q17 -282 17 -727v-567h-179v1425h281q129 -352 252 -708.5t158 -485.5h2q24 96 160 464.5t276 729.5h272
v-1425h-184zM965 -377h-191v221h191v-221z" />
    <glyph glyph-name="uni1E43" unicode="&#x1e43;" horiz-adv-x="1732" 
d="M154 0v770q0 184 -2 268h172q8 -62 8 -159q94 184 301 184q108 0 183 -49.5t106 -136.5q104 186 329 186q67 0 123.5 -20.5t103.5 -64t74 -119t27 -177.5v-682h-176v662q0 48 -9.5 89t-31.5 77.5t-64 57.5t-100 21q-123 0 -183.5 -83.5t-60.5 -227.5v-596h-176v655
q0 54 -8.5 96t-29.5 79t-62 57t-100 20q-121 0 -183.5 -89.5t-62.5 -242.5v-575h-178zM961 -377h-191v221h191v-221z" />
    <glyph glyph-name="uni1E44" unicode="&#x1e44;" horiz-adv-x="1523" 
d="M367 0h-179v1425h250q43 -69 243.5 -393.5t325 -529t160.5 -273.5h2q-12 156 -12 639v557h178v-1425h-235q-656 1078 -740 1231h-4q11 -178 11 -662v-569zM858 1571h-184v223h184v-223z" />
    <glyph glyph-name="uni1E45" unicode="&#x1e45;" horiz-adv-x="1159" 
d="M154 0v776q0 182 -2 262h174q8 -41 8 -170q91 195 325 195q157 0 253 -98.5t96 -296.5v-668h-181v645q0 262 -219 262q-141 0 -207.5 -96t-66.5 -262v-549h-180zM668 1280h-176v223h176v-223z" />
    <glyph glyph-name="uni1E46" unicode="&#x1e46;" horiz-adv-x="1523" 
d="M367 0h-179v1425h250q43 -69 243.5 -393.5t325 -529t160.5 -273.5h2q-12 156 -12 639v557h178v-1425h-235q-656 1078 -740 1231h-4q11 -178 11 -662v-569zM856 -377h-190v221h190v-221z" />
    <glyph glyph-name="uni1E47" unicode="&#x1e47;" horiz-adv-x="1159" 
d="M154 0v776q0 182 -2 262h174q8 -41 8 -170q91 195 325 195q157 0 253 -98.5t96 -296.5v-668h-181v645q0 262 -219 262q-141 0 -207.5 -96t-66.5 -262v-549h-180zM674 -377h-191v221h191v-221z" />
    <glyph glyph-name="uni1E48" unicode="&#x1e48;" horiz-adv-x="1523" 
d="M367 0h-179v1425h250q43 -69 243.5 -393.5t325 -529t160.5 -273.5h2q-12 156 -12 639v557h178v-1425h-235q-656 1078 -740 1231h-4q11 -178 11 -662v-569zM477 -201h567v-145h-567v145z" />
    <glyph glyph-name="uni1E49" unicode="&#x1e49;" horiz-adv-x="1159" 
d="M154 0v776q0 182 -2 262h174q8 -41 8 -170q91 195 325 195q157 0 253 -98.5t96 -296.5v-668h-181v645q0 262 -219 262q-141 0 -207.5 -96t-66.5 -262v-549h-180zM295 -201h567v-145h-567v145z" />
    <glyph glyph-name="uni1E5A" unicode="&#x1e5a;" horiz-adv-x="1314" 
d="M666 627h-291v-627h-187v1425h557q214 0 331.5 -105t117.5 -276q0 -133 -67.5 -219.5t-176.5 -115.5q217 -57 217 -365v-61v-42.5v-47.5t0.5 -43t2 -45.5t3.5 -39t6 -37.5t9 -28h-184q-12 27 -17.5 75t-6.5 87t-1 119v26v29q0 80 -13 131.5t-47.5 89.5t-95.5 54t-157 16z
M375 1266v-480h309q162 0 237.5 60t75.5 182q0 115 -73.5 176.5t-216.5 61.5h-332zM770 -365h-190v222h190v-222z" />
    <glyph glyph-name="uni1E5B" unicode="&#x1e5b;" horiz-adv-x="720" 
d="M154 0v756q0 84 -1 175t-1 107h176q6 -87 6 -211q41 107 131.5 170t216.5 66v-178q-166 -5 -257 -98t-91 -283v-504h-180zM340 -377h-190v221h190v-221z" />
    <glyph glyph-name="uni1E5C" unicode="&#x1e5c;" horiz-adv-x="1314" 
d="M666 627h-291v-627h-187v1425h557q214 0 331.5 -105t117.5 -276q0 -133 -67.5 -219.5t-176.5 -115.5q217 -57 217 -365v-61v-42.5v-47.5t0.5 -43t2 -45.5t3.5 -39t6 -37.5t9 -28h-184q-12 27 -17.5 75t-6.5 87t-1 119v26v29q0 80 -13 131.5t-47.5 89.5t-95.5 54t-157 16z
M375 1266v-480h309q162 0 237.5 60t75.5 182q0 115 -73.5 176.5t-216.5 61.5h-332zM772 -360h-190v221h190v-221zM367 1737h573v-142h-573v142z" />
    <glyph glyph-name="uni1E5D" unicode="&#x1e5d;" horiz-adv-x="720" 
d="M154 0v756q0 84 -1 175t-1 107h176q6 -87 6 -211q41 107 131.5 170t216.5 66v-178q-166 -5 -257 -98t-91 -283v-504h-180zM127 1432h567v-146h-567v146zM342 -377h-190v221h190v-221z" />
    <glyph glyph-name="uni1E5E" unicode="&#x1e5e;" horiz-adv-x="1314" 
d="M666 627h-291v-627h-187v1425h557q214 0 331.5 -105t117.5 -276q0 -133 -67.5 -219.5t-176.5 -115.5q217 -57 217 -365v-61v-42.5v-47.5t0.5 -43t2 -45.5t3.5 -39t6 -37.5t9 -28h-184q-12 27 -17.5 75t-6.5 87t-1 119v26v29q0 80 -13 131.5t-47.5 89.5t-95.5 54t-157 16z
M375 1266v-480h309q162 0 237.5 60t75.5 182q0 115 -73.5 176.5t-216.5 61.5h-332zM393 -190h568v-146h-568v146z" />
    <glyph glyph-name="uni1E5F" unicode="&#x1e5f;" horiz-adv-x="720" 
d="M154 0v756q0 84 -1 175t-1 107h176q6 -87 6 -211q41 107 131.5 170t216.5 66v-178q-166 -5 -257 -98t-91 -283v-504h-180zM-18 -201h567v-145h-567v145z" />
    <glyph glyph-name="uni1E60" unicode="&#x1e60;" horiz-adv-x="1241" 
d="M84 397h192q60 -264 363 -264q158 0 233.5 66t75.5 174q0 75 -28.5 125t-106.5 91t-219 75q-249 61 -351 152.5t-102 244.5q0 168 122.5 276.5t350.5 108.5q122 0 217.5 -33t153.5 -89.5t89.5 -121.5t39.5 -139h-192q-49 229 -314 229q-130 0 -200 -55.5t-70 -157.5
q0 -99 70 -150.5t260 -97.5q119 -29 205.5 -66.5t138 -77.5t82 -90.5t41 -98t10.5 -107.5q0 -180 -133.5 -294.5t-384.5 -114.5q-130 0 -231 33.5t-164 92.5t-99.5 131t-48.5 158zM713 1577h-185v223h185v-223z" />
    <glyph glyph-name="uni1E61" unicode="&#x1e61;" horiz-adv-x="968" 
d="M61 297h181q22 -86 86 -133t168 -47q211 0 211 159q0 75 -50 116t-196 75q-110 27 -181.5 58t-110 69.5t-53 80t-14.5 97.5t22 107t65.5 93t117.5 66.5t170 24.5t171.5 -26t120.5 -70t69.5 -95.5t29.5 -107.5h-172q-7 29 -20.5 53.5t-38 50.5t-67.5 41t-99 15
q-100 0 -145 -39.5t-45 -98.5q0 -60 47 -94t186 -67q116 -28 192 -62t116 -76.5t55.5 -88t15.5 -107.5q0 -140 -107.5 -228t-296.5 -88q-193 0 -300 87.5t-128 234.5zM573 1280h-176v223h176v-223z" />
    <glyph glyph-name="uni1E62" unicode="&#x1e62;" horiz-adv-x="1241" 
d="M84 397h192q60 -264 363 -264q158 0 233.5 66t75.5 174q0 75 -28.5 125t-106.5 91t-219 75q-249 61 -351 152.5t-102 244.5q0 168 122.5 276.5t350.5 108.5q122 0 217.5 -33t153.5 -89.5t89.5 -121.5t39.5 -139h-192q-49 229 -314 229q-130 0 -200 -55.5t-70 -157.5
q0 -99 70 -150.5t260 -97.5q119 -29 205.5 -66.5t138 -77.5t82 -90.5t41 -98t10.5 -107.5q0 -180 -133.5 -294.5t-384.5 -114.5q-130 0 -231 33.5t-164 92.5t-99.5 131t-48.5 158zM715 -377h-191v221h191v-221z" />
    <glyph glyph-name="uni1E63" unicode="&#x1e63;" horiz-adv-x="968" 
d="M61 297h181q22 -86 86 -133t168 -47q211 0 211 159q0 75 -50 116t-196 75q-110 27 -181.5 58t-110 69.5t-53 80t-14.5 97.5t22 107t65.5 93t117.5 66.5t170 24.5t171.5 -26t120.5 -70t69.5 -95.5t29.5 -107.5h-172q-7 29 -20.5 53.5t-38 50.5t-67.5 41t-99 15
q-100 0 -145 -39.5t-45 -98.5q0 -60 47 -94t186 -67q116 -28 192 -62t116 -76.5t55.5 -88t15.5 -107.5q0 -140 -107.5 -228t-296.5 -88q-193 0 -300 87.5t-128 234.5zM580 -377h-191v221h191v-221z" />
    <glyph glyph-name="uni1E6C" unicode="&#x1e6c;" horiz-adv-x="1142" 
d="M475 0v1264h-459v161h1110v-161h-460v-1264h-191zM666 -377h-191v221h191v-221z" />
    <glyph glyph-name="uni1E6D" unicode="&#x1e6d;" horiz-adv-x="653" 
d="M20 893v145h181v308h178v-308h229v-145h-229v-608q0 -81 25.5 -117.5t93.5 -36.5q51 0 90 8v-135q-48 -18 -156 -18q-120 0 -175.5 63t-55.5 193v651h-181zM461 -377h-191v221h191v-221z" />
    <glyph glyph-name="uni1E6E" unicode="&#x1e6e;" horiz-adv-x="1142" 
d="M475 0v1264h-459v161h1110v-161h-460v-1264h-191zM287 -201h567v-145h-567v145z" />
    <glyph glyph-name="uni1E6F" unicode="&#x1e6f;" horiz-adv-x="653" 
d="M20 893v145h181v308h178v-308h229v-145h-229v-608q0 -81 25.5 -117.5t93.5 -36.5q51 0 90 8v-135q-48 -18 -156 -18q-120 0 -175.5 63t-55.5 193v651h-181zM72 -201h567v-145h-567v145z" />
    <glyph glyph-name="Wgrave" unicode="&#x1e80;" horiz-adv-x="1916" 
d="M631 0h-203l-383 1425h201q40 -168 113.5 -466t119.5 -489t58 -263h2q20 99 152.5 579t172.5 639h185q278 -1032 311 -1212h2q21 109 82 336.5t139.5 507t102.5 368.5h186l-416 -1425h-203q-282 1074 -303 1178h-2q-19 -96 -72.5 -295t-141 -512t-103.5 -371zM537 1833
h237l281 -281h-183z" />
    <glyph glyph-name="wgrave" unicode="&#x1e81;" horiz-adv-x="1570" 
d="M51 1038h189q203 -767 221 -872h2q18 97 239 872h177q23 -82 50 -180t42.5 -154.5t34.5 -125.5t29.5 -107t22.5 -83.5t18.5 -70.5t13 -52.5t10 -45t6.5 -33.5h2q48 197 229 852h183l-320 -1038h-194q-38 145 -93.5 348t-88 323.5t-42.5 170.5h-2q-3 -19 -8.5 -44
t-14.5 -62t-17.5 -69.5t-23.5 -87.5t-25.5 -94t-31 -110t-32.5 -114t-36.5 -128.5t-37.5 -132.5h-201zM395 1524h223l263 -314h-170z" />
    <glyph glyph-name="Wacute" unicode="&#x1e82;" horiz-adv-x="1916" 
d="M631 0h-203l-383 1425h201q40 -168 113.5 -466t119.5 -489t58 -263h2q20 99 152.5 579t172.5 639h185q278 -1032 311 -1212h2q21 109 82 336.5t139.5 507t102.5 368.5h186l-416 -1425h-203q-282 1074 -303 1178h-2q-19 -96 -72.5 -295t-141 -512t-103.5 -371zM1157 1831
h236l-351 -281h-186z" />
    <glyph glyph-name="wacute" unicode="&#x1e83;" horiz-adv-x="1570" 
d="M51 1038h189q203 -767 221 -872h2q18 97 239 872h177q23 -82 50 -180t42.5 -154.5t34.5 -125.5t29.5 -107t22.5 -83.5t18.5 -70.5t13 -52.5t10 -45t6.5 -33.5h2q48 197 229 852h183l-320 -1038h-194q-38 145 -93.5 348t-88 323.5t-42.5 170.5h-2q-3 -19 -8.5 -44
t-14.5 -62t-17.5 -69.5t-23.5 -87.5t-25.5 -94t-31 -110t-32.5 -114t-36.5 -128.5t-37.5 -132.5h-201zM956 1524h222l-316 -314h-168z" />
    <glyph glyph-name="Wdieresis" unicode="&#x1e84;" horiz-adv-x="1916" 
d="M631 0h-203l-383 1425h201q40 -168 113.5 -466t119.5 -489t58 -263h2q20 99 152.5 579t172.5 639h185q278 -1032 311 -1212h2q21 109 82 336.5t139.5 507t102.5 368.5h186l-416 -1425h-203q-282 1074 -303 1178h-2q-19 -96 -72.5 -295t-141 -512t-103.5 -371zM836 1575
h-158v225h158v-225zM1235 1575h-156v225h156v-225z" />
    <glyph glyph-name="wdieresis" unicode="&#x1e85;" horiz-adv-x="1570" 
d="M51 1038h189q203 -767 221 -872h2q18 97 239 872h177q23 -82 50 -180t42.5 -154.5t34.5 -125.5t29.5 -107t22.5 -83.5t18.5 -70.5t13 -52.5t10 -45t6.5 -33.5h2q48 197 229 852h183l-320 -1038h-194q-38 145 -93.5 348t-88 323.5t-42.5 170.5h-2q-3 -19 -8.5 -44
t-14.5 -62t-17.5 -69.5t-23.5 -87.5t-25.5 -94t-31 -110t-32.5 -114t-36.5 -128.5t-37.5 -132.5h-201zM676 1280h-158v223h158v-223zM1049 1280h-156v223h156v-223z" />
    <glyph glyph-name="uni1E8E" unicode="&#x1e8e;" horiz-adv-x="1210" 
d="M692 0h-190v522q0 26 -10 39l-502 864h217q334 -598 401 -725q59 118 408 725h203l-519 -868q-8 -16 -8 -37v-520zM696 1569h-184v223h184v-223z" />
    <glyph glyph-name="uni1E8F" unicode="&#x1e8f;" horiz-adv-x="985" 
d="M20 1038h195q258 -765 289 -878h2q57 206 276 878h181l-373 -1085q-53 -156 -103.5 -236t-116.5 -112.5t-175 -32.5q-51 0 -113 6v156q54 -4 86 -4q96 0 145.5 48.5t96.5 180.5zM580 1280h-177v223h177v-223z" />
    <glyph glyph-name="uni1E92" unicode="&#x1e92;" horiz-adv-x="1222" 
d="M61 0v145l869 1119h-826v161h1043v-157l-852 -1106h881l-27 -162h-1088zM705 -377h-191v221h191v-221z" />
    <glyph glyph-name="uni1E93" unicode="&#x1e93;" horiz-adv-x="923" 
d="M51 0v145l598 742h-567v151h772v-149l-590 -737h619l-29 -152h-803zM555 -377h-190v221h190v-221z" />
    <glyph glyph-name="uni1E97" unicode="&#x1e97;" horiz-adv-x="653" 
d="M20 893v145h181v308h178v-308h229v-145h-229v-608q0 -81 25.5 -117.5t93.5 -36.5q51 0 90 8v-135q-48 -18 -156 -18q-120 0 -175.5 63t-55.5 193v651h-181zM184 1446h-157v223h157v-223zM557 1446h-156v223h156v-223z" />
    <glyph glyph-name="uni1E9E" unicode="&#x1e9e;" horiz-adv-x="1323" 
d="M377 995v-995h-189v1044q0 204 129.5 303t362.5 99q113 0 203 -23t146 -60t93 -85.5t51.5 -96t14.5 -96.5q0 -39 -4 -63l-346 -215v-8l149 -88q158 -94 218.5 -180.5t60.5 -194.5q0 -161 -110 -258.5t-312 -97.5q-109 0 -197 31t-139 79v189q63 -69 154 -109.5t182 -40.5
q121 0 180 54.5t59 135.5q0 74 -42.5 125.5t-166.5 122.5l-217 127q-51 31 -51 83t53 87l330 209q0 28 -7 55.5t-27.5 59t-53 55t-88.5 39.5t-129 16q-60 0 -104 -7t-84 -27t-65 -53.5t-39.5 -87.5t-14.5 -128z" />
    <glyph glyph-name="uni1EA0" unicode="&#x1ea0;" horiz-adv-x="1351" 
d="M950 428h-567l-154 -428h-188l508 1425h231l531 -1425h-203zM432 590h471q-212 581 -241 682h-3q-33 -115 -227 -682zM770 -377h-190v221h190v-221z" />
    <glyph glyph-name="uni1EA1" unicode="&#x1ea1;" horiz-adv-x="1083" 
d="M928 723v-496q0 -155 14 -227h-172q-13 37 -16 135q-87 -160 -322 -160q-89 0 -158 27t-110 73t-61.5 101.5t-20.5 116.5q0 170 127 254t364 84h177v88q0 40 -8 71.5t-30 63.5t-69.5 50t-116.5 18q-61 0 -103.5 -13.5t-65.5 -40.5t-33.5 -51t-18.5 -61h-174q5 46 18.5 87
t43 82.5t73 71t112 48t154.5 18.5q396 0 396 -340zM752 473v33h-168q-159 0 -238.5 -48.5t-79.5 -154.5q0 -83 54 -134.5t149 -51.5q73 0 125.5 20t82.5 50.5t47.5 79.5t22.5 96t5 110zM637 -377h-191v221h191v-221z" />
    <glyph glyph-name="uni1EA2" unicode="&#x1ea2;" horiz-adv-x="1351" 
d="M950 428h-567l-154 -428h-188l508 1425h231l531 -1425h-203zM432 590h471q-212 581 -241 682h-3q-33 -115 -227 -682zM754 1550h-168q64 55 92.5 94.5t28.5 79.5q0 33 -21.5 54.5t-64.5 21.5q-62 0 -123 -35l-41 109q86 59 202 59q97 0 152 -51.5t55 -126.5
q0 -35 -9.5 -66.5t-29 -58t-34.5 -42.5t-39 -38z" />
    <glyph glyph-name="uni1EA3" unicode="&#x1ea3;" horiz-adv-x="1083" 
d="M928 723v-496q0 -155 14 -227h-172q-13 37 -16 135q-87 -160 -322 -160q-89 0 -158 27t-110 73t-61.5 101.5t-20.5 116.5q0 170 127 254t364 84h177v88q0 40 -8 71.5t-30 63.5t-69.5 50t-116.5 18q-61 0 -103.5 -13.5t-65.5 -40.5t-33.5 -51t-18.5 -61h-174q5 46 18.5 87
t43 82.5t73 71t112 48t154.5 18.5q396 0 396 -340zM752 473v33h-168q-159 0 -238.5 -48.5t-79.5 -154.5q0 -83 54 -134.5t149 -51.5q73 0 125.5 20t82.5 50.5t47.5 79.5t22.5 96t5 110zM627 1196h-168q64 55 92.5 94.5t28.5 79.5q0 33 -21.5 54.5t-64.5 21.5q-62 0 -123 -35
l-41 109q86 59 202 59q97 0 152 -51.5t55 -126.5q0 -35 -9.5 -66.5t-29 -58t-34.5 -42.5t-39 -38z" />
    <glyph glyph-name="uni1EA4" unicode="&#x1ea4;" horiz-adv-x="1351" 
d="M950 428h-567l-154 -428h-188l508 1425h231l531 -1425h-203zM432 590h471q-212 581 -241 682h-3q-33 -115 -227 -682zM578 1800h186l272 -248h-202l-160 144l-158 -144h-199zM1130 1993h216l-265 -238h-163z" />
    <glyph glyph-name="uni1EA5" unicode="&#x1ea5;" horiz-adv-x="1083" 
d="M928 723v-496q0 -155 14 -227h-172q-13 37 -16 135q-87 -160 -322 -160q-89 0 -158 27t-110 73t-61.5 101.5t-20.5 116.5q0 170 127 254t364 84h177v88q0 40 -8 71.5t-30 63.5t-69.5 50t-116.5 18q-61 0 -103.5 -13.5t-65.5 -40.5t-33.5 -51t-18.5 -61h-174q5 46 18.5 87
t43 82.5t73 71t112 48t154.5 18.5q396 0 396 -340zM752 473v33h-168q-159 0 -238.5 -48.5t-79.5 -154.5q0 -83 54 -134.5t149 -51.5q73 0 125.5 20t82.5 50.5t47.5 79.5t22.5 96t5 110zM449 1438h186l217 -273h-170l-141 178l-140 -178h-168zM989 1667h195l-271 -268h-147z
" />
    <glyph glyph-name="uni1EA6" unicode="&#x1ea6;" horiz-adv-x="1351" 
d="M950 428h-567l-154 -428h-188l508 1425h231l531 -1425h-203zM432 590h471q-212 581 -241 682h-3q-33 -115 -227 -682zM578 1800h186l272 -248h-202l-160 144l-158 -144h-199zM803 1966h225l211 -229h-158z" />
    <glyph glyph-name="uni1EA7" unicode="&#x1ea7;" horiz-adv-x="1083" 
d="M928 723v-496q0 -155 14 -227h-172q-13 37 -16 135q-87 -160 -322 -160q-89 0 -158 27t-110 73t-61.5 101.5t-20.5 116.5q0 170 127 254t364 84h177v88q0 40 -8 71.5t-30 63.5t-69.5 50t-116.5 18q-61 0 -103.5 -13.5t-65.5 -40.5t-33.5 -51t-18.5 -61h-174q5 46 18.5 87
t43 82.5t73 71t112 48t154.5 18.5q396 0 396 -340zM752 473v33h-168q-159 0 -238.5 -48.5t-79.5 -154.5q0 -83 54 -134.5t149 -51.5q73 0 125.5 20t82.5 50.5t47.5 79.5t22.5 96t5 110zM449 1438h186l217 -273h-170l-141 178l-140 -178h-168zM653 1653h199l211 -275h-150z
" />
    <glyph glyph-name="uni1EA8" unicode="&#x1ea8;" horiz-adv-x="1351" 
d="M950 428h-567l-154 -428h-188l508 1425h231l531 -1425h-203zM432 590h471q-212 581 -241 682h-3q-33 -115 -227 -682zM1104 1749h-154q113 83 113 156q0 63 -80 63q-56 0 -117 -37l-41 97q83 63 191 63q87 0 136.5 -45.5t49.5 -118.5q0 -54 -28 -101t-70 -77zM578 1800
h186l272 -248h-202l-160 146l-158 -146h-199z" />
    <glyph glyph-name="uni1EA9" unicode="&#x1ea9;" horiz-adv-x="1083" 
d="M928 723v-496q0 -155 14 -227h-172q-13 37 -16 135q-87 -160 -322 -160q-89 0 -158 27t-110 73t-61.5 101.5t-20.5 116.5q0 170 127 254t364 84h177v88q0 40 -8 71.5t-30 63.5t-69.5 50t-116.5 18q-61 0 -103.5 -13.5t-65.5 -40.5t-33.5 -51t-18.5 -61h-174q5 46 18.5 87
t43 82.5t73 71t112 48t154.5 18.5q396 0 396 -340zM752 473v33h-168q-159 0 -238.5 -48.5t-79.5 -154.5q0 -83 54 -134.5t149 -51.5q73 0 125.5 20t82.5 50.5t47.5 79.5t22.5 96t5 110zM948 1378h-151q114 86 114 156q0 61 -73 61q-68 0 -113 -39l-41 93q74 63 184 63
q88 0 133.5 -41.5t45.5 -114.5q0 -101 -99 -178zM449 1438h186l217 -273h-170l-141 178l-140 -178h-168z" />
    <glyph glyph-name="uni1EAA" unicode="&#x1eaa;" horiz-adv-x="1351" 
d="M950 428h-567l-154 -428h-188l508 1425h231l531 -1425h-203zM432 590h471q-212 581 -241 682h-3q-33 -115 -227 -682zM465 1806h-111v23q0 172 154 172q64 0 173.5 -35t147.5 -35q29 0 44.5 11.5t15.5 42.5v14h108v-25q0 -90 -38.5 -129t-114.5 -39q-52 0 -168.5 37
t-155.5 37q-55 0 -55 -59v-15zM575 1731h199l254 -197h-197l-159 113l-154 -113h-196z" />
    <glyph glyph-name="uni1EAB" unicode="&#x1eab;" horiz-adv-x="1083" 
d="M928 723v-496q0 -155 14 -227h-172q-13 37 -16 135q-87 -160 -322 -160q-89 0 -158 27t-110 73t-61.5 101.5t-20.5 116.5q0 170 127 254t364 84h177v88q0 40 -8 71.5t-30 63.5t-69.5 50t-116.5 18q-61 0 -103.5 -13.5t-65.5 -40.5t-33.5 -51t-18.5 -61h-174q5 46 18.5 87
t43 82.5t73 71t112 48t154.5 18.5q396 0 396 -340zM752 473v33h-168q-159 0 -238.5 -48.5t-79.5 -154.5q0 -83 54 -134.5t149 -51.5q73 0 125.5 20t82.5 50.5t47.5 79.5t22.5 96t5 110zM367 1464h-111v21q0 91 40 132.5t107 41.5q48 0 98.5 -18.5t91.5 -37t66 -18.5
q27 0 41.5 11.5t14.5 43.5v17h108v-25q0 -168 -153 -168q-51 0 -133.5 38t-114.5 38q-55 0 -55 -63v-13zM440 1376h193l227 -211h-184l-141 127l-136 -127h-180z" />
    <glyph glyph-name="uni1EAC" unicode="&#x1eac;" horiz-adv-x="1351" 
d="M950 428h-567l-154 -428h-188l508 1425h231l531 -1425h-203zM432 590h471q-212 581 -241 682h-3q-33 -115 -227 -682zM770 -377h-190v221h190v-221zM573 1808h189l266 -268h-190l-172 170l-183 -170h-188z" />
    <glyph glyph-name="uni1EAD" unicode="&#x1ead;" horiz-adv-x="1083" 
d="M928 723v-496q0 -155 14 -227h-172q-13 37 -16 135q-87 -160 -322 -160q-89 0 -158 27t-110 73t-61.5 101.5t-20.5 116.5q0 170 127 254t364 84h177v88q0 40 -8 71.5t-30 63.5t-69.5 50t-116.5 18q-61 0 -103.5 -13.5t-65.5 -40.5t-33.5 -51t-18.5 -61h-174q5 46 18.5 87
t43 82.5t73 71t112 48t154.5 18.5q396 0 396 -340zM752 473v33h-168q-159 0 -238.5 -48.5t-79.5 -154.5q0 -83 54 -134.5t149 -51.5q73 0 125.5 20t82.5 50.5t47.5 79.5t22.5 96t5 110zM637 -377h-191v221h191v-221zM457 1503h170l227 -311h-176l-137 207l-135 -207h-175z
" />
    <glyph glyph-name="uni1EAE" unicode="&#x1eae;" horiz-adv-x="1351" 
d="M950 428h-567l-154 -428h-188l508 1425h231l531 -1425h-203zM432 590h471q-212 581 -241 682h-3q-33 -115 -227 -682zM340 1772h145q48 -109 183 -109q137 0 188 109h143q-13 -49 -37 -89.5t-62.5 -75.5t-97.5 -54.5t-134 -20.5q-67 0 -122 17t-89.5 42t-60 59t-38 63
t-18.5 59zM780 2034h230l-269 -215h-166z" />
    <glyph glyph-name="uni1EAF" unicode="&#x1eaf;" horiz-adv-x="1083" 
d="M928 723v-496q0 -155 14 -227h-172q-13 37 -16 135q-87 -160 -322 -160q-89 0 -158 27t-110 73t-61.5 101.5t-20.5 116.5q0 170 127 254t364 84h177v88q0 40 -8 71.5t-30 63.5t-69.5 50t-116.5 18q-61 0 -103.5 -13.5t-65.5 -40.5t-33.5 -51t-18.5 -61h-174q5 46 18.5 87
t43 82.5t73 71t112 48t154.5 18.5q396 0 396 -340zM752 473v33h-168q-159 0 -238.5 -48.5t-79.5 -154.5q0 -83 54 -134.5t149 -51.5q73 0 125.5 20t82.5 50.5t47.5 79.5t22.5 96t5 110zM236 1409h135q43 -115 168 -115q77 0 114.5 31.5t55.5 83.5h131q-21 -111 -97 -176.5
t-206 -65.5q-69 0 -125 21t-91 56.5t-56 77t-29 87.5zM651 1702h193l-240 -242h-158z" />
    <glyph glyph-name="uni1EB0" unicode="&#x1eb0;" horiz-adv-x="1351" 
d="M950 428h-567l-154 -428h-188l508 1425h231l531 -1425h-203zM432 590h471q-212 581 -241 682h-3q-33 -115 -227 -682zM340 1772h145q48 -109 183 -109q137 0 188 109h143q-28 -105 -108 -172.5t-223 -67.5q-82 0 -145.5 24.5t-99.5 63.5t-55.5 76.5t-27.5 75.5zM348 2034
h227l203 -215h-170z" />
    <glyph glyph-name="uni1EB1" unicode="&#x1eb1;" horiz-adv-x="1083" 
d="M928 723v-496q0 -155 14 -227h-172q-13 37 -16 135q-87 -160 -322 -160q-89 0 -158 27t-110 73t-61.5 101.5t-20.5 116.5q0 170 127 254t364 84h177v88q0 40 -8 71.5t-30 63.5t-69.5 50t-116.5 18q-61 0 -103.5 -13.5t-65.5 -40.5t-33.5 -51t-18.5 -61h-174q5 46 18.5 87
t43 82.5t73 71t112 48t154.5 18.5q396 0 396 -340zM752 473v33h-168q-159 0 -238.5 -48.5t-79.5 -154.5q0 -83 54 -134.5t149 -51.5q73 0 125.5 20t82.5 50.5t47.5 79.5t22.5 96t5 110zM238 1413h135q43 -115 168 -115q77 0 114.5 31.5t55.5 83.5h131q-21 -111 -97 -176.5
t-206 -65.5q-69 0 -125 21t-91 56.5t-56 77t-29 87.5zM231 1706h203l203 -242h-158z" />
    <glyph glyph-name="uni1EB2" unicode="&#x1eb2;" horiz-adv-x="1351" 
d="M950 428h-567l-154 -428h-188l508 1425h231l531 -1425h-203zM432 590h471q-212 581 -241 682h-3q-33 -115 -227 -682zM735 1802h-151q112 87 112 152q0 59 -75 59q-60 0 -117 -37l-43 92q82 66 192 66q85 0 133 -44t48 -114q0 -96 -99 -174zM340 1772h143
q50 -109 187 -109q43 0 76 9.5t54.5 27.5t34 34t23.5 38h141q-75 -240 -331 -240q-66 0 -121 17t-89.5 42.5t-60.5 59t-38.5 63t-18.5 58.5z" />
    <glyph glyph-name="uni1EB3" unicode="&#x1eb3;" horiz-adv-x="1083" 
d="M928 723v-496q0 -155 14 -227h-172q-13 37 -16 135q-87 -160 -322 -160q-89 0 -158 27t-110 73t-61.5 101.5t-20.5 116.5q0 170 127 254t364 84h177v88q0 40 -8 71.5t-30 63.5t-69.5 50t-116.5 18q-61 0 -103.5 -13.5t-65.5 -40.5t-33.5 -51t-18.5 -61h-174q5 46 18.5 87
t43 82.5t73 71t112 48t154.5 18.5q396 0 396 -340zM752 473v33h-168q-159 0 -238.5 -48.5t-79.5 -154.5q0 -83 54 -134.5t149 -51.5q73 0 125.5 20t82.5 50.5t47.5 79.5t22.5 96t5 110zM596 1452h-143q122 90 122 154q0 63 -73 63q-64 0 -115 -41l-39 90q80 68 184 68
q87 0 132 -42t45 -116q0 -52 -31.5 -98t-81.5 -78zM240 1413h135q43 -115 168 -115q77 0 114.5 31.5t55.5 83.5h131q-21 -111 -97 -176.5t-206 -65.5q-69 0 -125 21t-91 56.5t-56 77t-29 87.5z" />
    <glyph glyph-name="uni1EB4" unicode="&#x1eb4;" horiz-adv-x="1351" 
d="M950 428h-567l-154 -428h-188l508 1425h231l531 -1425h-203zM432 590h471q-212 581 -241 682h-3q-33 -115 -227 -682zM459 1823h-111v20q0 90 41.5 132t112.5 42q64 0 173.5 -35.5t147.5 -35.5q30 0 45 11t15 42v14h108v-22q0 -90 -39 -130t-114 -40q-52 0 -168.5 36.5
t-155.5 36.5q-55 0 -55 -59v-12zM344 1733h143q20 -37 65.5 -62.5t115.5 -25.5q81 0 121.5 23t60.5 65h141q-66 -207 -325 -207q-76 0 -136.5 19.5t-97 51.5t-57.5 65.5t-31 70.5z" />
    <glyph glyph-name="uni1EB5" unicode="&#x1eb5;" horiz-adv-x="1083" 
d="M928 723v-496q0 -155 14 -227h-172q-13 37 -16 135q-87 -160 -322 -160q-89 0 -158 27t-110 73t-61.5 101.5t-20.5 116.5q0 170 127 254t364 84h177v88q0 40 -8 71.5t-30 63.5t-69.5 50t-116.5 18q-61 0 -103.5 -13.5t-65.5 -40.5t-33.5 -51t-18.5 -61h-174q5 46 18.5 87
t43 82.5t73 71t112 48t154.5 18.5q396 0 396 -340zM752 473v33h-168q-159 0 -238.5 -48.5t-79.5 -154.5q0 -83 54 -134.5t149 -51.5q73 0 125.5 20t82.5 50.5t47.5 79.5t22.5 96t5 110zM371 1493h-111v23q0 90 40.5 131t107.5 41q49 0 98.5 -17.5t89 -35t63.5 -17.5
q30 0 45 11t15 42v15h108v-25q0 -168 -153 -168q-51 0 -133.5 37t-114.5 37q-55 0 -55 -60v-14zM258 1397h129q48 -101 156 -101q71 0 104.5 27t52.5 74h129q-18 -101 -91.5 -163.5t-196.5 -62.5q-65 0 -117.5 20t-86 53.5t-53.5 72t-26 80.5z" />
    <glyph glyph-name="uni1EB6" unicode="&#x1eb6;" horiz-adv-x="1351" 
d="M950 428h-567l-154 -428h-188l508 1425h231l531 -1425h-203zM432 590h471q-212 581 -241 682h-3q-33 -115 -227 -682zM770 -377h-190v221h190v-221zM350 1810h139q12 -62 59 -99.5t120 -37.5q150 0 180 137h137q-18 -120 -99 -194t-220 -74q-148 0 -227 78t-89 190z" />
    <glyph glyph-name="uni1EB7" unicode="&#x1eb7;" horiz-adv-x="1083" 
d="M928 723v-496q0 -155 14 -227h-172q-13 37 -16 135q-87 -160 -322 -160q-89 0 -158 27t-110 73t-61.5 101.5t-20.5 116.5q0 170 127 254t364 84h177v88q0 40 -8 71.5t-30 63.5t-69.5 50t-116.5 18q-61 0 -103.5 -13.5t-65.5 -40.5t-33.5 -51t-18.5 -61h-174q5 46 18.5 87
t43 82.5t73 71t112 48t154.5 18.5q396 0 396 -340zM752 473v33h-168q-159 0 -238.5 -48.5t-79.5 -154.5q0 -83 54 -134.5t149 -51.5q73 0 125.5 20t82.5 50.5t47.5 79.5t22.5 96t5 110zM246 1481h133q15 -63 55 -102.5t107 -39.5q42 0 72.5 11.5t48.5 34t27.5 44t17.5 52.5
h131q-16 -123 -91.5 -201t-205.5 -78q-73 0 -130 24t-90.5 64.5t-52 88.5t-22.5 102zM647 -377h-190v221h190v-221z" />
    <glyph glyph-name="uni1EB8" unicode="&#x1eb8;" horiz-adv-x="1222" 
d="M1081 827v-161h-708v-504h778l-25 -162h-938v1425h928v-161h-743v-437h708zM760 -377h-191v221h191v-221z" />
    <glyph glyph-name="uni1EB9" unicode="&#x1eb9;" horiz-adv-x="1071" 
d="M993 487h-733q2 -161 78.5 -261.5t206.5 -100.5q58 0 102.5 13.5t72.5 39.5t44 50.5t31 58.5h182q-17 -56 -46.5 -105.5t-79.5 -99t-130.5 -78.5t-181.5 -29q-95 0 -172.5 30t-130 81t-88.5 120t-52 144.5t-16 157.5q0 117 30 217t87 176t148 119t206 43q97 0 175 -30
t127 -78.5t82 -114t46.5 -131.5t13.5 -136q0 -59 -2 -86zM266 612h547q-2 136 -69.5 223t-194.5 87q-252 0 -283 -310zM651 -377h-190v221h190v-221z" />
    <glyph glyph-name="uni1EBA" unicode="&#x1eba;" horiz-adv-x="1222" 
d="M1081 827v-161h-708v-504h778l-25 -162h-938v1425h928v-161h-743v-437h708zM741 1554h-168q64 54 92.5 94.5t28.5 80.5q0 33 -21.5 54t-64.5 21q-62 0 -123 -35l-41 109q86 59 203 59q97 0 152 -51.5t55 -126.5q0 -35 -9.5 -66.5t-29.5 -58t-34.5 -42t-39.5 -38.5z" />
    <glyph glyph-name="uni1EBB" unicode="&#x1ebb;" horiz-adv-x="1071" 
d="M993 487h-733q2 -161 78.5 -261.5t206.5 -100.5q58 0 102.5 13.5t72.5 39.5t44 50.5t31 58.5h182q-17 -56 -46.5 -105.5t-79.5 -99t-130.5 -78.5t-181.5 -29q-95 0 -172.5 30t-130 81t-88.5 120t-52 144.5t-16 157.5q0 117 30 217t87 176t148 119t206 43q97 0 175 -30
t127 -78.5t82 -114t46.5 -131.5t13.5 -136q0 -59 -2 -86zM266 612h547q-2 136 -69.5 223t-194.5 87q-252 0 -283 -310zM635 1184h-168q64 55 92.5 94.5t28.5 79.5q0 33 -21.5 54.5t-64.5 21.5q-62 0 -123 -35l-41 108q87 60 203 60q97 0 152 -51.5t55 -126.5
q0 -35 -9.5 -66.5t-29.5 -58t-34.5 -42t-39.5 -38.5z" />
    <glyph glyph-name="uni1EBC" unicode="&#x1ebc;" horiz-adv-x="1222" 
d="M1081 827v-161h-708v-504h778l-25 -162h-938v1425h928v-161h-743v-437h708zM434 1589h-131v45q0 107 45.5 154t130.5 47q54 0 120.5 -27.5t123 -54.5t86.5 -27q65 0 65 89v24h125v-43q0 -115 -44 -163t-130 -48q-50 0 -115 27.5t-123 54.5t-93 27q-60 0 -60 -70v-35z" />
    <glyph glyph-name="uni1EBD" unicode="&#x1ebd;" horiz-adv-x="1071" 
d="M993 487h-733q2 -161 78.5 -261.5t206.5 -100.5q58 0 102.5 13.5t72.5 39.5t44 50.5t31 58.5h182q-17 -56 -46.5 -105.5t-79.5 -99t-130.5 -78.5t-181.5 -29q-95 0 -172.5 30t-130 81t-88.5 120t-52 144.5t-16 157.5q0 117 30 217t87 176t148 119t206 43q97 0 175 -30
t127 -78.5t82 -114t46.5 -131.5t13.5 -136q0 -59 -2 -86zM266 612h547q-2 136 -69.5 223t-194.5 87q-252 0 -283 -310zM346 1239h-127v47q0 197 166 197q49 0 105 -25.5t104 -50.5t78 -25q29 0 43 18.5t14 67.5v21h125v-43q0 -209 -170 -209q-50 0 -103 25.5t-100 51
t-82 25.5q-53 0 -53 -67v-33z" />
    <glyph glyph-name="uni1EBE" unicode="&#x1ebe;" horiz-adv-x="1222" 
d="M1081 827v-161h-708v-504h778l-25 -162h-938v1425h928v-161h-743v-437h708zM551 1802h186l273 -248h-203l-160 144l-158 -144h-198zM1104 1995h215l-264 -238h-164z" />
    <glyph glyph-name="uni1EBF" unicode="&#x1ebf;" horiz-adv-x="1071" 
d="M993 487h-733q2 -161 78.5 -261.5t206.5 -100.5q58 0 102.5 13.5t72.5 39.5t44 50.5t31 58.5h182q-17 -56 -46.5 -105.5t-79.5 -99t-130.5 -78.5t-181.5 -29q-95 0 -172.5 30t-130 81t-88.5 120t-52 144.5t-16 157.5q0 117 30 217t87 176t148 119t206 43q97 0 175 -30
t127 -78.5t82 -114t46.5 -131.5t13.5 -136q0 -59 -2 -86zM266 612h547q-2 136 -69.5 223t-194.5 87q-252 0 -283 -310zM451 1438h186l217 -273h-170l-141 178l-140 -178h-167zM991 1667h195l-271 -268h-147z" />
    <glyph glyph-name="uni1EC0" unicode="&#x1ec0;" horiz-adv-x="1222" 
d="M1081 827v-161h-708v-504h778l-25 -162h-938v1425h928v-161h-743v-437h708zM551 1808h186l273 -247h-203l-160 143l-158 -143h-198zM776 1974h225l211 -229h-157z" />
    <glyph glyph-name="uni1EC1" unicode="&#x1ec1;" horiz-adv-x="1071" 
d="M993 487h-733q2 -161 78.5 -261.5t206.5 -100.5q58 0 102.5 13.5t72.5 39.5t44 50.5t31 58.5h182q-17 -56 -46.5 -105.5t-79.5 -99t-130.5 -78.5t-181.5 -29q-95 0 -172.5 30t-130 81t-88.5 120t-52 144.5t-16 157.5q0 117 30 217t87 176t148 119t206 43q97 0 175 -30
t127 -78.5t82 -114t46.5 -131.5t13.5 -136q0 -59 -2 -86zM266 612h547q-2 136 -69.5 223t-194.5 87q-252 0 -283 -310zM451 1438h186l217 -273h-170l-141 178l-140 -178h-167zM655 1653h199l211 -275h-150z" />
    <glyph glyph-name="uni1EC2" unicode="&#x1ec2;" horiz-adv-x="1222" 
d="M1081 827v-161h-708v-504h778l-25 -162h-938v1425h928v-161h-743v-437h708zM1075 1759h-153q112 83 112 156q0 63 -80 63q-57 0 -116 -36l-41 96q83 63 190 63q87 0 137 -46t50 -118q0 -53 -28.5 -100t-70.5 -78zM549 1810h186l273 -247h-203l-160 145l-158 -145h-198z
" />
    <glyph glyph-name="uni1EC3" unicode="&#x1ec3;" horiz-adv-x="1071" 
d="M993 487h-733q2 -161 78.5 -261.5t206.5 -100.5q58 0 102.5 13.5t72.5 39.5t44 50.5t31 58.5h182q-17 -56 -46.5 -105.5t-79.5 -99t-130.5 -78.5t-181.5 -29q-95 0 -172.5 30t-130 81t-88.5 120t-52 144.5t-16 157.5q0 117 30 217t87 176t148 119t206 43q97 0 175 -30
t127 -78.5t82 -114t46.5 -131.5t13.5 -136q0 -59 -2 -86zM266 612h547q-2 136 -69.5 223t-194.5 87q-252 0 -283 -310zM942 1378h-151q114 86 114 156q0 61 -74 61q-67 0 -112 -39l-41 93q74 63 184 63q88 0 133 -41t45 -115q0 -102 -98 -178zM442 1438h187l217 -273h-170
l-141 178l-140 -178h-168z" />
    <glyph glyph-name="uni1EC4" unicode="&#x1ec4;" horiz-adv-x="1222" 
d="M1081 827v-161h-708v-504h778l-25 -162h-938v1425h928v-161h-743v-437h708zM440 1825h-110v22q0 172 153 172q64 0 174 -34.5t148 -34.5q30 0 44.5 11t14.5 42v14h109v-24q0 -90 -39 -129t-115 -39q-52 0 -168 36.5t-155 36.5q-56 0 -56 -59v-14zM551 1749h199l254 -197
h-197l-160 113l-153 -113h-197z" />
    <glyph glyph-name="uni1EC5" unicode="&#x1ec5;" horiz-adv-x="1071" 
d="M993 487h-733q2 -161 78.5 -261.5t206.5 -100.5q58 0 102.5 13.5t72.5 39.5t44 50.5t31 58.5h182q-17 -56 -46.5 -105.5t-79.5 -99t-130.5 -78.5t-181.5 -29q-95 0 -172.5 30t-130 81t-88.5 120t-52 144.5t-16 157.5q0 117 30 217t87 176t148 119t206 43q97 0 175 -30
t127 -78.5t82 -114t46.5 -131.5t13.5 -136q0 -59 -2 -86zM266 612h547q-2 136 -69.5 223t-194.5 87q-252 0 -283 -310zM365 1458h-111v21q0 91 40 132.5t107 41.5q48 0 98.5 -18.5t91.5 -37t66 -18.5q27 0 41.5 11.5t14.5 43.5v17h108v-25q0 -168 -153 -168q-51 0 -133.5 38
t-114.5 38q-25 0 -40 -16.5t-15 -47.5v-12zM438 1370h193l227 -211h-184l-142 127l-135 -127h-180z" />
    <glyph glyph-name="uni1EC6" unicode="&#x1ec6;" horiz-adv-x="1222" 
d="M1081 827v-161h-708v-504h778l-25 -162h-938v1425h928v-161h-743v-437h708zM754 -377h-191v221h191v-221zM557 1831h188l267 -268h-191l-172 170l-182 -170h-188z" />
    <glyph glyph-name="uni1EC7" unicode="&#x1ec7;" horiz-adv-x="1071" 
d="M993 487h-733q2 -161 78.5 -261.5t206.5 -100.5q58 0 102.5 13.5t72.5 39.5t44 50.5t31 58.5h182q-17 -56 -46.5 -105.5t-79.5 -99t-130.5 -78.5t-181.5 -29q-95 0 -172.5 30t-130 81t-88.5 120t-52 144.5t-16 157.5q0 117 30 217t87 176t148 119t206 43q97 0 175 -30
t127 -78.5t82 -114t46.5 -131.5t13.5 -136q0 -59 -2 -86zM266 612h547q-2 136 -69.5 223t-194.5 87q-252 0 -283 -310zM651 -377h-190v221h190v-221zM471 1503h170l227 -311h-176l-137 207l-135 -207h-174z" />
    <glyph glyph-name="uni1EC8" unicode="&#x1ec8;" horiz-adv-x="565" 
d="M188 1425h189v-1425h-189v1425zM367 1550h-168q64 54 92 94t28 80q0 33 -21.5 54.5t-64.5 21.5q-61 0 -122 -35l-41 109q86 59 202 59q97 0 152 -51.5t55 -126.5q0 -35 -9.5 -66.5t-29 -58t-34.5 -42.5t-39 -38z" />
    <glyph glyph-name="uni1EC9" unicode="&#x1ec9;" horiz-adv-x="485" 
d="M154 0v1038h180v-1038h-180zM328 1196h-168q64 55 92.5 94.5t28.5 79.5q0 33 -21.5 54.5t-64.5 21.5q-62 0 -123 -35l-41 109q86 59 202 59q97 0 152 -51.5t55 -126.5q0 -35 -9.5 -66.5t-29 -58t-34.5 -42.5t-39 -38z" />
    <glyph glyph-name="uni1ECA" unicode="&#x1eca;" horiz-adv-x="565" 
d="M188 1425h189v-1425h-189v1425zM377 -377h-191v221h191v-221z" />
    <glyph glyph-name="uni1ECB" unicode="&#x1ecb;" horiz-adv-x="485" 
d="M154 0v1038h180v-1038h-180zM334 1280h-180v223h180v-223zM338 -377h-191v221h191v-221z" />
    <glyph glyph-name="uni1ECC" unicode="&#x1ecc;" horiz-adv-x="1538" 
d="M778 1446q197 0 346 -93t227.5 -257t78.5 -375q0 -119 -26 -228t-80.5 -202.5t-132 -162.5t-188 -108.5t-241.5 -39.5q-154 0 -278.5 57t-206 156t-125 232.5t-43.5 287.5t44.5 287t127.5 232.5t211 156.5t286 57zM770 1284q-94 0 -171.5 -30t-131 -82t-90 -123.5
t-53.5 -154t-17 -175.5q0 -117 30 -220t86 -183.5t145.5 -127.5t201.5 -47q120 0 211 47t145 128.5t80.5 182.5t26.5 218q0 93 -18 177t-55.5 155.5t-91 123.5t-130 81.5t-168.5 29.5zM864 -385h-190v221h190v-221z" />
    <glyph glyph-name="uni1ECD" unicode="&#x1ecd;" horiz-adv-x="1126" 
d="M569 1063q217 0 347.5 -148t130.5 -393q0 -114 -32.5 -213t-93 -173.5t-154.5 -117.5t-210 -43q-219 0 -348 152t-129 391q0 155 56 277.5t168.5 195t264.5 72.5zM561 913q-143 0 -220 -106t-77 -287q0 -174 82 -284.5t219 -110.5q139 0 218 107t79 286t-79 287t-222 108
zM655 -381h-190v221h190v-221z" />
    <glyph glyph-name="uni1ECE" unicode="&#x1ece;" horiz-adv-x="1538" 
d="M778 1446q197 0 346 -93t227.5 -257t78.5 -375q0 -119 -26 -228t-80.5 -202.5t-132 -162.5t-188 -108.5t-241.5 -39.5q-154 0 -278.5 57t-206 156t-125 232.5t-43.5 287.5t44.5 287t127.5 232.5t211 156.5t286 57zM770 1284q-94 0 -171.5 -30t-131 -82t-90 -123.5
t-53.5 -154t-17 -175.5q0 -117 30 -220t86 -183.5t145.5 -127.5t201.5 -47q120 0 211 47t145 128.5t80.5 182.5t26.5 218q0 93 -18 177t-55.5 155.5t-91 123.5t-130 81.5t-168.5 29.5zM854 1550h-168q64 55 92.5 94.5t28.5 79.5q0 33 -21.5 54.5t-64.5 21.5q-62 0 -123 -35
l-41 109q86 59 203 59q97 0 152 -51.5t55 -126.5q0 -35 -9.5 -66.5t-29.5 -58t-34.5 -42t-39.5 -38.5z" />
    <glyph glyph-name="uni1ECF" unicode="&#x1ecf;" horiz-adv-x="1126" 
d="M569 1063q217 0 347.5 -148t130.5 -393q0 -114 -32.5 -213t-93 -173.5t-154.5 -117.5t-210 -43q-219 0 -348 152t-129 391q0 155 56 277.5t168.5 195t264.5 72.5zM561 913q-143 0 -220 -106t-77 -287q0 -174 82 -284.5t219 -110.5q139 0 218 107t79 286t-79 287t-222 108
zM645 1196h-168q64 55 92.5 94.5t28.5 79.5q0 33 -21.5 54.5t-64.5 21.5q-62 0 -123 -35l-41 109q86 59 203 59q97 0 152 -51.5t55 -126.5q0 -35 -9.5 -66.5t-29.5 -58t-34.5 -42t-39.5 -38.5z" />
    <glyph glyph-name="uni1ED0" unicode="&#x1ed0;" horiz-adv-x="1538" 
d="M778 1446q197 0 346 -93t227.5 -257t78.5 -375q0 -119 -26 -228t-80.5 -202.5t-132 -162.5t-188 -108.5t-241.5 -39.5q-154 0 -278.5 57t-206 156t-125 232.5t-43.5 287.5t44.5 287t127.5 232.5t211 156.5t286 57zM770 1284q-94 0 -171.5 -30t-131 -82t-90 -123.5
t-53.5 -154t-17 -175.5q0 -117 30 -220t86 -183.5t145.5 -127.5t201.5 -47q120 0 211 47t145 128.5t80.5 182.5t26.5 218q0 93 -18 177t-55.5 155.5t-91 123.5t-130 81.5t-168.5 29.5zM672 1800h186l272 -248h-202l-160 144l-158 -144h-198zM1225 1993h215l-264 -238h-164z
" />
    <glyph glyph-name="uni1ED1" unicode="&#x1ed1;" horiz-adv-x="1126" 
d="M569 1063q217 0 347.5 -148t130.5 -393q0 -114 -32.5 -213t-93 -173.5t-154.5 -117.5t-210 -43q-219 0 -348 152t-129 391q0 155 56 277.5t168.5 195t264.5 72.5zM561 913q-143 0 -220 -106t-77 -287q0 -174 82 -284.5t219 -110.5q139 0 218 107t79 286t-79 287t-222 108
zM467 1438h186l217 -273h-170l-141 178l-139 -178h-168zM1008 1667h194l-270 -268h-148z" />
    <glyph glyph-name="uni1ED2" unicode="&#x1ed2;" horiz-adv-x="1538" 
d="M778 1446q197 0 346 -93t227.5 -257t78.5 -375q0 -119 -26 -228t-80.5 -202.5t-132 -162.5t-188 -108.5t-241.5 -39.5q-154 0 -278.5 57t-206 156t-125 232.5t-43.5 287.5t44.5 287t127.5 232.5t211 156.5t286 57zM770 1284q-94 0 -171.5 -30t-131 -82t-90 -123.5
t-53.5 -154t-17 -175.5q0 -117 30 -220t86 -183.5t145.5 -127.5t201.5 -47q120 0 211 47t145 128.5t80.5 182.5t26.5 218q0 93 -18 177t-55.5 155.5t-91 123.5t-130 81.5t-168.5 29.5zM672 1800h186l272 -248h-202l-160 144l-158 -144h-198zM897 1966h225l211 -229h-157z
" />
    <glyph glyph-name="uni1ED3" unicode="&#x1ed3;" horiz-adv-x="1126" 
d="M569 1063q217 0 347.5 -148t130.5 -393q0 -114 -32.5 -213t-93 -173.5t-154.5 -117.5t-210 -43q-219 0 -348 152t-129 391q0 155 56 277.5t168.5 195t264.5 72.5zM561 913q-143 0 -220 -106t-77 -287q0 -174 82 -284.5t219 -110.5q139 0 218 107t79 286t-79 287t-222 108
zM467 1438h186l217 -273h-170l-141 178l-139 -178h-168zM672 1653h198l211 -275h-149z" />
    <glyph glyph-name="uni1ED4" unicode="&#x1ed4;" horiz-adv-x="1538" 
d="M778 1446q197 0 346 -93t227.5 -257t78.5 -375q0 -119 -26 -228t-80.5 -202.5t-132 -162.5t-188 -108.5t-241.5 -39.5q-154 0 -278.5 57t-206 156t-125 232.5t-43.5 287.5t44.5 287t127.5 232.5t211 156.5t286 57zM770 1284q-94 0 -171.5 -30t-131 -82t-90 -123.5
t-53.5 -154t-17 -175.5q0 -117 30 -220t86 -183.5t145.5 -127.5t201.5 -47q120 0 211 47t145 128.5t80.5 182.5t26.5 218q0 93 -18 177t-55.5 155.5t-91 123.5t-130 81.5t-168.5 29.5zM1198 1749h-154q113 83 113 156q0 63 -80 63q-55 0 -116 -37l-41 97q83 63 190 63
q87 0 136.5 -45.5t49.5 -118.5q0 -54 -28 -101t-70 -77zM672 1800h186l272 -248h-202l-160 146l-158 -146h-198z" />
    <glyph glyph-name="uni1ED5" unicode="&#x1ed5;" horiz-adv-x="1126" 
d="M569 1063q217 0 347.5 -148t130.5 -393q0 -114 -32.5 -213t-93 -173.5t-154.5 -117.5t-210 -43q-219 0 -348 152t-129 391q0 155 56 277.5t168.5 195t264.5 72.5zM561 913q-143 0 -220 -106t-77 -287q0 -174 82 -284.5t219 -110.5q139 0 218 107t79 286t-79 287t-222 108
zM967 1378h-152q115 87 115 156q0 61 -74 61q-68 0 -113 -39l-41 93q74 63 185 63q88 0 133 -41t45 -115q0 -102 -98 -178zM467 1438h186l217 -273h-170l-141 178l-139 -178h-168z" />
    <glyph glyph-name="uni1ED6" unicode="&#x1ed6;" horiz-adv-x="1538" 
d="M778 1446q197 0 346 -93t227.5 -257t78.5 -375q0 -119 -26 -228t-80.5 -202.5t-132 -162.5t-188 -108.5t-241.5 -39.5q-154 0 -278.5 57t-206 156t-125 232.5t-43.5 287.5t44.5 287t127.5 232.5t211 156.5t286 57zM770 1284q-94 0 -171.5 -30t-131 -82t-90 -123.5
t-53.5 -154t-17 -175.5q0 -117 30 -220t86 -183.5t145.5 -127.5t201.5 -47q120 0 211 47t145 128.5t80.5 182.5t26.5 218q0 93 -18 177t-55.5 155.5t-91 123.5t-130 81.5t-168.5 29.5zM559 1817h-110v22q0 172 153 172q64 0 174 -34.5t148 -34.5q30 0 44.5 11t14.5 42v14
h109v-24q0 -90 -39 -129t-115 -39q-52 0 -168.5 36.5t-155.5 36.5q-55 0 -55 -59v-14zM670 1741h198l254 -197h-196l-160 113l-154 -113h-196z" />
    <glyph glyph-name="uni1ED7" unicode="&#x1ed7;" horiz-adv-x="1126" 
d="M569 1063q217 0 347.5 -148t130.5 -393q0 -114 -32.5 -213t-93 -173.5t-154.5 -117.5t-210 -43q-219 0 -348 152t-129 391q0 155 56 277.5t168.5 195t264.5 72.5zM561 913q-143 0 -220 -106t-77 -287q0 -174 82 -284.5t219 -110.5q139 0 218 107t79 286t-79 287t-222 108
zM389 1456h-110v21q0 91 40 132.5t107 41.5q62 0 146 -37t110 -37q27 0 41 11.5t14 43.5v17h109v-25q0 -168 -154 -168q-51 0 -133.5 38t-114.5 38q-25 0 -40 -16.5t-15 -47.5v-12zM463 1368h192l228 -211h-185l-141 127l-135 -127h-180z" />
    <glyph glyph-name="uni1ED8" unicode="&#x1ed8;" horiz-adv-x="1538" 
d="M778 1446q197 0 346 -93t227.5 -257t78.5 -375q0 -119 -26 -228t-80.5 -202.5t-132 -162.5t-188 -108.5t-241.5 -39.5q-154 0 -278.5 57t-206 156t-125 232.5t-43.5 287.5t44.5 287t127.5 232.5t211 156.5t286 57zM770 1284q-94 0 -171.5 -30t-131 -82t-90 -123.5
t-53.5 -154t-17 -175.5q0 -117 30 -220t86 -183.5t145.5 -127.5t201.5 -47q120 0 211 47t145 128.5t80.5 182.5t26.5 218q0 93 -18 177t-55.5 155.5t-91 123.5t-130 81.5t-168.5 29.5zM864 -383h-190v221h190v-221zM682 1819h188l267 -269h-191l-172 170l-182 -170h-189z
" />
    <glyph glyph-name="uni1ED9" unicode="&#x1ed9;" horiz-adv-x="1126" 
d="M569 1063q217 0 347.5 -148t130.5 -393q0 -114 -32.5 -213t-93 -173.5t-154.5 -117.5t-210 -43q-219 0 -348 152t-129 391q0 155 56 277.5t168.5 195t264.5 72.5zM561 913q-143 0 -220 -106t-77 -287q0 -174 82 -284.5t219 -110.5q139 0 218 107t79 286t-79 287t-222 108
zM655 -377h-190v221h190v-221zM475 1503h170l227 -311h-176l-137 207l-135 -207h-174z" />
    <glyph glyph-name="uni1EDA" unicode="&#x1eda;" horiz-adv-x="1538" 
d="M778 1446q238 0 400 -131q98 31 98 125q0 58 -23 121h166q17 -53 17 -115q0 -80 -39.5 -144.5t-114.5 -95.5q148 -193 148 -485q0 -119 -26 -228t-80.5 -202.5t-132 -162.5t-188 -108.5t-241.5 -39.5q-154 0 -278.5 57t-206 156t-125 232.5t-43.5 287.5t44.5 287
t127.5 232.5t211 156.5t286 57zM770 1284q-94 0 -171.5 -30t-131 -82t-90 -123.5t-53.5 -154t-17 -175.5q0 -117 30 -220t86 -183.5t145.5 -127.5t201.5 -47q120 0 211 47t145 128.5t80.5 182.5t26.5 218q0 93 -18 177t-55.5 155.5t-91 123.5t-130 81.5t-168.5 29.5z
M952 1837h236l-350 -281h-187z" />
    <glyph glyph-name="uni1EDB" unicode="&#x1edb;" horiz-adv-x="1126" 
d="M569 1063q179 0 305 -107q115 27 115 129q0 61 -22 121h166q16 -50 16 -114q0 -89 -46 -155.5t-134 -94.5q78 -137 78 -320q0 -114 -32.5 -213t-93 -173.5t-154.5 -117.5t-210 -43q-219 0 -348 152t-129 391q0 155 56 277.5t168.5 195t264.5 72.5zM561 913
q-143 0 -220 -106t-77 -287q0 -174 82 -284.5t219 -110.5q139 0 218 107t79 286t-79 287t-222 108zM713 1524h221l-316 -314h-167z" />
    <glyph glyph-name="uni1EDC" unicode="&#x1edc;" horiz-adv-x="1538" 
d="M778 1446q238 0 400 -131q98 31 98 125q0 58 -23 121h166q17 -53 17 -115q0 -80 -39.5 -144.5t-114.5 -95.5q148 -193 148 -485q0 -119 -26 -228t-80.5 -202.5t-132 -162.5t-188 -108.5t-241.5 -39.5q-154 0 -278.5 57t-206 156t-125 232.5t-43.5 287.5t44.5 287
t127.5 232.5t211 156.5t286 57zM770 1284q-94 0 -171.5 -30t-131 -82t-90 -123.5t-53.5 -154t-17 -175.5q0 -117 30 -220t86 -183.5t145.5 -127.5t201.5 -47q120 0 211 47t145 128.5t80.5 182.5t26.5 218q0 93 -18 177t-55.5 155.5t-91 123.5t-130 81.5t-168.5 29.5z
M381 1837h237l281 -281h-182z" />
    <glyph glyph-name="uni1EDD" unicode="&#x1edd;" horiz-adv-x="1126" 
d="M569 1063q179 0 305 -107q115 27 115 129q0 61 -22 121h166q16 -50 16 -114q0 -89 -46 -155.5t-134 -94.5q78 -137 78 -320q0 -114 -32.5 -213t-93 -173.5t-154.5 -117.5t-210 -43q-219 0 -348 152t-129 391q0 155 56 277.5t168.5 195t264.5 72.5zM561 913
q-143 0 -220 -106t-77 -287q0 -174 82 -284.5t219 -110.5q139 0 218 107t79 286t-79 287t-222 108zM193 1524h223l262 -314h-170z" />
    <glyph glyph-name="uni1EDE" unicode="&#x1ede;" horiz-adv-x="1538" 
d="M778 1446q238 0 400 -131q98 31 98 125q0 58 -23 121h166q17 -53 17 -115q0 -80 -39.5 -144.5t-114.5 -95.5q148 -193 148 -485q0 -119 -26 -228t-80.5 -202.5t-132 -162.5t-188 -108.5t-241.5 -39.5q-154 0 -278.5 57t-206 156t-125 232.5t-43.5 287.5t44.5 287
t127.5 232.5t211 156.5t286 57zM770 1284q-94 0 -171.5 -30t-131 -82t-90 -123.5t-53.5 -154t-17 -175.5q0 -117 30 -220t86 -183.5t145.5 -127.5t201.5 -47q120 0 211 47t145 128.5t80.5 182.5t26.5 218q0 93 -18 177t-55.5 155.5t-91 123.5t-130 81.5t-168.5 29.5z
M854 1550h-168q64 55 92.5 94.5t28.5 79.5q0 33 -21.5 54.5t-64.5 21.5q-62 0 -123 -35l-41 109q86 59 203 59q97 0 152 -51.5t55 -126.5q0 -35 -9.5 -66.5t-29.5 -58t-34.5 -42t-39.5 -38.5z" />
    <glyph glyph-name="uni1EDF" unicode="&#x1edf;" horiz-adv-x="1126" 
d="M569 1063q179 0 305 -107q115 27 115 129q0 61 -22 121h166q16 -50 16 -114q0 -89 -46 -155.5t-134 -94.5q78 -137 78 -320q0 -114 -32.5 -213t-93 -173.5t-154.5 -117.5t-210 -43q-219 0 -348 152t-129 391q0 155 56 277.5t168.5 195t264.5 72.5zM561 913
q-143 0 -220 -106t-77 -287q0 -174 82 -284.5t219 -110.5q139 0 218 107t79 286t-79 287t-222 108zM645 1196h-168q64 55 92.5 94.5t28.5 79.5q0 33 -21.5 54.5t-64.5 21.5q-62 0 -123 -35l-41 109q86 59 203 59q97 0 152 -51.5t55 -126.5q0 -35 -9.5 -66.5t-29.5 -58
t-34.5 -42t-39.5 -38.5z" />
    <glyph glyph-name="uni1EE0" unicode="&#x1ee0;" horiz-adv-x="1538" 
d="M778 1446q238 0 400 -131q98 31 98 125q0 58 -23 121h166q17 -53 17 -115q0 -80 -39.5 -144.5t-114.5 -95.5q148 -193 148 -485q0 -119 -26 -228t-80.5 -202.5t-132 -162.5t-188 -108.5t-241.5 -39.5q-154 0 -278.5 57t-206 156t-125 232.5t-43.5 287.5t44.5 287
t127.5 232.5t211 156.5t286 57zM770 1284q-94 0 -171.5 -30t-131 -82t-90 -123.5t-53.5 -154t-17 -175.5q0 -117 30 -220t86 -183.5t145.5 -127.5t201.5 -47q120 0 211 47t145 128.5t80.5 182.5t26.5 218q0 93 -18 177t-55.5 155.5t-91 123.5t-130 81.5t-168.5 29.5z
M553 1569h-131v45q0 107 45.5 154t130.5 47q54 0 120.5 -27.5t123 -54.5t86.5 -27q65 0 65 88v25h125v-43q0 -115 -44 -163t-130 -48q-50 0 -115 27t-123.5 54t-93.5 27q-59 0 -59 -69v-35z" />
    <glyph glyph-name="uni1EE1" unicode="&#x1ee1;" horiz-adv-x="1126" 
d="M569 1063q179 0 305 -107q115 27 115 129q0 61 -22 121h166q16 -50 16 -114q0 -89 -46 -155.5t-134 -94.5q78 -137 78 -320q0 -114 -32.5 -213t-93 -173.5t-154.5 -117.5t-210 -43q-219 0 -348 152t-129 391q0 155 56 277.5t168.5 195t264.5 72.5zM561 913
q-143 0 -220 -106t-77 -287q0 -174 82 -284.5t219 -110.5q139 0 218 107t79 286t-79 287t-222 108zM371 1239h-127v47q0 197 166 197q49 0 105 -25.5t103.5 -50.5t77.5 -25t44 18.5t14 67.5v21h125v-43q0 -209 -170 -209q-50 0 -103 25.5t-100 51t-82 25.5q-53 0 -53 -67
v-33z" />
    <glyph glyph-name="uni1EE2" unicode="&#x1ee2;" horiz-adv-x="1538" 
d="M778 1446q238 0 400 -131q98 31 98 125q0 58 -23 121h166q17 -53 17 -115q0 -80 -39.5 -144.5t-114.5 -95.5q148 -193 148 -485q0 -119 -26 -228t-80.5 -202.5t-132 -162.5t-188 -108.5t-241.5 -39.5q-154 0 -278.5 57t-206 156t-125 232.5t-43.5 287.5t44.5 287
t127.5 232.5t211 156.5t286 57zM770 1284q-94 0 -171.5 -30t-131 -82t-90 -123.5t-53.5 -154t-17 -175.5q0 -117 30 -220t86 -183.5t145.5 -127.5t201.5 -47q120 0 211 47t145 128.5t80.5 182.5t26.5 218q0 93 -18 177t-55.5 155.5t-91 123.5t-130 81.5t-168.5 29.5z
M864 -379h-190v221h190v-221z" />
    <glyph glyph-name="uni1EE3" unicode="&#x1ee3;" horiz-adv-x="1126" 
d="M569 1063q179 0 305 -107q115 27 115 129q0 61 -22 121h166q16 -50 16 -114q0 -89 -46 -155.5t-134 -94.5q78 -137 78 -320q0 -114 -32.5 -213t-93 -173.5t-154.5 -117.5t-210 -43q-219 0 -348 152t-129 391q0 155 56 277.5t168.5 195t264.5 72.5zM561 913
q-143 0 -220 -106t-77 -287q0 -174 82 -284.5t219 -110.5q139 0 218 107t79 286t-79 287t-222 108zM655 -377h-190v221h190v-221z" />
    <glyph glyph-name="uni1EE4" unicode="&#x1ee4;" horiz-adv-x="1462" 
d="M174 1425h193v-858q0 -97 21 -173t55 -123t82.5 -77.5t99 -42.5t108.5 -12q84 0 147.5 21t114 68.5t77 133t26.5 205.5v858h190v-847q0 -596 -559 -596q-93 0 -172.5 18t-151 60.5t-122 108t-80 166t-29.5 228.5v862zM825 -381h-190v221h190v-221z" />
    <glyph glyph-name="uni1EE5" unicode="&#x1ee5;" horiz-adv-x="1140" 
d="M987 1038v-735q0 -56 1 -167t1 -136h-174q-4 28 -8 156q-80 -181 -313 -181q-70 0 -128.5 19t-108.5 61t-78.5 118.5t-28.5 182.5v682h178v-645q0 -262 215 -262q142 0 203 85.5t61 281.5v540h180zM664 -385h-191v221h191v-221z" />
    <glyph glyph-name="uni1EE6" unicode="&#x1ee6;" horiz-adv-x="1462" 
d="M174 1425h193v-858q0 -97 21 -173t55 -123t82.5 -77.5t99 -42.5t108.5 -12q84 0 147.5 21t114 68.5t77 133t26.5 205.5v858h190v-847q0 -596 -559 -596q-93 0 -172.5 18t-151 60.5t-122 108t-80 166t-29.5 228.5v862zM811 1542h-168q64 55 92.5 94.5t28.5 79.5
q0 33 -21.5 54.5t-64.5 21.5q-62 0 -123 -35l-41 109q86 59 203 59q97 0 152 -51.5t55 -126.5q0 -35 -9.5 -66.5t-29.5 -58t-34.5 -42t-39.5 -38.5z" />
    <glyph glyph-name="uni1EE7" unicode="&#x1ee7;" horiz-adv-x="1140" 
d="M987 1038v-735q0 -56 1 -167t1 -136h-174q-4 28 -8 156q-80 -181 -313 -181q-70 0 -128.5 19t-108.5 61t-78.5 118.5t-28.5 182.5v682h178v-645q0 -262 215 -262q142 0 203 85.5t61 281.5v540h180zM635 1196h-168q64 55 92.5 94.5t28.5 79.5q0 33 -21.5 54.5t-64.5 21.5
q-62 0 -123 -35l-41 109q86 59 203 59q97 0 152 -51.5t55 -126.5q0 -35 -9.5 -66.5t-29.5 -58t-34.5 -42t-39.5 -38.5z" />
    <glyph glyph-name="uni1EE8" unicode="&#x1ee8;" horiz-adv-x="1462" 
d="M174 1425h193v-858q0 -97 21 -173t55 -123t82.5 -77.5t99 -42.5t108.5 -12q84 0 147.5 21t114 68.5t77 133t26.5 205.5v858h102q123 25 123 131q0 58 -23 121h166q17 -53 17 -114q0 -92 -50.5 -160t-144.5 -92v-733q0 -596 -559 -596q-93 0 -172.5 18t-151 60.5t-122 108
t-80 166t-29.5 228.5v862zM920 1833h235l-350 -281h-187z" />
    <glyph glyph-name="uni1EE9" unicode="&#x1ee9;" horiz-adv-x="1140" 
d="M807 156q-80 -181 -313 -181q-70 0 -128.5 19t-108.5 61t-78.5 118.5t-28.5 182.5v682h178v-645q0 -262 215 -262q142 0 203 85.5t61 281.5v540h78v2q143 22 143 136q0 60 -22 120h165q17 -53 17 -114q0 -93 -52 -161.5t-149 -92.5v-625q0 -56 1 -167t1 -136h-174
q-4 28 -8 156zM721 1524h221l-315 -314h-168z" />
    <glyph glyph-name="uni1EEA" unicode="&#x1eea;" horiz-adv-x="1462" 
d="M174 1425h193v-858q0 -97 21 -173t55 -123t82.5 -77.5t99 -42.5t108.5 -12q84 0 147.5 21t114 68.5t77 133t26.5 205.5v858h102q123 25 123 131q0 58 -23 121h166q17 -53 17 -114q0 -92 -50.5 -160t-144.5 -92v-733q0 -596 -559 -596q-93 0 -172.5 18t-151 60.5t-122 108
t-80 166t-29.5 228.5v862zM340 1825h238l280 -281h-182z" />
    <glyph glyph-name="uni1EEB" unicode="&#x1eeb;" horiz-adv-x="1140" 
d="M807 156q-80 -181 -313 -181q-70 0 -128.5 19t-108.5 61t-78.5 118.5t-28.5 182.5v682h178v-645q0 -262 215 -262q142 0 203 85.5t61 281.5v540h78v2q143 22 143 136q0 60 -22 120h165q17 -53 17 -114q0 -93 -52 -161.5t-149 -92.5v-625q0 -56 1 -167t1 -136h-174
q-4 28 -8 156zM213 1524h223l262 -314h-170z" />
    <glyph glyph-name="uni1EEC" unicode="&#x1eec;" horiz-adv-x="1462" 
d="M174 1425h193v-858q0 -97 21 -173t55 -123t82.5 -77.5t99 -42.5t108.5 -12q84 0 147.5 21t114 68.5t77 133t26.5 205.5v858h102q123 25 123 131q0 58 -23 121h166q17 -53 17 -114q0 -92 -50.5 -160t-144.5 -92v-733q0 -596 -559 -596q-93 0 -172.5 18t-151 60.5t-122 108
t-80 166t-29.5 228.5v862zM813 1544h-168q64 55 92.5 94.5t28.5 79.5q0 33 -21.5 54.5t-64.5 21.5q-62 0 -123 -35l-41 109q86 59 203 59q97 0 152 -51.5t55 -126.5q0 -35 -9.5 -66.5t-29.5 -58t-34.5 -42t-39.5 -38.5z" />
    <glyph glyph-name="uni1EED" unicode="&#x1eed;" horiz-adv-x="1140" 
d="M807 156q-80 -181 -313 -181q-70 0 -128.5 19t-108.5 61t-78.5 118.5t-28.5 182.5v682h178v-645q0 -262 215 -262q142 0 203 85.5t61 281.5v540h78v2q143 22 143 136q0 60 -22 120h165q17 -53 17 -114q0 -93 -52 -161.5t-149 -92.5v-625q0 -56 1 -167t1 -136h-174
q-4 28 -8 156zM653 1196h-168q64 55 92.5 94.5t28.5 79.5q0 33 -21.5 54.5t-64.5 21.5q-62 0 -123 -35l-41 109q86 59 203 59q97 0 152 -51.5t55 -126.5q0 -35 -9.5 -66.5t-29.5 -58t-34.5 -42t-39.5 -38.5z" />
    <glyph glyph-name="uni1EEE" unicode="&#x1eee;" horiz-adv-x="1462" 
d="M174 1425h193v-858q0 -97 21 -173t55 -123t82.5 -77.5t99 -42.5t108.5 -12q84 0 147.5 21t114 68.5t77 133t26.5 205.5v858h102q123 25 123 131q0 58 -23 121h166q17 -53 17 -114q0 -92 -50.5 -160t-144.5 -92v-733q0 -596 -559 -596q-93 0 -172.5 18t-151 60.5t-122 108
t-80 166t-29.5 228.5v862zM514 1569h-131v45q0 107 45.5 154t130.5 47q54 0 120.5 -27.5t123 -54.5t86.5 -27q65 0 65 88v25h125v-43q0 -115 -44 -163t-130 -48q-51 0 -115.5 27t-123 54t-93.5 27q-59 0 -59 -69v-35z" />
    <glyph glyph-name="uni1EEF" unicode="&#x1eef;" horiz-adv-x="1140" 
d="M807 156q-80 -181 -313 -181q-70 0 -128.5 19t-108.5 61t-78.5 118.5t-28.5 182.5v682h178v-645q0 -262 215 -262q142 0 203 85.5t61 281.5v540h78v2q143 22 143 136q0 60 -22 120h165q17 -53 17 -114q0 -93 -52 -161.5t-149 -92.5v-625q0 -56 1 -167t1 -136h-174
q-4 28 -8 156zM379 1239h-127v47q0 197 166 197q49 0 105 -25.5t104 -50.5t78 -25q29 0 43 18.5t14 67.5v21h125v-43q0 -209 -170 -209q-50 0 -103 25.5t-100 51t-82 25.5q-53 0 -53 -67v-33z" />
    <glyph glyph-name="uni1EF0" unicode="&#x1ef0;" horiz-adv-x="1462" 
d="M174 1425h193v-858q0 -97 21 -173t55 -123t82.5 -77.5t99 -42.5t108.5 -12q84 0 147.5 21t114 68.5t77 133t26.5 205.5v858h102q123 25 123 131q0 58 -23 121h166q17 -53 17 -114q0 -92 -50.5 -160t-144.5 -92v-733q0 -596 -559 -596q-93 0 -172.5 18t-151 60.5t-122 108
t-80 166t-29.5 228.5v862zM825 -377h-190v221h190v-221z" />
    <glyph glyph-name="uni1EF1" unicode="&#x1ef1;" horiz-adv-x="1140" 
d="M807 156q-80 -181 -313 -181q-70 0 -128.5 19t-108.5 61t-78.5 118.5t-28.5 182.5v682h178v-645q0 -262 215 -262q142 0 203 85.5t61 281.5v540h78v2q143 22 143 136q0 60 -22 120h165q17 -53 17 -114q0 -93 -52 -161.5t-149 -92.5v-625q0 -56 1 -167t1 -136h-174
q-4 28 -8 156zM664 -377h-191v221h191v-221z" />
    <glyph glyph-name="Ygrave" unicode="&#x1ef2;" horiz-adv-x="1210" 
d="M692 0h-190v522q0 26 -10 39l-502 864h217q334 -598 401 -725q59 118 408 725h203l-519 -868q-8 -16 -8 -37v-520zM213 1829h238l280 -281h-182z" />
    <glyph glyph-name="ygrave" unicode="&#x1ef3;" horiz-adv-x="985" 
d="M20 1038h195q258 -765 289 -878h2q57 206 276 878h181l-373 -1085q-53 -156 -103.5 -236t-116.5 -112.5t-175 -32.5q-51 0 -113 6v156q54 -4 86 -4q96 0 145.5 48.5t96.5 180.5zM123 1524h223l262 -314h-170z" />
    <glyph glyph-name="uni1EF4" unicode="&#x1ef4;" horiz-adv-x="1210" 
d="M692 0h-190v522q0 26 -10 39l-502 864h217q334 -598 401 -725q59 118 408 725h203l-519 -868q-8 -16 -8 -37v-520zM692 -377h-190v221h190v-221z" />
    <glyph glyph-name="uni1EF5" unicode="&#x1ef5;" horiz-adv-x="985" 
d="M20 1038h195q258 -765 289 -878h2q57 206 276 878h181l-373 -1085q-53 -156 -103.5 -236t-116.5 -112.5t-175 -32.5q-51 0 -113 6v156q54 -4 86 -4q96 0 145.5 48.5t96.5 180.5zM895 -377h-190v221h190v-221z" />
    <glyph glyph-name="uni1EF6" unicode="&#x1ef6;" horiz-adv-x="1210" 
d="M692 0h-190v522q0 26 -10 39l-502 864h217q334 -598 401 -725q59 118 408 725h203l-519 -868q-8 -16 -8 -37v-520zM688 1528h-168q64 55 92.5 94.5t28.5 79.5q0 33 -21.5 54.5t-64.5 21.5q-62 0 -123 -35l-41 108q87 60 203 60q97 0 152 -51.5t55 -126.5
q0 -35 -9.5 -66.5t-29.5 -58t-34.5 -42t-39.5 -38.5z" />
    <glyph glyph-name="uni1EF7" unicode="&#x1ef7;" horiz-adv-x="985" 
d="M20 1038h195q258 -765 289 -878h2q57 206 276 878h181l-373 -1085q-53 -156 -103.5 -236t-116.5 -112.5t-175 -32.5q-51 0 -113 6v156q54 -4 86 -4q96 0 145.5 48.5t96.5 180.5zM575 1196h-167q64 54 92 94t28 80q0 33 -21.5 54.5t-64.5 21.5q-62 0 -123 -35l-40 109
q86 59 202 59q97 0 152 -51.5t55 -126.5q0 -35 -9.5 -66.5t-29.5 -58t-34.5 -42t-39.5 -38.5z" />
    <glyph glyph-name="uni1EF8" unicode="&#x1ef8;" horiz-adv-x="1210" 
d="M692 0h-190v522q0 26 -10 39l-502 864h217q334 -598 401 -725q59 118 408 725h203l-519 -868q-8 -16 -8 -37v-520zM387 1569h-131v45q0 107 45.5 154t130.5 47q54 0 120.5 -27.5t123 -54.5t86.5 -27q65 0 65 88v25h125v-43q0 -115 -44 -163t-130 -48q-50 0 -115 27
t-123.5 54t-93.5 27q-59 0 -59 -69v-35z" />
    <glyph glyph-name="uni1EF9" unicode="&#x1ef9;" horiz-adv-x="985" 
d="M20 1038h195q258 -765 289 -878h2q57 206 276 878h181l-373 -1085q-53 -156 -103.5 -236t-116.5 -112.5t-175 -32.5q-51 0 -113 6v156q54 -4 86 -4q96 0 145.5 48.5t96.5 180.5zM301 1239h-127v47q0 197 166 197q49 0 105 -25.5t104 -50.5t78 -25q29 0 43 18.5t14 67.5
v21h125v-43q0 -209 -170 -209q-50 0 -103 25.5t-100 51t-82 25.5q-53 0 -53 -67v-33z" />
    <glyph glyph-name="uni2007" unicode="&#x2007;" horiz-adv-x="1120" 
 />
    <glyph glyph-name="uni2010" unicode="&#x2010;" horiz-adv-x="774" 
d="M119 606h536v-164h-536v164z" />
    <glyph glyph-name="figuredash" unicode="&#x2012;" horiz-adv-x="1120" 
d="M176 748h768v-158h-768v158z" />
    <glyph glyph-name="endash" unicode="&#x2013;" horiz-adv-x="1056" 
d="M119 604h819v-158h-819v158z" />
    <glyph glyph-name="emdash" unicode="&#x2014;" horiz-adv-x="1742" 
d="M119 604h1507v-158h-1507v158z" />
    <glyph glyph-name="uni2015" unicode="&#x2015;" horiz-adv-x="1742" 
d="M119 604h1507v-158h-1507v158z" />
    <glyph glyph-name="quoteleft" unicode="&#x2018;" horiz-adv-x="409" 
d="M205 1503h149q-40 -124 -65.5 -278t-28.5 -262h-186q9 128 47 284.5t84 255.5z" />
    <glyph glyph-name="quoteright" unicode="&#x2019;" horiz-adv-x="409" 
d="M205 963h-150q39 126 65.5 280.5t29.5 259.5h186q-9 -127 -47 -284.5t-84 -255.5z" />
    <glyph glyph-name="quotesinglbase" unicode="&#x201a;" horiz-adv-x="409" 
d="M205 -266h-150q39 126 65.5 280.5t29.5 259.5h186q-9 -129 -47 -286t-84 -254z" />
    <glyph glyph-name="quotedblleft" unicode="&#x201c;" horiz-adv-x="778" 
d="M563 1487h142q-41 -131 -66.5 -280.5t-28.5 -260.5h-180q6 124 47.5 286t85.5 255zM209 1487h139q-38 -128 -63.5 -281.5t-28.5 -259.5h-180q6 121 46.5 283.5t86.5 257.5z" />
    <glyph glyph-name="quotedblright" unicode="&#x201d;" horiz-adv-x="778" 
d="M215 963h-139q40 131 64.5 280t27.5 260h180q-6 -124 -47.5 -285.5t-85.5 -254.5zM571 963h-141q39 127 64 279t28 261h183q-7 -120 -48 -282t-86 -258z" />
    <glyph glyph-name="quotedblbase" unicode="&#x201e;" horiz-adv-x="724" 
d="M195 -266h-140q41 128 65 276.5t27 263.5h183q-7 -126 -49 -289t-86 -251zM551 -266h-141q40 128 65.5 280.5t28.5 259.5h180q-7 -121 -48 -283.5t-85 -256.5z" />
    <glyph glyph-name="dagger" unicode="&#x2020;" horiz-adv-x="1040" 
d="M393 1329h166l-12 -452l344 12v-158l-344 12l12 -1013h-166l15 1013l-347 -12v158l347 -12z" />
    <glyph glyph-name="daggerdbl" unicode="&#x2021;" horiz-adv-x="1040" 
d="M408 315v482l-347 -11v156l347 -14l-15 401h166l-12 -401l344 14v-156l-344 11v-482l344 11v-156l-344 14l12 -454h-166l15 454l-347 -14v156z" />
    <glyph glyph-name="bullet" unicode="&#x2022;" horiz-adv-x="765" 
d="M184 727h398v-412h-398v412z" />
    <glyph glyph-name="ellipsis" unicode="&#x2026;" horiz-adv-x="1726" 
d="M330 0h-189v303h189v-303zM911 0h-188v303h188v-303zM1489 0h-189v303h189v-303z" />
    <glyph glyph-name="perthousand" unicode="&#x2030;" horiz-adv-x="2588" 
d="M2165 743q160 0 252 -103t92 -280q0 -167 -90.5 -276.5t-255.5 -110.5q-161 0 -249.5 105.5t-88.5 279.5q0 104 37 190t116 140.5t187 54.5zM2165 612q-86 0 -137.5 -65.5t-51.5 -186.5q0 -117 50 -186.5t143 -69.5q89 0 138.5 67t49.5 189q0 120 -50.5 186t-141.5 66z
M422 1372q159 0 250.5 -102.5t91.5 -280.5q0 -170 -90 -278.5t-256 -108.5q-159 0 -248.5 104t-89.5 281q0 79 22 148t64 122t108 84t148 31zM420 1241q-86 0 -136.5 -66t-50.5 -186q0 -118 49.5 -187t141.5 -69q90 0 140 67.5t50 188.5q0 120 -51 186t-143 66zM547 0h-154
l877 1348h153zM1393 743q160 0 252 -102.5t92 -280.5q0 -110 -38 -196t-117.5 -138t-190.5 -53q-161 0 -250.5 106t-89.5 279q0 165 90 275t252 110zM1393 612q-85 0 -137 -67.5t-52 -184.5t50 -186.5t143 -69.5q89 0 138.5 68t49.5 188t-50.5 186t-141.5 66z" />
    <glyph glyph-name="uni2032" unicode="&#x2032;" horiz-adv-x="464" 
d="M250 952h-148l80 551h180z" />
    <glyph glyph-name="uni2033" unicode="&#x2033;" horiz-adv-x="786" 
d="M236 952h-134l78 551h170zM567 952h-133l80 551h170z" />
    <glyph glyph-name="guilsinglleft" unicode="&#x2039;" horiz-adv-x="755" 
d="M637 928l-342 -396l344 -401h-174l-348 401l348 396h172z" />
    <glyph glyph-name="guilsinglright" unicode="&#x203a;" horiz-adv-x="755" 
d="M117 131l344 397l-344 400h174l348 -400l-348 -397h-174z" />
    <glyph glyph-name="fraction" unicode="&#x2044;" horiz-adv-x="380" 
d="M-174 0h-145l882 1348h144z" />
    <glyph glyph-name="zero.sups" unicode="&#x2070;" horiz-adv-x="794" 
d="M401 1702q156 0 240 -112t84 -302q0 -203 -85.5 -311.5t-244.5 -108.5q-153 0 -238 113.5t-85 300.5q0 191 88.5 305.5t240.5 114.5zM397 1579q-174 0 -174 -297q0 -143 47.5 -217t128.5 -74q91 0 133.5 72t42.5 223q0 293 -178 293z" />
    <glyph glyph-name="four.sups" unicode="&#x2074;" horiz-adv-x="753" 
d="M594 877h-137v210h-406v113l371 486h172v-484h125l-12 -115h-113v-210zM197 1202h260v166q0 126 6 197q-15 -24 -61 -86.5t-113 -152.5t-92 -124z" />
    <glyph glyph-name="five.sups" unicode="&#x2075;" horiz-adv-x="782" 
d="M676 1690l-21 -123h-383q-4 -29 -9.5 -67t-13 -79t-9.5 -57q70 59 190 59q125 0 201 -72t76 -192q0 -128 -85 -209.5t-229 -81.5q-142 0 -223.5 70.5t-93.5 165.5h145q36 -119 172 -119q78 0 120 45.5t42 120.5q0 71 -40 114.5t-122 43.5q-116 0 -166 -84l-131 22
q60 381 66 443h514z" />
    <glyph glyph-name="six.sups" unicode="&#x2076;" horiz-adv-x="776" 
d="M686 1491h-135q-38 98 -145 98q-176 0 -191 -264q74 100 223 100q126 0 199.5 -75t73.5 -193q0 -125 -87 -207t-221 -82q-152 0 -241.5 103.5t-89.5 304.5q0 82 19 155t57.5 134.5t105.5 98t156 36.5q122 0 193 -62.5t83 -146.5zM399 981q71 0 118.5 40.5t47.5 127.5
q0 80 -43.5 124t-124.5 44q-77 0 -123.5 -41.5t-46.5 -104.5q0 -32 9.5 -63.5t28.5 -61t54 -47.5t80 -18z" />
    <glyph glyph-name="seven.sups" unicode="&#x2077;" horiz-adv-x="704" 
d="M59 1690h588v-111q-227 -275 -325 -700h-158q32 176 125.5 368.5t199.5 319.5h-430v123z" />
    <glyph glyph-name="eight.sups" unicode="&#x2078;" horiz-adv-x="749" 
d="M371 868q-147 0 -228.5 70.5t-81.5 169.5q0 74 39.5 124.5t102.5 76.5q-51 26 -79 71t-28 99q0 98 71 160.5t214 62.5q133 0 202.5 -65t69.5 -152q0 -59 -28 -102.5t-82 -65.5q145 -58 145 -203q0 -109 -88.5 -177.5t-228.5 -68.5zM375 975q84 0 125 37t41 98
q0 145 -168 145q-85 0 -124.5 -37.5t-39.5 -101.5q0 -62 43 -101.5t123 -39.5zM377 1595q-68 0 -103.5 -30t-35.5 -82q0 -121 141 -121q62 0 96.5 30t34.5 89q0 53 -33 83.5t-100 30.5z" />
    <glyph glyph-name="nine.sups" unicode="&#x2079;" horiz-adv-x="759" 
d="M76 1077h145q36 -98 144 -98q170 0 180 278q-67 -88 -211 -88q-122 0 -197.5 70.5t-75.5 185.5q0 118 83.5 197.5t224.5 79.5q151 0 235 -100t84 -297q0 -68 -10 -130t-34 -119t-60.5 -98.5t-92.5 -66.5t-126 -25q-130 0 -202.5 63.5t-86.5 147.5zM365 1587
q-69 0 -114.5 -37.5t-45.5 -119.5q0 -70 43 -112t123 -42q76 0 120 34t44 101q0 80 -43.5 128t-126.5 48z" />
    <glyph glyph-name="parenleft.sups" unicode="&#x207d;" horiz-adv-x="448" 
d="M242 1792h139q-79 -111 -126.5 -235.5t-47.5 -286.5q0 -156 47.5 -280t126.5 -236h-139q-65 79 -114.5 215.5t-49.5 300.5q0 306 164 522z" />
    <glyph glyph-name="parenright.sups" unicode="&#x207e;" horiz-adv-x="448" 
d="M207 786h-139q79 110 126.5 235t47.5 286q0 157 -47.5 280t-126.5 236h139q65 -78 115.5 -214.5t50.5 -301.5q0 -303 -166 -521z" />
    <glyph glyph-name="n.sups" unicode="&#x207f;" horiz-adv-x="784" 
d="M94 537v462q0 185 -2 220h133q6 -69 6 -105q29 52 84 85.5t136 33.5q34 0 65.5 -7t64 -25t56 -47t38.5 -77t15 -110v-430h-137v401q0 174 -145 174q-175 0 -175 -207v-368h-139z" />
    <glyph glyph-name="zero.subs" unicode="&#x2080;" horiz-adv-x="794" 
d="M401 471q156 0 240 -111.5t84 -302.5q0 -203 -85.5 -311t-244.5 -108q-154 0 -238.5 113t-84.5 300q0 191 88.5 305.5t240.5 114.5zM397 348q-174 0 -174 -297q0 -143 47.5 -217t128.5 -74q91 0 133.5 72t42.5 223q0 293 -178 293z" />
    <glyph glyph-name="one.subs" unicode="&#x2081;" horiz-adv-x="509" 
d="M367 -354h-148v643q-31 -17 -86.5 -30t-85.5 -13v112q123 20 219 113h101v-825z" />
    <glyph glyph-name="two.subs" unicode="&#x2082;" horiz-adv-x="741" 
d="M672 -352h-596v10q0 109 64 202t204 179q104 65 134 97t30 83q0 60 -35 95.5t-102 35.5q-134 0 -158 -147h-141q12 122 94 195t211 73q61 0 111 -16t81.5 -41t53 -58.5t30.5 -66t9 -64.5q0 -49 -12.5 -85.5t-44 -68.5t-65 -55t-94.5 -59q-168 -99 -198 -188h446z" />
    <glyph glyph-name="three.subs" unicode="&#x2083;" horiz-adv-x="761" 
d="M301 16v123h68q70 0 103.5 27.5t33.5 73.5q0 50 -33 82t-106 32q-74 0 -108 -33t-48 -83h-133q3 26 12 53t30.5 60t52.5 58.5t83 42.5t117 17q134 0 206 -62t72 -159q0 -63 -34.5 -104.5t-81.5 -59.5q64 -19 107.5 -69.5t43.5 -125.5q0 -104 -77 -177.5t-236 -73.5
q-70 0 -126 18t-88.5 44t-55 61t-31.5 63.5t-13 56.5h142q11 -55 58 -92t118 -37q76 0 117 36.5t41 96.5q0 66 -42 98.5t-116 32.5h-76z" />
    <glyph glyph-name="four.subs" unicode="&#x2084;" horiz-adv-x="753" 
d="M594 -354h-137v211h-406v112l371 486h172v-484h125l-12 -114h-113v-211zM197 -29h260v166q0 127 6 197q-15 -24 -61 -86.5t-113 -152.5t-92 -124z" />
    <glyph glyph-name="five.subs" unicode="&#x2085;" horiz-adv-x="782" 
d="M676 459l-21 -123h-383q-4 -29 -9.5 -67t-13 -79t-9.5 -57q71 60 190 60q125 0 201 -72.5t76 -192.5q0 -128 -85 -209t-229 -81q-142 0 -223.5 70t-93.5 165h145q36 -119 172 -119q78 0 120 45.5t42 120.5q0 71 -40 114.5t-122 43.5q-116 0 -166 -84l-131 22
q60 381 66 443h514z" />
    <glyph glyph-name="six.subs" unicode="&#x2086;" horiz-adv-x="776" 
d="M686 260h-135q-38 98 -145 98q-176 0 -191 -264q74 101 223 101q126 0 199.5 -75.5t73.5 -193.5q0 -125 -86.5 -206.5t-221.5 -81.5q-152 0 -241.5 103t-89.5 304q0 82 19 155t57.5 134.5t105.5 98t156 36.5q122 0 193 -62.5t83 -146.5zM399 -250q71 0 118.5 40.5
t47.5 127.5q0 80 -43.5 124t-124.5 44q-77 0 -123.5 -41t-46.5 -104q0 -44 15.5 -85.5t56.5 -73.5t100 -32z" />
    <glyph glyph-name="seven.subs" unicode="&#x2087;" horiz-adv-x="704" 
d="M59 459h588v-111q-227 -275 -325 -700h-158q32 176 125.5 368.5t199.5 319.5h-430v123z" />
    <glyph glyph-name="eight.subs" unicode="&#x2088;" horiz-adv-x="749" 
d="M371 -362q-147 0 -228.5 70t-81.5 169q0 74 39.5 124.5t102.5 76.5q-51 26 -79 71t-28 99q0 98 71 160.5t214 62.5q133 0 202.5 -65t69.5 -152q0 -59 -28 -102.5t-82 -65.5q145 -58 145 -203q0 -109 -88.5 -177t-228.5 -68zM375 -256q84 0 125 37t41 98q0 146 -168 146
q-85 0 -124.5 -38t-39.5 -102q0 -62 43 -101.5t123 -39.5zM377 365q-68 0 -103.5 -30.5t-35.5 -82.5q0 -121 141 -121q62 0 96.5 30t34.5 89q0 53 -33 84t-100 31z" />
    <glyph glyph-name="nine.subs" unicode="&#x2089;" horiz-adv-x="759" 
d="M76 -154h145q36 -98 144 -98q170 0 180 279q-67 -88 -211 -88q-122 0 -197.5 70.5t-75.5 185.5q0 118 83.5 197t224.5 79q151 0 235 -100t84 -297q0 -68 -10 -130t-34 -119t-60.5 -98.5t-92.5 -66.5t-126 -25q-130 0 -202.5 63.5t-86.5 147.5zM365 356
q-69 0 -114.5 -37.5t-45.5 -119.5q0 -70 43 -112t123 -42q76 0 120 34t44 101q0 80 -43.5 128t-126.5 48z" />
    <glyph glyph-name="parenleft.subs" unicode="&#x208d;" horiz-adv-x="448" 
d="M242 561h139q-79 -111 -126.5 -235.5t-47.5 -286.5q0 -156 47.5 -280t126.5 -236h-139q-65 79 -114.5 215.5t-49.5 300.5q0 306 164 522z" />
    <glyph glyph-name="parenright.subs" unicode="&#x208e;" horiz-adv-x="448" 
d="M207 -444h-139q79 111 126.5 235t47.5 285q0 157 -47.5 280t-126.5 236h139q65 -78 115.5 -214.5t50.5 -301.5q0 -302 -166 -520z" />
    <glyph glyph-name="colonmonetary" unicode="&#x20a1;" horiz-adv-x="1079" 
d="M569 137q25 0 35 2v1075h-24q-35 0 -62 -6v-1067q32 -4 51 -4zM268 670q0 -366 148 -484v977q-148 -113 -148 -493zM518 -197h-102v203q-160 57 -246 229.5t-86 430.5q0 270 85.5 440t246.5 229v162h102v-137q46 4 72 4h14v133h103v-145q135 -32 210.5 -126t88.5 -210
h-179q-34 130 -120 172v-1022q77 39 124 158h179q-66 -269 -303 -326v-193h-103v177h-35q-35 0 -51 2v-181z" />
    <glyph glyph-name="franc" unicode="&#x20a3;" horiz-adv-x="1026" 
d="M205 0v283h-176v135h176v930h749v-158h-567v-406h528v-155h-528v-211h266v-135h-266v-283h-182z" />
    <glyph glyph-name="lira" unicode="&#x20a4;" horiz-adv-x="1052" 
d="M993 0h-921v145q83 37 116.5 120.5t38.5 219.5h-184v115h186q-1 34 -6 139h-180v117h176v57q0 221 95.5 339t289.5 118q76 0 138.5 -21t103 -54t69.5 -77.5t42.5 -88t17.5 -87.5h-174q-13 81 -62.5 129t-140.5 48q-109 0 -154 -72.5t-45 -216.5v-74h310v-117h-306
q0 -19 1.5 -64.5t1.5 -74.5h303v-115h-306q-5 -111 -27.5 -190t-72.5 -135h715z" />
    <glyph glyph-name="uni20A6" unicode="&#x20a6;" horiz-adv-x="1112" 
d="M279 1198q8 -95 12 -307h108l-110 307h-10zM791 180h12q-12 153 -15 326h-114zM291 0h-148v506h-102v117h102v149h-102v119h102v457h228l164 -457h251v457h144v-457h106v-119h-106v-149h106v-117h-106v-506h-213l-180 506h-246v-506zM786 623v149h-208l53 -149h155z
M494 623l-54 149h-149v-149h203z" />
    <glyph glyph-name="peseta" unicode="&#x20a7;" horiz-adv-x="1073" 
d="M135 0v856h-129v125h129v367h342q193 0 320 -95t145 -272h102v-125h-102q-20 -176 -147 -273.5t-332 -97.5h-156v-485h-172zM307 1206v-225h459q-17 109 -93.5 167t-205.5 58h-160zM307 629h152q275 0 307 227h-459v-227z" />
    <glyph glyph-name="dong" unicode="&#x20ab;" horiz-adv-x="1093" 
d="M106 -156h838v-133h-838v133zM758 1366h172v-145h129v-131h-129v-799q0 -211 2 -291h-164q-10 68 -10 139q-88 -157 -301 -157q-81 0 -153 31.5t-126.5 90.5t-86.5 150t-32 203q0 113 34.5 206.5t93 153.5t135 92.5t161.5 32.5q196 0 275 -121v269h-465v131h465v145z
M238 459q0 -157 72.5 -243.5t193.5 -86.5q53 0 97.5 17t83 55.5t60 109.5t21.5 170q0 164 -69.5 240t-186.5 76q-132 0 -202 -91t-70 -247z" />
    <glyph glyph-name="Euro" unicode="&#x20ac;" horiz-adv-x="1105" 
d="M868 319h176q-38 -164 -145 -253t-264 -89q-198 0 -312.5 137t-142.5 388h-127v123h119v47q0 53 2 80h-121v122h133q37 238 157 367t302 129q75 0 139 -20t108.5 -53t77 -77.5t50.5 -91.5t24 -96h-176q-26 88 -83.5 137.5t-145.5 49.5q-228 0 -274 -345h378v-122h-389
q-2 -23 -2 -74v-53h391v-123h-381q43 -369 277 -369q165 0 229 186z" />
    <glyph glyph-name="uni20B1" unicode="&#x20b1;" horiz-adv-x="1171" 
d="M184 0v748h-121v110h121v105h-121v108h121v277h359q167 0 285 -71t161 -206h113v-108h-90q2 -16 2 -54q0 -35 -2 -51h90v-110h-113q-49 -139 -173.5 -213t-297.5 -74h-162v-461h-172zM356 1212v-141h455q-71 141 -270 141h-185zM844 907q0 24 -4 56h-484v-105h486
q2 14 2 49zM356 598h162q221 0 295 150h-457v-150z" />
    <glyph glyph-name="uni20B2" unicode="&#x20b2;" horiz-adv-x="1128" 
d="M1026 1020h-176q-45 177 -203 197v-1086q126 4 187 39v498h182v-598q-63 -28 -106 -44.5t-114.5 -31.5t-148.5 -17v-176h-115v183q-430 61 -430 702q0 299 112 475.5t318 202.5v135h115v-133q165 -10 265 -104.5t114 -241.5zM287 698q0 -237 57 -377.5t188 -177.5v1071
q-245 -51 -245 -516z" />
    <glyph glyph-name="uni20B4" unicode="&#x20b4;" horiz-adv-x="1079" 
d="M313 1040h-174q19 155 128 243.5t272 88.5q99 0 175.5 -29.5t120.5 -78t66.5 -106t22.5 -120.5q0 -104 -45 -174h102v-110h-209q-69 -55 -192 -121q-4 -2 -12.5 -7.5t-12.5 -7.5h406v-110h-574q-55 -45 -75.5 -86.5t-20.5 -93.5q0 -88 67.5 -147.5t169.5 -59.5
q67 0 117 17.5t80 49.5t46 65.5t26 76.5h172q-25 -172 -139 -263.5t-310 -91.5q-174 0 -290.5 95t-116.5 247q0 113 57 191h-86v110h199q94 70 215 136h-394v110h562q82 71 82 170q0 77 -54 136t-155 59q-191 0 -226 -189z" />
    <glyph glyph-name="uni20B5" unicode="&#x20b5;" horiz-adv-x="1112" 
d="M268 670q0 -471 236 -529v1069q-123 -29 -179.5 -160.5t-56.5 -379.5zM621 -199h-117v185q-203 25 -311.5 202t-108.5 478q0 311 108 487t312 205v141h117v-135q92 -5 164.5 -38t117 -85t70 -112t33.5 -128h-179q-24 93 -71.5 149t-134.5 67v-1082q80 8 128.5 55.5
t81.5 157.5h179q-32 -163 -128.5 -257.5t-260.5 -106.5v-183z" />
    <glyph glyph-name="uni20B9" unicode="&#x20b9;" horiz-adv-x="1067" 
d="M102 555v139h191q51 0 95.5 6.5t90 25t77.5 47.5t52.5 77t20.5 111v10h-527v119h498q-66 133 -293 133h-205v125h899v-121h-299q64 -61 89 -137h210v-119h-192v-10q0 -150 -82 -242.5t-221 -132.5l438 -586h-209l-418 555h-36h-179z" />
    <glyph glyph-name="uni20BA" unicode="&#x20ba;" horiz-adv-x="1134" 
d="M438 0h-184v528l-182 -77v124l182 80v154l-182 -80v125l182 80v414h178v-338l262 114v-125l-262 -114v-154l262 115v-127l-262 -113v-456q202 0 301 92t121 288h162q-5 -84 -25 -157.5t-63 -143.5t-106.5 -119.5t-161.5 -79.5t-222 -30z" />
    <glyph glyph-name="uni20BD" unicode="&#x20bd;" horiz-adv-x="1171" 
d="M213 0v311h-156v131h156v160h-156v148h156v598h401q214 0 334.5 -98t120.5 -269q0 -379 -455 -379h-215v-160h373v-131h-373v-311h-186zM399 1198v-448h215q140 0 202.5 55t62.5 170q0 107 -68.5 165t-200.5 58h-211z" />
    <glyph glyph-name="uni2113" unicode="&#x2113;" horiz-adv-x="858" 
d="M651 330h172q-18 -175 -101.5 -261.5t-246.5 -86.5q-303 0 -303 344v88q-15 -12 -115 -74l-45 129q94 57 158 100v514q0 115 25 201t68.5 134.5t97.5 71.5t118 23q137 0 211 -88t74 -243q0 -197 -97 -355t-313 -323v-139q0 -122 33.5 -178t101.5 -56q70 0 107 41.5
t55 157.5zM354 1120v-430q240 213 240 488q0 98 -28.5 144t-88.5 46q-61 0 -92 -57.5t-31 -190.5z" />
    <glyph glyph-name="uni2116" unicode="&#x2116;" horiz-adv-x="2136" 
d="M346 0h-168v1386h242q561 -1009 627 -1181h2q-13 176 -13 659v522h168v-1386h-225q-518 956 -645 1217h-2q14 -184 14 -676v-541zM1501 889q0 -128 53 -198t144 -70q93 0 143.5 68t50.5 200t-52.5 200t-147.5 68q-86 0 -138.5 -70t-52.5 -198zM1399 358h592v-135h-592
v135zM1694 1288q167 0 260.5 -108.5t93.5 -290.5q0 -184 -95.5 -295t-260.5 -111q-155 0 -250.5 111.5t-95.5 294.5q0 179 96 289t252 110z" />
    <glyph glyph-name="uni2117" unicode="&#x2117;" horiz-adv-x="1619" 
d="M543 324v788h319q114 0 197.5 -66.5t83.5 -185.5q0 -128 -78 -195t-209 -67h-182v-274h-131zM676 999v-292h170q85 0 121.5 38t36.5 109q0 142 -158 145h-170zM803 1444q150 0 280 -54.5t222.5 -150.5t145 -231.5t52.5 -292.5q0 -210 -90.5 -378t-250.5 -262.5
t-359 -94.5q-202 0 -362.5 91.5t-251.5 259.5t-91 384q0 155 54 290.5t147.5 231.5t224.5 151.5t279 55.5zM801 1337q-124 0 -231 -43t-186 -121.5t-124 -198t-45 -265.5q0 -177 75.5 -319.5t209.5 -223t301 -80.5q255 0 420 172t165 457q0 271 -165 446.5t-420 175.5z" />
    <glyph glyph-name="uni2120" unicode="&#x2120;" horiz-adv-x="964" 
d="M993 940h-100v152q0 148 10 260h-4q-36 -116 -143 -410h-88q-96 288 -131 410h-5q6 -71 9 -271v-141h-97v485h160q7 -20 51 -147.5t64 -190.5h2q14 39 56 157.5t65 180.5h151v-485zM-31 1096h101q4 -44 35.5 -68t74.5 -24q94 0 94 65q0 31 -28 48t-90 32
q-94 22 -130 57.5t-36 89.5q0 64 46.5 103t135.5 39q95 0 141 -44.5t49 -109.5h-98q-10 80 -98 80q-78 0 -78 -57q0 -24 18 -40t74 -30q107 -25 152 -60t45 -98q0 -151 -203 -151q-90 0 -144.5 46.5t-60.5 121.5z" />
    <glyph glyph-name="trademark" unicode="&#x2122;" horiz-adv-x="985" 
d="M1024 940h-100v152q0 148 10 260h-4l-144 -410h-88l-131 410h-4q6 -67 6 -271v-141h-96v485h162l115 -338l122 338h152v-485zM-23 1425h437v-92h-164v-393h-107v393h-166v92z" />
    <glyph glyph-name="uni2126" unicode="&#x2126;" horiz-adv-x="1529" 
d="M766 1446q125 0 231.5 -36t183 -98.5t130.5 -146.5t80 -179.5t26 -197.5q0 -421 -348 -626h379v-162h-563v203q163 77 251.5 222.5t88.5 356.5q0 99 -30 188.5t-86 160.5t-146 113t-201 42q-212 0 -336.5 -140t-124.5 -366q0 -207 95.5 -354t248.5 -223v-203h-565v162
h371q-342 212 -342 620q0 136 47 257.5t130.5 211.5t208 142.5t271.5 52.5z" />
    <glyph glyph-name="estimated" unicode="&#x212e;" horiz-adv-x="1714" 
d="M1626 631h-1249q-8 0 -8 -8v-248q0 -19 16 -43q76 -109 199 -169.5t266 -60.5q152 0 260 53.5t197 174.5h213q-115 -170 -276.5 -261.5t-397.5 -91.5q-169 0 -312.5 56.5t-240 152t-151 222.5t-54.5 268q0 186 101 345.5t278 254t389 94.5q166 0 311 -57.5t244.5 -154.5
t157 -225t57.5 -267v-35zM1346 766v211q0 9 -3 16.5t-10 18t-8 12.5q-75 110 -198.5 168.5t-266.5 58.5q-144 0 -267.5 -59t-205.5 -172q-18 -27 -18 -47v-207q0 -10 8 -10h960q9 0 9 10z" />
    <glyph glyph-name="onethird" unicode="&#x2153;" horiz-adv-x="1687" 
d="M379 2h-146l883 1348h144zM385 535h-147v643q-31 -17 -86.5 -30t-85.5 -13v112q123 20 219 113h100v-825zM1219 367v122h67q70 0 103.5 27.5t33.5 73.5q0 50 -33 82.5t-106 32.5q-74 0 -108 -33.5t-48 -83.5h-133q3 26 12 53t30.5 60t52.5 58.5t83 42.5t117 17
q134 0 206.5 -62t72.5 -159q0 -63 -35 -104.5t-82 -59.5q64 -19 108 -69t44 -125q0 -104 -77.5 -178t-236.5 -74q-70 0 -125.5 18t-88 44t-55.5 61t-31.5 63.5t-12.5 56.5h141q11 -55 58 -92t118 -37q76 0 117 37t41 97q0 66 -42 98.5t-116 32.5h-75z" />
    <glyph glyph-name="twothirds" unicode="&#x2154;" horiz-adv-x="1888" 
d="M608 2h-145l883 1348h143zM680 537h-596v10q0 109 64 202t204 179q104 65 134 97t30 83q0 60 -35 95.5t-102 35.5q-134 0 -158 -147h-141q12 122 94 195t211 73q61 0 111 -16t81.5 -41t53 -58.5t30.5 -66t9 -64.5q0 -49 -12.5 -85.5t-43.5 -68.5t-64.5 -55.5t-94.5 -58.5
q-169 -99 -199 -189h446zM1430 367v122h67q70 0 103.5 27.5t33.5 73.5q0 50 -33 82.5t-106 32.5q-74 0 -108 -33.5t-48 -83.5h-133q3 26 12 53t30.5 60t52.5 58.5t83 42.5t117 17q134 0 206.5 -62t72.5 -159q0 -63 -35 -104.5t-82 -59.5q64 -19 108 -69t44 -125
q0 -104 -77.5 -178t-236.5 -74q-70 0 -125.5 18t-88 44t-55.5 61t-31.5 63.5t-12.5 56.5h141q11 -55 58 -92t118 -37q76 0 117 37t41 97q0 66 -42 98.5t-116 32.5h-75z" />
    <glyph glyph-name="oneeighth" unicode="&#x215b;" horiz-adv-x="1599" 
d="M334 2h-146l883 1348h143zM383 535h-147v643q-31 -17 -87 -30t-86 -13v112q124 21 220 113h100v-825zM1204 -45q-147 0 -228 70.5t-81 169.5q0 142 141 200q-51 26 -78.5 71t-27.5 99q0 98 70.5 160.5t213.5 62.5q133 0 203 -65t70 -152q0 -59 -28.5 -102.5t-82.5 -65.5
q146 -58 146 -202q0 -109 -89 -177.5t-229 -68.5zM1208 61q84 0 125 37.5t41 98.5q0 145 -168 145q-85 0 -124.5 -37.5t-39.5 -101.5q0 -62 43 -102t123 -40zM1210 682q-68 0 -103.5 -30.5t-35.5 -82.5q0 -120 141 -120q62 0 96.5 29.5t34.5 88.5q0 53 -33 84t-100 31z" />
    <glyph glyph-name="threeeighths" unicode="&#x215c;" horiz-adv-x="1832" 
d="M557 2h-145l882 1348h144zM1438 -10q-147 0 -228.5 70t-81.5 169q0 74 39.5 124.5t102.5 76.5q-51 26 -79 71t-28 99q0 98 71 160.5t214 62.5q133 0 202.5 -65t69.5 -152q0 -59 -28 -102.5t-82 -65.5q145 -58 145 -202q0 -109 -88.5 -177.5t-228.5 -68.5zM1442 96
q84 0 125 37t41 98q0 146 -168 146q-85 0 -124.5 -37.5t-39.5 -101.5q0 -62 43 -102t123 -40zM1444 717q-68 0 -103.5 -30.5t-35.5 -82.5q0 -121 141 -121q62 0 96.5 30t34.5 89q0 53 -33 84t-100 31zM322 905v123h67q70 0 103.5 27t33.5 73q0 50 -33 82.5t-106 32.5
q-74 0 -108 -33.5t-48 -83.5h-133q3 26 11.5 53t30.5 60.5t53 58.5t83 42.5t117 17.5q134 0 206.5 -62t72.5 -159q0 -63 -35 -104.5t-82 -59.5q64 -19 108 -69.5t44 -125.5q0 -104 -77.5 -178t-236.5 -74q-70 0 -125.5 18t-88 44.5t-55.5 61.5t-31.5 63.5t-12.5 56.5h141
q11 -55 58 -92t118 -37q76 0 117 36.5t41 96.5q0 66 -42 98.5t-116 32.5h-75z" />
    <glyph glyph-name="fiveeighths" unicode="&#x215d;" horiz-adv-x="1859" 
d="M575 2h-145l883 1348h143zM702 1348l-20 -123h-383q-5 -39 -18.5 -118.5t-14.5 -84.5q70 59 191 59q125 0 200.5 -72t75.5 -192q0 -128 -84.5 -209.5t-228.5 -81.5q-142 0 -224 70.5t-94 165.5h146q36 -119 172 -119q78 0 120 45.5t42 120.5q0 71 -40 114.5t-122 43.5
q-116 0 -166 -84l-131 22q57 363 65 443h514zM1456 -10q-147 0 -228 70t-81 169q0 75 39 125t102 76q-51 26 -78.5 71t-27.5 99q0 98 70.5 160.5t213.5 62.5q133 0 203 -65t70 -152q0 -59 -28.5 -102.5t-82.5 -65.5q146 -58 146 -202q0 -109 -89 -177.5t-229 -68.5zM1460 96
q84 0 125 37t41 98q0 146 -168 146q-85 0 -124.5 -37.5t-39.5 -101.5q0 -62 43 -102t123 -40zM1462 717q-68 0 -103.5 -30.5t-35.5 -82.5q0 -121 141 -121q62 0 96.5 30t34.5 89q0 53 -33 84t-100 31z" />
    <glyph glyph-name="seveneighths" unicode="&#x215e;" horiz-adv-x="1675" 
d="M375 2h-146l883 1348h143zM1282 -45q-147 0 -228 70.5t-81 169.5q0 142 141 200q-51 26 -78.5 71t-27.5 99q0 98 70.5 160.5t213.5 62.5q133 0 203 -65t70 -152q0 -59 -28.5 -102.5t-82.5 -65.5q145 -58 145 -202q0 -109 -88.5 -177.5t-228.5 -68.5zM1286 61
q84 0 125 37.5t41 98.5q0 145 -168 145q-85 0 -124.5 -37.5t-39.5 -101.5q0 -62 43 -102t123 -40zM1288 682q-68 0 -103.5 -30.5t-35.5 -82.5q0 -120 141 -120q62 0 96.5 29.5t34.5 88.5q0 53 -33 84t-100 31zM90 1348h588v-111q-229 -276 -326 -700h-157
q32 176 125.5 368.5t199.5 319.5h-430v123z" />
    <glyph glyph-name="uni2190" unicode="&#x2190;" horiz-adv-x="1792" 
d="M1696 657h-1327q105 -90 389 -351t313 -288l-98 -104l-877 815v6l877 826l98 -107q-90 -83 -347.5 -321t-354.5 -326h1327v-150z" />
    <glyph glyph-name="arrowup" unicode="&#x2191;" horiz-adv-x="1755" 
d="M793 -90v1403q-330 -386 -594 -678l-103 104l774 856h4l787 -856l-107 -104q-99 108 -315 352t-291 326v-1403h-155z" />
    <glyph glyph-name="uni2192" unicode="&#x2192;" horiz-adv-x="1792" 
d="M96 819h1327q-105 90 -389 351t-313 288l98 105l877 -815v-7l-877 -825l-98 107q90 83 347.5 321t354.5 326h-1327v149z" />
    <glyph glyph-name="arrowdown" unicode="&#x2193;" horiz-adv-x="1755" 
d="M963 1534v-1403q346 406 593 678l103 -104l-774 -857h-4l-787 857l107 104q99 -108 315 -352t291 -326v1403h156z" />
    <glyph glyph-name="partialdiff" unicode="&#x2202;" horiz-adv-x="1101" 
d="M195 1280v152q63 14 143 14q140 -1 260 -49.5t212.5 -143t145 -247.5t52.5 -349q0 -76 -6.5 -144t-22.5 -136.5t-40.5 -125.5t-63 -107.5t-88.5 -85t-118 -54.5t-149 -20q-201 -1 -320.5 127t-119.5 311q0 195 127 318.5t311 123.5q67 0 123.5 -14t93 -37t59 -44
t37.5 -44v20q-2 88 -23.5 169t-64.5 149.5t-102.5 119t-141.5 79t-177 28.5q-76 0 -127 -10zM537 125q62 0 112 23t80 59t50 83.5t28 93t8 91.5q0 91 -76.5 169.5t-203.5 78.5q-120 0 -196.5 -78t-76.5 -221q0 -141 80 -220t195 -79z" />
    <glyph glyph-name="uni2206" unicode="&#x2206;" horiz-adv-x="1320" 
d="M1272 0h-1225v121l498 1304h231l496 -1304v-121zM244 164h817l-217 569q-146 380 -191 541h-6q-18 -92 -188 -539z" />
    <glyph glyph-name="product" unicode="&#x220f;" horiz-adv-x="1433" 
d="M178 1425h1077v-1630h-186v1469h-704v-1469h-187v1630z" />
    <glyph glyph-name="summation" unicode="&#x2211;" horiz-adv-x="1087" 
d="M1057 -205h-1028v121l516 700l-486 687v122h959v-163h-713l451 -625l-496 -678h819z" />
    </font>
</defs>
</svg>
