<?xml version="1.0" standalone="no"?>
<!DOCTYPE svg PUBLIC "-//W3C//DTD SVG 1.1//EN" "http://www.w3.org/Graphics/SVG/1.1/DTD/svg11.dtd" >
<svg xmlns="http://www.w3.org/2000/svg" xmlns:xlink="http://www.w3.org/1999/xlink" version="1.1">
<metadata>
Created by FontForge 20201107 at Mon Oct  7 16:22:54 2024
 By 
(c) Copyright Kerns &#38; Cairns, 2006-2020. All rights reserved.
</metadata>
<defs>
<font id="ApotekCond-Semibold" horiz-adv-x="878" >
  <font-face 
    font-family="Apotek Cond Semibold"
    font-weight="633"
    font-stretch="semi-expanded"
    units-per-em="2048"
    panose-1="2 0 5 0 2 0 0 2 0 4"
    ascent="1638"
    descent="-410"
    x-height="971"
    cap-height="1331"
    bbox="-287 -512 2116 1927"
    underline-thickness="0"
    underline-position="0"
    unicode-range="U+0020-FB02"
  />
<missing-glyph horiz-adv-x="1024" 
d="M102 -512v2048h820v-2048h-820zM205 -410h614v1844h-614v-1844z" />
    <glyph glyph-name="fi" unicode="fi" horiz-adv-x="950" 
d="M156 0v739h-133v232h133v157q0 120 44.5 175t170.5 55h495l-24 -230h-434v-157h469v-971h-254v739h-215v-739h-252z" />
    <glyph glyph-name="fl" unicode="fl" horiz-adv-x="966" 
d="M156 0v739h-133v232h133v157q0 122 47 176t168 54h272v8h252v-1366h-252v1128h-235v-157h147v-232h-147v-739h-252z" />
    <glyph glyph-name="Aogonek_j" unicode="&#x104;j" horiz-adv-x="1413" 
d="M682 0l-43 258h-303l-43 -258h-273l246 1331h447l241 -1333l-243 -135v-60h69v56h148v-52q0 -133 -140 -133h-77q-152 0 -152 138v24q0 48 15 74t51 51zM1341 1294v-217h-254v217h254zM473 1090l-98 -601h227l-98 601h-31zM1087 971h254v-1061q0 -124 -52 -180t-171 -56
h-162l19 217h112v1080z" />
    <glyph glyph-name="Iogonek_j" unicode="&#x12e;j" horiz-adv-x="839" 
d="M350 0l-203 -137v-60h72v56h152v-52q0 -66 -38 -99.5t-108 -33.5h-78q-151 0 -151 136v30q0 47 12.5 75.5t46.5 59.5l27 25v1331h268v-1331zM766 1294v-217h-252v217h252zM514 971h252v-1061q0 -124 -51.5 -180t-171.5 -56h-148l19 217h100v1080z" />
    <glyph glyph-name="aogonek_j" unicode="&#x105;j" horiz-adv-x="1304" 
d="M1233 1294v-217h-252v217h252zM281 -8q-117 0 -169.5 59.5t-52.5 161.5v543q0 223 222 223q158 0 290 -86l9 78h245v-985l-233 -123v-60h82v56h149v-52q0 -133 -143 -133h-88q-152 0 -152 138v24q0 47 20.5 75t63.5 52l58 33l-11 80q-5 -3 -18 -11t-42 -21t-62 -24
t-78.5 -19.5t-89.5 -8.5zM981 971h252v-1061q0 -124 -51.5 -180t-171.5 -56h-160l20 217h111v1080zM311 227h260v512h-260v-512z" />
    <glyph glyph-name="iogonek_j" unicode="&#x12f;j" horiz-adv-x="806" 
d="M70 1077v217h254v-217h-254zM733 1294v-217h-252v217h252zM70 -2v973h254v-971l-189 -137v-60h58v56h151v-52q0 -66 -37 -99.5t-106 -33.5h-66q-151 0 -151 136v30q0 49 13 76t50 61zM481 971h252v-1061q0 -124 -51.5 -180t-171.5 -56h-141l20 217h92v1080z" />
    <glyph glyph-name="uogonek_j" unicode="&#x173;j" horiz-adv-x="1294" 
d="M1223 1294v-217h-254v217h254zM809 -16l-231 -121v-60h90v56h151v-52q0 -133 -143 -133h-98q-152 0 -152 138v24q0 47 20.5 75t63.5 52l57 33l-10 82q-138 -86 -289 -86q-107 0 -156 51.5t-49 153.5v774h254v-742h240v742h252v-987zM969 971h254v-1061q0 -124 -52.5 -180
t-171.5 -56h-153l20 217h103v1080z" />
    <glyph glyph-name=".notdef" horiz-adv-x="1024" 
d="M102 -512v2048h820v-2048h-820zM205 -410h614v1844h-614v-1844z" />
    <glyph glyph-name=".null" horiz-adv-x="0" 
 />
    <glyph glyph-name="nonmarkingreturn" horiz-adv-x="682" 
 />
    <glyph glyph-name="space" unicode=" " horiz-adv-x="423" 
 />
    <glyph glyph-name="exclam" unicode="!" horiz-adv-x="403" 
d="M72 342v989h262v-989h-262zM334 229v-229h-262v229h262z" />
    <glyph glyph-name="quotedbl" unicode="&#x22;" horiz-adv-x="706" 
d="M70 831l-19 500h264l-22 -500h-223zM410 831l-19 500h264l-22 -500h-223z" />
    <glyph glyph-name="numbersign" unicode="#" horiz-adv-x="1130" 
d="M129 0l39 301h-129v231h158l30 236h-188v231h217l43 332h252l-43 -332h203l43 332h252l-43 -332h133v-231h-162l-31 -236h189v-231h-218l-38 -301h-252l39 301h-203l-39 -301h-252zM449 532h202l31 236h-203z" />
    <glyph glyph-name="dollar" unicode="$" horiz-adv-x="944" 
d="M885 475v-223q0 -120 -57.5 -186t-168.5 -66h-67v-162h-242v162h-65q-102 0 -164 62.5t-62 183.5v209h267v-217h297v229l-441 205q-70 37 -96.5 82t-26.5 131v229q0 114 56 165.5t164 51.5h71v176h242v-176h65q126 0 177 -61.5t51 -196.5v-176h-262v197h-297v-201
l438 -201q71 -35 96 -80t25 -137z" />
    <glyph glyph-name="percent" unicode="%" horiz-adv-x="1497" 
d="M221 700q-71 0 -124.5 43t-53.5 125v293q0 78 51.5 124t130.5 46h201q92 0 141 -49.5t49 -126.5v-285q0 -72 -48.5 -121t-133.5 -49h-213zM295 0l637 1331h262l-635 -1331h-264zM248 879h164v268h-164v-268zM1057 0q-70 0 -124 43.5t-54 124.5v293q0 79 51.5 124.5
t130.5 45.5h203q90 0 140 -49.5t50 -124.5v-285q0 -72 -49 -122t-133 -50h-215zM1085 178h164v271h-164v-271z" />
    <glyph glyph-name="ampersand" unicode="&#x26;" horiz-adv-x="1120" 
d="M829 0l-84 102q-26 -49 -60 -75.5t-95 -26.5h-303q-104 0 -165 61.5t-61 174.5v307l187 168l-137 166v210q0 124 56.5 184t176.5 60h217q130 0 185 -59t55 -191v-168l-238 -215l127 -153l86 200h260l-180 -403l281 -342h-308zM373 932l51 -64l113 103v123h-164v-162z
M326 481v-243h229l27 63l-193 238z" />
    <glyph glyph-name="quotesingle" unicode="'" horiz-adv-x="368" 
d="M72 831l-19 500h264l-22 -500h-223z" />
    <glyph glyph-name="parenleft" unicode="(" horiz-adv-x="491" 
d="M324 -225q-250 0 -250 248v1208q0 147 59 214.5t180 67.5h156v-264h-137v-1237h137v-237h-145z" />
    <glyph glyph-name="parenright" unicode=")" horiz-adv-x="491" 
d="M168 -225h-145v237h137v1237h-137v264h155q121 0 180.5 -67.5t59.5 -214.5v-1208q0 -248 -250 -248z" />
    <glyph glyph-name="asterisk" unicode="*" horiz-adv-x="694" 
d="M553 770l-129 119l35 -189h-228l35 187l-127 -117l-112 186l184 74l-184 74l112 186l127 -116l-33 188h226l-35 -191l131 119l113 -188l-185 -72l185 -72z" />
    <glyph glyph-name="plus" unicode="+" horiz-adv-x="733" 
d="M53 504v241h199v230h227v-230h201v-241h-201v-221h-227v221h-199z" />
    <glyph glyph-name="comma" unicode="," horiz-adv-x="391" 
d="M63 -209v445h267v-236z" />
    <glyph glyph-name="hyphen" unicode="-" horiz-adv-x="589" 
d="M51 504v239h488v-239h-488z" />
    <glyph glyph-name="hyphen" unicode="&#x2011;" horiz-adv-x="589" 
d="M51 504v239h488v-239h-488z" />
    <glyph glyph-name="hyphen" unicode="&#x2010;" horiz-adv-x="589" 
d="M51 504v239h488v-239h-488z" />
    <glyph glyph-name="hyphen" unicode="&#xad;" horiz-adv-x="589" 
d="M51 504v239h488v-239h-488z" />
    <glyph glyph-name="period" unicode="." horiz-adv-x="391" 
d="M330 236v-236h-267v236h267z" />
    <glyph glyph-name="slash" unicode="/" horiz-adv-x="679" 
d="M35 0l340 1331h272l-342 -1331h-270z" />
    <glyph glyph-name="zero" unicode="0" horiz-adv-x="985" 
d="M291 0q-101 0 -162 62t-61 182v854q0 113 56.5 173t154.5 60h421q113 0 165.5 -65t52.5 -193v-819q0 -117 -59.5 -185.5t-170.5 -68.5h-397zM326 244h333v843h-333v-843z" />
    <glyph glyph-name="one" unicode="1" horiz-adv-x="575" 
d="M227 1331h269v-1331h-269v944q-28 -45 -83 -71.5t-111 -28.5v229q85 6 139.5 73.5t54.5 184.5z" />
    <glyph glyph-name="two" unicode="2" horiz-adv-x="946" 
d="M889 0h-819v225l551 715v160h-291v-172h-264v166q0 120 46 178.5t156 58.5h396q127 0 174 -56.5t47 -184.5v-117q0 -54 -13.5 -86t-54.5 -78l-430 -582h502v-227z" />
    <glyph glyph-name="three" unicode="3" horiz-adv-x="956" 
d="M303 0q-127 0 -185.5 65.5t-58.5 170.5v182h271v-187h301v338h-289v224h276v307h-288v-160h-264v150q0 127 51 184t188 57h338q138 0 189 -56.5t51 -174.5v-258q0 -115 -68 -150q80 -39 80 -168v-286q0 -110 -58 -174t-182 -64h-352z" />
    <glyph glyph-name="four" unicode="4" horiz-adv-x="964" 
d="M827 0h-264v221h-532v232l450 878h346v-874h119v-236h-119v-221zM563 457v407q0 55 4 117q-22 -65 -37 -90l-219 -434h252z" />
    <glyph glyph-name="five" unicode="5" horiz-adv-x="962" 
d="M72 424h262v-182h303v344h-565v745h782v-244h-520v-272h354q114 0 161.5 -60t47.5 -186v-317q0 -113 -53 -182.5t-168 -69.5h-373q-231 0 -231 250v174z" />
    <glyph glyph-name="six" unicode="6" horiz-adv-x="962" 
d="M299 0q-113 0 -172 63t-59 187v854q0 118 55.5 172.5t163.5 54.5h549v-244h-504v-272h358q114 0 161.5 -60t47.5 -186v-317q0 -112 -53.5 -182t-167.5 -70h-379zM639 242v344h-307v-344h307z" />
    <glyph glyph-name="seven" unicode="7" horiz-adv-x="845" 
d="M242 0v178q0 280 82 510t213 402h-517v241h801v-241q-301 -382 -301 -912v-178h-278z" />
    <glyph glyph-name="eight" unicode="8" horiz-adv-x="956" 
d="M276 0q-109 0 -162 61t-53 156v297q0 134 82 170q-69 37 -69 152v264q0 117 43.5 174t152.5 57h416q109 0 153 -57.5t44 -173.5v-264q0 -114 -68 -152q82 -36 82 -170v-297q0 -95 -54 -156t-163 -61h-404zM338 784h280v316h-280v-316zM332 231h301v330h-301v-330z" />
    <glyph glyph-name="nine" unicode="9" horiz-adv-x="962" 
d="M664 1331q113 0 172 -63t59 -187v-854q0 -118 -55.5 -172.5t-163.5 -54.5h-549v244h504v272h-359q-114 0 -161.5 60t-47.5 186v317q0 112 54 182t168 70h379zM324 1090v-345h307v345h-307z" />
    <glyph glyph-name="colon" unicode=":" horiz-adv-x="391" 
d="M330 819v-231h-267v231h267zM330 231v-231h-267v231h267z" />
    <glyph glyph-name="semicolon" unicode=";" horiz-adv-x="391" 
d="M330 819v-231h-267v231h267zM63 -209v440h267v-231z" />
    <glyph glyph-name="less" unicode="&#x3c;" horiz-adv-x="733" 
d="M676 743l-354 -112v-6l354 -105v-252l-627 242v233l627 248v-248z" />
    <glyph glyph-name="equal" unicode="=" horiz-adv-x="733" 
d="M53 684v242h627v-242h-627zM53 324v241h627v-241h-627z" />
    <glyph glyph-name="greater" unicode="&#x3e;" horiz-adv-x="733" 
d="M57 516l355 113v6l-355 104v252l627 -241v-234l-627 -248v248z" />
    <glyph glyph-name="question" unicode="?" horiz-adv-x="954" 
d="M657 1331q112 0 171 -57.5t59 -192.5v-348q0 -105 -47.5 -150.5t-139.5 -45.5h-98v-195h-262v408h285v337h-310v-188h-264v176q0 256 232 256h374zM602 229v-229h-262v229h262z" />
    <glyph glyph-name="at" unicode="@" horiz-adv-x="1673" 
d="M1235 -174l22 -229h-968q-97 0 -159 59.5t-62 171.5v1278q0 110 54 167.5t150 57.5h1127q209 0 209 -227v-873q0 -111 -61 -171t-161 -60h-409l-10 78l-15 -9t-41 -21t-63.5 -26t-81 -20.5t-94.5 -9.5q-115 0 -169 58t-54 159v467q0 217 223 217q155 0 297 -86l8 80h240
v-719h131v932h-1020v-1274h907zM707 225h258v428h-258v-428z" />
    <glyph glyph-name="A" unicode="A" horiz-adv-x="972" 
d="M682 0l-43 258h-303l-43 -258h-273l246 1331h447l241 -1331h-272zM473 1090l-98 -601h227l-98 601h-31z" />
    <glyph glyph-name="B" unicode="B" horiz-adv-x="958" 
d="M903 223q0 -95 -56 -159t-167 -64h-608v1331h614q108 0 153.5 -57.5t45.5 -175.5v-273q0 -107 -66 -145q84 -34 84 -168v-289zM338 780h280v320h-280v-320zM338 231h299v326h-299v-326z" />
    <glyph glyph-name="C" unicode="C" horiz-adv-x="952" 
d="M633 522h266v-270q0 -113 -53.5 -182.5t-177.5 -69.5h-369q-110 0 -170.5 61.5t-60.5 184.5v858q0 119 56.5 173t164.5 54h381q128 0 178.5 -62t50.5 -196v-194h-266v208h-299v-843h299v278z" />
    <glyph glyph-name="D" unicode="D" horiz-adv-x="976" 
d="M72 0v1331h633q115 0 159.5 -67t44.5 -201v-811q0 -106 -56.5 -179t-172.5 -73h-608zM338 244h305v843h-305v-843z" />
    <glyph glyph-name="E" unicode="E" horiz-adv-x="835" 
d="M72 0v1331h719v-237h-451v-312h324v-235h-324v-309h451v-238h-719z" />
    <glyph glyph-name="F" unicode="F" horiz-adv-x="819" 
d="M72 0v1331h731v-241h-463v-365h338v-240h-338v-485h-268z" />
    <glyph glyph-name="G" unicode="G" horiz-adv-x="970" 
d="M905 920h-266v167h-305v-845h309v299h-168v213h430v-502q0 -112 -53 -182t-172 -70h-381q-110 0 -170.5 61.5t-60.5 184.5v864q0 221 221 221h395q122 0 171.5 -61.5t49.5 -192.5v-157z" />
    <glyph glyph-name="H" unicode="H" horiz-adv-x="999" 
d="M72 0v1331h268v-555h322v555h268v-1331h-268v539h-322v-539h-268z" />
    <glyph glyph-name="I" unicode="I" horiz-adv-x="430" 
d="M82 0v1331h268v-1331h-268z" />
    <glyph glyph-name="J" unicode="J" horiz-adv-x="931" 
d="M596 1331h266v-1077q0 -117 -58 -185.5t-169 -68.5h-361q-101 0 -162 62t-61 182v252h264v-254h281v1089z" />
    <glyph glyph-name="K" unicode="K" horiz-adv-x="968" 
d="M340 0h-268v1331h268v-549h45l260 549h299l-311 -649v-16l332 -666h-306l-272 553h-47v-553z" />
    <glyph glyph-name="L" unicode="L" horiz-adv-x="835" 
d="M72 0v1331h268v-1087h461v-244h-729z" />
    <glyph glyph-name="M" unicode="M" horiz-adv-x="1337" 
d="M1028 0v631q0 60 8 350q-51 -278 -61 -326l-148 -655h-307l-151 653q-18 86 -68 340q12 -300 12 -362v-631h-241v1331h362l234 -1028h12l223 1028h363v-1331h-238z" />
    <glyph glyph-name="N" unicode="N" horiz-adv-x="1050" 
d="M979 0h-346l-211 524q-62 155 -131 443q12 -316 12 -396v-571h-231v1331h323l223 -581q66 -168 144 -465q-14 364 -14 409v637h231v-1331z" />
    <glyph glyph-name="O" unicode="O" horiz-adv-x="993" 
d="M291 0q-100 0 -161.5 62t-61.5 182v854q0 114 56 173.5t157 59.5h426q116 0 167.5 -64.5t51.5 -193.5v-819q0 -117 -60 -185.5t-170 -68.5h-405zM334 244h323v843h-323v-843z" />
    <glyph glyph-name="P" unicode="P" horiz-adv-x="935" 
d="M72 0v1331h641q100 0 139 -59t39 -185v-536q0 -103 -50 -167.5t-153 -64.5h-350v-319h-266zM338 555h287v535h-287v-535z" />
    <glyph glyph-name="Q" unicode="Q" horiz-adv-x="993" 
d="M291 0q-100 0 -161.5 62t-61.5 182v854q0 114 56 173.5t157 59.5h426q116 0 167.5 -64.5t51.5 -193.5v-819q0 -117 -60 -185.5t-170 -68.5h-10l53 -272h-268l-49 272h-131zM334 244h323v843h-323v-843z" />
    <glyph glyph-name="R" unicode="R" horiz-adv-x="958" 
d="M338 0h-266v1331h643q98 0 141 -55.5t43 -177.5v-467q0 -94 -28.5 -145t-92.5 -66l133 -420h-268l-121 403h-184v-403zM338 641h297v446h-297v-446z" />
    <glyph glyph-name="S" unicode="S" horiz-adv-x="944" 
d="M885 475v-223q0 -120 -57.5 -186t-168.5 -66h-374q-102 0 -164 62.5t-62 183.5v209h267v-217h297v229l-441 205q-70 37 -96.5 82t-26.5 131v229q0 114 56 165.5t164 51.5h378q126 0 177 -61.5t51 -196.5v-176h-262v197h-297v-201l438 -201q71 -35 96 -80t25 -137z" />
    <glyph glyph-name="T" unicode="T" 
d="M305 0v1090h-293v241h854v-241h-291v-1090h-270z" />
    <glyph glyph-name="U" unicode="U" horiz-adv-x="980" 
d="M645 1331h266v-1077q0 -117 -57.5 -185.5t-167.5 -68.5h-393q-101 0 -162 62t-61 182v1087h266v-1087h309v1087z" />
    <glyph glyph-name="V" unicode="V" horiz-adv-x="968" 
d="M297 1331l176 -1061h25l174 1061h278l-262 -1331h-409l-261 1331h279z" />
    <glyph glyph-name="W" unicode="W" horiz-adv-x="1443" 
d="M215 0l-205 1331h269l122 -1059h15l147 1059h311l160 -1059h13l120 1059h269l-203 -1331h-367l-137 961h-14l-135 -961h-365z" />
    <glyph glyph-name="X" unicode="X" horiz-adv-x="933" 
d="M647 0l-178 455l-186 -455h-283l305 672l-293 659h285l176 -438l168 438h283l-285 -667l293 -664h-285z" />
    <glyph glyph-name="Y" unicode="Y" horiz-adv-x="907" 
d="M582 0h-269v518l-323 813h278l181 -538h6l184 538h276l-333 -811v-520z" />
    <glyph glyph-name="Z" unicode="Z" horiz-adv-x="856" 
d="M813 0h-770v229l465 861h-465v241h770v-229l-465 -860h465v-242z" />
    <glyph glyph-name="bracketleft" unicode="[" horiz-adv-x="491" 
d="M469 -225h-395v1738h395v-264h-137v-1237h137v-237z" />
    <glyph glyph-name="backslash" unicode="\" horiz-adv-x="679" 
d="M645 0h-270l-342 1331h272z" />
    <glyph glyph-name="bracketright" unicode="]" horiz-adv-x="491" 
d="M23 -225v237h137v1237h-137v264h395v-1738h-395z" />
    <glyph glyph-name="asciicircum" unicode="^" horiz-adv-x="1024" 
d="M625 1083l-113 138l-113 -138h-221l141 248h386l141 -248h-221z" />
    <glyph glyph-name="underscore" unicode="_" horiz-adv-x="423" 
d="M485 -166v-240h-546v240h546z" />
    <glyph glyph-name="grave" unicode="`" horiz-adv-x="1024" 
d="M473 1083l-164 248h289l88 -248h-213z" />
    <glyph glyph-name="a" unicode="a" horiz-adv-x="892" 
d="M281 -8q-117 0 -169.5 59.5t-52.5 161.5v543q0 223 222 223q158 0 290 -86l9 78h245v-971h-243l-11 76q-5 -3 -18 -11t-42 -21t-62 -24t-78.5 -19.5t-89.5 -8.5zM311 227h260v512h-260v-512z" />
    <glyph glyph-name="b" unicode="b" horiz-adv-x="892" 
d="M70 0v1366h252v-473q132 86 292 86q220 0 220 -223v-543q0 -102 -54 -161.5t-166 -59.5q-152 0 -292 84l-11 -76h-241zM322 227h260v512h-260v-512z" />
    <glyph glyph-name="c" unicode="c" horiz-adv-x="847" 
d="M297 0q-108 0 -173 59t-65 174v504q0 113 62.5 173.5t177.5 60.5h252q244 0 244 -250v-100h-246v118h-244v-512h244v156h246v-147q0 -111 -62 -173.5t-186 -62.5h-250z" />
    <glyph glyph-name="d" unicode="d" horiz-adv-x="892" 
d="M281 -8q-117 0 -169.5 59.5t-52.5 161.5v543q0 223 222 223q158 0 290 -86v473h254v-1366h-243l-11 76q-5 -3 -18 -11t-42 -21t-62 -24t-78.5 -19.5t-89.5 -8.5zM311 227h260v512h-260v-512z" />
    <glyph glyph-name="e" unicode="e" horiz-adv-x="862" 
d="M303 0q-119 0 -181.5 63t-62.5 187v471q0 120 61.5 185t178.5 65h266q238 0 238 -246v-324h-496v-190h252v84h244v-51q0 -244 -238 -244h-262zM559 752h-252v-197h252v197z" />
    <glyph glyph-name="f" unicode="f" horiz-adv-x="598" 
d="M156 0v739h-136v232h136v166q0 118 44.5 173.5t170.5 55.5h250l-21 -229h-192v-166h170v-232h-170v-739h-252z" />
    <glyph glyph-name="g" unicode="g" horiz-adv-x="890" 
d="M217 -326l19 215h335v189q-12 -9 -41 -24t-100.5 -35.5t-144.5 -20.5q-226 0 -226 219v539q0 223 226 223q150 0 288 -86l9 78h241v-1061q0 -124 -51.5 -180t-171.5 -56h-383zM313 227h258v512h-258v-512z" />
    <glyph glyph-name="h" unicode="h" 
d="M815 764v-764h-252v739h-239v-739h-254v1366h254v-475q143 88 288 88q108 0 155.5 -52.5t47.5 -162.5z" />
    <glyph glyph-name="i" unicode="i" horiz-adv-x="395" 
d="M70 1075v219h254v-219h-254zM70 0v971h254v-971h-254z" />
    <glyph glyph-name="j" unicode="j" horiz-adv-x="413" 
d="M342 1294v-217h-252v217h252zM90 971h252v-1061q0 -124 -51 -180t-170 -56h-250l20 217h199v1080z" />
    <glyph glyph-name="k" unicode="k" horiz-adv-x="860" 
d="M70 0v1366h254v-743h30l189 348h291l-263 -447v-20l289 -504h-291l-215 383h-30v-383h-254z" />
    <glyph glyph-name="l" unicode="l" horiz-adv-x="395" 
d="M72 0v1366h252v-1366h-252z" />
    <glyph glyph-name="m" unicode="m" horiz-adv-x="1327" 
d="M68 0v971h243l8 -80q143 88 277 88q77 0 120 -25t62 -77q55 47 130 74.5t155 27.5q105 0 152 -52t47 -163v-764h-252v739h-219v-739h-252v739h-217v-739h-254z" />
    <glyph glyph-name="n" unicode="n" horiz-adv-x="876" 
d="M68 0v971h241l10 -80q147 88 291 88q108 0 155.5 -53t47.5 -164v-762h-252v739h-239v-739h-254z" />
    <glyph glyph-name="o" unicode="o" horiz-adv-x="872" 
d="M293 0q-105 0 -169.5 63t-64.5 185v475q0 123 63 185.5t175 62.5h274q240 0 240 -254v-465q0 -252 -244 -252h-274zM307 225h256v514h-256v-514z" />
    <glyph glyph-name="p" unicode="p" horiz-adv-x="892" 
d="M68 -326v1297h243l8 -78q132 86 293 86q219 0 219 -223v-543q0 -103 -53 -162t-166 -59q-44 0 -89.5 8.5t-78.5 19.5t-62 24t-42 21t-18 11v-402h-254zM322 227h258v512h-258v-512z" />
    <glyph glyph-name="q" unicode="q" horiz-adv-x="892" 
d="M825 -326h-254v402q-5 -3 -18 -11t-42 -21t-62 -24t-78.5 -19.5t-89.5 -8.5q-113 0 -167.5 59.5t-54.5 161.5v543q0 223 222 223q160 0 292 -86l9 78h243v-1297zM571 227v512h-260v-512h260z" />
    <glyph glyph-name="r" unicode="r" horiz-adv-x="618" 
d="M68 0v971h243l8 -86q46 35 119.5 64.5t161.5 29.5l-20 -244h-258v-735h-254z" />
    <glyph glyph-name="s" unicode="s" horiz-adv-x="827" 
d="M281 0q-228 0 -228 213v98h240v-98h239v117l-356 129q-68 27 -95.5 66t-27.5 116v123q0 207 228 207h262q122 0 176.5 -53t54.5 -162v-88h-242v90h-239v-111l352 -125q75 -28 102 -67.5t27 -124.5v-121q0 -97 -58.5 -153t-170.5 -56h-264z" />
    <glyph glyph-name="t" unicode="t" horiz-adv-x="573" 
d="M287 0q-118 0 -169.5 57.5t-51.5 173.5v961h249v-221h217l-20 -232h-197v-510h211v-229h-239z" />
    <glyph glyph-name="u" unicode="u" 
d="M809 971v-971h-242l-10 78q-138 -86 -289 -86q-107 0 -156 51.5t-49 153.5v774h254v-742h240v742h252z" />
    <glyph glyph-name="v" unicode="v" horiz-adv-x="833" 
d="M242 0l-238 971h258l148 -740h14l143 740h260l-235 -971h-350z" />
    <glyph glyph-name="w" unicode="w" horiz-adv-x="1298" 
d="M199 0l-195 971h252l117 -738h6l129 738h280l138 -738h6l110 738h252l-192 -971h-328l-123 657h-6l-113 -657h-333z" />
    <glyph glyph-name="x" unicode="x" horiz-adv-x="858" 
d="M567 0l-143 315l-141 -315h-271l260 500l-254 471h279l137 -309l127 309h273l-246 -477l258 -494h-279z" />
    <glyph glyph-name="y" unicode="y" horiz-adv-x="876" 
d="M63 203v768h252v-742h240v742h254v-1061q0 -124 -52 -180t-171 -56h-371l21 215h319v189q-137 -80 -289 -80q-105 0 -154 51.5t-49 153.5z" />
    <glyph glyph-name="z" unicode="z" horiz-adv-x="782" 
d="M51 0v217l379 522h-379v232h680v-219l-381 -523h381v-229h-680z" />
    <glyph glyph-name="braceleft" unicode="{" horiz-adv-x="516" 
d="M106 1022v256q0 123 58 179t174 56h156v-262h-138v-252q0 -187 -14.5 -259t-65.5 -97q51 -25 65.5 -97t14.5 -259v-275h138v-237h-146q-242 0 -242 258v231q0 172 -5 203q-8 51 -42 63q-16 5 -43 5v217q66 0 78.5 32.5t11.5 171.5v66z" />
    <glyph glyph-name="bar" unicode="|" horiz-adv-x="456" 
d="M100 -342v1878h256v-1878h-256z" />
    <glyph glyph-name="braceright" unicode="}" horiz-adv-x="516" 
d="M410 1022v-66q-1 -138 11.5 -171t78.5 -33v-217q-65 0 -77.5 -38t-12.5 -186v-47v-231q0 -258 -242 -258h-145v237h137v275q0 187 14.5 259t65.5 97q-51 25 -65.5 97t-14.5 259v252h-137v262h155q116 0 174 -56t58 -179v-256z" />
    <glyph glyph-name="asciitilde" unicode="~" horiz-adv-x="1024" 
d="M215 1190q35 93 78 129.5t113 36.5q85 0 157 -47l90 -49l62 92h190l-49 -125q-35 -92 -76.5 -127t-111.5 -35q-75 0 -158 45l-90 49l-62 -92h-192z" />
    <glyph glyph-name="nbspace" unicode="&#xa0;" horiz-adv-x="423" 
 />
    <glyph glyph-name="exclamdown" unicode="&#xa1;" horiz-adv-x="403" 
d="M70 1102v229h262v-229h-262zM332 989v-989h-262v989h262z" />
    <glyph glyph-name="cent" unicode="&#xa2;" horiz-adv-x="843" 
d="M301 240q-108 0 -171.5 59t-63.5 174v379q0 113 60.5 173t174.5 60v158h242v-158h2q127 0 185 -62.5t58 -184.5v-88h-245v102h-232v-385h232v133h245v-127q0 -110 -61 -171.5t-184 -61.5v-152h-242v152z" />
    <glyph glyph-name="sterling" unicode="&#xa3;" horiz-adv-x="1032" 
d="M160 244v307h-115v242h115v284q0 126 57 190t164 64h305l27 -244h-289v-294h129v-242h-129v-307h299v174h262v-166q0 -119 -56.5 -185.5t-172.5 -66.5h-346q-71 0 -119 39q-48 -39 -113 -39h-129l-24 244h135z" />
    <glyph glyph-name="currency" unicode="&#xa4;" horiz-adv-x="724" 
d="M252 240h-211l84 188q-27 50 -27 129v152q0 78 29 131l-80 182h217l37 -102h127l33 102h211l-78 -182q29 -53 29 -135v-148q0 -69 -23 -123l84 -194h-219l-37 102h-139zM293 729v-201h135v201h-135z" />
    <glyph glyph-name="yen" unicode="&#xa5;" horiz-adv-x="907" 
d="M135 90v242h178v100h-178v242h117l-262 657h278l181 -538h6l184 538h276l-270 -657h117v-242h-180v-100h180v-242h-180v-90h-269v90h-178z" />
    <glyph glyph-name="brokenbar" unicode="&#xa6;" horiz-adv-x="456" 
d="M356 1536v-856h-256v856h256zM356 571v-913h-256v913h256z" />
    <glyph glyph-name="section" unicode="&#xa7;" horiz-adv-x="884" 
d="M598 -313h-307q-122 0 -173.5 60.5t-51.5 189.5v73h262v-90h227v131l-358 176q-74 35 -102.5 83.5t-28.5 140.5v112q0 80 25.5 128.5t82.5 72.5l33 4l-64 47q-44 32 -60.5 72.5t-16.5 113.5v127q0 119 55 174.5t166 55.5h307q122 0 173.5 -60t51.5 -190v-74h-262v90h-227
v-129l358 -178q73 -36 102 -84.5t29 -142.5v-109q0 -79 -24 -125.5t-82 -70.5l-35 -9l67 -47q42 -36 58 -75.5t16 -110.5v-125q0 -121 -55 -176t-166 -55zM319 434h246v178h-246v-178z" />
    <glyph glyph-name="dieresis" unicode="&#xa8;" horiz-adv-x="1024" 
d="M254 1094v227h219v-227h-219zM551 1094v227h219v-227h-219z" />
    <glyph glyph-name="copyright" unicode="&#xa9;" horiz-adv-x="1536" 
d="M1300 -223h-1050q-76 0 -125 42.5t-49 127.5v1241q0 143 147 143h1094q141 0 141 -143v-1241q0 -80 -45 -125t-113 -45zM1268 -53v1214h-1002v-1214h1002zM903 477h236v-188q0 -217 -226 -217h-292q-110 0 -168 56t-58 169v500q0 128 53 183.5t162 55.5h308
q122 0 171.5 -54.5t49.5 -178.5v-141h-236v147h-272v-514h272v182z" />
    <glyph glyph-name="ordfeminine" unicode="&#xaa;" horiz-adv-x="694" 
d="M225 662q-170 0 -170 161v353q0 161 170 161q113 0 207 -63l6 57h197v-663h-197l-6 57q-7 -7 -31.5 -20t-75 -28t-100.5 -15zM258 842h174v313h-174v-313z" />
    <glyph glyph-name="guillemotleft" unicode="&#xab;" horiz-adv-x="923" 
d="M446 377v-221l-405 252v178l405 266v-221l-202 -133zM870 377v-221l-405 252v178l405 266v-221l-202 -133z" />
    <glyph glyph-name="logicalnot" unicode="&#xac;" horiz-adv-x="733" 
d="M680 745v-460h-225v219h-402v241h627z" />
    <glyph glyph-name="registered" unicode="&#xae;" horiz-adv-x="1536" 
d="M1300 -223h-1050q-76 0 -125 42.5t-49 127.5v1241q0 143 147 143h1094q141 0 141 -143v-1241q0 -80 -45 -125t-113 -45zM266 -53h1002v1214h-1002v-1214zM641 70h-238v966h560q90 0 131 -51t41 -151v-252q0 -116 -68 -158q68 -42 68 -164v-190h-240v249h-254v-249z
M641 526h258v289h-258v-289z" />
    <glyph glyph-name="macron" unicode="&#xaf;" horiz-adv-x="1024" 
d="M270 1112v186h484v-186h-484z" />
    <glyph glyph-name="macron" unicode="&#x2c9;" horiz-adv-x="1024" 
d="M270 1112v186h484v-186h-484z" />
    <glyph glyph-name="degree" unicode="&#xb0;" horiz-adv-x="528" 
d="M209 893q-76 0 -120 41t-44 127v108q0 162 168 162h100q170 0 170 -170v-96q0 -172 -168 -172h-106zM211 1042h106v138h-106v-138z" />
    <glyph glyph-name="plusminus" unicode="&#xb1;" horiz-adv-x="733" 
d="M53 532v242h199v225h227v-225h201v-242h-201v-217h-227v217h-199zM53 47v225h627v-225h-627z" />
    <glyph glyph-name="two.sups" unicode="&#xb2;" horiz-adv-x="616" 
d="M582 700v-168h-539v107l346 444v80h-158v-92h-192v94q0 81 40.5 123.5t135.5 42.5h186q179 0 179 -168v-55q0 -38 -13.5 -67.5t-44.5 -65.5l-213 -275h273z" />
    <glyph glyph-name="three.sups" unicode="&#xb3;" horiz-adv-x="630" 
d="M397 866h-180v150h176v147h-164v-78h-188v72q0 85 41 129.5t137 44.5h187q100 0 139 -45.5t39 -126.5v-123q0 -65 -43 -90q47 -23 47 -102v-152q0 -77 -42.5 -118.5t-125.5 -41.5h-215q-81 0 -122.5 44.5t-41.5 119.5v99h188v-95h168v166z" />
    <glyph glyph-name="acute" unicode="&#xb4;" horiz-adv-x="1024" 
d="M563 1083h-213l88 248h289z" />
    <glyph glyph-name="mu" unicode="&#xb5;" horiz-adv-x="880" 
d="M559 78q-117 -70 -240 -78v-326h-251v1297h251v-742h240v742h254v-971h-244z" />
    <glyph glyph-name="mu" unicode="&#x3bc;" horiz-adv-x="880" 
d="M559 78q-117 -70 -240 -78v-326h-251v1297h251v-742h240v742h254v-971h-244z" />
    <glyph glyph-name="paragraph" unicode="&#xb6;" horiz-adv-x="1153" 
d="M864 0v1108h-127v-1108h-219v399h-254q-102 0 -153.5 65t-51.5 157v473q0 119 38.5 178t138.5 59h847v-1331h-219z" />
    <glyph glyph-name="periodcentered" unicode="&#xb7;" horiz-adv-x="391" 
d="M330 786v-235h-267v235h267z" />
    <glyph glyph-name="periodcentered" unicode="&#x2219;" horiz-adv-x="391" 
d="M330 786v-235h-267v235h267z" />
    <glyph glyph-name="cedilla" unicode="&#xb8;" horiz-adv-x="1024" 
d="M440 14h144v-43q77 0 112 -31.5t35 -103.5v-22q0 -76 -36 -113t-117 -37h-115q-148 0 -148 135v45h154v-51h106v66q-74 0 -104.5 27.5t-30.5 88.5v39z" />
    <glyph glyph-name="one.sups" unicode="&#xb9;" horiz-adv-x="423" 
d="M362 532h-194v527q-19 -31 -55.5 -47.5t-75.5 -18.5v174q58 5 94.5 48t36.5 116h194v-799z" />
    <glyph glyph-name="ordmasculine" unicode="&#xba;" horiz-adv-x="688" 
d="M238 659q-83 0 -133 47t-50 140v301q0 93 48 138.5t137 45.5h200q191 0 191 -186v-293q0 -193 -189 -193h-204zM256 838h174v315h-174v-315z" />
    <glyph glyph-name="guillemotright" unicode="&#xbb;" horiz-adv-x="923" 
d="M475 631v221l406 -252v-178l-406 -266v221l203 133zM51 631v221l406 -252v-178l-406 -266v221l203 133z" />
    <glyph glyph-name="onequarter" unicode="&#xbc;" horiz-adv-x="1349" 
d="M362 532h-194v527q-19 -31 -55.5 -47.5t-75.5 -18.5v174q58 5 94.5 48t36.5 116h194v-799zM217 0l535 1331h217l-533 -1331h-219zM1225 0h-193v113h-348v166l277 520h264v-512h88v-174h-88v-113zM1036 590q-20 -60 -37 -94l-102 -209h135v211q0 56 4 92z" />
    <glyph glyph-name="onehalf" unicode="&#xbd;" horiz-adv-x="1374" 
d="M362 532h-194v527q-19 -31 -55.5 -47.5t-75.5 -18.5v174q58 5 94.5 48t36.5 116h194v-799zM217 0l535 1331h217l-533 -1331h-219zM1319 168v-168h-539v106l346 445v80h-157v-92h-193v94q0 81 40.5 123.5t135.5 42.5h187q178 0 178 -168v-56q0 -38 -13.5 -68t-43.5 -65
l-213 -274h272z" />
    <glyph glyph-name="threequarters" unicode="&#xbe;" horiz-adv-x="1533" 
d="M397 866h-180v150h176v147h-164v-78h-188v72q0 85 41 129.5t137 44.5h187q100 0 139 -45.5t39 -126.5v-123q0 -65 -43 -90q47 -23 47 -102v-152q0 -77 -42.5 -118.5t-125.5 -41.5h-215q-81 0 -122.5 44.5t-41.5 119.5v99h188v-95h168v166zM403 0l535 1331h217l-532 -1331
h-220zM1409 0h-192v113h-349v166l277 520h264v-512h88v-174h-88v-113zM1221 590q-20 -60 -37 -94l-103 -209h136v211q0 56 4 92z" />
    <glyph glyph-name="questiondown" unicode="&#xbf;" horiz-adv-x="958" 
d="M356 1102v229h262v-229h-262zM301 0q-112 0 -170.5 57.5t-58.5 192.5v348q0 105 47 151t139 46h98v194h262v-407h-284v-338h309v188h264v-176q0 -256 -231 -256h-375z" />
    <glyph glyph-name="Agrave" unicode="&#xc0;" horiz-adv-x="972" 
d="M418 1405l-164 248h289l88 -248h-213zM682 0l-43 258h-303l-43 -258h-273l246 1331h447l241 -1331h-272zM473 1090l-98 -601h227l-98 601h-31z" />
    <glyph glyph-name="Aacute" unicode="&#xc1;" horiz-adv-x="972" 
d="M557 1405h-213l88 248h289zM682 0l-43 258h-303l-43 -258h-273l246 1331h447l241 -1331h-272zM473 1090l-98 -601h227l-98 601h-31z" />
    <glyph glyph-name="Acircumflex" unicode="&#xc2;" horiz-adv-x="972" 
d="M569 1405l-82 111l-81 -111h-191l115 248h315l115 -248h-191zM682 0l-43 258h-303l-43 -258h-273l246 1331h447l241 -1331h-272zM473 1090l-98 -601h227l-98 601h-31z" />
    <glyph glyph-name="Atilde" unicode="&#xc3;" horiz-adv-x="972" 
d="M760 1538q0 -133 -115 -133h-96q-51 0 -79.5 17.5t-47.5 56.5l-23 55h-30v-121h-158v125q0 65 31 99t86 34h94q96 0 131 -86l18 -43h31v121h158v-125zM682 0l-43 258h-303l-43 -258h-273l246 1331h447l241 -1331h-272zM473 1090l-98 -601h227l-98 601h-31z" />
    <glyph glyph-name="Adieresis" unicode="&#xc4;" horiz-adv-x="972" 
d="M229 1415v227h220v-227h-220zM526 1415v227h219v-227h-219zM682 0l-43 258h-303l-43 -258h-273l246 1331h447l241 -1331h-272zM473 1090l-98 -601h227l-98 601h-31z" />
    <glyph glyph-name="Aring" unicode="&#xc5;" horiz-adv-x="972" 
d="M682 0l-43 258h-303l-43 -258h-273l244 1321q-2 8 -2 31v104q0 77 41.5 117.5t120.5 40.5h131q80 0 120 -43t40 -123v-94q0 -19 -2 -27l241 -1327h-272zM430 1333h117v137h-117v-137zM473 1090l-98 -601h227l-98 601h-31z" />
    <glyph glyph-name="AE" unicode="&#xc6;" horiz-adv-x="1359" 
d="M596 0v258h-248l-65 -258h-281l352 1331h961v-237h-451v-312h324v-235h-324v-309h451v-238h-719zM561 1094l-153 -605h188v605h-35z" />
    <glyph glyph-name="Ccedilla" unicode="&#xc7;" horiz-adv-x="952" 
d="M633 522h266v-270q0 -113 -53.5 -182.5t-177.5 -69.5h-121v-29q77 0 112 -31.5t35 -103.5v-22q0 -76 -36 -113t-117 -37h-115q-147 0 -147 135v45h153v-51h107v66q-74 0 -105 27.5t-31 88.5v25h-104q-110 0 -170.5 61.5t-60.5 184.5v858q0 119 56.5 173t164.5 54h381
q128 0 178.5 -62t50.5 -196v-194h-266v208h-299v-843h299v278z" />
    <glyph glyph-name="Egrave" unicode="&#xc8;" horiz-adv-x="835" 
d="M362 1405l-163 248h288l88 -248h-213zM72 0v1331h719v-237h-451v-312h324v-235h-324v-309h451v-238h-719z" />
    <glyph glyph-name="Eacute" unicode="&#xc9;" horiz-adv-x="835" 
d="M502 1405h-213l88 248h289zM72 0v1331h719v-237h-451v-312h324v-235h-324v-309h451v-238h-719z" />
    <glyph glyph-name="Ecircumflex" unicode="&#xca;" horiz-adv-x="835" 
d="M514 1405l-82 111l-82 -111h-190l114 248h316l115 -248h-191zM72 0v1331h719v-237h-451v-312h324v-235h-324v-309h451v-238h-719z" />
    <glyph glyph-name="Edieresis" unicode="&#xcb;" horiz-adv-x="835" 
d="M174 1415v227h219v-227h-219zM471 1415v227h219v-227h-219zM72 0v1331h719v-237h-451v-312h324v-235h-324v-309h451v-238h-719z" />
    <glyph glyph-name="Igrave" unicode="&#xcc;" horiz-adv-x="430" 
d="M145 1405l-163 248h288l88 -248h-213zM82 0v1331h268v-1331h-268z" />
    <glyph glyph-name="Iacute" unicode="&#xcd;" horiz-adv-x="430" 
d="M285 1405h-213l88 248h289zM82 0v1331h268v-1331h-268z" />
    <glyph glyph-name="Icircumflex" unicode="&#xce;" horiz-adv-x="430" 
d="M297 1405l-82 111l-82 -111h-190l114 248h316l114 -248h-190zM82 0v1331h268v-1331h-268z" />
    <glyph glyph-name="Idieresis" unicode="&#xcf;" horiz-adv-x="430" 
d="M-43 1415v227h219v-227h-219zM254 1415v227h219v-227h-219zM82 0v1331h268v-1331h-268z" />
    <glyph glyph-name="Eth" unicode="&#xd0;" horiz-adv-x="1013" 
d="M109 0v543h-93v243h93v545h632q115 0 160 -67t45 -201v-811q0 -106 -56.5 -179t-172.5 -73h-608zM375 244h305v843h-305v-301h129v-243h-129v-299z" />
    <glyph glyph-name="Ntilde" unicode="&#xd1;" horiz-adv-x="1050" 
d="M815 1538q0 -133 -115 -133h-96q-51 0 -79.5 17.5t-47.5 56.5l-22 55h-31v-121h-158v125q0 65 31 99t86 34h94q96 0 131 -86l19 -43h30v121h158v-125zM979 0h-346l-211 524q-62 155 -131 443q12 -316 12 -396v-571h-231v1331h323l223 -581q66 -168 144 -465
q-14 364 -14 409v637h231v-1331z" />
    <glyph glyph-name="Ograve" unicode="&#xd2;" horiz-adv-x="993" 
d="M418 1405l-164 248h289l88 -248h-213zM291 0q-100 0 -161.5 62t-61.5 182v854q0 114 56 173.5t157 59.5h426q116 0 167.5 -64.5t51.5 -193.5v-819q0 -117 -60 -185.5t-170 -68.5h-405zM334 244h323v843h-323v-843z" />
    <glyph glyph-name="Oacute" unicode="&#xd3;" horiz-adv-x="993" 
d="M575 1405h-213l89 248h288zM291 0q-100 0 -161.5 62t-61.5 182v854q0 114 56 173.5t157 59.5h426q116 0 167.5 -64.5t51.5 -193.5v-819q0 -117 -60 -185.5t-170 -68.5h-405zM334 244h323v843h-323v-843z" />
    <glyph glyph-name="Ocircumflex" unicode="&#xd4;" horiz-adv-x="993" 
d="M578 1405l-82 111l-82 -111h-191l115 248h315l115 -248h-190zM291 0q-100 0 -161.5 62t-61.5 182v854q0 114 56 173.5t157 59.5h426q116 0 167.5 -64.5t51.5 -193.5v-819q0 -117 -60 -185.5t-170 -68.5h-405zM334 244h323v843h-323v-843z" />
    <glyph glyph-name="Otilde" unicode="&#xd5;" horiz-adv-x="993" 
d="M768 1538q0 -133 -115 -133h-96q-51 0 -79.5 17.5t-47.5 56.5l-22 55h-31v-121h-158v125q0 65 31 99t86 34h94q96 0 131 -86l19 -43h30v121h158v-125zM291 0q-100 0 -161.5 62t-61.5 182v854q0 114 56 173.5t157 59.5h426q116 0 167.5 -64.5t51.5 -193.5v-819
q0 -117 -60 -185.5t-170 -68.5h-405zM334 244h323v843h-323v-843z" />
    <glyph glyph-name="Odieresis" unicode="&#xd6;" horiz-adv-x="993" 
d="M238 1415v227h219v-227h-219zM535 1415v227h219v-227h-219zM291 0q-100 0 -161.5 62t-61.5 182v854q0 114 56 173.5t157 59.5h426q116 0 167.5 -64.5t51.5 -193.5v-819q0 -117 -60 -185.5t-170 -68.5h-405zM334 244h323v843h-323v-843z" />
    <glyph glyph-name="multiply" unicode="&#xd7;" horiz-adv-x="733" 
d="M209 1014l158 -207l159 207l162 -133l-188 -248l186 -244l-164 -135l-155 203l-156 -203l-164 133l186 244l-190 248z" />
    <glyph glyph-name="Oslash" unicode="&#xd8;" horiz-adv-x="1003" 
d="M90 -86l49 139q-71 62 -71 191v854q0 114 55 173.5t156 59.5h348l28 86h269l-50 -139q62 -62 62 -205v-819q0 -117 -59 -185.5t-170 -68.5h-320l-29 -86h-268zM328 1087v-626l227 626h-227zM676 244v614l-225 -614h225z" />
    <glyph glyph-name="Ugrave" unicode="&#xd9;" horiz-adv-x="980" 
d="M410 1405l-164 248h289l88 -248h-213zM643 1331h266v-1077q0 -117 -57.5 -185.5t-167.5 -68.5h-393q-101 0 -162 62t-61 182v1087h266v-1087h309v1087z" />
    <glyph glyph-name="Uacute" unicode="&#xda;" horiz-adv-x="980" 
d="M569 1405h-213l88 248h289zM645 1331h266v-1077q0 -117 -57.5 -185.5t-167.5 -68.5h-393q-101 0 -162 62t-61 182v1087h266v-1087h309v1087z" />
    <glyph glyph-name="Ucircumflex" unicode="&#xdb;" horiz-adv-x="980" 
d="M571 1405l-82 111l-81 -111h-191l115 248h315l115 -248h-191zM645 1331h266v-1077q0 -117 -57.5 -185.5t-167.5 -68.5h-393q-101 0 -162 62t-61 182v1087h266v-1087h309v1087z" />
    <glyph glyph-name="Udieresis" unicode="&#xdc;" horiz-adv-x="980" 
d="M231 1415v227h220v-227h-220zM528 1415v227h220v-227h-220zM645 1331h266v-1077q0 -117 -57.5 -185.5t-167.5 -68.5h-393q-101 0 -162 62t-61 182v1087h266v-1087h309v1087z" />
    <glyph glyph-name="Yacute" unicode="&#xdd;" horiz-adv-x="907" 
d="M522 1405h-213l88 248h289zM582 0h-269v518l-323 813h278l181 -538h6l184 538h276l-333 -811v-520z" />
    <glyph glyph-name="Thorn" unicode="&#xde;" horiz-adv-x="933" 
d="M72 0v1331h266v-145h375q99 0 137.5 -58.5t38.5 -185.5v-536q0 -102 -49.5 -166t-151.5 -64h-350v-176h-266zM338 410h287v534h-287v-534z" />
    <glyph glyph-name="germandbls" unicode="&#xdf;" horiz-adv-x="909" 
d="M557 1137h-238v-1137h-249v1112q0 133 55.5 193.5t189.5 60.5h236q135 0 194.5 -63.5t59.5 -198.5v-213q0 -97 -51 -133q51 -18 73.5 -62.5t22.5 -120.5v-364q0 -92 -53.5 -151.5t-161.5 -59.5h-250l21 223h196v400h-207v221h162v293z" />
    <glyph glyph-name="agrave" unicode="&#xe0;" horiz-adv-x="892" 
d="M387 1059l-164 248h289l88 -248h-213zM281 -8q-117 0 -169.5 59.5t-52.5 161.5v543q0 223 222 223q158 0 290 -86l9 78h245v-971h-243l-11 76q-5 -3 -18 -11t-42 -21t-62 -24t-78.5 -19.5t-89.5 -8.5zM311 227h260v512h-260v-512z" />
    <glyph glyph-name="aacute" unicode="&#xe1;" horiz-adv-x="892" 
d="M526 1059h-213l88 248h289zM281 -8q-117 0 -169.5 59.5t-52.5 161.5v543q0 223 222 223q158 0 290 -86l9 78h245v-971h-243l-11 76q-5 -3 -18 -11t-42 -21t-62 -24t-78.5 -19.5t-89.5 -8.5zM311 227h260v512h-260v-512z" />
    <glyph glyph-name="acircumflex" unicode="&#xe2;" horiz-adv-x="892" 
d="M539 1059l-82 110l-82 -110h-191l115 248h315l115 -248h-190zM281 -8q-117 0 -169.5 59.5t-52.5 161.5v543q0 223 222 223q158 0 290 -86l9 78h245v-971h-243l-11 76q-5 -3 -18 -11t-42 -21t-62 -24t-78.5 -19.5t-89.5 -8.5zM311 227h260v512h-260v-512z" />
    <glyph glyph-name="atilde" unicode="&#xe3;" horiz-adv-x="892" 
d="M729 1192q0 -133 -115 -133h-96q-51 0 -79.5 17.5t-47.5 56.5l-22 55h-31v-121h-158v125q0 65 31 99t86 34h94q96 0 131 -86l19 -43h30v121h158v-125zM281 -8q-117 0 -169.5 59.5t-52.5 161.5v543q0 223 222 223q158 0 290 -86l9 78h245v-971h-243l-11 76q-5 -3 -18 -11
t-42 -21t-62 -24t-78.5 -19.5t-89.5 -8.5zM311 227h260v512h-260v-512z" />
    <glyph glyph-name="adieresis" unicode="&#xe4;" horiz-adv-x="892" 
d="M199 1069v227h219v-227h-219zM496 1069v227h219v-227h-219zM281 -8q-117 0 -169.5 59.5t-52.5 161.5v543q0 223 222 223q158 0 290 -86l9 78h245v-971h-243l-11 76q-5 -3 -18 -11t-42 -21t-62 -24t-78.5 -19.5t-89.5 -8.5zM311 227h260v512h-260v-512z" />
    <glyph glyph-name="aring" unicode="&#xe5;" horiz-adv-x="892" 
d="M387 1024q-73 0 -114.5 40t-41.5 118v104q0 77 41.5 117.5t120.5 40.5h131q80 0 120 -43t40 -123v-94q0 -76 -41 -118t-119 -42h-137zM399 1163h117v137h-117v-137zM281 -8q-117 0 -169.5 59.5t-52.5 161.5v543q0 223 222 223q158 0 290 -86l9 78h245v-971h-243l-11 76
q-5 -3 -18 -11t-42 -21t-62 -24t-78.5 -19.5t-89.5 -8.5zM311 227h260v512h-260v-512z" />
    <glyph glyph-name="ae" unicode="&#xe6;" horiz-adv-x="1351" 
d="M301 555h250v166q0 21 2 31h-252v-84h-244v59q0 244 238 244h262q69 0 119 -23q54 23 115 23h266q237 0 237 -246v-324h-495v-190h252v84h243v-51q0 -244 -237 -244h-262q-72 0 -119 20q-55 -20 -115 -20h-268q-236 0 -236 229v99q0 115 59 171t185 56zM1051 752h-252
v-197h252v197zM301 211h252q-2 12 -2 39v149h-250v-188z" />
    <glyph glyph-name="ccedilla" unicode="&#xe7;" horiz-adv-x="847" 
d="M297 0q-108 0 -173 59t-65 174v504q0 113 62.5 173.5t177.5 60.5h252q244 0 244 -250v-100h-246v118h-244v-512h244v156h246v-147q0 -111 -62 -173.5t-186 -62.5h-45v-29q77 0 112 -31.5t35 -103.5v-22q0 -76 -36 -113t-117 -37h-115q-148 0 -148 135v45h154v-51h107v66
q-74 0 -105 27.5t-31 88.5v25h-61z" />
    <glyph glyph-name="egrave" unicode="&#xe8;" horiz-adv-x="862" 
d="M358 1059l-163 248h288l88 -248h-213zM303 0q-119 0 -181.5 63t-62.5 187v471q0 120 61.5 185t178.5 65h266q238 0 238 -246v-324h-496v-190h252v84h244v-51q0 -244 -238 -244h-262zM559 752h-252v-197h252v197z" />
    <glyph glyph-name="eacute" unicode="&#xe9;" horiz-adv-x="862" 
d="M498 1059h-213l88 248h289zM303 0q-119 0 -181.5 63t-62.5 187v471q0 120 61.5 185t178.5 65h266q238 0 238 -246v-324h-496v-190h252v84h244v-51q0 -244 -238 -244h-262zM559 752h-252v-197h252v197z" />
    <glyph glyph-name="ecircumflex" unicode="&#xea;" horiz-adv-x="862" 
d="M510 1059l-82 110l-82 -110h-190l114 248h316l114 -248h-190zM303 0q-119 0 -181.5 63t-62.5 187v471q0 120 61.5 185t178.5 65h266q238 0 238 -246v-324h-496v-190h252v84h244v-51q0 -244 -238 -244h-262zM559 752h-252v-197h252v197z" />
    <glyph glyph-name="edieresis" unicode="&#xeb;" horiz-adv-x="862" 
d="M170 1069v227h219v-227h-219zM467 1069v227h219v-227h-219zM303 0q-119 0 -181.5 63t-62.5 187v471q0 120 61.5 185t178.5 65h266q238 0 238 -246v-324h-496v-190h252v84h244v-51q0 -244 -238 -244h-262zM559 752h-252v-197h252v197z" />
    <glyph glyph-name="igrave" unicode="&#xec;" horiz-adv-x="395" 
d="M127 1059l-164 248h289l88 -248h-213zM70 0v971h254v-971h-254z" />
    <glyph glyph-name="iacute" unicode="&#xed;" horiz-adv-x="395" 
d="M266 1059h-213l88 248h289zM70 0v971h254v-971h-254z" />
    <glyph glyph-name="icircumflex" unicode="&#xee;" horiz-adv-x="395" 
d="M279 1059l-82 110l-82 -110h-191l115 248h315l115 -248h-190zM70 0v971h254v-971h-254z" />
    <glyph glyph-name="idieresis" unicode="&#xef;" horiz-adv-x="395" 
d="M-47 1071v227h207v-227h-207zM233 1071v227h209v-227h-209zM70 0v971h254v-971h-254z" />
    <glyph glyph-name="eth" unicode="&#xf0;" horiz-adv-x="890" 
d="M823 252q0 -252 -243 -252h-293q-103 0 -165.5 62.5t-62.5 185.5v508q0 223 222 223q156 0 290 -86v111h-36v73h36v72h-311l-18 217h358q120 0 171.5 -56t51.5 -182v-51h35v-73h-35v-752zM311 227h260v510h-260v-510z" />
    <glyph glyph-name="ntilde" unicode="&#xf1;" horiz-adv-x="876" 
d="M711 1192q0 -133 -115 -133h-96q-51 0 -79.5 17.5t-47.5 56.5l-23 55h-31v-121h-157v125q0 65 31 99t86 34h94q96 0 131 -86l18 -43h31v121h158v-125zM68 0v971h241l10 -80q147 88 291 88q108 0 155.5 -53t47.5 -164v-762h-252v739h-239v-739h-254z" />
    <glyph glyph-name="ograve" unicode="&#xf2;" horiz-adv-x="872" 
d="M365 1059l-164 248h288l89 -248h-213zM293 0q-105 0 -169.5 63t-64.5 185v475q0 123 63 185.5t175 62.5h274q240 0 240 -254v-465q0 -252 -244 -252h-274zM307 225h256v514h-256v-514z" />
    <glyph glyph-name="oacute" unicode="&#xf3;" horiz-adv-x="872" 
d="M504 1059h-213l88 248h289zM293 0q-105 0 -169.5 63t-64.5 185v475q0 123 63 185.5t175 62.5h274q240 0 240 -254v-465q0 -252 -244 -252h-274zM307 225h256v514h-256v-514z" />
    <glyph glyph-name="ocircumflex" unicode="&#xf4;" horiz-adv-x="872" 
d="M516 1059l-82 110l-82 -110h-190l114 248h316l115 -248h-191zM293 0q-105 0 -169.5 63t-64.5 185v475q0 123 63 185.5t175 62.5h274q240 0 240 -254v-465q0 -252 -244 -252h-274zM307 225h256v514h-256v-514z" />
    <glyph glyph-name="otilde" unicode="&#xf5;" horiz-adv-x="872" 
d="M707 1192q0 -133 -115 -133h-96q-51 0 -79.5 17.5t-47.5 56.5l-23 55h-31v-121h-157v125q0 65 30.5 99t85.5 34h95q96 0 131 -86l18 -43h31v121h158v-125zM293 0q-105 0 -169.5 63t-64.5 185v475q0 123 63 185.5t175 62.5h274q240 0 240 -254v-465q0 -252 -244 -252h-274
zM307 225h256v514h-256v-514z" />
    <glyph glyph-name="odieresis" unicode="&#xf6;" horiz-adv-x="872" 
d="M176 1069v227h219v-227h-219zM473 1069v227h219v-227h-219zM293 0q-105 0 -169.5 63t-64.5 185v475q0 123 63 185.5t175 62.5h274q240 0 240 -254v-465q0 -252 -244 -252h-274zM307 225h256v514h-256v-514z" />
    <glyph glyph-name="divide" unicode="&#xf7;" horiz-adv-x="733" 
d="M479 1020v-195h-225v195h225zM53 504v241h627v-241h-627zM254 424h225v-195h-225v195z" />
    <glyph glyph-name="oslash" unicode="&#xf8;" horiz-adv-x="872" 
d="M88 -74l55 119q-84 64 -84 203v475q0 123 63 185.5t175 62.5h217l27 73h254l-50 -131q66 -63 66 -196v-465q0 -252 -244 -252h-194l-29 -74h-256zM307 739v-424l166 424h-166zM563 225v412l-164 -412h164z" />
    <glyph glyph-name="ugrave" unicode="&#xf9;" 
d="M367 1059l-164 248h289l88 -248h-213zM809 971v-971h-242l-10 78q-138 -86 -289 -86q-107 0 -156 51.5t-49 153.5v774h254v-742h240v742h252z" />
    <glyph glyph-name="uacute" unicode="&#xfa;" 
d="M506 1059h-213l88 248h289zM809 971v-971h-242l-10 78q-138 -86 -289 -86q-107 0 -156 51.5t-49 153.5v774h254v-742h240v742h252z" />
    <glyph glyph-name="ucircumflex" unicode="&#xfb;" 
d="M518 1059l-82 110l-82 -110h-190l115 248h315l115 -248h-191zM809 971v-971h-242l-10 78q-138 -86 -289 -86q-107 0 -156 51.5t-49 153.5v774h254v-742h240v742h252z" />
    <glyph glyph-name="udieresis" unicode="&#xfc;" 
d="M178 1069v227h219v-227h-219zM475 1069v227h219v-227h-219zM809 971v-971h-242l-10 78q-138 -86 -289 -86q-107 0 -156 51.5t-49 153.5v774h254v-742h240v742h252z" />
    <glyph glyph-name="yacute" unicode="&#xfd;" horiz-adv-x="876" 
d="M508 1059h-213l88 248h289zM63 203v768h252v-742h240v742h254v-1061q0 -124 -52 -180t-171 -56h-371l21 215h319v189q-137 -80 -289 -80q-105 0 -154 51.5t-49 153.5z" />
    <glyph glyph-name="thorn" unicode="&#xfe;" horiz-adv-x="899" 
d="M68 -326v1692h249v-473q57 37 136.5 61.5t160.5 24.5q226 0 226 -223v-543q0 -102 -56 -161.5t-170 -59.5q-70 0 -145 22t-102.5 36t-47.5 26v-402h-251zM319 227h261v512h-261v-512z" />
    <glyph glyph-name="ydieresis" unicode="&#xff;" horiz-adv-x="876" 
d="M180 1069v227h219v-227h-219zM477 1069v227h219v-227h-219zM63 203v768h252v-742h240v742h254v-1061q0 -124 -52 -180t-171 -56h-371l21 215h319v189q-137 -80 -289 -80q-105 0 -154 51.5t-49 153.5z" />
    <glyph glyph-name="Amacron" unicode="&#x100;" horiz-adv-x="972" 
d="M246 1434v186h483v-186h-483zM682 0l-43 258h-303l-43 -258h-273l246 1331h447l241 -1331h-272zM473 1090l-98 -601h227l-98 601h-31z" />
    <glyph glyph-name="amacron" unicode="&#x101;" horiz-adv-x="892" 
d="M215 1087v187h483v-187h-483zM281 -8q-117 0 -169.5 59.5t-52.5 161.5v543q0 223 222 223q158 0 290 -86l9 78h245v-971h-243l-11 76q-5 -3 -18 -11t-42 -21t-62 -24t-78.5 -19.5t-89.5 -8.5zM311 227h260v512h-260v-512z" />
    <glyph glyph-name="Abreve" unicode="&#x102;" horiz-adv-x="972" 
d="M231 1657h177v-92h159v92h176v-107q0 -83 -38.5 -119t-118.5 -36h-195q-80 0 -120 36.5t-40 118.5v107zM682 0l-43 258h-303l-43 -258h-273l246 1331h447l241 -1331h-272zM473 1090l-98 -601h227l-98 601h-31z" />
    <glyph glyph-name="abreve" unicode="&#x103;" horiz-adv-x="892" 
d="M201 1311h176v-92h160v92h176v-107q0 -83 -39 -119t-119 -36h-195q-80 0 -119.5 36t-39.5 119v107zM281 -8q-117 0 -169.5 59.5t-52.5 161.5v543q0 223 222 223q158 0 290 -86l9 78h245v-971h-243l-11 76q-5 -3 -18 -11t-42 -21t-62 -24t-78.5 -19.5t-89.5 -8.5zM311 227
h260v512h-260v-512z" />
    <glyph glyph-name="Aogonek" unicode="&#x104;" horiz-adv-x="972" 
d="M682 0l-43 258h-303l-43 -258h-273l246 1331h447l241 -1333l-233 -135v-60h106v56h152v-52q0 -133 -145 -133h-113q-152 0 -152 138v24q0 49 15 74t51 53zM473 1090l-98 -601h227l-98 601h-31z" />
    <glyph glyph-name="aogonek" unicode="&#x105;" horiz-adv-x="892" 
d="M281 -8q-117 0 -169.5 59.5t-52.5 161.5v543q0 223 222 223q158 0 290 -86l9 78h245v-985l-233 -123v-60h108v56h152v-52q0 -133 -145 -133h-115q-152 0 -152 138v24q0 47 20.5 75t63.5 52l58 33l-11 80q-5 -3 -18 -11t-42 -21t-62 -24t-78.5 -19.5t-89.5 -8.5zM311 227
h260v512h-260v-512z" />
    <glyph glyph-name="Cacute" unicode="&#x106;" horiz-adv-x="952" 
d="M555 1405h-213l88 248h289zM633 522h266v-270q0 -113 -53.5 -182.5t-177.5 -69.5h-369q-110 0 -170.5 61.5t-60.5 184.5v858q0 119 56.5 173t164.5 54h381q128 0 178.5 -62t50.5 -196v-194h-266v208h-299v-843h299v278z" />
    <glyph glyph-name="cacute" unicode="&#x107;" horiz-adv-x="847" 
d="M494 1059h-213l88 248h288zM297 0q-108 0 -173 59t-65 174v504q0 113 62.5 173.5t177.5 60.5h252q244 0 244 -250v-100h-246v118h-244v-512h244v156h246v-147q0 -111 -62 -173.5t-186 -62.5h-250z" />
    <glyph glyph-name="Ccircumflex" unicode="&#x108;" horiz-adv-x="952" 
d="M561 1405l-82 111l-82 -111h-190l115 248h315l115 -248h-191zM633 522h266v-270q0 -113 -53.5 -182.5t-177.5 -69.5h-369q-110 0 -170.5 61.5t-60.5 184.5v858q0 119 56.5 173t164.5 54h381q128 0 178.5 -62t50.5 -196v-194h-266v208h-299v-843h299v278z" />
    <glyph glyph-name="ccircumflex" unicode="&#x109;" horiz-adv-x="847" 
d="M506 1059l-82 110l-82 -110h-190l114 248h316l114 -248h-190zM297 0q-108 0 -173 59t-65 174v504q0 113 62.5 173.5t177.5 60.5h252q244 0 244 -250v-100h-246v118h-244v-512h244v156h246v-147q0 -111 -62 -173.5t-186 -62.5h-250z" />
    <glyph glyph-name="Cdotaccent" unicode="&#x10a;" horiz-adv-x="952" 
d="M360 1417v225h238v-225h-238zM633 522h266v-270q0 -113 -53.5 -182.5t-177.5 -69.5h-369q-110 0 -170.5 61.5t-60.5 184.5v858q0 119 56.5 173t164.5 54h381q128 0 178.5 -62t50.5 -196v-194h-266v208h-299v-843h299v278z" />
    <glyph glyph-name="cdotaccent" unicode="&#x10b;" horiz-adv-x="847" 
d="M305 1071v225h238v-225h-238zM297 0q-108 0 -173 59t-65 174v504q0 113 62.5 173.5t177.5 60.5h252q244 0 244 -250v-100h-246v118h-244v-512h244v156h246v-147q0 -111 -62 -173.5t-186 -62.5h-250z" />
    <glyph glyph-name="Ccaron" unicode="&#x10c;" horiz-adv-x="952" 
d="M205 1653h190l84 -119l84 119h191l-103 -248h-344zM633 522h266v-270q0 -113 -53.5 -182.5t-177.5 -69.5h-369q-110 0 -170.5 61.5t-60.5 184.5v858q0 119 56.5 173t164.5 54h381q128 0 178.5 -62t50.5 -196v-194h-266v208h-299v-843h299v278z" />
    <glyph glyph-name="ccaron" unicode="&#x10d;" horiz-adv-x="847" 
d="M150 1307h190l84 -119l84 119h190l-102 -248h-344zM297 0q-108 0 -173 59t-65 174v504q0 113 62.5 173.5t177.5 60.5h252q244 0 244 -250v-100h-246v118h-244v-512h244v156h246v-147q0 -111 -62 -173.5t-186 -62.5h-250z" />
    <glyph glyph-name="Dcaron" unicode="&#x10e;" horiz-adv-x="976" 
d="M211 1653h190l84 -119l84 119h191l-103 -248h-344zM72 0v1331h633q115 0 159.5 -67t44.5 -201v-811q0 -106 -56.5 -179t-172.5 -73h-608zM338 244h305v843h-305v-843z" />
    <glyph glyph-name="dcaron" unicode="&#x10f;" horiz-adv-x="1105" 
d="M281 -8q-117 0 -169.5 59.5t-52.5 161.5v543q0 223 222 223q158 0 290 -86v473h254v-1366h-243l-11 76q-5 -3 -18 -11t-42 -21t-62 -24t-78.5 -19.5t-89.5 -8.5zM1116 1055h-201l33 311h246zM311 227h260v512h-260v-512z" />
    <glyph glyph-name="Dcroat" unicode="&#x110;" horiz-adv-x="1013" 
d="M109 0v543h-93v243h93v545h632q115 0 160 -67t45 -201v-811q0 -106 -56.5 -179t-172.5 -73h-608zM375 244h305v843h-305v-301h129v-243h-129v-299z" />
    <glyph glyph-name="dcroat" unicode="&#x111;" horiz-adv-x="901" 
d="M281 -8q-117 0 -169.5 59.5t-52.5 161.5v543q0 223 222 223q158 0 290 -86v174h-211v184h211v115h254v-115h78v-184h-78v-1067h-243l-11 76q-5 -3 -18 -11t-42 -21t-62 -24t-78.5 -19.5t-89.5 -8.5zM311 227h260v512h-260v-512z" />
    <glyph glyph-name="Emacron" unicode="&#x112;" horiz-adv-x="835" 
d="M190 1434v186h484v-186h-484zM72 0v1331h719v-237h-451v-312h324v-235h-324v-309h451v-238h-719z" />
    <glyph glyph-name="emacron" unicode="&#x113;" horiz-adv-x="862" 
d="M186 1087v187h484v-187h-484zM303 0q-119 0 -181.5 63t-62.5 187v471q0 120 61.5 185t178.5 65h266q238 0 238 -246v-324h-496v-190h252v84h244v-51q0 -244 -238 -244h-262zM559 752h-252v-197h252v197z" />
    <glyph glyph-name="Ebreve" unicode="&#x114;" horiz-adv-x="835" 
d="M174 1657h176v-92h160v92h176v-107q0 -83 -39 -119t-119 -36h-194q-80 0 -120 36.5t-40 118.5v107zM72 0v1331h719v-237h-451v-312h324v-235h-324v-309h451v-238h-719z" />
    <glyph glyph-name="ebreve" unicode="&#x115;" horiz-adv-x="862" 
d="M172 1311h176v-92h160v92h176v-107q0 -83 -39 -119t-119 -36h-194q-80 0 -120 36.5t-40 118.5v107zM303 0q-119 0 -181.5 63t-62.5 187v471q0 120 61.5 185t178.5 65h266q238 0 238 -246v-324h-496v-190h252v84h244v-51q0 -244 -238 -244h-262zM559 752h-252v-197h252
v197z" />
    <glyph glyph-name="Edotaccent" unicode="&#x116;" horiz-adv-x="835" 
d="M313 1417v225h238v-225h-238zM72 0v1331h719v-237h-451v-312h324v-235h-324v-309h451v-238h-719z" />
    <glyph glyph-name="edotaccent" unicode="&#x117;" horiz-adv-x="862" 
d="M309 1071v225h238v-225h-238zM303 0q-119 0 -181.5 63t-62.5 187v471q0 120 61.5 185t178.5 65h266q238 0 238 -246v-324h-496v-190h252v84h244v-51q0 -244 -238 -244h-262zM559 752h-252v-197h252v197z" />
    <glyph glyph-name="Eogonek" unicode="&#x118;" horiz-adv-x="835" 
d="M72 0v1331h719v-237h-451v-312h324v-235h-324v-309h451v-238l-256 -137v-60h106v56h152v-52q0 -133 -148 -133h-110q-152 0 -152 138v24q0 48 21.5 76.5t64.5 50.5l66 37h-463z" />
    <glyph glyph-name="eogonek" unicode="&#x119;" horiz-adv-x="862" 
d="M303 0q-119 0 -181.5 63t-62.5 187v471q0 120 61.5 185t178.5 65h266q238 0 238 -246v-324h-496v-190h252v84h244v-51q0 -88 -26 -140t-83 -90l-231 -151v-60h106v56h152v-52q0 -133 -146 -133h-112q-152 0 -152 138v24q0 48 21 76.5t63 50.5l62 37h-154zM559 752h-252
v-197h252v197z" />
    <glyph glyph-name="Ecaron" unicode="&#x11a;" horiz-adv-x="835" 
d="M158 1653h190l84 -119l84 119h191l-103 -248h-344zM72 0v1331h719v-237h-451v-312h324v-235h-324v-309h451v-238h-719z" />
    <glyph glyph-name="ecaron" unicode="&#x11b;" horiz-adv-x="862" 
d="M154 1307h190l84 -119l84 119h190l-102 -248h-344zM303 0q-119 0 -181.5 63t-62.5 187v471q0 120 61.5 185t178.5 65h266q238 0 238 -246v-324h-496v-190h252v84h244v-51q0 -244 -238 -244h-262zM559 752h-252v-197h252v197z" />
    <glyph glyph-name="Gcircumflex" unicode="&#x11c;" horiz-adv-x="970" 
d="M565 1405l-82 111l-82 -111h-190l115 248h315l115 -248h-191zM905 920h-266v167h-305v-845h309v299h-168v213h430v-502q0 -112 -53 -182t-172 -70h-381q-110 0 -170.5 61.5t-60.5 184.5v864q0 221 221 221h395q122 0 171.5 -61.5t49.5 -192.5v-157z" />
    <glyph glyph-name="gcircumflex" unicode="&#x11d;" horiz-adv-x="890" 
d="M541 1059l-82 110l-82 -110h-191l115 248h315l115 -248h-190zM217 -326l19 215h335v189q-12 -9 -41 -24t-100.5 -35.5t-144.5 -20.5q-226 0 -226 219v539q0 223 226 223q150 0 288 -86l9 78h241v-1061q0 -124 -51.5 -180t-171.5 -56h-383zM313 227h258v512h-258v-512z
" />
    <glyph glyph-name="Gbreve" unicode="&#x11e;" horiz-adv-x="970" 
d="M227 1657h176v-92h160v92h176v-107q0 -83 -38.5 -119t-118.5 -36h-195q-80 0 -120 36.5t-40 118.5v107zM905 920h-266v167h-305v-845h309v299h-168v213h430v-502q0 -112 -53 -182t-172 -70h-381q-110 0 -170.5 61.5t-60.5 184.5v864q0 221 221 221h395q122 0 171.5 -61.5
t49.5 -192.5v-157z" />
    <glyph glyph-name="gbreve" unicode="&#x11f;" horiz-adv-x="890" 
d="M203 1311h176v-92h160v92h176v-107q0 -83 -39 -119t-119 -36h-195q-80 0 -119.5 36t-39.5 119v107zM217 -326l19 215h335v189q-12 -9 -41 -24t-100.5 -35.5t-144.5 -20.5q-226 0 -226 219v539q0 223 226 223q150 0 288 -86l9 78h241v-1061q0 -124 -51.5 -180t-171.5 -56
h-383zM313 227h258v512h-258v-512z" />
    <glyph glyph-name="Gdotaccent" unicode="&#x120;" horiz-adv-x="970" 
d="M365 1417v225h237v-225h-237zM905 920h-266v167h-305v-845h309v299h-168v213h430v-502q0 -112 -53 -182t-172 -70h-381q-110 0 -170.5 61.5t-60.5 184.5v864q0 221 221 221h395q122 0 171.5 -61.5t49.5 -192.5v-157z" />
    <glyph glyph-name="gdotaccent" unicode="&#x121;" horiz-adv-x="890" 
d="M340 1071v225h238v-225h-238zM217 -326l19 215h335v189q-12 -9 -41 -24t-100.5 -35.5t-144.5 -20.5q-226 0 -226 219v539q0 223 226 223q150 0 288 -86l9 78h241v-1061q0 -124 -51.5 -180t-171.5 -56h-383zM313 227h258v512h-258v-512z" />
    <glyph glyph-name="Gcommaaccent" unicode="&#x122;" horiz-adv-x="970" 
d="M905 920h-266v167h-305v-845h309v299h-168v213h430v-502q0 -112 -53 -182t-172 -70h-381q-110 0 -170.5 61.5t-60.5 184.5v864q0 221 221 221h395q122 0 171.5 -61.5t49.5 -192.5v-157zM367 -457v381h233v-198z" />
    <glyph glyph-name="gcommaaccent" unicode="&#x123;" horiz-adv-x="890" 
d="M578 1450v-391h-238v201zM217 -326l19 215h335v189q-12 -9 -41 -24t-100.5 -35.5t-144.5 -20.5q-226 0 -226 219v539q0 223 226 223q150 0 288 -86l9 78h241v-1061q0 -124 -51.5 -180t-171.5 -56h-383zM313 227h258v512h-258v-512z" />
    <glyph glyph-name="Hcircumflex" unicode="&#x124;" horiz-adv-x="999" 
d="M584 1405l-82 111l-82 -111h-191l115 248h315l115 -248h-190zM72 0v1331h268v-555h322v555h268v-1331h-268v539h-322v-539h-268z" />
    <glyph glyph-name="hcircumflex" unicode="&#x125;" 
d="M281 1440l-82 110l-82 -110h-191l115 248h315l115 -248h-190zM815 764v-764h-252v739h-239v-739h-254v1366h254v-475q143 88 288 88q108 0 155.5 -52.5t47.5 -162.5z" />
    <glyph glyph-name="Hbar" unicode="&#x126;" horiz-adv-x="1036" 
d="M90 0v971h-94v215h94v145h268v-145h322v145h268v-145h94v-215h-94v-971h-268v539h-322v-539h-268zM358 776h322v195h-322v-195z" />
    <glyph glyph-name="hbar" unicode="&#x127;" 
d="M-10 1067v184h80v115h254v-115h211v-184h-211v-176q143 88 288 88q108 0 155.5 -52.5t47.5 -162.5v-764h-252v739h-239v-739h-254v1067h-80z" />
    <glyph glyph-name="Itilde" unicode="&#x128;" horiz-adv-x="430" 
d="M487 1538q0 -133 -114 -133h-97q-51 0 -79 17t-47 57l-23 55h-31v-121h-157v125q0 65 30.5 99t85.5 34h95q96 0 131 -86l18 -43h31v121h157v-125zM82 0v1331h268v-1331h-268z" />
    <glyph glyph-name="itilde" unicode="&#x129;" horiz-adv-x="395" 
d="M-78 1069l10 123q14 139 154 139q48 0 92.5 -21.5t120.5 -76.5l20 92h154l-12 -123q-11 -139 -150 -139q-49 0 -94.5 22t-122.5 78l-20 -94h-152zM70 0v971h254v-971h-254z" />
    <glyph glyph-name="Imacron" unicode="&#x12a;" horiz-adv-x="430" 
d="M-27 1434v186h484v-186h-484zM82 0v1331h268v-1331h-268z" />
    <glyph glyph-name="imacron" unicode="&#x12b;" horiz-adv-x="395" 
d="M-29 1090v186h451v-186h-451zM70 0v971h254v-971h-254z" />
    <glyph glyph-name="Ibreve" unicode="&#x12c;" horiz-adv-x="430" 
d="M-41 1657h176v-92h160v92h176v-107q0 -83 -39 -119t-119 -36h-194q-80 0 -120 36.5t-40 118.5v107zM82 0v1331h268v-1331h-268z" />
    <glyph glyph-name="ibreve" unicode="&#x12d;" horiz-adv-x="395" 
d="M-45 1311h174v-90h137v90h174v-88q0 -93 -35 -133.5t-110 -40.5h-195q-75 0 -110 40.5t-35 133.5v88zM70 0v971h254v-971h-254z" />
    <glyph glyph-name="Iogonek" unicode="&#x12e;" horiz-adv-x="430" 
d="M350 0l-203 -137v-60h109v56h152v-52q0 -66 -38 -99.5t-108 -33.5h-115q-151 0 -151 136v30q0 47 12.5 75.5t46.5 59.5l27 25v1331h268v-1331z" />
    <glyph glyph-name="iogonek" unicode="&#x12f;" horiz-adv-x="395" 
d="M70 1077v217h254v-217h-254zM70 -2v973h254v-971l-189 -137v-60h109v56h151v-52q0 -133 -145 -133h-115q-151 0 -151 136v30q0 49 13 76t50 61z" />
    <glyph glyph-name="Idotaccent" unicode="&#x130;" horiz-adv-x="430" 
d="M96 1417v225h238v-225h-238zM82 0v1331h268v-1331h-268z" />
    <glyph glyph-name="dotlessi" unicode="&#x131;" horiz-adv-x="395" 
d="M70 0v971h254v-971h-254z" />
    <glyph glyph-name="IJ" unicode="&#x132;" horiz-adv-x="964" 
d="M82 530v801h268v-801h-268zM629 1331h266v-1077q0 -117 -58 -185.5t-169 -68.5h-363q-101 0 -162 62t-61 182v190h268v-192h279v1089z" />
    <glyph glyph-name="ij" unicode="&#x133;" horiz-adv-x="847" 
d="M70 1075v219h254v-219h-254zM776 1294v-217h-252v217h252zM70 0v971h254v-971h-254zM524 971h252v-1061q0 -124 -51 -180t-170 -56h-250l21 217h198v1080z" />
    <glyph glyph-name="Jcircumflex" unicode="&#x134;" horiz-adv-x="931" 
d="M813 1405l-82 111l-82 -111h-190l114 248h316l115 -248h-191zM596 1331h266v-1077q0 -117 -58 -185.5t-169 -68.5h-361q-101 0 -162 62t-61 182v252h264v-254h281v1089z" />
    <glyph glyph-name="jcircumflex" unicode="&#x135;" horiz-adv-x="413" 
d="M297 1059l-82 110l-82 -110h-190l114 248h316l114 -248h-190zM90 971h252v-1061q0 -124 -51 -180t-170 -56h-250l20 217h199v1080z" />
    <glyph glyph-name="Kcommaaccent" unicode="&#x136;" horiz-adv-x="968" 
d="M340 0h-268v1331h268v-549h45l260 549h299l-311 -649v-16l332 -666h-306l-272 553h-47v-553zM381 -457v381h233v-198z" />
    <glyph glyph-name="kcommaaccent" unicode="&#x137;" horiz-adv-x="860" 
d="M70 0v1366h254v-743h30l189 348h291l-263 -447v-20l289 -504h-291l-215 383h-30v-383h-254zM332 -457v381h233v-198z" />
    <glyph glyph-name="kgreenlandic" unicode="&#x138;" horiz-adv-x="860" 
d="M70 0v971h254v-348h30l189 348h291l-263 -447v-20l289 -504h-291l-215 383h-30v-383h-254z" />
    <glyph glyph-name="Lacute" unicode="&#x139;" horiz-adv-x="835" 
d="M276 1405h-213l89 248h288zM72 0v1331h268v-1087h461v-244h-729z" />
    <glyph glyph-name="lacute" unicode="&#x13a;" horiz-adv-x="395" 
d="M268 1440h-213l88 248h289zM72 0v1366h252v-1366h-252z" />
    <glyph glyph-name="Lcommaaccent" unicode="&#x13b;" horiz-adv-x="835" 
d="M72 0v1331h268v-1087h461v-244h-729zM324 -457v381h233v-198z" />
    <glyph glyph-name="lcommaaccent" unicode="&#x13c;" horiz-adv-x="395" 
d="M72 0v1366h252v-1366h-252zM82 -457v381h233v-198z" />
    <glyph glyph-name="Lcaron" unicode="&#x13d;" horiz-adv-x="835" 
d="M700 1055h-200l32 311h246zM72 0v1331h268v-1087h461v-244h-729z" />
    <glyph glyph-name="lcaron" unicode="&#x13e;" horiz-adv-x="598" 
d="M72 0v1366h252v-1366h-252zM608 1055h-200l32 311h246z" />
    <glyph glyph-name="Ldot" unicode="&#x13f;" horiz-adv-x="860" 
d="M72 0v1331h268v-1087h461v-244h-729zM516 612v226h238v-226h-238z" />
    <glyph glyph-name="ldot" unicode="&#x140;" horiz-adv-x="729" 
d="M72 0v1366h252v-1366h-252zM444 565v226h238v-226h-238z" />
    <glyph glyph-name="Lslash" unicode="&#x141;" horiz-adv-x="868" 
d="M117 0v436l-103 -49v291l103 49v604h268v-473l193 94v-290l-193 -95v-323h461v-244h-729z" />
    <glyph glyph-name="lslash" unicode="&#x142;" horiz-adv-x="522" 
d="M133 0v420l-113 -53v280l113 53v666h252v-545l117 56v-279l-117 -55v-543h-252z" />
    <glyph glyph-name="Nacute" unicode="&#x143;" horiz-adv-x="1050" 
d="M612 1405h-213l88 248h289zM979 0h-346l-211 524q-62 155 -131 443q12 -316 12 -396v-571h-231v1331h323l223 -581q66 -168 144 -465q-14 364 -14 409v637h231v-1331z" />
    <glyph glyph-name="nacute" unicode="&#x144;" horiz-adv-x="876" 
d="M508 1059h-213l88 248h289zM68 0v971h241l10 -80q147 88 291 88q108 0 155.5 -53t47.5 -164v-762h-252v739h-239v-739h-254z" />
    <glyph glyph-name="Ncommaaccent" unicode="&#x145;" horiz-adv-x="1050" 
d="M979 0h-346l-211 524q-62 155 -131 443q12 -316 12 -396v-571h-231v1331h323l223 -581q66 -168 144 -465q-14 364 -14 409v637h231v-1331zM410 -457v381h233v-198z" />
    <glyph glyph-name="ncommaaccent" unicode="&#x146;" horiz-adv-x="876" 
d="M68 0v971h241l10 -80q147 88 291 88q108 0 155.5 -53t47.5 -164v-762h-252v739h-239v-739h-254zM326 -457v381h233v-198z" />
    <glyph glyph-name="Ncaron" unicode="&#x147;" horiz-adv-x="1050" 
d="M268 1653h191l84 -119l84 119h190l-102 -248h-344zM979 0h-346l-211 524q-62 155 -131 443q12 -316 12 -396v-571h-231v1331h323l223 -581q66 -168 144 -465q-14 364 -14 409v637h231v-1331z" />
    <glyph glyph-name="ncaron" unicode="&#x148;" horiz-adv-x="876" 
d="M164 1307h190l84 -119l84 119h191l-103 -248h-344zM68 0v971h241l10 -80q147 88 291 88q108 0 155.5 -53t47.5 -164v-762h-252v739h-239v-739h-254z" />
    <glyph glyph-name="napostrophe" unicode="&#x149;" horiz-adv-x="1161" 
d="M63 891v440h254v-235zM352 0v971h242l10 -80q147 88 291 88q108 0 155.5 -53t47.5 -164v-762h-252v739h-240v-739h-254z" />
    <glyph glyph-name="Eng" unicode="&#x14a;" horiz-adv-x="1050" 
d="M72 0v1331h323l223 -581q66 -168 144 -465q-14 364 -14 409v637h231v-1204h2v-217q0 -124 -51.5 -180t-171.5 -56h-248l18 217h201v109h-96l-211 524q-62 155 -131 443q12 -316 12 -396v-571h-231z" />
    <glyph glyph-name="eng" unicode="&#x14b;" horiz-adv-x="880" 
d="M68 0v971h241l10 -80q147 88 291 88q108 0 155.5 -53t47.5 -164v-852q0 -124 -51.5 -180t-171.5 -56h-248l18 217h201v848h-239v-739h-254z" />
    <glyph glyph-name="Omacron" unicode="&#x14c;" horiz-adv-x="993" 
d="M254 1434v186h483v-186h-483zM291 0q-100 0 -161.5 62t-61.5 182v854q0 114 56 173.5t157 59.5h426q116 0 167.5 -64.5t51.5 -193.5v-819q0 -117 -60 -185.5t-170 -68.5h-405zM334 244h323v843h-323v-843z" />
    <glyph glyph-name="omacron" unicode="&#x14d;" horiz-adv-x="872" 
d="M193 1087v187h483v-187h-483zM293 0q-105 0 -169.5 63t-64.5 185v475q0 123 63 185.5t175 62.5h274q240 0 240 -254v-465q0 -252 -244 -252h-274zM307 225h256v514h-256v-514z" />
    <glyph glyph-name="Obreve" unicode="&#x14e;" horiz-adv-x="993" 
d="M240 1657h176v-92h159v92h177v-107q0 -83 -39 -119t-119 -36h-195q-80 0 -119.5 36t-39.5 119v107zM291 0q-100 0 -161.5 62t-61.5 182v854q0 114 56 173.5t157 59.5h426q116 0 167.5 -64.5t51.5 -193.5v-819q0 -117 -60 -185.5t-170 -68.5h-405zM334 244h323v843h-323
v-843z" />
    <glyph glyph-name="obreve" unicode="&#x14f;" horiz-adv-x="872" 
d="M178 1311h176v-92h160v92h176v-107q0 -83 -39 -119t-119 -36h-194q-80 0 -120 36.5t-40 118.5v107zM293 0q-105 0 -169.5 63t-64.5 185v475q0 123 63 185.5t175 62.5h274q240 0 240 -254v-465q0 -252 -244 -252h-274zM307 225h256v514h-256v-514z" />
    <glyph glyph-name="Ohungarumlaut" unicode="&#x150;" horiz-adv-x="993" 
d="M424 1405h-215l90 248h289zM758 1405h-213l88 248h289zM291 0q-100 0 -161.5 62t-61.5 182v854q0 114 56 173.5t157 59.5h426q116 0 167.5 -64.5t51.5 -193.5v-819q0 -117 -60 -185.5t-170 -68.5h-405zM334 244h323v843h-323v-843z" />
    <glyph glyph-name="ohungarumlaut" unicode="&#x151;" horiz-adv-x="872" 
d="M362 1059h-215l91 248h288zM696 1059h-213l88 248h289zM293 0q-105 0 -169.5 63t-64.5 185v475q0 123 63 185.5t175 62.5h274q240 0 240 -254v-465q0 -252 -244 -252h-274zM307 225h256v514h-256v-514z" />
    <glyph glyph-name="OE" unicode="&#x152;" horiz-adv-x="1419" 
d="M291 0q-100 0 -161.5 62t-61.5 182v854q0 114 56 173.5t157 59.5h1091v-237h-450v-312h325v-235h-325v-309h450v-238h-1081zM334 244h323v843h-323v-843z" />
    <glyph glyph-name="oe" unicode="&#x153;" horiz-adv-x="1359" 
d="M293 0q-105 0 -169.5 63t-64.5 185v475q0 123 63 185.5t175 62.5h268q63 0 121 -21q46 21 113 21h268q236 0 236 -246v-324h-496v-190h252v84h244v-51q0 -244 -238 -244h-262q-65 0 -119 23q-54 -23 -121 -23h-270zM1059 752h-252v-197h252v197zM307 225h252v514h-252
v-514z" />
    <glyph glyph-name="Racute" unicode="&#x154;" horiz-adv-x="958" 
d="M569 1405h-213l88 248h289zM338 0h-266v1331h643q98 0 141 -55.5t43 -177.5v-467q0 -94 -28.5 -145t-92.5 -66l133 -420h-268l-121 403h-184v-403zM338 641h297v446h-297v-446z" />
    <glyph glyph-name="racute" unicode="&#x155;" horiz-adv-x="618" 
d="M420 1059h-213l88 248h289zM68 0v971h243l8 -86q46 35 119.5 64.5t161.5 29.5l-20 -244h-258v-735h-254z" />
    <glyph glyph-name="Rcommaaccent" unicode="&#x156;" horiz-adv-x="958" 
d="M338 0h-266v1331h643q98 0 141 -55.5t43 -177.5v-467q0 -94 -28.5 -145t-92.5 -66l133 -420h-268l-121 403h-184v-403zM338 641h297v446h-297v-446zM373 -457v381h233v-198z" />
    <glyph glyph-name="rcommaaccent" unicode="&#x157;" horiz-adv-x="618" 
d="M68 0v971h243l8 -86q46 35 119.5 64.5t161.5 29.5l-20 -244h-258v-735h-254zM80 -457v381h233v-198z" />
    <glyph glyph-name="Rcaron" unicode="&#x158;" horiz-adv-x="958" 
d="M211 1653h190l84 -119l84 119h191l-103 -248h-344zM338 0h-266v1331h643q98 0 141 -55.5t43 -177.5v-467q0 -94 -28.5 -145t-92.5 -66l133 -420h-268l-121 403h-184v-403zM338 641h297v446h-297v-446z" />
    <glyph glyph-name="rcaron" unicode="&#x159;" horiz-adv-x="618" 
d="M76 1307h190l84 -119l84 119h191l-103 -248h-344zM68 0v971h243l8 -86q46 35 119.5 64.5t161.5 29.5l-20 -244h-258v-735h-254z" />
    <glyph glyph-name="Sacute" unicode="&#x15a;" horiz-adv-x="944" 
d="M537 1405h-213l88 248h288zM885 475v-223q0 -120 -57.5 -186t-168.5 -66h-374q-102 0 -164 62.5t-62 183.5v209h267v-217h297v229l-441 205q-70 37 -96.5 82t-26.5 131v229q0 114 56 165.5t164 51.5h378q126 0 177 -61.5t51 -196.5v-176h-262v197h-297v-201l438 -201
q71 -35 96 -80t25 -137z" />
    <glyph glyph-name="sacute" unicode="&#x15b;" horiz-adv-x="827" 
d="M481 1059h-213l88 248h289zM281 0q-228 0 -228 213v98h240v-98h239v117l-356 129q-68 27 -95.5 66t-27.5 116v123q0 207 228 207h262q122 0 176.5 -53t54.5 -162v-88h-242v90h-239v-111l352 -125q75 -28 102 -67.5t27 -124.5v-121q0 -97 -58.5 -153t-170.5 -56h-264z" />
    <glyph glyph-name="Scircumflex" unicode="&#x15c;" horiz-adv-x="944" 
d="M549 1405l-82 111l-82 -111h-190l114 248h316l114 -248h-190zM885 475v-223q0 -120 -57.5 -186t-168.5 -66h-374q-102 0 -164 62.5t-62 183.5v209h267v-217h297v229l-441 205q-70 37 -96.5 82t-26.5 131v229q0 114 56 165.5t164 51.5h378q126 0 177 -61.5t51 -196.5v-176
h-262v197h-297v-201l438 -201q71 -35 96 -80t25 -137z" />
    <glyph glyph-name="scircumflex" unicode="&#x15d;" horiz-adv-x="827" 
d="M494 1059l-82 110l-82 -110h-191l115 248h315l115 -248h-190zM281 0q-228 0 -228 213v98h240v-98h239v117l-356 129q-68 27 -95.5 66t-27.5 116v123q0 207 228 207h262q122 0 176.5 -53t54.5 -162v-88h-242v90h-239v-111l352 -125q75 -28 102 -67.5t27 -124.5v-121
q0 -97 -58.5 -153t-170.5 -56h-264z" />
    <glyph glyph-name="Scedilla" unicode="&#x15e;" horiz-adv-x="944" 
d="M885 475v-223q0 -120 -57.5 -186t-168.5 -66h-112v-29q77 0 112 -31.5t35 -103.5v-22q0 -76 -36 -113t-117 -37h-115q-147 0 -147 135v45h153v-51h107v66q-74 0 -105 27.5t-31 88.5v25h-118q-102 0 -164 62.5t-62 183.5v209h267v-217h297v229l-441 205q-70 37 -96.5 82
t-26.5 131v229q0 114 56 165.5t164 51.5h378q126 0 177 -61.5t51 -196.5v-176h-262v197h-297v-201l438 -201q71 -35 96 -80t25 -137z" />
    <glyph glyph-name="scedilla" unicode="&#x15f;" horiz-adv-x="827" 
d="M281 0q-228 0 -228 213v98h240v-98h239v117l-356 129q-68 27 -95.5 66t-27.5 116v123q0 207 228 207h262q122 0 176.5 -53t54.5 -162v-88h-242v90h-239v-111l352 -125q75 -28 102 -67.5t27 -124.5v-121q0 -97 -58.5 -153t-170.5 -56h-58v-29q77 0 112.5 -32t35.5 -103
v-22q0 -75 -36.5 -112.5t-117.5 -37.5h-114q-148 0 -148 135v45h154v-51h106v66q-74 0 -104.5 27.5t-30.5 88.5v25h-63z" />
    <glyph glyph-name="Scaron" unicode="&#x160;" horiz-adv-x="944" 
d="M193 1653h190l84 -119l84 119h190l-102 -248h-344zM885 475v-223q0 -120 -57.5 -186t-168.5 -66h-374q-102 0 -164 62.5t-62 183.5v209h267v-217h297v229l-441 205q-70 37 -96.5 82t-26.5 131v229q0 114 56 165.5t164 51.5h378q126 0 177 -61.5t51 -196.5v-176h-262v197
h-297v-201l438 -201q71 -35 96 -80t25 -137z" />
    <glyph glyph-name="scaron" unicode="&#x161;" horiz-adv-x="827" 
d="M137 1307h191l84 -119l84 119h190l-102 -248h-344zM281 0q-228 0 -228 213v98h240v-98h239v117l-356 129q-68 27 -95.5 66t-27.5 116v123q0 207 228 207h262q122 0 176.5 -53t54.5 -162v-88h-242v90h-239v-111l352 -125q75 -28 102 -67.5t27 -124.5v-121
q0 -97 -58.5 -153t-170.5 -56h-264z" />
    <glyph glyph-name="Tcaron" unicode="&#x164;" 
d="M166 1653h190l84 -119l84 119h191l-103 -248h-344zM305 0v1090h-293v241h854v-241h-291v-1090h-270z" />
    <glyph glyph-name="tcaron" unicode="&#x165;" horiz-adv-x="573" 
d="M604 1071h-201l33 311h246zM287 0q-118 0 -169.5 57.5t-51.5 173.5v961h249v-221h217l-20 -232h-197v-510h211v-229h-239z" />
    <glyph glyph-name="Tbar" unicode="&#x166;" 
d="M305 0v477h-143v223h143v390h-293v241h854v-241h-291v-390h144v-223h-144v-477h-270z" />
    <glyph glyph-name="tbar" unicode="&#x167;" horiz-adv-x="565" 
d="M289 0q-119 0 -170 57t-51 174v961h249v-221h207l-22 -232h-185v-137h207l-22 -231h-185v-142h201v-229h-229z" />
    <glyph glyph-name="Utilde" unicode="&#x168;" horiz-adv-x="980" 
d="M762 1538q0 -133 -115 -133h-96q-51 0 -79.5 17.5t-47.5 56.5l-23 55h-30v-121h-158v125q0 65 31 99t86 34h94q96 0 131 -86l18 -43h31v121h158v-125zM645 1331h266v-1077q0 -117 -57.5 -185.5t-167.5 -68.5h-393q-101 0 -162 62t-61 182v1087h266v-1087h309v1087z" />
    <glyph glyph-name="utilde" unicode="&#x169;" 
d="M709 1192q0 -133 -115 -133h-96q-51 0 -79.5 17.5t-47.5 56.5l-23 55h-31v-121h-157v125q0 65 30.5 99t85.5 34h95q96 0 131 -86l18 -43h31v121h158v-125zM809 971v-971h-242l-10 78q-138 -86 -289 -86q-107 0 -156 51.5t-49 153.5v774h254v-742h240v742h252z" />
    <glyph glyph-name="Umacron" unicode="&#x16a;" horiz-adv-x="980" 
d="M248 1434v186h483v-186h-483zM645 1331h266v-1077q0 -117 -57.5 -185.5t-167.5 -68.5h-393q-101 0 -162 62t-61 182v1087h266v-1087h309v1087z" />
    <glyph glyph-name="umacron" unicode="&#x16b;" 
d="M195 1087v187h483v-187h-483zM809 971v-971h-242l-10 78q-138 -86 -289 -86q-107 0 -156 51.5t-49 153.5v774h254v-742h240v742h252z" />
    <glyph glyph-name="Ubreve" unicode="&#x16c;" horiz-adv-x="980" 
d="M233 1657h177v-92h159v92h176v-107q0 -83 -38.5 -119t-118.5 -36h-195q-80 0 -120 36.5t-40 118.5v107zM645 1331h266v-1077q0 -117 -57.5 -185.5t-167.5 -68.5h-393q-101 0 -162 62t-61 182v1087h266v-1087h309v1087z" />
    <glyph glyph-name="ubreve" unicode="&#x16d;" 
d="M180 1311h176v-92h160v92h176v-107q0 -83 -38.5 -119t-118.5 -36h-195q-80 0 -120 36.5t-40 118.5v107zM809 971v-971h-242l-10 78q-138 -86 -289 -86q-107 0 -156 51.5t-49 153.5v774h254v-742h240v742h252z" />
    <glyph glyph-name="Uring" unicode="&#x16e;" horiz-adv-x="980" 
d="M420 1380q-73 0 -114.5 40t-41.5 118v104q0 77 41.5 117.5t120.5 40.5h131q80 0 120 -43t40 -123v-94q0 -76 -41 -118t-119 -42h-137zM432 1520h117v137h-117v-137zM645 1331h266v-1077q0 -117 -57.5 -185.5t-167.5 -68.5h-393q-101 0 -162 62t-61 182v1087h266v-1087
h309v1087z" />
    <glyph glyph-name="uring" unicode="&#x16f;" 
d="M367 1024q-73 0 -114.5 40t-41.5 118v104q0 77 41.5 117.5t120.5 40.5h131q80 0 120 -43t40 -123v-94q0 -76 -41 -118t-119 -42h-137zM379 1163h117v137h-117v-137zM809 971v-971h-242l-10 78q-138 -86 -289 -86q-107 0 -156 51.5t-49 153.5v774h254v-742h240v742h252z
" />
    <glyph glyph-name="Uhungarumlaut" unicode="&#x170;" horiz-adv-x="980" 
d="M418 1405h-215l90 248h289zM752 1405h-213l88 248h288zM645 1331h266v-1077q0 -117 -57.5 -185.5t-167.5 -68.5h-393q-101 0 -162 62t-61 182v1087h266v-1087h309v1087z" />
    <glyph glyph-name="uhungarumlaut" unicode="&#x171;" 
d="M365 1059h-215l90 248h288zM698 1059h-213l88 248h289zM809 971v-971h-242l-10 78q-138 -86 -289 -86q-107 0 -156 51.5t-49 153.5v774h254v-742h240v742h252z" />
    <glyph glyph-name="Uogonek" unicode="&#x172;" horiz-adv-x="980" 
d="M784 10l-231 -149v-60h106v56h152v-52q0 -133 -145 -133h-115q-77 0 -114.5 36.5t-37.5 101.5v24q0 48 22 77.5t64 51.5l62 37h-254q-101 0 -162 62t-61 182v1087h266v-1087h309v1087h266v-1077q0 -88 -30.5 -146t-96.5 -98z" />
    <glyph glyph-name="uogonek" unicode="&#x173;" 
d="M809 -16l-231 -121v-60h106v56h154v-52q0 -133 -148 -133h-112q-152 0 -152 138v24q0 47 20.5 75t63.5 52l57 33l-10 82q-138 -86 -289 -86q-107 0 -156 51.5t-49 153.5v774h254v-742h240v742h252v-987z" />
    <glyph glyph-name="Wcircumflex" unicode="&#x174;" horiz-adv-x="1443" 
d="M801 1405l-82 111l-82 -111h-191l115 248h316l114 -248h-190zM215 0l-205 1331h269l122 -1059h15l147 1059h311l160 -1059h13l120 1059h269l-203 -1331h-367l-137 961h-14l-135 -961h-365z" />
    <glyph glyph-name="wcircumflex" unicode="&#x175;" horiz-adv-x="1298" 
d="M727 1059l-82 110l-82 -110h-190l114 248h316l115 -248h-191zM199 0l-195 971h252l117 -738h6l129 738h280l138 -738h6l110 738h252l-192 -971h-328l-123 657h-6l-113 -657h-333z" />
    <glyph glyph-name="Ycircumflex" unicode="&#x176;" horiz-adv-x="907" 
d="M535 1405l-82 111l-82 -111h-191l115 248h315l115 -248h-190zM582 0h-269v518l-323 813h278l181 -538h6l184 538h276l-333 -811v-520z" />
    <glyph glyph-name="ycircumflex" unicode="&#x177;" horiz-adv-x="876" 
d="M520 1059l-82 110l-82 -110h-190l115 248h315l115 -248h-191zM63 203v768h252v-742h240v742h254v-1061q0 -124 -52 -180t-171 -56h-371l21 215h319v189q-137 -80 -289 -80q-105 0 -154 51.5t-49 153.5z" />
    <glyph glyph-name="Ydieresis" unicode="&#x178;" horiz-adv-x="907" 
d="M195 1415v227h219v-227h-219zM492 1415v227h219v-227h-219zM582 0h-269v518l-323 813h278l181 -538h6l184 538h276l-333 -811v-520z" />
    <glyph glyph-name="Zacute" unicode="&#x179;" horiz-adv-x="856" 
d="M496 1405h-213l88 248h288zM813 0h-770v229l465 861h-465v241h770v-229l-465 -860h465v-242z" />
    <glyph glyph-name="zacute" unicode="&#x17a;" horiz-adv-x="782" 
d="M459 1059h-213l88 248h289zM51 0v217l379 522h-379v232h680v-219l-381 -523h381v-229h-680z" />
    <glyph glyph-name="Zdotaccent" unicode="&#x17b;" horiz-adv-x="856" 
d="M307 1417v225h238v-225h-238zM813 0h-770v229l465 861h-465v241h770v-229l-465 -860h465v-242z" />
    <glyph glyph-name="zdotaccent" unicode="&#x17c;" horiz-adv-x="782" 
d="M270 1071v225h238v-225h-238zM51 0v217l379 522h-379v232h680v-219l-381 -523h381v-229h-680z" />
    <glyph glyph-name="Zcaron" unicode="&#x17d;" horiz-adv-x="856" 
d="M152 1653h190l84 -119l84 119h190l-102 -248h-344zM813 0h-770v229l465 861h-465v241h770v-229l-465 -860h465v-242z" />
    <glyph glyph-name="zcaron" unicode="&#x17e;" horiz-adv-x="782" 
d="M115 1307h190l84 -119l84 119h191l-103 -248h-344zM51 0v217l379 522h-379v232h680v-219l-381 -523h381v-229h-680z" />
    <glyph glyph-name="florin" unicode="&#x192;" horiz-adv-x="620" 
d="M410 -90q0 -124 -52.5 -180t-171.5 -56h-247l18 217h199v848h-133v232h133v166q0 118 44.5 173.5t170.5 55.5h252l-21 -229h-192v-166h168v-232h-168v-829z" />
    <glyph glyph-name="Aringacute" unicode="&#x1fa;" horiz-adv-x="972" 
d="M553 1679h-213l88 248h289zM682 0l-43 258h-303l-43 -258h-273l244 1321q-2 8 -2 31v104q0 77 41.5 117.5t120.5 40.5h131q80 0 120 -43t40 -123v-94q0 -19 -2 -27l241 -1327h-272zM430 1333h117v137h-117v-137zM473 1090l-98 -601h227l-98 601h-31z" />
    <glyph glyph-name="aringacute" unicode="&#x1fb;" horiz-adv-x="892" 
d="M524 1497h-213l88 248h289zM387 1024q-73 0 -114.5 40t-41.5 118v104q0 77 41.5 117.5t120.5 40.5h131q80 0 120 -43t40 -123v-94q0 -76 -41 -118t-119 -42h-137zM399 1163h117v137h-117v-137zM281 -8q-117 0 -169.5 59.5t-52.5 161.5v543q0 223 222 223q158 0 290 -86
l9 78h245v-971h-243l-11 76q-5 -3 -18 -11t-42 -21t-62 -24t-78.5 -19.5t-89.5 -8.5zM311 227h260v512h-260v-512z" />
    <glyph glyph-name="AEacute" unicode="&#x1fc;" horiz-adv-x="1359" 
d="M768 1405h-213l88 248h289zM596 0v258h-248l-65 -258h-281l352 1331h961v-237h-451v-312h324v-235h-324v-309h451v-238h-719zM561 1094l-153 -605h188v605h-35z" />
    <glyph glyph-name="aeacute" unicode="&#x1fd;" horiz-adv-x="1351" 
d="M760 1061h-213l88 248h289zM301 555h250v166q0 21 2 31h-252v-84h-244v59q0 244 238 244h262q69 0 119 -23q54 23 115 23h266q237 0 237 -246v-324h-495v-190h252v84h243v-51q0 -244 -237 -244h-262q-72 0 -119 20q-55 -20 -115 -20h-268q-236 0 -236 229v99
q0 115 59 171t185 56zM1051 752h-252v-197h252v197zM301 211h252q-2 12 -2 39v149h-250v-188z" />
    <glyph glyph-name="Oslashacute" unicode="&#x1fe;" horiz-adv-x="1003" 
d="M539 1405h-213l88 248h288zM90 -86l49 139q-71 62 -71 191v854q0 114 55 173.5t156 59.5h348l28 86h269l-50 -139q62 -62 62 -205v-819q0 -117 -59 -185.5t-170 -68.5h-320l-29 -86h-268zM328 1087v-626l227 626h-227zM676 244v614l-225 -614h225z" />
    <glyph glyph-name="oslashacute" unicode="&#x1ff;" horiz-adv-x="872" 
d="M504 1073h-213l88 248h289zM88 -74l55 119q-84 64 -84 203v475q0 123 63 185.5t175 62.5h217l27 73h254l-50 -131q66 -63 66 -196v-465q0 -252 -244 -252h-194l-29 -74h-256zM307 739v-424l166 424h-166zM563 225v412l-164 -412h164z" />
    <glyph glyph-name="Scommaaccent" unicode="&#x218;" horiz-adv-x="944" 
d="M885 475v-223q0 -120 -57.5 -186t-168.5 -66h-374q-102 0 -164 62.5t-62 183.5v209h267v-217h297v229l-441 205q-70 37 -96.5 82t-26.5 131v229q0 114 56 165.5t164 51.5h378q126 0 177 -61.5t51 -196.5v-176h-262v197h-297v-201l438 -201q71 -35 96 -80t25 -137z
M358 -457v381h234v-198z" />
    <glyph glyph-name="scommaaccent" unicode="&#x219;" horiz-adv-x="827" 
d="M281 0q-228 0 -228 213v98h240v-98h239v117l-356 129q-68 27 -95.5 66t-27.5 116v123q0 207 228 207h262q122 0 176.5 -53t54.5 -162v-88h-242v90h-239v-111l352 -125q75 -28 102 -67.5t27 -124.5v-121q0 -97 -58.5 -153t-170.5 -56h-264zM297 -457v381h233v-198z" />
    <glyph glyph-name="Tcommaaccent" unicode="&#x21a;" 
d="M305 0v1090h-293v241h854v-241h-291v-1090h-270zM324 -457v381h233v-198z" />
    <glyph glyph-name="tcommaaccent" unicode="&#x21b;" horiz-adv-x="573" 
d="M287 0q-118 0 -169.5 57.5t-51.5 173.5v961h249v-221h217l-20 -232h-197v-510h211v-229h-239zM195 -457v381h233v-198z" />
    <glyph glyph-name="dotlessj" unicode="&#x237;" horiz-adv-x="413" 
d="M90 971h252v-1061q0 -124 -51 -180t-170 -56h-250l20 217h199v1080z" />
    <glyph glyph-name="schwa" unicode="&#x259;" horiz-adv-x="862" 
d="M559 971q119 0 181.5 -62.5t62.5 -187.5v-471q0 -120 -61.5 -185t-178.5 -65h-266q-238 0 -238 246v323h496v191h-252v-84h-244v51q0 244 238 244h262zM303 219h252v197h-252v-197z" />
    <glyph glyph-name="quoteleft" unicode="&#x2bb;" horiz-adv-x="378" 
d="M315 1446v-440h-254v235z" />
    <glyph glyph-name="quoteleft" unicode="&#x2018;" horiz-adv-x="378" 
d="M315 1446v-440h-254v235z" />
    <glyph glyph-name="quoteright" unicode="&#x2bc;" horiz-adv-x="378" 
d="M63 891v440h254v-235z" />
    <glyph glyph-name="quoteright" unicode="&#x2019;" horiz-adv-x="378" 
d="M63 891v440h254v-235z" />
    <glyph glyph-name="circumflex" unicode="&#x2c6;" horiz-adv-x="1024" 
d="M594 1083l-82 111l-82 -111h-190l114 248h316l114 -248h-190z" />
    <glyph glyph-name="caron" unicode="&#x2c7;" horiz-adv-x="1024" 
d="M238 1331h190l84 -119l84 119h190l-102 -248h-344z" />
    <glyph glyph-name="breve" unicode="&#x2d8;" horiz-adv-x="1024" 
d="M256 1335h176v-92h160v92h176v-106q0 -83 -39 -119.5t-119 -36.5h-194q-80 0 -120 36.5t-40 119.5v106z" />
    <glyph glyph-name="dotaccent" unicode="&#x2d9;" horiz-adv-x="1024" 
d="M393 1096v225h238v-225h-238z" />
    <glyph glyph-name="ring" unicode="&#x2da;" horiz-adv-x="1024" 
d="M442 1036q-72 0 -113.5 40t-41.5 118v104q0 77 41.5 117.5t120.5 40.5h131q159 0 159 -166v-94q0 -76 -40.5 -118t-118.5 -42h-138zM455 1176h116v137h-116v-137z" />
    <glyph glyph-name="ogonek" unicode="&#x2db;" horiz-adv-x="1024" 
d="M702 16l-231 -153v-60h107v56h151v-52q0 -133 -149 -133h-111q-152 0 -152 138v24q0 48 21.5 76t64.5 51l91 53h208z" />
    <glyph glyph-name="tilde" unicode="&#x2dc;" horiz-adv-x="1024" 
d="M784 1217q0 -134 -114 -134h-97q-51 0 -79.5 17.5t-47.5 56.5l-22 55h-31v-120h-157v125q0 65 30.5 99t85.5 34h94q97 0 132 -86l18 -43h31v120h157v-124z" />
    <glyph glyph-name="hungarumlaut" unicode="&#x2dd;" horiz-adv-x="1024" 
d="M436 1083h-215l90 248h289zM770 1083h-213l88 248h289z" />
    <glyph glyph-name="gravecmb" unicode="&#x300;" horiz-adv-x="0" 
d="M-70 1083l-163 248h288l88 -248h-213z" />
    <glyph glyph-name="acutecmb" unicode="&#x301;" horiz-adv-x="0" 
d="M70 1083h-213l88 248h288z" />
    <glyph glyph-name="circumflexcmb" unicode="&#x302;" horiz-adv-x="0" 
d="M82 1083l-82 111l-82 -111h-190l114 248h316l114 -248h-190z" />
    <glyph glyph-name="tildecmb" unicode="&#x303;" horiz-adv-x="0" 
d="M272 1217q0 -134 -114 -134h-97q-51 0 -79.5 17.5t-47.5 56.5l-22 55h-31v-120h-157v125q0 65 30.5 99t85.5 34h94q97 0 132 -86l18 -43h31v120h157v-124z" />
    <glyph glyph-name="macroncmb" unicode="&#x304;" horiz-adv-x="0" 
d="M-242 1112v186h484v-186h-484z" />
    <glyph glyph-name="brevecmb" unicode="&#x306;" horiz-adv-x="0" 
d="M-256 1335h176v-92h160v92h176v-106q0 -83 -39 -119.5t-119 -36.5h-194q-80 0 -120 36.5t-40 119.5v106z" />
    <glyph glyph-name="dotaccentcmb" unicode="&#x307;" horiz-adv-x="0" 
d="M-119 1096v225h238v-225h-238z" />
    <glyph glyph-name="dieresiscmb" unicode="&#x308;" horiz-adv-x="0" 
d="M-258 1094v227h219v-227h-219zM39 1094v227h219v-227h-219z" />
    <glyph glyph-name="ringcmb" unicode="&#x30a;" horiz-adv-x="0" 
d="M-70 1036q-72 0 -113.5 40t-41.5 118v104q0 77 41.5 117.5t120.5 40.5h131q159 0 159 -166v-94q0 -76 -40.5 -118t-118.5 -42h-138zM-57 1176h116v137h-116v-137z" />
    <glyph glyph-name="hungarumlautcmb" unicode="&#x30b;" horiz-adv-x="0" 
d="M-72 1083h-215l90 248h289zM262 1083h-213l88 248h289z" />
    <glyph glyph-name="caroncmb" unicode="&#x30c;" horiz-adv-x="0" 
d="M-274 1331h190l84 -119l84 119h190l-102 -248h-344z" />
    <glyph glyph-name="commaturnedabovecmb" unicode="&#x312;" horiz-adv-x="0" 
d="M119 1413v-391h-238v201z" />
    <glyph glyph-name="commabelowcmb" unicode="&#x326;" horiz-adv-x="0" 
d="M-117 -457v381h234v-198z" />
    <glyph glyph-name="cedillacmb" unicode="&#x327;" horiz-adv-x="0" 
d="M-70 14h144v-43q77 0 112 -31.5t35 -103.5v-22q0 -76 -36 -113t-117 -37h-115q-148 0 -148 135v45h154v-51h107v66q-74 0 -105 27.5t-31 88.5v39z" />
    <glyph glyph-name="ogonekcmb" unicode="&#x328;" horiz-adv-x="0" 
d="M195 16l-232 -153v-60h107v56h151v-52q0 -133 -149 -133h-111q-151 0 -151 138v24q0 48 21.5 76t64.5 51l90 53h209z" />
    <glyph glyph-name="Delta" unicode="&#x394;" horiz-adv-x="972" 
d="M713 1331l241 -1331h-934l246 1331h447zM473 1090l-141 -852h311l-139 852h-31z" />
    <glyph glyph-name="Delta" unicode="&#x2206;" horiz-adv-x="972" 
d="M713 1331l241 -1331h-934l246 1331h447zM473 1090l-141 -852h311l-139 852h-31z" />
    <glyph glyph-name="Omega" unicode="&#x3a9;" horiz-adv-x="1026" 
d="M29 0v238h147l-51 94q-22 41 -31.5 72t-9.5 77v615q0 116 56.5 175.5t158.5 59.5h414q119 0 173 -63t54 -195v-592q0 -48 -9 -79t-32 -70l-49 -94h147v-238h-442v201l119 229v657h-324v-657l121 -229v-201h-442z" />
    <glyph glyph-name="Omega" unicode="&#x2126;" horiz-adv-x="1026" 
d="M29 0v238h147l-51 94q-22 41 -31.5 72t-9.5 77v615q0 116 56.5 175.5t158.5 59.5h414q119 0 173 -63t54 -195v-592q0 -48 -9 -79t-32 -70l-49 -94h147v-238h-442v201l119 229v657h-324v-657l121 -229v-201h-442z" />
    <glyph glyph-name="pi" unicode="&#x3c0;" horiz-adv-x="1011" 
d="M37 739l-21 232h971l-22 -232h-107v-510h109v-229h-146q-113 0 -163 56t-50 167v516h-217v-739h-250v739h-104z" />
    <glyph glyph-name="Wgrave" unicode="&#x1e80;" horiz-adv-x="1443" 
d="M647 1405l-164 248h289l88 -248h-213zM215 0l-205 1331h269l122 -1059h15l147 1059h311l160 -1059h13l120 1059h269l-203 -1331h-367l-137 961h-14l-135 -961h-365z" />
    <glyph glyph-name="wgrave" unicode="&#x1e81;" horiz-adv-x="1298" 
d="M575 1059l-163 248h288l88 -248h-213zM199 0l-195 971h252l117 -738h6l129 738h280l138 -738h6l110 738h252l-192 -971h-328l-123 657h-6l-113 -657h-333z" />
    <glyph glyph-name="Wacute" unicode="&#x1e82;" horiz-adv-x="1443" 
d="M786 1405h-213l89 248h288zM215 0l-205 1331h269l122 -1059h15l147 1059h311l160 -1059h13l120 1059h269l-203 -1331h-367l-137 961h-14l-135 -961h-365z" />
    <glyph glyph-name="wacute" unicode="&#x1e83;" horiz-adv-x="1298" 
d="M715 1059h-213l88 248h289zM199 0l-195 971h252l117 -738h6l129 738h280l138 -738h6l110 738h252l-192 -971h-328l-123 657h-6l-113 -657h-333z" />
    <glyph glyph-name="Wdieresis" unicode="&#x1e84;" horiz-adv-x="1443" 
d="M459 1415v227h219v-227h-219zM756 1415v227h219v-227h-219zM215 0l-205 1331h269l122 -1059h15l147 1059h311l160 -1059h13l120 1059h269l-203 -1331h-367l-137 961h-14l-135 -961h-365z" />
    <glyph glyph-name="wdieresis" unicode="&#x1e85;" horiz-adv-x="1298" 
d="M387 1069v227h219v-227h-219zM684 1069v227h219v-227h-219zM199 0l-195 971h252l117 -738h6l129 738h280l138 -738h6l110 738h252l-192 -971h-328l-123 657h-6l-113 -657h-333z" />
    <glyph glyph-name="Germandbls" unicode="&#x1e9e;" horiz-adv-x="1009" 
d="M70 0v1077q0 117 57.5 185.5t167.5 68.5h598v-229l-197 -311l144 -62q75 -36 103 -81t28 -136v-260q0 -120 -57.5 -186t-168.5 -66h-342l21 233h283v263l-183 79q-104 54 -104 156q0 15 2.5 29t10 31t11.5 26t16 30t15 27l115 213h-256v-1087h-264z" />
    <glyph glyph-name="Ygrave" unicode="&#x1ef2;" horiz-adv-x="907" 
d="M383 1405l-164 248h289l88 -248h-213zM582 0h-269v518l-323 813h278l181 -538h6l184 538h276l-333 -811v-520z" />
    <glyph glyph-name="ygrave" unicode="&#x1ef3;" horiz-adv-x="876" 
d="M369 1059l-164 248h289l88 -248h-213zM63 203v768h252v-742h240v742h254v-1061q0 -124 -52 -180t-171 -56h-371l21 215h319v189q-137 -80 -289 -80q-105 0 -154 51.5t-49 153.5z" />
    <glyph glyph-name="endash" unicode="&#x2013;" horiz-adv-x="770" 
d="M27 504v239h716v-239h-716z" />
    <glyph glyph-name="emdash" unicode="&#x2014;" horiz-adv-x="1306" 
d="M27 504v239h1253v-239h-1253z" />
    <glyph glyph-name="horizontalbar" unicode="&#x2015;" horiz-adv-x="2048" 
d="M2048 504h-2048v239h2048v-239z" />
    <glyph glyph-name="quotesinglbase" unicode="&#x201a;" horiz-adv-x="380" 
d="M63 -301v440h254v-235z" />
    <glyph glyph-name="quotedblleft" unicode="&#x201c;" horiz-adv-x="712" 
d="M655 1466v-440h-254v236zM317 1466v-440h-254v236z" />
    <glyph glyph-name="quotedblright" unicode="&#x201d;" horiz-adv-x="718" 
d="M63 891v440h254v-235zM401 891v440h254v-235z" />
    <glyph glyph-name="quotedblbase" unicode="&#x201e;" horiz-adv-x="718" 
d="M63 -301v440h254v-235zM401 -301v440h254v-235z" />
    <glyph glyph-name="dagger" unicode="&#x2020;" horiz-adv-x="747" 
d="M248 1192h252v-350h207v-217h-207l-29 -938h-195l-28 938h-207v217h207v350z" />
    <glyph glyph-name="daggerdbl" unicode="&#x2021;" horiz-adv-x="757" 
d="M506 41v-354h-254v354h-207v217h207l18 184l-18 183h-207v217h207v350h254v-350h207v-217h-207l-21 -183l21 -184h207v-217h-207z" />
    <glyph glyph-name="bullet" unicode="&#x2022;" horiz-adv-x="475" 
d="M178 416q-129 0 -129 155v138q0 78 35 111.5t102 33.5h103q137 0 137 -158v-123q0 -157 -137 -157h-111z" />
    <glyph glyph-name="ellipsis" unicode="&#x2026;" horiz-adv-x="1155" 
d="M330 236v-236h-267v236h267zM713 236v-236h-267v236h267zM1094 236v-236h-267v236h267z" />
    <glyph glyph-name="perthousand" unicode="&#x2030;" horiz-adv-x="2158" 
d="M221 700q-71 0 -124.5 43t-53.5 125v293q0 78 51.5 124t130.5 46h201q92 0 141 -49.5t49 -126.5v-285q0 -72 -48.5 -121t-133.5 -49h-213zM295 0l637 1331h262l-635 -1331h-264zM248 879h164v268h-164v-268zM1718 0q-70 0 -124 43.5t-54 124.5v293q0 79 51.5 124.5
t130.5 45.5h203q90 0 140.5 -49.5t50.5 -124.5v-285q0 -72 -49.5 -122t-133.5 -50h-215zM1057 0q-70 0 -124 43.5t-54 124.5v293q0 79 51.5 124.5t130.5 45.5h203q90 0 140 -49.5t50 -124.5v-285q0 -72 -49 -122t-133 -50h-215zM1747 178h164v271h-164v-271zM1085 178h164
v271h-164v-271z" />
    <glyph glyph-name="minute" unicode="&#x2032;" horiz-adv-x="329" 
d="M78 1331h229l-69 -379h-187z" />
    <glyph glyph-name="second" unicode="&#x2033;" horiz-adv-x="612" 
d="M78 1331h229l-69 -379h-187zM360 1331h230l-70 -379h-186z" />
    <glyph glyph-name="guilsinglleft" unicode="&#x2039;" horiz-adv-x="501" 
d="M446 377v-221l-405 252v178l405 266v-221l-202 -133z" />
    <glyph glyph-name="guilsinglright" unicode="&#x203a;" horiz-adv-x="501" 
d="M55 631v221l406 -252v-178l-406 -266v221l203 133z" />
    <glyph glyph-name="fraction" unicode="&#x2044;" horiz-adv-x="761" 
d="M4 0l535 1331h217l-533 -1331h-219z" />
    <glyph glyph-name="fraction" unicode="&#x2215;" horiz-adv-x="761" 
d="M4 0l535 1331h217l-533 -1331h-219z" />
    <glyph glyph-name="zero.sups" unicode="&#x2070;" horiz-adv-x="638" 
d="M420 1331q178 0 178 -172v-467q0 -77 -43.5 -118.5t-124.5 -41.5h-223q-81 0 -123.5 44.5t-42.5 119.5v463q0 78 40 125t130 47h209zM406 1153h-175v-442h175v442z" />
    <glyph glyph-name="four.sups" unicode="&#x2074;" horiz-adv-x="673" 
d="M569 532h-192v113h-348v166l276 520h264v-512h88v-174h-88v-113zM381 1122q-20 -60 -37 -94l-102 -209h135v211q0 56 4 92z" />
    <glyph glyph-name="five.sups" unicode="&#x2075;" horiz-adv-x="630" 
d="M397 700v179h-356v452h520v-170h-328v-125h187q170 0 170 -153v-191q0 -77 -43.5 -118.5t-126.5 -41.5h-213q-81 0 -123.5 44.5t-42.5 119.5v99h190v-95h166z" />
    <glyph glyph-name="six.sups" unicode="&#x2076;" horiz-adv-x="632" 
d="M41 1151q0 82 41 131t127 49h350v-170h-326v-127h187q170 0 170 -164v-172q0 -80 -42.5 -123t-121.5 -43h-219q-80 0 -123 48.5t-43 126.5v444zM233 700h164v177h-164v-177z" />
    <glyph glyph-name="seven.sups" unicode="&#x2077;" horiz-adv-x="563" 
d="M344 532h-192v103q0 306 178 526h-312v170h525v-170q-98 -106 -148.5 -228t-50.5 -298v-103z" />
    <glyph glyph-name="eight.sups" unicode="&#x2078;" horiz-adv-x="628" 
d="M37 692v137q0 94 53 117q-49 30 -49 103v110q0 83 40 127.5t140 44.5h189q100 0 139 -45.5t39 -126.5v-110q0 -75 -47 -103q51 -23 51 -117v-137q0 -77 -42.5 -118.5t-125.5 -41.5h-217q-84 0 -127 42.5t-43 117.5zM397 1163h-166v-147h166v147zM229 700h172v166h-172
v-166z" />
    <glyph glyph-name="nine.sups" unicode="&#x2079;" horiz-adv-x="632" 
d="M592 713q0 -82 -41 -131.5t-127 -49.5h-350v170h325v127h-186q-170 0 -170 164v172q0 80 42.5 123t121.5 43h219q81 0 123.5 -48t42.5 -126v-444zM399 1163h-163v-176h163v176z" />
    <glyph glyph-name="Euro" unicode="&#x20ac;" horiz-adv-x="1013" 
d="M23 393v223h114v95h-114v223h114v170q0 119 56.5 173t164.5 54h375q129 0 179.5 -62t50.5 -196v-129h-263v143h-299v-153h168v-223h-168v-95h168v-223h-168v-149h299v172h263v-164q0 -113 -53.5 -182.5t-176.5 -69.5h-364q-110 0 -171 61.5t-61 184.5v147h-114z" />
    <glyph glyph-name="copyrightsound" unicode="&#x2117;" horiz-adv-x="1536" 
d="M1300 -223h-1050q-76 0 -125 42.5t-49 127.5v1241q0 143 147 143h1094q141 0 141 -143v-1241q0 -80 -45 -125t-113 -45zM266 -53h1002v1214h-1002v-1214zM963 270h-322v-200h-238v966h560q90 0 131 -51t41 -151v-363q0 -100 -41 -150.5t-131 -50.5zM641 475h258v340h-258
v-340z" />
    <glyph glyph-name="trademark" unicode="&#x2122;" horiz-adv-x="925" 
d="M119 862v352h-111v117h346v-117h-108v-352h-127zM778 862v221v86q-2 -33 -10 -71l-53 -236h-146l-55 236q-1 4 -6.5 28t-7.5 39q2 -37 2 -82v-221h-113v469h178l72 -321h4l70 321h178v-469h-113z" />
    <glyph glyph-name="partialdiff" unicode="&#x2202;" horiz-adv-x="890" 
d="M823 252q0 -252 -243 -252h-293q-103 0 -165.5 62.5t-62.5 185.5v508q0 223 222 223q156 0 290 -86v256h-311l-18 217h358q120 0 171.5 -56t51.5 -182v-876zM311 227h260v510h-260v-510z" />
    <glyph glyph-name="product" unicode="&#x220f;" horiz-adv-x="1110" 
d="M14 1092v239h1082v-239h-121v-1266h-268v1266h-304v-1266h-268v1266h-121z" />
    <glyph glyph-name="summation" unicode="&#x2211;" horiz-adv-x="856" 
d="M813 -174h-770v229l283 525l-283 522v229h770v-237h-467l279 -510l-283 -521h471v-237z" />
    <glyph glyph-name="minus" unicode="&#x2212;" horiz-adv-x="733" 
d="M53 504v241h627v-241h-627z" />
    <glyph glyph-name="radical" unicode="&#x221a;" horiz-adv-x="1112" 
d="M424 231l211 1100h465v-237h-244l-266 -1094h-348l-238 971h258l148 -740h14z" />
    <glyph glyph-name="infinity" unicode="&#x221e;" horiz-adv-x="985" 
d="M627 350q-42 0 -72.5 24.5t-60.5 78.5q-29 -56 -63 -79.5t-91 -23.5h-115q-170 0 -170 178v234q0 176 154 176h137q49 0 82.5 -22.5t60.5 -69.5q27 48 60 70t82 22h147q152 0 152 -176v-234q0 -87 -39.5 -132.5t-110.5 -45.5h-153zM618 741l-40 -96l40 -102h115v198h-115
zM367 543l41 104l-41 94h-115v-198h115z" />
    <glyph glyph-name="integral" unicode="&#x222b;" horiz-adv-x="606" 
d="M410 -90q0 -124 -52.5 -180t-171.5 -56h-247l18 217h199v1246q0 118 44.5 173.5t170.5 55.5h252l-21 -229h-192v-1227z" />
    <glyph glyph-name="approxequal" unicode="&#x2248;" horiz-adv-x="735" 
d="M483 866l31 95h182l-16 -121q-22 -193 -170 -193q-52 0 -104.5 19t-153.5 75l-31 -92h-182l16 119q13 103 56 148t114 45q52 0 105 -19.5t153 -75.5zM483 502l31 92h182l-16 -121q-21 -192 -170 -192q-52 0 -104.5 19t-153.5 75l-31 -92h-182l16 118q24 193 170 193
q52 0 105 -18.5t153 -73.5z" />
    <glyph glyph-name="notequal" unicode="&#x2260;" horiz-adv-x="733" 
d="M53 324v241h191l26 119h-217v242h271l26 118h217l-26 -118h139v-242h-193l-26 -119h219v-241h-272l-29 -127h-217l28 127h-137z" />
    <glyph glyph-name="lessequal" unicode="&#x2264;" horiz-adv-x="733" 
d="M680 758l-354 -105v-6l354 -96v-246l-627 227v232l627 237v-243zM53 47v225h627v-225h-627z" />
    <glyph glyph-name="greaterequal" unicode="&#x2265;" horiz-adv-x="733" 
d="M53 758v243l627 -237v-232l-627 -227v246l355 96v6zM680 47h-627v225h627v-225z" />
    <glyph glyph-name="lozenge" unicode="&#x25ca;" horiz-adv-x="788" 
d="M225 1167h342l195 -585l-201 -582h-342l-194 582zM385 180h14l131 402l-127 405h-14l-131 -405z" />
    <glyph glyph-name="checkmark" unicode="&#x2713;" horiz-adv-x="921" 
d="M424 231l211 1100h280l-325 -1331h-348l-238 971h258l148 -740h14z" />
    <glyph glyph-name="commaaccent" unicode="&#xf6c3;" horiz-adv-x="1024" 
d="M395 -457v381h234v-198z" />
    <glyph glyph-name="apple" unicode="&#xf8ff;" horiz-adv-x="2017" 
d="M1034 -238q-90 60 -195 101t-183 58t-166.5 48t-151.5 74q-84 57 -126.5 206t-45.5 347q56 61 83 150.5t27 150.5q0 130 -55 240l178 202q4 -4 27 -23t29 -23t27 -19.5t31 -20t31.5 -15.5t38.5 -15t41 -9.5t50.5 -7.5t56.5 -2q108 0 188.5 34.5t124.5 86.5
q38 -49 111.5 -81t181.5 -32q30 0 56.5 2t50.5 7.5t41.5 9.5t38 15t31.5 16t31 20t27 20t28.5 23t27.5 23l178 -203q-55 -110 -55 -240q0 -60 27.5 -150.5t81.5 -150.5q-2 -198 -44 -347t-126 -206q-62 -43 -151.5 -74t-167.5 -49t-183 -60.5t-195 -105.5z" />
    <glyph glyph-name="engtail" horiz-adv-x="706" 
d="M324 127h251v-217q0 -124 -51.5 -180t-171.5 -56h-248l19 217h201v236z" />
    <glyph glyph-name="notdef" horiz-adv-x="1024" 
 />
    <glyph glyph-name="caroncmb.vert" horiz-adv-x="0" orientation="v" 
d="M90 1055h-201l33 311h246z" />
    <glyph glyph-name="R.alt2" horiz-adv-x="958" 
d="M338 0h-266v1331h643q97 0 140.5 -56t43.5 -177v-449q0 -88 -32 -136.5t-101 -61.5h-14l-4 -13q153 -130 153 -438h-266q-1 203 -81.5 305.5t-215.5 102.5v-408zM338 637h297v450h-297v-450z" />
    <glyph glyph-name="Racute.alt2" horiz-adv-x="958" 
d="M567 1405h-213l88 248h289zM338 0h-266v1331h643q97 0 140.5 -56t43.5 -177v-449q0 -88 -32 -136.5t-101 -61.5h-14l-4 -13q153 -130 153 -438h-266q-1 203 -81.5 305.5t-215.5 102.5v-408zM338 637h297v450h-297v-450z" />
    <glyph glyph-name="Rcommaaccent.alt2" horiz-adv-x="958" 
d="M338 0h-266v1331h643q97 0 140.5 -56t43.5 -177v-449q0 -88 -32 -136.5t-101 -61.5h-14l-4 -13q153 -130 153 -438h-266q-1 203 -81.5 305.5t-215.5 102.5v-408zM338 637h297v450h-297v-450zM369 -457v381h233v-198z" />
    <glyph glyph-name="Rcaron.alt2" horiz-adv-x="958" 
d="M211 1653h190l84 -119l84 119h191l-103 -248h-344zM338 0h-266v1331h643q97 0 140.5 -56t43.5 -177v-449q0 -88 -32 -136.5t-101 -61.5h-14l-4 -13q153 -130 153 -438h-266q-1 203 -81.5 305.5t-215.5 102.5v-408zM338 637h297v450h-297v-450z" />
    <glyph glyph-name="Aogonek.alt_j" horiz-adv-x="1390" 
d="M913 0l-217 -137v-60h70v56h149v-52q0 -133 -145 -133h-74q-151 0 -151 138v24q0 50 14 76.5t49 54.5l41 33v270h-313v-270h-266v1090q0 118 55.5 179.5t161.5 61.5h415q102 0 156.5 -63.5t54.5 -186.5v-1081zM1317 1294v-217h-252v217h252zM336 1087v-585h313v585h-313z
M1065 971h252v-1061q0 -124 -51 -180t-170 -56h-152l19 217h102v1080z" />
    <glyph glyph-name="A.alt" horiz-adv-x="983" 
d="M336 0h-266v1090q0 118 55.5 179.5t161.5 61.5h415q102 0 156.5 -63.5t54.5 -186.5v-1081h-264v270h-313v-270zM336 1087v-585h313v585h-313z" />
    <glyph glyph-name="Agrave.alt" horiz-adv-x="983" 
d="M420 1405l-164 248h289l88 -248h-213zM336 0h-266v1090q0 118 55.5 179.5t161.5 61.5h415q102 0 156.5 -63.5t54.5 -186.5v-1081h-264v270h-313v-270zM336 1087v-585h313v585h-313z" />
    <glyph glyph-name="Aacute.alt" horiz-adv-x="983" 
d="M559 1405h-213l88 248h289zM336 0h-266v1090q0 118 55.5 179.5t161.5 61.5h415q102 0 156.5 -63.5t54.5 -186.5v-1081h-264v270h-313v-270zM336 1087v-585h313v585h-313z" />
    <glyph glyph-name="Acircumflex.alt" horiz-adv-x="983" 
d="M571 1405l-82 111l-81 -111h-191l115 248h315l115 -248h-191zM336 0h-266v1090q0 118 55.5 179.5t161.5 61.5h415q102 0 156.5 -63.5t54.5 -186.5v-1081h-264v270h-313v-270zM336 1087v-585h313v585h-313z" />
    <glyph glyph-name="Atilde.alt" horiz-adv-x="983" 
d="M762 1552q0 -133 -115 -133h-96q-51 0 -79.5 17.5t-47.5 56.5l-23 55h-30v-121h-158v125q0 65 31 99.5t86 34.5h94q95 0 131 -87l18 -43h31v121h158v-125zM336 0h-266v1090q0 118 55.5 179.5t161.5 61.5h415q102 0 156.5 -63.5t54.5 -186.5v-1081h-264v270h-313v-270z
M336 1087v-585h313v585h-313z" />
    <glyph glyph-name="Adieresis.alt" horiz-adv-x="983" 
d="M231 1415v227h220v-227h-220zM528 1415v227h220v-227h-220zM336 0h-266v1090q0 118 55.5 179.5t161.5 61.5h415q102 0 156.5 -63.5t54.5 -186.5v-1081h-264v270h-313v-270zM336 1087v-585h313v585h-313z" />
    <glyph glyph-name="Aring.alt" horiz-adv-x="983" 
d="M336 0h-266v1090q0 112 49.5 173.5t144.5 67.5v21v104q0 77 41.5 117.5t120.5 40.5h131q80 0 120 -43t40 -123v-94v-23q95 -5 145.5 -68t50.5 -182v-1081h-264v270h-313v-270zM432 1333h117v137h-117v-137zM336 1087v-585h313v585h-313z" />
    <glyph glyph-name="Amacron.alt" horiz-adv-x="983" 
d="M248 1434v186h483v-186h-483zM336 0h-266v1090q0 118 55.5 179.5t161.5 61.5h415q102 0 156.5 -63.5t54.5 -186.5v-1081h-264v270h-313v-270zM336 1087v-585h313v585h-313z" />
    <glyph glyph-name="Abreve.alt" horiz-adv-x="983" 
d="M233 1657h177v-92h159v92h176v-107q0 -83 -38.5 -119t-118.5 -36h-195q-80 0 -120 36.5t-40 118.5v107zM336 0h-266v1090q0 118 55.5 179.5t161.5 61.5h415q102 0 156.5 -63.5t54.5 -186.5v-1081h-264v270h-313v-270zM336 1087v-585h313v585h-313z" />
    <glyph glyph-name="Aogonek.alt" horiz-adv-x="983" 
d="M913 0l-217 -137v-60h107v56h151v-52q0 -133 -147 -133h-111q-151 0 -151 138v24q0 50 14 76.5t49 54.5l41 33v270h-313v-270h-266v1090q0 118 55.5 179.5t161.5 61.5h415q102 0 156.5 -63.5t54.5 -186.5v-1081zM336 1087v-585h313v585h-313z" />
    <glyph glyph-name="Aringacute.alt" horiz-adv-x="983" 
d="M559 1679h-213l88 248h289zM336 0h-266v1090q0 112 49.5 173.5t144.5 67.5v21v104q0 77 41.5 117.5t120.5 40.5h131q80 0 120 -43t40 -123v-94v-23q95 -5 145.5 -68t50.5 -182v-1081h-264v270h-313v-270zM432 1333h117v137h-117v-137zM336 1087v-585h313v585h-313z" />
    <glyph glyph-name="K.alt" horiz-adv-x="942" 
d="M72 0v1331h266v-522q46 0 92.5 32t87.5 93t68.5 164.5t31.5 232.5h269q-13 -259 -94.5 -422t-208.5 -204v-17q72 -21 129 -70t101.5 -129.5t69 -204.5t25.5 -284h-268q-1 275 -83.5 412t-219.5 137v-549h-266z" />
    <glyph glyph-name="Kcommaaccent.alt" horiz-adv-x="942" 
d="M72 0v1331h266v-522q46 0 92.5 32t87.5 93t68.5 164.5t31.5 232.5h269q-13 -259 -94.5 -422t-208.5 -204v-17q72 -21 129 -70t101.5 -129.5t69 -204.5t25.5 -284h-268q-1 275 -83.5 412t-219.5 137v-549h-266zM375 -457v381h233v-198z" />
    <glyph glyph-name="R.alt" horiz-adv-x="960" 
d="M338 0h-266v1331h643q98 0 141 -55.5t43 -177.5v-406q0 -126 -70 -166q70 -37 70 -170v-356h-268v403h-293v-403zM338 641h297v446h-297v-446z" />
    <glyph glyph-name="Racute.alt" horiz-adv-x="960" 
d="M565 1405h-213l88 248h289zM338 0h-266v1331h643q98 0 141 -55.5t43 -177.5v-406q0 -126 -70 -166q70 -37 70 -170v-356h-268v403h-293v-403zM338 641h297v446h-297v-446z" />
    <glyph glyph-name="Rcommaaccent.alt" horiz-adv-x="960" 
d="M338 0h-266v1331h643q98 0 141 -55.5t43 -177.5v-406q0 -126 -70 -166q70 -37 70 -170v-356h-268v403h-293v-403zM338 641h297v446h-297v-446zM367 -457v381h233v-198z" />
    <glyph glyph-name="Rcaron.alt" horiz-adv-x="960" 
d="M205 1653h190l84 -119l84 119h191l-103 -248h-344zM338 0h-266v1331h643q98 0 141 -55.5t43 -177.5v-406q0 -126 -70 -166q70 -37 70 -170v-356h-268v403h-293v-403zM338 641h297v446h-297v-446z" />
    <glyph glyph-name="Y.alt" horiz-adv-x="989" 
d="M653 1331h267v-756q0 -247 -203 -256h-90v-319h-267v319h-88q-95 3 -148.5 64.5t-53.5 173.5v774h268v-776h315v776z" />
    <glyph glyph-name="Yacute.alt" horiz-adv-x="989" 
d="M573 1405h-213l89 248h288zM653 1331h267v-756q0 -247 -203 -256h-90v-319h-267v319h-88q-95 3 -148.5 64.5t-53.5 173.5v774h268v-776h315v776z" />
    <glyph glyph-name="Ycircumflex.alt" horiz-adv-x="989" 
d="M575 1405l-81 111l-82 -111h-191l115 248h315l115 -248h-191zM653 1331h267v-756q0 -247 -203 -256h-90v-319h-267v319h-88q-95 3 -148.5 64.5t-53.5 173.5v774h268v-776h315v776z" />
    <glyph glyph-name="Ydieresis.alt" horiz-adv-x="989" 
d="M236 1415v227h219v-227h-219zM532 1415v227h220v-227h-220zM653 1331h267v-756q0 -247 -203 -256h-90v-319h-267v319h-88q-95 3 -148.5 64.5t-53.5 173.5v774h268v-776h315v776z" />
    <glyph glyph-name="Ygrave.alt" horiz-adv-x="989" 
d="M414 1405l-164 248h289l88 -248h-213zM653 1331h267v-756q0 -247 -203 -256h-90v-319h-267v319h-88q-95 3 -148.5 64.5t-53.5 173.5v774h268v-776h315v776z" />
    <glyph glyph-name="k.alt" horiz-adv-x="843" 
d="M70 0v1366h252v-745q88 2 145.5 91.5t64.5 258.5h261q-10 -171 -79 -298t-188 -155v-18q131 -22 206.5 -148.5t78.5 -351.5h-258q-4 182 -68 278.5t-163 96.5v-375h-252z" />
    <glyph glyph-name="kcommaaccent.alt" horiz-adv-x="843" 
d="M70 0v1366h252v-745q88 2 145.5 91.5t64.5 258.5h261q-10 -171 -79 -298t-188 -155v-18q131 -22 206.5 -148.5t78.5 -351.5h-258q-4 182 -68 278.5t-163 96.5v-375h-252zM322 -457v381h233v-198z" />
    <glyph glyph-name="kgreenlandic.alt" horiz-adv-x="843" 
d="M70 0v971h252v-350q88 2 145.5 91.5t64.5 258.5h261q-10 -171 -79 -298t-188 -155v-18q131 -22 206.5 -148.5t78.5 -351.5h-258q-4 182 -68 278.5t-163 96.5v-375h-252z" />
    <glyph glyph-name="ampersand.alt" horiz-adv-x="952" 
d="M598 -162h-242v162h-53q-124 0 -182 64t-58 174v286q0 129 80 168q-67 34 -67 150v258q0 118 50.5 174.5t188.5 56.5h41v174h242v-174h55q137 0 188.5 -57.5t51.5 -183.5v-150h-264v160h-289v-307h276v-224h-288v-338h301v187h270v-182q0 -105 -58.5 -170.5t-185.5 -65.5
h-57v-162z" />
    <glyph glyph-name="dollar.rvrn" horiz-adv-x="944" 
d="M885 475v-223q0 -120 -57.5 -186t-168.5 -66h-67v-162h-242v162h-65q-102 0 -164 62.5t-62 183.5v209h267v-217h24v356l-168 78q-70 37 -96.5 82t-26.5 131v229q0 114 56 165.5t164 51.5h71v176h242v-176h65q126 0 177 -61.5t51 -196.5v-176h-262v197h-31v-324l172 -78
q71 -35 96 -80t25 -137zM326 893l24 -10v211h-24v-201zM623 467l-31 14v-243h31v229z" />
    </font>
</defs>
</svg>
