<?xml version="1.0" standalone="no"?>
<!DOCTYPE svg PUBLIC "-//W3C//DTD SVG 1.1//EN" "http://www.w3.org/Graphics/SVG/1.1/DTD/svg11.dtd" >
<svg xmlns="http://www.w3.org/2000/svg" xmlns:xlink="http://www.w3.org/1999/xlink" version="1.1">
<metadata>
Created by FontForge 20201107 at Mon Sep  7 17:22:25 2015
 By 
Copyright (c) 2015 by Francesco Canovaro. All rights reserved.
</metadata>
<defs>
<font id="Aquawax-Black" horiz-adv-x="1222" >
  <font-face 
    font-family="Aquawax"
    font-weight="900"
    font-stretch="normal"
    units-per-em="2000"
    panose-1="2 0 5 3 2 0 0 2 0 4"
    ascent="1600"
    descent="-400"
    x-height="1050"
    cap-height="1433"
    bbox="-280 -517 2341 2075"
    underline-thickness="120"
    underline-position="-200"
    unicode-range="U+000D-FB06"
  />
<missing-glyph horiz-adv-x="1280" 
d="M959 358q-65 -56 -146 -88.5t-175 -32.5q-93 0 -173 32.5t-145 88.5h639zM280 395q-58 66 -88.5 147t-30.5 174q0 88 27.5 164t81.5 139h633zM317 1073q66 58 147 89.5t174 31.5q94 0 174.5 -32t142.5 -89h-638zM1083 891q17 -41 25 -84t8 -91q0 -88 -28 -165.5
t-81 -140.5h-635l623 627q29 -33 51 -69t37 -77zM793 159q-38 -11 -75.5 -16t-79.5 -5q-123 0 -229 46.5t-183 126t-121 184.5t-44 221q0 123 46.5 229t125.5 184t184 122.5t221 44.5q125 0 231 -48t183 -128.5t120 -185t43 -218.5q0 -105 -33 -195t-90 -161.5t-134 -122.5
t-165 -78zM779 1229q-65 18 -141 18q-114 0 -211 -43.5t-167.5 -116.5t-110.5 -169t-40 -202q0 -107 40.5 -203.5t111.5 -170t167.5 -116.5t209.5 -43q109 0 205.5 41.5t169 113.5t114.5 169.5t42 208.5q0 97 -31 181t-84 150t-124 112.5t-151 69.5z" />
    <glyph glyph-name=".notdef" horiz-adv-x="1280" 
d="M959 358q-65 -56 -146 -88.5t-175 -32.5q-93 0 -173 32.5t-145 88.5h639zM280 395q-58 66 -88.5 147t-30.5 174q0 88 27.5 164t81.5 139h633zM317 1073q66 58 147 89.5t174 31.5q94 0 174.5 -32t142.5 -89h-638zM1083 891q17 -41 25 -84t8 -91q0 -88 -28 -165.5
t-81 -140.5h-635l623 627q29 -33 51 -69t37 -77zM793 159q-38 -11 -75.5 -16t-79.5 -5q-123 0 -229 46.5t-183 126t-121 184.5t-44 221q0 123 46.5 229t125.5 184t184 122.5t221 44.5q125 0 231 -48t183 -128.5t120 -185t43 -218.5q0 -105 -33 -195t-90 -161.5t-134 -122.5
t-165 -78zM779 1229q-65 18 -141 18q-114 0 -211 -43.5t-167.5 -116.5t-110.5 -169t-40 -202q0 -107 40.5 -203.5t111.5 -170t167.5 -116.5t209.5 -43q109 0 205.5 41.5t169 113.5t114.5 169.5t42 208.5q0 97 -31 181t-84 150t-124 112.5t-151 69.5z" />
    <glyph glyph-name=".null" horiz-adv-x="0" 
 />
    <glyph glyph-name="nonmarkingreturn" unicode="&#xd;" horiz-adv-x="0" 
 />
    <glyph glyph-name="NULL" horiz-adv-x="0" 
 />
    <glyph glyph-name="NULL" horiz-adv-x="0" 
 />
    <glyph glyph-name="space" unicode=" " horiz-adv-x="617" 
 />
    <glyph glyph-name="exclam" unicode="!" horiz-adv-x="744" 
d="M243 547v887h292v-887h-292zM574 166q0 -38 -14.5 -71t-39.5 -57t-58.5 -38t-71.5 -14t-72 14t-59.5 38t-40 57t-14.5 71t14.5 71t40 57t59.5 38t72 14t71.5 -14t58.5 -38t39.5 -57t14.5 -71z" />
    <glyph glyph-name="quotedbl" unicode="&#x22;" horiz-adv-x="841" 
d="M17 1433h292v-346q0 -30 -13 -54.5t-34 -42t-47.5 -26.5t-52.5 -9t-52 9t-46.5 26.5t-33.5 42t-13 54.5v346zM463 1433h292v-346q0 -30 -13 -54.5t-34 -42t-47.5 -26.5t-52.5 -9t-52 9t-46.5 26.5t-33.5 42t-13 54.5v346z" />
    <glyph glyph-name="numbersign" unicode="#" horiz-adv-x="1197" 
d="M729 1290q6 33 25.5 59t47 45t60.5 29t66 10h125l-77 -395h182l-30 -142q-7 -32 -22.5 -59t-38.5 -47t-53 -31.5t-66 -11.5h-30l-16 -94h198l-27 -130q-6 -32 -22 -61t-39.5 -51t-54 -35.5t-66.5 -13.5h-48l-43 -219q-14 -66 -60.5 -104.5t-112.5 -38.5h-152l72 362h-87
l-43 -218q-6 -33 -25.5 -59.5t-47 -45.5t-60 -29t-65.5 -10h-127l72 362h-170l29 143q6 31 21 58t38 47t53 31.5t67 11.5h19q2 8 6 32.5t11 61.5h-188l27 131q6 31 22 60t39.5 51.5t54.5 36t68 13.5h35q12 63 24.5 125.5t25.5 125.5q13 66 60 104.5t114 38.5h150l-77 -394
h86zM516 653h87q2 8 5.5 28t11.5 66h-85z" />
    <glyph glyph-name="dollar" unicode="$" horiz-adv-x="1096" 
d="M455 1582h145v-141q54 -9 105 -33t97.5 -56.5t87 -71.5t73.5 -79l-101 -85q-30 -26 -62.5 -37t-72.5 -11q-32 0 -56 8t-45 17.5t-42 17.5t-46 8q-26 0 -50 -4.5t-43.5 -14.5t-31 -24.5t-11.5 -35.5q0 -32 16 -50.5t48 -32t81 -27t114 -35.5q83 -28 151.5 -68.5t117 -95
t75.5 -122.5t27 -152q0 -92 -34.5 -170t-93.5 -138t-137.5 -99.5t-166.5 -53.5v-173h-145v166q-80 7 -152.5 35.5t-132 74t-105 106.5t-71.5 132l104 60q25 14 53.5 22.5t57.5 8.5q43 0 77.5 -18t67.5 -39t68 -39t80 -18q30 0 65.5 9.5t66 27.5t50.5 44.5t20 61.5
q0 33 -18.5 54t-50 36.5t-72.5 28.5t-86 31q-74 28 -146 61t-129 81.5t-92.5 118t-35.5 172.5q0 85 31 154t83.5 120t121.5 83t145 43v142z" />
    <glyph glyph-name="percent" unicode="%" horiz-adv-x="1700" 
d="M555 90q-32 -43 -75 -66.5t-101 -23.5h-256l1006 1343q32 43 75 66.5t101 23.5h256zM75 1082q0 76 25.5 143t71.5 116.5t109.5 78.5t139.5 29t140 -29t110 -78.5t71.5 -116.5t25.5 -143t-25.5 -143t-71.5 -116.5t-110 -78t-140 -28.5t-139.5 28.5t-109.5 78t-71.5 116.5
t-25.5 143zM334 1083q0 -41 23.5 -69.5t63.5 -28.5q41 0 64.5 28.5t23.5 69.5t-23.5 69t-64.5 28q-40 0 -63.5 -28t-23.5 -69zM924 352q0 76 25.5 143t71.5 116.5t109.5 78.5t139.5 29t140 -29t110 -78.5t71.5 -116.5t25.5 -143t-25.5 -143t-71.5 -116.5t-110 -78
t-140 -28.5t-139.5 28.5t-109.5 78t-71.5 116.5t-25.5 143zM1183 353q0 -41 23.5 -69.5t63.5 -28.5q41 0 64.5 28.5t23.5 69.5t-23.5 69t-64.5 28q-40 0 -63.5 -28t-23.5 -69z" />
    <glyph glyph-name="ampersand" unicode="&#x26;" horiz-adv-x="1466" 
d="M884 623l18 -19l40 53q39 53 93.5 82t130.5 29h225l-277 -374l399 -394h-283q-48 0 -84 8.5t-64 23t-50 32.5t-43 38l-19 18q-42 -36 -92.5 -61.5t-104.5 -41t-109.5 -23t-109.5 -7.5q-107 0 -198.5 36.5t-159 100.5t-106 150t-38.5 185q0 51 15 103.5t37.5 98t47.5 81.5
t45 54l6 4t19 5t33.5 -4.5t49.5 -23.5q-30 28 -49.5 61t-30 66t-14.5 62.5t-4 49.5q0 95 35 174t93.5 136t135.5 89t160 32q67 0 127.5 -13t116.5 -44t108.5 -84t105.5 -132l-116 -62q-27 -14 -59.5 -17.5t-53.5 -3.5q-42 0 -73 10t-57.5 22.5t-52 22.5t-56.5 10
q-18 0 -39 -7.5t-39.5 -23.5t-30.5 -41.5t-12 -61.5q0 -20 5 -34t20 -30.5t41 -39.5t69 -61t104 -94.5t145 -139.5zM677 416l-220 217q-20 -14 -40 -34t-36 -43t-26 -48t-10 -50q0 -49 20 -83.5t52 -57t73.5 -33t85.5 -10.5q48 0 94 13t91 44z" />
    <glyph glyph-name="quotesingle" unicode="'" horiz-adv-x="550" 
d="M120 1433h312l-30 -428q-5 -61 -39.5 -96.5t-87.5 -35.5t-86.5 35.5t-38.5 96.5z" />
    <glyph glyph-name="parenleft" unicode="(" horiz-adv-x="695" 
d="M408 638q0 -174 37 -314t96 -249q17 -32 28.5 -77.5t11.5 -87.5q0 -21 -3.5 -46.5t-10.5 -50t-18 -45.5t-26 -33l-61 -45q-62 82 -124 186t-111 225t-79.5 256.5t-30.5 280.5t28.5 277.5t75.5 250.5t106.5 219t122.5 183l61 -46q16 -12 27 -33t17.5 -45.5t9.5 -50
t3 -46.5q0 -45 -11.5 -90.5t-28.5 -75.5q-30 -54 -51 -113.5t-35 -126t-22 -142t-12 -161.5z" />
    <glyph glyph-name="parenright" unicode=")" horiz-adv-x="658" 
d="M253 638q-4 86 -12 161.5t-22.5 142.5t-35.5 127t-51 114q-17 30 -28.5 75.5t-11.5 90.5q0 21 3 46.5t9.5 50t17.5 45.5t27 33l61 46q63 -82 123 -183.5t107 -219.5t75.5 -251t28.5 -278t-30.5 -280.5t-79.5 -256.5t-111 -225t-124 -186l-61 45q-15 12 -26 33t-18 45.5
t-10.5 50t-3.5 46.5q0 42 11.5 87.5t28.5 77.5q59 109 96 249t37 314z" />
    <glyph glyph-name="asterisk" unicode="*" horiz-adv-x="800" 
d="M203 969l-120 209l143 83q15 9 27 13t22 5.5t18.5 1.5t15.5 1q-16 1 -34.5 2t-47.5 18l-145 85l121 212l144 -83l22.5 -13.5t11 -8t6 -7.5t7.5 -11l-6 10.5t-3 8.5t-1.5 13.5t-0.5 26.5v167h246v-167v-26.5t-1 -13t-3.5 -8.5t-6.5 -12q6 7 8 11t5.5 8t10.5 8.5t22 13.5
l145 83l118 -214l-143 -83q-16 -9 -27 -13.5t-19.5 -5.5t-16 -1h-14.5q8 -1 15.5 -1.5t16.5 -2.5t19.5 -6.5t25.5 -12.5l144 -85l-121 -207l-144 83q-15 9 -23.5 15.5t-13.5 11.5t-7.5 9t-5.5 9q2 -5 4.5 -9t4.5 -11t3.5 -17.5t1.5 -27.5v-167h-242v167q0 18 1 28t2.5 17
t4 11t4.5 10q-4 -5 -6.5 -9t-7.5 -9t-13 -11t-23 -14z" />
    <glyph glyph-name="plus" unicode="+" horiz-adv-x="1178" 
d="M432 190v330h-330v291h330v333h291v-333h333v-291h-333v-330h-291z" />
    <glyph glyph-name="comma" unicode="," horiz-adv-x="424" 
d="M14 172q0 37 14.5 69.5t39.5 56.5t58 38t71 14q37 0 70.5 -14t58.5 -38t39.5 -56.5t14.5 -69.5q0 -103 -55 -208t-170 -202l-43 41q-19 17 -26 34.5t-7 37.5q0 17 6.5 31t15.5 28.5t17.5 30.5t12.5 37q-63 26 -90 72t-27 98z" />
    <glyph glyph-name="hyphen" unicode="-" horiz-adv-x="790" 
d="M688 522h-595v291h595v-291z" />
    <glyph glyph-name="period" unicode="." horiz-adv-x="424" 
d="M384 165q0 -38 -14.5 -71t-39.5 -57t-58.5 -38t-71.5 -14t-72 14t-59.5 38t-40 57t-14.5 71t14.5 71t40 57t59.5 38t72 14t71.5 -14t58.5 -38t39.5 -57t14.5 -71z" />
    <glyph glyph-name="slash" unicode="/" horiz-adv-x="983" 
d="M618 1344q26 54 70.5 91t108.5 37h196l-629 -1435q-12 -29 -33 -52t-47 -40t-56.5 -26t-63.5 -9h-173z" />
    <glyph glyph-name="zero" unicode="0" horiz-adv-x="1656" 
d="M92 717q0 101 26.5 194.5t74.5 174.5t115 147.5t149 114t176 73.5t195 26t195 -26t176 -73.5t149 -114t115 -147.5t74.5 -174.5t26.5 -194.5t-26.5 -194.5t-74.5 -174.5t-115 -147.5t-149 -114t-176 -73.5t-195 -26q-102 0 -195.5 26t-175.5 73.5t-149 114t-115 147.5
t-74.5 174.5t-26.5 194.5zM419 717q0 -83 33 -156.5t89 -128.5t130 -86.5t157 -31.5q82 0 156.5 31.5t130.5 86.5t89 128.5t33 156.5t-33 156.5t-89 128t-130.5 86.5t-156.5 32q-83 0 -157 -32t-130 -86.5t-89 -128t-33 -156.5z" />
    <glyph glyph-name="one" unicode="1" horiz-adv-x="848" 
d="M383 -1v1011q-26 -38 -58.5 -58t-54.5 -20q-32 0 -54.5 11.5t-45.5 34.5l-105 105l371 353h274v-1437h-327z" />
    <glyph glyph-name="two" unicode="2" horiz-adv-x="1211" 
d="M1110 0h-990v146q0 17 3 38.5t10 44t19 45t30 41.5l21 20.5t56 55.5t81 81.5t95.5 98t99.5 105.5t93 104.5t76 94t49 74.5q21 40 10.5 72t-38 54t-64.5 34t-69 12q-36 0 -63.5 -9.5t-48.5 -28.5q-42 -38 -79.5 -54.5t-81.5 -16.5q-29 0 -55.5 11.5t-51.5 24.5l-111 57
q10 18 26 47t36.5 61t45 63t51.5 55q65 57 149.5 88t182.5 31q99 0 190.5 -33.5t161 -93.5t111 -144t41.5 -185q0 -35 -5 -65.5t-14 -58.5t-22.5 -55.5t-31.5 -57.5q-24 -40 -61 -91t-80 -105t-88.5 -107t-86.5 -96q-17 -18 -34 -28.5t-31 -15.5q-16 -6 -31 -8h499v-306z
" />
    <glyph glyph-name="three" unicode="3" horiz-adv-x="1171" 
d="M594 -13q-99 0 -186.5 33t-154.5 87q-27 24 -52 57t-45.5 66t-37 63.5t-26.5 50.5l109 53q53 31 111 31q42 0 80.5 -15t68.5 -44l15 -12q21 -17 57 -34.5t79 -17.5q34 0 63 13t50 36t33 54t12 67q0 35 -11.5 66.5t-33.5 55.5t-52.5 38.5t-67.5 14.5h-162v273h175
q22 0 42 8.5t35 23t24 34t9 41.5t-9 42t-24 35t-35 24t-42 9q-25 0 -42 -4.5t-44 -20.5q-17 -10 -36.5 -22.5t-40 -23.5t-42.5 -18.5t-44 -7.5q-24 0 -46.5 7t-43.5 17.5t-40 23.5t-36 25l-75 54q50 61 104 111.5t111.5 87.5t118.5 57.5t125 20.5q90 0 168.5 -29t137 -81
t92.5 -123.5t34 -156.5q0 -60 -20 -121.5t-65 -122.5q79 -66 125 -154t46 -194q0 -102 -37 -189.5t-104.5 -151.5t-161.5 -100.5t-208 -36.5z" />
    <glyph glyph-name="four" unicode="4" horiz-adv-x="1208" 
d="M650 0v300h-568v169q0 32 9.5 61.5t21.5 52.5q14 27 32 52l415 692q30 48 77.5 76t102.5 28h248v-825h172v-306h-172v-300h-338zM528 656q-5 -12 -11.5 -21.5t-11.5 -15.5q-6 -8 -12 -13h167v356z" />
    <glyph glyph-name="five" unicode="5" horiz-adv-x="1228" 
d="M1081 1127h-480q-1 -5 -2.5 -14t-3 -19t-2.5 -19.5t-2 -15.5q108 0 207 -36.5t174.5 -104t121 -162t45.5 -211.5q0 -116 -44.5 -217.5t-121 -177t-179.5 -119.5t-219 -44q-61 0 -122.5 16.5t-120.5 46.5t-114.5 73t-104.5 96l86 85q32 32 70 52t87 20h4q30 0 55 -9.5
t50 -21t51.5 -21t58.5 -9.5q48 0 90.5 17.5t74.5 48t50.5 72t18.5 89.5q0 46 -18 87t-49.5 72t-73.5 48.5t-90 17.5q-20 0 -40.5 -5.5t-42.5 -12t-45 -12t-47 -5.5q-33 0 -62.5 13.5t-51.5 38t-35 57.5t-13 72q0 2 0.5 6.5t2.5 20.5t6.5 47.5t13 88.5t21.5 144t32 213h764
v-306z" />
    <glyph glyph-name="six" unicode="6" horiz-adv-x="1229" 
d="M73 525q0 66 15.5 128t44.5 118l232 535q13 27 34.5 50t48 40t57 27t61.5 10h212l-162 -368q111 -1 209 -43.5t170.5 -116t115 -171.5t42.5 -209t-42.5 -209.5t-116 -172t-172 -116t-209.5 -42.5t-209.5 42.5t-172 116t-116 172t-42.5 209.5zM401 524q0 -43 16.5 -81.5
t45 -67t67 -45t81.5 -16.5t81.5 16.5t67.5 45t45.5 67t16.5 81.5t-16.5 81.5t-45.5 67.5t-67.5 45.5t-81.5 16.5t-81.5 -16.5t-67 -45.5t-45 -67.5t-16.5 -81.5z" />
    <glyph glyph-name="seven" unicode="7" horiz-adv-x="1165" 
d="M119 1433h991v-146q0 -15 -3.5 -31t-7.5 -29q-4 -15 -10 -29l-199 -456l-267 -615q-28 -63 -81.5 -95t-119.5 -32h-213l464 1067q6 14 15.5 25t18.5 19q11 9 21 14h-609v308z" />
    <glyph glyph-name="eight" unicode="8" horiz-adv-x="1198" 
d="M500 1037q0 -43 29.5 -72.5t73.5 -29.5q21 0 39.5 8t33 21.5t22.5 32.5t8 40t-8 39.5t-22.5 33t-33 22.5t-39.5 8q-22 0 -40.5 -8t-32.5 -22.5t-22 -33t-8 -39.5zM437 474q0 -35 12 -66t34 -54t52.5 -36t66.5 -13q34 0 63 13t50 36t33 54t12 67q0 34 -11 65.5t-31.5 55
t-50 37.5t-65.5 14q-38 0 -68.5 -14t-52 -38t-33 -55.5t-11.5 -65.5zM86 470q0 56 13 106.5t37 94.5t57.5 82t73.5 69q-32 47 -52.5 108t-20.5 121q0 81 32 153t87.5 126t129.5 86t158 32q82 0 156 -32t130.5 -86t89.5 -126t33 -153q0 -61 -21 -122.5t-57 -106.5
q84 -66 132 -156.5t48 -199.5q0 -102 -37 -190.5t-104.5 -154t-161.5 -102.5t-208 -37t-208.5 36.5t-163 101.5t-106 154.5t-37.5 195.5z" />
    <glyph glyph-name="nine" unicode="9" horiz-adv-x="1251" 
d="M1153 893q0 -66 -15.5 -128t-44.5 -118l-232 -535q-13 -27 -34.5 -50t-48 -40t-57 -27t-61.5 -10h-212l162 368q-111 1 -209 43.5t-170.5 116t-115 171.5t-42.5 209t42.5 209.5t116 172t172 116t209.5 42.5t209.5 -42.5t172 -116t116 -172t42.5 -209.5zM825 894
q0 43 -16.5 81.5t-45 67t-67 45t-81.5 16.5q-44 0 -82 -16.5t-67 -45t-45.5 -67t-16.5 -81.5q0 -44 16.5 -82t45.5 -67t67 -45.5t82 -16.5q43 0 81.5 16.5t67 45.5t45 67t16.5 82z" />
    <glyph glyph-name="colon" unicode=":" horiz-adv-x="424" 
d="M385 165q0 -38 -14.5 -71t-39.5 -57t-58.5 -38t-71.5 -14t-72 14t-59.5 38t-40 57t-14.5 71t14.5 71t40 57t59.5 38t72 14t71.5 -14t58.5 -38t39.5 -57t14.5 -71zM384 1005q0 -38 -14.5 -71t-39.5 -57t-58.5 -38t-71.5 -14t-72 14t-59.5 38t-40 57t-14.5 71t14.5 71
t40 57t59.5 38t72 14t71.5 -14t58.5 -38t39.5 -57t14.5 -71z" />
    <glyph glyph-name="semicolon" unicode=";" horiz-adv-x="424" 
d="M386 1012q0 -38 -14.5 -71t-39.5 -57t-58.5 -38t-71.5 -14t-72 14t-59.5 38t-40 57t-14.5 71t14.5 71t40 57t59.5 38t72 14t71.5 -14t58.5 -38t39.5 -57t14.5 -71zM14 170q0 37 14.5 69.5t39.5 56.5t58 38t71 14q37 0 70.5 -14t58.5 -38t39.5 -56.5t14.5 -69.5
q0 -103 -55 -208t-170 -202l-43 41q-19 17 -26 34.5t-7 37.5q0 17 6.5 31t15.5 28.5t17.5 30.5t12.5 37q-63 26 -90 72t-27 98z" />
    <glyph glyph-name="less" unicode="&#x3c;" horiz-adv-x="1160" 
d="M119 726q0 64 38 107t93 71l758 327v-188q0 -32 -14 -63.5t-39 -60t-60 -52.5t-78 -40q-50 -20 -89 -35.5t-74 -30.5t-70.5 -31t-78.5 -35q-7 -4 -19 -8t-24 -7q-14 -4 -30 -8q16 -4 30 -8q12 -4 23.5 -7.5t18.5 -7.5q75 -33 149.5 -66t149.5 -65q107 -46 156 -101
t49 -115v-189l-758 327q-59 26 -95 68t-36 111v107z" />
    <glyph glyph-name="equal" unicode="=" horiz-adv-x="1160" 
d="M1006 773h-854v292h854v-292zM1006 269h-854v292h854v-292z" />
    <glyph glyph-name="greater" unicode="&#x3e;" horiz-adv-x="1160" 
d="M1035 619q0 -69 -36 -111t-95 -68l-758 -327v189q0 60 49 115t156 101q75 32 149.5 65t149.5 66q6 4 18 7.5t24 7.5q14 4 30 8q-16 4 -30 8q-12 3 -24.5 7t-18.5 8q-43 19 -78.5 35t-70.5 31t-74 30.5t-89 35.5q-43 16 -78 40t-60 52.5t-39 60t-14 63.5v188l758 -327
q55 -28 93 -71t38 -107v-107z" />
    <glyph glyph-name="question" unicode="?" horiz-adv-x="888" 
d="M9 1138q28 57 65.5 111.5t90.5 98t125 70t168 26.5q107 0 192.5 -18t145 -59.5t91 -108.5t31.5 -165q0 -46 -9.5 -85t-27 -73t-43 -64.5t-57.5 -58.5q-45 -39 -76 -68.5t-50.5 -53.5t-28 -45t-8.5 -43v-86h-292v58q0 90 21.5 152.5t54 106t70.5 72t70.5 52.5t54 47.5
t21.5 56.5q0 23 -3 44.5t-16 38.5t-39.5 27t-72.5 10q-16 0 -34.5 -4.5t-36.5 -11t-34.5 -15.5t-26.5 -18q-5 -3 -15.5 -14t-26.5 -23t-37.5 -21.5t-47.5 -9.5q-43 0 -103 21zM658 165q0 -38 -14.5 -71t-39.5 -57t-58.5 -38t-71.5 -14t-72 14t-59.5 38t-40 57t-14.5 71
t14.5 71t40 57t59.5 38t72 14t71.5 -14t58.5 -38t39.5 -57t14.5 -71z" />
    <glyph glyph-name="at" unicode="@" horiz-adv-x="1669" 
d="M1187 944q-16 -109 -28 -188t-20.5 -133.5t-13.5 -88.5t-8 -54.5t-4 -29.5t-1 -14q0 -12 -4 -13q56 0 100.5 26t75 64t47 83t16.5 83q0 95 -28.5 173.5t-87.5 135t-148.5 87.5t-211.5 31q-83 0 -155 -22.5t-132 -61t-107 -91.5t-79.5 -114t-49.5 -127.5t-17 -132.5
q0 -74 21 -142.5t58.5 -128t88.5 -108t110.5 -83t125.5 -53.5t133 -19q94 0 187.5 26t174.5 64q22 13 48.5 18t48.5 5t44 -7.5t41.5 -19.5t35 -26t24.5 -26l45 -60q-3 -3 -27.5 -21t-66.5 -43.5t-100.5 -54.5t-129.5 -53.5t-153.5 -41t-171.5 -16.5q-104 0 -203.5 27.5
t-188 78.5t-163 122.5t-128 159t-83.5 189.5t-30 213q0 113 30 216t83.5 192t128 162t163 124.5t189 79.5t205.5 28q91 0 180.5 -22t171 -63.5t151 -101t121 -135t80.5 -166t29 -192.5q0 -98 -36 -192.5t-101 -169.5t-156.5 -121t-202.5 -46q-60 0 -96 17.5t-56 38.5
q-23 25 -32 56q-25 -19 -53.5 -36t-58 -30t-59.5 -20.5t-57 -7.5q-121 0 -184.5 73t-63.5 207q0 121 52.5 219t149 164t233 96.5t304.5 16.5zM739 408q40 1 66.5 20.5t43 45.5t25 54.5t12.5 48.5l33 141q-56 -11 -99 -36.5t-72 -60t-43 -75t-12 -80.5q1 -33 15.5 -46
t30.5 -12z" />
    <glyph glyph-name="A" unicode="A" horiz-adv-x="1464" 
d="M591 1433h282l626 -1433h-211q-33 0 -63.5 8.5t-56.5 25t-47 40t-34 53.5l-70 159h-570l-68 -159q-12 -27 -33.5 -50t-48.5 -40.5t-58 -27t-62 -9.5h-212zM578 583h306l-125 300q-9 21 -14 39t-8 32q-4 16 -5 30q-2 -14 -6 -31q-3 -14 -8.5 -32t-13.5 -38z" />
    <glyph glyph-name="B" unicode="B" horiz-adv-x="1418" 
d="M431 0h-258v1433h634q91 0 171.5 -34t140.5 -93t94.5 -138.5t34.5 -169.5q0 -27 -9.5 -65t-26.5 -73.5t-41.5 -63t-55.5 -33.5q42 -5 77.5 -36.5t61.5 -78t41 -100.5t15 -103q0 -93 -35.5 -174t-96.5 -141t-143 -94.5t-175 -34.5zM872 327q23 0 43 9.5t35 26t24 38
t9 45.5t-8.5 45t-23.5 36.5t-35 25t-43 9.5h-373v-235h372zM500 1106v-216h319q21 0 40 8.5t33 23t22 34t8 41.5t-8 42t-22 35t-33 23.5t-40 8.5h-319z" />
    <glyph glyph-name="C" unicode="C" horiz-adv-x="1498" 
d="M417 717q0 -83 33 -156.5t89 -128.5t130 -86.5t157 -31.5q64 0 120.5 19.5t105.5 52.5q53 36 120 36q52 0 89 -16.5t68 -47.5l85 -85q-62 -66 -131.5 -119t-144 -90t-153.5 -57t-159 -20q-101 0 -195 26t-176 73.5t-149 114t-115 147.5t-74.5 174.5t-26.5 194.5
t26.5 194.5t74.5 174.5t115 147.5t149 114t176 73.5t195 26q80 0 159 -20t153.5 -57t144 -90t131.5 -119l-85 -85q-30 -30 -69 -47.5t-88 -17.5q-66 0 -120 37q-50 34 -106.5 53t-119.5 19q-83 0 -157 -32t-130 -86.5t-89 -128t-33 -156.5z" />
    <glyph glyph-name="D" unicode="D" horiz-adv-x="1580" 
d="M174 0v1433h593q99 0 191.5 -25.5t172.5 -72.5t146.5 -112.5t113.5 -145t73 -171t26 -190.5t-26 -190.5t-73 -171t-113.5 -145t-146.5 -112t-172.5 -72t-191.5 -25.5h-593zM767 328q79 0 150.5 30.5t126 83t86.5 123.5t32 151t-32 151t-86.5 124t-126 83.5t-150.5 30.5
h-266v-777h266z" />
    <glyph glyph-name="E" unicode="E" horiz-adv-x="1233" 
d="M1128 0h-954v1433h954v-306h-627v-251h510v-306h-510v-264h627v-306z" />
    <glyph glyph-name="F" unicode="F" horiz-adv-x="1203" 
d="M1026 851v-306h-525v-545h-327v1433h954v-306h-627v-276h525z" />
    <glyph glyph-name="G" unicode="G" horiz-adv-x="1520" 
d="M1382 804v-623q-57 -59 -122.5 -96.5t-136.5 -59t-145.5 -30t-150.5 -8.5q-101 0 -195 26t-175.5 73.5t-149 114t-115 147.5t-74 174.5t-26.5 194.5t26.5 194.5t74 174.5t115 147.5t149 114t175.5 73.5t195 26q80 0 159 -20t153.5 -56.5t144 -89.5t130.5 -119l-83 -86
q-62 -65 -157 -65q-67 0 -121 37q-50 33 -106.5 52.5t-119.5 19.5q-83 0 -157 -32t-129.5 -86.5t-88.5 -128t-33 -156.5q0 -87 34.5 -161t92 -127.5t133 -84t158.5 -30.5q57 0 114 11t103 33v138q-48 1 -88 16t-68.5 40.5t-44.5 60t-16 76.5v115h545z" />
    <glyph glyph-name="H" unicode="H" horiz-adv-x="1639" 
d="M1464 0h-327v567h-637v-567h-326v1433h326v-560h637v560h327v-1433z" />
    <glyph glyph-name="I" unicode="I" horiz-adv-x="747" 
d="M538 0h-328v1433h328v-1433z" />
    <glyph glyph-name="J" unicode="J" horiz-adv-x="876" 
d="M352 1433h327v-1252q0 -119 -24.5 -208.5t-67 -155t-99 -108t-120 -68t-130.5 -36t-130 -10.5q-102 0 -198.5 40t-189.5 130l94 94q33 33 70.5 48t83.5 15q21 0 39 -4.5t34.5 -10.5t33 -10.5t33.5 -4.5q37 0 80 11t79.5 42.5t60.5 88t24 147.5v1252z" />
    <glyph glyph-name="K" unicode="K" horiz-adv-x="1516" 
d="M658 799l345 523q14 21 33 41t41 35.5t46.5 25t50.5 9.5h294l-430 -653q-14 -20 -32.5 -31t-22.5 -12q1 0 7.5 -3t14.5 -8.5t17 -14t16 -18.5l460 -693h-294q-59 0 -99 30.5t-74 82.5l-373 561q-11 17 -24 29t-24.5 19t-19.5 10.5t-9 4.5q1 0 9 3t19.5 10t24.5 19t24 30z
M520 0h-327v1433h327v-1433z" />
    <glyph glyph-name="L" unicode="L" horiz-adv-x="1108" 
d="M174 0v1433h327v-1127h566v-306h-893z" />
    <glyph glyph-name="M" unicode="M" horiz-adv-x="2011" 
d="M1838 0h-327v956l-361 -956h-283l-368 956v-956h-327v1433h358q34 0 66 -9.5t58.5 -26t46.5 -40t30 -51.5l251 -717q5 -16 9.5 -36t8.5 -38q4 -21 7 -44q1 22 5 43q3 18 7.5 38.5t11.5 36.5l249 717q10 30 31 54t48 40t59 24.5t64 8.5h356v-1433z" />
    <glyph glyph-name="N" unicode="N" horiz-adv-x="1690" 
d="M1512 0h-325l-685 991v-991h-326v1433h322q48 0 85 -14t57 -43l501 -734q11 -16 19 -35t14 -35.5t9 -28.5t3 -15v905h326v-1433z" />
    <glyph glyph-name="O" unicode="O" horiz-adv-x="1656" 
d="M92 717q0 101 26.5 194.5t74.5 174.5t115 147.5t149 114t176 73.5t195 26t195 -26t176 -73.5t149 -114t115 -147.5t74.5 -174.5t26.5 -194.5t-26.5 -194.5t-74.5 -174.5t-115 -147.5t-149 -114t-176 -73.5t-195 -26q-102 0 -195.5 26t-175.5 73.5t-149 114t-115 147.5
t-74.5 174.5t-26.5 194.5zM419 717q0 -83 33 -156.5t89 -128.5t130 -86.5t157 -31.5q82 0 156.5 31.5t130.5 86.5t89 128.5t33 156.5t-33 156.5t-89 128t-130.5 86.5t-156.5 32q-83 0 -157 -32t-130 -86.5t-89 -128t-33 -156.5z" />
    <glyph glyph-name="P" unicode="P" horiz-adv-x="1356" 
d="M527 0h-327v1433h578q100 0 188.5 -40.5t154 -109t103.5 -159t38 -189.5t-38 -189.5t-103.5 -159t-154 -109t-188.5 -40.5h-251v-437zM779 765q30 0 58 15t49.5 39t34.5 54.5t13 61.5t-13 61.5t-34.5 54.5t-49.5 39t-58 15h-252v-340h252z" />
    <glyph glyph-name="Q" unicode="Q" horiz-adv-x="1656" 
d="M1042 22q-128 -35 -213 -35q-102 0 -196 26t-175.5 73.5t-149 114t-115.5 147.5t-74.5 174.5t-26.5 194.5t26.5 194.5t74.5 174.5t115.5 147.5t149 114t176 73.5t195.5 26t195 -26t175.5 -73.5t149 -114t115 -147.5t74 -174.5t26.5 -194.5q0 -129 -43 -246.5t-119 -211.5
l393 -532h-269q-75 0 -130 29t-93 82l-350 487q63 29 115 73t89.5 96t58.5 109t21 114q0 83 -33 156.5t-89 128t-130 86.5t-156 32q-83 0 -157.5 -32t-130.5 -86.5t-89 -128t-33 -156.5t33 -156t88.5 -128t129.5 -87t157 -32z" />
    <glyph glyph-name="R" unicode="R" horiz-adv-x="1412" 
d="M520 0h-327v1433h562q81 0 149.5 -21t124 -56.5t98 -84t71 -104t43 -114.5t14.5 -117q0 -57 -12.5 -113.5t-39.5 -110.5t-70 -103.5t-104 -92.5l382 -516h-273h-6q-9 0 -30.5 3t-48.5 14t-57 33t-57 61l-240 325h-179v-436zM772 765q30 0 58 15t49.5 39t34.5 54.5
t13 61.5t-13 61.5t-34.5 54.5t-49.5 39t-58 15h-252v-340h252z" />
    <glyph glyph-name="S" unicode="S" horiz-adv-x="1171" 
d="M603 1119q-26 0 -50.5 -4.5t-43.5 -14.5t-30.5 -25t-11.5 -36q0 -32 16 -50t48.5 -31.5t81 -27t113.5 -35.5q83 -28 151.5 -68.5t117 -95t75.5 -122.5t27 -152q0 -104 -44 -190.5t-117.5 -148.5t-169.5 -96.5t-199 -34.5q-88 0 -167.5 26t-146 72.5t-116.5 111t-78 140.5
l104 60q25 14 53.5 22.5t57.5 8.5q43 0 77.5 -18t67.5 -39t68 -39t80 -18q30 0 65.5 9.5t66 27.5t50.5 44.5t20 61.5q0 33 -18.5 54t-50 36.5t-72.5 28.5t-86 31q-74 28 -146 61t-129 81.5t-92.5 118t-35.5 172.5q0 97 39.5 172.5t104.5 127.5t148.5 79.5t171.5 27.5
q64 0 124.5 -21.5t114.5 -56t101 -78.5t85 -90l-101 -85q-30 -26 -62.5 -37t-72.5 -11q-32 0 -56 8t-45 17.5t-42 17.5t-46 8z" />
    <glyph glyph-name="T" unicode="T" horiz-adv-x="1215" 
d="M44 1128v306h1124v-306h-398v-1128h-327v1128h-399z" />
    <glyph glyph-name="U" unicode="U" horiz-adv-x="1494" 
d="M483 577q0 -54 22 -102t59 -84t85.5 -57t102.5 -21t102.5 21t86 57t59.5 84t22 102v856h327v-856q0 -123 -47 -230.5t-128 -187.5t-189.5 -126.5t-232.5 -46.5q-82 0 -158 21t-142 59.5t-121 92.5t-94 119.5t-60.5 141t-21.5 157.5v856h328v-856z" />
    <glyph glyph-name="V" unicode="V" horiz-adv-x="1502" 
d="M1107 1306q13 30 34 53.5t47 40t56.5 25t63.5 8.5h212l-626 -1433h-282l-626 1433h211q31 0 62 -9.5t58 -27t48.5 -40.5t33.5 -50l326 -749q7 -16 11.5 -35.5t8.5 -36.5q4 -20 7 -40q1 19 5 38q3 17 8 36t13 36z" />
    <glyph glyph-name="W" unicode="W" horiz-adv-x="2067" 
d="M1077 276q-13 30 -17 55.5t-4 42.5q0 16 1 21q0 4 1 7l-173 -402h-284l-625 1433h210q33 0 64 -10t57.5 -27t47 -40t32.5 -50l332 -757q7 -16 11.5 -32.5t7.5 -30.5q4 -17 5 -32q1 15 5 32q3 14 7.5 30.5t11.5 32.5l329 757q12 28 33 51.5t47.5 40t57.5 26t63 9.5h211
l-282 -652l93 -232q7 -17 11 -33.5t6 -30.5q3 -16 3 -31q0 15 3 31q2 14 6 30.5t12 33.5l332 757q12 28 33 51.5t48 40t58 26t63 9.5h211l-625 -1433h-283z" />
    <glyph glyph-name="X" unicode="X" horiz-adv-x="1501" 
d="M999 773q-11 -16 -15 -32q-2 -8 -2 -15q1 -7 3 -15q2 -7 5 -15t9 -16q58 -80 123 -168t130.5 -176.5t129 -174t119.5 -161.5h-267q-75 0 -130 30t-93 81l-233 314q-8 11 -13 23t-9 21q-4 11 -7 20q-3 -10 -7 -21q-4 -9 -9 -20.5t-12 -22.5l-227 -312q-40 -54 -95.5 -83.5
t-129.5 -29.5h-270l499 675q13 17 16 28.5t3 17.5v5q0 14 -6 27t-14 24l-485 656h270q72 0 129.5 -28.5t92.5 -82.5l218 -298q7 -11 12 -21.5t9 -19.5q4 -11 8 -20q2 8 6 19q3 8 7.5 19.5t12.5 22.5l217 296q74 113 225 113h268z" />
    <glyph glyph-name="Y" unicode="Y" horiz-adv-x="1505" 
d="M917 0h-327v608q0 20 -13 43t-30 47l-544 735h267q74 0 129.5 -29.5t93.5 -81.5l227 -308q10 -14 16 -26.5t10 -23.5q4 -12 7 -23q3 11 7 23q4 11 10 23.5t16 26.5l226 306q37 57 93.5 85t130.5 28h269l-545 -737q-18 -24 -30.5 -45t-12.5 -43v-608z" />
    <glyph glyph-name="Z" unicode="Z" horiz-adv-x="1298" 
d="M526 269q10 10 22 18q11 7 25.5 13t34.5 6h603v-306h-1122v149q0 94 60 163l612 815h-637v307h1099v-149q0 -40 -12.5 -79.5t-35.5 -70.5z" />
    <glyph glyph-name="bracketleft" unicode="[" horiz-adv-x="793" 
d="M142 1533h495l-34 -291h-170v-1240h170l34 -291h-495v1822z" />
    <glyph glyph-name="backslash" unicode="\" horiz-adv-x="855" 
d="M984 -89h-173q-33 0 -63.5 9t-57 26t-47 40t-32.5 52l-629 1435h196q64 0 109.5 -37t69.5 -91z" />
    <glyph glyph-name="bracketright" unicode="]" horiz-adv-x="731" 
d="M591 -289h-495l34 291h170v1240h-170l-34 291h495v-1822z" />
    <glyph glyph-name="asciicircum" unicode="^" horiz-adv-x="1172" 
d="M598 1447q33 0 63.5 -9t57 -26t47.5 -40.5t33 -51.5l226 -526h-173q-51 0 -83 13t-51 30q-22 18 -33 43q-5 5 -12.5 23.5t-16 43t-18 52.5t-17 53t-13.5 43.5t-7 25.5l-12 49l-12 -49q-2 -6 -7 -24.5t-13 -43.5t-17 -52.5t-18 -52t-16.5 -43t-11.5 -23.5q-13 -25 -35 -44
q-19 -17 -48.5 -30.5t-74.5 -13.5h-184l227 526q12 28 33 51.5t47.5 40.5t57 26t63.5 9h18z" />
    <glyph glyph-name="underscore" unicode="_" horiz-adv-x="788" 
d="M790 -345h-790v291h790v-291z" />
    <glyph glyph-name="grave" unicode="`" horiz-adv-x="813" 
d="M152 1522h249q57 0 99 -16t68 -50q4 -5 13.5 -20.5t28.5 -48.5t50 -88t78 -139h-190q-116 0 -168 69z" />
    <glyph glyph-name="a" unicode="a" horiz-adv-x="1139" 
d="M174 848q17 26 37 52q17 22 39 45t47 40q60 39 129 59.5t154 20.5q97 0 168 -21t120 -58.5t79.5 -89t47 -111.5t22.5 -126.5t6 -134.5v-524h-259q-9 12 -15 27q-5 13 -10 30.5t-5 40.5q-29 -34 -61.5 -56t-64 -34.5t-61 -17.5t-52.5 -5q-84 0 -157 25t-127 70.5
t-85 109.5t-31 142q0 174 131.5 260t382.5 86q23 0 39 -3.5t26 -7.5q11 -5 19 -11q-2 67 -35 109.5t-88 42.5q-25 0 -47 -9t-44 -19.5t-44.5 -19.5t-49.5 -9q-33 0 -65.5 13.5t-60.5 30.5zM497 258q44 0 95.5 13t103.5 39v156q-17 2 -39 3t-51 1q-39 0 -75.5 -7.5t-65 -22
t-45.5 -34.5t-17 -44q0 -18 6.5 -36.5t18.5 -33.5t29.5 -24.5t39.5 -9.5z" />
    <glyph glyph-name="b" unicode="b" horiz-adv-x="1285" 
d="M153 1433h327v-434q38 27 88.5 46.5t104.5 19.5q111 0 209.5 -42.5t172 -116t116 -172t42.5 -209.5q0 -110 -42 -208t-114.5 -172t-169.5 -117t-207 -43h-7q-33 0 -67.5 9.5t-65 24t-54.5 32.5t-37 36l-8 6q-2 -25 -7 -42.5t-10 -28.5q-6 -13 -12 -22h-259v1433zM671 314
q43 0 81.5 16.5t67.5 45t45.5 67t16.5 81.5t-16.5 81.5t-45.5 67.5t-67.5 45.5t-81.5 16.5q-63 0 -113.5 -34t-76.5 -88v-178q26 -54 76.5 -87.5t113.5 -33.5z" />
    <glyph glyph-name="c" unicode="c" horiz-adv-x="1087" 
d="M617 737q-41 0 -79.5 -15.5t-69 -44t-49 -67.5t-18.5 -85q0 -47 18.5 -86t49 -67t69 -44t79.5 -16q30 0 55 7.5t49.5 16.5t51 16.5t59.5 7.5q46 0 82 -18.5t66 -48.5l82 -83q-48 -51 -101 -93t-110 -71t-116 -45t-118 -16q-112 0 -210.5 42.5t-172.5 116t-117 172
t-43 209.5t43 209.5t117 172t172.5 116t210.5 42.5q59 0 118 -16t116 -45t110 -71t101 -93l-82 -84q-61 -63 -153 -63q-31 0 -58.5 7t-52.5 15t-49.5 15t-49.5 7z" />
    <glyph glyph-name="d" unicode="d" horiz-adv-x="1226" 
d="M1133 0h-259q-7 9 -12 22q-5 11 -10 28.5t-7 42.5l-8 -6q-13 -18 -37 -36t-54.5 -32.5t-65 -24t-67.5 -9.5h-7q-110 0 -207 43t-169.5 117t-114.5 172t-42 208q0 111 42.5 209.5t116 172t172 116t209.5 42.5q54 0 104.5 -19.5t88.5 -46.5v434h327v-1433zM615 314
q63 0 113.5 33.5t76.5 87.5v178q-26 54 -76.5 88t-113.5 34q-44 0 -82 -16.5t-67 -45.5t-45.5 -67.5t-16.5 -81.5t16.5 -81.5t45.5 -67t67 -45t82 -16.5z" />
    <glyph glyph-name="e" unicode="e" 
d="M1145 581q0 -47 -19 -80.5t-48 -54.5t-63.5 -30.5t-66.5 -9.5h-518q11 -36 35 -64q20 -24 54.5 -44t89.5 -20q29 0 55.5 9t52.5 19.5t53.5 19.5t59.5 9q47 0 82 -15.5t65 -45.5l83 -83q-95 -103 -210 -154.5t-235 -51.5q-112 0 -211 42.5t-172.5 116t-116.5 172
t-43 209.5t43 209.5t116.5 172t172.5 116t211 42.5q93 0 179 -33.5t156 -90.5t120 -133.5t70 -161.5q4 -16 4.5 -35.5t0.5 -29.5zM809 640q-18 37 -45 66q-23 25 -60.5 45.5t-91.5 20.5q-57 0 -95 -23.5t-61 -51.5q-26 -33 -41 -74q6 4 14 8q7 3 16 6t20 3h344z" />
    <glyph glyph-name="f" unicode="f" horiz-adv-x="730" 
d="M173 0v745h-151v185q0 28 4 50.5t18.5 38t43.5 23.5t80 8h5v85q0 69 21.5 126.5t62 99t98 65t129.5 23.5q30 0 72 -12t85.5 -31.5t84 -45t68.5 -53.5l-50 -82q-26 -44 -64.5 -62t-95.5 -18q-8 0 -26 4.5t-29 4.5q-20 0 -25.5 -11.5t-5.5 -26.5v-21.5t1 -42.5h194v-307
h-193v-745h-327z" />
    <glyph glyph-name="g" unicode="g" horiz-adv-x="1124" 
d="M1151 981q-9 -32 -25 -59t-37 -46.5t-48 -30.5t-58 -9q3 -10 8.5 -30.5t10.5 -45t9 -50t4 -46.5q0 -79 -30 -153t-84.5 -131.5t-130.5 -92.5t-167 -35q-41 0 -86 9t-84 29q-1 0 -9 -6.5t-17 -17.5t-16.5 -25.5t-7.5 -30.5q0 -22 18 -30t49 -8q23 0 51.5 3t60 7t65.5 7
t68 3q41 0 84.5 -7.5t85 -23.5t78.5 -41t65 -60t44 -81.5t16 -104.5q0 -53 -26.5 -117t-77.5 -120t-124.5 -93.5t-167.5 -37.5q-68 0 -144.5 17t-153 42t-148.5 53.5t-131 51.5l69 146q17 37 54.5 61t82.5 24q33 0 70 -11.5t77.5 -26t83.5 -26t88 -11.5q27 0 50 6t39.5 16
t26 22.5t9.5 25.5q0 23 -34.5 41.5t-114.5 18.5q-42 0 -88 -3t-92 -3q-51 0 -98.5 10.5t-83.5 37t-57.5 71.5t-21.5 114q0 18 9 45t26.5 57t42 58.5t56.5 49.5q-51 69 -73.5 132.5t-22.5 127.5q0 85 31.5 160t86 131t129 88.5t160.5 32.5q57 0 108.5 -15.5t96.5 -40.5
q10 4 28 8t39 7t42.5 4.5t39.5 1.5q42 0 77.5 -8t62.5 -17q31 -11 57 -24zM484 654q0 -23 9 -44t24.5 -36.5t36 -24.5t44.5 -9t44.5 9t36.5 24.5t25 36.5t9 44q0 24 -9 45.5t-25 37t-36.5 25t-44.5 9.5t-44.5 -9.5t-36 -25t-24.5 -37t-9 -45.5z" />
    <glyph glyph-name="h" unicode="h" horiz-adv-x="1260" 
d="M407 1433q18 -18 33 -41q12 -20 22.5 -46t10.5 -58v-320q15 21 42.5 39t59.5 30.5t64.5 20t56.5 7.5q94 0 170.5 -34t131.5 -96t85 -150.5t30 -197.5v-587h-327v573q0 39 -8.5 70.5t-23.5 53.5t-35 34t-43 12q-35 0 -70 -9t-64.5 -24t-48.5 -35.5t-20 -42.5v-632h-327
v1433h261z" />
    <glyph glyph-name="i" unicode="i" horiz-adv-x="657" 
d="M494 1050v-1050h-328v1050h328zM136 1335q0 39 15.5 70.5t41.5 53.5t61.5 34t75.5 12t75.5 -12t61.5 -34t41.5 -53.5t15.5 -70.5t-15.5 -70.5t-41.5 -53.5t-61.5 -34t-75.5 -12t-75.5 12t-61.5 34t-41.5 53.5t-15.5 70.5z" />
    <glyph glyph-name="j" unicode="j" horiz-adv-x="653" 
d="M492 1050v-976q0 -84 -30 -154.5t-82 -127t-120.5 -100.5t-144.5 -75l-57 127q-4 9 -7 20.5t-5 23t-3 22.5t-1 18q0 30 13.5 54.5t31.5 47t37 45.5t31 51q5 14 7.5 35t2.5 35v954h327zM136 1335q0 39 15.5 70.5t41.5 53.5t61.5 34t75.5 12t75.5 -12t61.5 -34t41.5 -53.5
t15.5 -70.5t-15.5 -70.5t-41.5 -53.5t-61.5 -34t-75.5 -12t-75.5 12t-61.5 34t-41.5 53.5t-15.5 70.5z" />
    <glyph glyph-name="k" unicode="k" horiz-adv-x="1240" 
d="M479 0h-327v1433h327v-1433zM788 937q9 25 29.5 45.5t46.5 35.5t56 23.5t59 8.5h219l-242 -466q-8 -10 -17.5 -18t-18.5 -13.5t-16.5 -8.5t-9.5 -3q2 0 9 -3t16.5 -8.5t19 -13.5t17.5 -18l267 -498h-219q-66 0 -117 26.5t-76 86.5l-200 366q-5 11 -16 22t-22 20
q-13 11 -28 20q15 7 28 17q11 8 22 19.5t16 25.5z" />
    <glyph glyph-name="l" unicode="l" horiz-adv-x="661" 
d="M494 1433v-1433h-328v1433h328z" />
    <glyph glyph-name="m" unicode="m" horiz-adv-x="1791" 
d="M1313 1063q104 0 176.5 -41t118.5 -108t66.5 -153t20.5 -176v-585h-330v574q0 26 -3.5 55.5t-13 54.5t-26.5 41.5t-43 16.5q-35 0 -70 -9t-63 -24t-45.5 -35t-17.5 -41v-633h-327v584q0 26 -5 54t-15 50.5t-25.5 37t-37.5 14.5q-36 0 -71.5 -8.5t-64 -23t-46 -34
t-17.5 -41.5v-633h-327v1050h257q8 -10 14 -26t10 -32q4 -18 6 -40q24 38 62.5 60t80.5 33.5t81.5 14.5t65.5 3q44 0 78.5 -8t61.5 -23t49.5 -35.5t42.5 -44.5q29 26 74.5 46.5t95.5 35t99.5 22t87.5 7.5z" />
    <glyph glyph-name="n" unicode="n" horiz-adv-x="1260" 
d="M394 1050q25 -27 34.5 -71t5.5 -88q12 34 41.5 65.5t69.5 55.5t87.5 38.5t96.5 14.5q94 0 167.5 -34t124.5 -96t78 -150.5t27 -197.5v-587h-327v572q0 56 -10.5 89.5t-27 51t-35.5 23t-35 5.5q-43 0 -82.5 -10t-69.5 -28.5t-48 -44.5t-18 -59v-599h-327v1050h248z" />
    <glyph glyph-name="o" unicode="o" horiz-adv-x="1226" 
d="M72 525q0 111 42.5 209.5t116 172t172 116t209.5 42.5t209.5 -42.5t172 -116t116 -172t42.5 -209.5t-42.5 -209.5t-116 -172t-172 -116t-209.5 -42.5t-209.5 42.5t-172 116t-116 172t-42.5 209.5zM400 524q0 -43 16.5 -81.5t45 -67t67 -45t81.5 -16.5t81.5 16.5t67.5 45
t45.5 67t16.5 81.5t-16.5 81.5t-45.5 67.5t-67.5 45.5t-81.5 16.5t-81.5 -16.5t-67 -45.5t-45 -67.5t-16.5 -81.5z" />
    <glyph glyph-name="p" unicode="p" horiz-adv-x="1288" 
d="M153 1051h259q6 -9 12 -22q5 -11 10 -28.5t7 -42.5l8 6q13 18 37 36t54.5 32.5t65 24t67.5 9.5h7q110 0 207 -43t169.5 -117t114.5 -172t42 -208q0 -111 -42.5 -209.5t-116 -172t-172 -116t-209.5 -42.5q-54 0 -104.5 19.5t-88.5 46.5v-392h-327v1391zM671 737
q-63 0 -113.5 -33.5t-76.5 -87.5v-178q26 -54 76.5 -88t113.5 -34q43 0 81.5 16.5t67.5 45.5t45.5 67t16.5 82q0 43 -16.5 81.5t-45.5 67t-67.5 45t-81.5 16.5z" />
    <glyph glyph-name="q" unicode="q" horiz-adv-x="1294" 
d="M1133 -340h-327v392q-38 -27 -88.5 -46.5t-104.5 -19.5q-111 0 -209.5 42.5t-172 116t-116 172t-42.5 209.5q0 110 42 208t114.5 172t169.5 117t207 43h7q33 0 67.5 -9.5t65 -24t54.5 -32.5t37 -36l8 -6q2 25 7 42.5t10 28.5q5 13 12 22h259v-1391zM615 737
q-44 0 -82 -16.5t-67 -45t-45.5 -67t-16.5 -81.5q0 -44 16.5 -82t45.5 -67t67 -45.5t82 -16.5q63 0 113.5 34t76.5 88v178q-26 54 -76.5 87.5t-113.5 33.5z" />
    <glyph glyph-name="r" unicode="r" horiz-adv-x="780" 
d="M400 1050q12 -13 18.5 -30t9.5 -32q4 -18 3 -36q14 28 40 49t57 34.5t64 20.5t61 7q87 0 219 -53l-23 -132q-7 -39 -26.5 -65t-46.5 -41.5t-59 -22t-65 -6.5q-34 0 -65 -9t-55 -23.5t-40.5 -33t-20.5 -37.5v-640h-327v1050h256z" />
    <glyph glyph-name="s" unicode="s" horiz-adv-x="914" 
d="M173 333q23 12 49 19.5t55 7.5q34 0 65 -22.5t69 -47.5q9 -6 22.5 -9.5t25.5 -3.5t24 4.5t21.5 12t16 18.5t6.5 23v5q-1 10 -6 18.5t-17 16t-32 16t-50 19.5q-57 20 -112.5 45.5t-99 64t-70.5 92.5t-27 131q0 68 30.5 126.5t81 101.5t114.5 67.5t131 24.5
q45 0 87.5 -12.5t79.5 -31.5t68.5 -42t55 -43.5t38 -37t18.5 -21.5l-74 -79q-29 -24 -54 -37t-56 -13q-22 0 -35 5.5t-27 12t-32.5 12t-51.5 5.5q-26 0 -42.5 -16t-16.5 -37q0 -11 3 -20.5t12 -14.5q15 -9 27.5 -13.5t27 -8t34 -8.5t48.5 -14q57 -18 106 -39t85 -53.5
t56.5 -82t20.5 -124.5q0 -73 -28.5 -139t-80.5 -115.5t-123.5 -79t-156.5 -29.5q-58 0 -115 20t-109 57t-96.5 90.5t-77.5 120.5z" />
    <glyph glyph-name="t" unicode="t" horiz-adv-x="782" 
d="M505 744v-374q0 -21 6 -34t14.5 -20t17.5 -9t16 -2q10 0 19.5 2t15.5 2q27 0 51 -8t44 -20t36 -27.5t29 -31.5q30 -38 50 -86q-29 -29 -70 -56t-85 -47.5t-86 -33t-73 -12.5q-72 0 -130 23.5t-98.5 65t-62.5 99t-22 126.5v443h-150v164q0 59 38 94.5t112 45.5v186
q0 40 12.5 72t27.5 55q18 26 41 48h247v-358h250v-307h-250z" />
    <glyph glyph-name="u" unicode="u" 
d="M845 0q-21 23 -31 59t-10 74v13t1 13q-12 -35 -41.5 -66.5t-69.5 -55.5t-87.5 -38t-96.5 -14q-94 0 -167.5 34t-124.5 96t-78 150.5t-27 197.5v587h327v-572q0 -56 10.5 -89.5t27 -51t35 -23t35.5 -5.5q43 0 82.5 10t69.5 28.5t48 44.5t18 59v599h327v-1050h-248z" />
    <glyph glyph-name="v" unicode="v" horiz-adv-x="1170" 
d="M-35 1050h210q31 0 61.5 -9t56.5 -25t46 -38.5t31 -50.5l191 -476q12 -30 15 -50t3 -28v-5q1 12 3 25q2 11 5 26t10 32l193 477q12 28 32 51t46 39t56 24.5t61 8.5h208l-427 -1051h-375z" />
    <glyph glyph-name="w" unicode="w" horiz-adv-x="1813" 
d="M-25 1050h210q31 0 61.5 -9t56.5 -25t46 -38.5t31 -50.5l191 -476q13 -32 15.5 -52t2.5 -26q0 8 3.5 29.5t14.5 48.5l193 477q12 28 32 51t46 39t56 24.5t61 8.5h208l-113 -278l131 -322q13 -32 15.5 -52t2.5 -26q0 8 3.5 29.5t14.5 48.5l193 477q12 28 32 51t46 39
t56 24.5t61 8.5h208l-427 -1051h-375l-120 352q-10 24 -10 46q0 10 2 20l2 8l-149 -426h-375z" />
    <glyph glyph-name="x" unicode="x" horiz-adv-x="1296" 
d="M1250 1050l-348 -475q-9 -13 -11 -20.5t-2 -9.5q0 -9 4 -17t9 -15l378 -513h-298q-34 0 -63.5 15t-63.5 50.5t-77.5 94.5t-106.5 148q-8 11 -13 21t-7 18q-3 9 -3 16q0 -7 -3 -16q-2 -8 -7 -18t-13 -22q-63 -88 -108 -147t-80.5 -94.5t-66 -50.5t-63.5 -15h-292l375 509
q11 15 13.5 23.5t2.5 10.5q0 10 -4.5 17.5t-9.5 15.5q-1 1 -3 3.5t-11.5 15.5t-30 41.5t-59 81t-98 133.5t-146.5 199h297q33 0 62.5 -15t62.5 -48t72 -86.5t91 -130.5q8 -11 11.5 -20t5.5 -16q2 -8 2 -14q0 6 2 14q2 7 6 16t12 20q36 51 63.5 101.5t58 90t69 64t95.5 24.5
h296z" />
    <glyph glyph-name="y" unicode="y" horiz-adv-x="1202" 
d="M15 1050h215q32 0 62.5 -9t57 -25.5t46 -40t29.5 -52.5l129 -328q17 -43 22.5 -73.5t5.5 -49.5q0 -14 -2 -24l-2 -8l189 486q23 58 76.5 91t117.5 33h217l-572 -1310q-11 -30 -31 -54t-46 -40.5t-57 -25.5t-62 -9h-216l223 515z" />
    <glyph glyph-name="z" unicode="z" horiz-adv-x="989" 
d="M515 277q11 8 22 14q10 5 22.5 10t24.5 5h345v-306h-859v143q0 89 57 157q92 121 170.5 233t153.5 211h-379v306h847v-142q0 -40 -12.5 -77t-35.5 -69z" />
    <glyph glyph-name="braceleft" unicode="{" horiz-adv-x="685" 
d="M86 753q9 0 24 2t31.5 8t30.5 16.5t20 28.5q10 30 10 61q0 28 -7 56t-15.5 58t-15.5 64.5t-7 76.5q0 54 9.5 104.5t30 96t53.5 84.5t80 69q57 37 109.5 51.5t112.5 14.5q7 -48 11.5 -76.5t7 -44.5t3 -23t0.5 -13q0 -33 -12 -58.5t-28 -45.5t-33 -35t-27 -28
q-12 -15 -18.5 -33.5t-9.5 -36.5t-3.5 -33.5t-0.5 -24.5q0 -45 9 -73t19.5 -55t19.5 -62t9 -96q0 -51 -8.5 -98.5t-36.5 -82.5q29 -35 38 -81t9 -97q0 -42 -4.5 -71t-10.5 -51t-14 -39.5t-14 -35.5t-10.5 -39.5t-4.5 -51.5q0 -36 6 -72.5t25 -56.5q11 -12 28 -26.5t33 -34
t27.5 -45.5t11.5 -60q0 -6 -0.5 -13.5t-3 -24t-7 -44.5t-11.5 -74h-8t-17 0.5t-16.5 0.5h-7.5q-9 2 -27.5 6.5t-42.5 12t-51 19t-52 28.5q-94 62 -133.5 151.5t-39.5 199.5q0 42 7.5 76.5t16 65.5t16 59t7.5 55q0 15 -2.5 29.5t-9.5 30.5q-8 18 -22 28.5t-30 16.5t-30.5 8
t-23.5 2v256z" />
    <glyph glyph-name="bar" unicode="|" horiz-adv-x="600" 
d="M210 1578h290v-1866h-290v1866z" />
    <glyph glyph-name="braceright" unicode="}" horiz-adv-x="745" 
d="M624 497q-9 0 -23.5 -2t-30.5 -8t-30.5 -16.5t-21.5 -28.5q-7 -16 -9.5 -30.5t-2.5 -29.5q0 -27 7.5 -55t16 -59t16 -65.5t7.5 -76.5q0 -110 -39.5 -199.5t-133.5 -151.5q-25 -17 -52 -28.5t-51 -19t-42.5 -12t-27.5 -6.5h-8t-17 -0.5t-16.5 -0.5h-7.5q-8 46 -12 74
t-6.5 44.5t-3 24t-0.5 13.5q0 34 11.5 60t27.5 45.5t33 34t28 26.5q19 20 25 56.5t6 72.5q0 30 -4.5 51.5t-10.5 39.5t-14 35.5t-14 39.5t-10.5 51t-4.5 71q0 51 9 97t38 81q-28 35 -36.5 82.5t-8.5 98.5q0 61 9 96t19.5 62t19.5 55t9 73q0 9 -0.5 24.5t-3.5 33.5t-9.5 36.5
t-18.5 33.5q-10 13 -27 28t-33 35t-28 45.5t-12 58.5q0 6 0.5 13t3 23t6.5 44.5t12 76.5q60 0 113 -14.5t110 -52.5q46 -30 79 -69t53.5 -84t30 -95.5t9.5 -104.5q0 -42 -7 -76.5t-15.5 -64.5t-15.5 -58t-7 -56q0 -31 10 -61q6 -18 20 -28.5t30.5 -16.5t31.5 -8t24 -2v-256z
" />
    <glyph glyph-name="asciitilde" unicode="~" horiz-adv-x="1253" 
d="M94 480q3 9 15.5 35.5t34.5 61t52.5 73t70.5 71.5t89 56t107 27h17q51 0 97 -12.5t85.5 -27.5t73.5 -27.5t63 -12.5q22 0 37 8q14 7 29.5 19t34.5 24t42.5 20.5t54.5 8.5h9h11.5t18 -1.5t42 -6.5t84.5 -15q-1 -6 -6.5 -28t-14 -51t-20.5 -60.5t-27 -55.5
q-48 -79 -121.5 -117t-160.5 -38q-46 0 -92 12t-89 26.5t-80 26.5t-65 12q-22 0 -34 -8q-19 -12 -32 -23.5t-26 -21.5t-30 -16t-43 -6q-9 0 -23 1t-39.5 5.5t-65 14t-99.5 26.5z" />
    <glyph glyph-name="exclamdown" unicode="&#xa1;" horiz-adv-x="766" 
d="M535 549v-887h-292v887h292zM574 930q0 -38 -14.5 -71t-39.5 -57t-58.5 -38t-71.5 -14t-72 14t-59.5 38t-40 57t-14.5 71t14.5 71t40 57t59.5 38t72 14t71.5 -14t58.5 -38t39.5 -57t14.5 -71z" />
    <glyph glyph-name="cent" unicode="&#xa2;" horiz-adv-x="1091" 
d="M507 1229h145v-169q110 -8 215.5 -66.5t194.5 -154.5l-82 -84q-61 -63 -153 -63q-31 0 -58.5 6.5t-52.5 14.5t-49.5 14.5t-49.5 6.5q-41 0 -79.5 -15.5t-69 -43t-49 -66.5t-18.5 -85q0 -47 18.5 -85.5t49 -66.5t69 -43.5t79.5 -15.5q30 0 55 7t49.5 16t51 16t59.5 7
q46 0 82 -18.5t66 -48.5l82 -83q-89 -96 -194.5 -154.5t-215.5 -66.5v-167h-145v176q-92 19 -171.5 67t-137.5 117.5t-91 157t-33 185.5q0 97 33 184.5t91 157t137.5 118t171.5 67.5v178z" />
    <glyph glyph-name="sterling" unicode="&#xa3;" horiz-adv-x="1239" 
d="M889 747v-145h-340v-165q0 -33 -8.5 -69t-36.5 -62h643l32 -306h-1080v152q0 37 7 63t33 50q9 8 23.5 26t27.5 40.5t22.5 48.5t9.5 51v171h-132v145h132v225q0 99 38 185.5t103.5 151t153.5 102t188 37.5q69 0 136 -23.5t126.5 -66t110.5 -101.5t89 -131l-105 -56
q-35 -19 -66 -26.5t-59 -7.5q-53 0 -90 19t-60 37l-7 5q-35 23 -75 23q-30 0 -58 -11.5t-49.5 -32t-35 -47.5t-13.5 -57v-225h340z" />
    <glyph glyph-name="currency" unicode="&#xa4;" horiz-adv-x="1160" 
d="M191 672q0 54 20 110.5t45 100.5l-84 85l146 144l77 -80q22 11 48.5 21.5t55 18.5t58 12.5t56.5 4.5q25 0 54 -5t57.5 -13.5t55.5 -19t48 -20.5q22 23 44 45l36 36l145 -145l-83 -85q12 -22 23.5 -47.5t20.5 -53t15 -55.5t6 -54t-4.5 -54.5t-13 -56.5t-19 -54.5
t-22.5 -48.5l80 -81l-144 -146l-82 81q-21 -11 -48 -21t-56 -17.5t-58 -12.5t-55 -5q-27 0 -56 4.5t-57 12t-54.5 17.5t-48.5 22l-81 -82l-145 145l80 82q-12 22 -23 49t-19 55t-13 56.5t-5 54.5zM502 672q0 -24 8.5 -44.5t23.5 -36.5t35.5 -25t43.5 -9q22 0 42 9t35 25
t23.5 36.5t8.5 44.5t-8.5 45t-23.5 36.5t-35 24.5t-42 9q-23 0 -43.5 -9t-35.5 -24.5t-23.5 -36.5t-8.5 -45z" />
    <glyph glyph-name="yen" unicode="&#xa5;" horiz-adv-x="1336" 
d="M325 544h181v64q0 20 -13 43t-30 47l-544 735h267q74 0 129.5 -29.5t93.5 -81.5l227 -308q17 -24 24 -45.5t9 -26.5q1 4 8 25.5t25 46.5l226 306q37 57 93.5 85t130.5 28h269l-545 -737q-18 -24 -30.5 -45t-12.5 -43v-64h180v-145h-180v-66h180v-145h-180v-188h-327v188
h-181v145h181v66h-181v145z" />
    <glyph glyph-name="brokenbar" unicode="&#xa6;" horiz-adv-x="668" 
d="M210 1578h290v-798h-290v798zM210 510h290v-798h-290v798z" />
    <glyph glyph-name="section" unicode="&#xa7;" horiz-adv-x="1006" 
d="M959 681q0 -37 -8.5 -78t-27.5 -78.5t-50 -68.5t-76 -48q33 -8 53 -30t31 -50.5t14.5 -59.5t3.5 -58q0 -80 -32.5 -142.5t-85.5 -106t-122 -66t-141 -22.5q-53 0 -108 23t-107 59t-97 78.5t-76 81.5l64 49q25 20 59 34t69 14q33 0 59.5 -10t50.5 -21.5t46.5 -21.5
t47.5 -10q9 0 21 2.5t23.5 7.5t19.5 14t8 22q0 28 -39 51.5t-111 50.5l-26 10q-72 26 -128 59.5t-94.5 76.5t-59 97.5t-20.5 123.5q0 38 8.5 76.5t28 73.5t50.5 66.5t75 55.5q-33 12 -53.5 33t-31 47t-14 54.5t-3.5 54.5q0 79 32.5 141.5t85.5 106t122 66.5t141 23
q52 0 108 -23.5t108 -59.5t97 -79t77 -82l-87 -63q-31 -23 -60.5 -28.5t-52.5 -5.5q-29 0 -53 9.5t-46 20.5t-43 21t-44 12h-11q-37 0 -54 -16.5t-17 -29.5q0 -15 8.5 -25.5t25.5 -20t44 -19.5t63 -22l33 -12q72 -26 128.5 -59.5t95 -77t58.5 -98.5t20 -123zM546 759
q-22 0 -45.5 -6.5t-42.5 -18.5t-31.5 -30.5t-12.5 -42.5q0 -18 10.5 -32.5t28 -24.5t39 -15.5t43.5 -5.5t45.5 6.5t42.5 19t31 31.5t12 43q0 17 -10.5 31t-28 24t-39 15.5t-42.5 5.5z" />
    <glyph glyph-name="dieresis" unicode="&#xa8;" horiz-adv-x="853" 
d="M73 1316q0 30 11.5 57t31 46.5t46 31t56.5 11.5t57 -11.5t46.5 -31t31 -46.5t11.5 -57t-11.5 -56.5t-31 -46t-46.5 -31t-57 -11.5t-56.5 11.5t-46 31t-31 46t-11.5 56.5zM465 1316q0 30 11.5 57t31 46.5t46 31t56.5 11.5t57 -11.5t46.5 -31t31 -46.5t11.5 -57
t-11.5 -56.5t-31 -46t-46.5 -31t-57 -11.5t-56.5 11.5t-46 31t-31 46t-11.5 56.5z" />
    <glyph glyph-name="copyright" unicode="&#xa9;" horiz-adv-x="1606" 
d="M69 717q0 101 26.5 194.5t74 174.5t115 147.5t149 114t175.5 73.5t195 26t195 -26t176 -73.5t149 -114t115 -147.5t74.5 -174.5t26.5 -194.5t-26.5 -194.5t-74.5 -174.5t-115 -147.5t-149 -114t-176 -73.5t-195 -26t-195 26t-175.5 73.5t-149 114t-115 147.5t-74 174.5
t-26.5 194.5zM275 717q0 -108 42.5 -203.5t115 -166.5t168.5 -112.5t203 -41.5q108 0 204 41.5t168 112.5t114.5 166.5t42.5 203.5t-42.5 203.5t-114.5 166.5t-168 112.5t-204 41.5q-107 0 -203 -41.5t-168.5 -112.5t-115 -166.5t-42.5 -203.5zM813 869q-30 0 -59 -11.5
t-51.5 -32t-36 -49.5t-13.5 -63q0 -35 13.5 -63.5t36 -49.5t51.5 -32.5t59 -11.5q23 0 41.5 5.5t37 11.5t38 11.5t44.5 5.5q34 0 60.5 -13.5t49.5 -35.5l60 -62q-70 -77 -156 -121.5t-175 -44.5q-83 0 -156.5 31.5t-128 85.5t-86.5 127t-32 156t32 156t86.5 127t128 85.5
t156.5 31.5q89 0 175 -44.5t156 -121.5l-60 -63q-23 -22 -51.5 -34t-63.5 -12q-23 0 -43 5t-39 10.5t-37 10.5t-37 5z" />
    <glyph glyph-name="ordfeminine" unicode="&#xaa;" horiz-adv-x="817" 
d="M105 1440q13 21 28 40q13 17 29.5 34.5t36.5 29.5q46 30 99.5 46t118.5 16q75 0 129 -16t92 -44.5t61.5 -67.5t36.5 -85t17.5 -97.5t4.5 -103.5v-403h-205q-6 3 -10 7t-8 10t-6 15q-21 -11 -44.5 -19t-47 -13t-45.5 -7.5t-40 -2.5q-65 0 -121.5 19t-98 53.5t-65 84
t-23.5 109.5q0 139 108 209.5t316 70.5h13t16 -1q-2 15 -8 30t-16.5 27t-26.5 20t-37 8q-19 0 -36 -7t-33.5 -15.5t-34 -15.5t-37.5 -7q-27 0 -51.5 10t-47.5 24zM353 990q34 0 73.5 9t79.5 29v88q-26 3 -70 3q-29 0 -54.5 -5.5t-44.5 -15t-29.5 -21.5t-10.5 -25
q0 -8 2.5 -18.5t8.5 -20.5t17 -16.5t28 -6.5z" />
    <glyph glyph-name="guillemotleft" unicode="&#xab;" horiz-adv-x="1285" 
d="M749 879q12 28 33.5 51t48 39.5t57 26t61.5 9.5h168l-181 -441q-12 -20 -22 -29q-5 -5 -10 -7q7 -4 13 -9q11 -10 19 -25l181 -441h-168q-31 0 -61.5 9.5t-57 26t-48 40t-33.5 51.5l-121 306q-11 26 -19.5 33.5t-10.5 9.5q4 3 9 9q4 5 9.5 14t11.5 24zM289 879
q12 28 33.5 51t48 39.5t57 26t61.5 9.5h168l-181 -441q-12 -20 -22 -29q-5 -5 -10 -7q7 -4 13 -9q11 -10 19 -25l181 -441h-168q-31 0 -61.5 9.5t-57 26t-48 40t-33.5 51.5l-121 306q-11 26 -19.5 33.5t-10.5 9.5q4 3 9 9q4 5 9.5 14t11.5 24z" />
    <glyph glyph-name="logicalnot" unicode="&#xac;" horiz-adv-x="1234" 
d="M788 282v224h-638v291h929v-515h-291z" />
    <glyph glyph-name="uni00AD" unicode="&#xad;" horiz-adv-x="813" 
d="M708 452h-615v291h615v-291z" />
    <glyph glyph-name="registered" unicode="&#xae;" horiz-adv-x="1606" 
d="M69 717q0 101 26.5 194.5t74 174.5t115 147.5t149 114t175.5 73.5t195 26t195 -26t176 -73.5t149 -114t115 -147.5t74.5 -174.5t26.5 -194.5t-26.5 -194.5t-74.5 -174.5t-115 -147.5t-149 -114t-176 -73.5t-195 -26t-195 26t-175.5 73.5t-149 114t-115 147.5t-74 174.5
t-26.5 194.5zM733 317h-183v801h302q53 0 99.5 -19.5t81 -54t54.5 -80.5t20 -99q0 -68 -34.5 -124t-89.5 -90l211 -285q65 70 102 159.5t37 191.5q0 108 -42.5 203.5t-114.5 166.5t-168 112.5t-204 41.5q-107 0 -203 -41.5t-168.5 -112.5t-115 -166.5t-42.5 -203.5
t42.5 -203.5t115 -166.5t168.5 -112.5t203 -41.5q66 0 127 15.5t116 44.5l-270 363h-44v-299zM733 935v-137h126q27 0 46 19.5t19 47.5q0 29 -19 49.5t-46 20.5h-126z" />
    <glyph glyph-name="macron" unicode="&#xaf;" horiz-adv-x="694" 
d="M30 1493h624v-293h-624v293z" />
    <glyph glyph-name="degree" unicode="&#xb0;" horiz-adv-x="903" 
d="M75 1124q0 75 29 141.5t79 115.5t117 77.5t143 28.5t143 -28.5t117 -77.5t79 -115.5t29 -141.5t-29 -141t-79 -115t-117 -77.5t-143 -28.5t-143 28.5t-117 77.5t-79 115t-29 141zM372 1123q0 -29 21 -50t50 -21q31 0 52 21t21 50q0 31 -21 52t-52 21q-29 0 -50 -21
t-21 -52z" />
    <glyph glyph-name="plusminus" unicode="&#xb1;" horiz-adv-x="1160" 
d="M102 92h953v289h-953v-289zM432 420v330h-330v291h330v333h291v-333h333v-291h-333v-330h-291z" />
    <glyph glyph-name="twosuperior" unicode="&#xb2;" horiz-adv-x="780" 
d="M696 789h-605v44v42t1 35.5t3 24.5q3 11 7.5 20.5t14.5 22t28 31t49 48.5q19 18 43.5 43t51 52.5t52 55t45 52t32 43.5t12.5 29t-5.5 20.5t-14 18t-18 12.5t-17.5 5q-16 0 -29.5 -4.5t-24.5 -11.5q-20 -12 -35 -23t-29 -18.5t-28.5 -10.5t-33.5 1q-15 3 -29.5 10.5
t-25.5 12.5l-71 38q18 45 47.5 90.5t68.5 82t88 60t108 23.5q61 0 117 -20.5t98.5 -57.5t67.5 -88.5t25 -113.5q0 -39 -17.5 -82.5t-44 -86.5t-58.5 -83t-62 -71h189v-246z" />
    <glyph glyph-name="threesuperior" unicode="&#xb3;" horiz-adv-x="664" 
d="M344 828q-124 0 -203 67q-14 12 -27.5 31.5t-25.5 40.5t-22 41l-17 34l76 35q14 6 25.5 11.5t31.5 5.5q22 0 40.5 -4.5t34.5 -18.5l2.5 -2.5t2.5 -1.5q13 -11 27.5 -18t31.5 -7q23 0 39.5 16t16.5 39q0 24 -11.5 46t-34.5 22h-100v163h100q15 0 31 14.5t16 45.5
q0 23 -16 34.5t-31 11.5q-20 0 -30.5 -9t-23.5 -17q-11 -7 -22 -11.5t-39 -4.5h-4q-24 0 -43 8.5t-34 20.5l-69 54q29 36 60.5 66t64 51.5t66 34t68.5 12.5q50 0 95 -18.5t78.5 -50.5t53.5 -76.5t20 -95.5q0 -16 -4 -35t-11 -38.5t-16 -38t-19 -32.5q30 -33 49 -77.5
t19 -89.5q0 -52 -19 -98t-52 -81t-77.5 -56t-96.5 -24h-1z" />
    <glyph glyph-name="acute" unicode="&#xb4;" horiz-adv-x="813" 
d="M470 1230q-52 -69 -168 -69h-150q47 84 74.5 132.5t42 73.5t20 34t9.5 14q26 34 68 50t99 16h209z" />
    <glyph glyph-name="mu" unicode="&#xb5;" horiz-adv-x="1164" 
d="M123 1050h291v-666q3 -23 19.5 -42.5t41 -33t53.5 -21.5t58 -9q28 1 57.5 9t54.5 22t42 33t21 42v666h290v-1050h-223q-8 5 -14 11.5t-10 12.5q-4 7 -7 15q-18 -11 -43.5 -20.5t-54 -16.5t-57.5 -11t-54 -4q-20 0 -42.5 2t-46 7.5t-45.5 15.5t-40 26v-378h-291v1390z" />
    <glyph glyph-name="paragraph" unicode="&#xb6;" horiz-adv-x="1368" 
d="M40 950q0 100 38.5 188t104.5 153.5t155 103.5t190 38h803v-291h-187v-1340h-292v1340h-114v-1340h-291v671q-88 13 -162.5 54.5t-129 105t-85 144.5t-30.5 173z" />
    <glyph glyph-name="periodcentered" unicode="&#xb7;" horiz-adv-x="686" 
d="M139 595q0 41 16 76.5t43.5 62t64 42t78.5 15.5t78.5 -15.5t64 -42t43.5 -62t16 -76.5t-16 -77t-43.5 -62.5t-64 -42t-78.5 -15.5t-78.5 15.5t-64 42t-43.5 62.5t-16 77z" />
    <glyph glyph-name="cedilla" unicode="&#xb8;" horiz-adv-x="703" 
d="M198 10h177l-1 -77q39 -8 72.5 -24t58 -38.5t38.5 -51t14 -60.5q0 -37 -15.5 -70t-46 -57.5t-77 -38.5t-108.5 -14q-33 0 -61 8.5t-49 19.5q-25 12 -44 28v143q23 -17 49 -29q23 -11 52.5 -19.5t62.5 -8.5q18 0 31 5.5t13 12.5q0 22 -18 29.5t-36 7.5q-2 0 -7 -0.5
t-24 -0.5q-17 0 -31.5 2.5t-25.5 11.5t-17.5 26t-6.5 45v150z" />
    <glyph glyph-name="onesuperior" unicode="&#xb9;" horiz-adv-x="817" 
d="M706 814h-515v255h134v247q-39 -14 -63.5 -5.5t-43.5 25.5l-71 67l240 231h199v-565h120v-255z" />
    <glyph glyph-name="ordmasculine" unicode="&#xba;" horiz-adv-x="928" 
d="M54 1083q0 84 32 158t87.5 128.5t130 86t159.5 31.5t159.5 -31.5t130 -86t87.5 -128.5t32 -158t-32 -157t-87.5 -128t-130 -86.5t-159.5 -31.5t-159.5 31.5t-130 86.5t-87.5 128t-32 157zM333 1082q0 -27 10.5 -50.5t28.5 -41.5t42 -28t51 -10t50.5 10t41.5 28t28 41.5
t10 50.5t-10 51t-28 42t-41.5 28.5t-50.5 10.5t-51 -10.5t-42 -28.5t-28.5 -42t-10.5 -51z" />
    <glyph glyph-name="guillemotright" unicode="&#xbb;" horiz-adv-x="1225" 
d="M616 576q6 -15 11 -24t10 -14q4 -6 9 -9q-2 -2 -10.5 -9.5t-19.5 -33.5l-121 -306q-12 -28 -33.5 -51.5t-48 -40t-57 -26t-61.5 -9.5h-168l181 441q3 8 8.5 14t10.5 11q6 5 13 9q-5 2 -10 7q-5 4 -11 11t-11 18l-181 441h168q31 0 61.5 -9.5t57 -26t48 -39.5t33.5 -51z
M1076 576q6 -15 11 -24t10 -14q4 -6 9 -9q-2 -2 -10.5 -9.5t-19.5 -33.5l-121 -306q-12 -28 -33.5 -51.5t-48 -40t-57 -26t-61.5 -9.5h-168l181 441q3 8 8.5 14t10.5 11q6 5 13 9q-5 2 -10 7q-5 4 -11 11t-11 18l-181 441h168q31 0 61.5 -9.5t57 -26t48 -39.5t33.5 -51z" />
    <glyph glyph-name="onequarter" unicode="&#xbc;" horiz-adv-x="1424" 
d="M1143 0v141h-321v145q0 13 13 41t44 81t83 136t130 208q17 29 43 44.5t55 15.5h158v-459h76v-212h-76v-141h-205zM893 1308v-2q26 57 69 92t109 35h207l-626 -1309q-13 -27 -33.5 -50t-47 -39.5t-56.5 -25.5t-63 -9h-183zM496 614h-515v255h134v247q-39 -14 -63.5 -5.5
t-43.5 25.5l-71 67l240 231h199v-565h120v-255zM1171 353v184l-110 -184h110z" />
    <glyph glyph-name="onehalf" unicode="&#xbd;" horiz-adv-x="1424" 
d="M893 1308v-2q26 57 69 92t109 35h207l-626 -1309q-13 -27 -33.5 -50t-47 -39.5t-56.5 -25.5t-63 -9h-183zM496 614h-515v255h134v247q-39 -14 -63.5 -5.5t-43.5 25.5l-71 67l240 231h199v-565h120v-255zM1595 0h-605v44v42t1 35.5t3 24.5q3 11 7.5 20.5t14.5 22t28 31
t49 48.5q19 18 43.5 43t51 52.5t52 55t45 52t32 43.5t12.5 29t-5.5 20.5t-14 18t-18 12.5t-17.5 5q-16 0 -29.5 -4.5t-24.5 -11.5q-20 -12 -35 -23t-29 -18.5t-28.5 -10.5t-33.5 1q-15 3 -29.5 10.5t-25.5 12.5l-71 38q18 45 47.5 90.5t68.5 82t88 60t108 23.5
q61 0 117 -20.5t98.5 -57.5t67.5 -88.5t25 -113.5q0 -39 -17.5 -82.5t-44 -86.5t-58.5 -83t-62 -71h189v-246z" />
    <glyph glyph-name="threequarters" unicode="&#xbe;" horiz-adv-x="1426" 
d="M1143 0v141h-321v145q0 13 13 41t44 81t83 136t130 208q17 29 43 44.5t55 15.5h158v-459h76v-212h-76v-141h-205zM893 1308v-2q26 57 69 92t109 35h207l-626 -1309q-13 -27 -33.5 -50t-47 -39.5t-56.5 -25.5t-63 -9h-183zM1171 353v184l-110 -184h110zM344 630
q-124 0 -203 67q-14 12 -27.5 31.5t-25.5 40.5t-22 41l-17 34l76 35q14 6 25.5 11.5t31.5 5.5q22 0 40.5 -4.5t34.5 -18.5l2.5 -2.5t2.5 -1.5q13 -11 27.5 -18t31.5 -7q23 0 39.5 16t16.5 39q0 24 -11.5 46t-34.5 22h-100v163h100q15 0 31 14.5t16 45.5q0 23 -16 34.5
t-31 11.5q-20 0 -30.5 -9t-23.5 -17q-11 -7 -22 -11.5t-39 -4.5h-4q-24 0 -43 8.5t-34 20.5l-69 54q29 36 60.5 66t64 51.5t66 34t68.5 12.5q50 0 95 -18.5t78.5 -50.5t53.5 -76.5t20 -95.5q0 -16 -4 -35t-11 -38.5t-16 -38t-19 -32.5q30 -33 49 -77.5t19 -89.5
q0 -52 -19 -98t-52 -81t-77.5 -56t-96.5 -24h-1z" />
    <glyph glyph-name="questiondown" unicode="&#xbf;" horiz-adv-x="929" 
d="M928 -49q-28 -57 -65.5 -111.5t-91 -98t-125 -70t-167.5 -26.5q-107 0 -192.5 18t-145 59.5t-91 108.5t-31.5 165q0 92 36 158t101 123q45 39 76 68.5t50.5 53.5t28 44.5t8.5 43.5v86h292v-58q0 -91 -21.5 -153t-54 -105.5t-70.5 -72t-70.5 -52.5t-54 -48t-21.5 -56
q0 -23 3 -44.5t16 -38.5t39 -27t73 -10q16 0 34.5 4.5t36.5 11t34 15.5t27 18q4 3 15 14t27 23t37.5 21.5t47.5 9.5q43 0 103 -21zM279 924q0 38 14.5 71t39.5 57t58.5 38t71.5 14t72 -14t59.5 -38t40 -57t14.5 -71t-14.5 -71t-40 -57t-59.5 -38t-72 -14t-71.5 14t-58.5 38
t-39.5 57t-14.5 71z" />
    <glyph glyph-name="Agrave" unicode="&#xc0;" horiz-adv-x="1464" 
d="M591 1433h282l626 -1433h-211q-33 0 -63.5 8.5t-56.5 25t-47 40t-34 53.5l-70 159h-570l-68 -159q-12 -27 -33.5 -50t-48.5 -40.5t-58 -27t-62 -9.5h-212zM578 583h306l-125 300q-9 21 -14 39t-8 32q-4 16 -5 30q-2 -14 -6 -31q-3 -14 -8.5 -32t-13.5 -38zM252 1907h249
q57 0 99 -16t68 -50q4 -5 13.5 -20.5t28.5 -48.5t50 -88t78 -139h-190q-116 0 -168 69z" />
    <glyph glyph-name="Aacute" unicode="&#xc1;" horiz-adv-x="1464" 
d="M591 1433h282l626 -1433h-211q-33 0 -63.5 8.5t-56.5 25t-47 40t-34 53.5l-70 159h-570l-68 -159q-12 -27 -33.5 -50t-48.5 -40.5t-58 -27t-62 -9.5h-212zM578 583h306l-125 300q-9 21 -14 39t-8 32q-4 16 -5 30q-2 -14 -6 -31q-3 -14 -8.5 -32t-13.5 -38zM1026 1705
q-52 -69 -168 -69h-190q47 84 78 139t50 88t28.5 48.5t13.5 20.5q26 34 68 50t99 16h249z" />
    <glyph glyph-name="Acircumflex" unicode="&#xc2;" horiz-adv-x="1464" 
d="M591 1433h282l626 -1433h-211q-33 0 -63.5 8.5t-56.5 25t-47 40t-34 53.5l-70 159h-570l-68 -159q-12 -27 -33.5 -50t-48.5 -40.5t-58 -27t-62 -9.5h-212zM578 583h306l-125 300q-9 21 -14 39t-8 32q-4 16 -5 30q-2 -14 -6 -31q-3 -14 -8.5 -32t-13.5 -38zM733 1709
l-32 -39q-13 -15 -29.5 -35.5t-37.5 -39t-46 -31t-54 -12.5h-192l202 295q24 35 67 52t100 17h46q116 0 164 -69l203 -295h-193q-29 0 -54 12.5t-46 30.5t-37.5 38t-28.5 36z" />
    <glyph glyph-name="Atilde" unicode="&#xc3;" horiz-adv-x="1464" 
d="M591 1433h282l626 -1433h-211q-33 0 -63.5 8.5t-56.5 25t-47 40t-34 53.5l-70 159h-570l-68 -159q-12 -27 -33.5 -50t-48.5 -40.5t-58 -27t-62 -9.5h-212zM578 583h306l-125 300q-9 21 -14 39t-8 32q-4 16 -5 30q-2 -14 -6 -31q-3 -14 -8.5 -32t-13.5 -38zM849 1545
q-30 0 -55 10t-48.5 22t-47 22t-51.5 10q-9 0 -14.5 -6t-8.5 -15.5t-4 -20.5t-1 -21h-223q0 151 52.5 233t158.5 82q33 0 57 -9.5t44.5 -21t40.5 -21t46 -9.5q37 0 37 54h239q-6 -70 -15 -127t-32 -97.5t-64 -62.5t-111 -22z" />
    <glyph glyph-name="Adieresis" unicode="&#xc4;" horiz-adv-x="1464" 
d="M591 1433h282l626 -1433h-211q-33 0 -63.5 8.5t-56.5 25t-47 40t-34 53.5l-70 159h-570l-68 -159q-12 -27 -33.5 -50t-48.5 -40.5t-58 -27t-62 -9.5h-212zM578 583h306l-125 300q-9 21 -14 39t-8 32q-4 16 -5 30q-2 -14 -6 -31q-3 -14 -8.5 -32t-13.5 -38zM391 1677
q0 30 11.5 57t31 46.5t46 31t56.5 11.5t57 -11.5t46.5 -31t31 -46.5t11.5 -57t-11.5 -56.5t-31 -46t-46.5 -31t-57 -11.5t-56.5 11.5t-46 31t-31 46t-11.5 56.5zM783 1677q0 30 11.5 57t31 46.5t46 31t56.5 11.5t57 -11.5t46.5 -31t31 -46.5t11.5 -57t-11.5 -56.5t-31 -46
t-46.5 -31t-57 -11.5t-56.5 11.5t-46 31t-31 46t-11.5 56.5z" />
    <glyph glyph-name="Aring" unicode="&#xc5;" horiz-adv-x="1464" 
d="M591 1433h282l626 -1433h-211q-33 0 -63.5 8.5t-56.5 25t-47 40t-34 53.5l-70 159h-570l-68 -159q-12 -27 -33.5 -50t-48.5 -40.5t-58 -27t-62 -9.5h-212zM578 583h306l-125 300q-9 21 -14 39t-8 32q-4 16 -5 30q-2 -14 -6 -31q-3 -14 -8.5 -32t-13.5 -38zM492 1749
q0 49 19 92t51 75t75.5 50.5t93.5 18.5q49 0 93 -18.5t76 -50.5t51 -75t19 -92t-19 -92t-51 -75.5t-76 -51t-93 -18.5q-50 0 -93.5 18.5t-75.5 51t-51 75.5t-19 92zM682 1749q0 -20 14 -34.5t35 -14.5t35.5 14.5t14.5 34.5q0 21 -14.5 35.5t-35.5 14.5t-35 -14.5t-14 -35.5z
" />
    <glyph glyph-name="AE" unicode="&#xc6;" horiz-adv-x="1904" 
d="M1739 0h-497q-69 0 -121 35t-74 98l-53 153h-546l-86 -164q-15 -28 -37 -50.5t-49.5 -38.5t-58.5 -24.5t-62 -8.5h-235l759 1433h1060v-328h-664q19 -56 37.5 -107t39.5 -112h469v-328h-359l34 -97q7 -20 12.5 -35.5t11 -30t11 -30.5t12.5 -37h396v-328zM780 913
l-159 -299h262z" />
    <glyph glyph-name="Ccedilla" unicode="&#xc7;" horiz-adv-x="1498" 
d="M417 717q0 -83 33 -156.5t89 -128.5t130 -86.5t157 -31.5q64 0 120.5 19.5t105.5 52.5q53 36 120 36q52 0 89 -16.5t68 -47.5l85 -85q-62 -66 -131.5 -119t-144 -90t-153.5 -57t-159 -20q-101 0 -195 26t-176 73.5t-149 114t-115 147.5t-74.5 174.5t-26.5 194.5
t26.5 194.5t74.5 174.5t115 147.5t149 114t176 73.5t195 26q80 0 159 -20t153.5 -57t144 -90t131.5 -119l-85 -85q-30 -30 -69 -47.5t-88 -17.5q-66 0 -120 37q-50 34 -106.5 53t-119.5 19q-83 0 -157 -32t-130 -86.5t-89 -128t-33 -156.5zM679 20h177l-1 -77
q39 -8 72.5 -24t58 -38.5t38.5 -51t14 -60.5q0 -37 -15.5 -70t-46 -57.5t-77 -38.5t-108.5 -14q-33 0 -61 8.5t-49 19.5q-25 12 -44 28v143q23 -17 49 -29q23 -11 52.5 -19.5t62.5 -8.5q18 0 31 5.5t13 12.5q0 22 -18 29.5t-36 7.5q-2 0 -7 -0.5t-24 -0.5q-17 0 -31.5 2.5
t-25.5 11.5t-17.5 26t-6.5 45v150z" />
    <glyph glyph-name="Egrave" unicode="&#xc8;" horiz-adv-x="1233" 
d="M1128 0h-954v1433h954v-306h-627v-251h510v-306h-510v-264h627v-306zM239 1915h249q57 0 99 -16t68 -50q4 -5 13.5 -20.5t28.5 -48.5t50 -88t78 -139h-190q-116 0 -168 69z" />
    <glyph glyph-name="Eacute" unicode="&#xc9;" horiz-adv-x="1233" 
d="M1128 0h-954v1433h954v-306h-627v-251h510v-306h-510v-264h627v-306zM817 1613q-52 -69 -168 -69h-190q47 84 78 139t50 88t28.5 48.5t13.5 20.5q26 34 68 50t99 16h249z" />
    <glyph glyph-name="Ecircumflex" unicode="&#xca;" horiz-adv-x="1233" 
d="M1128 0h-954v1433h954v-306h-627v-251h510v-306h-510v-264h627v-306zM662 1701l-32 -39q-13 -15 -29.5 -35.5t-37.5 -39t-46 -31t-54 -12.5h-192l202 295q24 35 67 52t100 17h46q116 0 164 -69l203 -295h-193q-29 0 -54 12.5t-46 30.5t-37.5 38t-28.5 36z" />
    <glyph glyph-name="Edieresis" unicode="&#xcb;" horiz-adv-x="1233" 
d="M1128 0h-954v1433h954v-306h-627v-251h510v-306h-510v-264h627v-306zM310 1679q0 30 11.5 57t31 46.5t46 31t56.5 11.5t57 -11.5t46.5 -31t31 -46.5t11.5 -57t-11.5 -56.5t-31 -46t-46.5 -31t-57 -11.5t-56.5 11.5t-46 31t-31 46t-11.5 56.5zM702 1679q0 30 11.5 57
t31 46.5t46 31t56.5 11.5t57 -11.5t46.5 -31t31 -46.5t11.5 -57t-11.5 -56.5t-31 -46t-46.5 -31t-57 -11.5t-56.5 11.5t-46 31t-31 46t-11.5 56.5z" />
    <glyph glyph-name="Igrave" unicode="&#xcc;" horiz-adv-x="747" 
d="M538 0h-328v1433h328v-1433zM-59 1909h249q57 0 99 -16t68 -50q4 -5 13.5 -20.5t28.5 -48.5t50 -88t78 -139h-190q-116 0 -168 69z" />
    <glyph glyph-name="Iacute" unicode="&#xcd;" horiz-adv-x="747" 
d="M538 0h-328v1433h328v-1433zM601 1709q-52 -69 -168 -69h-190q47 84 78 139t50 88t28.5 48.5t13.5 20.5q26 34 68 50t99 16h249z" />
    <glyph glyph-name="Icircumflex" unicode="&#xce;" horiz-adv-x="747" 
d="M538 0h-328v1433h328v-1433zM374 1694l-32 -39q-13 -15 -29.5 -35.5t-37.5 -39t-46 -31t-54 -12.5h-192l202 295q24 35 67 52t100 17h46q116 0 164 -69l203 -295h-193q-29 0 -54 12.5t-46 30.5t-37.5 38t-28.5 36z" />
    <glyph glyph-name="Idieresis" unicode="&#xcf;" horiz-adv-x="761" 
d="M538 0h-328v1433h328v-1433zM33 1679q0 30 11.5 57t31 46.5t46 31t56.5 11.5t57 -11.5t46.5 -31t31 -46.5t11.5 -57t-11.5 -56.5t-31 -46t-46.5 -31t-57 -11.5t-56.5 11.5t-46 31t-31 46t-11.5 56.5zM425 1679q0 30 11.5 57t31 46.5t46 31t56.5 11.5t57 -11.5t46.5 -31
t31 -46.5t11.5 -57t-11.5 -56.5t-31 -46t-46.5 -31t-57 -11.5t-56.5 11.5t-46 31t-31 46t-11.5 56.5z" />
    <glyph glyph-name="Eth" unicode="&#xd0;" horiz-adv-x="1580" 
d="M135 0v1433h593q99 0 191.5 -25.5t172.5 -72.5t146.5 -112.5t113.5 -145t73 -171t26 -190.5t-26 -190.5t-73 -171t-113.5 -145t-146.5 -112t-172.5 -72t-191.5 -25.5h-593zM728 328q79 0 150.5 30.5t126 83t86.5 123.5t32 151t-32 151t-86.5 124t-126 83.5t-150.5 30.5
h-266v-777h266zM42.7891 861.426h682.005v-192.996h-682.005v192.996z" />
    <glyph glyph-name="Ntilde" unicode="&#xd1;" horiz-adv-x="1690" 
d="M1512 0h-325l-685 991v-991h-326v1433h322q48 0 85 -14t57 -43l501 -734q11 -16 19 -35t14 -35.5t9 -28.5t3 -15v905h326v-1433zM960 1547q-30 0 -55 10t-48.5 22t-47 22t-51.5 10q-9 0 -14.5 -6t-8.5 -15.5t-4 -20.5t-1 -21h-223q0 151 52.5 233t158.5 82q33 0 57 -9.5
t44.5 -21t40.5 -21t46 -9.5q37 0 37 54h239q-6 -70 -15 -127t-32 -97.5t-64 -62.5t-111 -22z" />
    <glyph glyph-name="Ograve" unicode="&#xd2;" horiz-adv-x="1656" 
d="M92 717q0 101 26.5 194.5t74.5 174.5t115 147.5t149 114t176 73.5t195 26t195 -26t176 -73.5t149 -114t115 -147.5t74.5 -174.5t26.5 -194.5t-26.5 -194.5t-74.5 -174.5t-115 -147.5t-149 -114t-176 -73.5t-195 -26q-102 0 -195.5 26t-175.5 73.5t-149 114t-115 147.5
t-74.5 174.5t-26.5 194.5zM419 717q0 -83 33 -156.5t89 -128.5t130 -86.5t157 -31.5q82 0 156.5 31.5t130.5 86.5t89 128.5t33 156.5t-33 156.5t-89 128t-130.5 86.5t-156.5 32q-83 0 -157 -32t-130 -86.5t-89 -128t-33 -156.5zM313 1903h249q57 0 99 -16t68 -50
q4 -5 13.5 -20.5t28.5 -48.5t50 -88t78 -139h-190q-116 0 -168 69z" />
    <glyph glyph-name="Oacute" unicode="&#xd3;" horiz-adv-x="1656" 
d="M92 717q0 101 26.5 194.5t74.5 174.5t115 147.5t149 114t176 73.5t195 26t195 -26t176 -73.5t149 -114t115 -147.5t74.5 -174.5t26.5 -194.5t-26.5 -194.5t-74.5 -174.5t-115 -147.5t-149 -114t-176 -73.5t-195 -26q-102 0 -195.5 26t-175.5 73.5t-149 114t-115 147.5
t-74.5 174.5t-26.5 194.5zM419 717q0 -83 33 -156.5t89 -128.5t130 -86.5t157 -31.5q82 0 156.5 31.5t130.5 86.5t89 128.5t33 156.5t-33 156.5t-89 128t-130.5 86.5t-156.5 32q-83 0 -157 -32t-130 -86.5t-89 -128t-33 -156.5zM1105 1619q-52 -69 -168 -69h-190
q47 84 78 139t50 88t28.5 48.5t13.5 20.5q26 34 68 50t99 16h249z" />
    <glyph glyph-name="Ocircumflex" unicode="&#xd4;" horiz-adv-x="1656" 
d="M92 717q0 101 26.5 194.5t74.5 174.5t115 147.5t149 114t176 73.5t195 26t195 -26t176 -73.5t149 -114t115 -147.5t74.5 -174.5t26.5 -194.5t-26.5 -194.5t-74.5 -174.5t-115 -147.5t-149 -114t-176 -73.5t-195 -26q-102 0 -195.5 26t-175.5 73.5t-149 114t-115 147.5
t-74.5 174.5t-26.5 194.5zM419 717q0 -83 33 -156.5t89 -128.5t130 -86.5t157 -31.5q82 0 156.5 31.5t130.5 86.5t89 128.5t33 156.5t-33 156.5t-89 128t-130.5 86.5t-156.5 32q-83 0 -157 -32t-130 -86.5t-89 -128t-33 -156.5zM840 1691l-32 -39q-13 -15 -29.5 -35.5
t-37.5 -39t-46 -31t-54 -12.5h-192l202 295q24 35 67 52t100 17h46q116 0 164 -69l203 -295h-193q-29 0 -54 12.5t-46 30.5t-37.5 38t-28.5 36z" />
    <glyph glyph-name="Otilde" unicode="&#xd5;" horiz-adv-x="1656" 
d="M92 717q0 101 26.5 194.5t74.5 174.5t115 147.5t149 114t176 73.5t195 26t195 -26t176 -73.5t149 -114t115 -147.5t74.5 -174.5t26.5 -194.5t-26.5 -194.5t-74.5 -174.5t-115 -147.5t-149 -114t-176 -73.5t-195 -26q-102 0 -195.5 26t-175.5 73.5t-149 114t-115 147.5
t-74.5 174.5t-26.5 194.5zM419 717q0 -83 33 -156.5t89 -128.5t130 -86.5t157 -31.5q82 0 156.5 31.5t130.5 86.5t89 128.5t33 156.5t-33 156.5t-89 128t-130.5 86.5t-156.5 32q-83 0 -157 -32t-130 -86.5t-89 -128t-33 -156.5zM949 1535q-30 0 -55 10t-48.5 22t-47 22
t-51.5 10q-9 0 -14.5 -6t-8.5 -15.5t-4 -20.5t-1 -21h-223q0 151 52.5 233t158.5 82q33 0 57 -9.5t44.5 -21t40.5 -21t46 -9.5q37 0 37 54h239q-6 -70 -15 -127t-32 -97.5t-64 -62.5t-111 -22z" />
    <glyph glyph-name="Odieresis" unicode="&#xd6;" horiz-adv-x="1656" 
d="M92 717q0 101 26.5 194.5t74.5 174.5t115 147.5t149 114t176 73.5t195 26t195 -26t176 -73.5t149 -114t115 -147.5t74.5 -174.5t26.5 -194.5t-26.5 -194.5t-74.5 -174.5t-115 -147.5t-149 -114t-176 -73.5t-195 -26q-102 0 -195.5 26t-175.5 73.5t-149 114t-115 147.5
t-74.5 174.5t-26.5 194.5zM419 717q0 -83 33 -156.5t89 -128.5t130 -86.5t157 -31.5q82 0 156.5 31.5t130.5 86.5t89 128.5t33 156.5t-33 156.5t-89 128t-130.5 86.5t-156.5 32q-83 0 -157 -32t-130 -86.5t-89 -128t-33 -156.5zM482 1673q0 30 11.5 57t31 46.5t46 31
t56.5 11.5t57 -11.5t46.5 -31t31 -46.5t11.5 -57t-11.5 -56.5t-31 -46t-46.5 -31t-57 -11.5t-56.5 11.5t-46 31t-31 46t-11.5 56.5zM874 1673q0 30 11.5 57t31 46.5t46 31t56.5 11.5t57 -11.5t46.5 -31t31 -46.5t11.5 -57t-11.5 -56.5t-31 -46t-46.5 -31t-57 -11.5
t-56.5 11.5t-46 31t-31 46t-11.5 56.5z" />
    <glyph glyph-name="multiply" unicode="&#xd7;" horiz-adv-x="1210" 
d="M407 229l-25 -21q-25 -21 -57.5 -31t-65.5 -10q-46 0 -85 17.5t-68 46.5l-56 54l389 391l-384 399l51 50q30 30 68 47.5t86 17.5q34 0 66 -9.5t58 -32.5l31 -29l205 -205l237 233q25 24 59.5 33.5t67.5 9.5q47 0 85 -17.5t67 -46.5l56 -57l-391 -388l387 -398l-54 -53
q-29 -29 -68 -46t-87 -17q-34 0 -65.5 10t-56.5 32l-30 27l-206 207z" />
    <glyph glyph-name="Oslash" unicode="&#xd8;" horiz-adv-x="1656" 
d="M92 717q0 101 26.5 194.5t74.5 174.5t115 147.5t149 114t176 73.5t195 26q94 0 182 -22.5t166 -64.5l79 108q19 27 35.5 38.5t48.5 11.5h200l-202 -275q52 -50 94.5 -109t71.5 -126t45 -140t16 -151q0 -101 -26.5 -194.5t-74.5 -174.5t-115 -147.5t-149 -114t-176 -73.5
t-195 -26q-95 0 -183 22.5t-166 64.5l-79 -108q-22 -29 -51 -42t-58 -13h-178l205 279q-105 100 -165.5 235.5t-60.5 291.5zM828 314q82 0 156.5 31.5t130.5 86.5t89 128.5t33 156.5q0 74 -26 139t-71 118l-463 -631q72 -29 151 -29zM419 717q0 -74 25.5 -139t70.5 -118
l463 631q-72 29 -150 29q-83 0 -157 -32t-130 -86.5t-89 -128t-33 -156.5z" />
    <glyph glyph-name="Ugrave" unicode="&#xd9;" horiz-adv-x="1494" 
d="M483 577q0 -54 22 -102t59 -84t85.5 -57t102.5 -21t102.5 21t86 57t59.5 84t22 102v856h327v-856q0 -123 -47 -230.5t-128 -187.5t-189.5 -126.5t-232.5 -46.5q-82 0 -158 21t-142 59.5t-121 92.5t-94 119.5t-60.5 141t-21.5 157.5v856h328v-856zM318 1903h249
q57 0 99 -16t68 -50q4 -5 13.5 -20.5t28.5 -48.5t50 -88t78 -139h-190q-116 0 -168 69z" />
    <glyph glyph-name="Uacute" unicode="&#xda;" horiz-adv-x="1494" 
d="M483 577q0 -54 22 -102t59 -84t85.5 -57t102.5 -21t102.5 21t86 57t59.5 84t22 102v856h327v-856q0 -123 -47 -230.5t-128 -187.5t-189.5 -126.5t-232.5 -46.5q-82 0 -158 21t-142 59.5t-121 92.5t-94 119.5t-60.5 141t-21.5 157.5v856h328v-856zM963 1625
q-52 -69 -168 -69h-190q47 84 78 139t50 88t28.5 48.5t13.5 20.5q26 34 68 50t99 16h249z" />
    <glyph glyph-name="Ucircumflex" unicode="&#xdb;" horiz-adv-x="1494" 
d="M483 577q0 -54 22 -102t59 -84t85.5 -57t102.5 -21t102.5 21t86 57t59.5 84t22 102v856h327v-856q0 -123 -47 -230.5t-128 -187.5t-189.5 -126.5t-232.5 -46.5q-82 0 -158 21t-142 59.5t-121 92.5t-94 119.5t-60.5 141t-21.5 157.5v856h328v-856zM757 1696l-32 -39
q-13 -15 -29.5 -35.5t-37.5 -39t-46 -31t-54 -12.5h-192l202 295q24 35 67 52t100 17h46q116 0 164 -69l203 -295h-193q-29 0 -54 12.5t-46 30.5t-37.5 38t-28.5 36z" />
    <glyph glyph-name="Udieresis" unicode="&#xdc;" horiz-adv-x="1494" 
d="M483 577q0 -54 22 -102t59 -84t85.5 -57t102.5 -21t102.5 21t86 57t59.5 84t22 102v856h327v-856q0 -123 -47 -230.5t-128 -187.5t-189.5 -126.5t-232.5 -46.5q-82 0 -158 21t-142 59.5t-121 92.5t-94 119.5t-60.5 141t-21.5 157.5v856h328v-856zM419 1677q0 30 11.5 57
t31 46.5t46 31t56.5 11.5t57 -11.5t46.5 -31t31 -46.5t11.5 -57t-11.5 -56.5t-31 -46t-46.5 -31t-57 -11.5t-56.5 11.5t-46 31t-31 46t-11.5 56.5zM811 1677q0 30 11.5 57t31 46.5t46 31t56.5 11.5t57 -11.5t46.5 -31t31 -46.5t11.5 -57t-11.5 -56.5t-31 -46t-46.5 -31
t-57 -11.5t-56.5 11.5t-46 31t-31 46t-11.5 56.5z" />
    <glyph glyph-name="Yacute" unicode="&#xdd;" horiz-adv-x="1505" 
d="M917 0h-327v608q0 20 -13 43t-30 47l-544 735h267q74 0 129.5 -29.5t93.5 -81.5l227 -308q10 -14 16 -26.5t10 -23.5q4 -12 7 -23q3 11 7 23q4 11 10 23.5t16 26.5l226 306q37 57 93.5 85t130.5 28h269l-545 -737q-18 -24 -30.5 -45t-12.5 -43v-608zM943 1617
q-52 -69 -168 -69h-190q47 84 78 139t50 88t28.5 48.5t13.5 20.5q26 34 68 50t99 16h249z" />
    <glyph glyph-name="Thorn" unicode="&#xde;" horiz-adv-x="1225" 
d="M194 1433h327v-223h212q100 0 188 -37.5t154 -102.5t104 -152.5t38 -186.5t-38 -186.5t-104 -152t-154 -102t-188 -37.5h-212v-253h-327v1433zM746 581q30 0 56 12t45.5 32.5t31 47.5t11.5 58t-11.5 58.5t-31 47.5t-45.5 32t-56 12h-225v-300h225z" />
    <glyph glyph-name="germandbls" unicode="&#xdf;" horiz-adv-x="1310" 
d="M419 0h-309v814q0 159 44.5 290t121.5 224.5t179 144.5t218 51q96 0 181 -27.5t148.5 -79.5t101 -127t37.5 -171q0 -54 -14 -94t-35 -70.5t-45.5 -53t-45.5 -41t-35 -34.5t-14 -34q0 -34 23 -61t57 -54.5t73.5 -58t72.5 -70t53.5 -91.5t17.5 -122q-4 -87 -44.5 -157
t-104 -116t-144 -66.5t-165.5 -8.5q-92 13 -163.5 68.5t-111.5 166.5q35 19 65 35q26 14 48.5 25t28.5 13q2 1 13.5 4.5t27.5 6.5t34.5 3t34.5 -7q31 -19 48 -22.5t31 -3.5q28 0 48 13t25 22q2 4 5.5 13.5t4.5 22.5t-2.5 28t-15.5 31q-17 22 -45.5 45t-62 49.5t-68 57
t-62.5 67.5t-45 81.5t-16 99.5q1 47 16 83t36.5 65t47 51.5t47 42t36 37.5t14.5 37q0 23 -14 37.5t-34.5 23t-44.5 11.5t-44 3q-54 0 -100.5 -23.5t-80.5 -71t-53.5 -119.5t-19.5 -169v-606v-208z" />
    <glyph glyph-name="agrave" unicode="&#xe0;" horiz-adv-x="1139" 
d="M174 848q17 26 37 52q17 22 39 45t47 40q60 39 129 59.5t154 20.5q97 0 168 -21t120 -58.5t79.5 -89t47 -111.5t22.5 -126.5t6 -134.5v-524h-259q-9 12 -15 27q-5 13 -10 30.5t-5 40.5q-29 -34 -61.5 -56t-64 -34.5t-61 -17.5t-52.5 -5q-84 0 -157 25t-127 70.5
t-85 109.5t-31 142q0 174 131.5 260t382.5 86q23 0 39 -3.5t26 -7.5q11 -5 19 -11q-2 67 -35 109.5t-88 42.5q-25 0 -47 -9t-44 -19.5t-44.5 -19.5t-49.5 -9q-33 0 -65.5 13.5t-60.5 30.5zM497 258q44 0 95.5 13t103.5 39v156q-17 2 -39 3t-51 1q-39 0 -75.5 -7.5t-65 -22
t-45.5 -34.5t-17 -44q0 -18 6.5 -36.5t18.5 -33.5t29.5 -24.5t39.5 -9.5zM181 1522h249q57 0 99 -16t68 -50q4 -5 13.5 -20.5t28.5 -48.5t50 -88t78 -139h-190q-116 0 -168 69z" />
    <glyph glyph-name="aacute" unicode="&#xe1;" horiz-adv-x="1139" 
d="M174 848q17 26 37 52q17 22 39 45t47 40q60 39 129 59.5t154 20.5q97 0 168 -21t120 -58.5t79.5 -89t47 -111.5t22.5 -126.5t6 -134.5v-524h-259q-9 12 -15 27q-5 13 -10 30.5t-5 40.5q-29 -34 -61.5 -56t-64 -34.5t-61 -17.5t-52.5 -5q-84 0 -157 25t-127 70.5
t-85 109.5t-31 142q0 174 131.5 260t382.5 86q23 0 39 -3.5t26 -7.5q11 -5 19 -11q-2 67 -35 109.5t-88 42.5q-25 0 -47 -9t-44 -19.5t-44.5 -19.5t-49.5 -9q-33 0 -65.5 13.5t-60.5 30.5zM497 258q44 0 95.5 13t103.5 39v156q-17 2 -39 3t-51 1q-39 0 -75.5 -7.5t-65 -22
t-45.5 -34.5t-17 -44q0 -18 6.5 -36.5t18.5 -33.5t29.5 -24.5t39.5 -9.5zM768 1230q-52 -69 -168 -69h-150q47 84 74.5 132.5t42 73.5t20 34t9.5 14q26 34 68 50t99 16h209z" />
    <glyph glyph-name="acircumflex" unicode="&#xe2;" horiz-adv-x="1139" 
d="M174 848q17 26 37 52q17 22 39 45t47 40q60 39 129 59.5t154 20.5q97 0 168 -21t120 -58.5t79.5 -89t47 -111.5t22.5 -126.5t6 -134.5v-524h-259q-9 12 -15 27q-5 13 -10 30.5t-5 40.5q-29 -34 -61.5 -56t-64 -34.5t-61 -17.5t-52.5 -5q-84 0 -157 25t-127 70.5
t-85 109.5t-31 142q0 174 131.5 260t382.5 86q23 0 39 -3.5t26 -7.5q11 -5 19 -11q-2 67 -35 109.5t-88 42.5q-25 0 -47 -9t-44 -19.5t-44.5 -19.5t-49.5 -9q-33 0 -65.5 13.5t-60.5 30.5zM497 258q44 0 95.5 13t103.5 39v156q-17 2 -39 3t-51 1q-39 0 -75.5 -7.5t-65 -22
t-45.5 -34.5t-17 -44q0 -18 6.5 -36.5t18.5 -33.5t29.5 -24.5t39.5 -9.5zM434 1205q-32 -44 -115 -44h-124l162 244q15 23 40 33.5t67 10.5h45q42 0 66 -10.5t39 -33.5l162 -244h-124q-83 0 -115 44l-42 83q-3 4 -4.5 9.5t-3.5 10.5q-2 6 -2 12l-2 -12q-2 -5 -3.5 -10.5
t-3.5 -9.5z" />
    <glyph glyph-name="atilde" unicode="&#xe3;" horiz-adv-x="1139" 
d="M174 848q17 26 37 52q17 22 39 45t47 40q60 39 129 59.5t154 20.5q97 0 168 -21t120 -58.5t79.5 -89t47 -111.5t22.5 -126.5t6 -134.5v-524h-259q-9 12 -15 27q-5 13 -10 30.5t-5 40.5q-29 -34 -61.5 -56t-64 -34.5t-61 -17.5t-52.5 -5q-84 0 -157 25t-127 70.5
t-85 109.5t-31 142q0 174 131.5 260t382.5 86q23 0 39 -3.5t26 -7.5q11 -5 19 -11q-2 67 -35 109.5t-88 42.5q-25 0 -47 -9t-44 -19.5t-44.5 -19.5t-49.5 -9q-33 0 -65.5 13.5t-60.5 30.5zM497 258q44 0 95.5 13t103.5 39v156q-17 2 -39 3t-51 1q-39 0 -75.5 -7.5t-65 -22
t-45.5 -34.5t-17 -44q0 -18 6.5 -36.5t18.5 -33.5t29.5 -24.5t39.5 -9.5zM685 1199q-30 0 -55 10t-48.5 22t-47 22t-51.5 10q-9 0 -14.5 -6t-8.5 -15.5t-4 -20.5t-1 -21h-223q0 151 52.5 233t158.5 82q33 0 57 -9.5t44.5 -21t40.5 -21t46 -9.5q37 0 37 54h239
q-6 -70 -15 -127t-32 -97.5t-64 -62.5t-111 -22z" />
    <glyph glyph-name="adieresis" unicode="&#xe4;" horiz-adv-x="1139" 
d="M174 848q17 26 37 52q17 22 39 45t47 40q60 39 129 59.5t154 20.5q97 0 168 -21t120 -58.5t79.5 -89t47 -111.5t22.5 -126.5t6 -134.5v-524h-259q-9 12 -15 27q-5 13 -10 30.5t-5 40.5q-29 -34 -61.5 -56t-64 -34.5t-61 -17.5t-52.5 -5q-84 0 -157 25t-127 70.5
t-85 109.5t-31 142q0 174 131.5 260t382.5 86q23 0 39 -3.5t26 -7.5q11 -5 19 -11q-2 67 -35 109.5t-88 42.5q-25 0 -47 -9t-44 -19.5t-44.5 -19.5t-49.5 -9q-33 0 -65.5 13.5t-60.5 30.5zM497 258q44 0 95.5 13t103.5 39v156q-17 2 -39 3t-51 1q-39 0 -75.5 -7.5t-65 -22
t-45.5 -34.5t-17 -44q0 -18 6.5 -36.5t18.5 -33.5t29.5 -24.5t39.5 -9.5zM228 1316q0 30 11.5 57t31 46.5t46 31t56.5 11.5t57 -11.5t46.5 -31t31 -46.5t11.5 -57t-11.5 -56.5t-31 -46t-46.5 -31t-57 -11.5t-56.5 11.5t-46 31t-31 46t-11.5 56.5zM620 1316q0 30 11.5 57
t31 46.5t46 31t56.5 11.5t57 -11.5t46.5 -31t31 -46.5t11.5 -57t-11.5 -56.5t-31 -46t-46.5 -31t-57 -11.5t-56.5 11.5t-46 31t-31 46t-11.5 56.5z" />
    <glyph glyph-name="aring" unicode="&#xe5;" horiz-adv-x="1139" 
d="M174 848q17 26 37 52q17 22 39 45t47 40q60 39 129 59.5t154 20.5q97 0 168 -21t120 -58.5t79.5 -89t47 -111.5t22.5 -126.5t6 -134.5v-524h-259q-9 12 -15 27q-5 13 -10 30.5t-5 40.5q-29 -34 -61.5 -56t-64 -34.5t-61 -17.5t-52.5 -5q-84 0 -157 25t-127 70.5
t-85 109.5t-31 142q0 174 131.5 260t382.5 86q23 0 39 -3.5t26 -7.5q11 -5 19 -11q-2 67 -35 109.5t-88 42.5q-25 0 -47 -9t-44 -19.5t-44.5 -19.5t-49.5 -9q-33 0 -65.5 13.5t-60.5 30.5zM497 258q44 0 95.5 13t103.5 39v156q-17 2 -39 3t-51 1q-39 0 -75.5 -7.5t-65 -22
t-45.5 -34.5t-17 -44q0 -18 6.5 -36.5t18.5 -33.5t29.5 -24.5t39.5 -9.5zM330 1367q0 49 19 92t51 75t75.5 50.5t93.5 18.5q49 0 93 -18.5t76 -50.5t51 -75t19 -92t-19 -92t-51 -75.5t-76 -51t-93 -18.5q-50 0 -93.5 18.5t-75.5 51t-51 75.5t-19 92zM520 1367
q0 -20 14 -34.5t35 -14.5t35.5 14.5t14.5 34.5q0 21 -14.5 35.5t-35.5 14.5t-35 -14.5t-14 -35.5z" />
    <glyph glyph-name="ae" unicode="&#xe6;" horiz-adv-x="1830" 
d="M174 846q17 26 37 52q17 22 39 45t47 40q60 39 129 59.5t154 20.5q51 0 99 -7.5t89 -19.5t74 -27.5t53 -31.5q3 -2 3 -7t-2 -10q-2 -6 -5 -12q33 27 64.5 48.5t67.5 36.5t80 22.5t103 7.5q93 0 178 -31t154.5 -85.5t119.5 -128t73 -158.5q5 -16 5.5 -32t0.5 -26
q0 -47 -19 -80t-48 -53.5t-63.5 -30t-66.5 -9.5h-535q3 -11 16 -35.5t37.5 -49.5t61 -44.5t86.5 -19.5q27 0 55.5 7.5t53.5 21.5q46 26 106 26q47 0 82 -15.5t65 -45.5l83 -83q-95 -103 -210 -153.5t-235 -50.5q-95 0 -183 31q-25 9 -49 24q-20 13 -43.5 32t-41.5 47
q2 -10 3 -18q1 -7 0 -13t-5 -8q-27 -14 -70.5 -30.5t-96 -30.5t-110.5 -24t-115 -10q-84 0 -157 24.5t-127 70t-85 109t-31 141.5q0 181 140.5 273.5t410.5 92.5h17t21 -2q-2 19 -10 38.5t-22 35.5t-34.5 26t-47.5 10q-25 0 -47 -9t-44 -19.5t-44.5 -19.5t-49.5 -9
q-33 0 -65.5 13.5t-60.5 30.5zM497 260q44 0 100.5 12t108.5 38l-1 7q-23 52 -33 111q-14 1 -30 1.5t-36 0.5q-39 0 -72 -7.5t-58 -19.5t-39 -28t-14 -33q0 -11 3.5 -25t11.5 -26.5t22.5 -21.5t36.5 -9zM1443 652q-21 44 -52 79q-26 30 -67 55t-96 25q-65 0 -108 -27.5
t-68 -60.5q-30 -39 -47 -88q5 4 12 8q6 3 14 6t19 3h393z" />
    <glyph glyph-name="ccedilla" unicode="&#xe7;" horiz-adv-x="1087" 
d="M617 737q-41 0 -79.5 -15.5t-69 -44t-49 -67.5t-18.5 -85q0 -47 18.5 -86t49 -67t69 -44t79.5 -16q30 0 55 7.5t49.5 16.5t51 16.5t59.5 7.5q46 0 82 -18.5t66 -48.5l82 -83q-48 -51 -101 -93t-110 -71t-116 -45t-118 -16q-112 0 -210.5 42.5t-172.5 116t-117 172
t-43 209.5t43 209.5t117 172t172.5 116t210.5 42.5q59 0 118 -16t116 -45t110 -71t101 -93l-82 -84q-61 -63 -153 -63q-31 0 -58.5 7t-52.5 15t-49.5 15t-49.5 7zM489 6h177l-1 -77q39 -8 72.5 -24t58 -38.5t38.5 -51t14 -60.5q0 -37 -15.5 -70t-46 -57.5t-77 -38.5
t-108.5 -14q-33 0 -61 8.5t-49 19.5q-25 12 -44 28v143q23 -17 49 -29q23 -11 52.5 -19.5t62.5 -8.5q18 0 31 5.5t13 12.5q0 22 -18 29.5t-36 7.5q-2 0 -7 -0.5t-24 -0.5q-17 0 -31.5 2.5t-25.5 11.5t-17.5 26t-6.5 45v150z" />
    <glyph glyph-name="egrave" unicode="&#xe8;" 
d="M1145 581q0 -47 -19 -80.5t-48 -54.5t-63.5 -30.5t-66.5 -9.5h-518q11 -36 35 -64q20 -24 54.5 -44t89.5 -20q29 0 55.5 9t52.5 19.5t53.5 19.5t59.5 9q47 0 82 -15.5t65 -45.5l83 -83q-95 -103 -210 -154.5t-235 -51.5q-112 0 -211 42.5t-172.5 116t-116.5 172
t-43 209.5t43 209.5t116.5 172t172.5 116t211 42.5q93 0 179 -33.5t156 -90.5t120 -133.5t70 -161.5q4 -16 4.5 -35.5t0.5 -29.5zM809 640q-18 37 -45 66q-23 25 -60.5 45.5t-91.5 20.5q-57 0 -95 -23.5t-61 -51.5q-26 -33 -41 -74q6 4 14 8q7 3 16 6t20 3h344zM163 1520
h249q57 0 99 -16t68 -50q4 -5 13.5 -20.5t28.5 -48.5t50 -88t78 -139h-190q-116 0 -168 69z" />
    <glyph glyph-name="eacute" unicode="&#xe9;" 
d="M1145 581q0 -47 -19 -80.5t-48 -54.5t-63.5 -30.5t-66.5 -9.5h-518q11 -36 35 -64q20 -24 54.5 -44t89.5 -20q29 0 55.5 9t52.5 19.5t53.5 19.5t59.5 9q47 0 82 -15.5t65 -45.5l83 -83q-95 -103 -210 -154.5t-235 -51.5q-112 0 -211 42.5t-172.5 116t-116.5 172
t-43 209.5t43 209.5t116.5 172t172.5 116t211 42.5q93 0 179 -33.5t156 -90.5t120 -133.5t70 -161.5q4 -16 4.5 -35.5t0.5 -29.5zM809 640q-18 37 -45 66q-23 25 -60.5 45.5t-91.5 20.5q-57 0 -95 -23.5t-61 -51.5q-26 -33 -41 -74q6 4 14 8q7 3 16 6t20 3h344zM843 1222
q-52 -69 -168 -69h-150q47 84 74.5 132.5t42 73.5t20 34t9.5 14q26 34 68 50t99 16h209z" />
    <glyph glyph-name="ecircumflex" unicode="&#xea;" 
d="M1145 581q0 -47 -19 -80.5t-48 -54.5t-63.5 -30.5t-66.5 -9.5h-518q11 -36 35 -64q20 -24 54.5 -44t89.5 -20q29 0 55.5 9t52.5 19.5t53.5 19.5t59.5 9q47 0 82 -15.5t65 -45.5l83 -83q-95 -103 -210 -154.5t-235 -51.5q-112 0 -211 42.5t-172.5 116t-116.5 172
t-43 209.5t43 209.5t116.5 172t172.5 116t211 42.5q93 0 179 -33.5t156 -90.5t120 -133.5t70 -161.5q4 -16 4.5 -35.5t0.5 -29.5zM809 640q-18 37 -45 66q-23 25 -60.5 45.5t-91.5 20.5q-57 0 -95 -23.5t-61 -51.5q-26 -33 -41 -74q6 4 14 8q7 3 16 6t20 3h344zM461 1201
q-32 -44 -115 -44h-124l162 244q15 23 40 33.5t67 10.5h45q42 0 66 -10.5t39 -33.5l162 -244h-124q-83 0 -115 44l-42 83q-3 4 -4.5 9.5t-3.5 10.5q-2 6 -2 12l-2 -12q-2 -5 -3.5 -10.5t-3.5 -9.5z" />
    <glyph glyph-name="edieresis" unicode="&#xeb;" 
d="M1145 581q0 -47 -19 -80.5t-48 -54.5t-63.5 -30.5t-66.5 -9.5h-518q11 -36 35 -64q20 -24 54.5 -44t89.5 -20q29 0 55.5 9t52.5 19.5t53.5 19.5t59.5 9q47 0 82 -15.5t65 -45.5l83 -83q-95 -103 -210 -154.5t-235 -51.5q-112 0 -211 42.5t-172.5 116t-116.5 172
t-43 209.5t43 209.5t116.5 172t172.5 116t211 42.5q93 0 179 -33.5t156 -90.5t120 -133.5t70 -161.5q4 -16 4.5 -35.5t0.5 -29.5zM809 640q-18 37 -45 66q-23 25 -60.5 45.5t-91.5 20.5q-57 0 -95 -23.5t-61 -51.5q-26 -33 -41 -74q6 4 14 8q7 3 16 6t20 3h344zM280 1315
q0 30 11.5 57t31 46.5t46 31t56.5 11.5t57 -11.5t46.5 -31t31 -46.5t11.5 -57t-11.5 -56.5t-31 -46t-46.5 -31t-57 -11.5t-56.5 11.5t-46 31t-31 46t-11.5 56.5zM672 1315q0 30 11.5 57t31 46.5t46 31t56.5 11.5t57 -11.5t46.5 -31t31 -46.5t11.5 -57t-11.5 -56.5t-31 -46
t-46.5 -31t-57 -11.5t-56.5 11.5t-46 31t-31 46t-11.5 56.5z" />
    <glyph glyph-name="igrave" unicode="&#xec;" horiz-adv-x="657" 
d="M410 1018v-1018h-328v1018h328zM-184 1527h249q57 0 99 -16t68 -50q4 -5 13.5 -20.5t28.5 -48.5t50 -88t78 -139h-190q-116 0 -168 69z" />
    <glyph glyph-name="iacute" unicode="&#xed;" horiz-adv-x="657" 
d="M410 1018v-1018h-328v1018h328zM464 1228q-52 -69 -168 -69h-150q47 84 74.5 132.5t42 73.5t20 34t9.5 14q26 34 68 50t99 16h209z" />
    <glyph glyph-name="icircumflex" unicode="&#xee;" horiz-adv-x="657" 
d="M410 1018v-1018h-328v1018h328zM218 1210q-32 -44 -115 -44h-124l162 244q15 23 40 33.5t67 10.5h45q42 0 66 -10.5t39 -33.5l162 -244h-124q-83 0 -115 44l-42 83q-3 4 -4.5 9.5t-3.5 10.5q-2 6 -2 12l-2 -12q-2 -5 -3.5 -10.5t-3.5 -9.5z" />
    <glyph glyph-name="idieresis" unicode="&#xef;" horiz-adv-x="657" 
d="M410 1018v-1018h-328v1018h328zM-81 1316q0 30 11.5 57t31 46.5t46 31t56.5 11.5t57 -11.5t46.5 -31t31 -46.5t11.5 -57t-11.5 -56.5t-31 -46t-46.5 -31t-57 -11.5t-56.5 11.5t-46 31t-31 46t-11.5 56.5zM311 1316q0 30 11.5 57t31 46.5t46 31t56.5 11.5t57 -11.5
t46.5 -31t31 -46.5t11.5 -57t-11.5 -56.5t-31 -46t-46.5 -31t-57 -11.5t-56.5 11.5t-46 31t-31 46t-11.5 56.5z" />
    <glyph glyph-name="eth" unicode="&#xf0;" horiz-adv-x="1264" 
d="M367 1172l14 53q-33 4 -55 6q-11 1 -21 2l51 323q29 -3 56.5 -6t53.5 -8l15 56l188 -50l-14 -52q130 -44 220.5 -111t151.5 -148.5t95.5 -172.5t51.5 -181.5t21.5 -175.5t4.5 -156v-5q0 -116 -44.5 -218t-121 -177.5t-179.5 -119.5t-219 -44q-77 0 -149 20t-134.5 56.5
t-114 87t-88.5 112.5t-57 133.5t-20 148.5q0 112 42 211.5t114.5 175t170 121t208.5 50.5q35 1 69 -3q29 -3 61 -11t58 -24q-50 42 -108.5 70t-118.5 47l-16 -61zM407 545q0 -48 18 -91t49 -75t72.5 -50.5t89.5 -18.5t90 18.5t73 50.5t49 75t18 91q0 49 -18 92t-49 75
t-73 50.5t-90 18.5t-89.5 -18.5t-72.5 -50.5t-49 -75t-18 -92z" />
    <glyph glyph-name="ntilde" unicode="&#xf1;" horiz-adv-x="1260" 
d="M394 1050q25 -27 34.5 -71t5.5 -88q12 34 41.5 65.5t69.5 55.5t87.5 38.5t96.5 14.5q94 0 167.5 -34t124.5 -96t78 -150.5t27 -197.5v-587h-327v572q0 56 -10.5 89.5t-27 51t-35.5 23t-35 5.5q-43 0 -82.5 -10t-69.5 -28.5t-48 -44.5t-18 -59v-599h-327v1050h248z
M763 1199q-30 0 -55 10t-48.5 22t-47 22t-51.5 10q-9 0 -14.5 -6t-8.5 -15.5t-4 -20.5t-1 -21h-223q0 151 52.5 233t158.5 82q33 0 57 -9.5t44.5 -21t40.5 -21t46 -9.5q37 0 37 54h239q-6 -70 -15 -127t-32 -97.5t-64 -62.5t-111 -22z" />
    <glyph glyph-name="ograve" unicode="&#xf2;" horiz-adv-x="1226" 
d="M72 525q0 111 42.5 209.5t116 172t172 116t209.5 42.5t209.5 -42.5t172 -116t116 -172t42.5 -209.5t-42.5 -209.5t-116 -172t-172 -116t-209.5 -42.5t-209.5 42.5t-172 116t-116 172t-42.5 209.5zM400 524q0 -43 16.5 -81.5t45 -67t67 -45t81.5 -16.5t81.5 16.5t67.5 45
t45.5 67t16.5 81.5t-16.5 81.5t-45.5 67.5t-67.5 45.5t-81.5 16.5t-81.5 -16.5t-67 -45.5t-45 -67.5t-16.5 -81.5zM141 1526h249q57 0 99 -16t68 -50q4 -5 13.5 -20.5t28.5 -48.5t50 -88t78 -139h-190q-116 0 -168 69z" />
    <glyph glyph-name="oacute" unicode="&#xf3;" horiz-adv-x="1226" 
d="M72 525q0 111 42.5 209.5t116 172t172 116t209.5 42.5t209.5 -42.5t172 -116t116 -172t42.5 -209.5t-42.5 -209.5t-116 -172t-172 -116t-209.5 -42.5t-209.5 42.5t-172 116t-116 172t-42.5 209.5zM400 524q0 -43 16.5 -81.5t45 -67t67 -45t81.5 -16.5t81.5 16.5t67.5 45
t45.5 67t16.5 81.5t-16.5 81.5t-45.5 67.5t-67.5 45.5t-81.5 16.5t-81.5 -16.5t-67 -45.5t-45 -67.5t-16.5 -81.5zM830 1224q-52 -69 -168 -69h-150q47 84 74.5 132.5t42 73.5t20 34t9.5 14q26 34 68 50t99 16h209z" />
    <glyph glyph-name="ocircumflex" unicode="&#xf4;" horiz-adv-x="1226" 
d="M72 525q0 111 42.5 209.5t116 172t172 116t209.5 42.5t209.5 -42.5t172 -116t116 -172t42.5 -209.5t-42.5 -209.5t-116 -172t-172 -116t-209.5 -42.5t-209.5 42.5t-172 116t-116 172t-42.5 209.5zM400 524q0 -43 16.5 -81.5t45 -67t67 -45t81.5 -16.5t81.5 16.5t67.5 45
t45.5 67t16.5 81.5t-16.5 81.5t-45.5 67.5t-67.5 45.5t-81.5 16.5t-81.5 -16.5t-67 -45.5t-45 -67.5t-16.5 -81.5zM461 1201q-32 -44 -115 -44h-124l162 244q15 23 40 33.5t67 10.5h45q42 0 66 -10.5t39 -33.5l162 -244h-124q-83 0 -115 44l-42 83q-3 4 -4.5 9.5t-3.5 10.5
q-2 6 -2 12l-2 -12q-2 -5 -3.5 -10.5t-3.5 -9.5z" />
    <glyph glyph-name="otilde" unicode="&#xf5;" horiz-adv-x="1226" 
d="M72 525q0 111 42.5 209.5t116 172t172 116t209.5 42.5t209.5 -42.5t172 -116t116 -172t42.5 -209.5t-42.5 -209.5t-116 -172t-172 -116t-209.5 -42.5t-209.5 42.5t-172 116t-116 172t-42.5 209.5zM400 524q0 -43 16.5 -81.5t45 -67t67 -45t81.5 -16.5t81.5 16.5t67.5 45
t45.5 67t16.5 81.5t-16.5 81.5t-45.5 67.5t-67.5 45.5t-81.5 16.5t-81.5 -16.5t-67 -45.5t-45 -67.5t-16.5 -81.5zM738 1195q-30 0 -55 10t-48.5 22t-47 22t-51.5 10q-9 0 -14.5 -6t-8.5 -15.5t-4 -20.5t-1 -21h-223q0 151 52.5 233t158.5 82q33 0 57 -9.5t44.5 -21
t40.5 -21t46 -9.5q37 0 37 54h239q-6 -70 -15 -127t-32 -97.5t-64 -62.5t-111 -22z" />
    <glyph glyph-name="odieresis" unicode="&#xf6;" horiz-adv-x="1226" 
d="M72 525q0 111 42.5 209.5t116 172t172 116t209.5 42.5t209.5 -42.5t172 -116t116 -172t42.5 -209.5t-42.5 -209.5t-116 -172t-172 -116t-209.5 -42.5t-209.5 42.5t-172 116t-116 172t-42.5 209.5zM400 524q0 -43 16.5 -81.5t45 -67t67 -45t81.5 -16.5t81.5 16.5t67.5 45
t45.5 67t16.5 81.5t-16.5 81.5t-45.5 67.5t-67.5 45.5t-81.5 16.5t-81.5 -16.5t-67 -45.5t-45 -67.5t-16.5 -81.5zM273 1314q0 30 11.5 57t31 46.5t46 31t56.5 11.5t57 -11.5t46.5 -31t31 -46.5t11.5 -57t-11.5 -56.5t-31 -46t-46.5 -31t-57 -11.5t-56.5 11.5t-46 31t-31 46
t-11.5 56.5zM665 1314q0 30 11.5 57t31 46.5t46 31t56.5 11.5t57 -11.5t46.5 -31t31 -46.5t11.5 -57t-11.5 -56.5t-31 -46t-46.5 -31t-57 -11.5t-56.5 11.5t-46 31t-31 46t-11.5 56.5z" />
    <glyph glyph-name="divide" unicode="&#xf7;" horiz-adv-x="1160" 
d="M1119 523h-1017v291h1017v-291zM792 239q0 -38 -14.5 -71t-39.5 -57t-58.5 -38t-71.5 -14t-72 14t-59.5 38t-40 57t-14.5 71t14.5 71t40 57t59.5 38t72 14t71.5 -14t58.5 -38t39.5 -57t14.5 -71zM792 1098q0 -38 -14.5 -71t-39.5 -57t-58.5 -38t-71.5 -14t-72 14
t-59.5 38t-40 57t-14.5 71t14.5 71t40 57t59.5 38t72 14t71.5 -14t58.5 -38t39.5 -57t14.5 -71z" />
    <glyph glyph-name="oslash" unicode="&#xf8;" horiz-adv-x="1226" 
d="M933 1107q19 27 35.5 38.5t48.5 11.5h170l-888 -1211q-22 -29 -51 -42t-58 -13h-148zM72 525q0 111 42.5 209.5t116 172t172 116t209.5 42.5t209.5 -42.5t172 -116t116 -172t42.5 -209.5t-42.5 -209.5t-116 -172t-172 -116t-209.5 -42.5t-209.5 42.5t-172 116t-116 172
t-42.5 209.5zM400 524q0 -43 16.5 -81.5t45 -67t67 -45t81.5 -16.5t81.5 16.5t67.5 45t45.5 67t16.5 81.5t-16.5 81.5t-45.5 67.5t-67.5 45.5t-81.5 16.5t-81.5 -16.5t-67 -45.5t-45 -67.5t-16.5 -81.5z" />
    <glyph glyph-name="ugrave" unicode="&#xf9;" 
d="M845 0q-21 23 -31 59t-10 74v13t1 13q-12 -35 -41.5 -66.5t-69.5 -55.5t-87.5 -38t-96.5 -14q-94 0 -167.5 34t-124.5 96t-78 150.5t-27 197.5v587h327v-572q0 -56 10.5 -89.5t27 -51t35 -23t35.5 -5.5q43 0 82.5 10t69.5 28.5t48 44.5t18 59v599h327v-1050h-248z
M146 1524h249q57 0 99 -16t68 -50q4 -5 13.5 -20.5t28.5 -48.5t50 -88t78 -139h-190q-116 0 -168 69z" />
    <glyph glyph-name="uacute" unicode="&#xfa;" 
d="M845 0q-21 23 -31 59t-10 74v13t1 13q-12 -35 -41.5 -66.5t-69.5 -55.5t-87.5 -38t-96.5 -14q-94 0 -167.5 34t-124.5 96t-78 150.5t-27 197.5v587h327v-572q0 -56 10.5 -89.5t27 -51t35 -23t35.5 -5.5q43 0 82.5 10t69.5 28.5t48 44.5t18 59v599h327v-1050h-248z
M795 1236q-52 -69 -168 -69h-150q47 84 74.5 132.5t42 73.5t20 34t9.5 14q26 34 68 50t99 16h209z" />
    <glyph glyph-name="ucircumflex" unicode="&#xfb;" 
d="M845 0q-21 23 -31 59t-10 74v13t1 13q-12 -35 -41.5 -66.5t-69.5 -55.5t-87.5 -38t-96.5 -14q-94 0 -167.5 34t-124.5 96t-78 150.5t-27 197.5v587h327v-572q0 -56 10.5 -89.5t27 -51t35 -23t35.5 -5.5q43 0 82.5 10t69.5 28.5t48 44.5t18 59v599h327v-1050h-248z
M430 1203q-32 -44 -115 -44h-124l162 244q15 23 40 33.5t67 10.5h45q42 0 66 -10.5t39 -33.5l162 -244h-124q-83 0 -115 44l-42 83q-3 4 -4.5 9.5t-3.5 10.5q-2 6 -2 12l-2 -12q-2 -5 -3.5 -10.5t-3.5 -9.5z" />
    <glyph glyph-name="udieresis" unicode="&#xfc;" 
d="M845 0q-21 23 -31 59t-10 74v13t1 13q-12 -35 -41.5 -66.5t-69.5 -55.5t-87.5 -38t-96.5 -14q-94 0 -167.5 34t-124.5 96t-78 150.5t-27 197.5v587h327v-572q0 -56 10.5 -89.5t27 -51t35 -23t35.5 -5.5q43 0 82.5 10t69.5 28.5t48 44.5t18 59v599h327v-1050h-248z
M242 1316q0 30 11.5 57t31 46.5t46 31t56.5 11.5t57 -11.5t46.5 -31t31 -46.5t11.5 -57t-11.5 -56.5t-31 -46t-46.5 -31t-57 -11.5t-56.5 11.5t-46 31t-31 46t-11.5 56.5zM634 1316q0 30 11.5 57t31 46.5t46 31t56.5 11.5t57 -11.5t46.5 -31t31 -46.5t11.5 -57t-11.5 -56.5
t-31 -46t-46.5 -31t-57 -11.5t-56.5 11.5t-46 31t-31 46t-11.5 56.5z" />
    <glyph glyph-name="yacute" unicode="&#xfd;" horiz-adv-x="1202" 
d="M15 1050h215q32 0 62.5 -9t57 -25.5t46 -40t29.5 -52.5l129 -328q17 -43 22.5 -73.5t5.5 -49.5q0 -14 -2 -24l-2 -8l189 486q23 58 76.5 91t117.5 33h217l-572 -1310q-11 -30 -31 -54t-46 -40.5t-57 -25.5t-62 -9h-216l223 515zM793 1236q-52 -69 -168 -69h-150
q47 84 74.5 132.5t42 73.5t20 34t9.5 14q26 34 68 50t99 16h209z" />
    <glyph glyph-name="thorn" unicode="&#xfe;" horiz-adv-x="1232" 
d="M474 1432v-396q43 15 85.5 21t71.5 6q112 0 208.5 -42.5t167 -115.5t110.5 -171t40 -209t-40 -209t-110.5 -171t-167 -115.5t-208.5 -42.5q-37 0 -78.5 6.5t-78.5 20.5v-352h-328v1770h328zM631 314q45 4 82 20t64 43t42 64t15 84q0 46 -15 85t-42 66.5t-64 43t-82 15.5
q-92 0 -158 -57v-308q33 -26 75 -41t83 -15z" />
    <glyph glyph-name="ydieresis" unicode="&#xff;" horiz-adv-x="1202" 
d="M15 1050h215q32 0 62.5 -9t57 -25.5t46 -40t29.5 -52.5l129 -328q17 -43 22.5 -73.5t5.5 -49.5q0 -14 -2 -24l-2 -8l189 486q23 58 76.5 91t117.5 33h217l-572 -1310q-11 -30 -31 -54t-46 -40.5t-57 -25.5t-62 -9h-216l223 515zM264 1314q0 30 11.5 57t31 46.5t46 31
t56.5 11.5t57 -11.5t46.5 -31t31 -46.5t11.5 -57t-11.5 -56.5t-31 -46t-46.5 -31t-57 -11.5t-56.5 11.5t-46 31t-31 46t-11.5 56.5zM656 1314q0 30 11.5 57t31 46.5t46 31t56.5 11.5t57 -11.5t46.5 -31t31 -46.5t11.5 -57t-11.5 -56.5t-31 -46t-46.5 -31t-57 -11.5
t-56.5 11.5t-46 31t-31 46t-11.5 56.5z" />
    <glyph glyph-name="Amacron" unicode="&#x100;" horiz-adv-x="1464" 
d="M591 1433h282l626 -1433h-211q-33 0 -63.5 8.5t-56.5 25t-47 40t-34 53.5l-70 159h-570l-68 -159q-12 -27 -33.5 -50t-48.5 -40.5t-58 -27t-62 -9.5h-212zM578 583h306l-125 300q-9 21 -14 39t-8 32q-4 16 -5 30q-2 -14 -6 -31q-3 -14 -8.5 -32t-13.5 -38zM419 1857h624
v-293h-624v293z" />
    <glyph glyph-name="amacron" unicode="&#x101;" horiz-adv-x="1139" 
d="M174 848q17 26 37 52q17 22 39 45t47 40q60 39 129 59.5t154 20.5q97 0 168 -21t120 -58.5t79.5 -89t47 -111.5t22.5 -126.5t6 -134.5v-524h-259q-9 12 -15 27q-5 13 -10 30.5t-5 40.5q-29 -34 -61.5 -56t-64 -34.5t-61 -17.5t-52.5 -5q-84 0 -157 25t-127 70.5
t-85 109.5t-31 142q0 174 131.5 260t382.5 86q23 0 39 -3.5t26 -7.5q11 -5 19 -11q-2 67 -35 109.5t-88 42.5q-25 0 -47 -9t-44 -19.5t-44.5 -19.5t-49.5 -9q-33 0 -65.5 13.5t-60.5 30.5zM497 258q44 0 95.5 13t103.5 39v156q-17 2 -39 3t-51 1q-39 0 -75.5 -7.5t-65 -22
t-45.5 -34.5t-17 -44q0 -18 6.5 -36.5t18.5 -33.5t29.5 -24.5t39.5 -9.5zM257 1493h624v-293h-624v293z" />
    <glyph glyph-name="Abreve" unicode="&#x102;" horiz-adv-x="1464" 
d="M591 1433h282l626 -1433h-211q-33 0 -63.5 8.5t-56.5 25t-47 40t-34 53.5l-70 159h-570l-68 -159q-12 -27 -33.5 -50t-48.5 -40.5t-58 -27t-62 -9.5h-212zM578 583h306l-125 300q-9 21 -14 39t-8 32q-4 16 -5 30q-2 -14 -6 -31q-3 -14 -8.5 -32t-13.5 -38zM1080 1920
q0 -78 -31.5 -143.5t-82 -113.5t-113 -74.5t-125.5 -26.5q-62 0 -124.5 26.5t-112.5 74.5t-81.5 113.5t-31.5 143.5h80q46 0 85 -12t67 -38q24 -21 51 -34.5t67 -13.5q42 0 66.5 12.5t51.5 35.5q31 26 67.5 38t86.5 12h80z" />
    <glyph glyph-name="abreve" unicode="&#x103;" horiz-adv-x="1139" 
d="M174 848q17 26 37 52q17 22 39 45t47 40q60 39 129 59.5t154 20.5q97 0 168 -21t120 -58.5t79.5 -89t47 -111.5t22.5 -126.5t6 -134.5v-524h-259q-9 12 -15 27q-5 13 -10 30.5t-5 40.5q-29 -34 -61.5 -56t-64 -34.5t-61 -17.5t-52.5 -5q-84 0 -157 25t-127 70.5
t-85 109.5t-31 142q0 174 131.5 260t382.5 86q23 0 39 -3.5t26 -7.5q11 -5 19 -11q-2 67 -35 109.5t-88 42.5q-25 0 -47 -9t-44 -19.5t-44.5 -19.5t-49.5 -9q-33 0 -65.5 13.5t-60.5 30.5zM497 258q44 0 95.5 13t103.5 39v156q-17 2 -39 3t-51 1q-39 0 -75.5 -7.5t-65 -22
t-45.5 -34.5t-17 -44q0 -18 6.5 -36.5t18.5 -33.5t29.5 -24.5t39.5 -9.5zM809 1437l-3 -45q-5 -52 -28.5 -95.5t-60.5 -75t-84.5 -49.5t-101.5 -18h-10q-56 2 -104.5 23t-84.5 56.5t-57 83.5t-21 104h1v16h63q74 0 120 -40q9 -9 17.5 -16t19 -12.5t24 -8.5t32.5 -3
q32 0 52 11t42 29q24 21 53 30.5t68 9.5h63z" />
    <glyph glyph-name="Aogonek" unicode="&#x104;" horiz-adv-x="1464" 
d="M591 1433h282l626 -1433h-211q-33 0 -63.5 8.5t-56.5 25t-47 40t-34 53.5l-70 159h-570l-68 -159q-12 -27 -33.5 -50t-48.5 -40.5t-58 -27t-62 -9.5h-212zM578 583h306l-125 300q-9 21 -14 39t-8 32q-4 16 -5 30q-2 -14 -6 -31q-3 -14 -8.5 -32t-13.5 -38zM1472 6
q-57 -32 -88.5 -57t-46.5 -45.5t-18.5 -37t-3.5 -29.5q0 -14 5.5 -21.5t12.5 -11t14 -3.5h10q18 2 41 7.5t42 5.5q18 0 38 -2.5t38.5 -10t34.5 -21.5t26 -36l34 -75q-60 -41 -132 -67t-138 -26q-63 0 -113 15t-85.5 42t-54 65t-18.5 85q0 36 20.5 70t52.5 65.5t72.5 60
t81.5 52.5z" />
    <glyph glyph-name="aogonek" unicode="&#x105;" horiz-adv-x="1139" 
d="M174 848q17 26 37 52q17 22 39 45t47 40q60 39 129 59.5t154 20.5q97 0 168 -21t120 -58.5t79.5 -89t47 -111.5t22.5 -126.5t6 -134.5v-524h-259q-9 12 -15 27q-5 13 -10 30.5t-5 40.5q-29 -34 -61.5 -56t-64 -34.5t-61 -17.5t-52.5 -5q-84 0 -157 25t-127 70.5
t-85 109.5t-31 142q0 174 131.5 260t382.5 86q23 0 39 -3.5t26 -7.5q11 -5 19 -11q-2 67 -35 109.5t-88 42.5q-25 0 -47 -9t-44 -19.5t-44.5 -19.5t-49.5 -9q-33 0 -65.5 13.5t-60.5 30.5zM497 258q44 0 95.5 13t103.5 39v156q-17 2 -39 3t-51 1q-39 0 -75.5 -7.5t-65 -22
t-45.5 -34.5t-17 -44q0 -18 6.5 -36.5t18.5 -33.5t29.5 -24.5t39.5 -9.5zM1012 1q-57 -32 -88.5 -57t-46.5 -45.5t-18.5 -37t-3.5 -29.5q0 -14 5.5 -21.5t12.5 -11t14 -3.5h10q18 2 41 7.5t42 5.5q18 0 38 -2.5t38.5 -10t34.5 -21.5t26 -36l34 -75q-60 -41 -132 -67
t-138 -26q-63 0 -113 15t-85.5 42t-54 65t-18.5 85q0 36 20.5 70t52.5 65.5t72.5 60t81.5 52.5z" />
    <glyph glyph-name="Cacute" unicode="&#x106;" horiz-adv-x="1498" 
d="M417 717q0 -83 33 -156.5t89 -128.5t130 -86.5t157 -31.5q64 0 120.5 19.5t105.5 52.5q53 36 120 36q52 0 89 -16.5t68 -47.5l85 -85q-62 -66 -131.5 -119t-144 -90t-153.5 -57t-159 -20q-101 0 -195 26t-176 73.5t-149 114t-115 147.5t-74.5 174.5t-26.5 194.5
t26.5 194.5t74.5 174.5t115 147.5t149 114t176 73.5t195 26q80 0 159 -20t153.5 -57t144 -90t131.5 -119l-85 -85q-30 -30 -69 -47.5t-88 -17.5q-66 0 -120 37q-50 34 -106.5 53t-119.5 19q-83 0 -157 -32t-130 -86.5t-89 -128t-33 -156.5zM933 1613q-52 -69 -168 -69h-190
q47 84 78 139t50 88t28.5 48.5t13.5 20.5q26 34 68 50t99 16h249z" />
    <glyph glyph-name="cacute" unicode="&#x107;" horiz-adv-x="1087" 
d="M617 737q-41 0 -79.5 -15.5t-69 -44t-49 -67.5t-18.5 -85q0 -47 18.5 -86t49 -67t69 -44t79.5 -16q30 0 55 7.5t49.5 16.5t51 16.5t59.5 7.5q46 0 82 -18.5t66 -48.5l82 -83q-48 -51 -101 -93t-110 -71t-116 -45t-118 -16q-112 0 -210.5 42.5t-172.5 116t-117 172
t-43 209.5t43 209.5t117 172t172.5 116t210.5 42.5q59 0 118 -16t116 -45t110 -71t101 -93l-82 -84q-61 -63 -153 -63q-31 0 -58.5 7t-52.5 15t-49.5 15t-49.5 7zM752 1230q-52 -69 -168 -69h-150q47 84 74.5 132.5t42 73.5t20 34t9.5 14q26 34 68 50t99 16h209z" />
    <glyph glyph-name="Ccircumflex" unicode="&#x108;" horiz-adv-x="1498" 
d="M417 717q0 -83 33 -156.5t89 -128.5t130 -86.5t157 -31.5q64 0 120.5 19.5t105.5 52.5q53 36 120 36q52 0 89 -16.5t68 -47.5l85 -85q-62 -66 -131.5 -119t-144 -90t-153.5 -57t-159 -20q-101 0 -195 26t-176 73.5t-149 114t-115 147.5t-74.5 174.5t-26.5 194.5
t26.5 194.5t74.5 174.5t115 147.5t149 114t176 73.5t195 26q80 0 159 -20t153.5 -57t144 -90t131.5 -119l-85 -85q-30 -30 -69 -47.5t-88 -17.5q-66 0 -120 37q-50 34 -106.5 53t-119.5 19q-83 0 -157 -32t-130 -86.5t-89 -128t-33 -156.5zM830 1692l-32 -39
q-13 -15 -29.5 -35.5t-37.5 -39t-46 -31t-54 -12.5h-192l202 295q24 35 67 52t100 17h46q116 0 164 -69l203 -295h-193q-29 0 -54 12.5t-46 30.5t-37.5 38t-28.5 36z" />
    <glyph glyph-name="ccircumflex" unicode="&#x109;" horiz-adv-x="1087" 
d="M617 737q-41 0 -79.5 -15.5t-69 -44t-49 -67.5t-18.5 -85q0 -47 18.5 -86t49 -67t69 -44t79.5 -16q30 0 55 7.5t49.5 16.5t51 16.5t59.5 7.5q46 0 82 -18.5t66 -48.5l82 -83q-48 -51 -101 -93t-110 -71t-116 -45t-118 -16q-112 0 -210.5 42.5t-172.5 116t-117 172
t-43 209.5t43 209.5t117 172t172.5 116t210.5 42.5q59 0 118 -16t116 -45t110 -71t101 -93l-82 -84q-61 -63 -153 -63q-31 0 -58.5 7t-52.5 15t-49.5 15t-49.5 7zM462 1205q-32 -44 -115 -44h-124l162 244q15 23 40 33.5t67 10.5h45q42 0 66 -10.5t39 -33.5l162 -244h-124
q-83 0 -115 44l-42 83q-3 4 -4.5 9.5t-3.5 10.5q-2 6 -2 12l-2 -12q-2 -5 -3.5 -10.5t-3.5 -9.5z" />
    <glyph glyph-name="Cdotaccent" unicode="&#x10a;" horiz-adv-x="1498" 
d="M417 717q0 -83 33 -156.5t89 -128.5t130 -86.5t157 -31.5q64 0 120.5 19.5t105.5 52.5q53 36 120 36q52 0 89 -16.5t68 -47.5l85 -85q-62 -66 -131.5 -119t-144 -90t-153.5 -57t-159 -20q-101 0 -195 26t-176 73.5t-149 114t-115 147.5t-74.5 174.5t-26.5 194.5
t26.5 194.5t74.5 174.5t115 147.5t149 114t176 73.5t195 26q80 0 159 -20t153.5 -57t144 -90t131.5 -119l-85 -85q-30 -30 -69 -47.5t-88 -17.5q-66 0 -120 37q-50 34 -106.5 53t-119.5 19q-83 0 -157 -32t-130 -86.5t-89 -128t-33 -156.5zM654 1718q0 36 14 67t37.5 54
t55.5 36.5t68 13.5q37 0 69 -13.5t56 -36.5t37.5 -54t13.5 -67q0 -35 -13.5 -66.5t-37.5 -54.5t-56 -36.5t-69 -13.5q-36 0 -68 13.5t-55.5 36.5t-37.5 54.5t-14 66.5z" />
    <glyph glyph-name="cdotaccent" unicode="&#x10b;" horiz-adv-x="1087" 
d="M617 737q-41 0 -79.5 -15.5t-69 -44t-49 -67.5t-18.5 -85q0 -47 18.5 -86t49 -67t69 -44t79.5 -16q30 0 55 7.5t49.5 16.5t51 16.5t59.5 7.5q46 0 82 -18.5t66 -48.5l82 -83q-48 -51 -101 -93t-110 -71t-116 -45t-118 -16q-112 0 -210.5 42.5t-172.5 116t-117 172
t-43 209.5t43 209.5t117 172t172.5 116t210.5 42.5q59 0 118 -16t116 -45t110 -71t101 -93l-82 -84q-61 -63 -153 -63q-31 0 -58.5 7t-52.5 15t-49.5 15t-49.5 7zM432 1324q0 36 14 67t37.5 54t55.5 36.5t68 13.5q37 0 69 -13.5t56 -36.5t37.5 -54t13.5 -67
q0 -35 -13.5 -66.5t-37.5 -54.5t-56 -36.5t-69 -13.5q-36 0 -68 13.5t-55.5 36.5t-37.5 54.5t-14 66.5z" />
    <glyph glyph-name="Ccaron" unicode="&#x10c;" horiz-adv-x="1498" 
d="M417 717q0 -83 33 -156.5t89 -128.5t130 -86.5t157 -31.5q64 0 120.5 19.5t105.5 52.5q53 36 120 36q52 0 89 -16.5t68 -47.5l85 -85q-62 -66 -131.5 -119t-144 -90t-153.5 -57t-159 -20q-101 0 -195 26t-176 73.5t-149 114t-115 147.5t-74.5 174.5t-26.5 194.5
t26.5 194.5t74.5 174.5t115 147.5t149 114t176 73.5t195 26q80 0 159 -20t153.5 -57t144 -90t131.5 -119l-85 -85q-30 -30 -69 -47.5t-88 -17.5q-66 0 -120 37q-50 34 -106.5 53t-119.5 19q-83 0 -157 -32t-130 -86.5t-89 -128t-33 -156.5zM610 1875q28 0 53 -12.5t46 -30.5
t38 -38.5t30 -36.5l32 -39l32 40q13 16 29.5 36t37.5 38t45.5 30.5t53.5 12.5h193l-203 -264q-23 -34 -65 -52t-99 -18h-46q-57 0 -100 17.5t-67 52.5l-202 264h192z" />
    <glyph glyph-name="ccaron" unicode="&#x10d;" horiz-adv-x="1087" 
d="M617 737q-41 0 -79.5 -15.5t-69 -44t-49 -67.5t-18.5 -85q0 -47 18.5 -86t49 -67t69 -44t79.5 -16q30 0 55 7.5t49.5 16.5t51 16.5t59.5 7.5q46 0 82 -18.5t66 -48.5l82 -83q-48 -51 -101 -93t-110 -71t-116 -45t-118 -16q-112 0 -210.5 42.5t-172.5 116t-117 172
t-43 209.5t43 209.5t117 172t172.5 116t210.5 42.5q59 0 118 -16t116 -45t110 -71t101 -93l-82 -84q-61 -63 -153 -63q-31 0 -58.5 7t-52.5 15t-49.5 15t-49.5 7zM401 1493q28 0 53 -12.5t46 -30.5t38 -38.5t30 -36.5l32 -39l32 40q13 16 29.5 36t37.5 38t45.5 30.5
t53.5 12.5h193l-203 -264q-23 -34 -65 -52t-99 -18h-46q-57 0 -100 17.5t-67 52.5l-202 264h192z" />
    <glyph glyph-name="Dcaron" unicode="&#x10e;" horiz-adv-x="1580" 
d="M174 0v1433h593q99 0 191.5 -25.5t172.5 -72.5t146.5 -112.5t113.5 -145t73 -171t26 -190.5t-26 -190.5t-73 -171t-113.5 -145t-146.5 -112t-172.5 -72t-191.5 -25.5h-593zM767 328q79 0 150.5 30.5t126 83t86.5 123.5t32 151t-32 151t-86.5 124t-126 83.5t-150.5 30.5
h-266v-777h266zM617 1875q28 0 53 -12.5t46 -30.5t38 -38.5t30 -36.5l32 -39l32 40q13 16 29.5 36t37.5 38t45.5 30.5t53.5 12.5h193l-203 -264q-23 -34 -65 -52t-99 -18h-46q-57 0 -100 17.5t-67 52.5l-202 264h192z" />
    <glyph glyph-name="dcaron" unicode="&#x10f;" horiz-adv-x="1357" 
d="M1133 0h-259q-7 9 -12 22q-5 11 -10 28.5t-7 42.5l-8 -6q-13 -18 -37 -36t-54.5 -32.5t-65 -24t-67.5 -9.5h-7q-110 0 -207 43t-169.5 117t-114.5 172t-42 208q0 111 42.5 209.5t116 172t172 116t209.5 42.5q54 0 104.5 -19.5t88.5 -46.5v434h327v-1433zM615 314
q63 0 113.5 33.5t76.5 87.5v178q-26 54 -76.5 88t-113.5 34q-44 0 -82 -16.5t-67 -45.5t-45.5 -67.5t-16.5 -81.5t16.5 -81.5t45.5 -67t67 -45t82 -16.5zM1185 1507h151q33 0 55.5 -10.5t36 -28.5t18.5 -42.5t2 -51.5l-19 -121q-8 -46 -42 -75.5t-82 -29.5h-120v359z" />
    <glyph glyph-name="Dcroat" unicode="&#x110;" horiz-adv-x="1580" 
d="M174 0v1433h593q99 0 191.5 -25.5t172.5 -72.5t146.5 -112.5t113.5 -145t73 -171t26 -190.5t-26 -190.5t-73 -171t-113.5 -145t-146.5 -112t-172.5 -72t-191.5 -25.5h-593zM767 328q79 0 150.5 30.5t126 83t86.5 123.5t32 151t-32 151t-86.5 124t-126 83.5t-150.5 30.5
h-266v-777h266zM83 864h624v-293h-624v293z" />
    <glyph glyph-name="dcroat" unicode="&#x111;" horiz-adv-x="1226" 
d="M1133 0h-259q-7 9 -12 22q-5 11 -10 28.5t-7 42.5l-8 -6q-13 -18 -37 -36t-54.5 -32.5t-65 -24t-67.5 -9.5h-7q-110 0 -207 43t-169.5 117t-114.5 172t-42 208q0 111 42.5 209.5t116 172t172 116t209.5 42.5q54 0 104.5 -19.5t88.5 -46.5v146h-202v190h202v98h327v-98h95
v-190h-95v-1145zM615 314q63 0 113.5 33.5t76.5 87.5v178q-26 54 -76.5 88t-113.5 34q-44 0 -82 -16.5t-67 -45.5t-45.5 -67.5t-16.5 -81.5t16.5 -81.5t45.5 -67t67 -45t82 -16.5z" />
    <glyph glyph-name="Emacron" unicode="&#x112;" horiz-adv-x="1233" 
d="M1128 0h-954v1433h954v-306h-627v-251h510v-306h-510v-264h627v-306zM348 1833h624v-293h-624v293z" />
    <glyph glyph-name="emacron" unicode="&#x113;" 
d="M1145 581q0 -47 -19 -80.5t-48 -54.5t-63.5 -30.5t-66.5 -9.5h-518q11 -36 35 -64q20 -24 54.5 -44t89.5 -20q29 0 55.5 9t52.5 19.5t53.5 19.5t59.5 9q47 0 82 -15.5t65 -45.5l83 -83q-95 -103 -210 -154.5t-235 -51.5q-112 0 -211 42.5t-172.5 116t-116.5 172
t-43 209.5t43 209.5t116.5 172t172.5 116t211 42.5q93 0 179 -33.5t156 -90.5t120 -133.5t70 -161.5q4 -16 4.5 -35.5t0.5 -29.5zM809 640q-18 37 -45 66q-23 25 -60.5 45.5t-91.5 20.5q-57 0 -95 -23.5t-61 -51.5q-26 -33 -41 -74q6 4 14 8q7 3 16 6t20 3h344zM299 1493
h624v-293h-624v293z" />
    <glyph glyph-name="Ebreve" unicode="&#x114;" horiz-adv-x="1233" 
d="M1128 0h-954v1433h954v-306h-627v-251h510v-306h-510v-264h627v-306zM1025 1883q0 -78 -31.5 -143.5t-82 -113.5t-113 -74.5t-125.5 -26.5q-62 0 -124.5 26.5t-112.5 74.5t-81.5 113.5t-31.5 143.5h80q46 0 85 -12t67 -38q24 -21 51 -34.5t67 -13.5q42 0 66.5 12.5
t51.5 35.5q31 26 67.5 38t86.5 12h80z" />
    <glyph glyph-name="ebreve" unicode="&#x115;" 
d="M1145 581q0 -47 -19 -80.5t-48 -54.5t-63.5 -30.5t-66.5 -9.5h-518q11 -36 35 -64q20 -24 54.5 -44t89.5 -20q29 0 55.5 9t52.5 19.5t53.5 19.5t59.5 9q47 0 82 -15.5t65 -45.5l83 -83q-95 -103 -210 -154.5t-235 -51.5q-112 0 -211 42.5t-172.5 116t-116.5 172
t-43 209.5t43 209.5t116.5 172t172.5 116t211 42.5q93 0 179 -33.5t156 -90.5t120 -133.5t70 -161.5q4 -16 4.5 -35.5t0.5 -29.5zM809 640q-18 37 -45 66q-23 25 -60.5 45.5t-91.5 20.5q-57 0 -95 -23.5t-61 -51.5q-26 -33 -41 -74q6 4 14 8q7 3 16 6t20 3h344zM816 1437
l-3 -45q-5 -52 -28.5 -95.5t-60.5 -75t-84.5 -49.5t-101.5 -18h-10q-56 2 -104.5 23t-84.5 56.5t-57 83.5t-21 104h1v16h63q74 0 120 -40q9 -9 17.5 -16t19 -12.5t24 -8.5t32.5 -3q32 0 52 11t42 29q24 21 53 30.5t68 9.5h63z" />
    <glyph glyph-name="Edotaccent" unicode="&#x116;" horiz-adv-x="1233" 
d="M1128 0h-954v1433h954v-306h-627v-251h510v-306h-510v-264h627v-306zM484 1704q0 36 14 67t37.5 54t55.5 36.5t68 13.5q37 0 69 -13.5t56 -36.5t37.5 -54t13.5 -67q0 -35 -13.5 -66.5t-37.5 -54.5t-56 -36.5t-69 -13.5q-36 0 -68 13.5t-55.5 36.5t-37.5 54.5t-14 66.5z
" />
    <glyph glyph-name="edotaccent" unicode="&#x117;" 
d="M1145 581q0 -47 -19 -80.5t-48 -54.5t-63.5 -30.5t-66.5 -9.5h-518q11 -36 35 -64q20 -24 54.5 -44t89.5 -20q29 0 55.5 9t52.5 19.5t53.5 19.5t59.5 9q47 0 82 -15.5t65 -45.5l83 -83q-95 -103 -210 -154.5t-235 -51.5q-112 0 -211 42.5t-172.5 116t-116.5 172
t-43 209.5t43 209.5t116.5 172t172.5 116t211 42.5q93 0 179 -33.5t156 -90.5t120 -133.5t70 -161.5q4 -16 4.5 -35.5t0.5 -29.5zM809 640q-18 37 -45 66q-23 25 -60.5 45.5t-91.5 20.5q-57 0 -95 -23.5t-61 -51.5q-26 -33 -41 -74q6 4 14 8q7 3 16 6t20 3h344zM435 1324
q0 36 14 67t37.5 54t55.5 36.5t68 13.5q37 0 69 -13.5t56 -36.5t37.5 -54t13.5 -67q0 -35 -13.5 -66.5t-37.5 -54.5t-56 -36.5t-69 -13.5q-36 0 -68 13.5t-55.5 36.5t-37.5 54.5t-14 66.5z" />
    <glyph glyph-name="Eogonek" unicode="&#x118;" horiz-adv-x="1233" 
d="M1128 0h-954v1433h954v-306h-627v-251h510v-306h-510v-264h627v-306zM1029 -4q-57 -32 -88.5 -57t-46.5 -45.5t-18.5 -37t-3.5 -29.5q0 -14 5.5 -21.5t12.5 -11t14 -3.5h10q18 2 41 7.5t42 5.5q18 0 38 -2.5t38.5 -10t34.5 -21.5t26 -36l34 -75q-60 -41 -132 -67
t-138 -26q-63 0 -113 15t-85.5 42t-54 65t-18.5 85q0 36 20.5 70t52.5 65.5t72.5 60t81.5 52.5z" />
    <glyph glyph-name="eogonek" unicode="&#x119;" 
d="M1145 581q0 -47 -19 -80.5t-48 -54.5t-63.5 -30.5t-66.5 -9.5h-518q11 -36 35 -64q20 -24 54.5 -44t89.5 -20q29 0 55.5 9t52.5 19.5t53.5 19.5t59.5 9q47 0 82 -15.5t65 -45.5l83 -83q-95 -103 -210 -154.5t-235 -51.5q-112 0 -211 42.5t-172.5 116t-116.5 172
t-43 209.5t43 209.5t116.5 172t172.5 116t211 42.5q93 0 179 -33.5t156 -90.5t120 -133.5t70 -161.5q4 -16 4.5 -35.5t0.5 -29.5zM809 640q-18 37 -45 66q-23 25 -60.5 45.5t-91.5 20.5q-57 0 -95 -23.5t-61 -51.5q-26 -33 -41 -74q6 4 14 8q7 3 16 6t20 3h344zM734 5
q-57 -32 -88.5 -57t-46.5 -45.5t-18.5 -37t-3.5 -29.5q0 -14 5.5 -21.5t12.5 -11t14 -3.5h10q18 2 41 7.5t42 5.5q18 0 38 -2.5t38.5 -10t34.5 -21.5t26 -36l34 -75q-60 -41 -132 -67t-138 -26q-63 0 -113 15t-85.5 42t-54 65t-18.5 85q0 36 20.5 70t52.5 65.5t72.5 60
t81.5 52.5z" />
    <glyph glyph-name="Ecaron" unicode="&#x11a;" horiz-adv-x="1233" 
d="M1128 0h-954v1433h954v-306h-627v-251h510v-306h-510v-264h627v-306zM441 1875q28 0 53 -12.5t46 -30.5t38 -38.5t30 -36.5l32 -39l32 40q13 16 29.5 36t37.5 38t45.5 30.5t53.5 12.5h193l-203 -264q-23 -34 -65 -52t-99 -18h-46q-57 0 -100 17.5t-67 52.5l-202 264h192z
" />
    <glyph glyph-name="ecaron" unicode="&#x11b;" 
d="M1145 581q0 -47 -19 -80.5t-48 -54.5t-63.5 -30.5t-66.5 -9.5h-518q11 -36 35 -64q20 -24 54.5 -44t89.5 -20q29 0 55.5 9t52.5 19.5t53.5 19.5t59.5 9q47 0 82 -15.5t65 -45.5l83 -83q-95 -103 -210 -154.5t-235 -51.5q-112 0 -211 42.5t-172.5 116t-116.5 172
t-43 209.5t43 209.5t116.5 172t172.5 116t211 42.5q93 0 179 -33.5t156 -90.5t120 -133.5t70 -161.5q4 -16 4.5 -35.5t0.5 -29.5zM809 640q-18 37 -45 66q-23 25 -60.5 45.5t-91.5 20.5q-57 0 -95 -23.5t-61 -51.5q-26 -33 -41 -74q6 4 14 8q7 3 16 6t20 3h344zM412 1493
q28 0 53 -12.5t46 -30.5t38 -38.5t30 -36.5l32 -39l32 40q13 16 29.5 36t37.5 38t45.5 30.5t53.5 12.5h193l-203 -264q-23 -34 -65 -52t-99 -18h-46q-57 0 -100 17.5t-67 52.5l-202 264h192z" />
    <glyph glyph-name="Gcircumflex" unicode="&#x11c;" horiz-adv-x="1520" 
d="M1382 804v-623q-57 -59 -122.5 -96.5t-136.5 -59t-145.5 -30t-150.5 -8.5q-101 0 -195 26t-175.5 73.5t-149 114t-115 147.5t-74 174.5t-26.5 194.5t26.5 194.5t74 174.5t115 147.5t149 114t175.5 73.5t195 26q80 0 159 -20t153.5 -56.5t144 -89.5t130.5 -119l-83 -86
q-62 -65 -157 -65q-67 0 -121 37q-50 33 -106.5 52.5t-119.5 19.5q-83 0 -157 -32t-129.5 -86.5t-88.5 -128t-33 -156.5q0 -87 34.5 -161t92 -127.5t133 -84t158.5 -30.5q57 0 114 11t103 33v138q-48 1 -88 16t-68.5 40.5t-44.5 60t-16 76.5v115h545zM830 1707l-32 -39
q-13 -15 -29.5 -35.5t-37.5 -39t-46 -31t-54 -12.5h-192l202 295q24 35 67 52t100 17h46q116 0 164 -69l203 -295h-193q-29 0 -54 12.5t-46 30.5t-37.5 38t-28.5 36z" />
    <glyph glyph-name="gcircumflex" unicode="&#x11d;" horiz-adv-x="1124" 
d="M1151 981q-9 -32 -25 -59t-37 -46.5t-48 -30.5t-58 -9q3 -10 8.5 -30.5t10.5 -45t9 -50t4 -46.5q0 -79 -30 -153t-84.5 -131.5t-130.5 -92.5t-167 -35q-41 0 -86 9t-84 29q-1 0 -9 -6.5t-17 -17.5t-16.5 -25.5t-7.5 -30.5q0 -22 18 -30t49 -8q23 0 51.5 3t60 7t65.5 7
t68 3q41 0 84.5 -7.5t85 -23.5t78.5 -41t65 -60t44 -81.5t16 -104.5q0 -53 -26.5 -117t-77.5 -120t-124.5 -93.5t-167.5 -37.5q-68 0 -144.5 17t-153 42t-148.5 53.5t-131 51.5l69 146q17 37 54.5 61t82.5 24q33 0 70 -11.5t77.5 -26t83.5 -26t88 -11.5q27 0 50 6t39.5 16
t26 22.5t9.5 25.5q0 23 -34.5 41.5t-114.5 18.5q-42 0 -88 -3t-92 -3q-51 0 -98.5 10.5t-83.5 37t-57.5 71.5t-21.5 114q0 18 9 45t26.5 57t42 58.5t56.5 49.5q-51 69 -73.5 132.5t-22.5 127.5q0 85 31.5 160t86 131t129 88.5t160.5 32.5q57 0 108.5 -15.5t96.5 -40.5
q10 4 28 8t39 7t42.5 4.5t39.5 1.5q42 0 77.5 -8t62.5 -17q31 -11 57 -24zM484 654q0 -23 9 -44t24.5 -36.5t36 -24.5t44.5 -9t44.5 9t36.5 24.5t25 36.5t9 44q0 24 -9 45.5t-25 37t-36.5 25t-44.5 9.5t-44.5 -9.5t-36 -25t-24.5 -37t-9 -45.5zM481 1205q-32 -44 -115 -44
h-124l162 244q15 23 40 33.5t67 10.5h45q42 0 66 -10.5t39 -33.5l162 -244h-124q-83 0 -115 44l-42 83q-3 4 -4.5 9.5t-3.5 10.5q-2 6 -2 12l-2 -12q-2 -5 -3.5 -10.5t-3.5 -9.5z" />
    <glyph glyph-name="Gbreve" unicode="&#x11e;" horiz-adv-x="1520" 
d="M1382 804v-623q-57 -59 -122.5 -96.5t-136.5 -59t-145.5 -30t-150.5 -8.5q-101 0 -195 26t-175.5 73.5t-149 114t-115 147.5t-74 174.5t-26.5 194.5t26.5 194.5t74 174.5t115 147.5t149 114t175.5 73.5t195 26q80 0 159 -20t153.5 -56.5t144 -89.5t130.5 -119l-83 -86
q-62 -65 -157 -65q-67 0 -121 37q-50 33 -106.5 52.5t-119.5 19.5q-83 0 -157 -32t-129.5 -86.5t-88.5 -128t-33 -156.5q0 -87 34.5 -161t92 -127.5t133 -84t158.5 -30.5q57 0 114 11t103 33v138q-48 1 -88 16t-68.5 40.5t-44.5 60t-16 76.5v115h545zM1167 1890
q0 -78 -31.5 -143.5t-82 -113.5t-113 -74.5t-125.5 -26.5q-62 0 -124.5 26.5t-112.5 74.5t-81.5 113.5t-31.5 143.5h80q46 0 85 -12t67 -38q24 -21 51 -34.5t67 -13.5q42 0 66.5 12.5t51.5 35.5q31 26 67.5 38t86.5 12h80z" />
    <glyph glyph-name="gbreve" unicode="&#x11f;" horiz-adv-x="1124" 
d="M1151 981q-9 -32 -25 -59t-37 -46.5t-48 -30.5t-58 -9q3 -10 8.5 -30.5t10.5 -45t9 -50t4 -46.5q0 -79 -30 -153t-84.5 -131.5t-130.5 -92.5t-167 -35q-41 0 -86 9t-84 29q-1 0 -9 -6.5t-17 -17.5t-16.5 -25.5t-7.5 -30.5q0 -22 18 -30t49 -8q23 0 51.5 3t60 7t65.5 7
t68 3q41 0 84.5 -7.5t85 -23.5t78.5 -41t65 -60t44 -81.5t16 -104.5q0 -53 -26.5 -117t-77.5 -120t-124.5 -93.5t-167.5 -37.5q-68 0 -144.5 17t-153 42t-148.5 53.5t-131 51.5l69 146q17 37 54.5 61t82.5 24q33 0 70 -11.5t77.5 -26t83.5 -26t88 -11.5q27 0 50 6t39.5 16
t26 22.5t9.5 25.5q0 23 -34.5 41.5t-114.5 18.5q-42 0 -88 -3t-92 -3q-51 0 -98.5 10.5t-83.5 37t-57.5 71.5t-21.5 114q0 18 9 45t26.5 57t42 58.5t56.5 49.5q-51 69 -73.5 132.5t-22.5 127.5q0 85 31.5 160t86 131t129 88.5t160.5 32.5q57 0 108.5 -15.5t96.5 -40.5
q10 4 28 8t39 7t42.5 4.5t39.5 1.5q42 0 77.5 -8t62.5 -17q31 -11 57 -24zM484 654q0 -23 9 -44t24.5 -36.5t36 -24.5t44.5 -9t44.5 9t36.5 24.5t25 36.5t9 44q0 24 -9 45.5t-25 37t-36.5 25t-44.5 9.5t-44.5 -9.5t-36 -25t-24.5 -37t-9 -45.5zM838 1437l-3 -45
q-5 -52 -28.5 -95.5t-60.5 -75t-84.5 -49.5t-101.5 -18h-10q-56 2 -104.5 23t-84.5 56.5t-57 83.5t-21 104h1v16h63q74 0 120 -40q9 -9 17.5 -16t19 -12.5t24 -8.5t32.5 -3q32 0 52 11t42 29q24 21 53 30.5t68 9.5h63z" />
    <glyph glyph-name="Gdotaccent" unicode="&#x120;" horiz-adv-x="1520" 
d="M1382 804v-623q-57 -59 -122.5 -96.5t-136.5 -59t-145.5 -30t-150.5 -8.5q-101 0 -195 26t-175.5 73.5t-149 114t-115 147.5t-74 174.5t-26.5 194.5t26.5 194.5t74 174.5t115 147.5t149 114t175.5 73.5t195 26q80 0 159 -20t153.5 -56.5t144 -89.5t130.5 -119l-83 -86
q-62 -65 -157 -65q-67 0 -121 37q-50 33 -106.5 52.5t-119.5 19.5q-83 0 -157 -32t-129.5 -86.5t-88.5 -128t-33 -156.5q0 -87 34.5 -161t92 -127.5t133 -84t158.5 -30.5q57 0 114 11t103 33v138q-48 1 -88 16t-68.5 40.5t-44.5 60t-16 76.5v115h545zM583 1704q0 36 14 67
t37.5 54t55.5 36.5t68 13.5q37 0 69 -13.5t56 -36.5t37.5 -54t13.5 -67q0 -35 -13.5 -66.5t-37.5 -54.5t-56 -36.5t-69 -13.5q-36 0 -68 13.5t-55.5 36.5t-37.5 54.5t-14 66.5z" />
    <glyph glyph-name="gdotaccent" unicode="&#x121;" horiz-adv-x="1124" 
d="M1151 981q-9 -32 -25 -59t-37 -46.5t-48 -30.5t-58 -9q3 -10 8.5 -30.5t10.5 -45t9 -50t4 -46.5q0 -79 -30 -153t-84.5 -131.5t-130.5 -92.5t-167 -35q-41 0 -86 9t-84 29q-1 0 -9 -6.5t-17 -17.5t-16.5 -25.5t-7.5 -30.5q0 -22 18 -30t49 -8q23 0 51.5 3t60 7t65.5 7
t68 3q41 0 84.5 -7.5t85 -23.5t78.5 -41t65 -60t44 -81.5t16 -104.5q0 -53 -26.5 -117t-77.5 -120t-124.5 -93.5t-167.5 -37.5q-68 0 -144.5 17t-153 42t-148.5 53.5t-131 51.5l69 146q17 37 54.5 61t82.5 24q33 0 70 -11.5t77.5 -26t83.5 -26t88 -11.5q27 0 50 6t39.5 16
t26 22.5t9.5 25.5q0 23 -34.5 41.5t-114.5 18.5q-42 0 -88 -3t-92 -3q-51 0 -98.5 10.5t-83.5 37t-57.5 71.5t-21.5 114q0 18 9 45t26.5 57t42 58.5t56.5 49.5q-51 69 -73.5 132.5t-22.5 127.5q0 85 31.5 160t86 131t129 88.5t160.5 32.5q57 0 108.5 -15.5t96.5 -40.5
q10 4 28 8t39 7t42.5 4.5t39.5 1.5q42 0 77.5 -8t62.5 -17q31 -11 57 -24zM484 654q0 -23 9 -44t24.5 -36.5t36 -24.5t44.5 -9t44.5 9t36.5 24.5t25 36.5t9 44q0 24 -9 45.5t-25 37t-36.5 25t-44.5 9.5t-44.5 -9.5t-36 -25t-24.5 -37t-9 -45.5zM457 1324q0 36 14 67t37.5 54
t55.5 36.5t68 13.5q37 0 69 -13.5t56 -36.5t37.5 -54t13.5 -67q0 -35 -13.5 -66.5t-37.5 -54.5t-56 -36.5t-69 -13.5q-36 0 -68 13.5t-55.5 36.5t-37.5 54.5t-14 66.5z" />
    <glyph glyph-name="Gcommaaccent" unicode="&#x122;" horiz-adv-x="1520" 
d="M1382 804v-623q-57 -59 -122.5 -96.5t-136.5 -59t-145.5 -30t-150.5 -8.5q-101 0 -195 26t-175.5 73.5t-149 114t-115 147.5t-74 174.5t-26.5 194.5t26.5 194.5t74 174.5t115 147.5t149 114t175.5 73.5t195 26q80 0 159 -20t153.5 -56.5t144 -89.5t130.5 -119l-83 -86
q-62 -65 -157 -65q-67 0 -121 37q-50 33 -106.5 52.5t-119.5 19.5q-83 0 -157 -32t-129.5 -86.5t-88.5 -128t-33 -156.5q0 -87 34.5 -161t92 -127.5t133 -84t158.5 -30.5q57 0 114 11t103 33v138q-48 1 -88 16t-68.5 40.5t-44.5 60t-16 76.5v115h545zM684 -134h151
q33 0 55.5 -10.5t36 -28.5t18.5 -42.5t2 -51.5l-19 -121q-8 -46 -42 -75.5t-82 -29.5h-120v359z" />
    <glyph glyph-name="gcommaaccent" unicode="&#x123;" horiz-adv-x="1124" 
d="M1151 981q-9 -32 -25 -59t-37 -46.5t-48 -30.5t-58 -9q3 -10 8.5 -30.5t10.5 -45t9 -50t4 -46.5q0 -79 -30 -153t-84.5 -131.5t-130.5 -92.5t-167 -35q-41 0 -86 9t-84 29q-1 0 -9 -6.5t-17 -17.5t-16.5 -25.5t-7.5 -30.5q0 -22 18 -30t49 -8q23 0 51.5 3t60 7t65.5 7
t68 3q41 0 84.5 -7.5t85 -23.5t78.5 -41t65 -60t44 -81.5t16 -104.5q0 -53 -26.5 -117t-77.5 -120t-124.5 -93.5t-167.5 -37.5q-68 0 -144.5 17t-153 42t-148.5 53.5t-131 51.5l69 146q17 37 54.5 61t82.5 24q33 0 70 -11.5t77.5 -26t83.5 -26t88 -11.5q27 0 50 6t39.5 16
t26 22.5t9.5 25.5q0 23 -34.5 41.5t-114.5 18.5q-42 0 -88 -3t-92 -3q-51 0 -98.5 10.5t-83.5 37t-57.5 71.5t-21.5 114q0 18 9 45t26.5 57t42 58.5t56.5 49.5q-51 69 -73.5 132.5t-22.5 127.5q0 85 31.5 160t86 131t129 88.5t160.5 32.5q57 0 108.5 -15.5t96.5 -40.5
q10 4 28 8t39 7t42.5 4.5t39.5 1.5q42 0 77.5 -8t62.5 -17q31 -11 57 -24zM484 654q0 -23 9 -44t24.5 -36.5t36 -24.5t44.5 -9t44.5 9t36.5 24.5t25 36.5t9 44q0 24 -9 45.5t-25 37t-36.5 25t-44.5 9.5t-44.5 -9.5t-36 -25t-24.5 -37t-9 -45.5zM550 1372q-5 7 -21 36.5
t-34 73.5t-32 98.5t-14 112.5q0 52 20 102t53 98t74.5 93t85.5 89l50 -43q49 -42 63 -74t12 -62q-2 -31 -11.5 -55t-19.5 -47t-18 -49t-8 -62q-4 -34 6 -64t24 -53q16 -27 37 -50z" />
    <glyph glyph-name="Hcircumflex" unicode="&#x124;" horiz-adv-x="1690" 
d="M1466 0h-327v567h-637v-567h-326v1433h326v-560h637v560h327v-1433zM819 1693l-32 -39q-13 -15 -29.5 -35.5t-37.5 -39t-46 -31t-54 -12.5h-192l202 295q24 35 67 52t100 17h46q116 0 164 -69l203 -295h-193q-29 0 -54 12.5t-46 30.5t-37.5 38t-28.5 36z" />
    <glyph glyph-name="hcircumflex" unicode="&#x125;" horiz-adv-x="1260" 
d="M407 1433q18 -18 33 -41q12 -20 22.5 -46t10.5 -58v-320q15 21 42.5 39t59.5 30.5t64.5 20t56.5 7.5q94 0 170.5 -34t131.5 -96t85 -150.5t30 -197.5v-587h-327v573q0 39 -8.5 70.5t-23.5 53.5t-35 34t-43 12q-35 0 -70 -9t-64.5 -24t-48.5 -35.5t-20 -42.5v-632h-327
v1433h261zM546 1552q-32 -44 -115 -44h-124l162 244q15 23 40 33.5t67 10.5h45q42 0 66 -10.5t39 -33.5l162 -244h-124q-83 0 -115 44l-42 83q-3 4 -4.5 9.5t-3.5 10.5q-2 6 -2 12l-2 -12q-2 -5 -3.5 -10.5t-3.5 -9.5z" />
    <glyph glyph-name="Hbar" unicode="&#x126;" horiz-adv-x="1639" 
d="M1464 0h-327v567h-637v-567h-326v1433h326v-560h637v560h327v-1433zM181 1221h1225v-192h-1225v192z" />
    <glyph glyph-name="hbar" unicode="&#x127;" horiz-adv-x="1359" 
d="M506 1433q18 -18 33 -41q12 -20 22.5 -46t10.5 -58v-320q15 21 42.5 39t59.5 30.5t64.5 20t56.5 7.5q94 0 170.5 -34t131.5 -96t85 -150.5t30 -197.5v-587h-327v573q0 39 -8.5 70.5t-23.5 53.5t-35 34t-43 12q-35 0 -70 -9t-64.5 -24t-48.5 -35.5t-20 -42.5v-632h-327
v1433h261zM146.048 1330.22h624.99v-190.994h-624.99v190.994z" />
    <glyph glyph-name="Itilde" unicode="&#x128;" horiz-adv-x="747" 
d="M538 0h-328v1433h328v-1433zM485 1536q-30 0 -55 10t-48.5 22t-47 22t-51.5 10q-9 0 -14.5 -6t-8.5 -15.5t-4 -20.5t-1 -21h-223q0 151 52.5 233t158.5 82q33 0 57 -9.5t44.5 -21t40.5 -21t46 -9.5q37 0 37 54h239q-6 -70 -15 -127t-32 -97.5t-64 -62.5t-111 -22z" />
    <glyph glyph-name="itilde" unicode="&#x129;" horiz-adv-x="657" 
d="M410 1018v-1018h-328v1018h328zM382 1199q-30 0 -55 10t-48.5 22t-47 22t-51.5 10q-9 0 -14.5 -6t-8.5 -15.5t-4 -20.5t-1 -21h-223q0 151 52.5 233t158.5 82q33 0 57 -9.5t44.5 -21t40.5 -21t46 -9.5q37 0 37 54h239q-6 -70 -15 -127t-32 -97.5t-64 -62.5t-111 -22z" />
    <glyph glyph-name="Imacron" unicode="&#x12a;" horiz-adv-x="747" 
d="M538 0h-328v1433h328v-1433zM57 1875h624v-293h-624v293z" />
    <glyph glyph-name="imacron" unicode="&#x12b;" horiz-adv-x="657" 
d="M410 1018v-1018h-328v1018h328zM-46 1493h624v-293h-624v293z" />
    <glyph glyph-name="Ibreve" unicode="&#x12c;" horiz-adv-x="747" 
d="M538 0h-328v1433h328v-1433zM720 1897q0 -78 -31.5 -143.5t-82 -113.5t-113 -74.5t-125.5 -26.5q-62 0 -124.5 26.5t-112.5 74.5t-81.5 113.5t-31.5 143.5h80q46 0 85 -12t67 -38q24 -21 51 -34.5t67 -13.5q42 0 66.5 12.5t51.5 35.5q31 26 67.5 38t86.5 12h80z" />
    <glyph glyph-name="ibreve" unicode="&#x12d;" horiz-adv-x="657" 
d="M410 1018v-1018h-328v1018h328zM471 1437l-3 -45q-5 -52 -28.5 -95.5t-60.5 -75t-84.5 -49.5t-101.5 -18h-10q-56 2 -104.5 23t-84.5 56.5t-57 83.5t-21 104h1v16h63q74 0 120 -40q9 -9 17.5 -16t19 -12.5t24 -8.5t32.5 -3q32 0 52 11t42 29q24 21 53 30.5t68 9.5h63z
" />
    <glyph glyph-name="Iogonek" unicode="&#x12e;" horiz-adv-x="739" 
d="M538 0h-328v1433h328v-1433zM488 -4q-57 -32 -88.5 -57t-46.5 -45.5t-18.5 -37t-3.5 -29.5q0 -14 5.5 -21.5t12.5 -11t14 -3.5h10q18 2 41 7.5t42 5.5q18 0 38 -2.5t38.5 -10t34.5 -21.5t26 -36l34 -75q-60 -41 -132 -67t-138 -26q-63 0 -113 15t-85.5 42t-54 65
t-18.5 85q0 36 20.5 70t52.5 65.5t72.5 60t81.5 52.5z" />
    <glyph glyph-name="iogonek" unicode="&#x12f;" horiz-adv-x="662" 
d="M497 1050v-1050h-328v1050h328zM139 1335q0 39 15.5 70.5t41.5 53.5t61.5 34t75.5 12t75.5 -12t61.5 -34t41.5 -53.5t15.5 -70.5t-15.5 -70.5t-41.5 -53.5t-61.5 -34t-75.5 -12t-75.5 12t-61.5 34t-41.5 53.5t-15.5 70.5zM463 -4q-57 -32 -88.5 -57t-46.5 -45.5
t-18.5 -37t-3.5 -29.5q0 -14 5.5 -21.5t12.5 -11t14 -3.5h10q18 2 41 7.5t42 5.5q18 0 38 -2.5t38.5 -10t34.5 -21.5t26 -36l34 -75q-60 -41 -132 -67t-138 -26q-63 0 -113 15t-85.5 42t-54 65t-18.5 85q0 36 20.5 70t52.5 65.5t72.5 60t81.5 52.5z" />
    <glyph glyph-name="Idotaccent" unicode="&#x130;" horiz-adv-x="747" 
d="M538 0h-328v1433h328v-1433zM194 1704q0 36 14 67t37.5 54t55.5 36.5t68 13.5q37 0 69 -13.5t56 -36.5t37.5 -54t13.5 -67q0 -35 -13.5 -66.5t-37.5 -54.5t-56 -36.5t-69 -13.5q-36 0 -68 13.5t-55.5 36.5t-37.5 54.5t-14 66.5z" />
    <glyph glyph-name="dotlessi" unicode="&#x131;" horiz-adv-x="657" 
d="M410 1018v-1018h-328v1018h328z" />
    <glyph glyph-name="IJ" unicode="&#x132;" horiz-adv-x="1429" 
d="M538 0h-328v1433h328v-1433zM903 1433h327v-1252q0 -119 -24.5 -208.5t-67 -155t-99 -108t-120 -68t-130.5 -36t-130 -10.5q-102 0 -198.5 40t-189.5 130l94 94q33 33 70.5 48t83.5 15q21 0 39 -4.5t34.5 -10.5t33 -10.5t33.5 -4.5q37 0 80 11t79.5 42.5t60.5 88
t24 147.5v1252z" />
    <glyph glyph-name="ij" unicode="&#x133;" horiz-adv-x="1315" 
d="M497 1050v-1050h-328v1050h328zM139 1335q0 39 15.5 70.5t41.5 53.5t61.5 34t75.5 12t75.5 -12t61.5 -34t41.5 -53.5t15.5 -70.5t-15.5 -70.5t-41.5 -53.5t-61.5 -34t-75.5 -12t-75.5 12t-61.5 34t-41.5 53.5t-15.5 70.5zM1154 1050v-976q0 -84 -30 -154.5t-82 -127
t-120.5 -100.5t-144.5 -75l-57 127q-4 9 -7 20.5t-5 23t-3 22.5t-1 18q0 30 13.5 54.5t31.5 47t37 45.5t31 51q5 14 7.5 35t2.5 35v954h327zM798 1335q0 39 15.5 70.5t41.5 53.5t61.5 34t75.5 12t75.5 -12t61.5 -34t41.5 -53.5t15.5 -70.5t-15.5 -70.5t-41.5 -53.5
t-61.5 -34t-75.5 -12t-75.5 12t-61.5 34t-41.5 53.5t-15.5 70.5z" />
    <glyph glyph-name="Jcircumflex" unicode="&#x134;" horiz-adv-x="887" 
d="M352 1433h327v-1252q0 -119 -24.5 -208.5t-67 -155t-99 -108t-120 -68t-130.5 -36t-130 -10.5q-102 0 -198.5 40t-189.5 130l94 94q33 33 70.5 48t83.5 15q21 0 39 -4.5t34.5 -10.5t33 -10.5t33.5 -4.5q37 0 80 11t79.5 42.5t60.5 88t24 147.5v1252zM526 1699l-32 -39
q-13 -15 -29.5 -35.5t-37.5 -39t-46 -31t-54 -12.5h-192l202 295q24 35 67 52t100 17h46q116 0 164 -69l203 -295h-193q-29 0 -54 12.5t-46 30.5t-37.5 38t-28.5 36z" />
    <glyph glyph-name="jcircumflex" unicode="&#x135;" horiz-adv-x="653" 
d="M492 998v-924q0 -74 -30 -143t-82 -128t-120.5 -107t-144.5 -79l-57 127q-4 9 -7 20.5t-5 23t-3 22.5t-1 18q0 35 13.5 61.5t31.5 49.5t37 46t31 51q5 14 7.5 35t2.5 35v892h327zM254 1205q-32 -44 -115 -44h-124l162 244q15 23 40 33.5t67 10.5h45q42 0 66 -10.5
t39 -33.5l162 -244h-124q-83 0 -115 44l-42 83q-3 4 -4.5 9.5t-3.5 10.5q-2 6 -2 12l-2 -12q-2 -5 -3.5 -10.5t-3.5 -9.5z" />
    <glyph glyph-name="Kcommaaccent" unicode="&#x136;" horiz-adv-x="1516" 
d="M658 799l345 523q14 21 33 41t41 35.5t46.5 25t50.5 9.5h294l-430 -653q-14 -20 -32.5 -31t-22.5 -12q1 0 7.5 -3t14.5 -8.5t17 -14t16 -18.5l460 -693h-294q-59 0 -99 30.5t-74 82.5l-373 561q-11 17 -24 29t-24.5 19t-19.5 10.5t-9 4.5q1 0 9 3t19.5 10t24.5 19t24 30z
M520 0h-327v1433h327v-1433zM672 -148h151q33 0 55.5 -10.5t36 -28.5t18.5 -42.5t2 -51.5l-19 -121q-8 -46 -42 -75.5t-82 -29.5h-120v359z" />
    <glyph glyph-name="kcommaaccent" unicode="&#x137;" horiz-adv-x="1240" 
d="M479 0h-327v1433h327v-1433zM788 937q9 25 29.5 45.5t46.5 35.5t56 23.5t59 8.5h219l-242 -466q-8 -10 -17.5 -18t-18.5 -13.5t-16.5 -8.5t-9.5 -3q2 0 9 -3t16.5 -8.5t19 -13.5t17.5 -18l267 -498h-219q-66 0 -117 26.5t-76 86.5l-200 366q-5 11 -16 22t-22 20
q-13 11 -28 20q15 7 28 17q11 8 22 19.5t16 25.5zM586 -129h151q33 0 55.5 -10.5t36 -28.5t18.5 -42.5t2 -51.5l-19 -121q-8 -46 -42 -75.5t-82 -29.5h-120v359z" />
    <glyph glyph-name="kgreenlandic" unicode="&#x138;" horiz-adv-x="1240" 
d="M479 0h-327v1050h327v-1050zM779 937q9 25 29.5 45.5t46.5 35.5t56 23.5t59 8.5h219l-242 -466q-8 -10 -17.5 -18t-18.5 -13.5t-16.5 -8.5t-9.5 -3q2 0 9 -3t16.5 -8.5t19 -13.5t17.5 -18l267 -498h-219q-66 0 -117 26.5t-76 86.5l-200 366q-5 11 -16 22t-22 20
q-13 11 -28 20q15 7 28 17q11 8 22 19.5t16 25.5z" />
    <glyph glyph-name="Lacute" unicode="&#x139;" horiz-adv-x="1108" 
d="M174 0v1433h327v-1127h566v-306h-893zM549 1613q-52 -69 -168 -69h-190q47 84 78 139t50 88t28.5 48.5t13.5 20.5q26 34 68 50t99 16h249z" />
    <glyph glyph-name="lacute" unicode="&#x13a;" horiz-adv-x="661" 
d="M494 1433v-1433h-328v1433h328zM507 1624q-52 -69 -168 -69h-150q47 84 74.5 132.5t42 73.5t20 34t9.5 14q26 34 68 50t99 16h209z" />
    <glyph glyph-name="Lcommaaccent" unicode="&#x13b;" horiz-adv-x="1108" 
d="M174 0v1433h327v-1127h566v-306h-893zM616 -132h151q33 0 55.5 -10.5t36 -28.5t18.5 -42.5t2 -51.5l-19 -121q-8 -46 -42 -75.5t-82 -29.5h-120v359z" />
    <glyph glyph-name="lcommaaccent" unicode="&#x13c;" horiz-adv-x="661" 
d="M494 1433v-1433h-328v1433h328zM202 -149h151q33 0 55.5 -10.5t36 -28.5t18.5 -42.5t2 -51.5l-19 -121q-8 -46 -42 -75.5t-82 -29.5h-120v359z" />
    <glyph glyph-name="Lcaron" unicode="&#x13d;" horiz-adv-x="1108" 
d="M174 0v1433h327v-1127h566v-306h-893zM681 1448h151q33 0 55.5 -10.5t36 -28.5t18.5 -42.5t2 -51.5l-19 -121q-8 -46 -42 -75.5t-82 -29.5h-120v359z" />
    <glyph glyph-name="lcaron" unicode="&#x13e;" horiz-adv-x="1233" 
d="M494 1433v-1433h-328v1433h328zM656 1500h151q33 0 55.5 -10.5t36 -28.5t18.5 -42.5t2 -51.5l-19 -121q-8 -46 -42 -75.5t-82 -29.5h-120v359z" />
    <glyph glyph-name="Ldot" unicode="&#x13f;" horiz-adv-x="1108" 
d="M174 0v1433h327v-1127h566v-306h-893zM687 701q0 41 16 76.5t43.5 62t64 42t78.5 15.5t78.5 -15.5t64 -42t43.5 -62t16 -76.5t-16 -77t-43.5 -62.5t-64 -42t-78.5 -15.5t-78.5 15.5t-64 42t-43.5 62.5t-16 77z" />
    <glyph glyph-name="ldot" unicode="&#x140;" horiz-adv-x="1339" 
d="M494 1433v-1433h-328v1433h328zM587 595q0 41 16 76.5t43.5 62t64 42t78.5 15.5t78.5 -15.5t64 -42t43.5 -62t16 -76.5t-16 -77t-43.5 -62.5t-64 -42t-78.5 -15.5t-78.5 15.5t-64 42t-43.5 62.5t-16 77z" />
    <glyph glyph-name="Lslash" unicode="&#x141;" horiz-adv-x="1108" 
d="M171 2v513l-175 -128v152q0 29 13 59.5t41 51.5l121 89v696h327v-456l195 144v-166q0 -19 -3 -32.5t-9 -24t-16 -20t-24 -19.5h1l-144 -106v-447h566v-306h-893z" />
    <glyph glyph-name="lslash" unicode="&#x142;" horiz-adv-x="532" 
d="M237 375q-30 -41 -72.5 -58.5t-84.5 -17.5h-216l453 615q15 20 27.5 33.5t27.5 22t34 12.5t47 4h236zM434 1433v-1433h-328v1433h328z" />
    <glyph glyph-name="Nacute" unicode="&#x143;" horiz-adv-x="1690" 
d="M1512 0h-325l-685 991v-991h-326v1433h322q48 0 85 -14t57 -43l501 -734q11 -16 19 -35t14 -35.5t9 -28.5t3 -15v905h326v-1433zM1100 1613q-52 -69 -168 -69h-190q47 84 78 139t50 88t28.5 48.5t13.5 20.5q26 34 68 50t99 16h249z" />
    <glyph glyph-name="nacute" unicode="&#x144;" horiz-adv-x="1260" 
d="M394 1050q25 -27 34.5 -71t5.5 -88q12 34 41.5 65.5t69.5 55.5t87.5 38.5t96.5 14.5q94 0 167.5 -34t124.5 -96t78 -150.5t27 -197.5v-587h-327v572q0 56 -10.5 89.5t-27 51t-35.5 23t-35 5.5q-43 0 -82.5 -10t-69.5 -28.5t-48 -44.5t-18 -59v-599h-327v1050h248z
M818 1230q-52 -69 -168 -69h-150q47 84 74.5 132.5t42 73.5t20 34t9.5 14q26 34 68 50t99 16h209z" />
    <glyph glyph-name="Ncommaaccent" unicode="&#x145;" horiz-adv-x="1690" 
d="M1512 0h-325l-685 991v-991h-326v1433h322q48 0 85 -14t57 -43l501 -734q11 -16 19 -35t14 -35.5t9 -28.5t3 -15v905h326v-1433zM740 -138h151q33 0 55.5 -10.5t36 -28.5t18.5 -42.5t2 -51.5l-19 -121q-8 -46 -42 -75.5t-82 -29.5h-120v359z" />
    <glyph glyph-name="ncommaaccent" unicode="&#x146;" horiz-adv-x="1260" 
d="M394 1050q25 -27 34.5 -71t5.5 -88q12 34 41.5 65.5t69.5 55.5t87.5 38.5t96.5 14.5q94 0 167.5 -34t124.5 -96t78 -150.5t27 -197.5v-587h-327v572q0 56 -10.5 89.5t-27 51t-35.5 23t-35 5.5q-43 0 -82.5 -10t-69.5 -28.5t-48 -44.5t-18 -59v-599h-327v1050h248z
M481 -111h151q33 0 55.5 -10.5t36 -28.5t18.5 -42.5t2 -51.5l-19 -121q-8 -46 -42 -75.5t-82 -29.5h-120v359z" />
    <glyph glyph-name="Ncaron" unicode="&#x147;" horiz-adv-x="1690" 
d="M1512 0h-325l-685 991v-991h-326v1433h322q48 0 85 -14t57 -43l501 -734q11 -16 19 -35t14 -35.5t9 -28.5t3 -15v905h326v-1433zM646 1875q28 0 53 -12.5t46 -30.5t38 -38.5t30 -36.5l32 -39l32 40q13 16 29.5 36t37.5 38t45.5 30.5t53.5 12.5h193l-203 -264
q-23 -34 -65 -52t-99 -18h-46q-57 0 -100 17.5t-67 52.5l-202 264h192z" />
    <glyph glyph-name="ncaron" unicode="&#x148;" horiz-adv-x="1260" 
d="M394 1050q25 -27 34.5 -71t5.5 -88q12 34 41.5 65.5t69.5 55.5t87.5 38.5t96.5 14.5q94 0 167.5 -34t124.5 -96t78 -150.5t27 -197.5v-587h-327v572q0 56 -10.5 89.5t-27 51t-35.5 23t-35 5.5q-43 0 -82.5 -10t-69.5 -28.5t-48 -44.5t-18 -59v-599h-327v1050h248z
M417 1493q28 0 53 -12.5t46 -30.5t38 -38.5t30 -36.5l32 -39l32 40q13 16 29.5 36t37.5 38t45.5 30.5t53.5 12.5h193l-203 -264q-23 -34 -65 -52t-99 -18h-46q-57 0 -100 17.5t-67 52.5l-202 264h192z" />
    <glyph glyph-name="napostrophe" unicode="&#x149;" horiz-adv-x="1263" 
d="M394 1050q25 -27 34.5 -71t5.5 -88q12 34 41.5 65.5t69.5 55.5t87.5 38.5t96.5 14.5q94 0 167.5 -34t124.5 -96t78 -150.5t27 -197.5v-587h-327v572q0 56 -10.5 89.5t-27 51t-35.5 23t-35 5.5q-43 0 -82.5 -10t-69.5 -28.5t-48 -44.5t-18 -59v-599h-327v1050h248z
M146 1541h151q33 0 55.5 -10.5t36 -28.5t18.5 -42.5t2 -51.5l-19 -121q-8 -46 -42 -75.5t-82 -29.5h-120v359z" />
    <glyph glyph-name="Eng" unicode="&#x14a;" horiz-adv-x="1690" 
d="M1185 1433h327v-1252q0 -119 -24.5 -208.5t-67 -155t-99 -108t-120 -68t-130.5 -36t-130 -10.5q-102 0 -198.5 40t-189.5 130l94 94q33 33 70.5 48t83.5 15q21 0 39 -4.5t34.5 -10.5t33 -10.5t33.5 -4.5q28 0 60 6t62 22t56 44t43 72l-660 955v-991h-326v1433h322
q48 0 85 -14t57 -43l501 -734q20 -29 30 -62t14 -47v900z" />
    <glyph glyph-name="eng" unicode="&#x14b;" horiz-adv-x="1260" 
d="M394 1050q21 -23 31 -59.5t10 -74.5v-12.5t-1 -12.5q12 34 41.5 65.5t69.5 55.5t87.5 38.5t96.5 14.5q94 0 167.5 -34t124.5 -96t78 -150.5t27 -197.5v-513q0 -84 -30 -154.5t-82 -127t-120.5 -100.5t-144.5 -75l-57 127q-4 9 -7 20.5t-5 23t-3 22.5t-1 18
q0 30 13.5 54.5t31.5 47t37 45.5t31 51q5 14 7.5 35t2.5 35v476q0 56 -10.5 89.5t-27 51t-35.5 23t-35 5.5q-43 0 -82.5 -10t-69.5 -28.5t-48 -44.5t-18 -59v-599h-327v1050h248z" />
    <glyph glyph-name="Omacron" unicode="&#x14c;" horiz-adv-x="1656" 
d="M92 717q0 101 26.5 194.5t74.5 174.5t115 147.5t149 114t176 73.5t195 26t195 -26t176 -73.5t149 -114t115 -147.5t74.5 -174.5t26.5 -194.5t-26.5 -194.5t-74.5 -174.5t-115 -147.5t-149 -114t-176 -73.5t-195 -26q-102 0 -195.5 26t-175.5 73.5t-149 114t-115 147.5
t-74.5 174.5t-26.5 194.5zM419 717q0 -83 33 -156.5t89 -128.5t130 -86.5t157 -31.5q82 0 156.5 31.5t130.5 86.5t89 128.5t33 156.5t-33 156.5t-89 128t-130.5 86.5t-156.5 32q-83 0 -157 -32t-130 -86.5t-89 -128t-33 -156.5zM516 1836h624v-293h-624v293z" />
    <glyph glyph-name="omacron" unicode="&#x14d;" horiz-adv-x="1226" 
d="M72 525q0 111 42.5 209.5t116 172t172 116t209.5 42.5t209.5 -42.5t172 -116t116 -172t42.5 -209.5t-42.5 -209.5t-116 -172t-172 -116t-209.5 -42.5t-209.5 42.5t-172 116t-116 172t-42.5 209.5zM400 524q0 -43 16.5 -81.5t45 -67t67 -45t81.5 -16.5t81.5 16.5t67.5 45
t45.5 67t16.5 81.5t-16.5 81.5t-45.5 67.5t-67.5 45.5t-81.5 16.5t-81.5 -16.5t-67 -45.5t-45 -67.5t-16.5 -81.5zM301 1493h624v-293h-624v293z" />
    <glyph glyph-name="Obreve" unicode="&#x14e;" horiz-adv-x="1656" 
d="M92 717q0 101 26.5 194.5t74.5 174.5t115 147.5t149 114t176 73.5t195 26t195 -26t176 -73.5t149 -114t115 -147.5t74.5 -174.5t26.5 -194.5t-26.5 -194.5t-74.5 -174.5t-115 -147.5t-149 -114t-176 -73.5t-195 -26q-102 0 -195.5 26t-175.5 73.5t-149 114t-115 147.5
t-74.5 174.5t-26.5 194.5zM419 717q0 -83 33 -156.5t89 -128.5t130 -86.5t157 -31.5q82 0 156.5 31.5t130.5 86.5t89 128.5t33 156.5t-33 156.5t-89 128t-130.5 86.5t-156.5 32q-83 0 -157 -32t-130 -86.5t-89 -128t-33 -156.5zM1179 1904q0 -78 -31.5 -143.5t-82 -113.5
t-113 -74.5t-125.5 -26.5q-62 0 -124.5 26.5t-112.5 74.5t-81.5 113.5t-31.5 143.5h80q46 0 85 -12t67 -38q24 -21 51 -34.5t67 -13.5q42 0 66.5 12.5t51.5 35.5q31 26 67.5 38t86.5 12h80z" />
    <glyph glyph-name="obreve" unicode="&#x14f;" horiz-adv-x="1226" 
d="M72 525q0 111 42.5 209.5t116 172t172 116t209.5 42.5t209.5 -42.5t172 -116t116 -172t42.5 -209.5t-42.5 -209.5t-116 -172t-172 -116t-209.5 -42.5t-209.5 42.5t-172 116t-116 172t-42.5 209.5zM400 524q0 -43 16.5 -81.5t45 -67t67 -45t81.5 -16.5t81.5 16.5t67.5 45
t45.5 67t16.5 81.5t-16.5 81.5t-45.5 67.5t-67.5 45.5t-81.5 16.5t-81.5 -16.5t-67 -45.5t-45 -67.5t-16.5 -81.5zM818 1437l-3 -45q-5 -52 -28.5 -95.5t-60.5 -75t-84.5 -49.5t-101.5 -18h-10q-56 2 -104.5 23t-84.5 56.5t-57 83.5t-21 104h1v16h63q74 0 120 -40
q9 -9 17.5 -16t19 -12.5t24 -8.5t32.5 -3q32 0 52 11t42 29q24 21 53 30.5t68 9.5h63z" />
    <glyph glyph-name="Ohungarumlaut" unicode="&#x150;" horiz-adv-x="1656" 
d="M92 717q0 101 26.5 194.5t74.5 174.5t115 147.5t149 114t176 73.5t195 26t195 -26t176 -73.5t149 -114t115 -147.5t74.5 -174.5t26.5 -194.5t-26.5 -194.5t-74.5 -174.5t-115 -147.5t-149 -114t-176 -73.5t-195 -26q-102 0 -195.5 26t-175.5 73.5t-149 114t-115 147.5
t-74.5 174.5t-26.5 194.5zM419 717q0 -83 33 -156.5t89 -128.5t130 -86.5t157 -31.5q82 0 156.5 31.5t130.5 86.5t89 128.5t33 156.5t-33 156.5t-89 128t-130.5 86.5t-156.5 32q-83 0 -157 -32t-130 -86.5t-89 -128t-33 -156.5zM1247 1600l-1 1q-23 -26 -58 -42t-86 -16
h-221l213 302q21 30 52.5 45.5t85.5 15.5h280zM821 1612q-52 -69 -168 -69h-190q47 84 78 139t50 88t28.5 48.5t13.5 20.5q26 34 68 50t99 16h249z" />
    <glyph glyph-name="ohungarumlaut" unicode="&#x151;" horiz-adv-x="1226" 
d="M72 525q0 111 42.5 209.5t116 172t172 116t209.5 42.5t209.5 -42.5t172 -116t116 -172t42.5 -209.5t-42.5 -209.5t-116 -172t-172 -116t-209.5 -42.5t-209.5 42.5t-172 116t-116 172t-42.5 209.5zM400 524q0 -43 16.5 -81.5t45 -67t67 -45t81.5 -16.5t81.5 16.5t67.5 45
t45.5 67t16.5 81.5t-16.5 81.5t-45.5 67.5t-67.5 45.5t-81.5 16.5t-81.5 -16.5t-67 -45.5t-45 -67.5t-16.5 -81.5zM1008 1218l-1 1q-23 -26 -58 -42t-86 -16h-221l213 302q21 30 52.5 45.5t85.5 15.5h280zM582 1230q-52 -69 -168 -69h-190q47 84 78 139t50 88t28.5 48.5
t13.5 20.5q26 34 68 50t99 16h249z" />
    <glyph glyph-name="OE" unicode="&#x152;" horiz-adv-x="2192" 
d="M58 717q0 101 26.5 194.5t74.5 174.5t115 147.5t149 114t176 73.5t195 26q36 0 73 -3.5t72 -10.5h1157v-328h-678q32 -51 55.5 -105t37.5 -114h468v-328h-465q-14 -64 -37.5 -120.5t-57.5 -109.5h677v-328h-1160q-35 -8 -70.5 -10.5t-71.5 -2.5q-102 0 -195.5 26
t-175.5 73.5t-149 114t-115 147.5t-74.5 174.5t-26.5 194.5zM397 717q0 -83 31 -156.5t85 -128.5t126 -86.5t155 -31.5q82 0 154.5 31.5t126.5 86.5t85 128.5t31 156.5t-31 156.5t-85 128t-126.5 86.5t-154.5 32q-83 0 -155 -32t-126 -86.5t-85 -128t-31 -156.5z" />
    <glyph glyph-name="oe" unicode="&#x153;" horiz-adv-x="2098" 
d="M72 525q0 111 42.5 209.5t116 172t172 116t209.5 42.5q63 0 121.5 -14t111.5 -39.5t99 -62t83 -81.5q75 91 183.5 144t235.5 53q93 0 179 -33.5t156 -90.5t120 -133.5t70 -161.5q4 -16 4.5 -35.5t0.5 -29.5q0 -47 -19 -80.5t-48 -54.5t-63.5 -30.5t-66.5 -9.5h-518
q11 -36 35 -64q20 -24 54.5 -44t89.5 -20q29 0 55.5 9t52.5 19.5t53.5 19.5t59.5 9q47 0 82 -15.5t65 -45.5l83 -83q-95 -103 -210 -154.5t-235 -51.5q-127 0 -235.5 52.5t-183.5 143.5q-75 -91 -182 -143.5t-233 -52.5q-111 0 -209.5 42.5t-172 116t-116 172t-42.5 209.5z
M400 524q0 -43 16.5 -81.5t45 -67t67 -45t81.5 -16.5t81.5 16.5t67.5 45t45.5 67t16.5 81.5t-16.5 81.5t-45.5 67.5t-67.5 45.5t-81.5 16.5t-81.5 -16.5t-67 -45.5t-45 -67.5t-16.5 -81.5zM1640 640q-18 37 -45 66q-23 25 -60.5 45.5t-91.5 20.5q-57 0 -95 -23.5t-61 -51.5
q-26 -33 -41 -74q6 4 14 8q7 3 16 6t20 3h344z" />
    <glyph glyph-name="Racute" unicode="&#x154;" horiz-adv-x="1412" 
d="M520 0h-327v1433h562q81 0 149.5 -21t124 -56.5t98 -84t71 -104t43 -114.5t14.5 -117q0 -57 -12.5 -113.5t-39.5 -110.5t-70 -103.5t-104 -92.5l382 -516h-273h-6q-9 0 -30.5 3t-48.5 14t-57 33t-57 61l-240 325h-179v-436zM772 765q30 0 58 15t49.5 39t34.5 54.5
t13 61.5t-13 61.5t-34.5 54.5t-49.5 39t-58 15h-252v-340h252zM771 1613q-52 -69 -168 -69h-190q47 84 78 139t50 88t28.5 48.5t13.5 20.5q26 34 68 50t99 16h249z" />
    <glyph glyph-name="racute" unicode="&#x155;" horiz-adv-x="780" 
d="M400 1050q12 -13 18.5 -30t9.5 -32q4 -18 3 -36q14 28 40 49t57 34.5t64 20.5t61 7q87 0 219 -53l-23 -132q-7 -39 -26.5 -65t-46.5 -41.5t-59 -22t-65 -6.5q-34 0 -65 -9t-55 -23.5t-40.5 -33t-20.5 -37.5v-640h-327v1050h256zM415 1230q-52 -69 -168 -69h-150
q47 84 74.5 132.5t42 73.5t20 34t9.5 14q26 34 68 50t99 16h209z" />
    <glyph glyph-name="Rcommaaccent" unicode="&#x156;" horiz-adv-x="1412" 
d="M520 0h-327v1433h562q81 0 149.5 -21t124 -56.5t98 -84t71 -104t43 -114.5t14.5 -117q0 -57 -12.5 -113.5t-39.5 -110.5t-70 -103.5t-104 -92.5l382 -516h-273h-6q-9 0 -30.5 3t-48.5 14t-57 33t-57 61l-240 325h-179v-436zM772 765q30 0 58 15t49.5 39t34.5 54.5
t13 61.5t-13 61.5t-34.5 54.5t-49.5 39t-58 15h-252v-340h252zM571 -145h151q33 0 55.5 -10.5t36 -28.5t18.5 -42.5t2 -51.5l-19 -121q-8 -46 -42 -75.5t-82 -29.5h-120v359z" />
    <glyph glyph-name="rcommaaccent" unicode="&#x157;" horiz-adv-x="780" 
d="M400 1050q12 -13 18.5 -30t9.5 -32q4 -18 3 -36q14 28 40 49t57 34.5t64 20.5t61 7q87 0 219 -53l-23 -132q-7 -39 -26.5 -65t-46.5 -41.5t-59 -22t-65 -6.5q-34 0 -65 -9t-55 -23.5t-40.5 -33t-20.5 -37.5v-640h-327v1050h256zM166 -142h151q33 0 55.5 -10.5t36 -28.5
t18.5 -42.5t2 -51.5l-19 -121q-8 -46 -42 -75.5t-82 -29.5h-120v359z" />
    <glyph glyph-name="Rcaron" unicode="&#x158;" horiz-adv-x="1412" 
d="M520 0h-327v1433h562q81 0 149.5 -21t124 -56.5t98 -84t71 -104t43 -114.5t14.5 -117q0 -57 -12.5 -113.5t-39.5 -110.5t-70 -103.5t-104 -92.5l382 -516h-273h-6q-9 0 -30.5 3t-48.5 14t-57 33t-57 61l-240 325h-179v-436zM772 765q30 0 58 15t49.5 39t34.5 54.5
t13 61.5t-13 61.5t-34.5 54.5t-49.5 39t-58 15h-252v-340h252zM507 1875q28 0 53 -12.5t46 -30.5t38 -38.5t30 -36.5l32 -39l32 40q13 16 29.5 36t37.5 38t45.5 30.5t53.5 12.5h193l-203 -264q-23 -34 -65 -52t-99 -18h-46q-57 0 -100 17.5t-67 52.5l-202 264h192z" />
    <glyph glyph-name="rcaron" unicode="&#x159;" horiz-adv-x="780" 
d="M400 1050q12 -13 18.5 -30t9.5 -32q4 -18 3 -36q14 28 40 49t57 34.5t64 20.5t61 7q87 0 219 -53l-23 -132q-7 -39 -26.5 -65t-46.5 -41.5t-59 -22t-65 -6.5q-34 0 -65 -9t-55 -23.5t-40.5 -33t-20.5 -37.5v-640h-327v1050h256zM191 1493q28 0 53 -12.5t46 -30.5
t38 -38.5t30 -36.5l32 -39l32 40q13 16 29.5 36t37.5 38t45.5 30.5t53.5 12.5h193l-203 -264q-23 -34 -65 -52t-99 -18h-46q-57 0 -100 17.5t-67 52.5l-202 264h192z" />
    <glyph glyph-name="Sacute" unicode="&#x15a;" horiz-adv-x="1171" 
d="M603 1119q-26 0 -50.5 -4.5t-43.5 -14.5t-30.5 -25t-11.5 -36q0 -32 16 -50t48.5 -31.5t81 -27t113.5 -35.5q83 -28 151.5 -68.5t117 -95t75.5 -122.5t27 -152q0 -104 -44 -190.5t-117.5 -148.5t-169.5 -96.5t-199 -34.5q-88 0 -167.5 26t-146 72.5t-116.5 111t-78 140.5
l104 60q25 14 53.5 22.5t57.5 8.5q43 0 77.5 -18t67.5 -39t68 -39t80 -18q30 0 65.5 9.5t66 27.5t50.5 44.5t20 61.5q0 33 -18.5 54t-50 36.5t-72.5 28.5t-86 31q-74 28 -146 61t-129 81.5t-92.5 118t-35.5 172.5q0 97 39.5 172.5t104.5 127.5t148.5 79.5t171.5 27.5
q64 0 124.5 -21.5t114.5 -56t101 -78.5t85 -90l-101 -85q-30 -26 -62.5 -37t-72.5 -11q-32 0 -56 8t-45 17.5t-42 17.5t-46 8zM812 1606q-52 -69 -168 -69h-190q47 84 78 139t50 88t28.5 48.5t13.5 20.5q26 34 68 50t99 16h249z" />
    <glyph glyph-name="sacute" unicode="&#x15b;" horiz-adv-x="914" 
d="M173 333q23 12 49 19.5t55 7.5q34 0 65 -22.5t69 -47.5q9 -6 22.5 -9.5t25.5 -3.5t24 4.5t21.5 12t16 18.5t6.5 23v5q-1 10 -6 18.5t-17 16t-32 16t-50 19.5q-57 20 -112.5 45.5t-99 64t-70.5 92.5t-27 131q0 68 30.5 126.5t81 101.5t114.5 67.5t131 24.5
q45 0 87.5 -12.5t79.5 -31.5t68.5 -42t55 -43.5t38 -37t18.5 -21.5l-74 -79q-29 -24 -54 -37t-56 -13q-22 0 -35 5.5t-27 12t-32.5 12t-51.5 5.5q-26 0 -42.5 -16t-16.5 -37q0 -11 3 -20.5t12 -14.5q15 -9 27.5 -13.5t27 -8t34 -8.5t48.5 -14q57 -18 106 -39t85 -53.5
t56.5 -82t20.5 -124.5q0 -73 -28.5 -139t-80.5 -115.5t-123.5 -79t-156.5 -29.5q-58 0 -115 20t-109 57t-96.5 90.5t-77.5 120.5zM652 1230q-52 -69 -168 -69h-150q47 84 74.5 132.5t42 73.5t20 34t9.5 14q26 34 68 50t99 16h209z" />
    <glyph glyph-name="Scircumflex" unicode="&#x15c;" horiz-adv-x="1171" 
d="M603 1119q-26 0 -50.5 -4.5t-43.5 -14.5t-30.5 -25t-11.5 -36q0 -32 16 -50t48.5 -31.5t81 -27t113.5 -35.5q83 -28 151.5 -68.5t117 -95t75.5 -122.5t27 -152q0 -104 -44 -190.5t-117.5 -148.5t-169.5 -96.5t-199 -34.5q-88 0 -167.5 26t-146 72.5t-116.5 111t-78 140.5
l104 60q25 14 53.5 22.5t57.5 8.5q43 0 77.5 -18t67.5 -39t68 -39t80 -18q30 0 65.5 9.5t66 27.5t50.5 44.5t20 61.5q0 33 -18.5 54t-50 36.5t-72.5 28.5t-86 31q-74 28 -146 61t-129 81.5t-92.5 118t-35.5 172.5q0 97 39.5 172.5t104.5 127.5t148.5 79.5t171.5 27.5
q64 0 124.5 -21.5t114.5 -56t101 -78.5t85 -90l-101 -85q-30 -26 -62.5 -37t-72.5 -11q-32 0 -56 8t-45 17.5t-42 17.5t-46 8zM585 1700l-32 -39q-13 -15 -29.5 -35.5t-37.5 -39t-46 -31t-54 -12.5h-192l202 295q24 35 67 52t100 17h46q116 0 164 -69l203 -295h-193
q-29 0 -54 12.5t-46 30.5t-37.5 38t-28.5 36z" />
    <glyph glyph-name="scircumflex" unicode="&#x15d;" horiz-adv-x="914" 
d="M173 333q23 12 49 19.5t55 7.5q34 0 65 -22.5t69 -47.5q9 -6 22.5 -9.5t25.5 -3.5t24 4.5t21.5 12t16 18.5t6.5 23v5q-1 10 -6 18.5t-17 16t-32 16t-50 19.5q-57 20 -112.5 45.5t-99 64t-70.5 92.5t-27 131q0 68 30.5 126.5t81 101.5t114.5 67.5t131 24.5
q45 0 87.5 -12.5t79.5 -31.5t68.5 -42t55 -43.5t38 -37t18.5 -21.5l-74 -79q-29 -24 -54 -37t-56 -13q-22 0 -35 5.5t-27 12t-32.5 12t-51.5 5.5q-26 0 -42.5 -16t-16.5 -37q0 -11 3 -20.5t12 -14.5q15 -9 27.5 -13.5t27 -8t34 -8.5t48.5 -14q57 -18 106 -39t85 -53.5
t56.5 -82t20.5 -124.5q0 -73 -28.5 -139t-80.5 -115.5t-123.5 -79t-156.5 -29.5q-58 0 -115 20t-109 57t-96.5 90.5t-77.5 120.5zM305 1205q-32 -44 -115 -44h-124l162 244q15 23 40 33.5t67 10.5h45q42 0 66 -10.5t39 -33.5l162 -244h-124q-83 0 -115 44l-42 83
q-3 4 -4.5 9.5t-3.5 10.5q-2 6 -2 12l-2 -12q-2 -5 -3.5 -10.5t-3.5 -9.5z" />
    <glyph glyph-name="Scedilla" unicode="&#x15e;" horiz-adv-x="1171" 
d="M603 1119q-26 0 -50.5 -4.5t-43.5 -14.5t-30.5 -25t-11.5 -36q0 -32 16 -50t48.5 -31.5t81 -27t113.5 -35.5q83 -28 151.5 -68.5t117 -95t75.5 -122.5t27 -152q0 -104 -44 -190.5t-117.5 -148.5t-169.5 -96.5t-199 -34.5q-88 0 -167.5 26t-146 72.5t-116.5 111t-78 140.5
l104 60q25 14 53.5 22.5t57.5 8.5q43 0 77.5 -18t67.5 -39t68 -39t80 -18q30 0 65.5 9.5t66 27.5t50.5 44.5t20 61.5q0 33 -18.5 54t-50 36.5t-72.5 28.5t-86 31q-74 28 -146 61t-129 81.5t-92.5 118t-35.5 172.5q0 97 39.5 172.5t104.5 127.5t148.5 79.5t171.5 27.5
q64 0 124.5 -21.5t114.5 -56t101 -78.5t85 -90l-101 -85q-30 -26 -62.5 -37t-72.5 -11q-32 0 -56 8t-45 17.5t-42 17.5t-46 8zM477 10h177l-1 -77q39 -8 72.5 -24t58 -38.5t38.5 -51t14 -60.5q0 -37 -15.5 -70t-46 -57.5t-77 -38.5t-108.5 -14q-33 0 -61 8.5t-49 19.5
q-25 12 -44 28v143q23 -17 49 -29q23 -11 52.5 -19.5t62.5 -8.5q18 0 31 5.5t13 12.5q0 22 -18 29.5t-36 7.5q-2 0 -7 -0.5t-24 -0.5q-17 0 -31.5 2.5t-25.5 11.5t-17.5 26t-6.5 45v150z" />
    <glyph glyph-name="scedilla" unicode="&#x15f;" horiz-adv-x="914" 
d="M173 333q23 12 49 19.5t55 7.5q34 0 65 -22.5t69 -47.5q9 -6 22.5 -9.5t25.5 -3.5t24 4.5t21.5 12t16 18.5t6.5 23v5q-1 10 -6 18.5t-17 16t-32 16t-50 19.5q-57 20 -112.5 45.5t-99 64t-70.5 92.5t-27 131q0 68 30.5 126.5t81 101.5t114.5 67.5t131 24.5
q45 0 87.5 -12.5t79.5 -31.5t68.5 -42t55 -43.5t38 -37t18.5 -21.5l-74 -79q-29 -24 -54 -37t-56 -13q-22 0 -35 5.5t-27 12t-32.5 12t-51.5 5.5q-26 0 -42.5 -16t-16.5 -37q0 -11 3 -20.5t12 -14.5q15 -9 27.5 -13.5t27 -8t34 -8.5t48.5 -14q57 -18 106 -39t85 -53.5
t56.5 -82t20.5 -124.5q0 -73 -28.5 -139t-80.5 -115.5t-123.5 -79t-156.5 -29.5q-58 0 -115 20t-109 57t-96.5 90.5t-77.5 120.5zM397 10h177l-1 -77q39 -8 72.5 -24t58 -38.5t38.5 -51t14 -60.5q0 -37 -15.5 -70t-46 -57.5t-77 -38.5t-108.5 -14q-33 0 -61 8.5t-49 19.5
q-25 12 -44 28v143q23 -17 49 -29q23 -11 52.5 -19.5t62.5 -8.5q18 0 31 5.5t13 12.5q0 22 -18 29.5t-36 7.5q-2 0 -7 -0.5t-24 -0.5q-17 0 -31.5 2.5t-25.5 11.5t-17.5 26t-6.5 45v150z" />
    <glyph glyph-name="Scaron" unicode="&#x160;" horiz-adv-x="1171" 
d="M603 1119q-26 0 -50.5 -4.5t-43.5 -14.5t-30.5 -25t-11.5 -36q0 -32 16 -50t48.5 -31.5t81 -27t113.5 -35.5q83 -28 151.5 -68.5t117 -95t75.5 -122.5t27 -152q0 -104 -44 -190.5t-117.5 -148.5t-169.5 -96.5t-199 -34.5q-88 0 -167.5 26t-146 72.5t-116.5 111t-78 140.5
l104 60q25 14 53.5 22.5t57.5 8.5q43 0 77.5 -18t67.5 -39t68 -39t80 -18q30 0 65.5 9.5t66 27.5t50.5 44.5t20 61.5q0 33 -18.5 54t-50 36.5t-72.5 28.5t-86 31q-74 28 -146 61t-129 81.5t-92.5 118t-35.5 172.5q0 97 39.5 172.5t104.5 127.5t148.5 79.5t171.5 27.5
q64 0 124.5 -21.5t114.5 -56t101 -78.5t85 -90l-101 -85q-30 -26 -62.5 -37t-72.5 -11q-32 0 -56 8t-45 17.5t-42 17.5t-46 8zM357 1875q28 0 53 -12.5t46 -30.5t38 -38.5t30 -36.5l32 -39l32 40q13 16 29.5 36t37.5 38t45.5 30.5t53.5 12.5h193l-203 -264q-23 -34 -65 -52
t-99 -18h-46q-57 0 -100 17.5t-67 52.5l-202 264h192z" />
    <glyph glyph-name="scaron" unicode="&#x161;" horiz-adv-x="914" 
d="M173 333q23 12 49 19.5t55 7.5q34 0 65 -22.5t69 -47.5q9 -6 22.5 -9.5t25.5 -3.5t24 4.5t21.5 12t16 18.5t6.5 23v5q-1 10 -6 18.5t-17 16t-32 16t-50 19.5q-57 20 -112.5 45.5t-99 64t-70.5 92.5t-27 131q0 68 30.5 126.5t81 101.5t114.5 67.5t131 24.5
q45 0 87.5 -12.5t79.5 -31.5t68.5 -42t55 -43.5t38 -37t18.5 -21.5l-74 -79q-29 -24 -54 -37t-56 -13q-22 0 -35 5.5t-27 12t-32.5 12t-51.5 5.5q-26 0 -42.5 -16t-16.5 -37q0 -11 3 -20.5t12 -14.5q15 -9 27.5 -13.5t27 -8t34 -8.5t48.5 -14q57 -18 106 -39t85 -53.5
t56.5 -82t20.5 -124.5q0 -73 -28.5 -139t-80.5 -115.5t-123.5 -79t-156.5 -29.5q-58 0 -115 20t-109 57t-96.5 90.5t-77.5 120.5zM238 1487q28 0 53 -12.5t46 -30.5t38 -38.5t30 -36.5l32 -39l32 40q13 16 29.5 36t37.5 38t45.5 30.5t53.5 12.5h193l-203 -264
q-23 -34 -65 -52t-99 -18h-46q-57 0 -100 17.5t-67 52.5l-202 264h192z" />
    <glyph glyph-name="Tcommaaccent" unicode="&#x162;" horiz-adv-x="1215" 
d="M44 1128v306h1124v-306h-398v-1128h-327v1128h-399zM476 -158h151q33 0 55.5 -10.5t36 -28.5t18.5 -42.5t2 -51.5l-19 -121q-8 -46 -42 -75.5t-82 -29.5h-120v359z" />
    <glyph glyph-name="tcommaaccent" unicode="&#x163;" horiz-adv-x="782" 
d="M505 744v-374q0 -21 6 -34t14.5 -20t17.5 -9t16 -2q10 0 19.5 2t15.5 2q27 0 51 -8t44 -20t36 -27.5t29 -31.5q30 -38 50 -86q-29 -29 -70 -56t-85 -47.5t-86 -33t-73 -12.5q-72 0 -130 23.5t-98.5 65t-62.5 99t-22 126.5v443h-150v164q0 59 38 94.5t112 45.5v186
q0 40 12.5 72t27.5 55q18 26 41 48h247v-358h250v-307h-250zM276 -153h151q33 0 55.5 -10.5t36 -28.5t18.5 -42.5t2 -51.5l-19 -121q-8 -46 -42 -75.5t-82 -29.5h-120v359z" />
    <glyph glyph-name="Tcaron" unicode="&#x164;" horiz-adv-x="1215" 
d="M44 1128v306h1124v-306h-398v-1128h-327v1128h-399zM412 1875q28 0 53 -12.5t46 -30.5t38 -38.5t30 -36.5l32 -39l32 40q13 16 29.5 36t37.5 38t45.5 30.5t53.5 12.5h193l-203 -264q-23 -34 -65 -52t-99 -18h-46q-57 0 -100 17.5t-67 52.5l-202 264h192z" />
    <glyph glyph-name="tcaron" unicode="&#x165;" horiz-adv-x="782" 
d="M505 744v-374q0 -21 6 -34t14.5 -20t17.5 -9t16 -2q10 0 19.5 2t15.5 2q27 0 51 -8t44 -20t36 -27.5t29 -31.5q30 -38 50 -86q-29 -29 -70 -56t-85 -47.5t-86 -33t-73 -12.5q-72 0 -130 23.5t-98.5 65t-62.5 99t-22 126.5v443h-150v164q0 59 38 94.5t112 45.5v186
q0 40 12.5 72t27.5 55q18 26 41 48h247v-358h250v-307h-250zM782 1500h151q33 0 55.5 -10.5t36 -28.5t18.5 -42.5t2 -51.5l-19 -121q-8 -46 -42 -75.5t-82 -29.5h-120v359z" />
    <glyph glyph-name="Tbar" unicode="&#x166;" horiz-adv-x="1215" 
d="M188 1128v306h1124v-306h-398v-1128h-327v1128h-399zM443 864h624v-293h-624v293z" />
    <glyph glyph-name="tbar" unicode="&#x167;" horiz-adv-x="782" 
d="M27 662h150v82h-150v164q0 21 2 45.5t12.5 45.5t33.5 35t66 14h36v196q0 40 12.5 72t27.5 55q18 26 41 48h247v-368h250v-307h-250v-82h250v-191h-250v-121q0 -28 10 -36.5t24 -8.5q10 0 19.5 2t15.5 2q27 0 51.5 -8t46 -20t39.5 -27.5t33 -31.5q34 -38 60 -86
q-29 -29 -70 -56t-85 -47.5t-86 -33t-73 -12.5q-72 0 -130 23.5t-98.5 65t-62.5 99t-22 126.5v170h-150v191z" />
    <glyph glyph-name="Utilde" unicode="&#x168;" horiz-adv-x="1494" 
d="M483 577q0 -54 22 -102t59 -84t85.5 -57t102.5 -21t102.5 21t86 57t59.5 84t22 102v856h327v-856q0 -123 -47 -230.5t-128 -187.5t-189.5 -126.5t-232.5 -46.5q-82 0 -158 21t-142 59.5t-121 92.5t-94 119.5t-60.5 141t-21.5 157.5v856h328v-856zM862 1529q-30 0 -55 10
t-48.5 22t-47 22t-51.5 10q-9 0 -14.5 -6t-8.5 -15.5t-4 -20.5t-1 -21h-223q0 151 52.5 233t158.5 82q33 0 57 -9.5t44.5 -21t40.5 -21t46 -9.5q37 0 37 54h239q-6 -70 -15 -127t-32 -97.5t-64 -62.5t-111 -22z" />
    <glyph glyph-name="utilde" unicode="&#x169;" 
d="M845 0q-21 23 -31 59t-10 74v13t1 13q-12 -35 -41.5 -66.5t-69.5 -55.5t-87.5 -38t-96.5 -14q-94 0 -167.5 34t-124.5 96t-78 150.5t-27 197.5v587h327v-572q0 -56 10.5 -89.5t27 -51t35 -23t35.5 -5.5q43 0 82.5 10t69.5 28.5t48 44.5t18 59v599h327v-1050h-248z
M726 1199q-30 0 -55 10t-48.5 22t-47 22t-51.5 10q-9 0 -14.5 -6t-8.5 -15.5t-4 -20.5t-1 -21h-223q0 151 52.5 233t158.5 82q33 0 57 -9.5t44.5 -21t40.5 -21t46 -9.5q37 0 37 54h239q-6 -70 -15 -127t-32 -97.5t-64 -62.5t-111 -22z" />
    <glyph glyph-name="Umacron" unicode="&#x16a;" horiz-adv-x="1494" 
d="M483 577q0 -54 22 -102t59 -84t85.5 -57t102.5 -21t102.5 21t86 57t59.5 84t22 102v856h327v-856q0 -123 -47 -230.5t-128 -187.5t-189.5 -126.5t-232.5 -46.5q-82 0 -158 21t-142 59.5t-121 92.5t-94 119.5t-60.5 141t-21.5 157.5v856h328v-856zM455 1836h624v-293h-624
v293z" />
    <glyph glyph-name="umacron" unicode="&#x16b;" 
d="M845 0q-21 23 -31 59t-10 74v13t1 13q-12 -35 -41.5 -66.5t-69.5 -55.5t-87.5 -38t-96.5 -14q-94 0 -167.5 34t-124.5 96t-78 150.5t-27 197.5v587h327v-572q0 -56 10.5 -89.5t27 -51t35 -23t35.5 -5.5q43 0 82.5 10t69.5 28.5t48 44.5t18 59v599h327v-1050h-248z
M299 1493h624v-293h-624v293z" />
    <glyph glyph-name="Ubreve" unicode="&#x16c;" horiz-adv-x="1494" 
d="M483 577q0 -54 22 -102t59 -84t85.5 -57t102.5 -21t102.5 21t86 57t59.5 84t22 102v856h327v-856q0 -123 -47 -230.5t-128 -187.5t-189.5 -126.5t-232.5 -46.5q-82 0 -158 21t-142 59.5t-121 92.5t-94 119.5t-60.5 141t-21.5 157.5v856h328v-856zM1105 1897
q0 -78 -31.5 -143.5t-82 -113.5t-113 -74.5t-125.5 -26.5q-62 0 -124.5 26.5t-112.5 74.5t-81.5 113.5t-31.5 143.5h80q46 0 85 -12t67 -38q24 -21 51 -34.5t67 -13.5q42 0 66.5 12.5t51.5 35.5q31 26 67.5 38t86.5 12h80z" />
    <glyph glyph-name="ubreve" unicode="&#x16d;" 
d="M845 0q-21 23 -31 59t-10 74v13t1 13q-12 -35 -41.5 -66.5t-69.5 -55.5t-87.5 -38t-96.5 -14q-94 0 -167.5 34t-124.5 96t-78 150.5t-27 197.5v587h327v-572q0 -56 10.5 -89.5t27 -51t35 -23t35.5 -5.5q43 0 82.5 10t69.5 28.5t48 44.5t18 59v599h327v-1050h-248z
M816 1437l-3 -45q-5 -52 -28.5 -95.5t-60.5 -75t-84.5 -49.5t-101.5 -18h-10q-56 2 -104.5 23t-84.5 56.5t-57 83.5t-21 104h1v16h63q74 0 120 -40q9 -9 17.5 -16t19 -12.5t24 -8.5t32.5 -3q32 0 52 11t42 29q24 21 53 30.5t68 9.5h63z" />
    <glyph glyph-name="Uring" unicode="&#x16e;" horiz-adv-x="1494" 
d="M483 577q0 -54 22 -102t59 -84t85.5 -57t102.5 -21t102.5 21t86 57t59.5 84t22 102v856h327v-856q0 -123 -47 -230.5t-128 -187.5t-189.5 -126.5t-232.5 -46.5q-82 0 -158 21t-142 59.5t-121 92.5t-94 119.5t-60.5 141t-21.5 157.5v856h328v-856zM518 1749q0 49 19 92
t51 75t75.5 50.5t93.5 18.5q49 0 93 -18.5t76 -50.5t51 -75t19 -92t-19 -92t-51 -75.5t-76 -51t-93 -18.5q-50 0 -93.5 18.5t-75.5 51t-51 75.5t-19 92zM708 1749q0 -20 14 -34.5t35 -14.5t35.5 14.5t14.5 34.5q0 21 -14.5 35.5t-35.5 14.5t-35 -14.5t-14 -35.5z" />
    <glyph glyph-name="uring" unicode="&#x16f;" 
d="M845 0q-21 23 -31 59t-10 74v13t1 13q-12 -35 -41.5 -66.5t-69.5 -55.5t-87.5 -38t-96.5 -14q-94 0 -167.5 34t-124.5 96t-78 150.5t-27 197.5v587h327v-572q0 -56 10.5 -89.5t27 -51t35 -23t35.5 -5.5q43 0 82.5 10t69.5 28.5t48 44.5t18 59v599h327v-1050h-248z
M372 1367q0 49 19 92t51 75t75.5 50.5t93.5 18.5q49 0 93 -18.5t76 -50.5t51 -75t19 -92t-19 -92t-51 -75.5t-76 -51t-93 -18.5q-50 0 -93.5 18.5t-75.5 51t-51 75.5t-19 92zM562 1367q0 -20 14 -34.5t35 -14.5t35.5 14.5t14.5 34.5q0 21 -14.5 35.5t-35.5 14.5t-35 -14.5
t-14 -35.5z" />
    <glyph glyph-name="Uhungarumlaut" unicode="&#x170;" horiz-adv-x="1494" 
d="M483 577q0 -54 22 -102t59 -84t85.5 -57t102.5 -21t102.5 21t86 57t59.5 84t22 102v856h327v-856q0 -123 -47 -230.5t-128 -187.5t-189.5 -126.5t-232.5 -46.5q-82 0 -158 21t-142 59.5t-121 92.5t-94 119.5t-60.5 141t-21.5 157.5v856h328v-856zM1186 1600l-1 1
q-23 -26 -58 -42t-86 -16h-221l213 302q21 30 52.5 45.5t85.5 15.5h280zM760 1612q-52 -69 -168 -69h-190q47 84 78 139t50 88t28.5 48.5t13.5 20.5q26 34 68 50t99 16h249z" />
    <glyph glyph-name="uhungarumlaut" unicode="&#x171;" 
d="M845 0q-21 23 -31 59t-10 74v13t1 13q-12 -35 -41.5 -66.5t-69.5 -55.5t-87.5 -38t-96.5 -14q-94 0 -167.5 34t-124.5 96t-78 150.5t-27 197.5v587h327v-572q0 -56 10.5 -89.5t27 -51t35 -23t35.5 -5.5q43 0 82.5 10t69.5 28.5t48 44.5t18 59v599h327v-1050h-248z
M1021 1218l-1 1q-23 -26 -58 -42t-86 -16h-221l213 302q21 30 52.5 45.5t85.5 15.5h280zM595 1230q-52 -69 -168 -69h-190q47 84 78 139t50 88t28.5 48.5t13.5 20.5q26 34 68 50t99 16h249z" />
    <glyph glyph-name="Uogonek" unicode="&#x172;" horiz-adv-x="1494" 
d="M483 577q0 -54 22 -102t59 -84t85.5 -57t102.5 -21t102.5 21t86 57t59.5 84t22 102v856h327v-856q0 -123 -47 -230.5t-128 -187.5t-189.5 -126.5t-232.5 -46.5q-82 0 -158 21t-142 59.5t-121 92.5t-94 119.5t-60.5 141t-21.5 157.5v856h328v-856zM905 18
q-57 -32 -88.5 -57t-46.5 -45.5t-18.5 -37t-3.5 -29.5q0 -14 5.5 -21.5t12.5 -11t14 -3.5h10q18 2 41 7.5t42 5.5q18 0 38 -2.5t38.5 -10t34.5 -21.5t26 -36l34 -75q-60 -41 -132 -67t-138 -26q-63 0 -113 15t-85.5 42t-54 65t-18.5 85q0 36 20.5 70t52.5 65.5t72.5 60
t81.5 52.5z" />
    <glyph glyph-name="uogonek" unicode="&#x173;" 
d="M845 0q-21 23 -31 59t-10 74v13t1 13q-12 -35 -41.5 -66.5t-69.5 -55.5t-87.5 -38t-96.5 -14q-94 0 -167.5 34t-124.5 96t-78 150.5t-27 197.5v587h327v-572q0 -56 10.5 -89.5t27 -51t35 -23t35.5 -5.5q43 0 82.5 10t69.5 28.5t48 44.5t18 59v599h327v-1050h-248zM1060 0
q-57 -32 -88.5 -57t-46.5 -45.5t-18.5 -37t-3.5 -29.5q0 -14 5.5 -21.5t12.5 -11t14 -3.5h10q18 2 41 7.5t42 5.5q18 0 38 -2.5t38.5 -10t34.5 -21.5t26 -36l34 -75q-60 -41 -132 -67t-138 -26q-63 0 -113 15t-85.5 42t-54 65t-18.5 85q0 36 20.5 70t52.5 65.5t72.5 60
t81.5 52.5z" />
    <glyph glyph-name="Wcircumflex" unicode="&#x174;" horiz-adv-x="2067" 
d="M1077 276q-13 30 -17 55.5t-4 42.5q0 16 1 21q0 4 1 7l-173 -402h-284l-625 1433h210q33 0 64 -10t57.5 -27t47 -40t32.5 -50l332 -757q7 -16 11.5 -32.5t7.5 -30.5q4 -17 5 -32q1 15 5 32q3 14 7.5 30.5t11.5 32.5l329 757q12 28 33 51.5t47.5 40t57.5 26t63 9.5h211
l-282 -652l93 -232q7 -17 11 -33.5t6 -30.5q3 -16 3 -31q0 15 3 31q2 14 6 30.5t12 33.5l332 757q12 28 33 51.5t48 40t58 26t63 9.5h211l-625 -1433h-283zM1147 1693l-32 -39q-13 -15 -29.5 -35.5t-37.5 -39t-46 -31t-54 -12.5h-192l202 295q24 35 67 52t100 17h46
q116 0 164 -69l203 -295h-193q-29 0 -54 12.5t-46 30.5t-37.5 38t-28.5 36z" />
    <glyph glyph-name="wcircumflex" unicode="&#x175;" horiz-adv-x="1813" 
d="M-25 1050h210q31 0 61.5 -9t56.5 -25t46 -38.5t31 -50.5l191 -476q13 -32 15.5 -52t2.5 -26q0 8 3.5 29.5t14.5 48.5l193 477q12 28 32 51t46 39t56 24.5t61 8.5h208l-113 -278l131 -322q13 -32 15.5 -52t2.5 -26q0 8 3.5 29.5t14.5 48.5l193 477q12 28 32 51t46 39
t56 24.5t61 8.5h208l-427 -1051h-375l-120 352q-10 24 -10 46q0 10 2 20l2 8l-149 -426h-375zM798 1205q-32 -44 -115 -44h-124l162 244q15 23 40 33.5t67 10.5h45q42 0 66 -10.5t39 -33.5l162 -244h-124q-83 0 -115 44l-42 83q-3 4 -4.5 9.5t-3.5 10.5q-2 6 -2 12l-2 -12
q-2 -5 -3.5 -10.5t-3.5 -9.5z" />
    <glyph glyph-name="Ycircumflex" unicode="&#x176;" horiz-adv-x="1505" 
d="M917 0h-327v608q0 20 -13 43t-30 47l-544 735h267q74 0 129.5 -29.5t93.5 -81.5l227 -308q10 -14 16 -26.5t10 -23.5q4 -12 7 -23q3 11 7 23q4 11 10 23.5t16 26.5l226 306q37 57 93.5 85t130.5 28h269l-545 -737q-18 -24 -30.5 -45t-12.5 -43v-608zM752 1700l-32 -39
q-13 -15 -29.5 -35.5t-37.5 -39t-46 -31t-54 -12.5h-192l202 295q24 35 67 52t100 17h46q116 0 164 -69l203 -295h-193q-29 0 -54 12.5t-46 30.5t-37.5 38t-28.5 36z" />
    <glyph glyph-name="ycircumflex" unicode="&#x177;" horiz-adv-x="1202" 
d="M15 1050h215q32 0 62.5 -9t57 -25.5t46 -40t29.5 -52.5l129 -328q17 -43 22.5 -73.5t5.5 -49.5q0 -14 -2 -24l-2 -8l189 486q23 58 76.5 91t117.5 33h217l-572 -1310q-11 -30 -31 -54t-46 -40.5t-57 -25.5t-62 -9h-216l223 515zM447 1205q-32 -44 -115 -44h-124l162 244
q15 23 40 33.5t67 10.5h45q42 0 66 -10.5t39 -33.5l162 -244h-124q-83 0 -115 44l-42 83q-3 4 -4.5 9.5t-3.5 10.5q-2 6 -2 12l-2 -12q-2 -5 -3.5 -10.5t-3.5 -9.5z" />
    <glyph glyph-name="Ydieresis" unicode="&#x178;" horiz-adv-x="1505" 
d="M917 0h-327v608q0 20 -13 43t-30 47l-544 735h267q74 0 129.5 -29.5t93.5 -81.5l227 -308q10 -14 16 -26.5t10 -23.5q4 -12 7 -23q3 11 7 23q4 11 10 23.5t16 26.5l226 306q37 57 93.5 85t130.5 28h269l-545 -737q-18 -24 -30.5 -45t-12.5 -43v-608zM418 1679
q0 30 11.5 57t31 46.5t46 31t56.5 11.5t57 -11.5t46.5 -31t31 -46.5t11.5 -57t-11.5 -56.5t-31 -46t-46.5 -31t-57 -11.5t-56.5 11.5t-46 31t-31 46t-11.5 56.5zM810 1679q0 30 11.5 57t31 46.5t46 31t56.5 11.5t57 -11.5t46.5 -31t31 -46.5t11.5 -57t-11.5 -56.5t-31 -46
t-46.5 -31t-57 -11.5t-56.5 11.5t-46 31t-31 46t-11.5 56.5z" />
    <glyph glyph-name="Zacute" unicode="&#x179;" horiz-adv-x="1298" 
d="M526 269q10 10 22 18q11 7 25.5 13t34.5 6h603v-306h-1122v149q0 94 60 163l612 815h-637v307h1099v-149q0 -40 -12.5 -79.5t-35.5 -70.5zM894 1613q-52 -69 -168 -69h-190q47 84 78 139t50 88t28.5 48.5t13.5 20.5q26 34 68 50t99 16h249z" />
    <glyph glyph-name="zacute" unicode="&#x17a;" horiz-adv-x="989" 
d="M515 277q11 8 22 14q10 5 22.5 10t24.5 5h345v-306h-859v143q0 89 57 157q92 121 170.5 233t153.5 211h-379v306h847v-142q0 -40 -12.5 -77t-35.5 -69zM551 1230q-52 -69 -168 -69h-150q47 84 74.5 132.5t42 73.5t20 34t9.5 14q26 34 68 50t99 16h209z" />
    <glyph glyph-name="Zdotaccent" unicode="&#x17b;" horiz-adv-x="1298" 
d="M526 269q10 10 22 18q11 7 25.5 13t34.5 6h603v-306h-1122v149q0 94 60 163l612 815h-637v307h1099v-149q0 -40 -12.5 -79.5t-35.5 -70.5zM473 1704q0 36 14 67t37.5 54t55.5 36.5t68 13.5q37 0 69 -13.5t56 -36.5t37.5 -54t13.5 -67q0 -35 -13.5 -66.5t-37.5 -54.5
t-56 -36.5t-69 -13.5q-36 0 -68 13.5t-55.5 36.5t-37.5 54.5t-14 66.5z" />
    <glyph glyph-name="zdotaccent" unicode="&#x17c;" horiz-adv-x="989" 
d="M515 277q11 8 22 14q10 5 22.5 10t24.5 5h345v-306h-859v143q0 89 57 157q92 121 170.5 233t153.5 211h-379v306h847v-142q0 -40 -12.5 -77t-35.5 -69zM319 1324q0 36 14 67t37.5 54t55.5 36.5t68 13.5q37 0 69 -13.5t56 -36.5t37.5 -54t13.5 -67q0 -35 -13.5 -66.5
t-37.5 -54.5t-56 -36.5t-69 -13.5q-36 0 -68 13.5t-55.5 36.5t-37.5 54.5t-14 66.5z" />
    <glyph glyph-name="Zcaron" unicode="&#x17d;" horiz-adv-x="1298" 
d="M526 269q10 10 22 18q11 7 25.5 13t34.5 6h603v-306h-1122v149q0 94 60 163l612 815h-637v307h1099v-149q0 -40 -12.5 -79.5t-35.5 -70.5zM496 1883q28 0 53 -12.5t46 -30.5t38 -38.5t30 -36.5l32 -39l32 40q13 16 29.5 36t37.5 38t45.5 30.5t53.5 12.5h193l-203 -264
q-23 -34 -65 -52t-99 -18h-46q-57 0 -100 17.5t-67 52.5l-202 264h192z" />
    <glyph glyph-name="zcaron" unicode="&#x17e;" horiz-adv-x="989" 
d="M515 277q11 8 22 14q10 5 22.5 10t24.5 5h345v-306h-859v143q0 89 57 157q92 121 170.5 233t153.5 211h-379v306h847v-142q0 -40 -12.5 -77t-35.5 -69zM318 1490q28 0 53 -12.5t46 -30.5t38 -38.5t30 -36.5l32 -39l32 40q13 16 29.5 36t37.5 38t45.5 30.5t53.5 12.5h193
l-203 -264q-23 -34 -65 -52t-99 -18h-46q-57 0 -100 17.5t-67 52.5l-202 264h192z" />
    <glyph glyph-name="longs" unicode="&#x17f;" horiz-adv-x="655" 
d="M162 0v713h-151v185q0 28 4 50.5t18.5 38t43.5 23.5t80 8h5v108q0 69 21.5 126.5t62 99t98 65t129.5 23.5q30 0 72 -12t85.5 -31.5t84 -45t68.5 -53.5l-50 -82q-26 -44 -72 -70.5t-103 -26.5q-8 0 -18.5 2t-21.5 2q-20 0 -25.5 -11.5t-5.5 -26.5v-1085h-325z" />
    <glyph glyph-name="florin" unicode="&#x192;" horiz-adv-x="755" 
d="M161 715h-150v164q0 40 9.5 65t28.5 40t47 22.5t65 12.5v106q0 69 21.5 126.5t62 99t98.5 65t130 23.5q30 0 71.5 -12t85 -32t83.5 -45.5t68 -53.5l-50 -81q-26 -43 -66 -70t-97 -27q-8 0 -21.5 2.5t-26.5 1.5t-22.5 -8.5t-9.5 -27.5v-65h234v-306h-234v-741
q0 -69 -21.5 -126.5t-61.5 -99.5t-98 -65t-130 -23q-31 0 -72.5 12t-85 31.5t-84 45.5t-68.5 55l42 69h-1q13 21 25.5 35.5t27 24t33.5 13.5t47 4q13 0 21 -2t15 -4t15.5 -4.5t22.5 -3.5q18 -2 27.5 4t13.5 13.5t4.5 14l0.5 6.5v741z" />
    <glyph glyph-name="AEacute" unicode="&#x1fc;" horiz-adv-x="1904" 
d="M1739 0h-497q-69 0 -121 35t-74 98l-53 153h-546l-86 -164q-15 -28 -37 -50.5t-49.5 -38.5t-58.5 -24.5t-62 -8.5h-235l759 1433h1060v-328h-664q19 -56 37.5 -107t39.5 -112h469v-328h-359l34 -97q7 -20 12.5 -35.5t11 -30t11 -30.5t12.5 -37h396v-328zM780 913
l-159 -299h262zM1133 1614q-52 -69 -168 -69h-190q47 84 78 139t50 88t28.5 48.5t13.5 20.5q26 34 68 50t99 16h249z" />
    <glyph glyph-name="aeacute" unicode="&#x1fd;" horiz-adv-x="1830" 
d="M174 846q17 26 37 52q17 22 39 45t47 40q60 39 129 59.5t154 20.5q51 0 99 -7.5t89 -19.5t74 -27.5t53 -31.5q3 -2 3 -7t-2 -10q-2 -6 -5 -12q33 27 64.5 48.5t67.5 36.5t80 22.5t103 7.5q93 0 178 -31t154.5 -85.5t119.5 -128t73 -158.5q5 -16 5.5 -32t0.5 -26
q0 -47 -19 -80t-48 -53.5t-63.5 -30t-66.5 -9.5h-535q3 -11 16 -35.5t37.5 -49.5t61 -44.5t86.5 -19.5q27 0 55.5 7.5t53.5 21.5q46 26 106 26q47 0 82 -15.5t65 -45.5l83 -83q-95 -103 -210 -153.5t-235 -50.5q-95 0 -183 31q-25 9 -49 24q-20 13 -43.5 32t-41.5 47
q2 -10 3 -18q1 -7 0 -13t-5 -8q-27 -14 -70.5 -30.5t-96 -30.5t-110.5 -24t-115 -10q-84 0 -157 24.5t-127 70t-85 109t-31 141.5q0 181 140.5 273.5t410.5 92.5h17t21 -2q-2 19 -10 38.5t-22 35.5t-34.5 26t-47.5 10q-25 0 -47 -9t-44 -19.5t-44.5 -19.5t-49.5 -9
q-33 0 -65.5 13.5t-60.5 30.5zM497 260q44 0 100.5 12t108.5 38l-1 7q-23 52 -33 111q-14 1 -30 1.5t-36 0.5q-39 0 -72 -7.5t-58 -19.5t-39 -28t-14 -33q0 -11 3.5 -25t11.5 -26.5t22.5 -21.5t36.5 -9zM1443 652q-21 44 -52 79q-26 30 -67 55t-96 25q-65 0 -108 -27.5
t-68 -60.5q-30 -39 -47 -88q5 4 12 8q6 3 14 6t19 3h393zM940 1230q-52 -69 -168 -69h-150q47 84 74.5 132.5t42 73.5t20 34t9.5 14q26 34 68 50t99 16h209z" />
    <glyph glyph-name="Oslashacute" unicode="&#x1fe;" horiz-adv-x="1648" 
d="M1010 1613q-52 -69 -168 -69h-190q47 84 78 139t50 88t28.5 48.5t13.5 20.5q26 34 68 50t99 16h249zM92 717q0 101 26.5 194.5t74.5 174.5t115 147.5t149 114t176 73.5t195 26q94 0 182 -22.5t166 -64.5l79 108q19 27 35.5 38.5t48.5 11.5h200l-202 -275
q52 -50 94.5 -109t71.5 -126t45 -140t16 -151q0 -101 -26.5 -194.5t-74.5 -174.5t-115 -147.5t-149 -114t-176 -73.5t-195 -26q-95 0 -183 22.5t-166 64.5l-79 -108q-22 -29 -51 -42t-58 -13h-178l205 279q-105 100 -165.5 235.5t-60.5 291.5zM828 314q82 0 156.5 31.5
t130.5 86.5t89 128.5t33 156.5q0 74 -26 139t-71 118l-463 -631q72 -29 151 -29zM419 717q0 -74 25.5 -139t70.5 -118l463 631q-72 29 -150 29q-83 0 -157 -32t-130 -86.5t-89 -128t-33 -156.5z" />
    <glyph glyph-name="oslashacute" unicode="&#x1ff;" horiz-adv-x="1226" 
d="M785 1230q-52 -69 -168 -69h-150q47 84 74.5 132.5t42 73.5t20 34t9.5 14q26 34 68 50t99 16h209zM933 1107q19 27 35.5 38.5t48.5 11.5h170l-888 -1211q-22 -29 -51 -42t-58 -13h-148zM72 525q0 111 42.5 209.5t116 172t172 116t209.5 42.5t209.5 -42.5t172 -116
t116 -172t42.5 -209.5t-42.5 -209.5t-116 -172t-172 -116t-209.5 -42.5t-209.5 42.5t-172 116t-116 172t-42.5 209.5zM400 524q0 -43 16.5 -81.5t45 -67t67 -45t81.5 -16.5t81.5 16.5t67.5 45t45.5 67t16.5 81.5t-16.5 81.5t-45.5 67.5t-67.5 45.5t-81.5 16.5t-81.5 -16.5
t-67 -45.5t-45 -67.5t-16.5 -81.5z" />
    <glyph glyph-name="Scommaaccent" unicode="&#x218;" horiz-adv-x="1171" 
d="M603 1119q-26 0 -50.5 -4.5t-43.5 -14.5t-30.5 -25t-11.5 -36q0 -32 16 -50t48.5 -31.5t81 -27t113.5 -35.5q83 -28 151.5 -68.5t117 -95t75.5 -122.5t27 -152q0 -104 -44 -190.5t-117.5 -148.5t-169.5 -96.5t-199 -34.5q-88 0 -167.5 26t-146 72.5t-116.5 111t-78 140.5
l104 60q25 14 53.5 22.5t57.5 8.5q43 0 77.5 -18t67.5 -39t68 -39t80 -18q30 0 65.5 9.5t66 27.5t50.5 44.5t20 61.5q0 33 -18.5 54t-50 36.5t-72.5 28.5t-86 31q-74 28 -146 61t-129 81.5t-92.5 118t-35.5 172.5q0 97 39.5 172.5t104.5 127.5t148.5 79.5t171.5 27.5
q64 0 124.5 -21.5t114.5 -56t101 -78.5t85 -90l-101 -85q-30 -26 -62.5 -37t-72.5 -11q-32 0 -56 8t-45 17.5t-42 17.5t-46 8zM459 -148h151q33 0 55.5 -10.5t36 -28.5t18.5 -42.5t2 -51.5l-19 -121q-8 -46 -42 -75.5t-82 -29.5h-120v359z" />
    <glyph glyph-name="scommaaccent" unicode="&#x219;" horiz-adv-x="914" 
d="M173 333q23 12 49 19.5t55 7.5q34 0 65 -22.5t69 -47.5q9 -6 22.5 -9.5t25.5 -3.5t24 4.5t21.5 12t16 18.5t6.5 23v5q-1 10 -6 18.5t-17 16t-32 16t-50 19.5q-57 20 -112.5 45.5t-99 64t-70.5 92.5t-27 131q0 68 30.5 126.5t81 101.5t114.5 67.5t131 24.5
q45 0 87.5 -12.5t79.5 -31.5t68.5 -42t55 -43.5t38 -37t18.5 -21.5l-74 -79q-29 -24 -54 -37t-56 -13q-22 0 -35 5.5t-27 12t-32.5 12t-51.5 5.5q-26 0 -42.5 -16t-16.5 -37q0 -11 3 -20.5t12 -14.5q15 -9 27.5 -13.5t27 -8t34 -8.5t48.5 -14q57 -18 106 -39t85 -53.5
t56.5 -82t20.5 -124.5q0 -73 -28.5 -139t-80.5 -115.5t-123.5 -79t-156.5 -29.5q-58 0 -115 20t-109 57t-96.5 90.5t-77.5 120.5zM332 -120h151q33 0 55.5 -10.5t36 -28.5t18.5 -42.5t2 -51.5l-19 -121q-8 -46 -42 -75.5t-82 -29.5h-120v359z" />
    <glyph glyph-name="circumflex" unicode="&#x2c6;" horiz-adv-x="605" 
d="M249 1205q-32 -44 -115 -44h-124l162 244q15 23 40 33.5t67 10.5h45q42 0 66 -10.5t39 -33.5l162 -244h-124q-83 0 -115 44l-42 83q-3 4 -4.5 9.5t-3.5 10.5q-2 6 -2 12l-2 -12q-2 -5 -3.5 -10.5t-3.5 -9.5z" />
    <glyph glyph-name="caron" unicode="&#x2c7;" horiz-adv-x="605" 
d="M291 1322q2 -5 3.5 -10t3.5 -10l2 -12q0 6 2 12q2 5 3.5 10t4.5 10l42 83q32 44 115 44h124l-162 -244q-15 -23 -39 -33.5t-66 -10.5h-45q-42 0 -67 10.5t-40 33.5l-162 244h124q83 0 115 -44z" />
    <glyph glyph-name="uni02C9" unicode="&#x2c9;" horiz-adv-x="614" 
d="M30 1415h623v-306h-623v306z" />
    <glyph glyph-name="breve" unicode="&#x2d8;" horiz-adv-x="759" 
d="M584 1437l-3 -45q-5 -52 -28.5 -95.5t-60.5 -75t-84.5 -49.5t-101.5 -18h-10q-56 2 -104.5 23t-84.5 56.5t-57 83.5t-21 104h1v16h63q74 0 120 -40q9 -9 17.5 -16t19 -12.5t24 -8.5t32.5 -3q32 0 52 11t42 29q24 21 53 30.5t68 9.5h63z" />
    <glyph glyph-name="dotaccent" unicode="&#x2d9;" horiz-adv-x="667" 
d="M171 1324q0 36 14 67t37.5 54t55.5 36.5t68 13.5q37 0 69 -13.5t56 -36.5t37.5 -54t13.5 -67q0 -35 -13.5 -66.5t-37.5 -54.5t-56 -36.5t-69 -13.5q-36 0 -68 13.5t-55.5 36.5t-37.5 54.5t-14 66.5z" />
    <glyph glyph-name="ring" unicode="&#x2da;" horiz-adv-x="722" 
d="M120 1367q0 49 19 92t51 75t75.5 50.5t93.5 18.5q49 0 93 -18.5t76 -50.5t51 -75t19 -92t-19 -92t-51 -75.5t-76 -51t-93 -18.5q-50 0 -93.5 18.5t-75.5 51t-51 75.5t-19 92zM310 1367q0 -20 14 -34.5t35 -14.5t35.5 14.5t14.5 34.5q0 21 -14.5 35.5t-35.5 14.5
t-35 -14.5t-14 -35.5z" />
    <glyph glyph-name="ogonek" unicode="&#x2db;" horiz-adv-x="750" 
d="M507 -4q-57 -32 -88.5 -57t-46.5 -45.5t-18.5 -37t-3.5 -29.5q0 -14 5.5 -21.5t12.5 -11t14 -3.5h10q18 2 41 7.5t42 5.5q18 0 38 -2.5t38.5 -10t34.5 -21.5t26 -36l34 -75q-60 -41 -132 -67t-138 -26q-63 0 -113 15t-85.5 42t-54 65t-18.5 85q0 36 20.5 70t52.5 65.5
t72.5 60t81.5 52.5z" />
    <glyph glyph-name="tilde" unicode="&#x2dc;" horiz-adv-x="614" 
d="M415 1199q-30 0 -55 10t-48.5 22t-47 22t-51.5 10q-9 0 -14.5 -6t-8.5 -15.5t-4 -20.5t-1 -21h-223q0 151 52.5 233t158.5 82q33 0 57 -9.5t44.5 -21t40.5 -21t46 -9.5q37 0 37 54h239q-6 -70 -15 -127t-32 -97.5t-64 -62.5t-111 -22z" />
    <glyph glyph-name="hungarumlaut" unicode="&#x2dd;" horiz-adv-x="1024" 
d="M878 1218l-1 1q-23 -26 -58 -42t-86 -16h-221l213 302q21 30 52.5 45.5t85.5 15.5h280zM452 1230q-52 -69 -168 -69h-190q47 84 78 139t50 88t28.5 48.5t13.5 20.5q26 34 68 50t99 16h249z" />
    <glyph glyph-name="Beta" unicode="&#x392;" horiz-adv-x="1418" 
 />
    <glyph glyph-name="pi" unicode="&#x3c0;" horiz-adv-x="1310" 
d="M57 745v306h1092v-306h-169q-4 -30 -12.5 -74.5t-17.5 -93.5t-16.5 -99t-10 -91.5t2 -69.5t20.5 -33q12 -4 25.5 -4t26.5 2t25 4t20 1q21 -2 37.5 -7t30.5 -15t28.5 -26.5t31.5 -41.5l-14 -90q-24 -24 -52.5 -45.5t-60.5 -38t-65 -26.5t-66 -10q-74 0 -126.5 27.5
t-86 74.5t-49.5 108.5t-16 130.5q0 48 4 101.5t9.5 108t12 107.5t12.5 100h-168v-745h-306v745h-142z" />
    <glyph glyph-name="Wgrave" unicode="&#x1e80;" horiz-adv-x="2067" 
d="M1077 276q-13 30 -17 55.5t-4 42.5q0 16 1 21q0 4 1 7l-173 -402h-284l-625 1433h210q33 0 64 -10t57.5 -27t47 -40t32.5 -50l332 -757q7 -16 11.5 -32.5t7.5 -30.5q4 -17 5 -32q1 15 5 32q3 14 7.5 30.5t11.5 32.5l329 757q12 28 33 51.5t47.5 40t57.5 26t63 9.5h211
l-282 -652l93 -232q7 -17 11 -33.5t6 -30.5q3 -16 3 -31q0 15 3 31q2 14 6 30.5t12 33.5l332 757q12 28 33 51.5t48 40t58 26t63 9.5h211l-625 -1433h-283zM748 1905h249q57 0 99 -16t68 -50q4 -5 13.5 -20.5t28.5 -48.5t50 -88t78 -139h-190q-116 0 -168 69z" />
    <glyph glyph-name="wgrave" unicode="&#x1e81;" horiz-adv-x="1813" 
d="M-25 1050h210q31 0 61.5 -9t56.5 -25t46 -38.5t31 -50.5l191 -476q13 -32 15.5 -52t2.5 -26q0 8 3.5 29.5t14.5 48.5l193 477q12 28 32 51t46 39t56 24.5t61 8.5h208l-113 -278l131 -322q13 -32 15.5 -52t2.5 -26q0 8 3.5 29.5t14.5 48.5l193 477q12 28 32 51t46 39
t56 24.5t61 8.5h208l-427 -1051h-375l-120 352q-10 24 -10 46q0 10 2 20l2 8l-149 -426h-375zM567 1522h249q57 0 99 -16t68 -50q4 -5 13.5 -20.5t28.5 -48.5t50 -88t78 -139h-190q-116 0 -168 69z" />
    <glyph glyph-name="Wacute" unicode="&#x1e82;" horiz-adv-x="2067" 
d="M1077 276q-13 30 -17 55.5t-4 42.5q0 16 1 21q0 4 1 7l-173 -402h-284l-625 1433h210q33 0 64 -10t57.5 -27t47 -40t32.5 -50l332 -757q7 -16 11.5 -32.5t7.5 -30.5q4 -17 5 -32q1 15 5 32q3 14 7.5 30.5t11.5 32.5l329 757q12 28 33 51.5t47.5 40t57.5 26t63 9.5h211
l-282 -652l93 -232q7 -17 11 -33.5t6 -30.5q3 -16 3 -31q0 15 3 31q2 14 6 30.5t12 33.5l332 757q12 28 33 51.5t48 40t58 26t63 9.5h211l-625 -1433h-283zM1106 1613q-52 -69 -168 -69h-190q47 84 78 139t50 88t28.5 48.5t13.5 20.5q26 34 68 50t99 16h249z" />
    <glyph glyph-name="wacute" unicode="&#x1e83;" horiz-adv-x="1813" 
d="M-25 1050h210q31 0 61.5 -9t56.5 -25t46 -38.5t31 -50.5l191 -476q13 -32 15.5 -52t2.5 -26q0 8 3.5 29.5t14.5 48.5l193 477q12 28 32 51t46 39t56 24.5t61 8.5h208l-113 -278l131 -322q13 -32 15.5 -52t2.5 -26q0 8 3.5 29.5t14.5 48.5l193 477q12 28 32 51t46 39
t56 24.5t61 8.5h208l-427 -1051h-375l-120 352q-10 24 -10 46q0 10 2 20l2 8l-149 -426h-375zM1005 1230q-52 -69 -168 -69h-150q47 84 74.5 132.5t42 73.5t20 34t9.5 14q26 34 68 50t99 16h209z" />
    <glyph glyph-name="Wdieresis" unicode="&#x1e84;" horiz-adv-x="2067" 
d="M1077 276q-13 30 -17 55.5t-4 42.5q0 16 1 21q0 4 1 7l-173 -402h-284l-625 1433h210q33 0 64 -10t57.5 -27t47 -40t32.5 -50l332 -757q7 -16 11.5 -32.5t7.5 -30.5q4 -17 5 -32q1 15 5 32q3 14 7.5 30.5t11.5 32.5l329 757q12 28 33 51.5t47.5 40t57.5 26t63 9.5h211
l-282 -652l93 -232q7 -17 11 -33.5t6 -30.5q3 -16 3 -31q0 15 3 31q2 14 6 30.5t12 33.5l332 757q12 28 33 51.5t48 40t58 26t63 9.5h211l-625 -1433h-283zM699 1681q0 30 11.5 57t31 46.5t46 31t56.5 11.5t57 -11.5t46.5 -31t31 -46.5t11.5 -57t-11.5 -56.5t-31 -46
t-46.5 -31t-57 -11.5t-56.5 11.5t-46 31t-31 46t-11.5 56.5zM1091 1681q0 30 11.5 57t31 46.5t46 31t56.5 11.5t57 -11.5t46.5 -31t31 -46.5t11.5 -57t-11.5 -56.5t-31 -46t-46.5 -31t-57 -11.5t-56.5 11.5t-46 31t-31 46t-11.5 56.5z" />
    <glyph glyph-name="wdieresis" unicode="&#x1e85;" horiz-adv-x="1813" 
d="M-25 1050h210q31 0 61.5 -9t56.5 -25t46 -38.5t31 -50.5l191 -476q13 -32 15.5 -52t2.5 -26q0 8 3.5 29.5t14.5 48.5l193 477q12 28 32 51t46 39t56 24.5t61 8.5h208l-113 -278l131 -322q13 -32 15.5 -52t2.5 -26q0 8 3.5 29.5t14.5 48.5l193 477q12 28 32 51t46 39
t56 24.5t61 8.5h208l-427 -1051h-375l-120 352q-10 24 -10 46q0 10 2 20l2 8l-149 -426h-375zM629 1316q0 30 11.5 57t31 46.5t46 31t56.5 11.5t57 -11.5t46.5 -31t31 -46.5t11.5 -57t-11.5 -56.5t-31 -46t-46.5 -31t-57 -11.5t-56.5 11.5t-46 31t-31 46t-11.5 56.5z
M1021 1316q0 30 11.5 57t31 46.5t46 31t56.5 11.5t57 -11.5t46.5 -31t31 -46.5t11.5 -57t-11.5 -56.5t-31 -46t-46.5 -31t-57 -11.5t-56.5 11.5t-46 31t-31 46t-11.5 56.5z" />
    <glyph glyph-name="Ygrave" unicode="&#x1ef2;" horiz-adv-x="1505" 
d="M917 0h-327v608q0 20 -13 43t-30 47l-544 735h267q74 0 129.5 -29.5t93.5 -81.5l227 -308q10 -14 16 -26.5t10 -23.5q4 -12 7 -23q3 11 7 23q4 11 10 23.5t16 26.5l226 306q37 57 93.5 85t130.5 28h269l-545 -737q-18 -24 -30.5 -45t-12.5 -43v-608zM309 1898h249
q57 0 99 -16t68 -50q4 -5 13.5 -20.5t28.5 -48.5t50 -88t78 -139h-190q-116 0 -168 69z" />
    <glyph glyph-name="ygrave" unicode="&#x1ef3;" horiz-adv-x="1202" 
d="M15 1050h215q32 0 62.5 -9t57 -25.5t46 -40t29.5 -52.5l129 -328q17 -43 22.5 -73.5t5.5 -49.5q0 -14 -2 -24l-2 -8l189 486q23 58 76.5 91t117.5 33h217l-572 -1310q-11 -30 -31 -54t-46 -40.5t-57 -25.5t-62 -9h-216l223 515zM196 1522h249q57 0 99 -16t68 -50
q4 -5 13.5 -20.5t28.5 -48.5t50 -88t78 -139h-190q-116 0 -168 69z" />
    <glyph glyph-name="endash" unicode="&#x2013;" horiz-adv-x="1199" 
d="M1034 518h-879v293h879v-293z" />
    <glyph glyph-name="emdash" unicode="&#x2014;" horiz-adv-x="1722" 
d="M1574 518h-1419v293h1419v-293z" />
    <glyph glyph-name="quoteleft" unicode="&#x2018;" horiz-adv-x="595" 
d="M180 990q-5 7 -21 36.5t-34 73.5t-32 98.5t-14 112.5q0 52 20 102t53 98t74.5 93t85.5 89l50 -43q49 -42 63 -74t12 -62q-2 -31 -11.5 -55t-19.5 -47t-18 -49t-8 -62q-4 -34 6 -64t24 -53q16 -27 37 -50z" />
    <glyph glyph-name="quoteright" unicode="&#x2019;" horiz-adv-x="580" 
d="M363 1666q4 -7 20.5 -36.5t34.5 -73.5t32 -98.5t14 -112.5q0 -53 -20 -102.5t-53 -97.5t-75 -93.5t-85 -88.5l-50 43q-49 42 -63 74t-12 62q2 31 11.5 55t19.5 47t18 49t8 62q4 34 -6 64t-24 53q-16 26 -37 50z" />
    <glyph glyph-name="quotesinglbase" unicode="&#x201a;" horiz-adv-x="569" 
d="M363 410q4 -7 20.5 -36.5t34.5 -73.5t32 -98.5t14 -112.5q0 -53 -20 -102.5t-53 -97.5t-75 -93.5t-85 -88.5l-50 43q-49 42 -63 74t-12 62q2 31 11.5 55t19.5 47t18 49t8 62q4 34 -6 64t-24 53q-16 26 -37 50z" />
    <glyph glyph-name="quotedblleft" unicode="&#x201c;" horiz-adv-x="1046" 
d="M162 990q-5 7 -21 36.5t-34 73.5t-32 98.5t-14 112.5q0 52 20 102t53 98t74.5 93t85.5 89l50 -43q49 -42 63 -74t12 -62q-2 -31 -11.5 -55t-19.5 -47t-18 -49t-8 -62q-4 -34 6 -64t24 -53q16 -27 37 -50zM592 990q-5 7 -21 36.5t-34 73.5t-32 98.5t-14 112.5q0 52 20 102
t53 98t74.5 93t85.5 89l50 -43q49 -42 63 -74t12 -62q-2 -31 -11.5 -55t-19.5 -47t-18 -49t-8 -62q-4 -34 6 -64t24 -53q16 -27 37 -50z" />
    <glyph glyph-name="quotedblright" unicode="&#x201d;" horiz-adv-x="1050" 
d="M788 1693q4 -7 20.5 -36.5t34.5 -73.5t32 -98.5t14 -112.5q0 -53 -20 -102.5t-53 -97.5t-75 -93.5t-85 -88.5l-50 43q-49 42 -63 74t-12 62q2 31 11.5 55t19.5 47t18 49t8 62q4 34 -6 64t-24 53q-16 26 -37 50zM358 1693q4 -7 20.5 -36.5t34.5 -73.5t32 -98.5t14 -112.5
q0 -53 -20 -102.5t-53 -97.5t-75 -93.5t-85 -88.5l-50 43q-49 42 -63 74t-12 62q2 31 11.5 55t19.5 47t18 49t8 62q4 34 -6 64t-24 53q-16 26 -37 50z" />
    <glyph glyph-name="quotedblbase" unicode="&#x201e;" horiz-adv-x="1096" 
d="M363 410q4 -7 20.5 -36.5t34.5 -73.5t32 -98.5t14 -112.5q0 -53 -20 -102.5t-53 -97.5t-75 -93.5t-85 -88.5l-50 43q-49 42 -63 74t-12 62q2 31 11.5 55t19.5 47t18 49t8 62q4 34 -6 64t-24 53q-16 26 -37 50zM803 410q4 -7 20.5 -36.5t34.5 -73.5t32 -98.5t14 -112.5
q0 -53 -20 -102.5t-53 -97.5t-75 -93.5t-85 -88.5l-50 43q-49 42 -63 74t-12 62q2 31 11.5 55t19.5 47t18 49t8 62q4 34 -6 64t-24 53q-16 26 -37 50z" />
    <glyph glyph-name="dagger" unicode="&#x2020;" horiz-adv-x="1160" 
d="M467 542l25 280h-354v238h354v373h238v-373h358v-238h-356l26 -280v-885h-291v885z" />
    <glyph glyph-name="daggerdbl" unicode="&#x2021;" horiz-adv-x="1239" 
d="M468 586l25 236h-354v238h354v373h238v-373h358v-238h-356l25 -236v-71l-25 -246h356v-238h-358v-373h-238v373h-354v238h354l-25 246v71z" />
    <glyph glyph-name="bullet" unicode="&#x2022;" horiz-adv-x="1282" 
d="M241 637q0 78 30 147t82.5 120.5t122 81t149.5 29.5q79 0 149.5 -29.5t122.5 -81t82.5 -120.5t30.5 -147q0 -79 -30.5 -148t-82.5 -120.5t-122.5 -81t-149.5 -29.5q-80 0 -149.5 29.5t-122 81t-82.5 120.5t-30 148z" />
    <glyph glyph-name="ellipsis" unicode="&#x2026;" horiz-adv-x="1614" 
d="M83 183q0 41 15.5 77t43 62.5t64 41.5t78.5 15t78.5 -15t64 -41.5t43.5 -62.5t16 -77t-16 -77t-43.5 -62.5t-64 -41.5t-78.5 -15t-78.5 15t-64 41.5t-43 62.5t-15.5 77zM594 183q0 41 16 77t43.5 62.5t64 41.5t78.5 15t78.5 -15t64 -41.5t43.5 -62.5t16 -77t-16 -77
t-43.5 -62.5t-64 -41.5t-78.5 -15t-78.5 15t-64 41.5t-43.5 62.5t-16 77zM1106 183q0 41 16 77t43.5 62.5t64 41.5t78.5 15t78.5 -15t64 -41.5t43.5 -62.5t16 -77t-16 -77t-43.5 -62.5t-64 -41.5t-78.5 -15t-78.5 15t-64 41.5t-43.5 62.5t-16 77z" />
    <glyph glyph-name="perthousand" unicode="&#x2030;" horiz-adv-x="2414" 
d="M551 90q-32 -43 -75 -66.5t-101 -23.5h-256l1006 1343q32 43 75 66.5t101 23.5h256zM71 1082q0 76 25.5 143t71.5 116.5t109.5 78.5t139.5 29t140 -29t110 -78.5t71.5 -116.5t25.5 -143t-25.5 -143t-71.5 -116.5t-110 -78t-140 -28.5t-139.5 28.5t-109.5 78t-71.5 116.5
t-25.5 143zM330 1083q0 -41 23.5 -69.5t63.5 -28.5q41 0 64.5 28.5t23.5 69.5t-23.5 69t-64.5 28q-40 0 -63.5 -28t-23.5 -69zM920 352q0 76 25.5 143t71.5 116.5t109.5 78.5t139.5 29t140 -29t110 -78.5t71.5 -116.5t25.5 -143t-25.5 -143t-71.5 -116.5t-110 -78
t-140 -28.5t-139.5 28.5t-109.5 78t-71.5 116.5t-25.5 143zM1648 352q0 76 25.5 143t71.5 116.5t109.5 78.5t139.5 29t140 -29t110 -78.5t71.5 -116.5t25.5 -143t-25.5 -143t-71.5 -116.5t-110 -78t-140 -28.5t-139.5 28.5t-109.5 78t-71.5 116.5t-25.5 143zM1179 353
q0 -41 23.5 -69.5t63.5 -28.5q41 0 64.5 28.5t23.5 69.5t-23.5 69t-64.5 28q-40 0 -63.5 -28t-23.5 -69zM1907 353q0 -41 23.5 -69.5t63.5 -28.5q41 0 64.5 28.5t23.5 69.5t-23.5 69t-64.5 28q-40 0 -63.5 -28t-23.5 -69z" />
    <glyph glyph-name="guilsinglleft" unicode="&#x2039;" horiz-adv-x="804" 
d="M289 879q12 28 33.5 51t48 39.5t57 26t61.5 9.5h168l-181 -441q-12 -20 -22 -29q-5 -5 -10 -7q7 -4 13 -9q11 -10 19 -25l181 -441h-168q-31 0 -61.5 9.5t-57 26t-48 40t-33.5 51.5l-121 306q-11 26 -19.5 33.5t-10.5 9.5q4 3 9 9q4 5 9.5 14t11.5 24z" />
    <glyph glyph-name="guilsinglright" unicode="&#x203a;" horiz-adv-x="790" 
d="M616 576q6 -15 11 -24t10 -14q4 -6 9 -9q-2 -2 -10.5 -9.5t-19.5 -33.5l-121 -306q-12 -28 -33.5 -51.5t-48 -40t-57 -26t-61.5 -9.5h-168l181 441q3 8 8.5 14t10.5 11q6 5 13 9q-5 2 -10 7q-5 4 -11 11t-11 18l-181 441h168q31 0 61.5 -9.5t57 -26t48 -39.5t33.5 -51z
" />
    <glyph glyph-name="fraction" unicode="&#x2044;" horiz-adv-x="576" 
d="M383 1308v-2q26 57 69 92t109 35h207l-626 -1309q-13 -27 -33.5 -50t-47 -39.5t-56.5 -25.5t-63 -9h-183z" />
    <glyph glyph-name="Euro" unicode="&#x20ac;" horiz-adv-x="1537" 
d="M14 891h122q30 120 96.5 221.5t161 176t211.5 116.5t246 42q80 0 159 -20t153.5 -57t144 -90t131.5 -119l-85 -85q-30 -30 -69 -47.5t-88 -17.5q-66 0 -120 37q-50 34 -106.5 53t-119.5 19q-60 0 -115.5 -17t-103 -47t-86 -72t-63.5 -93h219v-146h-259q-1 -8 -1 -14.5
v-13.5v-19.5t2 -19.5h258v-146h-213q26 -49 64 -89t85 -68.5t101 -44.5t112 -16q64 0 120.5 19.5t105.5 52.5q53 36 120 36q52 0 89 -16.5t68 -47.5l85 -85q-62 -66 -131.5 -119t-144 -90t-153.5 -57t-159 -20q-128 0 -243.5 41t-209.5 113.5t-161 172.5t-98 218h-125v146
h102q-1 10 -1 19.5v19.5v28h-101v146z" />
    <glyph glyph-name="trademark" unicode="&#x2122;" horiz-adv-x="1624" 
d="M29 1252v182h575v-183h-197v-447h-182v447zM1462 804h-183v271q-32 -67 -66.5 -136.5t-66.5 -134.5h-145l-132 266v-266h-183v630h121q15 0 31 -5.5t30 -15t26 -21.5t19 -25l160 -285l163 285q14 28 43 47.5t62 19.5h121v-630z" />
    <glyph glyph-name="Omega" unicode="&#x2126;" horiz-adv-x="1454" 
d="M686 0h-598v306h291q-61 44 -113.5 100.5t-91.5 122t-61 139t-22 153.5q0 87 22.5 167t64 149.5t99 126.5t128 97.5t151 63t167.5 22.5q130 0 245.5 -49t201 -134t135.5 -199t50 -244q0 -80 -22.5 -154t-61.5 -139.5t-92.5 -122t-114.5 -99.5h291v-306h-599v514
q62 6 115.5 37t93 75.5t62 96t22.5 98.5q0 62 -25 119.5t-68.5 102t-102.5 71.5t-127 27q-71 0 -131 -27t-104 -71.5t-69 -102t-25 -119.5q0 -55 24.5 -108t64.5 -95t92 -70t108 -34v-514z" />
    <glyph glyph-name="partialdiff" unicode="&#x2202;" horiz-adv-x="1261" 
d="M73 545q0 112 42 211.5t114.5 175t170 121t208.5 50.5q35 1 69 -3q29 -3 61 -11t58 -24q-34 28 -73 50.5t-80 39.5t-82 29.5t-78 21.5q-88 20 -178 27l51 323q152 -13 269 -49.5t204.5 -90t149.5 -121.5t103 -143.5t64.5 -155.5t35.5 -158.5t15 -151.5t3 -135v-5
q0 -116 -44.5 -218t-121 -177.5t-179.5 -119.5t-219 -44q-78 0 -149.5 20t-134 56.5t-114 87t-88.5 112.5t-57 133.5t-20 148.5zM407 545q0 -48 18 -91t49 -75t72.5 -50.5t89.5 -18.5t90 18.5t73 50.5t49 75t18 91q0 49 -18 92t-49 75t-73 50.5t-90 18.5t-89.5 -18.5
t-72.5 -50.5t-49 -75t-18 -92z" />
    <glyph glyph-name="Delta" unicode="&#x2206;" horiz-adv-x="1464" 
d="M591 1433h283l625 -1433h-1534zM748 952q-5 12 -8 22.5t-5 18.5q-2 9 -3 16q-1 -7 -3 -16q-2 -8 -5 -18.5t-8 -22.5l-282 -644h596z" />
    <glyph glyph-name="product" unicode="&#x220f;" horiz-adv-x="1368" 
d="M63 1127v306h1243v-306h-154v-1467h-327v1467h-284v-1467h-328v1467h-150z" />
    <glyph glyph-name="summation" unicode="&#x2211;" horiz-adv-x="1368" 
d="M909 563l-435 -599h809v-306h-1252v149q0 40 13.5 79t37.5 71h-1q110 151 210.5 303.5t210.5 302.5l-421 571q-23 31 -36.5 70t-13.5 80v149h1252v-306h-790z" />
    <glyph glyph-name="minus" unicode="&#x2212;" horiz-adv-x="1223" 
d="M1117 513h-1015v293h1015v-293z" />
    <glyph glyph-name="radical" unicode="&#x221a;" horiz-adv-x="1393" 
d="M289 573h-45q-53 0 -90 18t-61 47.5t-35 66t-11 73.5v116h458l152 -456q4 -14 5.5 -26t3.5 -20q1 -10 2 -18q0 8 2 18q2 18 9 46l276 1084q11 42 35 72t54 49.5t62 28.5t60 9h153l-421 -1613q-9 -33 -33 -54t-55 -33t-66 -16.5t-66 -4.5q-32 0 -67.5 5.5t-67 18
t-55.5 33.5t-34 51z" />
    <glyph glyph-name="infinity" unicode="&#x221e;" horiz-adv-x="1531" 
d="M1333 949q56 -55 85.5 -126t29.5 -149q0 -79 -31 -149.5t-84.5 -123.5t-124.5 -84t-152 -31q-41 0 -79 10.5t-73 28.5t-66.5 42t-58.5 51l-25 30l-29 -34q-26 -26 -57 -49t-65.5 -40.5t-72.5 -28t-78 -10.5q-81 0 -153 31t-125 84t-84 123.5t-31 149.5t31 150t84.5 123.5
t125 83.5t152.5 31q40 0 78 -10.5t73 -28.5t67 -42.5t60 -52.5l24 -29l24 29q28 28 60 52.5t67 42.5t73 28.5t78 10.5q79 0 150.5 -29t126.5 -84zM440 590q5 0 20.5 4.5t37.5 14.5t48 26t53 39q-27 21 -53.5 36.5t-48.5 25.5t-37.5 15t-19.5 5q-32 0 -54 -24.5t-22 -57.5
q0 -17 6 -32t16 -26.5t24 -18.5t30 -7zM1066 590q16 0 30 7t24 18.5t16 26.5t6 32q0 33 -22 57.5t-54 24.5q-5 0 -20 -5t-37 -15t-48.5 -25.5t-53.5 -36.5q27 -23 53 -39t48 -26t37.5 -14.5t20.5 -4.5z" />
    <glyph glyph-name="integral" unicode="&#x222b;" horiz-adv-x="836" 
d="M261 1135q0 70 20 132.5t58.5 109.5t96 74.5t132.5 27.5q31 0 74 -12t87.5 -32.5t86.5 -47.5t71 -56l-51 -84q-28 -46 -64 -68.5t-95 -22.5q-10 0 -16.5 1.5t-13.5 3t-14.5 3.5t-19.5 4q-16 2 -25.5 -2t-14 -10t-6 -12t-1.5 -9v-1162q0 -70 -19.5 -132.5t-58.5 -109.5
t-96 -74.5t-132 -27.5q-32 0 -75 12t-88 32.5t-86.5 47.5t-69.5 57l50 81q28 45 65.5 68.5t94.5 23.5q9 0 16 -1.5t13.5 -3t14.5 -3.5t20 -3q16 -2 25.5 2t14 10t6 12t1.5 9z" />
    <glyph glyph-name="approxequal" unicode="&#x2248;" horiz-adv-x="1249" 
d="M803 651q-50 0 -95 14.5t-87.5 31.5t-84.5 31.5t-86 14.5q-39 0 -78 -9.5t-73 -21.5t-60 -24.5t-39 -18.5v325q28 7 54.5 17.5t56 20t63.5 16t76 6.5q58 0 106.5 -14t91 -31t80.5 -31t75 -14q20 -3 53 0q27 2 70 8.5t103 21.5v-287q-34 -16 -72 -28q-32 -11 -72 -19.5
t-82 -8.5zM803 224q-50 0 -95 14.5t-87.5 31.5t-84.5 31.5t-86 14.5q-39 0 -78 -9.5t-73 -21.5t-60 -24.5t-39 -18.5v325q28 7 54.5 17.5t56 20t63.5 16t76 6.5q58 0 106.5 -14t91 -31t80.5 -31t75 -14q20 -3 53 0q27 2 70 8.5t103 21.5v-287q-34 -16 -72 -28
q-32 -11 -72 -19.5t-82 -8.5z" />
    <glyph glyph-name="notequal" unicode="&#x2260;" horiz-adv-x="1224" 
d="M668 1175l139 -36l-34 -129h305v-291h-386l-25 -94h411v-291h-486l-47 -180l-143 37l38 143h-288v291h364l25 94h-389v291h470z" />
    <glyph glyph-name="lessequal" unicode="&#x2264;" horiz-adv-x="1160" 
d="M119 602l758 -329q65 -26 98 -65.5t33 -99.5v-208l-758 327q-59 26 -95 67t-36 111v197zM119 955q0 64 38 107t93 71l758 327v-188q0 -32 -14 -63.5t-39 -60t-60 -52.5t-78 -40q-50 -20 -92.5 -35.5t-81.5 -30.5t-77.5 -31t-81.5 -35q-7 -4 -19 -8t-24 -7q-14 -4 -30 -8
q16 -4 30 -8q12 -4 23.5 -7.5t18.5 -7.5q75 -33 160 -66t160 -65q107 -46 156 -101t49 -115v-189l-758 327q-59 26 -95 68t-36 111v107z" />
    <glyph glyph-name="greaterequal" unicode="&#x2265;" horiz-adv-x="1160" 
d="M1037 376q0 -33 -10 -60.5t-27.5 -49t-41.5 -38.5t-52 -30l-759 -327v208q0 30 10.5 59t28.5 55t42 47t51 35l758 329v-228zM1036 848q0 -69 -36 -111t-95 -68l-758 -327v189q0 60 49 115t156 101q75 32 160 65t160 66q6 4 18 7.5t24 7.5q14 4 30 8q-16 4 -30 8
q-12 3 -24.5 7t-18.5 8q-43 19 -81.5 35t-77.5 31t-81.5 30.5t-92.5 35.5q-43 16 -78 40t-60 52.5t-39 60t-14 63.5v188l758 -327q55 -28 93 -71t38 -107v-107z" />
    <glyph glyph-name="lozenge" unicode="&#x25ca;" horiz-adv-x="1160" 
d="M1140 672l-372 -871h-282l-372 871l372 862h282zM647 1033q-5 12 -9 23.5t-6 20.5q-3 11 -4 20q-1 -8 -4 -18q-2 -8 -6 -20t-10 -26l-158 -361l159 -370q14 -35 17 -48q2 -9 2 -14q1 8 4 19q2 8 5.5 19.5t8.5 23.5l163 369z" />
    <glyph glyph-name="commaaccent" unicode="&#xf6c3;" horiz-adv-x="752" 
d="M237 1901h151q33 0 55.5 -10.5t36 -28.5t18.5 -42.5t2 -51.5l-19 -121q-8 -46 -42 -75.5t-82 -29.5h-120v359z" />
    <glyph glyph-name="ff" unicode="&#xfb00;" horiz-adv-x="1460" 
d="M903 0v745h-403v-745h-327v745h-151v185q0 28 4 50.5t18.5 38t43.5 23.5t80 8h5v85q0 69 21.5 126.5t62 99t98 65t129.5 23.5q30 0 72 -12t85.5 -31.5t84 -45t68.5 -53.5l-50 -82q-26 -44 -64.5 -62t-95.5 -18q-8 0 -26 4.5t-29 4.5q-20 0 -25.5 -11.5t-5.5 -26.5v-21.5
t1 -42.5h404v83q0 69 21.5 126.5t62 99t98 65t129.5 23.5q30 0 72 -12t85.5 -31.5t84 -45t68.5 -53.5l-50 -82q-26 -44 -64.5 -62t-95.5 -18q-8 0 -26 4.5t-29 4.5q-20 0 -25.5 -11.5t-5.5 -26.5v-21.5t1 -42.5h194v-307h-193v-745h-327z" />
    <glyph glyph-name="fi" unicode="&#xfb01;" horiz-adv-x="1387" 
d="M1224 1050v-1050h-328v745h-396v-745h-327v745h-151v185q0 28 4 50.5t18.5 38t43.5 23.5t80 8h5v85q0 69 21.5 126.5t62 99t98 65t129.5 23.5q30 0 72 -12t85.5 -31.5t84 -45t68.5 -53.5l-50 -82q-26 -44 -64.5 -62t-95.5 -18q-8 0 -26 4.5t-29 4.5q-20 0 -25.5 -11.5
t-5.5 -26.5v-21.5t1 -42.5zM866 1335q0 39 15.5 70.5t41.5 53.5t61.5 34t75.5 12t75.5 -12t61.5 -34t41.5 -53.5t15.5 -70.5t-15.5 -70.5t-41.5 -53.5t-61.5 -34t-75.5 -12t-75.5 12t-61.5 34t-41.5 53.5t-15.5 70.5z" />
    <glyph glyph-name="fl" unicode="&#xfb02;" horiz-adv-x="1391" 
d="M173 0v745h-151v185q0 28 4 50.5t18.5 38t43.5 23.5t80 8h5v85q0 69 21.5 126.5t62 99t98 65t129.5 23.5q30 0 72 -12t85.5 -31.5t84 -45t68.5 -53.5l-50 -82q-26 -44 -64.5 -62t-95.5 -18q-8 0 -26 4.5t-29 4.5q-20 0 -25.5 -11.5t-5.5 -26.5v-21.5t1 -42.5h196h-2v-307
h-193v-745h-327zM1224 1433v-1433h-328v1433h328z" />
    <glyph glyph-name="ffi" unicode="&#xfb03;" horiz-adv-x="2117" 
d="M1954 1050v-1050h-328v745h-396v-745h-327v745h-403v-745h-327v745h-151v185q0 28 4 50.5t18.5 38t43.5 23.5t80 8h5v85q0 69 21.5 126.5t62 99t98 65t129.5 23.5q30 0 72 -12t85.5 -31.5t84 -45t68.5 -53.5l-50 -82q-26 -44 -64.5 -62t-95.5 -18q-8 0 -26 4.5t-29 4.5
q-20 0 -25.5 -11.5t-5.5 -26.5v-21.5t1 -42.5h404v83q0 69 21.5 126.5t62 99t98 65t129.5 23.5q30 0 72 -12t85.5 -31.5t84 -45t68.5 -53.5l-50 -82q-26 -44 -64.5 -62t-95.5 -18q-8 0 -26 4.5t-29 4.5q-20 0 -25.5 -11.5t-5.5 -26.5v-21.5t1 -42.5zM1596 1335
q0 39 15.5 70.5t41.5 53.5t61.5 34t75.5 12t75.5 -12t61.5 -34t41.5 -53.5t15.5 -70.5t-15.5 -70.5t-41.5 -53.5t-61.5 -34t-75.5 -12t-75.5 12t-61.5 34t-41.5 53.5t-15.5 70.5z" />
    <glyph glyph-name="ffl" unicode="&#xfb04;" horiz-adv-x="2121" 
d="M903 0v745h-403v-745h-327v745h-151v185q0 28 4 50.5t18.5 38t43.5 23.5t80 8h5v85q0 69 21.5 126.5t62 99t98 65t129.5 23.5q30 0 72 -12t85.5 -31.5t84 -45t68.5 -53.5l-50 -82q-26 -44 -64.5 -62t-95.5 -18q-8 0 -26 4.5t-29 4.5q-20 0 -25.5 -11.5t-5.5 -26.5v-21.5
t1 -42.5h404v83q0 69 21.5 126.5t62 99t98 65t129.5 23.5q30 0 72 -12t85.5 -31.5t84 -45t68.5 -53.5l-50 -82q-26 -44 -64.5 -62t-95.5 -18q-8 0 -26 4.5t-29 4.5q-20 0 -25.5 -11.5t-5.5 -26.5v-21.5t1 -42.5h194v-307h-193v-745h-327zM1954 1433v-1433h-328v1433h328z
" />
    <glyph glyph-name="s_t" unicode="&#xfb06;" horiz-adv-x="1696" 
d="M173 333q23 12 49 19.5t55 7.5q34 0 65 -22.5t69 -47.5q9 -6 22.5 -9.5t25.5 -3.5t24 4.5t21.5 12t16 18.5t6.5 23v5q-1 10 -6 18.5t-17 16t-32 16t-50 19.5q-57 20 -112.5 45.5t-99 64t-70.5 92.5t-27 131q0 68 30.5 126.5t81 101.5t114.5 67.5t131 24.5
q45 0 87.5 -12.5t79.5 -31.5t68.5 -42t55 -43.5t38 -37t18.5 -21.5l-74 -79q-29 -24 -54 -37t-56 -13q-22 0 -35 5.5t-27 12t-32.5 12t-51.5 5.5q-26 0 -42.5 -16t-16.5 -37q0 -11 3 -20.5t12 -14.5q15 -9 27.5 -13.5t27 -8t34 -8.5t48.5 -14q57 -18 106 -39t85 -53.5
t56.5 -82t20.5 -124.5q0 -73 -28.5 -139t-80.5 -115.5t-123.5 -79t-156.5 -29.5q-58 0 -115 20t-109 57t-96.5 90.5t-77.5 120.5zM1419 744v-374q0 -21 6 -34t14.5 -20t17.5 -9t16 -2q10 0 19.5 2t15.5 2q27 0 51 -8t44 -20t36 -27.5t29 -31.5q30 -38 50 -86
q-29 -29 -70 -56t-85 -47.5t-86 -33t-73 -12.5q-72 0 -130 23.5t-98.5 65t-62.5 99t-22 126.5v443h-150v164q0 59 38 94.5t112 45.5v186q0 40 12.5 72t27.5 55q18 26 41 48h247v-358h250v-307h-250z" />
    <glyph glyph-name="zero.001" horiz-adv-x="1216" 
d="M62 910q0 112 43 209.5t116.5 170.5t172.5 115t212 42t212 -42t173 -115t117 -170.5t43 -209.5v-387q0 -112 -43 -209.5t-117.5 -170t-173.5 -114.5t-211 -42q-75 0 -144.5 19t-130 53.5t-110 83.5t-85 108.5t-55 128.5t-19.5 143v387zM389 524q0 -44 17.5 -82
t47.5 -66.5t69 -45t83 -16.5q43 0 82.5 16t70 44.5t48.5 66.5t18 82v387q0 44 -18 82t-48 66.5t-70 45t-83 16.5t-82 -16.5t-69 -45t-48 -67t-19 -81.5z" />
    <glyph glyph-name="caron.001" horiz-adv-x="811" 
d="M203 1493q28 0 53 -12.5t46 -30.5t38 -38.5t30 -36.5l32 -39l32 40q13 16 29.5 36t37.5 38t45.5 30.5t53.5 12.5h193l-203 -264q-23 -34 -65 -52t-99 -18h-46q-57 0 -100 17.5t-67 52.5l-202 264h192z" />
    <glyph glyph-name="undercommaaccent" horiz-adv-x="701" 
d="M225 -78h147q52 0 81.5 -27.5t30.5 -78.5q-1 -1 -1 -8.5t-1 -15.5l-19 -118q-8 -45 -40.5 -74t-80.5 -29h-117v351z" />
    <glyph glyph-name="breve.case" horiz-adv-x="614" 
d="M657 1826q0 -78 -31.5 -143.5t-82 -113.5t-113 -74.5t-125.5 -26.5q-62 0 -124.5 26.5t-112.5 74.5t-81.5 113.5t-31.5 143.5h80q46 0 85 -12t67 -38q24 -21 51 -34.5t67 -13.5q42 0 66.5 12.5t51.5 35.5q31 26 67.5 38t86.5 12h80z" />
    <glyph glyph-name="ring.case" horiz-adv-x="614" 
d="M67 1665q0 49 19 92t51 75t75.5 50.5t93.5 18.5q49 0 93 -18.5t76 -50.5t51 -75t19 -92t-19 -92t-51 -75.5t-76 -51t-93 -18.5q-50 0 -93.5 18.5t-75.5 51t-51 75.5t-19 92zM257 1665q0 -20 14 -34.5t35 -14.5t35.5 14.5t14.5 34.5q0 21 -14.5 35.5t-35.5 14.5t-35 -14.5
t-14 -35.5z" />
    <glyph glyph-name="tilde.case" horiz-adv-x="614" 
d="M415 1415q-30 0 -55 10t-48.5 22t-47 22t-51.5 10q-9 0 -14.5 -6t-8.5 -15.5t-4 -20.5t-1 -21h-223q0 151 52.5 233t158.5 82q33 0 57 -9.5t44.5 -21t40.5 -21t46 -9.5q37 0 37 54h239q-6 -70 -15 -127t-32 -97.5t-64 -62.5t-111 -22z" />
    <glyph glyph-name="hungarumlaut.case" horiz-adv-x="1010" 
d="M847 1602l-1 1q-23 -26 -58 -42t-86 -16h-221l213 302q21 30 52.5 45.5t85.5 15.5h280zM421 1614q-52 -69 -168 -69h-190q47 84 78 139t50 88t28.5 48.5t13.5 20.5q26 34 68 50t99 16h249z" />
    <glyph glyph-name="commaaccent.case" horiz-adv-x="614" 
d="M227 1500h151q33 0 55.5 -10.5t36 -28.5t18.5 -42.5t2 -51.5l-19 -121q-8 -46 -42 -75.5t-82 -29.5h-120v359z" />
    <glyph glyph-name="grave.case" horiz-adv-x="614" 
d="M105 1905h249q57 0 99 -16t68 -50q4 -5 13.5 -20.5t28.5 -48.5t50 -88t78 -139h-190q-116 0 -168 69z" />
    <glyph glyph-name="acute.case" horiz-adv-x="800" 
d="M464 1613q-52 -69 -168 -69h-190q47 84 78 139t50 88t28.5 48.5t13.5 20.5q26 34 68 50t99 16h249z" />
    <glyph glyph-name="dotaccent.case" horiz-adv-x="698" 
d="M171 1704q0 36 14 67t37.5 54t55.5 36.5t68 13.5q37 0 69 -13.5t56 -36.5t37.5 -54t13.5 -67q0 -35 -13.5 -66.5t-37.5 -54.5t-56 -36.5t-69 -13.5q-36 0 -68 13.5t-55.5 36.5t-37.5 54.5t-14 66.5z" />
    <glyph glyph-name="dieresis.case" horiz-adv-x="614" 
d="M-35 1681q0 30 11.5 57t31 46.5t46 31t56.5 11.5t57 -11.5t46.5 -31t31 -46.5t11.5 -57t-11.5 -56.5t-31 -46t-46.5 -31t-57 -11.5t-56.5 11.5t-46 31t-31 46t-11.5 56.5zM357 1681q0 30 11.5 57t31 46.5t46 31t56.5 11.5t57 -11.5t46.5 -31t31 -46.5t11.5 -57
t-11.5 -56.5t-31 -46t-46.5 -31t-57 -11.5t-56.5 11.5t-46 31t-31 46t-11.5 56.5z" />
    <glyph glyph-name="macron.case" horiz-adv-x="614" 
d="M30 1779h624v-293h-624v293z" />
    <glyph glyph-name="circumflex.case" horiz-adv-x="848" 
d="M410 1579l-32 -39q-13 -15 -29.5 -35.5t-37.5 -39t-46 -31t-54 -12.5h-192l202 295q24 35 67 52t100 17h46q116 0 164 -69l203 -295h-193q-29 0 -54 12.5t-46 30.5t-37.5 38t-28.5 36z" />
    <glyph glyph-name="caron.case" horiz-adv-x="846" 
d="M438 1669q12 16 28.5 36t37.5 38t46 30.5t54 12.5h193l-203 -295q-48 -69 -164 -69h-46q-57 0 -100 17t-67 52l-202 295h192q29 0 54 -12.5t46 -31t37.5 -39t29.5 -35.5l32 -39z" />
    <glyph glyph-name="zero.taboldstyle" horiz-adv-x="1216" 
d="M62 910q0 112 43 209.5t116.5 170.5t172.5 115t212 42t212 -42t173 -115t117 -170.5t43 -209.5v-387q0 -112 -43 -209.5t-117.5 -170t-173.5 -114.5t-211 -42q-75 0 -144.5 19t-130 53.5t-110 83.5t-85 108.5t-55 128.5t-19.5 143v387zM389 524q0 -44 17.5 -82
t47.5 -66.5t69 -45t83 -16.5q43 0 82.5 16t70 44.5t48.5 66.5t18 82v387q0 44 -18 82t-48 66.5t-70 45t-83 16.5t-82 -16.5t-69 -45t-48 -67t-19 -81.5z" />
    <glyph glyph-name="one.taboldstyle" horiz-adv-x="1251" 
d="M1135 0h-854v306h276v704q-26 -38 -58.5 -58t-54.5 -20q-32 0 -54.5 11.5t-45.5 34.5l-105 105l371 353h274v-1130h251v-306z" />
    <glyph glyph-name="two.taboldstyle" horiz-adv-x="1211" 
d="M1110 0h-990v146q0 17 3 38.5t10 44t19 45t30 41.5l21 20.5t56 55.5t81 81.5t95.5 98t99.5 105.5t93 104.5t76 94t49 74.5q21 40 10.5 72t-38 54t-64.5 34t-69 12q-36 0 -63.5 -9.5t-48.5 -28.5q-42 -38 -79.5 -54.5t-81.5 -16.5q-29 0 -55.5 11.5t-51.5 24.5l-111 57
q10 18 26 47t36.5 61t45 63t51.5 55q65 57 149.5 88t182.5 31q99 0 190.5 -33.5t161 -93.5t111 -144t41.5 -185q0 -35 -5 -65.5t-14 -58.5t-22.5 -55.5t-31.5 -57.5q-24 -40 -61 -91t-80 -105t-88.5 -107t-86.5 -96q-17 -18 -34 -28.5t-31 -15.5q-16 -6 -31 -8h499v-306z
" />
    <glyph glyph-name="three.taboldstyle" horiz-adv-x="1171" 
d="M1067 451q0 -96 -37.5 -180.5t-102 -147.5t-150 -99.5t-182.5 -36.5q-99 0 -187 33t-155 87q-27 24 -52 57t-45.5 66t-37 63.5t-26.5 50.5l109 53q53 31 111 31q42 0 80.5 -15t68.5 -44l15 -12q26 -20 53.5 -31.5t65.5 -11.5q28 0 55 11.5t47 30.5t32.5 43.5t12.5 51.5
q0 30 -12.5 59t-32.5 52t-47 37.5t-55 14.5h-162v273h162q21 0 40.5 13t35 32.5t24.5 43t9 44.5q0 18 -9.5 36t-25 32.5t-37 23.5t-45.5 9q-11 0 -28 -8t-37 -19v1q-32 -19 -68 -35.5t-80 -16.5q-25 0 -48 6.5t-45 17t-41.5 23.5t-36.5 26l-75 54q50 61 104 111.5
t111.5 87.5t118.5 57.5t125 20.5q91 0 171 -32.5t140 -90t95 -135.5t35 -169q0 -69 -30.5 -136.5t-77.5 -118.5q30 -30 56.5 -66.5t47 -77.5t32 -84.5t11.5 -85.5z" />
    <glyph glyph-name="four.taboldstyle" horiz-adv-x="1208" 
d="M650 0v300h-568v169q0 32 9.5 61.5t21.5 52.5q14 27 32 52l415 692q30 48 77.5 76t102.5 28h248v-825h172v-306h-172v-300h-338zM528 656q-5 -12 -11.5 -21.5t-11.5 -15.5q-6 -8 -12 -13h167v356z" />
    <glyph glyph-name="five.taboldstyle" horiz-adv-x="1228" 
d="M1081 1127h-480q-1 -5 -2.5 -14t-3 -19t-2.5 -19.5t-2 -15.5q108 0 207 -36.5t174.5 -104t121 -162t45.5 -211.5q0 -116 -44.5 -217.5t-121 -177t-179.5 -119.5t-219 -44q-61 0 -122.5 16.5t-120.5 46.5t-114.5 73t-104.5 96l86 85q32 32 70 52t87 20h4q30 0 55 -9.5
t50 -21t51.5 -21t58.5 -9.5q48 0 90.5 17.5t74.5 48t50.5 72t18.5 89.5q0 46 -18 87t-49.5 72t-73.5 48.5t-90 17.5q-20 0 -40.5 -5.5t-42.5 -12t-45 -12t-47 -5.5q-33 0 -62.5 13.5t-51.5 38t-35 57.5t-13 72q0 2 0.5 6.5t2.5 20.5t6.5 47.5t13 88.5t21.5 144t32 213h764
v-306z" />
    <glyph glyph-name="six.taboldstyle" horiz-adv-x="1065" 
d="M443 1306q13 27 34.5 50t48 40t57 27t61.5 10h212l-208 -474q-12 -26 -26.5 -43t-27.5 -27q-15 -11 -31 -18q76 18 142 10t120.5 -34.5t97 -69.5t72 -95.5t44.5 -112t15 -118.5q0 -96 -37 -181t-101 -148t-149.5 -99.5t-182.5 -36.5t-183 36.5t-150 99.5t-101.5 148
t-37.5 181q0 51 11.5 99.5t31.5 92.5v-1zM720 456q0 29 -11 55t-29.5 45.5t-43 30.5t-52.5 11q-29 0 -53.5 -11t-43.5 -30.5t-29.5 -45.5t-10.5 -55t10.5 -55t29.5 -45.5t43.5 -30.5t53.5 -11q28 0 52.5 11t43 30.5t29.5 45.5t11 55z" />
    <glyph glyph-name="seven.taboldstyle" horiz-adv-x="1165" 
d="M119 1433h991v-146q0 -15 -3.5 -31t-7.5 -29q-4 -15 -10 -29l-199 -456l-267 -615q-28 -63 -81.5 -95t-119.5 -32h-213l464 1067q6 14 15.5 25t18.5 19q11 9 21 14h-609v308z" />
    <glyph glyph-name="eight.taboldstyle" horiz-adv-x="1129" 
d="M127 1020q0 88 34 166t93 136t137.5 91.5t167.5 33.5q90 0 168.5 -33.5t137 -91.5t92.5 -136t34 -166q0 -69 -30.5 -136.5t-76.5 -118.5q30 -30 56.5 -66.5t46.5 -77.5t31.5 -84.5t11.5 -85.5q0 -96 -37 -180.5t-101 -147.5t-150 -99.5t-183 -36.5t-182.5 36.5
t-149.5 99.5t-101 147.5t-37 180.5q0 42 11.5 85t31.5 84t46.5 78t56.5 67q-48 51 -78 118.5t-30 136.5zM424 451q0 -29 10.5 -54.5t29 -45t43 -30.5t52.5 -11t53 11t44 30.5t29.5 45t10.5 54.5q0 30 -10.5 56t-29.5 45.5t-44 30.5t-53 11t-52.5 -11t-43 -30.5t-29 -45.5
t-10.5 -56zM462 1020q0 -21 7.5 -40t20.5 -33t31 -22t38 -8q21 0 39 8t31.5 22t21 33t7.5 40q0 44 -28.5 73.5t-70.5 29.5q-41 0 -69 -29.5t-28 -73.5z" />
    <glyph glyph-name="nine.taboldstyle" horiz-adv-x="1177" 
d="M752 128q-13 -27 -34.5 -50t-48 -40t-57 -27t-61.5 -10h-212l208 474q11 26 26 43t28 27q15 11 31 18q-76 -18 -142 -10t-120.5 34.5t-97 69.5t-72 95.5t-44.5 111.5t-15 119q0 96 37 181t101 148t149.5 99.5t182.5 36.5t183 -36.5t150 -99.5t101.5 -148t37.5 -181
q0 -51 -11.5 -99.5t-31.5 -92.5v1zM475 978q0 -29 11 -55t29.5 -45.5t43 -30.5t52.5 -11t53 11t44 30.5t29.5 45.5t10.5 55t-10.5 55t-29.5 45.5t-44 30.5t-53 11t-52.5 -11t-43 -30.5t-29.5 -45.5t-11 -55z" />
    <glyph glyph-name="f_j" horiz-adv-x="1383" 
d="M1222 1050v-976q0 -84 -30 -154.5t-82 -127t-120.5 -100.5t-144.5 -75l-57 127q-4 9 -7 20.5t-5 23t-3 22.5t-1 18q0 30 13.5 54.5t31.5 47t37 45.5t31 51q5 14 7.5 35t2.5 35v649h-395v-745h-327v745h-151v185q0 28 4 50.5t18.5 38t43.5 23.5t80 8h5v85q0 69 21.5 126.5
t62 99t98 65t129.5 23.5q30 0 72 -12t85.5 -31.5t84 -45t68.5 -53.5l-50 -82q-26 -44 -64.5 -62t-95.5 -18q-8 0 -26 4.5t-29 4.5q-20 0 -25.5 -11.5t-5.5 -26.5v-21.5t1 -42.5zM866 1335q0 39 15.5 70.5t41.5 53.5t61.5 34t75.5 12t75.5 -12t61.5 -34t41.5 -53.5
t15.5 -70.5t-15.5 -70.5t-41.5 -53.5t-61.5 -34t-75.5 -12t-75.5 12t-61.5 34t-41.5 53.5t-15.5 70.5z" />
    <glyph glyph-name="f_f_j" horiz-adv-x="2113" 
d="M1952 1050v-976q0 -84 -30 -154.5t-82 -127t-120.5 -100.5t-144.5 -75l-57 127q-4 9 -7 20.5t-5 23t-3 22.5t-1 18q0 30 13.5 54.5t31.5 47t37 45.5t31 51q5 14 7.5 35t2.5 35v649h-395v-745h-327v745h-403v-745h-327v745h-151v185q0 28 4 50.5t18.5 38t43.5 23.5t80 8h5
v85q0 69 21.5 126.5t62 99t98 65t129.5 23.5q30 0 72 -12t85.5 -31.5t84 -45t68.5 -53.5l-50 -82q-26 -44 -64.5 -62t-95.5 -18q-8 0 -26 4.5t-29 4.5q-20 0 -25.5 -11.5t-5.5 -26.5v-21.5t1 -42.5h404v83q0 69 21.5 126.5t62 99t98 65t129.5 23.5q30 0 72 -12t85.5 -31.5
t84 -45t68.5 -53.5l-50 -82q-26 -44 -64.5 -62t-95.5 -18q-8 0 -26 4.5t-29 4.5q-20 0 -25.5 -11.5t-5.5 -26.5v-21.5t1 -42.5zM1596 1335q0 39 15.5 70.5t41.5 53.5t61.5 34t75.5 12t75.5 -12t61.5 -34t41.5 -53.5t15.5 -70.5t-15.5 -70.5t-41.5 -53.5t-61.5 -34t-75.5 -12
t-75.5 12t-61.5 34t-41.5 53.5t-15.5 70.5z" />
    </font>
</defs>
</svg>
