<?xml version="1.0" standalone="no"?>
<!DOCTYPE svg PUBLIC "-//W3C//DTD SVG 1.1//EN" "http://www.w3.org/Graphics/SVG/1.1/DTD/svg11.dtd" >
<svg xmlns="http://www.w3.org/2000/svg" xmlns:xlink="http://www.w3.org/1999/xlink" version="1.1">
<metadata>
Created by FontForge 20201107 at Mon Sep  7 16:37:48 2015
 By 
Copyright (c) 2015 by Francesco Canovaro. All rights reserved.
</metadata>
<defs>
<font id="Aquawax-Medium" horiz-adv-x="614" >
  <font-face 
    font-family="Aquawax"
    font-weight="500"
    font-stretch="normal"
    units-per-em="2000"
    panose-1="2 0 5 3 2 0 0 2 0 4"
    ascent="1600"
    descent="-400"
    x-height="1050"
    cap-height="1433"
    bbox="-147 -463 2226 1886"
    underline-thickness="120"
    underline-position="-200"
    unicode-range="U+000D-FB04"
  />
<missing-glyph horiz-adv-x="1216" 
d="M894 392q-58 -51 -131.5 -80t-158.5 -29q-84 0 -156 29t-131 80h577zM281 426q-53 59 -80.5 132.5t-27.5 157.5q0 79 25.5 148t73.5 126h572zM314 1038q60 53 133 81.5t157 28.5q85 0 158 -29.5t129 -80.5h-577zM1006 874q16 -37 23 -76t7 -82q0 -79 -25 -149.5
t-73 -127.5h-574l563 567q26 -30 45.5 -62.5t33.5 -69.5zM744 212q-67 -19 -140 -19q-111 0 -206.5 42.5t-165.5 114t-109.5 166.5t-39.5 200q0 111 42 207t113.5 166.5t166 110.5t199.5 40q113 0 209 -43.5t165.5 -116t108.5 -167t39 -197.5q0 -95 -29.5 -176.5t-81.5 -146
t-121.5 -111t-149.5 -70.5zM732 1179q-60 17 -128 17q-103 0 -190.5 -39t-151.5 -105t-100 -153t-36 -183q0 -97 36.5 -184.5t101 -153.5t151.5 -105t189 -39q99 0 186 37.5t152.5 102.5t103.5 153t38 189q0 88 -28 163.5t-76 135t-112 101.5t-136 63z" />
    <glyph glyph-name=".notdef" horiz-adv-x="1216" 
d="M894 392q-58 -51 -131.5 -80t-158.5 -29q-84 0 -156 29t-131 80h577zM281 426q-53 59 -80.5 132.5t-27.5 157.5q0 79 25.5 148t73.5 126h572zM314 1038q60 53 133 81.5t157 28.5q85 0 158 -29.5t129 -80.5h-577zM1006 874q16 -37 23 -76t7 -82q0 -79 -25 -149.5
t-73 -127.5h-574l563 567q26 -30 45.5 -62.5t33.5 -69.5zM744 212q-67 -19 -140 -19q-111 0 -206.5 42.5t-165.5 114t-109.5 166.5t-39.5 200q0 111 42 207t113.5 166.5t166 110.5t199.5 40q113 0 209 -43.5t165.5 -116t108.5 -167t39 -197.5q0 -95 -29.5 -176.5t-81.5 -146
t-121.5 -111t-149.5 -70.5zM732 1179q-60 17 -128 17q-103 0 -190.5 -39t-151.5 -105t-100 -153t-36 -183q0 -97 36.5 -184.5t101 -153.5t151.5 -105t189 -39q99 0 186 37.5t152.5 102.5t103.5 153t38 189q0 88 -28 163.5t-76 135t-112 101.5t-136 63z" />
    <glyph glyph-name=".null" horiz-adv-x="0" 
 />
    <glyph glyph-name="nonmarkingreturn" unicode="&#xd;" horiz-adv-x="0" 
 />
    <glyph glyph-name="NULL" horiz-adv-x="0" 
 />
    <glyph glyph-name="NULL" horiz-adv-x="0" 
 />
    <glyph glyph-name="space" unicode=" " horiz-adv-x="617" 
 />
    <glyph glyph-name="exclam" unicode="!" horiz-adv-x="686" 
d="M243 454v980h198v-980h-198zM477 120q0 -28 -10.5 -52.5t-29 -43t-43 -29t-52.5 -10.5t-52.5 10.5t-43 29t-29 43t-10.5 52.5t10.5 52.5t29 43t43 29t52.5 10.5t52.5 -10.5t43 -29t29 -43t10.5 -52.5z" />
    <glyph glyph-name="quotedbl" unicode="&#x22;" horiz-adv-x="794" 
d="M463 1433h177v-386q0 -19 -7 -36t-19 -29.5t-28 -19.5t-35 -7t-35 7t-28 19.5t-18.5 29.5t-6.5 36v386zM132 1433h177v-386q0 -19 -7 -36t-19 -29.5t-28 -19.5t-35 -7t-35 7t-28 19.5t-18.5 29.5t-6.5 36v386z" />
    <glyph glyph-name="numbersign" unicode="#" horiz-adv-x="1160" 
d="M813 1341q4 22 17 39t31.5 29t40.5 18t45 6h61l-87 -442h202l-12 -58q-5 -22 -15 -42t-25 -35.5t-34.5 -25t-41.5 -9.5h-108l-48 -247h222l-12 -58q-5 -22 -15 -42t-25 -35.5t-34.5 -25t-41.5 -9.5h-128l-61 -312q-4 -22 -17 -39t-31 -29t-40 -18t-45 -6h-61l79 404h-224
l-61 -312q-4 -22 -17 -39t-31 -29t-40 -18t-45 -6h-61l79 404h-189l12 59q4 22 14 42t25 35.5t34 25t42 9.5h95l49 246h-210l12 59q4 22 14.5 42t25.5 35.5t34 25t42 9.5h115l69 349q4 22 17 39t31.5 29t40.5 18t45 6h61l-87 -441h223zM439 575h223l49 246h-224z" />
    <glyph glyph-name="dollar" unicode="$" horiz-adv-x="1065" 
d="M698 1189q-39 28 -79 44.5t-75 16.5q-47 0 -88.5 -13t-73 -36t-50 -54.5t-18.5 -68.5q0 -43 14 -73t45 -53.5t80.5 -44.5t120.5 -45q35 -14 70.5 -26.5t69.5 -27t67 -31.5t63 -40q151 -115 151 -310q0 -88 -33 -163t-89.5 -131.5t-132 -93t-160.5 -48.5v-168h-104v163
q-177 8 -295 114q-26 23 -46 46.5t-34.5 45.5t-24.5 40t-16 30l48 25q38 23 79 23q65 0 110 -47l16 -13q38 -32 84.5 -49.5t106.5 -17.5q49 0 101 16t94.5 46.5t70 76t27.5 105.5q0 58 -26 96t-67.5 65t-93 46t-101.5 39q-74 29 -144.5 60t-126 75.5t-89 109t-33.5 160.5
q0 79 29.5 142.5t79 110t114.5 75.5t137 38v137h104v-134q54 -6 106.5 -27.5t98 -51t83 -63.5t62.5 -65l-51 -38q-42 -36 -97 -36q-47 0 -84 23z" />
    <glyph glyph-name="percent" unicode="%" horiz-adv-x="1572" 
d="M434 90q-32 -43 -75 -66.5t-101 -23.5h-136l1006 1343q32 43 75 66.5t101 23.5h136zM74 1082q0 76 25.5 143t71.5 116.5t109.5 78.5t139.5 29t140 -29t110 -78.5t71.5 -116.5t25.5 -143t-25.5 -143t-71.5 -116.5t-110 -78t-140 -28.5t-139.5 28.5t-109.5 78t-71.5 116.5
t-25.5 143zM247 1082q0 -40 12 -75t34.5 -61.5t54.5 -41.5t72 -15t72 15t54.5 41.5t34.5 61.5t12 75t-12 75t-34.5 61.5t-54.5 41.5t-72 15t-72 -15t-54.5 -41.5t-34.5 -61.5t-12 -75zM803 352q0 76 25.5 143t71.5 116.5t109.5 78.5t139.5 29t140 -29t110 -78.5t71.5 -116.5
t25.5 -143t-25.5 -143t-71.5 -116.5t-110 -78t-140 -28.5t-139.5 28.5t-109.5 78t-71.5 116.5t-25.5 143zM976 352q0 -40 12 -75t34.5 -61.5t54.5 -41.5t72 -15t72 15t54.5 41.5t34.5 61.5t12 75t-12 75t-34.5 61.5t-54.5 41.5t-72 15t-72 -15t-54.5 -41.5t-34.5 -61.5
t-12 -75z" />
    <glyph glyph-name="ampersand" unicode="&#x26;" horiz-adv-x="1406" 
d="M856 552l96 -96l107 144q29 45 73.5 67.5t102.5 22.5h136l-278 -374l319 -316h-153q-40 0 -69 6t-52.5 17.5t-43.5 28t-42 38.5l-82 81q-91 -92 -196.5 -139t-222.5 -47q-100 0 -186 34.5t-149.5 94.5t-99.5 141t-36 174q0 52 13.5 102.5t38 97.5t59.5 88t79 73q9 8 25 8
t34.5 -9.5t40.5 -22.5q-57 57 -86.5 130t-29.5 155q0 88 31.5 161t84.5 125.5t122.5 82t145.5 29.5q63 0 124.5 -15.5t117.5 -45.5t104.5 -74.5t86.5 -102.5l-66 -22q-28 -9 -50.5 -13t-42.5 -4q-25 0 -44 5t-33 12.5t-25 15t-19 13.5q-62 41 -153 41q-38 0 -73 -15
t-61.5 -42.5t-42.5 -66t-16 -85.5q0 -38 14.5 -78t49.5 -75zM699 440l-237 235q-40 -14 -75 -38t-61 -55.5t-41 -70t-15 -82.5q0 -64 23.5 -111.5t62.5 -79t90 -47.5t105 -16q156 0 284 129z" />
    <glyph glyph-name="quotesingle" unicode="'" horiz-adv-x="460" 
d="M120 1433h217l-20 -386q-2 -38 -27 -65t-62 -27q-38 0 -62.5 27t-25.5 65z" />
    <glyph glyph-name="parenleft" unicode="(" horiz-adv-x="600" 
d="M307 629q0 -205 44.5 -372t115.5 -297q14 -26 23.5 -66t9.5 -79q0 -32 -7.5 -58t-24.5 -39l-37 -28q-57 75 -113 173t-100.5 216.5t-72.5 256t-28 292.5q0 154 28 292.5t72.5 257.5t100.5 217t113 173l37 -28q17 -14 24.5 -39.5t7.5 -57.5q0 -39 -9.5 -79t-23.5 -66
q-71 -130 -115.5 -297t-44.5 -372z" />
    <glyph glyph-name="parenright" unicode=")" horiz-adv-x="600" 
d="M281 629q0 102 -12 195t-33 177t-50.5 158t-64.5 139q-14 26 -23.5 66t-9.5 79q0 32 7.5 58t24.5 39l37 28q57 -75 113 -173t100.5 -217t72.5 -257.5t28 -292.5q0 -155 -28 -292.5t-72.5 -256t-100.5 -216.5t-113 -173l-37 28q-17 13 -24.5 39t-7.5 58q0 39 9.5 79
t23.5 66q35 65 64.5 139t50.5 158t33 177t12 195z" />
    <glyph glyph-name="asterisk" unicode="*" horiz-adv-x="800" 
d="M157 955l-78 137l110 64q23 14 51 19.5t57 8.5q-28 2 -56 8.5t-51 20.5l-111 65l79 136l111 -64q23 -14 42 -35.5t36 -44.5q-12 25 -20.5 53t-8.5 55v128h158v-128q0 -27 -8.5 -55t-21.5 -54q17 23 37 44.5t43 35.5l111 64l78 -137l-110 -64q-24 -14 -52 -20t-56 -8
q27 -2 55.5 -9t51.5 -20l111 -65l-79 -136l-111 64q-23 14 -42.5 35t-36.5 45q12 -26 21 -54t9 -54v-128h-158v128q0 27 8 54.5t20 52.5q-16 -23 -35.5 -44t-42.5 -34z" />
    <glyph glyph-name="plus" unicode="+" horiz-adv-x="1160" 
d="M485 190v383h-383v188h383v383h188v-383h383v-188h-383v-383h-188z" />
    <glyph glyph-name="comma" unicode="," horiz-adv-x="424" 
d="M83 120q0 28 10.5 52.5t29 43t43 29t52.5 10.5t52.5 -10.5t43 -29t29 -43t10.5 -52.5q0 -107 -40 -194.5t-130 -163.5l-15 16q-13 13 -13 36q0 28 10 46t21.5 34.5t21.5 37t10 53.5h-12q-26 2 -48.5 13.5t-39 29.5t-26 41.5t-9.5 50.5z" />
    <glyph glyph-name="hyphen" unicode="-" horiz-adv-x="694" 
d="M599 573h-506v188h506v-188z" />
    <glyph glyph-name="period" unicode="." horiz-adv-x="436" 
d="M83 120q0 28 10.5 52.5t29 43t43 29t52.5 10.5t52.5 -10.5t43 -29t29 -43t10.5 -52.5t-10.5 -52.5t-29 -43t-43 -29t-52.5 -10.5t-52.5 10.5t-43 29t-29 43t-10.5 52.5z" />
    <glyph glyph-name="slash" unicode="/" horiz-adv-x="852" 
d="M632 1380q18 42 57 67t85 25h84l-641 -1470q-18 -42 -57 -67t-85 -25h-84z" />
    <glyph glyph-name="zero" unicode="0" horiz-adv-x="1648" 
d="M92 717q0 101 26 194.5t74 175t114.5 148t148 114.5t175 74t194.5 26t194.5 -26t175 -74t148 -114.5t114.5 -148t74 -175t26 -194.5t-26 -194.5t-74 -175t-114.5 -148t-148 -114.5t-175 -74t-194.5 -26q-152 0 -285 57.5t-232.5 157t-157 232.5t-57.5 285zM290 717
q0 -111 42 -208t114.5 -169.5t169.5 -114.5t208 -42t208 42t169.5 114.5t114.5 169.5t42 208t-42 208t-114.5 169.5t-169.5 114.5t-208 42t-208 -42t-169.5 -114.5t-114.5 -169.5t-42 -208z" />
    <glyph glyph-name="one" unicode="1" horiz-adv-x="931" 
d="M457 -1v1178l-46 -68q-10 -15 -26.5 -27t-36 -21t-40.5 -13.5t-40 -4.5q-20 0 -37.5 5.5t-31.5 19.5l-58 57l327 311h187v-1437h-198z" />
    <glyph glyph-name="two" unicode="2" horiz-adv-x="1139" 
d="M1026 0h-927v79q0 28 9.5 65t35.5 65q156 155 289 295q57 60 113.5 122t106 119.5t87 107t55.5 84.5q11 23 17 44t6 45q0 57 -26.5 101t-67.5 74t-91 45t-97 15q-112 0 -184 -64q-34 -30 -62.5 -44t-58.5 -14q-20 0 -39 6t-38 16l-46 24q6 12 15.5 29.5t23.5 38t33 43.5
t45 45q126 111 311 111q94 0 179.5 -31t150.5 -87.5t104 -135t39 -172.5q0 -65 -17 -114.5t-51 -105.5q-24 -39 -58 -84t-73 -91.5t-81.5 -92.5t-82.5 -88q-95 -99 -199 -199q-20 -22 -44 -35t-39 -18h662v-198z" />
    <glyph glyph-name="three" unicode="3" horiz-adv-x="1061" 
d="M564 -14q-8 -1 -14.5 -1h-14.5q-193 0 -323 115q-26 23 -46 46.5t-34.5 45.5t-24.5 40t-16 30l48 25q38 23 79 23q65 0 110 -47l16 -13q38 -32 84.5 -52t106.5 -20q50 0 94.5 19t77.5 52t52 77t19 94t-19 94.5t-52 77.5t-77.5 52t-94.5 19h-92v193h92q42 0 78.5 15.5
t64 42.5t43 63t15.5 78t-15.5 78.5t-43 63.5t-64 42.5t-78.5 15.5h-10q-36 0 -75 -19.5t-79 -46.5q-19 -13 -40 -18t-44 -5q-55 0 -97 36l-51 38q38 46 81 84t91 66t101.5 43.5t112.5 15.5q83 0 156.5 -30t128 -83t86.5 -124.5t32 -155.5q0 -43 -15.5 -88t-39.5 -84.5
t-54 -70.5t-60 -47q39 -19 77 -55.5t68 -83.5t48.5 -101t18.5 -106q0 -86 -32 -162.5t-87 -135t-129 -94.5t-159 -42z" />
    <glyph glyph-name="four" unicode="4" horiz-adv-x="1160" 
d="M715 0v335h-635v105q0 26 8 50t18 42q11 21 26 40l470 784q22 36 54 55.5t69 19.5h188v-898h192v-198h-192v-335h-198zM312 533h403v643l-36 -80l-298 -496q-15 -25 -35 -42t-34 -25z" />
    <glyph glyph-name="five" unicode="5" horiz-adv-x="1160" 
d="M984 1235h-515l-40 -265q23 18 51 31.5t65 13.5q100 0 191.5 -35t161 -99t110.5 -154.5t41 -201.5t-42.5 -209.5t-116 -172t-172 -116t-209.5 -42.5q-118 0 -219 46.5t-176 126.5l38 38q23 23 49 35t58 12h5q20 0 38.5 -5.5t36.5 -15.5q76 -44 170 -44q72 0 135 27.5
t110 74.5t74.5 110t27.5 135t-27.5 128.5t-74.5 96.5t-110 61t-135 21q-26 0 -52 -7t-51 -16t-49.5 -16t-47.5 -7q-17 0 -33 8t-28.5 22t-20.5 34t-8 43v12t2 12l78 516h685v-198z" />
    <glyph glyph-name="six" unicode="6" horiz-adv-x="1179" 
d="M110 562q7 49 21.5 95t35.5 90q65 149 129 297t130 297q18 42 57 67t85 25h114l-183 -420q-7 -16 -17 -30t-20.5 -24.5t-19 -18t-12.5 -10.5q37 15 71.5 22.5t77.5 7.5q100 0 189 -38.5t155 -104.5t104.5 -155t38.5 -190t-38.5 -189.5t-104.5 -154.5t-155 -104.5
t-189 -38.5q-96 0 -183.5 36.5t-154 99.5t-106 148t-39.5 182q0 55 14 111zM873 472q0 61 -23 114.5t-63 93.5t-93.5 63.5t-114.5 23.5t-115 -23.5t-94 -63.5t-63 -93.5t-23 -114.5t23 -114.5t63 -93.5t94 -63.5t115 -23.5t114.5 23.5t93.5 63.5t63 93.5t23 114.5z" />
    <glyph glyph-name="seven" unicode="7" horiz-adv-x="1108" 
d="M119 1433h927v-79q0 -12 -2.5 -24t-5.5 -21q-4 -11 -8 -20l-521 -1197q-20 -47 -58 -69.5t-84 -22.5h-114l501 1154q13 29 34.5 51t32.5 30h-702v198z" />
    <glyph glyph-name="eight" unicode="8" horiz-adv-x="1154" 
d="M185 1102q0 77 29.5 145t80.5 119t119 80.5t145 29.5q78 0 146 -29.5t118.5 -80.5t80 -119t29.5 -145q0 -81 -31.5 -151t-86.5 -121q47 -31 85.5 -72.5t65.5 -91t42 -106t15 -117.5q0 -96 -36.5 -180.5t-99.5 -147t-147.5 -99t-180.5 -36.5t-180 36.5t-147 99t-99.5 147
t-36.5 180.5q0 61 14.5 117t41.5 105.5t65 91t85 73.5q-54 51 -85.5 121t-31.5 151zM277 445q0 -58 22.5 -109t61 -89.5t89.5 -61t109 -22.5q57 0 108.5 22.5t90.5 61t61.5 89.5t22.5 109q0 57 -22.5 108.5t-61.5 90.5t-90.5 61.5t-108.5 22.5q-58 0 -109 -22.5t-89.5 -61.5
t-61 -90.5t-22.5 -108.5zM373 1100q0 -40 14 -74.5t39 -60t59 -40t74 -14.5t74.5 14.5t60 40t40.5 60t15 74.5t-15 74.5t-40.5 60.5t-60 41t-74.5 15t-74 -15t-59 -41t-39 -60.5t-14 -74.5z" />
    <glyph glyph-name="nine" unicode="9" horiz-adv-x="1168" 
d="M1057 856q-9 -48 -25 -94.5t-37 -90.5q-65 -149 -129 -297t-130 -297q-18 -42 -57 -67t-85 -25h-114l183 420q7 16 17 30t20.5 24.5t19 18t12.5 10.5q-37 -15 -71.5 -22.5t-77.5 -7.5q-101 0 -189.5 38.5t-154.5 104.5t-104.5 155t-38.5 190q0 100 38.5 189t104.5 155
t154.5 104.5t189.5 38.5q96 0 183.5 -36.5t154 -99.5t106 -148t39.5 -182q0 -29 -2 -56.5t-7 -54.5zM289 946q0 -61 23 -114.5t63 -93.5t93.5 -63.5t114.5 -23.5t115 23.5t94 63.5t63 93.5t23 114.5t-23 114.5t-63 93.5t-94 63.5t-115 23.5t-114.5 -23.5t-93.5 -63.5
t-63 -93.5t-23 -114.5z" />
    <glyph glyph-name="colon" unicode=":" horiz-adv-x="504" 
d="M115 870q0 28 10.5 52.5t29 43t43 29t52.5 10.5t52.5 -10.5t43 -29t29 -43t10.5 -52.5t-10.5 -52.5t-29 -43t-43 -29t-52.5 -10.5t-52.5 10.5t-43 29t-29 43t-10.5 52.5zM115 120q0 28 10.5 52.5t29 43t43 29t52.5 10.5t52.5 -10.5t43 -29t29 -43t10.5 -52.5t-10.5 -52.5
t-29 -43t-43 -29t-52.5 -10.5t-52.5 10.5t-43 29t-29 43t-10.5 52.5z" />
    <glyph glyph-name="semicolon" unicode=";" horiz-adv-x="504" 
d="M115 120q0 28 10.5 52.5t29 43t43 29t52.5 10.5t52.5 -10.5t43 -29t29 -43t10.5 -52.5q0 -107 -40 -194.5t-130 -163.5l-15 16q-13 13 -13 36q0 28 10 46t21.5 34.5t21.5 37t10 53.5h-12q-26 2 -48.5 13.5t-39 29.5t-26 41.5t-9.5 50.5zM115 870q0 28 10.5 52.5t29 43
t43 29t52.5 10.5t52.5 -10.5t43 -29t29 -43t10.5 -52.5t-10.5 -52.5t-29 -43t-43 -29t-52.5 -10.5t-52.5 10.5t-43 29t-29 43t-10.5 52.5z" />
    <glyph glyph-name="less" unicode="&#x3c;" horiz-adv-x="1160" 
d="M119 607v120q0 46 25 75t67 47l721 311v-101q0 -46 -25 -85t-67 -57l-552 -240l-33 -10l33 -10l552 -240q42 -18 67 -57t25 -85v-101l-721 311q-42 18 -67 47t-25 75z" />
    <glyph glyph-name="equal" unicode="=" horiz-adv-x="1160" 
d="M1006 373h-854v188h854v-188zM1006 773h-854v188h854v-188z" />
    <glyph glyph-name="greater" unicode="&#x3e;" horiz-adv-x="1160" 
d="M1035 607q0 -46 -25 -75t-67 -47l-721 -311v101q0 46 25 85t67 57l552 240l33 10l-33 10l-552 240q-42 18 -67 57t-25 85v101l721 -311q42 -18 67 -47t25 -75v-120z" />
    <glyph glyph-name="question" unicode="?" horiz-adv-x="873" 
d="M60 1185l-50 22q20 41 52 83.5t80 77t114 56.5t155 22q99 0 177.5 -26.5t133 -77t84 -122t29.5 -161.5q0 -105 -72 -204q-17 -24 -43.5 -51t-56 -55.5t-59 -58.5t-53 -59t-39 -56t-15.5 -51v-78h-189v78q0 64 25 118t62.5 100t81 86.5t81 78t62.5 75t25 77.5
q0 35 -9.5 70.5t-35.5 63.5t-71.5 45.5t-117.5 17.5q-104 0 -166 -46q-14 -11 -41 -25.5t-68 -14.5q-17 0 -35.5 3.5t-40.5 11.5zM540 120q0 -28 -10.5 -52.5t-29 -43t-43 -29t-52.5 -10.5t-52.5 10.5t-43 29t-29 43t-10.5 52.5t10.5 52.5t29 43t43 29t52.5 10.5t52.5 -10.5
t43 -29t29 -43t10.5 -52.5z" />
    <glyph glyph-name="at" unicode="@" horiz-adv-x="1666" 
d="M1186 943q-27 -112 -46.5 -192.5t-33 -137t-21 -92t-12 -56.5t-5.5 -31.5t-1 -17.5q0 -50 19 -68t47 -18q82 0 142 35t99 88t58 115t19 115q0 98 -30 175t-78.5 134.5t-110 97.5t-125.5 65t-124.5 36t-106.5 11q-97 0 -182 -25.5t-157 -71t-129 -107.5t-97 -134.5
t-61 -153t-21 -162.5q0 -92 25 -174.5t69 -151.5t105 -124.5t133 -94.5t152 -59.5t163 -20.5q112 0 225 31t214 87q14 8 28.5 11.5t29.5 3.5q32 0 58 -12.5t40 -28.5l29 -34q-3 -2 -24.5 -19t-60.5 -41t-94 -51t-123.5 -50t-149.5 -38.5t-172 -15.5q-105 0 -205 27
t-189.5 76.5t-164.5 119.5t-129.5 157t-85 188.5t-30.5 213.5q0 114 30 218.5t84 194.5t129 163.5t164 125.5t190 80.5t207 28.5q90 0 179.5 -22t171 -63t151 -100.5t121 -134.5t80.5 -164.5t29 -191.5q0 -94 -34 -185.5t-96.5 -163.5t-149.5 -116.5t-192 -44.5
q-30 0 -62 8.5t-58.5 25t-43 42t-16.5 59.5v11t1 11q-15 -42 -45.5 -72t-68.5 -49.5t-80 -28.5t-80 -9q-50 0 -92.5 19t-73 52.5t-48 81t-17.5 104.5q0 89 26 162t72.5 130t110 98.5t139 69t159 41.5t169.5 15h29t29 -1zM683 327q67 0 112.5 30t75 73t46 90t24.5 80l44 179
q-95 -14 -165.5 -45.5t-117.5 -77.5t-70 -104t-23 -125q0 -28 6.5 -47t17 -31t24 -17t26.5 -5z" />
    <glyph glyph-name="A" unicode="A" horiz-adv-x="1373" 
d="M587 1433h193l625 -1433h-114q-47 0 -85 24.5t-57 67.5l-100 228h-732l-99 -228q-18 -42 -56.5 -67t-85.5 -25h-114zM665 1117l-261 -599h559l-261 599q-16 35 -19 85q-2 -25 -6.5 -46t-11.5 -39z" />
    <glyph glyph-name="B" unicode="B" horiz-adv-x="1316" 
d="M371 0h-198v1433h563q83 0 156.5 -31.5t128 -86t86 -128t31.5 -156.5q0 -46 -14 -95.5t-37 -91t-52.5 -69t-61.5 -29.5q7 0 19 -1.5t25.5 -5.5t27 -10t24.5 -16q60 -57 99 -133.5t39 -166.5q0 -86 -32.5 -161t-88.5 -130.5t-131 -88t-161 -32.5zM794 199q45 0 84 17
t68 46.5t46 68.5t17 83t-17 83t-46 68t-68 46t-83 17h-424v-429h423zM371 1235v-409h365q42 0 79.5 16t65.5 44t44 65t16 79t-16 79.5t-44 65.5t-65.5 44t-79.5 16h-365z" />
    <glyph glyph-name="C" unicode="C" horiz-adv-x="1442" 
d="M288 717q0 -111 42 -208t114.5 -169.5t169.5 -114.5t208 -42q86 0 162 25t142 70q37 25 83 25q36 0 62.5 -12t49.5 -35l37 -37q-50 -54 -110.5 -97.5t-128.5 -73.5t-143 -46.5t-154 -16.5q-152 0 -285 57.5t-232.5 157t-157 232.5t-57.5 285q0 101 26 194.5t74 175
t114.5 148t148 114.5t175 74t194.5 26q79 0 154 -16.5t143 -46.5t128.5 -73.5t110.5 -97.5l-37 -37q-23 -23 -50 -35.5t-62 -12.5q-45 0 -83 26q-66 45 -142.5 70t-161.5 25q-111 0 -208 -42t-169.5 -114.5t-114.5 -169.5t-42 -208z" />
    <glyph glyph-name="D" unicode="D" horiz-adv-x="1519" 
d="M174 0v1433h538q99 0 190.5 -25.5t171 -72.5t145 -112.5t112.5 -145t72.5 -171t25.5 -190.5t-25.5 -190.5t-72.5 -171t-112.5 -145t-145 -112t-171 -72t-190.5 -25.5h-538zM712 198q107 0 201.5 40.5t165 111t111.5 165t41 201.5t-41 201.5t-111.5 165t-165 111.5
t-201.5 41h-340v-1037h340z" />
    <glyph glyph-name="E" unicode="E" horiz-adv-x="1165" 
d="M1060 0h-886v1433h886v-198h-688v-413h557v-198h-557v-426h688v-198z" />
    <glyph glyph-name="F" unicode="F" horiz-adv-x="1135" 
d="M952 794v-198h-580v-596h-198v1433h886v-198h-688v-441h580z" />
    <glyph glyph-name="G" unicode="G" horiz-adv-x="1492" 
d="M1354 730v-578q-50 -50 -110.5 -82.5t-128.5 -51.5t-141.5 -26t-149.5 -7q-152 0 -285 57.5t-232.5 157t-157 232.5t-57.5 285q0 101 26 194.5t74 175t114.5 148t148 114.5t175 74t194.5 26q79 0 154 -16.5t143 -46.5t128.5 -73.5t110.5 -97.5l-37 -37q-24 -24 -50.5 -36
t-61.5 -12q-45 0 -83 26q-66 45 -142.5 70t-161.5 25q-111 0 -208 -42t-169.5 -114.5t-114.5 -169.5t-42 -208t43.5 -208t118 -169.5t173 -114.5t209.5 -42q92 0 174 21.5t150 64.5v263h-80q-35 0 -63.5 12.5t-48.5 33.5t-31 49t-11 59v44h430z" />
    <glyph glyph-name="H" unicode="H" horiz-adv-x="1518" 
d="M1342 0h-198v622h-772v-622h-198v1433h198v-613h772v613h198v-1433z" />
    <glyph glyph-name="I" unicode="I" horiz-adv-x="617" 
d="M408 0h-198v1433h198v-1433z" />
    <glyph glyph-name="J" unicode="J" horiz-adv-x="827" 
d="M449 1433h198v-1223q0 -95 -36 -179t-98.5 -146t-146.5 -98t-179 -36q-94 0 -176 34.5t-145 95.5l56 56q45 45 109 45q20 -1 38.5 -6.5t37 -11.5t38 -10.5t42.5 -4.5q54 0 101.5 20.5t83.5 56t56.5 83t20.5 101.5v1223z" />
    <glyph glyph-name="K" unicode="K" horiz-adv-x="1320" 
d="M556 799l401 544q29 45 73.5 67.5t102.5 22.5h136l-492 -668q-11 -14 -20 -20.5t-11 -7.5q2 -2 11 -8t20 -20l525 -709h-136q-58 0 -102.5 22.5t-73.5 67.5l-434 585q-13 17 -25.5 28.5t-23 18.5t-17.5 10.5t-8 4.5q1 0 8 3t17.5 10t23 19t25.5 30zM390 0h-198v1433h198
v-1433z" />
    <glyph glyph-name="L" unicode="L" horiz-adv-x="1032" 
d="M174 0v1433h198v-1235h619v-198h-817z" />
    <glyph glyph-name="M" unicode="M" horiz-adv-x="1894" 
d="M1720 0h-198v1141q-1 -3 -3 -13.5t-4.5 -24t-6 -27t-7.5 -22.5l-460 -1054h-193l-459 1053q-4 7 -7 18t-5.5 22.5t-4 21t-1.5 14.5v-1129h-198v1433h164q47 0 85.5 -25.5t56.5 -66.5l447 -1025q8 -20 12.5 -41.5t5.5 -46.5q3 50 19 88l447 1025q19 43 58 67.5t84 24.5
h168v-1433z" />
    <glyph glyph-name="N" unicode="N" horiz-adv-x="1559" 
d="M1384 0h-161l-819 1119q-8 11 -13.5 24.5t-9.5 27.5q-4 15 -7 32v-1203h-198v1433h141q48 0 84 -14t57 -43l695 -957q27 -39 33 -99v1113h198v-1433z" />
    <glyph glyph-name="O" unicode="O" horiz-adv-x="1648" 
d="M92 717q0 101 26 194.5t74 175t114.5 148t148 114.5t175 74t194.5 26t194.5 -26t175 -74t148 -114.5t114.5 -148t74 -175t26 -194.5t-26 -194.5t-74 -175t-114.5 -148t-148 -114.5t-175 -74t-194.5 -26q-152 0 -285 57.5t-232.5 157t-157 232.5t-57.5 285zM290 717
q0 -111 42 -208t114.5 -169.5t169.5 -114.5t208 -42t208 42t169.5 114.5t114.5 169.5t42 208t-42 208t-114.5 169.5t-169.5 114.5t-208 42t-208 -42t-169.5 -114.5t-114.5 -169.5t-42 -208z" />
    <glyph glyph-name="P" unicode="P" horiz-adv-x="1233" 
d="M398 0h-198v1433h512q93 0 175 -35.5t143 -96.5t96.5 -143t35.5 -175t-35.5 -175t-96.5 -143t-143 -96.5t-175 -35.5h-314v-533zM712 731q52 0 98 19.5t80.5 54t54 80t19.5 98.5q0 52 -19.5 98t-54 80.5t-80.5 54t-98 19.5h-314v-504h314z" />
    <glyph glyph-name="Q" unicode="Q" horiz-adv-x="1648" 
d="M290 717q0 -111 42 -208t114.5 -169.5t169.5 -114.5t208 -42q42 0 83 6.5t79 18.5l123 -166q-66 -28 -137.5 -42.5t-147.5 -14.5q-152 0 -285 57.5t-232.5 157t-157 232.5t-57.5 285q0 101 26 194.5t74 175t114.5 148t148 114.5t175 74t194.5 26t194.5 -26t175 -74
t148 -114.5t114.5 -148t74 -175t26 -194.5q0 -149 -54.5 -278.5t-150.5 -229.5l381 -514h-136q-58 0 -102.5 22.5t-73.5 67.5l-342 462q63 34 114.5 83t88 110t57 131t20.5 146q0 111 -42 208t-114.5 169.5t-169.5 114.5t-208 42t-208 -42t-169.5 -114.5t-114.5 -169.5
t-42 -208z" />
    <glyph glyph-name="R" unicode="R" horiz-adv-x="1292" 
d="M391 0h-198v1433h514q87 0 163.5 -33t133 -89.5t89.5 -133t33 -163.5q0 -70 -21.5 -133.5t-60.5 -115.5t-92.5 -90.5t-116.5 -58.5l456 -616h-136q-58 0 -102.5 22.5t-73.5 67.5l-375 506h-213v-596zM391 1235v-441h316q46 0 86 17t70 47t47.5 70t17.5 86t-17.5 86
t-47.5 70t-70 47.5t-86 17.5h-316z" />
    <glyph glyph-name="S" unicode="S" horiz-adv-x="1065" 
d="M698 1189q-39 28 -79 44.5t-75 16.5q-47 0 -88.5 -13t-73 -36t-50 -54.5t-18.5 -68.5q0 -43 14 -73t45 -53.5t80.5 -44.5t120.5 -45q35 -14 70.5 -26.5t69.5 -27t67 -31.5t63 -40q151 -115 151 -310q0 -98 -40 -179t-108 -139.5t-157 -91t-186 -32.5q-193 0 -323 115
q-26 23 -46 46.5t-34.5 45.5t-24.5 40t-16 30l48 25q38 23 79 23q65 0 110 -47l16 -13q38 -32 84.5 -49.5t106.5 -17.5q49 0 101 16t94.5 46.5t70 76t27.5 105.5q0 58 -26 96t-67.5 65t-93 46t-101.5 39q-74 29 -144.5 60t-126 75.5t-89 109t-33.5 160.5q0 88 36.5 157
t96.5 116.5t137 72.5t158 25q59 0 117 -20t109 -51t92 -68t68 -70l-51 -38q-42 -36 -97 -36q-47 0 -84 23z" />
    <glyph glyph-name="T" unicode="T" horiz-adv-x="1145" 
d="M28 1235v199h1089v-199h-445v-1235h-198v1235h-446z" />
    <glyph glyph-name="U" unicode="U" horiz-adv-x="1454" 
d="M353 560q0 -78 29.5 -147t81 -120.5t120.5 -81t147 -29.5t147 29.5t120.5 81t81 120.5t29.5 147v873h199v-873q0 -80 -20.5 -153.5t-58 -137.5t-90.5 -116.5t-117 -90t-137.5 -58t-153.5 -20.5q-79 0 -152.5 20.5t-137.5 58t-117 90t-90.5 116.5t-58 138t-20.5 153v873
h198v-873z" />
    <glyph glyph-name="V" unicode="V" horiz-adv-x="1327" 
d="M-58 1433h114q46 0 86 -25t56 -67l447 -1025q8 -20 12.5 -41.5t5.5 -46.5q3 50 19 88l447 1025q18 42 57 67t85 25h114l-625 -1433h-193z" />
    <glyph glyph-name="W" unicode="W" horiz-adv-x="1993" 
d="M1028 612q-2 -2 -267 -612h-193l-625 1433h114q46 0 86 -25t56 -67l447 -1025q17 -39 18 -88q3 50 19 88l447 1025q18 42 57 67t85 25h114l-281 -645l206 -472q8 -19 12 -41.5t6 -48.5q3 54 19 90l447 1025q18 42 57 67t85 25h114l-625 -1433h-193l-185 425
q-31 71 -31 127q0 32 11 60z" />
    <glyph glyph-name="X" unicode="X" horiz-adv-x="1331" 
d="M810 727q0 -20 9 -32l514 -695h-136q-58 0 -102.5 22.5t-73.5 67.5l-339 458q-8 11 -11.5 26.5t-4.5 21.5l-1 -5.5t-3 -13t-5 -16t-7 -13.5l-339 -458q-29 -45 -73.5 -67.5t-102.5 -22.5h-136l509 689q0 2 7 13t7 25q0 16 -9 30l-499 676h136q58 0 102.5 -22.5
t73.5 -67.5l324 -437q5 -7 7.5 -15.5t4.5 -16.5l4 -20q0 13 4.5 27t11.5 25l323 437q29 45 73.5 67.5t102.5 22.5h136l-496 -672q-6 -6 -8.5 -16t-2.5 -18z" />
    <glyph glyph-name="Y" unicode="Y" horiz-adv-x="1336" 
d="M769 0h-198v606q0 22 -4 39t-11.5 32.5t-18.5 31.5t-25 35l-509 689h136q58 0 102.5 -22.5t73.5 -67.5l339 -458q7 -11 10.5 -25.5t5.5 -23.5q0 8 4 23t12 26l339 458q29 45 73.5 67.5t102.5 22.5h136l-509 -689q-14 -19 -25 -35t-18.5 -31.5t-11.5 -32.5t-4 -39v-606z
" />
    <glyph glyph-name="Z" unicode="Z" horiz-adv-x="1248" 
d="M1159 199v-199h-1073v82q0 76 46 129l757 1024h-765v199h1048v-82q0 -69 -37 -118l-778 -1052q5 4 11 8q5 3 12 6t16 3h763z" />
    <glyph glyph-name="bracketleft" unicode="[" horiz-adv-x="600" 
d="M142 1533h362l-20 -178h-164v-1466h164l20 -178h-362v1822z" />
    <glyph glyph-name="backslash" unicode="\" horiz-adv-x="855" 
d="M849 -90h-84q-46 0 -85 25t-57 67l-641 1470h84q46 0 85 -25t57 -67z" />
    <glyph glyph-name="bracketright" unicode="]" horiz-adv-x="600" 
d="M458 -289h-362l20 178h164v1466h-164l-20 178h362v-1822z" />
    <glyph glyph-name="asciicircum" unicode="^" horiz-adv-x="1035" 
d="M496 1449h20q46 0 85 -25t57 -67l202 -470h-71q-46 0 -85 25t-57 67l-131 301l-10 33l-10 -33l-131 -301q-18 -42 -57 -67t-85 -25h-71l202 470q18 42 57 67t85 25z" />
    <glyph glyph-name="underscore" unicode="_" horiz-adv-x="788" 
d="M790 -345h-790v188h790v-188z" />
    <glyph glyph-name="grave" unicode="`" 
d="M87 1449h114q83 0 115 -44q11 -12 142 -244h-74q-83 0 -115 44z" />
    <glyph glyph-name="a" unicode="a" horiz-adv-x="1079" 
d="M169 896q10 15 24 30q12 13 30 28.5t42 31.5q60 38 129 58.5t154 20.5q86 0 150 -21t109.5 -58.5t74 -88.5t45 -111.5t22.5 -127t6 -134.5v-524h-162q-13 16 -21.5 38.5t-8.5 45.5v27q-28 -28 -67.5 -51t-82 -39.5t-85.5 -26t-78 -9.5q-79 0 -144.5 22.5t-112 64t-72 100
t-25.5 130.5q0 78 29 140.5t88.5 107t150 68.5t213.5 24q34 0 65.5 -2t56.5 -4t41.5 -4t20.5 -3q-4 74 -22.5 122t-47.5 75.5t-66 38t-77 10.5q-49 0 -77 -8.5t-49.5 -19t-42.5 -19t-56 -8.5q-27 0 -50.5 9t-46.5 26zM449 175q35 0 75 7t81 19.5t81.5 30t77.5 39.5v176
q-3 1 -20.5 1.5t-43 1.5t-57 1.5t-64.5 0.5q-62 0 -115.5 -8t-93 -26t-62 -46.5t-22.5 -69.5q0 -35 12.5 -59t34.5 -39t52 -22t64 -7z" />
    <glyph glyph-name="b" unicode="b" horiz-adv-x="1216" 
d="M152 0v1433h198v-475q30 31 64 51.5t69 32.5t70.5 17t70.5 5q111 0 206.5 -42.5t165 -116t109 -172t39.5 -209.5t-39.5 -209.5t-109 -172t-165 -116t-206.5 -42.5q-70 0 -141.5 22.5t-132.5 84.5v-7q-1 -18 -5.5 -33.5t-9.5 -26.5q-6 -13 -15 -24h-168zM624 177
q72 0 132 27.5t103.5 74.5t67.5 110t24 135t-24 135t-67.5 110t-103.5 74.5t-132 27.5q-77 0 -149.5 -30.5t-124.5 -83.5v-466q52 -53 124.5 -83.5t149.5 -30.5z" />
    <glyph glyph-name="c" unicode="c" horiz-adv-x="1027" 
d="M614 872q-72 0 -135 -27.5t-110 -74.5t-74.5 -110t-27.5 -135t27.5 -135t74.5 -110t110 -74.5t135 -27.5q45 0 88.5 11t81.5 33q37 21 80 21q32 0 58 -12t49 -35l38 -38q-75 -80 -176 -126.5t-219 -46.5q-111 0 -209.5 42.5t-172 116t-116 172t-42.5 209.5t42.5 209.5
t116 172t172 116t209.5 42.5q118 0 219 -46.5t176 -126.5l-38 -38q-24 -24 -51 -35.5t-62 -11.5q-40 0 -74 21q-38 22 -81.5 32t-88.5 12z" />
    <glyph glyph-name="d" unicode="d" horiz-adv-x="1218" 
d="M896 0q-9 11 -15 24q-5 11 -10 26.5t-5 33.5v7q-31 -31 -64.5 -51.5t-68.5 -33t-71 -17.5t-70 -5q-111 0 -206.5 42.5t-165 116t-109 172t-39.5 209.5t39.5 209.5t109 172t165 116t206.5 42.5q34 0 70 -5t71 -17t68.5 -32.5t64.5 -51.5v475h198v-1433h-168zM592 871
q-72 0 -132 -27.5t-103.5 -74.5t-67.5 -110t-24 -135t24 -135t67.5 -110t103.5 -74.5t132 -27.5q77 0 149.5 30.5t124.5 83.5v466q-52 53 -124.5 83.5t-149.5 30.5z" />
    <glyph glyph-name="e" unicode="e" horiz-adv-x="1211" 
d="M1138 614q0 -35 -13.5 -62.5t-33.5 -47t-44.5 -30t-46.5 -10.5h-730q9 -61 40 -113t77 -90.5t104 -60.5t121 -22q46 0 88.5 11.5t80.5 32.5q20 11 39 16t42 5q32 0 58 -12t49 -35l38 -38q-75 -80 -176 -126.5t-219 -46.5q-111 0 -209.5 42.5t-172 116t-116 172
t-42.5 209.5t42.5 209.5t116 172t172 116t209.5 42.5q93 0 178 -31t154 -85t118.5 -128t71.5 -161q3 -11 3 -23t1 -23zM345 657h588q-20 47 -52 86.5t-73.5 68t-91.5 44.5t-104 16q-59 0 -112.5 -18.5t-97 -51.5t-75 -78.5t-47.5 -99.5q8 11 24 22t41 11z" />
    <glyph glyph-name="f" unicode="f" horiz-adv-x="686" 
d="M186 0v861h-175v108q0 83 153 83h22v107q0 61 19 112.5t54 88.5t85 58t113 21q28 0 63 -8t69.5 -21t65 -30t48.5 -35l-23 -36q-20 -32 -52.5 -52.5t-71.5 -20.5q-32 0 -75 12q-3 0 -7 1q-8 2 -17 2q-18 0 -31.5 -8.5t-22.5 -22t-14 -29.5t-5 -32v-109h271v-189h-271v-861
h-198z" />
    <glyph glyph-name="g" unicode="g" horiz-adv-x="1044" 
d="M1001 918q-16 -41 -48.5 -63.5t-98.5 -22.5q16 -37 25 -77t9 -82q0 -81 -31 -152.5t-84 -124.5t-124.5 -84t-152.5 -31q-92 0 -174 40q-38 -25 -47 -40.5t-9 -24.5q0 -7 3 -13l4 -4q8 -9 31 -15.5t53.5 -10.5t66.5 -5.5t69 -1.5q67 0 136 -6t127 -26q84 -29 128 -88.5
t44 -144.5q0 -64 -25 -116t-73 -89.5t-117 -58t-157 -20.5q-71 0 -138.5 11t-130.5 28t-122 38.5t-111 41.5l24 67q12 35 48.5 55.5t79.5 20.5q26 0 51 -6t46 -15q10 -4 33 -12.5t56.5 -17.5t75.5 -15.5t89 -6.5q22 0 53.5 5t59.5 16t48 29.5t20 44.5q0 20 -7 31.5t-36 21.5
q-41 14 -93.5 18t-109 6t-114 5.5t-109 15.5t-93.5 36t-68 68q-18 30 -18 70q0 42 34.5 89t105.5 83q-59 54 -92.5 128t-33.5 160q0 81 31 152.5t84 124.5t124.5 84t152.5 31q65 0 123.5 -20t107.5 -56q20 12 52.5 23t82.5 11q32 0 72.5 -6.5t89.5 -21.5zM294 673
q0 -42 16 -78.5t43.5 -64t64 -43.5t78.5 -16t78.5 16t64 43.5t43.5 64t16 78.5t-16 78.5t-43.5 64t-64 43.5t-78.5 16t-78.5 -16t-64 -43.5t-43.5 -64t-16 -78.5z" />
    <glyph glyph-name="h" unicode="h" horiz-adv-x="1164" 
d="M314 1433q8 -11 15 -24q5 -11 10 -26.5t5 -33.5v-426q18 35 50 61.5t72 44.5t86.5 27t94.5 9q88 0 161 -33t124.5 -94t80 -147.5t28.5 -193.5v-597h-198v597q0 131 -48 205.5t-148 74.5q-60 0 -113.5 -14.5t-95 -39.5t-66.5 -58t-28 -69v-696h-198v1433h168z" />
    <glyph glyph-name="i" unicode="i" horiz-adv-x="532" 
d="M364 1050v-1050h-198v1050h198zM131 1314q0 28 10.5 52.5t29 43t43 29t52.5 10.5t52.5 -10.5t43 -29t29 -43t10.5 -52.5t-10.5 -52.5t-29 -43t-43 -29t-52.5 -10.5t-52.5 10.5t-43 29t-29 43t-10.5 52.5z" />
    <glyph glyph-name="j" unicode="j" horiz-adv-x="530" 
d="M364 37q-1 -73 -23 -138.5t-59.5 -120t-88.5 -96t-110 -65.5l-31 71q-5 12 -8 31.5t-3 30.5q0 30 12 53t28.5 44t34 43t29.5 49q21 48 21 99v1012h198v-1013zM131 1314q0 28 10.5 52.5t29 43t43 29t52.5 10.5t52.5 -10.5t43 -29t29 -43t10.5 -52.5t-10.5 -52.5t-29 -43
t-43 -29t-52.5 -10.5t-52.5 10.5t-43 29t-29 43t-10.5 52.5z" />
    <glyph glyph-name="k" unicode="k" horiz-adv-x="1087" 
d="M350 0h-198v1433h198v-1433zM485 604l263 356q29 45 73.5 67.5t102.5 22.5h136l-354 -480q-11 -14 -20 -20.5t-11 -7.5q2 -2 11 -8t20 -20l381 -514h-136q-58 0 -102.5 22.5t-73.5 67.5l-290 390q-13 17 -25.5 28.5t-23 18.5t-17.5 10.5t-8 4.5q1 0 8 3t17.5 10t23 19
t25.5 30z" />
    <glyph glyph-name="l" unicode="l" horiz-adv-x="532" 
d="M364 1433v-1433h-198v1433h198z" />
    <glyph glyph-name="m" unicode="m" horiz-adv-x="1719" 
d="M900 860q19 54 55.5 93t83 64t99 36.5t104.5 11.5q96 0 163.5 -40t109.5 -106t61.5 -150.5t19.5 -173.5v-595h-202v594q0 43 -6.5 92.5t-25 90.5t-51 68.5t-84.5 27.5q-51 0 -96.5 -14.5t-80.5 -39.5t-56.5 -57.5t-23.5 -68.5v-693h-202v594q0 43 -6.5 92.5t-25 90.5
t-51 68.5t-84.5 27.5q-51 0 -96.5 -14.5t-80.5 -39.5t-56.5 -57.5t-23.5 -68.5v-693h-198v1050h168l4.5 -6.5t10 -17.5t10.5 -26.5t5 -33.5v-42q18 36 47 62.5t65 44t77 26t83 8.5q62 0 108.5 -14t80.5 -40.5t57 -64.5t38 -86z" />
    <glyph glyph-name="n" unicode="n" horiz-adv-x="1164" 
d="M314 1050l4.5 -6.5t10 -17.5t10.5 -26.5t5 -33.5v-43q18 35 50 61.5t72 44.5t86.5 27t94.5 9q88 0 161 -31.5t124.5 -91.5t80 -147t28.5 -198v-597h-198v597q0 131 -48 205.5t-148 74.5q-60 0 -113.5 -13.5t-95 -36.5t-66.5 -55t-28 -68v-704h-198v1050h168z" />
    <glyph glyph-name="o" unicode="o" horiz-adv-x="1226" 
d="M72 525q0 111 42.5 209.5t116 172t172 116t209.5 42.5t209.5 -42.5t172 -116t116 -172t42.5 -209.5t-42.5 -209.5t-116 -172t-172 -116t-209.5 -42.5t-209.5 42.5t-172 116t-116 172t-42.5 209.5zM265 525q0 -72 27.5 -135t74.5 -110t110 -74.5t135 -27.5t135 27.5
t110 74.5t74.5 110t27.5 135t-27.5 135t-74.5 110t-110 74.5t-135 27.5t-135 -27.5t-110 -74.5t-74.5 -110t-27.5 -135z" />
    <glyph glyph-name="p" unicode="p" horiz-adv-x="1203" 
d="M314 1050l4.5 -6.5t10 -17.5t10.5 -26.5t5 -33.5v-41q3 27 19 48t40 36.5t53.5 26t59 17t56.5 9.5t46 3q111 0 206.5 -42.5t165 -116t109 -172t39.5 -209.5t-39.5 -209.5t-109 -172t-165 -116t-206.5 -42.5q-35 0 -70.5 5t-70.5 17t-69 32.5t-64 51.5v-430h-198v1389h168
zM618 178q72 0 132 27.5t103.5 74.5t67.5 110t24 135t-24 135t-67.5 110t-103.5 74.5t-132 27.5q-77 0 -149.5 -30.5t-124.5 -83.5v-466q52 -53 124.5 -83.5t149.5 -30.5z" />
    <glyph glyph-name="q" unicode="q" horiz-adv-x="1218" 
d="M1064 1049v-1389h-198v431q-31 -31 -64.5 -51.5t-68.5 -32.5t-71 -17t-70 -5q-111 0 -206.5 42.5t-165 116t-109 172t-39.5 209.5t39.5 209.5t109 172t165 116t206.5 42.5q34 0 70 -5t71 -17.5t68.5 -33t64.5 -51.5v7q0 18 5 33.5t10 26.5q6 13 15 24h168zM592 178
q77 0 149.5 30.5t124.5 83.5v466q-52 53 -124.5 83.5t-149.5 30.5q-72 0 -132 -27.5t-103.5 -74.5t-67.5 -110t-24 -135t24 -135t67.5 -110t103.5 -74.5t132 -27.5z" />
    <glyph glyph-name="r" unicode="r" horiz-adv-x="780" 
d="M314 1050l4.5 -6.5t10 -17.5t10.5 -26.5t5 -33.5v-73q18 36 50 67t72 54.5t86.5 37t94.5 13.5q81 0 153 -29l-15 -85q-8 -42 -36 -65.5t-69 -23.5q-5 0 -6 0.5t-3.5 0.5t-7.5 0.5t-18 0.5q-60 0 -113.5 -17.5t-94 -45.5t-65.5 -63.5t-28 -71.5v-666h-198v1050h168z" />
    <glyph glyph-name="s" unicode="s" horiz-adv-x="852" 
d="M116 225q20 10 39.5 16.5t39.5 6.5q26 0 49.5 -10t56.5 -33q23 -16 50 -23t56 -7q31 0 61.5 9.5t54.5 28t39 45.5t15 63q0 28 -8.5 48t-29.5 36.5t-56.5 32t-88.5 33.5q-55 19 -108.5 43.5t-95.5 59.5t-68 85t-26 120q0 61 28 113.5t73.5 90.5t103.5 60t118 22
q61 0 111.5 -22t87 -50t58 -53t26.5 -31l-47 -40q-42 -36 -98 -36q-20 0 -42.5 8.5t-52.5 23.5q-20 10 -43 10q-39 0 -64.5 -11t-41 -26.5t-21.5 -32t-6 -26.5q0 -29 15 -48.5t39 -34t54.5 -25.5t61.5 -21q60 -20 116 -46t99.5 -64t69.5 -91.5t26 -127.5q0 -68 -26.5 -128.5
t-74.5 -107t-114 -73.5t-145 -27q-54 0 -105.5 14.5t-96.5 42.5t-81.5 67t-61.5 89z" />
    <glyph glyph-name="t" unicode="t" horiz-adv-x="759" 
d="M401 265q0 -16 5 -32t14 -29.5t22.5 -22t31.5 -8.5l24 3q43 12 75 12q41 0 72 -21t52 -52l24 -35q-18 -18 -48.5 -35.5t-65 -30.5t-70 -21t-63.5 -8q-63 0 -113 21t-85 58t-54 88.5t-19 112.5v596h-175v108q0 83 153 83h22v216q0 32 7.5 60t16.5 48q11 24 24 43h150v-368
h291v-190h-291v-596z" />
    <glyph glyph-name="u" unicode="u" horiz-adv-x="1164" 
d="M849 0l-4.5 6.5t-10 17.5t-10.5 26.5t-5 33.5v43q-18 -36 -50 -62.5t-72 -44t-86.5 -26.5t-94.5 -9q-89 0 -161.5 33t-124 94t-80 147.5t-28.5 193.5v597h198v-597q0 -131 48 -205.5t148 -74.5q60 0 113.5 14.5t95 39.5t66.5 58t28 69v696h198v-1050h-168z" />
    <glyph glyph-name="v" unicode="v" horiz-adv-x="1047" 
d="M-35 1050h114q46 0 86 -25t56 -67l280 -642q8 -20 12 -43t6 -49q1 51 19 92l280 643q18 42 57 67t85 25h114l-458 -1051h-193z" />
    <glyph glyph-name="w" unicode="w" horiz-adv-x="1721" 
d="M892 612q-2 -2 -267 -612h-193l-458 1050h114q46 0 86 -25t56 -67l280 -642q9 -20 12.5 -44.5t5.5 -52.5q2 58 19 97l280 643q18 42 57 67t85 25h114l-115 -263l207 -472q7 -19 11.5 -40.5t6.5 -47.5q3 52 19 88l280 643q18 42 57 67t85 25h114l-458 -1051h-193l-185 425
q-31 71 -31 127q0 32 11 60z" />
    <glyph glyph-name="x" unicode="x" horiz-adv-x="1143" 
d="M1102 1050l-350 -475q-7 -14 -7 -28q0 -19 10 -32l380 -515h-136q-58 0 -102.5 22.5t-73.5 67.5l-232 313q-8 10 -11.5 26t-4.5 23q-2 -6 -5.5 -22.5t-10.5 -26.5l-232 -313q-29 -45 -73.5 -67.5t-102.5 -22.5h-136l380 515q10 13 10 32q0 14 -7 28l-350 475h136
q58 0 102.5 -22.5t73.5 -67.5l199 -269q8 -12 11 -29t5 -22q1 5 4 22t12 29l199 269q29 45 73.5 67.5t102.5 22.5h136z" />
    <glyph glyph-name="y" unicode="y" horiz-adv-x="1133" 
d="M28 1050h114q23 0 45 -6.5t41 -18.5t33.5 -29t22.5 -38l232 -533q31 -71 31 -128q0 -14 -2 -26.5t-6 -24.5q14 34 86.5 198.5t201.5 460.5l23 53q18 42 56.5 67t85.5 25h114l-585 -1343q-17 -45 -57 -70.5t-87 -25.5h-114l196 450z" />
    <glyph glyph-name="z" unicode="z" horiz-adv-x="952" 
d="M862 198v-198h-792v81q0 76 46 129l485 642h-499v198h772v-81q0 -69 -37 -118l-506 -668q7 3 16 7q8 3 17.5 5.5t21.5 2.5h476z" />
    <glyph glyph-name="braceleft" unicode="{" horiz-adv-x="600" 
d="M86 695q10 0 29.5 5.5t39.5 20t35 38t15 59.5q0 63 -6 103.5t-13.5 76.5t-13.5 75t-6 98q0 103 35 187t117 138q25 16 49 27t43.5 17t32 9t15.5 3q4 -23 6 -37.5t3 -23.5t1.5 -14t0.5 -9q0 -33 -10 -57t-23.5 -41.5t-27 -29t-20.5 -20.5q-23 -27 -32.5 -67t-9.5 -81
q0 -49 6 -84.5t13.5 -72t13.5 -82.5t6 -117q0 -38 -9 -71.5t-27 -60.5t-43.5 -45t-58.5 -24q33 -6 59 -24t43.5 -44.5t26.5 -60.5t9 -71q0 -71 -6 -117t-13.5 -83t-13.5 -72t-6 -84q0 -41 9.5 -81.5t32.5 -66.5q7 -9 20.5 -20.5t27 -29t23.5 -41.5t10 -57q0 -4 -0.5 -9
t-1.5 -14t-3 -23.5t-6 -37.5q-3 0 -15.5 3t-32 9t-43.5 16.5t-49 27.5q-82 54 -117 138t-35 187q0 59 6 98t13.5 75t13.5 76.5t6 103.5q0 36 -15 59.5t-35 37.5t-39.5 20t-29.5 6v159z" />
    <glyph glyph-name="bar" unicode="|" horiz-adv-x="600" 
d="M210 1578h178v-1866h-178v1866z" />
    <glyph glyph-name="braceright" unicode="}" horiz-adv-x="600" 
d="M519 536q-10 0 -29.5 -6t-39.5 -20t-35 -37.5t-15 -59.5q0 -63 6 -103.5t13.5 -76.5t13.5 -75t6 -98q0 -103 -35 -187t-117 -138q-25 -17 -49 -27.5t-43.5 -16.5t-32 -9t-15.5 -3q-4 23 -6 37.5t-3 23.5t-1.5 14t-0.5 9q0 33 10 57t23.5 41.5t27 29t20.5 20.5
q23 26 32.5 66t9.5 82q0 49 -6 84t-13.5 72t-13.5 83t-6 117q0 37 9 71t26.5 60.5t43.5 44.5t59 24q-33 6 -58.5 24t-43.5 45t-27 60.5t-9 71.5q0 71 6 117t13.5 82.5t13.5 72t6 84.5q0 41 -9.5 81t-32.5 67q-7 9 -20.5 20.5t-27 29t-23.5 41.5t-10 57q0 4 0.5 9t1.5 14
t3 23.5t6 37.5q3 0 15.5 -3t32 -9t43.5 -17t49 -27q82 -54 117 -138t35 -187q0 -59 -6 -98t-13.5 -75t-13.5 -76.5t-6 -103.5q0 -36 15 -59.5t35 -38t39.5 -20t29.5 -5.5v-159z" />
    <glyph glyph-name="asciitilde" unicode="~" horiz-adv-x="1160" 
d="M95 503q2 6 10.5 28t24 50.5t39 60t56 58t74.5 43.5t95 17q67 0 118 -16t94.5 -35.5t85.5 -35.5t91 -16q29 0 45.5 17t31 37.5t33.5 37.5t53 17q13 -1 29.5 -2t36.5 -6l63 -17q0 -3 -3 -14t-9 -28.5t-16 -39t-24 -45.5q-43 -72 -104.5 -109.5t-135.5 -37.5
q-68 0 -118.5 16t-94.5 35.5t-85.5 35.5t-90.5 16q-29 0 -47 -16t-34 -34.5t-33.5 -34.5t-44.5 -16q-14 0 -34 2.5t-44 10.5z" />
    <glyph glyph-name="exclamdown" unicode="&#xa1;" horiz-adv-x="686" 
d="M441 641v-980h-198v980h198zM207 975q0 28 10.5 52.5t29 43t43 29t52.5 10.5t52.5 -10.5t43 -29t29 -43t10.5 -52.5t-10.5 -52.5t-29 -43t-43 -29t-52.5 -10.5t-52.5 10.5t-43 29t-29 43t-10.5 52.5z" />
    <glyph glyph-name="cent" unicode="&#xa2;" horiz-adv-x="1027" 
d="M528 1229h104v-165q112 -4 208.5 -49.5t168.5 -122.5l-38 -38q-24 -24 -51 -35.5t-62 -11.5q-40 0 -74 21q-35 20 -73 30t-79 13v-693q82 5 152 44q17 10 35.5 15.5t39.5 5.5q36 0 62.5 -12t49.5 -35l38 -38q-72 -77 -168.5 -122.5t-208.5 -49.5v-165h-104v171
q-96 15 -179 62.5t-144 118.5t-96 161t-35 191q0 100 35 190t96 161t144 118.5t179 63.5v171zM267 525q0 -61 19.5 -115.5t54.5 -99t83 -76t104 -45.5v672q-56 -15 -104 -46.5t-83 -76t-54.5 -99t-19.5 -114.5z" />
    <glyph glyph-name="sterling" unicode="&#xa3;" horiz-adv-x="1160" 
d="M801 724v-104h-366v-216q0 -44 -8 -75t-22 -54t-35 -41.5t-46 -36.5h772l20 -197h-1017v109q0 24 2.5 39.5t13.5 25.5q13 12 34 33t40.5 50t33.5 64.5t14 75.5v223h-147v104h147v278q0 93 35.5 174.5t96 142t142 96t174.5 35.5q65 0 124.5 -17.5t110.5 -49.5t92.5 -76
t69.5 -98l-41 -23q-28 -16 -52 -22t-44 -6q-23 0 -42 6t-35 15t-28 18.5t-22 15.5q-29 19 -62.5 29t-70.5 10q-51 0 -96.5 -20t-79.5 -54t-54 -79.5t-20 -96.5v-278h366z" />
    <glyph glyph-name="currency" unicode="&#xa4;" horiz-adv-x="1160" 
d="M191 667q0 65 20.5 123.5t56.5 106.5l-82 82l73 73l81 -81q48 37 107 57.5t125 20.5t124.5 -20.5t107.5 -58.5l82 82l73 -73l-82 -82q36 -48 56.5 -106.5t20.5 -123.5q0 -66 -20.5 -124.5t-57.5 -106.5l84 -84l-73 -74l-85 85q-48 -36 -106.5 -56.5t-123.5 -20.5t-123 20
t-106 56l-84 -84l-74 74l83 83q-37 48 -57 107t-20 125zM359 667q0 -44 16.5 -83t45.5 -68t68 -45.5t83 -16.5t83 16.5t68 45.5t45.5 68t16.5 83t-16.5 83t-45.5 68t-68 45.5t-83 16.5t-83 -16.5t-68 -45.5t-45.5 -68t-16.5 -83z" />
    <glyph glyph-name="yen" unicode="&#xa5;" horiz-adv-x="1336" 
d="M1013 604v-104h-244v-87h244v-104h-244v-309h-198v309h-246v104h246v87h-246v104h246v2q0 22 -4 39t-11.5 32.5t-18.5 31.5t-25 35l-509 689h136q58 0 102.5 -22.5t73.5 -67.5l339 -458q7 -11 10.5 -25.5t5.5 -23.5q0 8 4 23t12 26l339 458q29 45 73.5 67.5t102.5 22.5
h136l-509 -689q-14 -19 -25 -35t-18.5 -31.5t-11.5 -32.5t-4 -39v-2h244z" />
    <glyph glyph-name="brokenbar" unicode="&#xa6;" horiz-adv-x="600" 
d="M210 1578h178v-798h-178v798zM210 510h178v-798h-178v798z" />
    <glyph glyph-name="section" unicode="&#xa7;" horiz-adv-x="1006" 
d="M675 376q33 -11 58.5 -31.5t42 -49t25 -63t8.5 -71.5q0 -69 -28.5 -123.5t-75.5 -92t-107 -57t-124 -19.5q-47 0 -93 16.5t-87 41.5t-74.5 55.5t-55.5 57.5l49 35q17 14 36.5 22t42.5 8q18 0 35 -4t31 -13q32 -23 60.5 -35.5t55.5 -12.5q33 0 63 9t52.5 25.5t35.5 38.5
t13 48q0 34 -12.5 56.5t-41 41t-74.5 36.5t-112 42q-68 25 -120 55t-87 68.5t-53 86.5t-18 110q0 49 15.5 96t42.5 87.5t64 73t80 53.5q-35 5 -60.5 24t-42 47.5t-24.5 63.5t-8 71q0 69 28.5 123t75.5 91.5t107.5 57.5t123.5 20q47 0 93 -16.5t87 -42t74.5 -56t55.5 -57.5
l-48 -35q-18 -14 -37.5 -21.5t-42.5 -7.5q-20 0 -36 3.5t-30 13.5q-32 21 -61.5 34t-54.5 13q-33 0 -63 -9t-52.5 -25t-35.5 -38t-13 -48q0 -34 12.5 -57t41 -41.5t74.5 -36t113 -41.5q133 -47 205 -123t72 -197q0 -48 -15 -96t-42 -89t-64 -71.5t-80 -44.5zM503 833
q-36 0 -73.5 -11.5t-68.5 -34t-51 -55t-20 -75.5q0 -36 18 -65.5t46.5 -49.5t65 -31t73.5 -11q36 0 73.5 11.5t68.5 34t51 55.5t20 76q0 36 -18 64.5t-47.5 49t-65.5 31.5t-72 11z" />
    <glyph glyph-name="dieresis" unicode="&#xa8;" 
d="M17 1290q0 25 9.5 46.5t25.5 38t37.5 26t46.5 9.5t46.5 -9.5t38 -26t26 -38t9.5 -46.5t-9.5 -46.5t-26 -37.5t-38 -25.5t-46.5 -9.5t-46.5 9.5t-37.5 25.5t-25.5 37.5t-9.5 46.5zM356 1290q0 25 9.5 46.5t25.5 38t37.5 26t46.5 9.5t46.5 -9.5t38 -26t26 -38t9.5 -46.5
t-9.5 -46.5t-26 -37.5t-38 -25.5t-46.5 -9.5t-46.5 9.5t-37.5 25.5t-25.5 37.5t-9.5 46.5z" />
    <glyph glyph-name="copyright" unicode="&#xa9;" horiz-adv-x="1596" 
d="M69 717q0 101 26 194.5t74 175t114.5 148t148 114.5t175 74t194.5 26t194.5 -26t175 -74t148 -114.5t114.5 -148t74 -175t26 -194.5t-26 -194.5t-74 -175t-114.5 -148t-148 -114.5t-175 -74t-194.5 -26q-152 0 -285 57.5t-232.5 157t-157 232.5t-57.5 285zM171 717
q0 -130 49.5 -245t135 -200.5t200.5 -135t245 -49.5t245 49.5t200.5 135t135 200.5t49.5 245t-49.5 245t-135 200.5t-200.5 135t-245 49.5t-245 -49.5t-200.5 -135t-135 -200.5t-49.5 -245zM451 717q0 -72 27 -135t74 -110t110 -74t135 -27q55 0 104 16.5t92 45.5
q24 16 54 16q23 0 40.5 -8t31.5 -22l24 -24q-65 -71 -154 -111.5t-192 -40.5q-98 0 -184 37.5t-150.5 102t-102 150.5t-37.5 184t37.5 184t102 150.5t150.5 102t184 37.5q103 0 192 -40.5t154 -111.5l-24 -24q-14 -14 -31.5 -22.5t-40.5 -8.5q-29 0 -54 17q-43 29 -92 45.5
t-104 16.5q-72 0 -135 -27t-110 -74t-74 -110t-27 -135z" />
    <glyph glyph-name="ordfeminine" unicode="&#xaa;" horiz-adv-x="726" 
d="M97 1486q7 10 17 21q8 9 21 20.5t30 22.5q42 27 91 42t110 15q92 0 149 -33t88 -87t41.5 -123t10.5 -142v-372h-115q-9 11 -15.5 27t-6.5 33v5q-20 -20 -47.5 -34t-58 -23.5t-61 -14t-55.5 -4.5q-56 0 -102.5 16t-79.5 46t-51 71.5t-18 92.5q0 55 20.5 99.5t63 76
t107 48.5t151.5 17q24 0 46.5 -1t40 -2.5t29 -3t14.5 -2.5q0 52 -13.5 86t-35 53.5t-48.5 27t-54 7.5q-35 0 -55 -6t-35 -13.5t-30 -13.5t-40 -6q-37 0 -69 26zM295 975q51 0 111 18t113 49v118q-3 1 -15 2.5t-30 3.5t-40.5 3.5t-45.5 1.5q-44 0 -82 -5.5t-66 -18.5t-44 -33
t-16 -49q0 -50 33.5 -70t81.5 -20z" />
    <glyph glyph-name="guillemotleft" unicode="&#xab;" horiz-adv-x="926" 
d="M292 865q18 42 57 67t85 25h61l-151 -352q-22 -51 -72 -76q24 -12 42.5 -31t29.5 -44l151 -352h-61q-46 0 -85 25t-57 67l-137 319q-4 8 -10.5 11.5t-7.5 4.5q2 1 8 5t10 12zM586 865q18 42 57 67t85 25h61l-151 -352q-22 -51 -72 -76q24 -12 42.5 -31t29.5 -44l151 -352
h-61q-46 0 -85 25t-57 67l-137 319q-4 8 -10.5 11.5t-7.5 4.5q2 1 8 5t10 12z" />
    <glyph glyph-name="logicalnot" unicode="&#xac;" horiz-adv-x="1160" 
d="M819 316v219h-669v188h857v-407h-188z" />
    <glyph glyph-name="uni00AD" unicode="&#xad;" horiz-adv-x="694" 
d="M599 505h-506v188h506v-188z" />
    <glyph glyph-name="registered" unicode="&#xae;" horiz-adv-x="1596" 
d="M69 717q0 101 26 194.5t74 175t114.5 148t148 114.5t175 74t194.5 26t194.5 -26t175 -74t148 -114.5t114.5 -148t74 -175t26 -194.5t-26 -194.5t-74 -175t-114.5 -148t-148 -114.5t-175 -74t-194.5 -26q-152 0 -285 57.5t-232.5 157t-157 232.5t-57.5 285zM171 717
q0 -130 49.5 -245t135 -200.5t200.5 -135t245 -49.5q90 0 171.5 23.5t153.5 67.5l-342 461h-137v-382h-127v918h330q55 0 104 -21t85.5 -57t57.5 -85t21 -105q0 -45 -14 -85.5t-38.5 -74t-59 -58t-74.5 -37.5l295 -399q94 88 149 207t55 257q0 130 -49.5 245t-135 200.5
t-200.5 135t-245 49.5t-245 -49.5t-200.5 -135t-135 -200.5t-49.5 -245zM637 1049v-283h203q29 0 55 11t45 30t30 45t11 55t-11 55t-30 45.5t-45 30.5t-55 11h-203z" />
    <glyph glyph-name="macron" unicode="&#xaf;" 
d="M30 1348h554v-148h-554v148z" />
    <glyph glyph-name="degree" unicode="&#xb0;" horiz-adv-x="794" 
d="M76 1128q0 66 25.5 124.5t69 102t102 69t124.5 25.5t124.5 -25.5t102 -69t69 -102t25.5 -124.5t-25.5 -124.5t-69 -102t-102 -69t-124.5 -25.5t-124.5 25.5t-102 69t-69 102t-25.5 124.5zM206 1128q0 -39 15 -74t41 -61t61 -41t74 -15t74 15t61 41t41 61t15 74t-15 74
t-41 61t-61 41t-74 15t-74 -15t-61 -41t-41 -61t-15 -74z" />
    <glyph glyph-name="plusminus" unicode="&#xb1;" horiz-adv-x="1160" 
d="M485 420v333h-383v188h383v383h188v-383h383v-188h-383v-333h-188zM1056 193h-954v188h954v-188z" />
    <glyph glyph-name="twosuperior" unicode="&#xb2;" horiz-adv-x="664" 
d="M587 882h-496v61q0 15 6 38t22 40q77 75 141 143q27 29 54.5 59t51.5 58t42.5 52.5t27.5 42.5q5 8 7 14t2 20q0 23 -11 40.5t-28.5 29.5t-38.5 18.5t-41 6.5q-27 0 -47.5 -9.5t-38 -20.5t-34.5 -20.5t-37 -9.5q-11 0 -19.5 3.5t-16.5 7.5l-43 21q12 28 32.5 57t49.5 52
t67.5 38t86.5 15q50 0 96 -17t81 -47t55.5 -72t20.5 -93q0 -36 -9.5 -63.5t-26.5 -55.5q-13 -21 -33.5 -47t-43.5 -53t-48 -53.5t-47 -49.5t-39.5 -40.5t-27.5 -26.5h283v-139z" />
    <glyph glyph-name="threesuperior" unicode="&#xb3;" horiz-adv-x="664" 
d="M354 875q-118 0 -188 61q-13 11 -24 25.5t-20 29t-16 27.5t-11 22l41 20q13 7 22 11t26 4q16 0 34 -8t31 -20l9 -7q16 -14 36.5 -22t46.5 -8q42 0 70.5 28.5t28.5 69.5q0 21 -7.5 39.5t-21 32.5t-31.5 22t-39 8h-66v134h66q32 0 55.5 22.5t23.5 56.5q0 32 -23.5 55.5
t-55.5 23.5h-6q-11 0 -23.5 -7t-27.5 -15.5t-31.5 -15.5t-34.5 -7h-4q-17 0 -31 6.5t-26 15.5l-40 31q46 56 100.5 91.5t117.5 35.5q44 0 83.5 -16.5t69.5 -45t48 -67.5t18 -85q0 -18 -6 -37.5t-15.5 -39t-22 -37t-24.5 -29.5q18 -14 34 -33.5t28 -42t19 -47.5t7 -49
q0 -47 -17 -88.5t-46.5 -73t-70 -50.5t-86.5 -21z" />
    <glyph glyph-name="acute" unicode="&#xb4;" 
d="M276 1205q-33 -44 -115 -44h-74q130 232 142 244q32 44 115 44h114z" />
    <glyph glyph-name="mu" unicode="&#xb5;" horiz-adv-x="1164" 
d="M122 1050h198v-696q3 -36 21 -68t49.5 -56.5t76.5 -40t102 -16.5q57 1 102 16.5t77 40t50 56.5t21 68v696h198v-1050h-168l-4.5 6.5t-10 17.5t-10.5 26.5t-5 33.5v43q-73 -142 -249 -142q-177 0 -250 142v-467h-198v1390z" />
    <glyph glyph-name="paragraph" unicode="&#xb6;" horiz-adv-x="1338" 
d="M40 977q0 94 35.5 177.5t97.5 145t144.5 97.5t177.5 36h807v-178h-209v-1453h-178v1453h-242v-1453h-178v720q-95 0 -177.5 35.5t-144.5 97.5t-97.5 144.5t-35.5 177.5z" />
    <glyph glyph-name="periodcentered" unicode="&#xb7;" horiz-adv-x="546" 
d="M139 595q0 28 10.5 52.5t29 43t43 29t52.5 10.5t52.5 -10.5t43 -29t29 -43t10.5 -52.5t-10.5 -52.5t-29 -43t-43 -29t-52.5 -10.5t-52.5 10.5t-43 29t-29 43t-10.5 52.5z" />
    <glyph glyph-name="cedilla" unicode="&#xb8;" 
d="M201 10h106l-1 -76q41 -3 76 -16t61 -33t41 -45.5t15 -53.5q0 -31 -17.5 -58t-47.5 -47.5t-70 -32.5t-86 -12q-22 0 -44 6t-39 14q-20 9 -39 21v73q19 -7 40 -12q17 -5 39 -8t43 -3q36 0 62 17.5t26 41.5t-26 41.5t-62 17.5q-8 0 -16.5 -0.5t-16.5 -0.5q-19 0 -31.5 8.5
t-12.5 40.5v117z" />
    <glyph glyph-name="onesuperior" unicode="&#xb9;" horiz-adv-x="664" 
d="M584 885h-421v139h149v404q-16 -13 -36 -20t-38 -7q-11 0 -23.5 3.5t-22.5 13.5l-43 41l182 175h119v-610h134v-139z" />
    <glyph glyph-name="ordmasculine" unicode="&#xba;" horiz-adv-x="876" 
d="M54 1082q0 76 28.5 143t78 116.5t116.5 78.5t143 29t143 -29t116.5 -78.5t78.5 -116.5t29 -143t-29 -143t-78.5 -116.5t-116.5 -78t-143 -28.5t-143 28.5t-116.5 78t-78 116.5t-28.5 143zM227 1082q0 -40 15 -75t41.5 -61.5t61.5 -41.5t75 -15t75 15t61.5 41.5t41.5 61.5
t15 75t-15 75t-41.5 61.5t-61.5 41.5t-75 15t-75 -15t-61.5 -41.5t-41.5 -61.5t-15 -75z" />
    <glyph glyph-name="guillemotright" unicode="&#xbb;" horiz-adv-x="926" 
d="M761 546q4 -8 10 -12.5t7 -4.5q-2 -1 -8 -4.5t-9 -11.5l-137 -319q-18 -42 -57 -67t-85 -25h-61l151 352q11 25 29.5 44t42.5 31q-50 25 -72 76l-151 352h61q46 0 85 -25t57 -67zM467 546q4 -8 10 -12.5t7 -4.5q-2 -1 -8 -4.5t-9 -11.5l-137 -319q-18 -42 -57 -67
t-85 -25h-61l151 352q11 25 29.5 44t42.5 31q-50 25 -72 76l-151 352h61q46 0 85 -25t57 -67z" />
    <glyph glyph-name="onequarter" unicode="&#xbc;" horiz-adv-x="1424" 
d="M572 685h-425v139h149v404q-16 -13 -36 -20t-38 -7q-11 0 -23.5 3.5t-22.5 13.5l-43 41l182 175h119v-610h134zM1151 0v166h-312v72q0 14 4 27t9 24q5 12 13 24l233 387q14 23 34.5 35t43.5 12h113v-445h94v-136h-94v-166h-138zM1151 302v214l-128 -210q0 -1 -1 -2t-1 -2
h130zM992 1341q18 42 57 67t85 25h61l-641 -1341q-20 -41 -58 -66.5t-84 -25.5h-61z" />
    <glyph glyph-name="onehalf" unicode="&#xbd;" horiz-adv-x="1424" 
d="M572 685h-425v139h149v404q-16 -13 -36 -20t-38 -7q-11 0 -23.5 3.5t-22.5 13.5l-43 41l182 175h119v-610h134zM992 1341q18 42 57 67t85 25h61l-641 -1341q-20 -41 -58 -66.5t-84 -25.5h-61zM1368 0h-496v61q0 15 6 38t22 40q77 75 141 143q27 29 54.5 59t51.5 58
t42.5 52.5t27.5 42.5q5 8 7 14.5t2 19.5q0 23 -11 40.5t-28.5 29.5t-38.5 18.5t-41 6.5q-27 0 -47.5 -9.5t-38 -20.5t-34.5 -20.5t-37 -9.5q-11 0 -19.5 3.5t-16.5 7.5l-43 21q12 28 32.5 57t49.5 52t67.5 38t86.5 15q50 0 96 -17t81 -47t55.5 -72t20.5 -93
q0 -36 -9.5 -63.5t-26.5 -55.5q-13 -21 -33.5 -47t-43.5 -53t-48 -53.5t-47 -49.5t-40 -40.5t-27 -26.5h283v-139z" />
    <glyph glyph-name="threequarters" unicode="&#xbe;" horiz-adv-x="1426" 
d="M354 678q-118 0 -188 61q-13 11 -24 25.5t-20 29t-16 27.5t-11 22l41 20q13 7 23.5 11t24.5 4q16 0 34 -8t31 -20l9 -7q16 -14 36.5 -22t46.5 -8q42 0 70.5 28.5t28.5 69.5q0 21 -7.5 39.5t-21 32.5t-31.5 22t-39 8h-66v134h66q32 0 55.5 22.5t23.5 56.5q0 32 -23.5 55.5
t-55.5 23.5h-6q-11 0 -23.5 -7t-27.5 -15.5t-31.5 -15.5t-34.5 -7h-4q-17 0 -31 6.5t-26 15.5l-40 31q46 56 100.5 91.5t117.5 35.5q44 0 83.5 -16.5t69.5 -45t48 -67.5t18 -85q0 -18 -6 -37.5t-15.5 -39t-22 -37t-24.5 -29.5q18 -14 34 -33.5t28 -42t19 -47.5t7 -49
q0 -47 -17 -88.5t-46.5 -73t-70 -50.5t-86.5 -21zM992 1341q18 42 57 67t85 25h61l-641 -1341q-20 -41 -58 -66.5t-84 -25.5h-61zM1151 0v166h-312v72q0 14 4 27t9 24q5 12 13 24l233 387q14 23 34.5 35t43.5 12h113v-445h94v-136h-94v-166h-138zM1151 302v214l-128 -210
q0 -1 -1 -2t-1 -2h130z" />
    <glyph glyph-name="questiondown" unicode="&#xbf;" horiz-adv-x="841" 
d="M844 -116q-20 -41 -52 -83.5t-80 -77t-114.5 -56.5t-154.5 -22q-99 0 -177.5 26.5t-133 77t-84 122t-29.5 161.5q0 105 72 204q17 23 43.5 50.5t56 56t59 58.5t53 59t38.5 56t16 51v78h189v-78q0 -65 -25 -118.5t-62.5 -99.5t-81 -86.5t-81 -78t-62.5 -75t-25 -77.5
q0 -35 9.5 -70.5t35.5 -63.5t71.5 -45.5t117.5 -17.5q104 0 166 46q13 10 40.5 25t68.5 15q17 0 35.5 -3.5t40.5 -11.5zM314 971q0 28 10.5 52.5t29 43t43 29t52.5 10.5t52.5 -10.5t43 -29t29 -43t10.5 -52.5t-10.5 -52.5t-29 -43t-43 -29t-52.5 -10.5t-52.5 10.5t-43 29
t-29 43t-10.5 52.5z" />
    <glyph glyph-name="Agrave" unicode="&#xc0;" horiz-adv-x="1373" 
d="M587 1433h193l625 -1433h-114q-47 0 -85 24.5t-57 67.5l-100 228h-732l-99 -228q-18 -42 -56.5 -67t-85.5 -25h-114zM665 1117l-261 -599h559l-261 599q-16 35 -19 85q-2 -25 -6.5 -46t-11.5 -39zM406 1782h114q83 0 115 -44q11 -11 122 -194h-74q-83 0 -115 44z" />
    <glyph glyph-name="Aacute" unicode="&#xc1;" horiz-adv-x="1373" 
d="M587 1433h193l625 -1433h-114q-47 0 -85 24.5t-57 67.5l-100 228h-732l-99 -228q-18 -42 -56.5 -67t-85.5 -25h-114zM665 1117l-261 -599h559l-261 599q-16 35 -19 85q-2 -25 -6.5 -46t-11.5 -39zM795 1588q-32 -44 -115 -44h-74q111 183 122 194q32 44 115 44h114z" />
    <glyph glyph-name="Acircumflex" unicode="&#xc2;" horiz-adv-x="1373" 
d="M587 1433h193l625 -1433h-114q-47 0 -85 24.5t-57 67.5l-100 228h-732l-99 -228q-18 -42 -56.5 -67t-85.5 -25h-114zM665 1117l-261 -599h559l-261 599q-16 35 -19 85q-2 -25 -6.5 -46t-11.5 -39zM582 1583q-42 -44 -115 -44h-74l162 204q32 44 115 44h27q83 0 115 -44
l162 -204h-74q-38 -1 -66 11t-49 33l-92 93q-5 5 -7.5 13t-2.5 10q-1 -3 -3 -10.5t-6 -12.5z" />
    <glyph glyph-name="Atilde" unicode="&#xc3;" horiz-adv-x="1373" 
d="M587 1433h193l625 -1433h-114q-47 0 -85 24.5t-57 67.5l-100 228h-732l-99 -228q-18 -42 -56.5 -67t-85.5 -25h-114zM665 1117l-261 -599h559l-261 599q-16 35 -19 85q-2 -25 -6.5 -46t-11.5 -39zM800 1533q-38 0 -73 14t-66.5 31t-57 31t-43.5 14q-16 0 -25.5 -8
t-15 -20t-7 -26t-1.5 -25h-130v10q0 41 12 77.5t35 63.5t56 42.5t76 15.5q34 0 67 -14t63.5 -31t58.5 -31t51 -14q18 0 29 5.5t17 14.5t7.5 22t1.5 28h130q-4 -48 -13 -83.5t-29.5 -60t-54.5 -38.5t-88 -18z" />
    <glyph glyph-name="Adieresis" unicode="&#xc4;" horiz-adv-x="1373" 
d="M587 1433h193l625 -1433h-114q-47 0 -85 24.5t-57 67.5l-100 228h-732l-99 -228q-18 -42 -56.5 -67t-85.5 -25h-114zM665 1117l-261 -599h559l-261 599q-16 35 -19 85q-2 -25 -6.5 -46t-11.5 -39zM392 1655q0 25 9.5 46.5t25.5 38t37.5 26t46.5 9.5t46.5 -9.5t38 -26
t26 -38t9.5 -46.5t-9.5 -46.5t-26 -37.5t-38 -25.5t-46.5 -9.5t-46.5 9.5t-37.5 25.5t-25.5 37.5t-9.5 46.5zM731 1655q0 25 9.5 46.5t25.5 38t37.5 26t46.5 9.5t46.5 -9.5t38 -26t26 -38t9.5 -46.5t-9.5 -46.5t-26 -37.5t-38 -25.5t-46.5 -9.5t-46.5 9.5t-37.5 25.5
t-25.5 37.5t-9.5 46.5z" />
    <glyph glyph-name="Aring" unicode="&#xc5;" horiz-adv-x="1373" 
d="M587 1433h193l625 -1433h-114q-47 0 -85 24.5t-57 67.5l-100 228h-732l-99 -228q-18 -42 -56.5 -67t-85.5 -25h-114zM665 1117l-261 -599h559l-261 599q-16 35 -19 85q-2 -25 -6.5 -46t-11.5 -39zM495 1700q0 39 14.5 72.5t40 59t59 40t72.5 14.5t72.5 -14.5t59 -40
t40 -59t14.5 -72.5t-14.5 -72.5t-40 -59t-59 -40t-72.5 -14.5t-72.5 14.5t-59 40t-40 59t-14.5 72.5zM606 1700q0 -32 21.5 -53.5t53.5 -21.5t53.5 21.5t21.5 53.5t-21.5 53.5t-53.5 21.5t-53.5 -21.5t-21.5 -53.5z" />
    <glyph glyph-name="AE" unicode="&#xc6;" horiz-adv-x="2013" 
d="M1911 0h-574q-47 0 -82.5 24.5t-50.5 67.5l-79 228h-732l-120 -228q-23 -42 -63.5 -67t-87.5 -25h-116l759 1433h1146v-198h-883l142 -413h610v-198h-543l146 -426h528v-198zM816 1117l-317 -599h559l-205 599q-11 33 -11 71q0 5 0.5 8.5t0.5 8.5q-7 -50 -27 -88z" />
    <glyph glyph-name="Ccedilla" unicode="&#xc7;" horiz-adv-x="1442" 
d="M288 717q0 -111 42 -208t114.5 -169.5t169.5 -114.5t208 -42q86 0 162 25t142 70q37 25 83 25q36 0 62.5 -12t49.5 -35l37 -37q-50 -54 -110.5 -97.5t-128.5 -73.5t-143 -46.5t-154 -16.5q-152 0 -285 57.5t-232.5 157t-157 232.5t-57.5 285q0 101 26 194.5t74 175
t114.5 148t148 114.5t175 74t194.5 26q79 0 154 -16.5t143 -46.5t128.5 -73.5t110.5 -97.5l-37 -37q-23 -23 -50 -35.5t-62 -12.5q-45 0 -83 26q-66 45 -142.5 70t-161.5 25q-111 0 -208 -42t-169.5 -114.5t-114.5 -169.5t-42 -208zM782 10h106l-1 -76q41 -3 76 -16t61 -33
t41 -45.5t15 -53.5q0 -31 -17.5 -58t-47.5 -47.5t-70 -32.5t-86 -12q-22 0 -44 6t-39 14q-20 9 -39 21v73q19 -7 40 -12q17 -5 39 -8t43 -3q36 0 62 17.5t26 41.5t-26 41.5t-62 17.5q-8 0 -16.5 -0.5t-16.5 -0.5q-19 0 -31.5 8.5t-12.5 40.5v117z" />
    <glyph glyph-name="Egrave" unicode="&#xc8;" horiz-adv-x="1165" 
d="M1060 0h-886v1433h886v-198h-688v-413h557v-198h-557v-426h688v-198zM353 1785h114q83 0 115 -44q11 -11 122 -194h-74q-83 0 -115 44z" />
    <glyph glyph-name="Eacute" unicode="&#xc9;" horiz-adv-x="1165" 
d="M1060 0h-886v1433h886v-198h-688v-413h557v-198h-557v-426h688v-198zM666 1588q-32 -44 -115 -44h-74q111 183 122 194q32 44 115 44h114z" />
    <glyph glyph-name="Ecircumflex" unicode="&#xca;" horiz-adv-x="1165" 
d="M1060 0h-886v1433h886v-198h-688v-413h557v-198h-557v-426h688v-198zM520 1583q-42 -44 -115 -44h-74l162 204q32 44 115 44h27q83 0 115 -44l162 -204h-74q-38 -1 -66 11t-49 33l-92 93q-5 5 -7.5 13t-2.5 10q-1 -3 -3 -10.5t-6 -12.5z" />
    <glyph glyph-name="Edieresis" unicode="&#xcb;" horiz-adv-x="1165" 
d="M1060 0h-886v1433h886v-198h-688v-413h557v-198h-557v-426h688v-198zM333 1655q0 25 9.5 46.5t25.5 38t37.5 26t46.5 9.5t46.5 -9.5t38 -26t26 -38t9.5 -46.5t-9.5 -46.5t-26 -37.5t-38 -25.5t-46.5 -9.5t-46.5 9.5t-37.5 25.5t-25.5 37.5t-9.5 46.5zM672 1655
q0 25 9.5 46.5t25.5 38t37.5 26t46.5 9.5t46.5 -9.5t38 -26t26 -38t9.5 -46.5t-9.5 -46.5t-26 -37.5t-38 -25.5t-46.5 -9.5t-46.5 9.5t-37.5 25.5t-25.5 37.5t-9.5 46.5z" />
    <glyph glyph-name="Igrave" unicode="&#xcc;" horiz-adv-x="617" 
d="M408 0h-198v1433h198v-1433zM43 1782h114q83 0 115 -44q11 -11 122 -194h-74q-83 0 -115 44z" />
    <glyph glyph-name="Iacute" unicode="&#xcd;" horiz-adv-x="617" 
d="M408 0h-198v1433h198v-1433zM412 1588q-32 -44 -115 -44h-74q111 183 122 194q32 44 115 44h114z" />
    <glyph glyph-name="Icircumflex" unicode="&#xce;" horiz-adv-x="617" 
d="M408 0h-198v1433h198v-1433zM211 1583q-42 -44 -115 -44h-74l162 204q32 44 115 44h27q83 0 115 -44l162 -204h-74q-38 -1 -66 11t-49 33l-92 93q-5 5 -7.5 13t-2.5 10q-1 -3 -3 -10.5t-6 -12.5z" />
    <glyph glyph-name="Idieresis" unicode="&#xcf;" horiz-adv-x="617" 
d="M408 0h-198v1433h198v-1433zM19 1655q0 25 9.5 46.5t25.5 38t37.5 26t46.5 9.5t46.5 -9.5t38 -26t26 -38t9.5 -46.5t-9.5 -46.5t-26 -37.5t-38 -25.5t-46.5 -9.5t-46.5 9.5t-37.5 25.5t-25.5 37.5t-9.5 46.5zM358 1655q0 25 9.5 46.5t25.5 38t37.5 26t46.5 9.5t46.5 -9.5
t38 -26t26 -38t9.5 -46.5t-9.5 -46.5t-26 -37.5t-38 -25.5t-46.5 -9.5t-46.5 9.5t-37.5 25.5t-25.5 37.5t-9.5 46.5z" />
    <glyph glyph-name="Eth" unicode="&#xd0;" horiz-adv-x="1519" 
d="M174 0v1433h538q99 0 190.5 -25.5t171 -72.5t145 -112.5t112.5 -145t72.5 -171t25.5 -190.5t-25.5 -190.5t-72.5 -171t-112.5 -145t-145 -112t-171 -72t-190.5 -25.5h-538zM712 198q107 0 201.5 40.5t165 111t111.5 165t41 201.5t-41 201.5t-111.5 165t-165 111.5
t-201.5 41h-340v-1037h340zM100 788h554v-148h-554v148z" />
    <glyph glyph-name="Ntilde" unicode="&#xd1;" horiz-adv-x="1559" 
d="M1384 0h-161l-819 1119q-8 11 -13.5 24.5t-9.5 27.5q-4 15 -7 32v-1203h-198v1433h141q48 0 84 -14t57 -43l695 -957q27 -39 33 -99v1113h198v-1433zM898 1533q-38 0 -73 14t-66.5 31t-57 31t-43.5 14q-16 0 -25.5 -8t-15 -20t-7 -26t-1.5 -25h-130v10q0 41 12 77.5
t35 63.5t56 42.5t76 15.5q34 0 67 -14t63.5 -31t58.5 -31t51 -14q18 0 29 5.5t17 14.5t7.5 22t1.5 28h130q-4 -48 -13 -83.5t-29.5 -60t-54.5 -38.5t-88 -18z" />
    <glyph glyph-name="Ograve" unicode="&#xd2;" horiz-adv-x="1648" 
d="M92 717q0 101 26 194.5t74 175t114.5 148t148 114.5t175 74t194.5 26t194.5 -26t175 -74t148 -114.5t114.5 -148t74 -175t26 -194.5t-26 -194.5t-74 -175t-114.5 -148t-148 -114.5t-175 -74t-194.5 -26q-152 0 -285 57.5t-232.5 157t-157 232.5t-57.5 285zM290 717
q0 -111 42 -208t114.5 -169.5t169.5 -114.5t208 -42t208 42t169.5 114.5t114.5 169.5t42 208t-42 208t-114.5 169.5t-169.5 114.5t-208 42t-208 -42t-169.5 -114.5t-114.5 -169.5t-42 -208zM548 1782h114q83 0 115 -44q11 -11 122 -194h-74q-83 0 -115 44z" />
    <glyph glyph-name="Oacute" unicode="&#xd3;" horiz-adv-x="1648" 
d="M92 717q0 101 26 194.5t74 175t114.5 148t148 114.5t175 74t194.5 26t194.5 -26t175 -74t148 -114.5t114.5 -148t74 -175t26 -194.5t-26 -194.5t-74 -175t-114.5 -148t-148 -114.5t-175 -74t-194.5 -26q-152 0 -285 57.5t-232.5 157t-157 232.5t-57.5 285zM290 717
q0 -111 42 -208t114.5 -169.5t169.5 -114.5t208 -42t208 42t169.5 114.5t114.5 169.5t42 208t-42 208t-114.5 169.5t-169.5 114.5t-208 42t-208 -42t-169.5 -114.5t-114.5 -169.5t-42 -208zM937 1588q-32 -44 -115 -44h-74q111 183 122 194q32 44 115 44h114z" />
    <glyph glyph-name="Ocircumflex" unicode="&#xd4;" horiz-adv-x="1648" 
d="M92 717q0 101 26 194.5t74 175t114.5 148t148 114.5t175 74t194.5 26t194.5 -26t175 -74t148 -114.5t114.5 -148t74 -175t26 -194.5t-26 -194.5t-74 -175t-114.5 -148t-148 -114.5t-175 -74t-194.5 -26q-152 0 -285 57.5t-232.5 157t-157 232.5t-57.5 285zM290 717
q0 -111 42 -208t114.5 -169.5t169.5 -114.5t208 -42t208 42t169.5 114.5t114.5 169.5t42 208t-42 208t-114.5 169.5t-169.5 114.5t-208 42t-208 -42t-169.5 -114.5t-114.5 -169.5t-42 -208zM724 1583q-42 -44 -115 -44h-74l162 204q32 44 115 44h27q83 0 115 -44l162 -204
h-74q-38 -1 -66 11t-49 33l-92 93q-5 5 -7.5 13t-2.5 10q-1 -3 -3 -10.5t-6 -12.5z" />
    <glyph glyph-name="Otilde" unicode="&#xd5;" horiz-adv-x="1648" 
d="M92 717q0 101 26 194.5t74 175t114.5 148t148 114.5t175 74t194.5 26t194.5 -26t175 -74t148 -114.5t114.5 -148t74 -175t26 -194.5t-26 -194.5t-74 -175t-114.5 -148t-148 -114.5t-175 -74t-194.5 -26q-152 0 -285 57.5t-232.5 157t-157 232.5t-57.5 285zM290 717
q0 -111 42 -208t114.5 -169.5t169.5 -114.5t208 -42t208 42t169.5 114.5t114.5 169.5t42 208t-42 208t-114.5 169.5t-169.5 114.5t-208 42t-208 -42t-169.5 -114.5t-114.5 -169.5t-42 -208zM943 1533q-38 0 -73 14t-66.5 31t-57 31t-43.5 14q-16 0 -25.5 -8t-15 -20t-7 -26
t-1.5 -25h-130v10q0 41 12 77.5t35 63.5t56 42.5t76 15.5q34 0 67 -14t63.5 -31t58.5 -31t51 -14q18 0 29 5.5t17 14.5t7.5 22t1.5 28h130q-4 -48 -13 -83.5t-29.5 -60t-54.5 -38.5t-88 -18z" />
    <glyph glyph-name="Odieresis" unicode="&#xd6;" horiz-adv-x="1648" 
d="M92 717q0 101 26 194.5t74 175t114.5 148t148 114.5t175 74t194.5 26t194.5 -26t175 -74t148 -114.5t114.5 -148t74 -175t26 -194.5t-26 -194.5t-74 -175t-114.5 -148t-148 -114.5t-175 -74t-194.5 -26q-152 0 -285 57.5t-232.5 157t-157 232.5t-57.5 285zM290 717
q0 -111 42 -208t114.5 -169.5t169.5 -114.5t208 -42t208 42t169.5 114.5t114.5 169.5t42 208t-42 208t-114.5 169.5t-169.5 114.5t-208 42t-208 -42t-169.5 -114.5t-114.5 -169.5t-42 -208zM535 1655q0 25 9.5 46.5t25.5 38t37.5 26t46.5 9.5t46.5 -9.5t38 -26t26 -38
t9.5 -46.5t-9.5 -46.5t-26 -37.5t-38 -25.5t-46.5 -9.5t-46.5 9.5t-37.5 25.5t-25.5 37.5t-9.5 46.5zM874 1655q0 25 9.5 46.5t25.5 38t37.5 26t46.5 9.5t46.5 -9.5t38 -26t26 -38t9.5 -46.5t-9.5 -46.5t-26 -37.5t-38 -25.5t-46.5 -9.5t-46.5 9.5t-37.5 25.5t-25.5 37.5
t-9.5 46.5z" />
    <glyph glyph-name="multiply" unicode="&#xd7;" horiz-adv-x="1210" 
d="M304 242l-33 -30q-16 -14 -36.5 -19.5t-42.5 -5.5q-32 0 -59 12.5t-48 33.5l-35 35l407 406q-96 95 -162 161t-110.5 110t-69.5 69l-38.5 38.5t-18 18.5t-7.5 9l35 35q21 21 48 33.5t59 12.5q22 0 42.5 -5.5t36.5 -19.5l33 -30l292 -292l293 292l33 30q16 14 36.5 19.5
t42.5 5.5q32 0 59 -12.5t48 -33.5l35 -35l-407 -406q95 -95 161.5 -161t111 -110t69.5 -69l38.5 -38.5t18 -18.5t7.5 -9l-35 -35q-21 -21 -48 -33.5t-59 -12.5q-22 0 -42.5 5.5t-36.5 19.5l-33 30l-292 292z" />
    <glyph glyph-name="Oslash" unicode="&#xd8;" horiz-adv-x="1648" 
d="M92 717q0 101 26 194.5t74 175t114.5 148t148 114.5t175 74t194.5 26q107 0 204.5 -29t182.5 -82l80 110q19 27 35.5 38.5t48.5 11.5h100l-169 -231q57 -50 103.5 -111.5t79 -131.5t50 -147.5t17.5 -159.5q0 -101 -26 -194.5t-74 -175t-114.5 -148t-148 -114.5t-175 -74
t-194.5 -26q-106 0 -201.5 28t-179.5 79l-107 -146q-22 -29 -51 -42t-58 -13h-78l198 270q-59 51 -106 113t-80 132.5t-51 149t-18 161.5zM290 717q0 -118 47 -220t128 -176l628 857q-60 35 -127.5 54t-141.5 19q-111 0 -208 -42t-169.5 -114.5t-114.5 -169.5t-42 -208z
M824 183q111 0 208 42t169.5 114.5t114.5 169.5t42 208q0 116 -45.5 216.5t-124.5 173.5l-628 -855q59 -33 125.5 -51t138.5 -18z" />
    <glyph glyph-name="Ugrave" unicode="&#xd9;" horiz-adv-x="1454" 
d="M353 560q0 -78 29.5 -147t81 -120.5t120.5 -81t147 -29.5t147 29.5t120.5 81t81 120.5t29.5 147v873h199v-873q0 -80 -20.5 -153.5t-58 -137.5t-90.5 -116.5t-117 -90t-137.5 -58t-153.5 -20.5q-79 0 -152.5 20.5t-137.5 58t-117 90t-90.5 116.5t-58 138t-20.5 153v873
h198v-873zM481 1782h114q83 0 115 -44q11 -11 122 -194h-74q-83 0 -115 44z" />
    <glyph glyph-name="Uacute" unicode="&#xda;" horiz-adv-x="1454" 
d="M353 560q0 -78 29.5 -147t81 -120.5t120.5 -81t147 -29.5t147 29.5t120.5 81t81 120.5t29.5 147v873h199v-873q0 -80 -20.5 -153.5t-58 -137.5t-90.5 -116.5t-117 -90t-137.5 -58t-153.5 -20.5q-79 0 -152.5 20.5t-137.5 58t-117 90t-90.5 116.5t-58 138t-20.5 153v873
h198v-873zM840 1588q-32 -44 -115 -44h-74q111 183 122 194q32 44 115 44h114z" />
    <glyph glyph-name="Ucircumflex" unicode="&#xdb;" horiz-adv-x="1454" 
d="M353 560q0 -78 29.5 -147t81 -120.5t120.5 -81t147 -29.5t147 29.5t120.5 81t81 120.5t29.5 147v873h199v-873q0 -80 -20.5 -153.5t-58 -137.5t-90.5 -116.5t-117 -90t-137.5 -58t-153.5 -20.5q-79 0 -152.5 20.5t-137.5 58t-117 90t-90.5 116.5t-58 138t-20.5 153v873
h198v-873zM625 1583q-42 -44 -115 -44h-74l162 204q32 44 115 44h27q83 0 115 -44l162 -204h-74q-38 -1 -66 11t-49 33l-92 93q-5 5 -7.5 13t-2.5 10q-1 -3 -3 -10.5t-6 -12.5z" />
    <glyph glyph-name="Udieresis" unicode="&#xdc;" horiz-adv-x="1454" 
d="M353 560q0 -78 29.5 -147t81 -120.5t120.5 -81t147 -29.5t147 29.5t120.5 81t81 120.5t29.5 147v873h199v-873q0 -80 -20.5 -153.5t-58 -137.5t-90.5 -116.5t-117 -90t-137.5 -58t-153.5 -20.5q-79 0 -152.5 20.5t-137.5 58t-117 90t-90.5 116.5t-58 138t-20.5 153v873
h198v-873zM438 1655q0 25 9.5 46.5t25.5 38t37.5 26t46.5 9.5t46.5 -9.5t38 -26t26 -38t9.5 -46.5t-9.5 -46.5t-26 -37.5t-38 -25.5t-46.5 -9.5t-46.5 9.5t-37.5 25.5t-25.5 37.5t-9.5 46.5zM777 1655q0 25 9.5 46.5t25.5 38t37.5 26t46.5 9.5t46.5 -9.5t38 -26t26 -38
t9.5 -46.5t-9.5 -46.5t-26 -37.5t-38 -25.5t-46.5 -9.5t-46.5 9.5t-37.5 25.5t-25.5 37.5t-9.5 46.5z" />
    <glyph glyph-name="Yacute" unicode="&#xdd;" horiz-adv-x="1336" 
d="M769 0h-198v606q0 22 -4 39t-11.5 32.5t-18.5 31.5t-25 35l-509 689h136q58 0 102.5 -22.5t73.5 -67.5l339 -458q7 -11 10.5 -25.5t5.5 -23.5q0 8 4 23t12 26l339 458q29 45 73.5 67.5t102.5 22.5h136l-509 -689q-14 -19 -25 -35t-18.5 -31.5t-11.5 -32.5t-4 -39v-606z
M762 1588q-32 -44 -115 -44h-74q111 183 122 194q32 44 115 44h114z" />
    <glyph glyph-name="Thorn" unicode="&#xde;" horiz-adv-x="1225" 
d="M194 1433h198v-250h314q93 0 175 -35.5t143 -96.5t96.5 -143t35.5 -175t-35.5 -175t-96.5 -143t-143 -96.5t-175 -35.5h-314v-283h-198v1433zM706 481q52 0 98 19.5t80.5 54t54 80t19.5 98.5q0 52 -19.5 98t-54 80.5t-80.5 54t-98 19.5h-314v-504h314z" />
    <glyph glyph-name="germandbls" unicode="&#xdf;" horiz-adv-x="1210" 
d="M376 0h-190v861q0 69 8 139.5t26.5 136t50 122t78.5 98.5t111 66t149 24q116 0 185.5 -28.5t102.5 -72.5t34.5 -97t-17.5 -102q-23 -62 -60 -123t-72 -112.5t-60.5 -88.5t-25.5 -52q0 -27 9.5 -45.5t27.5 -31.5t44 -23t59 -21q60 -20 116 -46t99.5 -64t69.5 -91.5
t26 -127.5q0 -68 -26.5 -128.5t-74.5 -107t-114 -73.5t-145 -27q-54 0 -105.5 14.5t-96.5 42.5t-81.5 67t-61.5 89l54 27q20 10 39.5 16.5t39.5 6.5q26 0 49.5 -10t56.5 -33q23 -16 50 -23t56 -7q31 0 61.5 9.5t54.5 28t39 45.5t15 63q0 28 -8.5 48t-29.5 36.5t-56.5 32
t-88.5 33.5q-55 19 -104 42t-85.5 57t-57.5 82.5t-21 118.5q0 38 19.5 79t48.5 82t62 81t59.5 76t42.5 66.5t10 53t-38 35.5t-101 13q-54 0 -97 -18t-73.5 -63t-46.5 -121.5t-16 -192.5v-862z" />
    <glyph glyph-name="agrave" unicode="&#xe0;" horiz-adv-x="1079" 
d="M169 896q10 15 24 30q12 13 30 28.5t42 31.5q60 38 129 58.5t154 20.5q86 0 150 -21t109.5 -58.5t74 -88.5t45 -111.5t22.5 -127t6 -134.5v-524h-162q-13 16 -21.5 38.5t-8.5 45.5v27q-28 -28 -67.5 -51t-82 -39.5t-85.5 -26t-78 -9.5q-79 0 -144.5 22.5t-112 64t-72 100
t-25.5 130.5q0 78 29 140.5t88.5 107t150 68.5t213.5 24q34 0 65.5 -2t56.5 -4t41.5 -4t20.5 -3q-4 74 -22.5 122t-47.5 75.5t-66 38t-77 10.5q-49 0 -77 -8.5t-49.5 -19t-42.5 -19t-56 -8.5q-27 0 -50.5 9t-46.5 26zM449 175q35 0 75 7t81 19.5t81.5 30t77.5 39.5v176
q-3 1 -20.5 1.5t-43 1.5t-57 1.5t-64.5 0.5q-62 0 -115.5 -8t-93 -26t-62 -46.5t-22.5 -69.5q0 -35 12.5 -59t34.5 -39t52 -22t64 -7zM241 1449h114q83 0 115 -44q11 -12 142 -244h-74q-83 0 -115 44z" />
    <glyph glyph-name="aacute" unicode="&#xe1;" horiz-adv-x="1079" 
d="M169 896q10 15 24 30q12 13 30 28.5t42 31.5q60 38 129 58.5t154 20.5q86 0 150 -21t109.5 -58.5t74 -88.5t45 -111.5t22.5 -127t6 -134.5v-524h-162q-13 16 -21.5 38.5t-8.5 45.5v27q-28 -28 -67.5 -51t-82 -39.5t-85.5 -26t-78 -9.5q-79 0 -144.5 22.5t-112 64t-72 100
t-25.5 130.5q0 78 29 140.5t88.5 107t150 68.5t213.5 24q34 0 65.5 -2t56.5 -4t41.5 -4t20.5 -3q-4 74 -22.5 122t-47.5 75.5t-66 38t-77 10.5q-49 0 -77 -8.5t-49.5 -19t-42.5 -19t-56 -8.5q-27 0 -50.5 9t-46.5 26zM449 175q35 0 75 7t81 19.5t81.5 30t77.5 39.5v176
q-3 1 -20.5 1.5t-43 1.5t-57 1.5t-64.5 0.5q-62 0 -115.5 -8t-93 -26t-62 -46.5t-22.5 -69.5q0 -35 12.5 -59t34.5 -39t52 -22t64 -7zM652 1205q-33 -44 -115 -44h-74q130 232 142 244q32 44 115 44h114z" />
    <glyph glyph-name="acircumflex" unicode="&#xe2;" horiz-adv-x="1079" 
d="M169 896q10 15 24 30q12 13 30 28.5t42 31.5q60 38 129 58.5t154 20.5q86 0 150 -21t109.5 -58.5t74 -88.5t45 -111.5t22.5 -127t6 -134.5v-524h-162q-13 16 -21.5 38.5t-8.5 45.5v27q-28 -28 -67.5 -51t-82 -39.5t-85.5 -26t-78 -9.5q-79 0 -144.5 22.5t-112 64t-72 100
t-25.5 130.5q0 78 29 140.5t88.5 107t150 68.5t213.5 24q34 0 65.5 -2t56.5 -4t41.5 -4t20.5 -3q-4 74 -22.5 122t-47.5 75.5t-66 38t-77 10.5q-49 0 -77 -8.5t-49.5 -19t-42.5 -19t-56 -8.5q-27 0 -50.5 9t-46.5 26zM449 175q35 0 75 7t81 19.5t81.5 30t77.5 39.5v176
q-3 1 -20.5 1.5t-43 1.5t-57 1.5t-64.5 0.5q-62 0 -115.5 -8t-93 -26t-62 -46.5t-22.5 -69.5q0 -35 12.5 -59t34.5 -39t52 -22t64 -7zM452 1205q-32 -44 -115 -44h-74q76 117 116.5 178t45.5 66q32 44 115 44h27q83 0 115 -44q5 -5 45.5 -66t116.5 -178h-74q-83 0 -115 44
l-92 113q-5 5 -7.5 13t-2.5 10q-1 -3 -3 -10.5t-6 -12.5z" />
    <glyph glyph-name="atilde" unicode="&#xe3;" horiz-adv-x="1079" 
d="M169 896q10 15 24 30q12 13 30 28.5t42 31.5q60 38 129 58.5t154 20.5q86 0 150 -21t109.5 -58.5t74 -88.5t45 -111.5t22.5 -127t6 -134.5v-524h-162q-13 16 -21.5 38.5t-8.5 45.5v27q-28 -28 -67.5 -51t-82 -39.5t-85.5 -26t-78 -9.5q-79 0 -144.5 22.5t-112 64t-72 100
t-25.5 130.5q0 78 29 140.5t88.5 107t150 68.5t213.5 24q34 0 65.5 -2t56.5 -4t41.5 -4t20.5 -3q-4 74 -22.5 122t-47.5 75.5t-66 38t-77 10.5q-49 0 -77 -8.5t-49.5 -19t-42.5 -19t-56 -8.5q-27 0 -50.5 9t-46.5 26zM449 175q35 0 75 7t81 19.5t81.5 30t77.5 39.5v176
q-3 1 -20.5 1.5t-43 1.5t-57 1.5t-64.5 0.5q-62 0 -115.5 -8t-93 -26t-62 -46.5t-22.5 -69.5q0 -35 12.5 -59t34.5 -39t52 -22t64 -7zM658 1201q-38 0 -73 14t-66.5 31t-57 31t-43.5 14q-16 0 -25.5 -9.5t-15 -23.5t-7 -29.5t-1.5 -26.5h-130v10q0 42 12 79.5t35 66.5t56 46
t76 17q34 0 67 -14t63.5 -31t58.5 -31t51 -14q18 0 29 7t17 18t7.5 25.5t1.5 29.5h130q-4 -48 -13 -87t-29.5 -66t-54.5 -42t-88 -15z" />
    <glyph glyph-name="adieresis" unicode="&#xe4;" horiz-adv-x="1079" 
d="M169 896q10 15 24 30q12 13 30 28.5t42 31.5q60 38 129 58.5t154 20.5q86 0 150 -21t109.5 -58.5t74 -88.5t45 -111.5t22.5 -127t6 -134.5v-524h-162q-13 16 -21.5 38.5t-8.5 45.5v27q-28 -28 -67.5 -51t-82 -39.5t-85.5 -26t-78 -9.5q-79 0 -144.5 22.5t-112 64t-72 100
t-25.5 130.5q0 78 29 140.5t88.5 107t150 68.5t213.5 24q34 0 65.5 -2t56.5 -4t41.5 -4t20.5 -3q-4 74 -22.5 122t-47.5 75.5t-66 38t-77 10.5q-49 0 -77 -8.5t-49.5 -19t-42.5 -19t-56 -8.5q-27 0 -50.5 9t-46.5 26zM449 175q35 0 75 7t81 19.5t81.5 30t77.5 39.5v176
q-3 1 -20.5 1.5t-43 1.5t-57 1.5t-64.5 0.5q-62 0 -115.5 -8t-93 -26t-62 -46.5t-22.5 -69.5q0 -35 12.5 -59t34.5 -39t52 -22t64 -7zM260 1290q0 25 9.5 46.5t25.5 38t37.5 26t46.5 9.5t46.5 -9.5t38 -26t26 -38t9.5 -46.5t-9.5 -46.5t-26 -37.5t-38 -25.5t-46.5 -9.5
t-46.5 9.5t-37.5 25.5t-25.5 37.5t-9.5 46.5zM599 1290q0 25 9.5 46.5t25.5 38t37.5 26t46.5 9.5t46.5 -9.5t38 -26t26 -38t9.5 -46.5t-9.5 -46.5t-26 -37.5t-38 -25.5t-46.5 -9.5t-46.5 9.5t-37.5 25.5t-25.5 37.5t-9.5 46.5z" />
    <glyph glyph-name="aring" unicode="&#xe5;" horiz-adv-x="1079" 
d="M169 896q10 15 24 30q12 13 30 28.5t42 31.5q60 38 129 58.5t154 20.5q86 0 150 -21t109.5 -58.5t74 -88.5t45 -111.5t22.5 -127t6 -134.5v-524h-162q-13 16 -21.5 38.5t-8.5 45.5v27q-28 -28 -67.5 -51t-82 -39.5t-85.5 -26t-78 -9.5q-79 0 -144.5 22.5t-112 64t-72 100
t-25.5 130.5q0 78 29 140.5t88.5 107t150 68.5t213.5 24q34 0 65.5 -2t56.5 -4t41.5 -4t20.5 -3q-4 74 -22.5 122t-47.5 75.5t-66 38t-77 10.5q-49 0 -77 -8.5t-49.5 -19t-42.5 -19t-56 -8.5q-27 0 -50.5 9t-46.5 26zM449 175q35 0 75 7t81 19.5t81.5 30t77.5 39.5v176
q-3 1 -20.5 1.5t-43 1.5t-57 1.5t-64.5 0.5q-62 0 -115.5 -8t-93 -26t-62 -46.5t-22.5 -69.5q0 -35 12.5 -59t34.5 -39t52 -22t64 -7zM353 1317q0 39 14.5 72.5t40 59t59 40t72.5 14.5t72.5 -14.5t59 -40t40 -59t14.5 -72.5t-14.5 -72.5t-40 -59t-59 -40t-72.5 -14.5
t-72.5 14.5t-59 40t-40 59t-14.5 72.5zM464 1317q0 -32 21.5 -53.5t53.5 -21.5t53.5 21.5t21.5 53.5t-21.5 53.5t-53.5 21.5t-53.5 -21.5t-21.5 -53.5z" />
    <glyph glyph-name="ae" unicode="&#xe6;" horiz-adv-x="1875" 
d="M1802 614q0 -35 -13.5 -62.5t-33.5 -47t-44.5 -30t-46.5 -10.5h-622q-26 0 -48 -7.5t-22 -27.5l1 -6q15 -53 47.5 -98t76.5 -77.5t97.5 -51t111.5 -18.5q46 0 88.5 11.5t80.5 32.5q20 11 39 16t42 5q32 0 58 -12t49 -35l38 -38q-75 -80 -176 -126.5t-219 -46.5
q-107 0 -201.5 38.5t-166.5 106.5q-7 7 -14.5 18.5t-9.5 14.5q1 -3 3.5 -13t2.5 -20q0 -5 -1 -9.5t-5 -6.5l-9 -5q-40 -23 -90 -45t-107.5 -39.5t-120.5 -28.5t-129 -11q-79 0 -146 22.5t-115.5 64t-75.5 100t-27 130.5q0 78 30.5 140.5t92 107t153.5 68.5t215 24
q30 0 60.5 -1.5t57 -3.5t46.5 -4t29 -3q1 0 2 2q2 4 2 17q-6 67 -26.5 111t-50.5 69.5t-67 35.5t-77 10q-49 0 -77 -8.5t-49.5 -19t-42.5 -19t-56 -8.5q-54 0 -97 35l-57 41q10 15 24 30q12 13 30 28.5t42 31.5q60 38 129 58.5t154 20.5q128 0 212.5 -44.5t128.5 -119.5v-2
q0 -1 0.5 -1.5t0.5 -2.5q0 -4 -1 -7l-8 -20l26 33q73 79 173 121.5t213 42.5q93 0 173.5 -31t144 -85t108 -128t66.5 -161q3 -11 3.5 -23t0.5 -23zM457 175q43 0 91.5 10.5t96 27t92.5 37.5t82 42q-15 32 -25.5 65.5t-17.5 68.5l-4 11q-3 1 -20.5 3.5t-43 5t-57 4.5t-64.5 2
q-62 0 -117 -8t-96.5 -26t-65.5 -46.5t-24 -69.5q0 -35 14 -59t38 -39t55.5 -22t65.5 -7zM1039 657h558q-20 47 -47.5 86.5t-63.5 68t-81 44.5t-99 16q-64 0 -117.5 -18.5t-96 -51.5t-72.5 -78.5t-46 -99.5q8 11 24 22t41 11z" />
    <glyph glyph-name="ccedilla" unicode="&#xe7;" horiz-adv-x="1027" 
d="M614 872q-72 0 -135 -27.5t-110 -74.5t-74.5 -110t-27.5 -135t27.5 -135t74.5 -110t110 -74.5t135 -27.5q45 0 88.5 11t81.5 33q37 21 80 21q32 0 58 -12t49 -35l38 -38q-75 -80 -176 -126.5t-219 -46.5q-111 0 -209.5 42.5t-172 116t-116 172t-42.5 209.5t42.5 209.5
t116 172t172 116t209.5 42.5q118 0 219 -46.5t176 -126.5l-38 -38q-24 -24 -51 -35.5t-62 -11.5q-40 0 -74 21q-38 22 -81.5 32t-88.5 12zM565 10h106l-1 -76q41 -3 76 -16t61 -33t41 -45.5t15 -53.5q0 -31 -17.5 -58t-47.5 -47.5t-70 -32.5t-86 -12q-22 0 -44 6t-39 14
q-20 9 -39 21v73q19 -7 40 -12q17 -5 39 -8t43 -3q36 0 62 17.5t26 41.5t-26 41.5t-62 17.5q-8 0 -16.5 -0.5t-16.5 -0.5q-19 0 -31.5 8.5t-12.5 40.5v117z" />
    <glyph glyph-name="egrave" unicode="&#xe8;" horiz-adv-x="1211" 
d="M1138 614q0 -35 -13.5 -62.5t-33.5 -47t-44.5 -30t-46.5 -10.5h-730q9 -61 40 -113t77 -90.5t104 -60.5t121 -22q46 0 88.5 11.5t80.5 32.5q20 11 39 16t42 5q32 0 58 -12t49 -35l38 -38q-75 -80 -176 -126.5t-219 -46.5q-111 0 -209.5 42.5t-172 116t-116 172
t-42.5 209.5t42.5 209.5t116 172t172 116t209.5 42.5q93 0 178 -31t154 -85t118.5 -128t71.5 -161q3 -11 3 -23t1 -23zM345 657h588q-20 47 -52 86.5t-73.5 68t-91.5 44.5t-104 16q-59 0 -112.5 -18.5t-97 -51.5t-75 -78.5t-47.5 -99.5q8 11 24 22t41 11zM329 1449h114
q83 0 115 -44q11 -12 142 -244h-74q-83 0 -115 44z" />
    <glyph glyph-name="eacute" unicode="&#xe9;" horiz-adv-x="1211" 
d="M1138 614q0 -35 -13.5 -62.5t-33.5 -47t-44.5 -30t-46.5 -10.5h-730q9 -61 40 -113t77 -90.5t104 -60.5t121 -22q46 0 88.5 11.5t80.5 32.5q20 11 39 16t42 5q32 0 58 -12t49 -35l38 -38q-75 -80 -176 -126.5t-219 -46.5q-111 0 -209.5 42.5t-172 116t-116 172
t-42.5 209.5t42.5 209.5t116 172t172 116t209.5 42.5q93 0 178 -31t154 -85t118.5 -128t71.5 -161q3 -11 3 -23t1 -23zM345 657h588q-20 47 -52 86.5t-73.5 68t-91.5 44.5t-104 16q-59 0 -112.5 -18.5t-97 -51.5t-75 -78.5t-47.5 -99.5q8 11 24 22t41 11zM715 1205
q-33 -44 -115 -44h-74q130 232 142 244q32 44 115 44h114z" />
    <glyph glyph-name="ecircumflex" unicode="&#xea;" horiz-adv-x="1211" 
d="M1138 614q0 -35 -13.5 -62.5t-33.5 -47t-44.5 -30t-46.5 -10.5h-730q9 -61 40 -113t77 -90.5t104 -60.5t121 -22q46 0 88.5 11.5t80.5 32.5q20 11 39 16t42 5q32 0 58 -12t49 -35l38 -38q-75 -80 -176 -126.5t-219 -46.5q-111 0 -209.5 42.5t-172 116t-116 172
t-42.5 209.5t42.5 209.5t116 172t172 116t209.5 42.5q93 0 178 -31t154 -85t118.5 -128t71.5 -161q3 -11 3 -23t1 -23zM345 657h588q-20 47 -52 86.5t-73.5 68t-91.5 44.5t-104 16q-59 0 -112.5 -18.5t-97 -51.5t-75 -78.5t-47.5 -99.5q8 11 24 22t41 11zM514 1205
q-32 -44 -115 -44h-74q76 117 116.5 178t45.5 66q32 44 115 44h27q83 0 115 -44q5 -5 45.5 -66t116.5 -178h-74q-83 0 -115 44l-92 113q-5 5 -7.5 13t-2.5 10q-1 -3 -3 -10.5t-6 -12.5z" />
    <glyph glyph-name="edieresis" unicode="&#xeb;" horiz-adv-x="1211" 
d="M1138 614q0 -35 -13.5 -62.5t-33.5 -47t-44.5 -30t-46.5 -10.5h-730q9 -61 40 -113t77 -90.5t104 -60.5t121 -22q46 0 88.5 11.5t80.5 32.5q20 11 39 16t42 5q32 0 58 -12t49 -35l38 -38q-75 -80 -176 -126.5t-219 -46.5q-111 0 -209.5 42.5t-172 116t-116 172
t-42.5 209.5t42.5 209.5t116 172t172 116t209.5 42.5q93 0 178 -31t154 -85t118.5 -128t71.5 -161q3 -11 3 -23t1 -23zM345 657h588q-20 47 -52 86.5t-73.5 68t-91.5 44.5t-104 16q-59 0 -112.5 -18.5t-97 -51.5t-75 -78.5t-47.5 -99.5q8 11 24 22t41 11zM327 1290
q0 25 9.5 46.5t25.5 38t37.5 26t46.5 9.5t46.5 -9.5t38 -26t26 -38t9.5 -46.5t-9.5 -46.5t-26 -37.5t-38 -25.5t-46.5 -9.5t-46.5 9.5t-37.5 25.5t-25.5 37.5t-9.5 46.5zM666 1290q0 25 9.5 46.5t25.5 38t37.5 26t46.5 9.5t46.5 -9.5t38 -26t26 -38t9.5 -46.5t-9.5 -46.5
t-26 -37.5t-38 -25.5t-46.5 -9.5t-46.5 9.5t-37.5 25.5t-25.5 37.5t-9.5 46.5z" />
    <glyph glyph-name="igrave" unicode="&#xec;" horiz-adv-x="532" 
d="M364 1032v-1032h-198v1032h198zM-24 1449h114q83 0 115 -44q11 -12 142 -244h-74q-83 0 -115 44z" />
    <glyph glyph-name="iacute" unicode="&#xed;" horiz-adv-x="532" 
d="M364 1032v-1032h-198v1032h198zM358 1205q-33 -44 -115 -44h-74q130 232 142 244q32 44 115 44h114z" />
    <glyph glyph-name="icircumflex" unicode="&#xee;" horiz-adv-x="532" 
d="M364 1032v-1032h-198v1032h198zM165 1205q-32 -44 -115 -44h-74q76 117 116.5 178t45.5 66q32 44 115 44h27q83 0 115 -44q5 -5 45.5 -66t116.5 -178h-74q-83 0 -115 44l-92 113q-5 5 -7.5 13t-2.5 10q-1 -3 -3 -10.5t-6 -12.5z" />
    <glyph glyph-name="idieresis" unicode="&#xef;" horiz-adv-x="532" 
d="M364 1032v-1032h-198v1032h198zM-23 1290q0 25 9.5 46.5t25.5 38t37.5 26t46.5 9.5t46.5 -9.5t38 -26t26 -38t9.5 -46.5t-9.5 -46.5t-26 -37.5t-38 -25.5t-46.5 -9.5t-46.5 9.5t-37.5 25.5t-25.5 37.5t-9.5 46.5zM316 1290q0 25 9.5 46.5t25.5 38t37.5 26t46.5 9.5
t46.5 -9.5t38 -26t26 -38t9.5 -46.5t-9.5 -46.5t-26 -37.5t-38 -25.5t-46.5 -9.5t-46.5 9.5t-37.5 25.5t-25.5 37.5t-9.5 46.5z" />
    <glyph glyph-name="eth" unicode="&#xf0;" horiz-adv-x="1133" 
d="M873 1439l82 -66l-71 -89q64 -59 113.5 -134t84 -168t52.5 -205.5t18 -245.5v-5q0 -112 -42.5 -210.5t-116 -172t-172 -116t-209.5 -42.5t-209.5 42.5t-172 116t-116 172t-42.5 209.5t42.5 209.5t116 172t172 116t209.5 42.5q49 0 101 -13.5t97 -37t78 -54.5t46 -66
q-25 86 -65 147.5t-93 107.5l-66 -83l-80 65l62 79q-60 35 -124 61t-130 50l51 161q88 -21 166.5 -54t146.5 -79zM265 525q0 -72 27.5 -135t74.5 -110t110 -74.5t135 -27.5t135 27.5t110 74.5t74.5 110t27.5 135t-27.5 135t-74.5 110t-110 74.5t-135 27.5t-135 -27.5
t-110 -74.5t-74.5 -110t-27.5 -135z" />
    <glyph glyph-name="ntilde" unicode="&#xf1;" horiz-adv-x="1164" 
d="M314 1050l4.5 -6.5t10 -17.5t10.5 -26.5t5 -33.5v-43q18 35 50 61.5t72 44.5t86.5 27t94.5 9q88 0 161 -31.5t124.5 -91.5t80 -147t28.5 -198v-597h-198v597q0 131 -48 205.5t-148 74.5q-60 0 -113.5 -13.5t-95 -36.5t-66.5 -55t-28 -68v-704h-198v1050h168zM701 1201
q-38 0 -73 14t-66.5 31t-57 31t-43.5 14q-16 0 -25.5 -9.5t-15 -23.5t-7 -29.5t-1.5 -26.5h-130v10q0 42 12 79.5t35 66.5t56 46t76 17q34 0 67 -14t63.5 -31t58.5 -31t51 -14q18 0 29 7t17 18t7.5 25.5t1.5 29.5h130q-4 -48 -13 -87t-29.5 -66t-54.5 -42t-88 -15z" />
    <glyph glyph-name="ograve" unicode="&#xf2;" horiz-adv-x="1226" 
d="M72 525q0 111 42.5 209.5t116 172t172 116t209.5 42.5t209.5 -42.5t172 -116t116 -172t42.5 -209.5t-42.5 -209.5t-116 -172t-172 -116t-209.5 -42.5t-209.5 42.5t-172 116t-116 172t-42.5 209.5zM265 525q0 -72 27.5 -135t74.5 -110t110 -74.5t135 -27.5t135 27.5
t110 74.5t74.5 110t27.5 135t-27.5 135t-74.5 110t-110 74.5t-135 27.5t-135 -27.5t-110 -74.5t-74.5 -110t-27.5 -135zM318 1449h114q83 0 115 -44q11 -12 142 -244h-74q-83 0 -115 44z" />
    <glyph glyph-name="oacute" unicode="&#xf3;" horiz-adv-x="1226" 
d="M72 525q0 111 42.5 209.5t116 172t172 116t209.5 42.5t209.5 -42.5t172 -116t116 -172t42.5 -209.5t-42.5 -209.5t-116 -172t-172 -116t-209.5 -42.5t-209.5 42.5t-172 116t-116 172t-42.5 209.5zM265 525q0 -72 27.5 -135t74.5 -110t110 -74.5t135 -27.5t135 27.5
t110 74.5t74.5 110t27.5 135t-27.5 135t-74.5 110t-110 74.5t-135 27.5t-135 -27.5t-110 -74.5t-74.5 -110t-27.5 -135zM716 1205q-33 -44 -115 -44h-74q130 232 142 244q32 44 115 44h114z" />
    <glyph glyph-name="ocircumflex" unicode="&#xf4;" horiz-adv-x="1226" 
d="M72 525q0 111 42.5 209.5t116 172t172 116t209.5 42.5t209.5 -42.5t172 -116t116 -172t42.5 -209.5t-42.5 -209.5t-116 -172t-172 -116t-209.5 -42.5t-209.5 42.5t-172 116t-116 172t-42.5 209.5zM265 525q0 -72 27.5 -135t74.5 -110t110 -74.5t135 -27.5t135 27.5
t110 74.5t74.5 110t27.5 135t-27.5 135t-74.5 110t-110 74.5t-135 27.5t-135 -27.5t-110 -74.5t-74.5 -110t-27.5 -135zM511 1205q-32 -44 -115 -44h-74q76 117 116.5 178t45.5 66q32 44 115 44h27q83 0 115 -44q5 -5 45.5 -66t116.5 -178h-74q-83 0 -115 44l-92 113
q-5 5 -7.5 13t-2.5 10q-1 -3 -3 -10.5t-6 -12.5z" />
    <glyph glyph-name="otilde" unicode="&#xf5;" horiz-adv-x="1226" 
d="M72 525q0 111 42.5 209.5t116 172t172 116t209.5 42.5t209.5 -42.5t172 -116t116 -172t42.5 -209.5t-42.5 -209.5t-116 -172t-172 -116t-209.5 -42.5t-209.5 42.5t-172 116t-116 172t-42.5 209.5zM265 525q0 -72 27.5 -135t74.5 -110t110 -74.5t135 -27.5t135 27.5
t110 74.5t74.5 110t27.5 135t-27.5 135t-74.5 110t-110 74.5t-135 27.5t-135 -27.5t-110 -74.5t-74.5 -110t-27.5 -135zM732 1201q-38 0 -73 14t-66.5 31t-57 31t-43.5 14q-16 0 -25.5 -9.5t-15 -23.5t-7 -29.5t-1.5 -26.5h-130v10q0 42 12 79.5t35 66.5t56 46t76 17
q34 0 67 -14t63.5 -31t58.5 -31t51 -14q18 0 29 7t17 18t7.5 25.5t1.5 29.5h130q-4 -48 -13 -87t-29.5 -66t-54.5 -42t-88 -15z" />
    <glyph glyph-name="odieresis" unicode="&#xf6;" horiz-adv-x="1226" 
d="M72 525q0 111 42.5 209.5t116 172t172 116t209.5 42.5t209.5 -42.5t172 -116t116 -172t42.5 -209.5t-42.5 -209.5t-116 -172t-172 -116t-209.5 -42.5t-209.5 42.5t-172 116t-116 172t-42.5 209.5zM265 525q0 -72 27.5 -135t74.5 -110t110 -74.5t135 -27.5t135 27.5
t110 74.5t74.5 110t27.5 135t-27.5 135t-74.5 110t-110 74.5t-135 27.5t-135 -27.5t-110 -74.5t-74.5 -110t-27.5 -135zM324 1290q0 25 9.5 46.5t25.5 38t37.5 26t46.5 9.5t46.5 -9.5t38 -26t26 -38t9.5 -46.5t-9.5 -46.5t-26 -37.5t-38 -25.5t-46.5 -9.5t-46.5 9.5
t-37.5 25.5t-25.5 37.5t-9.5 46.5zM663 1290q0 25 9.5 46.5t25.5 38t37.5 26t46.5 9.5t46.5 -9.5t38 -26t26 -38t9.5 -46.5t-9.5 -46.5t-26 -37.5t-38 -25.5t-46.5 -9.5t-46.5 9.5t-37.5 25.5t-25.5 37.5t-9.5 46.5z" />
    <glyph glyph-name="divide" unicode="&#xf7;" horiz-adv-x="1160" 
d="M1057 575h-956v188h956v-188zM434 328q0 29 11.5 55t31 45.5t45.5 31t55 11.5t55 -11.5t45.5 -31t31 -45.5t11.5 -55t-11.5 -55t-31 -45.5t-45.5 -31t-55 -11.5t-55 11.5t-45.5 31t-31 45.5t-11.5 55zM434 1010q0 29 11.5 55t31 45.5t45.5 31t55 11.5t55 -11.5t45.5 -31
t31 -45.5t11.5 -55t-11.5 -55t-31 -45.5t-45.5 -31t-55 -11.5t-55 11.5t-45.5 31t-31 45.5t-11.5 55z" />
    <glyph glyph-name="oslash" unicode="&#xf8;" horiz-adv-x="1226" 
d="M983 1107q19 27 35.5 38.5t48.5 11.5h100l-888 -1211q-22 -29 -51 -42t-58 -13h-78zM72 525q0 111 42.5 209.5t116 172t172 116t209.5 42.5t209.5 -42.5t172 -116t116 -172t42.5 -209.5t-42.5 -209.5t-116 -172t-172 -116t-209.5 -42.5t-209.5 42.5t-172 116t-116 172
t-42.5 209.5zM265 525q0 -72 27.5 -135t74.5 -110t110 -74.5t135 -27.5t135 27.5t110 74.5t74.5 110t27.5 135t-27.5 135t-74.5 110t-110 74.5t-135 27.5t-135 -27.5t-110 -74.5t-74.5 -110t-27.5 -135z" />
    <glyph glyph-name="ugrave" unicode="&#xf9;" horiz-adv-x="1164" 
d="M849 0l-4.5 6.5t-10 17.5t-10.5 26.5t-5 33.5v43q-18 -36 -50 -62.5t-72 -44t-86.5 -26.5t-94.5 -9q-89 0 -161.5 33t-124 94t-80 147.5t-28.5 193.5v597h198v-597q0 -131 48 -205.5t148 -74.5q60 0 113.5 14.5t95 39.5t66.5 58t28 69v696h198v-1050h-168zM396 1449h114
q83 0 115 -44q11 -12 142 -244h-74q-83 0 -115 44z" />
    <glyph glyph-name="uacute" unicode="&#xfa;" horiz-adv-x="1164" 
d="M849 0l-4.5 6.5t-10 17.5t-10.5 26.5t-5 33.5v43q-18 -36 -50 -62.5t-72 -44t-86.5 -26.5t-94.5 -9q-89 0 -161.5 33t-124 94t-80 147.5t-28.5 193.5v597h198v-597q0 -131 48 -205.5t148 -74.5q60 0 113.5 14.5t95 39.5t66.5 58t28 69v696h198v-1050h-168zM585 1205
q-33 -44 -115 -44h-74q130 232 142 244q32 44 115 44h114z" />
    <glyph glyph-name="ucircumflex" unicode="&#xfb;" horiz-adv-x="1164" 
d="M849 0l-4.5 6.5t-10 17.5t-10.5 26.5t-5 33.5v43q-18 -36 -50 -62.5t-72 -44t-86.5 -26.5t-94.5 -9q-89 0 -161.5 33t-124 94t-80 147.5t-28.5 193.5v597h198v-597q0 -131 48 -205.5t148 -74.5q60 0 113.5 14.5t95 39.5t66.5 58t28 69v696h198v-1050h-168zM480 1205
q-32 -44 -115 -44h-74q76 117 116.5 178t45.5 66q32 44 115 44h27q83 0 115 -44q5 -5 45.5 -66t116.5 -178h-74q-83 0 -115 44l-92 113q-5 5 -7.5 13t-2.5 10q-1 -3 -3 -10.5t-6 -12.5z" />
    <glyph glyph-name="udieresis" unicode="&#xfc;" horiz-adv-x="1164" 
d="M849 0l-4.5 6.5t-10 17.5t-10.5 26.5t-5 33.5v43q-18 -36 -50 -62.5t-72 -44t-86.5 -26.5t-94.5 -9q-89 0 -161.5 33t-124 94t-80 147.5t-28.5 193.5v597h198v-597q0 -131 48 -205.5t148 -74.5q60 0 113.5 14.5t95 39.5t66.5 58t28 69v696h198v-1050h-168zM293 1290
q0 25 9.5 46.5t25.5 38t37.5 26t46.5 9.5t46.5 -9.5t38 -26t26 -38t9.5 -46.5t-9.5 -46.5t-26 -37.5t-38 -25.5t-46.5 -9.5t-46.5 9.5t-37.5 25.5t-25.5 37.5t-9.5 46.5zM632 1290q0 25 9.5 46.5t25.5 38t37.5 26t46.5 9.5t46.5 -9.5t38 -26t26 -38t9.5 -46.5t-9.5 -46.5
t-26 -37.5t-38 -25.5t-46.5 -9.5t-46.5 9.5t-37.5 25.5t-25.5 37.5t-9.5 46.5z" />
    <glyph glyph-name="yacute" unicode="&#xfd;" horiz-adv-x="1133" 
d="M28 1050h114q23 0 45 -6.5t41 -18.5t33.5 -29t22.5 -38l232 -533q31 -71 31 -128q0 -14 -2 -26.5t-6 -24.5q14 34 86.5 198.5t201.5 460.5l23 53q18 42 56.5 67t85.5 25h114l-585 -1343q-17 -45 -57 -70.5t-87 -25.5h-114l196 450zM670 1205q-33 -44 -115 -44h-74
q130 232 142 244q32 44 115 44h114z" />
    <glyph glyph-name="thorn" unicode="&#xfe;" horiz-adv-x="1203" 
d="M344 1433v-508q3 27 19 48t40 36.5t53.5 26t59 17t56.5 9.5t46 3q111 0 206.5 -42.5t165 -116t109 -172t39.5 -209.5t-39.5 -209.5t-109 -172t-165 -116t-206.5 -42.5q-35 0 -70.5 5t-70.5 17t-69 32.5t-64 51.5v-430h-198v1772h198zM618 178q72 0 132 27.5t103.5 74.5
t67.5 110t24 135t-24 135t-67.5 110t-103.5 74.5t-132 27.5q-77 0 -149.5 -30.5t-124.5 -83.5v-466q52 -53 124.5 -83.5t149.5 -30.5z" />
    <glyph glyph-name="ydieresis" unicode="&#xff;" horiz-adv-x="1133" 
d="M28 1050h114q23 0 45 -6.5t41 -18.5t33.5 -29t22.5 -38l232 -533q31 -71 31 -128q0 -14 -2 -26.5t-6 -24.5q14 34 86.5 198.5t201.5 460.5l23 53q18 42 56.5 67t85.5 25h114l-585 -1343q-17 -45 -57 -70.5t-87 -25.5h-114l196 450zM277 1290q0 25 9.5 46.5t25.5 38
t37.5 26t46.5 9.5t46.5 -9.5t38 -26t26 -38t9.5 -46.5t-9.5 -46.5t-26 -37.5t-38 -25.5t-46.5 -9.5t-46.5 9.5t-37.5 25.5t-25.5 37.5t-9.5 46.5zM616 1290q0 25 9.5 46.5t25.5 38t37.5 26t46.5 9.5t46.5 -9.5t38 -26t26 -38t9.5 -46.5t-9.5 -46.5t-26 -37.5t-38 -25.5
t-46.5 -9.5t-46.5 9.5t-37.5 25.5t-25.5 37.5t-9.5 46.5z" />
    <glyph glyph-name="Amacron" unicode="&#x100;" horiz-adv-x="1373" 
d="M587 1433h193l625 -1433h-114q-47 0 -85 24.5t-57 67.5l-100 228h-732l-99 -228q-18 -42 -56.5 -67t-85.5 -25h-114zM665 1117l-261 -599h559l-261 599q-16 35 -19 85q-2 -25 -6.5 -46t-11.5 -39zM404 1708h554v-148h-554v148z" />
    <glyph glyph-name="amacron" unicode="&#x101;" horiz-adv-x="1079" 
d="M169 896q10 15 24 30q12 13 30 28.5t42 31.5q60 38 129 58.5t154 20.5q86 0 150 -21t109.5 -58.5t74 -88.5t45 -111.5t22.5 -127t6 -134.5v-524h-162q-13 16 -21.5 38.5t-8.5 45.5v27q-28 -28 -67.5 -51t-82 -39.5t-85.5 -26t-78 -9.5q-79 0 -144.5 22.5t-112 64t-72 100
t-25.5 130.5q0 78 29 140.5t88.5 107t150 68.5t213.5 24q34 0 65.5 -2t56.5 -4t41.5 -4t20.5 -3q-4 74 -22.5 122t-47.5 75.5t-66 38t-77 10.5q-49 0 -77 -8.5t-49.5 -19t-42.5 -19t-56 -8.5q-27 0 -50.5 9t-46.5 26zM449 175q35 0 75 7t81 19.5t81.5 30t77.5 39.5v176
q-3 1 -20.5 1.5t-43 1.5t-57 1.5t-64.5 0.5q-62 0 -115.5 -8t-93 -26t-62 -46.5t-22.5 -69.5q0 -35 12.5 -59t34.5 -39t52 -22t64 -7zM273 1348h554v-148h-554v148z" />
    <glyph glyph-name="Abreve" unicode="&#x102;" horiz-adv-x="1373" 
d="M587 1433h193l625 -1433h-114q-47 0 -85 24.5t-57 67.5l-100 228h-732l-99 -228q-18 -42 -56.5 -67t-85.5 -25h-114zM665 1117l-261 -599h559l-261 599q-16 35 -19 85q-2 -25 -6.5 -46t-11.5 -39zM958 1781q0 -57 -22 -104.5t-59.5 -81.5t-88 -52.5t-107.5 -18.5
t-107.5 18.5t-88 52.5t-59.5 81.5t-22 104.5h52q29 0 53.5 -16.5t33.5 -44.5q19 -37 55.5 -53.5t82.5 -16.5q45 0 82 16.5t55 53.5q11 29 35 45t53 16h52z" />
    <glyph glyph-name="abreve" unicode="&#x103;" horiz-adv-x="1079" 
d="M169 896q10 15 24 30q12 13 30 28.5t42 31.5q60 38 129 58.5t154 20.5q86 0 150 -21t109.5 -58.5t74 -88.5t45 -111.5t22.5 -127t6 -134.5v-524h-162q-13 16 -21.5 38.5t-8.5 45.5v27q-28 -28 -67.5 -51t-82 -39.5t-85.5 -26t-78 -9.5q-79 0 -144.5 22.5t-112 64t-72 100
t-25.5 130.5q0 78 29 140.5t88.5 107t150 68.5t213.5 24q34 0 65.5 -2t56.5 -4t41.5 -4t20.5 -3q-4 74 -22.5 122t-47.5 75.5t-66 38t-77 10.5q-49 0 -77 -8.5t-49.5 -19t-42.5 -19t-56 -8.5q-27 0 -50.5 9t-46.5 26zM449 175q35 0 75 7t81 19.5t81.5 30t77.5 39.5v176
q-3 1 -20.5 1.5t-43 1.5t-57 1.5t-64.5 0.5q-62 0 -115.5 -8t-93 -26t-62 -46.5t-22.5 -69.5q0 -35 12.5 -59t34.5 -39t52 -22t64 -7zM816 1421q0 -57 -22 -106t-59.5 -85t-88 -56t-107.5 -20t-107.5 20t-88 56t-59.5 85t-22 106h52q29 0 53.5 -16.5t33.5 -44.5
q19 -37 55.5 -58.5t82.5 -21.5q45 0 82 21.5t55 58.5q11 29 35 45t53 16h52z" />
    <glyph glyph-name="Aogonek" unicode="&#x104;" horiz-adv-x="1373" 
d="M587 1433h193l625 -1433h-114q-47 0 -85 24.5t-57 67.5l-100 228h-732l-99 -228q-18 -42 -56.5 -67t-85.5 -25h-114zM665 1117l-261 -599h559l-261 599q-16 35 -19 85q-2 -25 -6.5 -46t-11.5 -39zM1375 1q-21 -12 -42 -27.5t-37.5 -33.5t-27 -38.5t-10.5 -42.5
q0 -42 29.5 -64.5t79.5 -22.5q18 0 37.5 2.5t39.5 2.5q21 -1 40.5 -7.5t30.5 -27.5l14 -29q-35 -25 -90 -40.5t-115 -15.5q-105 0 -164.5 42.5t-59.5 112.5q0 28 12.5 55.5t34.5 52.5t51 48t62 43z" />
    <glyph glyph-name="aogonek" unicode="&#x105;" horiz-adv-x="1220" 
d="M169 896q10 15 24 30q12 13 30 28.5t42 31.5q60 38 129 58.5t154 20.5q86 0 150 -21t109.5 -58.5t74 -88.5t45 -111.5t22.5 -127t6 -134.5v-524h-162q-13 16 -21.5 38.5t-8.5 45.5v27q-28 -28 -67.5 -51t-82 -39.5t-85.5 -26t-78 -9.5q-79 0 -144.5 22.5t-112 64t-72 100
t-25.5 130.5q0 78 29 140.5t88.5 107t150 68.5t213.5 24q34 0 65.5 -2t56.5 -4t41.5 -4t20.5 -3q-4 74 -22.5 122t-47.5 75.5t-66 38t-77 10.5q-49 0 -77 -8.5t-49.5 -19t-42.5 -19t-56 -8.5q-27 0 -50.5 9t-46.5 26zM449 175q35 0 75 7t81 19.5t81.5 30t77.5 39.5v176
q-3 1 -20.5 1.5t-43 1.5t-57 1.5t-64.5 0.5q-62 0 -115.5 -8t-93 -26t-62 -46.5t-22.5 -69.5q0 -35 12.5 -59t34.5 -39t52 -22t64 -7zM942 1q-21 -12 -42 -27.5t-37.5 -33.5t-27 -38.5t-10.5 -42.5q0 -42 29.5 -64.5t79.5 -22.5q18 0 37.5 2.5t39.5 2.5q21 -1 40.5 -7.5
t30.5 -27.5l14 -29q-35 -25 -90 -40.5t-115 -15.5q-105 0 -164.5 42.5t-59.5 112.5q0 28 12.5 55.5t34.5 52.5t51 48t62 43z" />
    <glyph glyph-name="Cacute" unicode="&#x106;" horiz-adv-x="1442" 
d="M288 717q0 -111 42 -208t114.5 -169.5t169.5 -114.5t208 -42q86 0 162 25t142 70q37 25 83 25q36 0 62.5 -12t49.5 -35l37 -37q-50 -54 -110.5 -97.5t-128.5 -73.5t-143 -46.5t-154 -16.5q-152 0 -285 57.5t-232.5 157t-157 232.5t-57.5 285q0 101 26 194.5t74 175
t114.5 148t148 114.5t175 74t194.5 26q79 0 154 -16.5t143 -46.5t128.5 -73.5t110.5 -97.5l-37 -37q-23 -23 -50 -35.5t-62 -12.5q-45 0 -83 26q-66 45 -142.5 70t-161.5 25q-111 0 -208 -42t-169.5 -114.5t-114.5 -169.5t-42 -208zM934 1588q-32 -44 -115 -44h-74
q111 183 122 194q32 44 115 44h114z" />
    <glyph glyph-name="cacute" unicode="&#x107;" horiz-adv-x="1027" 
d="M614 872q-72 0 -135 -27.5t-110 -74.5t-74.5 -110t-27.5 -135t27.5 -135t74.5 -110t110 -74.5t135 -27.5q45 0 88.5 11t81.5 33q37 21 80 21q32 0 58 -12t49 -35l38 -38q-75 -80 -176 -126.5t-219 -46.5q-111 0 -209.5 42.5t-172 116t-116 172t-42.5 209.5t42.5 209.5
t116 172t172 116t209.5 42.5q118 0 219 -46.5t176 -126.5l-38 -38q-24 -24 -51 -35.5t-62 -11.5q-40 0 -74 21q-38 22 -81.5 32t-88.5 12zM704 1205q-33 -44 -115 -44h-74q130 232 142 244q32 44 115 44h114z" />
    <glyph glyph-name="Ccircumflex" unicode="&#x108;" horiz-adv-x="1442" 
d="M288 717q0 -111 42 -208t114.5 -169.5t169.5 -114.5t208 -42q86 0 162 25t142 70q37 25 83 25q36 0 62.5 -12t49.5 -35l37 -37q-50 -54 -110.5 -97.5t-128.5 -73.5t-143 -46.5t-154 -16.5q-152 0 -285 57.5t-232.5 157t-157 232.5t-57.5 285q0 101 26 194.5t74 175
t114.5 148t148 114.5t175 74t194.5 26q79 0 154 -16.5t143 -46.5t128.5 -73.5t110.5 -97.5l-37 -37q-23 -23 -50 -35.5t-62 -12.5q-45 0 -83 26q-66 45 -142.5 70t-161.5 25q-111 0 -208 -42t-169.5 -114.5t-114.5 -169.5t-42 -208zM729 1583q-42 -44 -115 -44h-74l162 204
q32 44 115 44h27q83 0 115 -44l162 -204h-74q-38 -1 -66 11t-49 33l-92 93q-5 5 -7.5 13t-2.5 10q-1 -3 -3 -10.5t-6 -12.5z" />
    <glyph glyph-name="ccircumflex" unicode="&#x109;" horiz-adv-x="1027" 
d="M614 872q-72 0 -135 -27.5t-110 -74.5t-74.5 -110t-27.5 -135t27.5 -135t74.5 -110t110 -74.5t135 -27.5q45 0 88.5 11t81.5 33q37 21 80 21q32 0 58 -12t49 -35l38 -38q-75 -80 -176 -126.5t-219 -46.5q-111 0 -209.5 42.5t-172 116t-116 172t-42.5 209.5t42.5 209.5
t116 172t172 116t209.5 42.5q118 0 219 -46.5t176 -126.5l-38 -38q-24 -24 -51 -35.5t-62 -11.5q-40 0 -74 21q-38 22 -81.5 32t-88.5 12zM523 1205q-32 -44 -115 -44h-74q76 117 116.5 178t45.5 66q32 44 115 44h27q83 0 115 -44q5 -5 45.5 -66t116.5 -178h-74
q-83 0 -115 44l-92 113q-5 5 -7.5 13t-2.5 10q-1 -3 -3 -10.5t-6 -12.5z" />
    <glyph glyph-name="Cdotaccent" unicode="&#x10a;" horiz-adv-x="1442" 
d="M288 717q0 -111 42 -208t114.5 -169.5t169.5 -114.5t208 -42q86 0 162 25t142 70q37 25 83 25q36 0 62.5 -12t49.5 -35l37 -37q-50 -54 -110.5 -97.5t-128.5 -73.5t-143 -46.5t-154 -16.5q-152 0 -285 57.5t-232.5 157t-157 232.5t-57.5 285q0 101 26 194.5t74 175
t114.5 148t148 114.5t175 74t194.5 26q79 0 154 -16.5t143 -46.5t128.5 -73.5t110.5 -97.5l-37 -37q-23 -23 -50 -35.5t-62 -12.5q-45 0 -83 26q-66 45 -142.5 70t-161.5 25q-111 0 -208 -42t-169.5 -114.5t-114.5 -169.5t-42 -208zM728 1668q0 28 10.5 52.5t28.5 42.5
t42.5 28.5t52.5 10.5t52.5 -10.5t42.5 -28.5t28.5 -42.5t10.5 -52.5t-10.5 -52.5t-28.5 -42.5t-42.5 -28.5t-52.5 -10.5t-52.5 10.5t-42.5 28.5t-28.5 42.5t-10.5 52.5z" />
    <glyph glyph-name="cdotaccent" unicode="&#x10b;" horiz-adv-x="1027" 
d="M614 872q-72 0 -135 -27.5t-110 -74.5t-74.5 -110t-27.5 -135t27.5 -135t74.5 -110t110 -74.5t135 -27.5q45 0 88.5 11t81.5 33q37 21 80 21q32 0 58 -12t49 -35l38 -38q-75 -80 -176 -126.5t-219 -46.5q-111 0 -209.5 42.5t-172 116t-116 172t-42.5 209.5t42.5 209.5
t116 172t172 116t209.5 42.5q118 0 219 -46.5t176 -126.5l-38 -38q-24 -24 -51 -35.5t-62 -11.5q-40 0 -74 21q-38 22 -81.5 32t-88.5 12zM485 1287q0 28 10.5 52.5t28.5 42.5t42.5 28.5t52.5 10.5t52.5 -10.5t42.5 -28.5t28.5 -42.5t10.5 -52.5t-10.5 -52.5t-28.5 -42.5
t-42.5 -28.5t-52.5 -10.5t-52.5 10.5t-42.5 28.5t-28.5 42.5t-10.5 52.5z" />
    <glyph glyph-name="Ccaron" unicode="&#x10c;" horiz-adv-x="1442" 
d="M288 717q0 -111 42 -208t114.5 -169.5t169.5 -114.5t208 -42q86 0 162 25t142 70q37 25 83 25q36 0 62.5 -12t49.5 -35l37 -37q-50 -54 -110.5 -97.5t-128.5 -73.5t-143 -46.5t-154 -16.5q-152 0 -285 57.5t-232.5 157t-157 232.5t-57.5 285q0 101 26 194.5t74 175
t114.5 148t148 114.5t175 74t194.5 26q79 0 154 -16.5t143 -46.5t128.5 -73.5t110.5 -97.5l-37 -37q-23 -23 -50 -35.5t-62 -12.5q-45 0 -83 26q-66 45 -142.5 70t-161.5 25q-111 0 -208 -42t-169.5 -114.5t-114.5 -169.5t-42 -208zM835 1675q4 -7 6 -14.5t3 -9.5
q0 2 2.5 10t7.5 14l92 113q32 44 115 44h74q-76 -117 -116.5 -178t-45.5 -66q-32 -44 -115 -44h-27q-83 0 -115 44q-5 5 -45.5 66t-116.5 178h74q83 0 115 -44z" />
    <glyph glyph-name="ccaron" unicode="&#x10d;" horiz-adv-x="1027" 
d="M614 872q-72 0 -135 -27.5t-110 -74.5t-74.5 -110t-27.5 -135t27.5 -135t74.5 -110t110 -74.5t135 -27.5q45 0 88.5 11t81.5 33q37 21 80 21q32 0 58 -12t49 -35l38 -38q-75 -80 -176 -126.5t-219 -46.5q-111 0 -209.5 42.5t-172 116t-116 172t-42.5 209.5t42.5 209.5
t116 172t172 116t209.5 42.5q118 0 219 -46.5t176 -126.5l-38 -38q-24 -24 -51 -35.5t-62 -11.5q-40 0 -74 21q-38 22 -81.5 32t-88.5 12zM612 1292q4 -7 6 -14.5t3 -9.5q0 2 2.5 10t7.5 14l92 113q32 44 115 44h74q-76 -117 -116.5 -178t-45.5 -66q-32 -44 -115 -44h-27
q-83 0 -115 44q-5 5 -45.5 66t-116.5 178h74q83 0 115 -44z" />
    <glyph glyph-name="Dcaron" unicode="&#x10e;" horiz-adv-x="1519" 
d="M174 0v1433h538q99 0 190.5 -25.5t171 -72.5t145 -112.5t112.5 -145t72.5 -171t25.5 -190.5t-25.5 -190.5t-72.5 -171t-112.5 -145t-145 -112t-171 -72t-190.5 -25.5h-538zM712 198q107 0 201.5 40.5t165 111t111.5 165t41 201.5t-41 201.5t-111.5 165t-165 111.5
t-201.5 41h-340v-1037h340zM646 1675q4 -7 6 -14.5t3 -9.5q0 2 2.5 10t7.5 14l92 113q32 44 115 44h74q-76 -117 -116.5 -178t-45.5 -66q-32 -44 -115 -44h-27q-83 0 -115 44q-5 5 -45.5 66t-116.5 178h74q83 0 115 -44z" />
    <glyph glyph-name="dcaron" unicode="&#x10f;" horiz-adv-x="1218" 
d="M896 0q-9 11 -15 24q-5 11 -10 26.5t-5 33.5v7q-31 -31 -64.5 -51.5t-68.5 -33t-71 -17.5t-70 -5q-111 0 -206.5 42.5t-165 116t-109 172t-39.5 209.5t39.5 209.5t109 172t165 116t206.5 42.5q34 0 70 -5t71 -17t68.5 -32.5t64.5 -51.5v475h198v-1433h-168zM592 871
q-72 0 -132 -27.5t-103.5 -74.5t-67.5 -110t-24 -135t24 -135t67.5 -110t103.5 -74.5t132 -27.5q77 0 149.5 30.5t124.5 83.5v466q-52 53 -124.5 83.5t-149.5 30.5zM1098 1432h78q32 0 51 -17.5t19 -49.5q0 -5 -0.5 -9.5t-1.5 -9.5l-20 -129q-5 -30 -27.5 -49.5t-53.5 -19.5
h-45v284z" />
    <glyph glyph-name="Dcroat" unicode="&#x110;" horiz-adv-x="1519" 
d="M174 0v1433h538q99 0 190.5 -25.5t171 -72.5t145 -112.5t112.5 -145t72.5 -171t25.5 -190.5t-25.5 -190.5t-72.5 -171t-112.5 -145t-145 -112t-171 -72t-190.5 -25.5h-538zM712 198q107 0 201.5 40.5t165 111t111.5 165t41 201.5t-41 201.5t-111.5 165t-165 111.5
t-201.5 41h-340v-1037h340zM100 788h554v-148h-554v148z" />
    <glyph glyph-name="dcroat" unicode="&#x111;" horiz-adv-x="1218" 
d="M896 0q-9 11 -15 24q-5 11 -10 26.5t-5 33.5v7q-31 -31 -64.5 -51.5t-68.5 -33t-71 -17.5t-70 -5q-111 0 -206.5 42.5t-165 116t-109 172t-39.5 209.5t39.5 209.5t109 172t165 116t206.5 42.5q34 0 70 -5t71 -17t68.5 -32.5t64.5 -51.5v475h198v-1433h-168zM592 871
q-72 0 -132 -27.5t-103.5 -74.5t-67.5 -110t-24 -135t24 -135t67.5 -110t103.5 -74.5t132 -27.5q77 0 149.5 30.5t124.5 83.5v466q-52 53 -124.5 83.5t-149.5 30.5zM1168 1157h-506v188h506v-188z" />
    <glyph glyph-name="Emacron" unicode="&#x112;" horiz-adv-x="1165" 
d="M1060 0h-886v1433h886v-198h-688v-413h557v-198h-557v-426h688v-198zM305 1708h554v-148h-554v148z" />
    <glyph glyph-name="emacron" unicode="&#x113;" horiz-adv-x="1211" 
d="M1138 614q0 -35 -13.5 -62.5t-33.5 -47t-44.5 -30t-46.5 -10.5h-730q9 -61 40 -113t77 -90.5t104 -60.5t121 -22q46 0 88.5 11.5t80.5 32.5q20 11 39 16t42 5q32 0 58 -12t49 -35l38 -38q-75 -80 -176 -126.5t-219 -46.5q-111 0 -209.5 42.5t-172 116t-116 172
t-42.5 209.5t42.5 209.5t116 172t172 116t209.5 42.5q93 0 178 -31t154 -85t118.5 -128t71.5 -161q3 -11 3 -23t1 -23zM345 657h588q-20 47 -52 86.5t-73.5 68t-91.5 44.5t-104 16q-59 0 -112.5 -18.5t-97 -51.5t-75 -78.5t-47.5 -99.5q8 11 24 22t41 11zM328 1348h554v-148
h-554v148z" />
    <glyph glyph-name="Ebreve" unicode="&#x114;" horiz-adv-x="1165" 
d="M1060 0h-886v1433h886v-198h-688v-413h557v-198h-557v-426h688v-198zM886 1781q0 -57 -22 -104.5t-59.5 -81.5t-88 -52.5t-107.5 -18.5t-107.5 18.5t-88 52.5t-59.5 81.5t-22 104.5h52q29 0 53.5 -16.5t33.5 -44.5q19 -37 55.5 -53.5t82.5 -16.5q45 0 82 16.5t55 53.5
q11 29 35 45t53 16h52z" />
    <glyph glyph-name="ebreve" unicode="&#x115;" horiz-adv-x="1211" 
d="M1138 614q0 -35 -13.5 -62.5t-33.5 -47t-44.5 -30t-46.5 -10.5h-730q9 -61 40 -113t77 -90.5t104 -60.5t121 -22q46 0 88.5 11.5t80.5 32.5q20 11 39 16t42 5q32 0 58 -12t49 -35l38 -38q-75 -80 -176 -126.5t-219 -46.5q-111 0 -209.5 42.5t-172 116t-116 172
t-42.5 209.5t42.5 209.5t116 172t172 116t209.5 42.5q93 0 178 -31t154 -85t118.5 -128t71.5 -161q3 -11 3 -23t1 -23zM345 657h588q-20 47 -52 86.5t-73.5 68t-91.5 44.5t-104 16q-59 0 -112.5 -18.5t-97 -51.5t-75 -78.5t-47.5 -99.5q8 11 24 22t41 11zM893 1421
q0 -57 -22 -106t-59.5 -85t-88 -56t-107.5 -20t-107.5 20t-88 56t-59.5 85t-22 106h52q29 0 53.5 -16.5t33.5 -44.5q19 -37 55.5 -58.5t82.5 -21.5q45 0 82 21.5t55 58.5q11 29 35 45t53 16h52z" />
    <glyph glyph-name="Edotaccent" unicode="&#x116;" horiz-adv-x="1165" 
d="M1060 0h-886v1433h886v-198h-688v-413h557v-198h-557v-426h688v-198zM503 1668q0 28 10.5 52.5t28.5 42.5t42.5 28.5t52.5 10.5t52.5 -10.5t42.5 -28.5t28.5 -42.5t10.5 -52.5t-10.5 -52.5t-28.5 -42.5t-42.5 -28.5t-52.5 -10.5t-52.5 10.5t-42.5 28.5t-28.5 42.5
t-10.5 52.5z" />
    <glyph glyph-name="edotaccent" unicode="&#x117;" horiz-adv-x="1211" 
d="M1138 614q0 -35 -13.5 -62.5t-33.5 -47t-44.5 -30t-46.5 -10.5h-730q9 -61 40 -113t77 -90.5t104 -60.5t121 -22q46 0 88.5 11.5t80.5 32.5q20 11 39 16t42 5q32 0 58 -12t49 -35l38 -38q-75 -80 -176 -126.5t-219 -46.5q-111 0 -209.5 42.5t-172 116t-116 172
t-42.5 209.5t42.5 209.5t116 172t172 116t209.5 42.5q93 0 178 -31t154 -85t118.5 -128t71.5 -161q3 -11 3 -23t1 -23zM345 657h588q-20 47 -52 86.5t-73.5 68t-91.5 44.5t-104 16q-59 0 -112.5 -18.5t-97 -51.5t-75 -78.5t-47.5 -99.5q8 11 24 22t41 11zM482 1287
q0 28 10.5 52.5t28.5 42.5t42.5 28.5t52.5 10.5t52.5 -10.5t42.5 -28.5t28.5 -42.5t10.5 -52.5t-10.5 -52.5t-28.5 -42.5t-42.5 -28.5t-52.5 -10.5t-52.5 10.5t-42.5 28.5t-28.5 42.5t-10.5 52.5z" />
    <glyph glyph-name="Eogonek" unicode="&#x118;" horiz-adv-x="1165" 
d="M1060 0h-886v1433h886v-198h-688v-413h557v-198h-557v-426h688v-198zM906 1q-21 -12 -42 -27.5t-37.5 -33.5t-27 -38.5t-10.5 -42.5q0 -42 29.5 -64.5t79.5 -22.5q18 0 37.5 2.5t39.5 2.5q21 -1 40.5 -7.5t30.5 -27.5l14 -29q-35 -25 -90 -40.5t-115 -15.5
q-105 0 -164.5 42.5t-59.5 112.5q0 28 12.5 55.5t34.5 52.5t51 48t62 43z" />
    <glyph glyph-name="eogonek" unicode="&#x119;" horiz-adv-x="1211" 
d="M1138 614q0 -35 -13.5 -62.5t-33.5 -47t-44.5 -30t-46.5 -10.5h-730q9 -61 40 -113t77 -90.5t104 -60.5t121 -22q46 0 88.5 11.5t80.5 32.5q20 11 39 16t42 5q32 0 58 -12t49 -35l38 -38q-75 -80 -176 -126.5t-219 -46.5q-111 0 -209.5 42.5t-172 116t-116 172
t-42.5 209.5t42.5 209.5t116 172t172 116t209.5 42.5q93 0 178 -31t154 -85t118.5 -128t71.5 -161q3 -11 3 -23t1 -23zM345 657h588q-20 47 -52 86.5t-73.5 68t-91.5 44.5t-104 16q-59 0 -112.5 -18.5t-97 -51.5t-75 -78.5t-47.5 -99.5q8 11 24 22t41 11zM700 1
q-21 -12 -42 -27.5t-37.5 -33.5t-27 -38.5t-10.5 -42.5q0 -42 29.5 -64.5t79.5 -22.5q18 0 37.5 2.5t39.5 2.5q21 -1 40.5 -7.5t30.5 -27.5l14 -29q-35 -25 -90 -40.5t-115 -15.5q-105 0 -164.5 42.5t-59.5 112.5q0 28 12.5 55.5t34.5 52.5t51 48t62 43z" />
    <glyph glyph-name="Ecaron" unicode="&#x11a;" horiz-adv-x="1165" 
d="M1060 0h-886v1433h886v-198h-688v-413h557v-198h-557v-426h688v-198zM616 1675q4 -7 6 -14.5t3 -9.5q0 2 2.5 10t7.5 14l92 113q32 44 115 44h74q-76 -117 -116.5 -178t-45.5 -66q-32 -44 -115 -44h-27q-83 0 -115 44q-5 5 -45.5 66t-116.5 178h74q83 0 115 -44z" />
    <glyph glyph-name="ecaron" unicode="&#x11b;" horiz-adv-x="1211" 
d="M1138 614q0 -35 -13.5 -62.5t-33.5 -47t-44.5 -30t-46.5 -10.5h-730q9 -61 40 -113t77 -90.5t104 -60.5t121 -22q46 0 88.5 11.5t80.5 32.5q20 11 39 16t42 5q32 0 58 -12t49 -35l38 -38q-75 -80 -176 -126.5t-219 -46.5q-111 0 -209.5 42.5t-172 116t-116 172
t-42.5 209.5t42.5 209.5t116 172t172 116t209.5 42.5q93 0 178 -31t154 -85t118.5 -128t71.5 -161q3 -11 3 -23t1 -23zM345 657h588q-20 47 -52 86.5t-73.5 68t-91.5 44.5t-104 16q-59 0 -112.5 -18.5t-97 -51.5t-75 -78.5t-47.5 -99.5q8 11 24 22t41 11zM596 1292
q4 -7 6 -14.5t3 -9.5q0 2 2.5 10t7.5 14l92 113q32 44 115 44h74q-76 -117 -116.5 -178t-45.5 -66q-32 -44 -115 -44h-27q-83 0 -115 44q-5 5 -45.5 66t-116.5 178h74q83 0 115 -44z" />
    <glyph glyph-name="Gcircumflex" unicode="&#x11c;" horiz-adv-x="1492" 
d="M1354 730v-578q-50 -50 -110.5 -82.5t-128.5 -51.5t-141.5 -26t-149.5 -7q-152 0 -285 57.5t-232.5 157t-157 232.5t-57.5 285q0 101 26 194.5t74 175t114.5 148t148 114.5t175 74t194.5 26q79 0 154 -16.5t143 -46.5t128.5 -73.5t110.5 -97.5l-37 -37q-24 -24 -50.5 -36
t-61.5 -12q-45 0 -83 26q-66 45 -142.5 70t-161.5 25q-111 0 -208 -42t-169.5 -114.5t-114.5 -169.5t-42 -208t43.5 -208t118 -169.5t173 -114.5t209.5 -42q92 0 174 21.5t150 64.5v263h-80q-35 0 -63.5 12.5t-48.5 33.5t-31 49t-11 59v44h430zM725 1583q-42 -44 -115 -44
h-74l162 204q32 44 115 44h27q83 0 115 -44l162 -204h-74q-38 -1 -66 11t-49 33l-92 93q-5 5 -7.5 13t-2.5 10q-1 -3 -3 -10.5t-6 -12.5z" />
    <glyph glyph-name="gcircumflex" unicode="&#x11d;" horiz-adv-x="1044" 
d="M1001 918q-16 -41 -48.5 -63.5t-98.5 -22.5q16 -37 25 -77t9 -82q0 -81 -31 -152.5t-84 -124.5t-124.5 -84t-152.5 -31q-92 0 -174 40q-38 -25 -47 -40.5t-9 -24.5q0 -7 3 -13l4 -4q8 -9 31 -15.5t53.5 -10.5t66.5 -5.5t69 -1.5q67 0 136 -6t127 -26q84 -29 128 -88.5
t44 -144.5q0 -64 -25 -116t-73 -89.5t-117 -58t-157 -20.5q-71 0 -138.5 11t-130.5 28t-122 38.5t-111 41.5l24 67q12 35 48.5 55.5t79.5 20.5q26 0 51 -6t46 -15q10 -4 33 -12.5t56.5 -17.5t75.5 -15.5t89 -6.5q22 0 53.5 5t59.5 16t48 29.5t20 44.5q0 20 -7 31.5t-36 21.5
q-41 14 -93.5 18t-109 6t-114 5.5t-109 15.5t-93.5 36t-68 68q-18 30 -18 70q0 42 34.5 89t105.5 83q-59 54 -92.5 128t-33.5 160q0 81 31 152.5t84 124.5t124.5 84t152.5 31q65 0 123.5 -20t107.5 -56q20 12 52.5 23t82.5 11q32 0 72.5 -6.5t89.5 -21.5zM294 673
q0 -42 16 -78.5t43.5 -64t64 -43.5t78.5 -16t78.5 16t64 43.5t43.5 64t16 78.5t-16 78.5t-43.5 64t-64 43.5t-78.5 16t-78.5 -16t-64 -43.5t-43.5 -64t-16 -78.5zM398 1205q-32 -44 -115 -44h-74q76 117 116.5 178t45.5 66q32 44 115 44h27q83 0 115 -44q5 -5 45.5 -66
t116.5 -178h-74q-83 0 -115 44l-92 113q-5 5 -7.5 13t-2.5 10q-1 -3 -3 -10.5t-6 -12.5z" />
    <glyph glyph-name="Gbreve" unicode="&#x11e;" horiz-adv-x="1492" 
d="M1354 730v-578q-50 -50 -110.5 -82.5t-128.5 -51.5t-141.5 -26t-149.5 -7q-152 0 -285 57.5t-232.5 157t-157 232.5t-57.5 285q0 101 26 194.5t74 175t114.5 148t148 114.5t175 74t194.5 26q79 0 154 -16.5t143 -46.5t128.5 -73.5t110.5 -97.5l-37 -37q-24 -24 -50.5 -36
t-61.5 -12q-45 0 -83 26q-66 45 -142.5 70t-161.5 25q-111 0 -208 -42t-169.5 -114.5t-114.5 -169.5t-42 -208t43.5 -208t118 -169.5t173 -114.5t209.5 -42q92 0 174 21.5t150 64.5v263h-80q-35 0 -63.5 12.5t-48.5 33.5t-31 49t-11 59v44h430zM1104 1781q0 -57 -22 -104.5
t-59.5 -81.5t-88 -52.5t-107.5 -18.5t-107.5 18.5t-88 52.5t-59.5 81.5t-22 104.5h52q29 0 53.5 -16.5t33.5 -44.5q19 -37 55.5 -53.5t82.5 -16.5q45 0 82 16.5t55 53.5q11 29 35 45t53 16h52z" />
    <glyph glyph-name="gbreve" unicode="&#x11f;" horiz-adv-x="1044" 
d="M1001 918q-16 -41 -48.5 -63.5t-98.5 -22.5q16 -37 25 -77t9 -82q0 -81 -31 -152.5t-84 -124.5t-124.5 -84t-152.5 -31q-92 0 -174 40q-38 -25 -47 -40.5t-9 -24.5q0 -7 3 -13l4 -4q8 -9 31 -15.5t53.5 -10.5t66.5 -5.5t69 -1.5q67 0 136 -6t127 -26q84 -29 128 -88.5
t44 -144.5q0 -64 -25 -116t-73 -89.5t-117 -58t-157 -20.5q-71 0 -138.5 11t-130.5 28t-122 38.5t-111 41.5l24 67q12 35 48.5 55.5t79.5 20.5q26 0 51 -6t46 -15q10 -4 33 -12.5t56.5 -17.5t75.5 -15.5t89 -6.5q22 0 53.5 5t59.5 16t48 29.5t20 44.5q0 20 -7 31.5t-36 21.5
q-41 14 -93.5 18t-109 6t-114 5.5t-109 15.5t-93.5 36t-68 68q-18 30 -18 70q0 42 34.5 89t105.5 83q-59 54 -92.5 128t-33.5 160q0 81 31 152.5t84 124.5t124.5 84t152.5 31q65 0 123.5 -20t107.5 -56q20 12 52.5 23t82.5 11q32 0 72.5 -6.5t89.5 -21.5zM294 673
q0 -42 16 -78.5t43.5 -64t64 -43.5t78.5 -16t78.5 16t64 43.5t43.5 64t16 78.5t-16 78.5t-43.5 64t-64 43.5t-78.5 16t-78.5 -16t-64 -43.5t-43.5 -64t-16 -78.5zM775 1421q0 -57 -22 -106t-59.5 -85t-88 -56t-107.5 -20t-107.5 20t-88 56t-59.5 85t-22 106h52
q29 0 53.5 -16.5t33.5 -44.5q19 -37 55.5 -58.5t82.5 -21.5q45 0 82 21.5t55 58.5q11 29 35 45t53 16h52z" />
    <glyph glyph-name="Gdotaccent" unicode="&#x120;" horiz-adv-x="1492" 
d="M1354 730v-578q-50 -50 -110.5 -82.5t-128.5 -51.5t-141.5 -26t-149.5 -7q-152 0 -285 57.5t-232.5 157t-157 232.5t-57.5 285q0 101 26 194.5t74 175t114.5 148t148 114.5t175 74t194.5 26q79 0 154 -16.5t143 -46.5t128.5 -73.5t110.5 -97.5l-37 -37q-24 -24 -50.5 -36
t-61.5 -12q-45 0 -83 26q-66 45 -142.5 70t-161.5 25q-111 0 -208 -42t-169.5 -114.5t-114.5 -169.5t-42 -208t43.5 -208t118 -169.5t173 -114.5t209.5 -42q92 0 174 21.5t150 64.5v263h-80q-35 0 -63.5 12.5t-48.5 33.5t-31 49t-11 59v44h430zM699 1668q0 28 10.5 52.5
t28.5 42.5t42.5 28.5t52.5 10.5t52.5 -10.5t42.5 -28.5t28.5 -42.5t10.5 -52.5t-10.5 -52.5t-28.5 -42.5t-42.5 -28.5t-52.5 -10.5t-52.5 10.5t-42.5 28.5t-28.5 42.5t-10.5 52.5z" />
    <glyph glyph-name="gdotaccent" unicode="&#x121;" horiz-adv-x="1044" 
d="M1001 918q-16 -41 -48.5 -63.5t-98.5 -22.5q16 -37 25 -77t9 -82q0 -81 -31 -152.5t-84 -124.5t-124.5 -84t-152.5 -31q-92 0 -174 40q-38 -25 -47 -40.5t-9 -24.5q0 -7 3 -13l4 -4q8 -9 31 -15.5t53.5 -10.5t66.5 -5.5t69 -1.5q67 0 136 -6t127 -26q84 -29 128 -88.5
t44 -144.5q0 -64 -25 -116t-73 -89.5t-117 -58t-157 -20.5q-71 0 -138.5 11t-130.5 28t-122 38.5t-111 41.5l24 67q12 35 48.5 55.5t79.5 20.5q26 0 51 -6t46 -15q10 -4 33 -12.5t56.5 -17.5t75.5 -15.5t89 -6.5q22 0 53.5 5t59.5 16t48 29.5t20 44.5q0 20 -7 31.5t-36 21.5
q-41 14 -93.5 18t-109 6t-114 5.5t-109 15.5t-93.5 36t-68 68q-18 30 -18 70q0 42 34.5 89t105.5 83q-59 54 -92.5 128t-33.5 160q0 81 31 152.5t84 124.5t124.5 84t152.5 31q65 0 123.5 -20t107.5 -56q20 12 52.5 23t82.5 11q32 0 72.5 -6.5t89.5 -21.5zM294 673
q0 -42 16 -78.5t43.5 -64t64 -43.5t78.5 -16t78.5 16t64 43.5t43.5 64t16 78.5t-16 78.5t-43.5 64t-64 43.5t-78.5 16t-78.5 -16t-64 -43.5t-43.5 -64t-16 -78.5zM388 1287q0 28 10.5 52.5t28.5 42.5t42.5 28.5t52.5 10.5t52.5 -10.5t42.5 -28.5t28.5 -42.5t10.5 -52.5
t-10.5 -52.5t-28.5 -42.5t-42.5 -28.5t-52.5 -10.5t-52.5 10.5t-42.5 28.5t-28.5 42.5t-10.5 52.5z" />
    <glyph glyph-name="Gcommaaccent" unicode="&#x122;" horiz-adv-x="1492" 
d="M1354 730v-578q-50 -50 -110.5 -82.5t-128.5 -51.5t-141.5 -26t-149.5 -7q-152 0 -285 57.5t-232.5 157t-157 232.5t-57.5 285q0 101 26 194.5t74 175t114.5 148t148 114.5t175 74t194.5 26q79 0 154 -16.5t143 -46.5t128.5 -73.5t110.5 -97.5l-37 -37q-24 -24 -50.5 -36
t-61.5 -12q-45 0 -83 26q-66 45 -142.5 70t-161.5 25q-111 0 -208 -42t-169.5 -114.5t-114.5 -169.5t-42 -208t43.5 -208t118 -169.5t173 -114.5t209.5 -42q92 0 174 21.5t150 64.5v263h-80q-35 0 -63.5 12.5t-48.5 33.5t-31 49t-11 59v44h430zM770 -78h78q32 0 51 -17.5
t19 -49.5q0 -5 -0.5 -9.5t-1.5 -9.5l-20 -129q-5 -30 -27.5 -49.5t-53.5 -19.5h-45v284z" />
    <glyph glyph-name="gcommaaccent" unicode="&#x123;" horiz-adv-x="1044" 
d="M1001 918q-16 -41 -48.5 -63.5t-98.5 -22.5q16 -37 25 -77t9 -82q0 -81 -31 -152.5t-84 -124.5t-124.5 -84t-152.5 -31q-92 0 -174 40q-38 -25 -47 -40.5t-9 -24.5q0 -7 3 -13l4 -4q8 -9 31 -15.5t53.5 -10.5t66.5 -5.5t69 -1.5q67 0 136 -6t127 -26q84 -29 128 -88.5
t44 -144.5q0 -64 -25 -116t-73 -89.5t-117 -58t-157 -20.5q-71 0 -138.5 11t-130.5 28t-122 38.5t-111 41.5l24 67q12 35 48.5 55.5t79.5 20.5q26 0 51 -6t46 -15q10 -4 33 -12.5t56.5 -17.5t75.5 -15.5t89 -6.5q22 0 53.5 5t59.5 16t48 29.5t20 44.5q0 20 -7 31.5t-36 21.5
q-41 14 -93.5 18t-109 6t-114 5.5t-109 15.5t-93.5 36t-68 68q-18 30 -18 70q0 42 34.5 89t105.5 83q-59 54 -92.5 128t-33.5 160q0 81 31 152.5t84 124.5t124.5 84t152.5 31q65 0 123.5 -20t107.5 -56q20 12 52.5 23t82.5 11q32 0 72.5 -6.5t89.5 -21.5zM294 673
q0 -42 16 -78.5t43.5 -64t64 -43.5t78.5 -16t78.5 16t64 43.5t43.5 64t16 78.5t-16 78.5t-43.5 64t-64 43.5t-78.5 16t-78.5 -16t-64 -43.5t-43.5 -64t-16 -78.5z" />
    <glyph glyph-name="Hcircumflex" unicode="&#x124;" horiz-adv-x="1559" 
d="M1344 0h-198v622h-772v-622h-198v1433h198v-613h772v613h198v-1433zM659 1583q-42 -44 -115 -44h-74l162 204q32 44 115 44h27q83 0 115 -44l162 -204h-74q-38 -1 -66 11t-49 33l-92 93q-5 5 -7.5 13t-2.5 10q-1 -3 -3 -10.5t-6 -12.5z" />
    <glyph glyph-name="hcircumflex" unicode="&#x125;" horiz-adv-x="1164" 
d="M490 1547q-32 -44 -115 -44h-74q76 117 116.5 178t45.5 66q32 44 115 44h27q83 0 115 -44q5 -5 45.5 -66t116.5 -178h-74q-83 0 -115 44l-92 113q-5 5 -7.5 13t-2.5 10q-1 -3 -3 -10.5t-6 -12.5zM314 1433q8 -11 15 -24q5 -11 10 -26.5t5 -33.5v-426q18 35 50 61.5
t72 44.5t86.5 27t94.5 9q88 0 161 -33t124.5 -94t80 -147.5t28.5 -193.5v-597h-198v597q0 131 -48 205.5t-148 74.5q-60 0 -113.5 -14.5t-95 -39.5t-66.5 -58t-28 -69v-696h-198v1433h168z" />
    <glyph glyph-name="Hbar" unicode="&#x126;" horiz-adv-x="1669" 
d="M1415 0h-198v622h-772v-622h-198v1433h198v-269h772v269h198v-1433zM1217 820v197h-772v-197h772z" />
    <glyph glyph-name="hbar" unicode="&#x127;" horiz-adv-x="1164" 
d="M38 1289h554v-148h-554v148zM314 1433q8 -11 15 -24q5 -11 10 -26.5t5 -33.5v-426q18 35 50 61.5t72 44.5t86.5 27t94.5 9q88 0 161 -33t124.5 -94t80 -147.5t28.5 -193.5v-597h-198v597q0 131 -48 205.5t-148 74.5q-60 0 -113.5 -14.5t-95 -39.5t-66.5 -58t-28 -69v-696
h-198v1433h168z" />
    <glyph glyph-name="Itilde" unicode="&#x128;" horiz-adv-x="617" 
d="M408 0h-198v1433h198v-1433zM427 1533q-38 0 -73 14t-66.5 31t-57 31t-43.5 14q-16 0 -25.5 -8t-15 -20t-7 -26t-1.5 -25h-130v10q0 41 12 77.5t35 63.5t56 42.5t76 15.5q34 0 67 -14t63.5 -31t58.5 -31t51 -14q18 0 29 5.5t17 14.5t7.5 22t1.5 28h130q-4 -48 -13 -83.5
t-29.5 -60t-54.5 -38.5t-88 -18z" />
    <glyph glyph-name="itilde" unicode="&#x129;" horiz-adv-x="532" 
d="M364 1032v-1032h-198v1032h198zM385 1201q-38 0 -73 14t-66.5 31t-57 31t-43.5 14q-16 0 -25.5 -9.5t-15 -23.5t-7 -29.5t-1.5 -26.5h-130v10q0 42 12 79.5t35 66.5t56 46t76 17q34 0 67 -14t63.5 -31t58.5 -31t51 -14q18 0 29 7t17 18t7.5 25.5t1.5 29.5h130
q-4 -48 -13 -87t-29.5 -66t-54.5 -42t-88 -15z" />
    <glyph glyph-name="Imacron" unicode="&#x12a;" horiz-adv-x="617" 
d="M408 0h-198v1433h198v-1433zM31 1731h554v-148h-554v148z" />
    <glyph glyph-name="imacron" unicode="&#x12b;" horiz-adv-x="532" 
d="M364 1032v-1032h-198v1032h198zM-13 1348h554v-148h-554v148z" />
    <glyph glyph-name="Ibreve" unicode="&#x12c;" horiz-adv-x="617" 
d="M408 0h-198v1433h198v-1433zM585 1781q0 -57 -22 -104.5t-59.5 -81.5t-88 -52.5t-107.5 -18.5t-107.5 18.5t-88 52.5t-59.5 81.5t-22 104.5h52q29 0 53.5 -16.5t33.5 -44.5q19 -37 55.5 -53.5t82.5 -16.5q45 0 82 16.5t55 53.5q11 29 35 45t53 16h52z" />
    <glyph glyph-name="ibreve" unicode="&#x12d;" horiz-adv-x="532" 
d="M364 1032v-1032h-198v1032h198zM543 1421q0 -57 -22 -106t-59.5 -85t-88 -56t-107.5 -20t-107.5 20t-88 56t-59.5 85t-22 106h52q29 0 53.5 -16.5t33.5 -44.5q19 -37 55.5 -58.5t82.5 -21.5q45 0 82 21.5t55 58.5q11 29 35 45t53 16h52z" />
    <glyph glyph-name="Iogonek" unicode="&#x12e;" horiz-adv-x="617" 
d="M408 0h-198v1433h198v-1433zM378 1q-21 -12 -42 -27.5t-37.5 -33.5t-27 -38.5t-10.5 -42.5q0 -42 29.5 -64.5t79.5 -22.5q18 0 37.5 2.5t39.5 2.5q21 -1 40.5 -7.5t30.5 -27.5l14 -29q-35 -25 -90 -40.5t-115 -15.5q-105 0 -164.5 42.5t-59.5 112.5q0 28 12.5 55.5
t34.5 52.5t51 48t62 43z" />
    <glyph glyph-name="iogonek" unicode="&#x12f;" horiz-adv-x="532" 
d="M364 1050v-1050h-198v1050h198zM131 1314q0 28 10.5 52.5t29 43t43 29t52.5 10.5t52.5 -10.5t43 -29t29 -43t10.5 -52.5t-10.5 -52.5t-29 -43t-43 -29t-52.5 -10.5t-52.5 10.5t-43 29t-29 43t-10.5 52.5zM327 1q-21 -12 -42 -27.5t-37.5 -33.5t-27 -38.5t-10.5 -42.5
q0 -42 29.5 -64.5t79.5 -22.5q18 0 37.5 2.5t39.5 2.5q21 -1 40.5 -7.5t30.5 -27.5l14 -29q-35 -25 -90 -40.5t-115 -15.5q-105 0 -164.5 42.5t-59.5 112.5q0 28 12.5 55.5t34.5 52.5t51 48t62 43z" />
    <glyph glyph-name="Idotaccent" unicode="&#x130;" horiz-adv-x="617" 
d="M408 0h-198v1433h198v-1433zM174 1668q0 28 10.5 52.5t28.5 42.5t42.5 28.5t52.5 10.5t52.5 -10.5t42.5 -28.5t28.5 -42.5t10.5 -52.5t-10.5 -52.5t-28.5 -42.5t-42.5 -28.5t-52.5 -10.5t-52.5 10.5t-42.5 28.5t-28.5 42.5t-10.5 52.5z" />
    <glyph glyph-name="dotlessi" unicode="&#x131;" horiz-adv-x="532" 
d="M364 1032v-1032h-198v1032h198z" />
    <glyph glyph-name="IJ" unicode="&#x132;" horiz-adv-x="1444" 
d="M408 0h-198v1433h198v-1433zM1066 1433h198v-1223q0 -95 -36 -179t-98.5 -146t-146.5 -98t-179 -36q-94 0 -176 34.5t-145 95.5l56 56q45 45 109 45q20 -1 38.5 -6.5t37 -11.5t38 -10.5t42.5 -4.5q54 0 101.5 20.5t83.5 56t56.5 83t20.5 101.5v1223z" />
    <glyph glyph-name="ij" unicode="&#x133;" horiz-adv-x="1062" 
d="M364 1050v-1050h-198v1050h198zM131 1314q0 28 10.5 52.5t29 43t43 29t52.5 10.5t52.5 -10.5t43 -29t29 -43t10.5 -52.5t-10.5 -52.5t-29 -43t-43 -29t-52.5 -10.5t-52.5 10.5t-43 29t-29 43t-10.5 52.5zM896 37q-1 -73 -23 -138.5t-59.5 -120t-88.5 -96t-110 -65.5
l-31 71q-5 12 -8 31.5t-3 30.5q0 30 12 53t28.5 44t34 43t29.5 49q21 48 21 99v1012h198v-1013zM663 1314q0 28 10.5 52.5t29 43t43 29t52.5 10.5t52.5 -10.5t43 -29t29 -43t10.5 -52.5t-10.5 -52.5t-29 -43t-43 -29t-52.5 -10.5t-52.5 10.5t-43 29t-29 43t-10.5 52.5z" />
    <glyph glyph-name="Jcircumflex" unicode="&#x134;" horiz-adv-x="827" 
d="M449 1433h198v-1223q0 -95 -36 -179t-98.5 -146t-146.5 -98t-179 -36q-94 0 -176 34.5t-145 95.5l56 56q45 45 109 45q20 -1 38.5 -6.5t37 -11.5t38 -10.5t42.5 -4.5q54 0 101.5 20.5t83.5 56t56.5 83t20.5 101.5v1223zM450 1583q-42 -44 -115 -44h-74l162 204
q32 44 115 44h27q83 0 115 -44l162 -204h-74q-38 -1 -66 11t-49 33l-92 93q-5 5 -7.5 13t-2.5 10q-1 -3 -3 -10.5t-6 -12.5z" />
    <glyph glyph-name="jcircumflex" unicode="&#x135;" horiz-adv-x="530" 
d="M430 37q-1 -73 -23 -138.5t-59.5 -120t-88.5 -96t-110 -65.5l-31 71q-5 12 -8 31.5t-3 30.5q0 30 12 53t28.5 44t34 43t29.5 49q21 48 21 99v1012h198v-1013zM230 1205q-32 -44 -115 -44h-74q76 117 116.5 178t45.5 66q32 44 115 44h27q83 0 115 -44q5 -5 45.5 -66
t116.5 -178h-74q-83 0 -115 44l-92 113q-5 5 -7.5 13t-2.5 10q-1 -3 -3 -10.5t-6 -12.5z" />
    <glyph glyph-name="Kcommaaccent" unicode="&#x136;" horiz-adv-x="1320" 
d="M556 799l401 544q29 45 73.5 67.5t102.5 22.5h136l-492 -668q-11 -14 -20 -20.5t-11 -7.5q2 -2 11 -8t20 -20l525 -709h-136q-58 0 -102.5 22.5t-73.5 67.5l-434 585q-13 17 -25.5 28.5t-23 18.5t-17.5 10.5t-8 4.5q1 0 8 3t17.5 10t23 19t25.5 30zM390 0h-198v1433h198
v-1433zM522 -78h78q32 0 51 -17.5t19 -49.5q0 -5 -0.5 -9.5t-1.5 -9.5l-20 -129q-5 -30 -27.5 -49.5t-53.5 -19.5h-45v284z" />
    <glyph glyph-name="kcommaaccent" unicode="&#x137;" horiz-adv-x="1087" 
d="M350 0h-198v1433h198v-1433zM485 604l263 356q29 45 73.5 67.5t102.5 22.5h136l-354 -480q-11 -14 -20 -20.5t-11 -7.5q2 -2 11 -8t20 -20l381 -514h-136q-58 0 -102.5 22.5t-73.5 67.5l-290 390q-13 17 -25.5 28.5t-23 18.5t-17.5 10.5t-8 4.5q1 0 8 3t17.5 10t23 19
t25.5 30zM469 -161h78q32 0 51 -17.5t19 -49.5q0 -5 -0.5 -9.5t-1.5 -9.5l-20 -129q-5 -30 -27 -49.5t-54 -19.5h-45v284z" />
    <glyph glyph-name="kgreenlandic" unicode="&#x138;" horiz-adv-x="1087" 
d="M350 0h-198v1050h198v-1050zM485 604l263 356q29 45 73.5 67.5t102.5 22.5h136l-354 -480q-11 -14 -20 -20.5t-11 -7.5q2 -2 11 -8t20 -20l381 -514h-136q-58 0 -102.5 22.5t-73.5 67.5l-290 390q-13 17 -25.5 28.5t-23 18.5t-17.5 10.5t-8 4.5q1 0 8 3t17.5 10t23 19
t25.5 30z" />
    <glyph glyph-name="Lacute" unicode="&#x139;" horiz-adv-x="1032" 
d="M174 0v1433h198v-1235h619v-198h-817zM378 1588q-32 -44 -115 -44h-74q111 183 122 194q32 44 115 44h114z" />
    <glyph glyph-name="lacute" unicode="&#x13a;" horiz-adv-x="532" 
d="M364 1433v-1433h-198v1433h198zM365 1565q-33 -44 -115 -44h-74q130 232 142 244q32 44 115 44h114z" />
    <glyph glyph-name="Lcommaaccent" unicode="&#x13b;" horiz-adv-x="1032" 
d="M174 0v1433h198v-1235h619v-198h-817zM517 -139h78q32 0 51 -17.5t19 -49.5q0 -5 -0.5 -9.5t-1.5 -9.5l-20 -129q-5 -30 -27 -49.5t-54 -19.5h-45v284z" />
    <glyph glyph-name="lcommaaccent" unicode="&#x13c;" horiz-adv-x="532" 
d="M364 1433v-1433h-198v1433h198zM192 -119h78q32 0 51 -17.5t19 -49.5q0 -5 -0.5 -9.5t-1.5 -9.5l-20 -129q-5 -30 -27 -49.5t-54 -19.5h-45v284z" />
    <glyph glyph-name="Lcaron" unicode="&#x13d;" horiz-adv-x="1032" 
d="M174 0v1433h198v-1235h619v-198h-817zM490 1454h78q32 0 51 -17.5t19 -49.5q0 -5 -0.5 -9.5t-1.5 -9.5l-20 -129q-5 -30 -27 -49.5t-54 -19.5h-45v284z" />
    <glyph glyph-name="lcaron" unicode="&#x13e;" horiz-adv-x="604" 
d="M364 1433v-1433h-198v1433h198zM415 1431h78q32 0 51 -17.5t19 -49.5q0 -5 -0.5 -9.5t-1.5 -9.5l-20 -129q-5 -30 -27.5 -49.5t-53.5 -19.5h-45v284z" />
    <glyph glyph-name="Ldot" unicode="&#x13f;" horiz-adv-x="1032" 
d="M174 0v1433h198v-1235h619v-198h-817zM606 704q0 28 10.5 52.5t29 43t43 29t52.5 10.5t52.5 -10.5t43 -29t29 -43t10.5 -52.5t-10.5 -52.5t-29 -43t-43 -29t-52.5 -10.5t-52.5 10.5t-43 29t-29 43t-10.5 52.5z" />
    <glyph glyph-name="ldot" unicode="&#x140;" horiz-adv-x="743" 
d="M364 1433v-1433h-198v1433h198zM393 556q0 28 10.5 52.5t29 43t43 29t52.5 10.5t52.5 -10.5t43 -29t29 -43t10.5 -52.5t-10.5 -52.5t-29 -43t-43 -29t-52.5 -10.5t-52.5 10.5t-43 29t-29 43t-10.5 52.5z" />
    <glyph glyph-name="Lslash" unicode="&#x141;" horiz-adv-x="1032" 
d="M174 0v599l-204 -148v63q0 23 10 46.5t34 40.5l160 117v715h198v-571l227 166v-80q0 -26 -9 -39t-31 -29l-187 -136v-546h619v-198h-817z" />
    <glyph glyph-name="lslash" unicode="&#x142;" horiz-adv-x="532" 
d="M147 402q-22 -29 -51 -42t-58 -13h-78l426 579q20 27 36 38.5t48 11.5h100zM364 1433v-1433h-198v1433h198z" />
    <glyph glyph-name="Nacute" unicode="&#x143;" horiz-adv-x="1559" 
d="M1384 0h-161l-819 1119q-8 11 -13.5 24.5t-9.5 27.5q-4 15 -7 32v-1203h-198v1433h141q48 0 84 -14t57 -43l695 -957q27 -39 33 -99v1113h198v-1433zM793 1588q-32 -44 -115 -44h-74q111 183 122 194q32 44 115 44h114z" />
    <glyph glyph-name="nacute" unicode="&#x144;" horiz-adv-x="1164" 
d="M314 1050l4.5 -6.5t10 -17.5t10.5 -26.5t5 -33.5v-43q18 35 50 61.5t72 44.5t86.5 27t94.5 9q88 0 161 -31.5t124.5 -91.5t80 -147t28.5 -198v-597h-198v597q0 131 -48 205.5t-148 74.5q-60 0 -113.5 -13.5t-95 -36.5t-66.5 -55t-28 -68v-704h-198v1050h168zM687 1205
q-33 -44 -115 -44h-74q130 232 142 244q32 44 115 44h114z" />
    <glyph glyph-name="Ncommaaccent" unicode="&#x145;" horiz-adv-x="1559" 
d="M1384 0h-161l-819 1119q-8 11 -13.5 24.5t-9.5 27.5q-4 15 -7 32v-1203h-198v1433h141q48 0 84 -14t57 -43l695 -957q27 -39 33 -99v1113h198v-1433zM677 -78h78q32 0 51 -17.5t19 -49.5q0 -5 -0.5 -9.5t-1.5 -9.5l-20 -129q-5 -30 -27.5 -49.5t-53.5 -19.5h-45v284z" />
    <glyph glyph-name="ncommaaccent" unicode="&#x146;" horiz-adv-x="1164" 
d="M314 1050l4.5 -6.5t10 -17.5t10.5 -26.5t5 -33.5v-43q18 35 50 61.5t72 44.5t86.5 27t94.5 9q88 0 161 -31.5t124.5 -91.5t80 -147t28.5 -198v-597h-198v597q0 131 -48 205.5t-148 74.5q-60 0 -113.5 -13.5t-95 -36.5t-66.5 -55t-28 -68v-704h-198v1050h168zM508 -143h78
q32 0 51 -17.5t19 -49.5q0 -5 -0.5 -9.5t-1.5 -9.5l-20 -129q-5 -30 -27 -49.5t-54 -19.5h-45v284z" />
    <glyph glyph-name="Ncaron" unicode="&#x147;" horiz-adv-x="1559" 
d="M1384 0h-161l-819 1119q-8 11 -13.5 24.5t-9.5 27.5q-4 15 -7 32v-1203h-198v1433h141q48 0 84 -14t57 -43l695 -957q27 -39 33 -99v1113h198v-1433zM770 1675q4 -7 6 -14.5t3 -9.5q0 2 2.5 10t7.5 14l92 113q32 44 115 44h74q-76 -117 -116.5 -178t-45.5 -66
q-32 -44 -115 -44h-27q-83 0 -115 44q-5 5 -45.5 66t-116.5 178h74q83 0 115 -44z" />
    <glyph glyph-name="ncaron" unicode="&#x148;" horiz-adv-x="1164" 
d="M314 1050l4.5 -6.5t10 -17.5t10.5 -26.5t5 -33.5v-43q18 35 50 61.5t72 44.5t86.5 27t94.5 9q88 0 161 -31.5t124.5 -91.5t80 -147t28.5 -198v-597h-198v597q0 131 -48 205.5t-148 74.5q-60 0 -113.5 -13.5t-95 -36.5t-66.5 -55t-28 -68v-704h-198v1050h168zM588 1292
q4 -7 6 -14.5t3 -9.5q0 2 2.5 10t7.5 14l92 113q32 44 115 44h74q-76 -117 -116.5 -178t-45.5 -66q-32 -44 -115 -44h-27q-83 0 -115 44q-5 5 -45.5 66t-116.5 178h74q83 0 115 -44z" />
    <glyph glyph-name="napostrophe" unicode="&#x149;" horiz-adv-x="1164" 
d="M314 1050l4.5 -6.5t10 -17.5t10.5 -26.5t5 -33.5v-43q18 35 50 61.5t72 44.5t86.5 27t94.5 9q88 0 161 -31.5t124.5 -91.5t80 -147t28.5 -198v-597h-198v597q0 131 -48 205.5t-148 74.5q-60 0 -113.5 -13.5t-95 -36.5t-66.5 -55t-28 -68v-704h-198v1050h168zM148 1435h78
q32 0 51 -17.5t19 -49.5q0 -5 -0.5 -9.5t-1.5 -9.5l-20 -129q-5 -30 -27 -49.5t-54 -19.5h-45v284z" />
    <glyph glyph-name="Eng" unicode="&#x14a;" horiz-adv-x="1559" 
d="M1384 145q0 -82 -41.5 -154t-107.5 -125t-148 -84t-163 -31q-94 0 -176 34.5t-145 95.5l56 56q45 45 109 45q20 -1 38.5 -6.5t37 -11.5t38 -10.5t42.5 -4.5q76 0 138 39t95 102l-753 1029q-7 10 -12.5 23.5t-9.5 26t-6 22t-2 11.5v-1202h-198v1433h141q48 0 84 -14
t57 -43l695 -957q14 -20 21 -44.5t12 -54.5v1113h198v-1288z" />
    <glyph glyph-name="eng" unicode="&#x14b;" horiz-adv-x="1164" 
d="M1095 37q-1 -73 -23 -138.5t-59.5 -120t-88.5 -96t-110 -65.5l-31 71q-5 12 -8 31.5t-3 30.5q0 30 12 53t28.5 44t34 43t29.5 49q21 48 21 99v559q0 131 -48 205.5t-148 74.5q-60 0 -113.5 -13.5t-95 -36.5t-66.5 -55t-28 -68v-704h-198v1050h168l4.5 -6.5t10 -17.5
t10.5 -26.5t5 -33.5v-43q18 35 50 61.5t72 44.5t86.5 27t94.5 9q88 0 161 -31.5t124.5 -91.5t80 -147t28.5 -198v-560z" />
    <glyph glyph-name="Omacron" unicode="&#x14c;" horiz-adv-x="1648" 
d="M92 717q0 101 26 194.5t74 175t114.5 148t148 114.5t175 74t194.5 26t194.5 -26t175 -74t148 -114.5t114.5 -148t74 -175t26 -194.5t-26 -194.5t-74 -175t-114.5 -148t-148 -114.5t-175 -74t-194.5 -26q-152 0 -285 57.5t-232.5 157t-157 232.5t-57.5 285zM290 717
q0 -111 42 -208t114.5 -169.5t169.5 -114.5t208 -42t208 42t169.5 114.5t114.5 169.5t42 208t-42 208t-114.5 169.5t-169.5 114.5t-208 42t-208 -42t-169.5 -114.5t-114.5 -169.5t-42 -208zM547 1708h554v-148h-554v148z" />
    <glyph glyph-name="omacron" unicode="&#x14d;" horiz-adv-x="1226" 
d="M72 525q0 111 42.5 209.5t116 172t172 116t209.5 42.5t209.5 -42.5t172 -116t116 -172t42.5 -209.5t-42.5 -209.5t-116 -172t-172 -116t-209.5 -42.5t-209.5 42.5t-172 116t-116 172t-42.5 209.5zM265 525q0 -72 27.5 -135t74.5 -110t110 -74.5t135 -27.5t135 27.5
t110 74.5t74.5 110t27.5 135t-27.5 135t-74.5 110t-110 74.5t-135 27.5t-135 -27.5t-110 -74.5t-74.5 -110t-27.5 -135zM336 1348h554v-148h-554v148z" />
    <glyph glyph-name="Obreve" unicode="&#x14e;" horiz-adv-x="1648" 
d="M92 717q0 101 26 194.5t74 175t114.5 148t148 114.5t175 74t194.5 26t194.5 -26t175 -74t148 -114.5t114.5 -148t74 -175t26 -194.5t-26 -194.5t-74 -175t-114.5 -148t-148 -114.5t-175 -74t-194.5 -26q-152 0 -285 57.5t-232.5 157t-157 232.5t-57.5 285zM290 717
q0 -111 42 -208t114.5 -169.5t169.5 -114.5t208 -42t208 42t169.5 114.5t114.5 169.5t42 208t-42 208t-114.5 169.5t-169.5 114.5t-208 42t-208 -42t-169.5 -114.5t-114.5 -169.5t-42 -208zM1101 1781q0 -57 -22 -104.5t-59.5 -81.5t-88 -52.5t-107.5 -18.5t-107.5 18.5
t-88 52.5t-59.5 81.5t-22 104.5h52q29 0 53.5 -16.5t33.5 -44.5q19 -37 55.5 -53.5t82.5 -16.5q45 0 82 16.5t55 53.5q11 29 35 45t53 16h52z" />
    <glyph glyph-name="obreve" unicode="&#x14f;" horiz-adv-x="1226" 
d="M72 525q0 111 42.5 209.5t116 172t172 116t209.5 42.5t209.5 -42.5t172 -116t116 -172t42.5 -209.5t-42.5 -209.5t-116 -172t-172 -116t-209.5 -42.5t-209.5 42.5t-172 116t-116 172t-42.5 209.5zM265 525q0 -72 27.5 -135t74.5 -110t110 -74.5t135 -27.5t135 27.5
t110 74.5t74.5 110t27.5 135t-27.5 135t-74.5 110t-110 74.5t-135 27.5t-135 -27.5t-110 -74.5t-74.5 -110t-27.5 -135zM890 1421q0 -57 -22 -106t-59.5 -85t-88 -56t-107.5 -20t-107.5 20t-88 56t-59.5 85t-22 106h52q29 0 53.5 -16.5t33.5 -44.5q19 -37 55.5 -58.5
t82.5 -21.5q45 0 82 21.5t55 58.5q11 29 35 45t53 16h52z" />
    <glyph glyph-name="Ohungarumlaut" unicode="&#x150;" horiz-adv-x="1648" 
d="M92 717q0 101 26 194.5t74 175t114.5 148t148 114.5t175 74t194.5 26t194.5 -26t175 -74t148 -114.5t114.5 -148t74 -175t26 -194.5t-26 -194.5t-74 -175t-114.5 -148t-148 -114.5t-175 -74t-194.5 -26q-152 0 -285 57.5t-232.5 157t-157 232.5t-57.5 285zM290 717
q0 -111 42 -208t114.5 -169.5t169.5 -114.5t208 -42t208 42t169.5 114.5t114.5 169.5t42 208t-42 208t-114.5 169.5t-169.5 114.5t-208 42t-208 -42t-169.5 -114.5t-114.5 -169.5t-42 -208zM783 1588q-33 -44 -115 -44h-54q130 232 142 244q32 44 115 44h94zM1028 1588
q-32 -44 -115 -44h-64l172 244q32 44 115 44h104z" />
    <glyph glyph-name="ohungarumlaut" unicode="&#x151;" horiz-adv-x="1226" 
d="M72 525q0 111 42.5 209.5t116 172t172 116t209.5 42.5t209.5 -42.5t172 -116t116 -172t42.5 -209.5t-42.5 -209.5t-116 -172t-172 -116t-209.5 -42.5t-209.5 42.5t-172 116t-116 172t-42.5 209.5zM265 525q0 -72 27.5 -135t74.5 -110t110 -74.5t135 -27.5t135 27.5
t110 74.5t74.5 110t27.5 135t-27.5 135t-74.5 110t-110 74.5t-135 27.5t-135 -27.5t-110 -74.5t-74.5 -110t-27.5 -135zM566 1205q-33 -44 -115 -44h-54q130 232 142 244q32 44 115 44h94zM811 1205q-32 -44 -115 -44h-64l172 244q32 44 115 44h104z" />
    <glyph glyph-name="OE" unicode="&#x152;" horiz-adv-x="2192" 
d="M92 717q0 101 26 194.5t74 175t114.5 148t148 114.5t175 74t194.5 26q39 0 77 -4t75 -12h1113v-198h-748q82 -82 136 -187t71 -226h410v-198h-408q-16 -125 -70.5 -233t-139.5 -193h749v-198h-1118q-71 -15 -147 -15q-152 0 -285 57.5t-232.5 157t-157 232.5t-57.5 285z
M290 717q0 -111 42 -208t114.5 -169.5t169.5 -114.5t208 -42t208 42t169.5 114.5t114.5 169.5t42 208t-42 208t-114.5 169.5t-169.5 114.5t-208 42t-208 -42t-169.5 -114.5t-114.5 -169.5t-42 -208z" />
    <glyph glyph-name="oe" unicode="&#x153;" horiz-adv-x="2098" 
d="M2022 614q0 -35 -13.5 -62.5t-33.5 -47t-44.5 -30t-46.5 -10.5h-730q9 -61 40 -113t77 -90.5t104 -60.5t121 -22q46 0 88.5 11.5t80.5 32.5q20 11 39 16t42 5q32 0 58 -12t49 -35l38 -38q-75 -80 -176 -126.5t-219 -46.5q-128 0 -237 54.5t-184 147.5q-5 7 -9 16
q-4 8 -7.5 18t-4.5 21q-1 -12 -4 -21.5t-7 -17.5q-4 -9 -10 -16q-37 -46 -83.5 -83.5t-100.5 -63.5t-113.5 -40.5t-123.5 -14.5q-111 0 -209.5 42.5t-172 116t-116 172t-42.5 209.5t42.5 209.5t116 172t172 116t209.5 42.5q66 0 136.5 -18t132 -52t108 -82.5t65.5 -108.5
q1 8 6 19.5t11 23.5t12.5 23t12.5 17q74 82 177.5 130t222.5 48q93 0 178 -31t154 -85t118.5 -128t71.5 -161q3 -11 3 -23t1 -23zM265 525q0 -72 27.5 -135t74.5 -110t110 -74.5t135 -27.5q67 0 127 24t106.5 66t76 99t35.5 123q0 9 -0.5 17.5t-0.5 17.5q0 8 0.5 17t0.5 17
q-6 66 -35.5 123t-76 99t-106.5 66.5t-127 24.5q-72 0 -135 -27.5t-110 -74.5t-74.5 -110t-27.5 -135zM1229 657h588q-20 47 -52 86.5t-73.5 68t-91.5 44.5t-104 16q-59 0 -112.5 -18.5t-97 -51.5t-75 -78.5t-47.5 -99.5q8 11 24 22t41 11z" />
    <glyph glyph-name="Racute" unicode="&#x154;" horiz-adv-x="1292" 
d="M391 0h-198v1433h514q87 0 163.5 -33t133 -89.5t89.5 -133t33 -163.5q0 -70 -21.5 -133.5t-60.5 -115.5t-92.5 -90.5t-116.5 -58.5l456 -616h-136q-58 0 -102.5 22.5t-73.5 67.5l-375 506h-213v-596zM391 1235v-441h316q46 0 86 17t70 47t47.5 70t17.5 86t-17.5 86
t-47.5 70t-70 47.5t-86 17.5h-316zM659 1588q-32 -44 -115 -44h-74q111 183 122 194q32 44 115 44h114z" />
    <glyph glyph-name="racute" unicode="&#x155;" horiz-adv-x="780" 
d="M314 1050l4.5 -6.5t10 -17.5t10.5 -26.5t5 -33.5v-73q18 36 50 67t72 54.5t86.5 37t94.5 13.5q81 0 153 -29l-15 -85q-8 -42 -36 -65.5t-69 -23.5q-5 0 -6 0.5t-3.5 0.5t-7.5 0.5t-18 0.5q-60 0 -113.5 -17.5t-94 -45.5t-65.5 -63.5t-28 -71.5v-666h-198v1050h168z
M458 1205q-33 -44 -115 -44h-74q130 232 142 244q32 44 115 44h114z" />
    <glyph glyph-name="Rcommaaccent" unicode="&#x156;" horiz-adv-x="1292" 
d="M391 0h-198v1433h514q87 0 163.5 -33t133 -89.5t89.5 -133t33 -163.5q0 -70 -21.5 -133.5t-60.5 -115.5t-92.5 -90.5t-116.5 -58.5l456 -616h-136q-58 0 -102.5 22.5t-73.5 67.5l-375 506h-213v-596zM391 1235v-441h316q46 0 86 17t70 47t47.5 70t17.5 86t-17.5 86
t-47.5 70t-70 47.5t-86 17.5h-316zM539 -78h78q32 0 51 -17.5t19 -49.5q0 -5 -0.5 -9.5t-1.5 -9.5l-20 -129q-5 -30 -27.5 -49.5t-53.5 -19.5h-45v284z" />
    <glyph glyph-name="rcommaaccent" unicode="&#x157;" horiz-adv-x="780" 
d="M314 1050l4.5 -6.5t10 -17.5t10.5 -26.5t5 -33.5v-73q18 36 50 67t72 54.5t86.5 37t94.5 13.5q81 0 153 -29l-15 -85q-8 -42 -36 -65.5t-69 -23.5q-5 0 -6 0.5t-3.5 0.5t-7.5 0.5t-18 0.5q-60 0 -113.5 -17.5t-94 -45.5t-65.5 -63.5t-28 -71.5v-666h-198v1050h168z
M181 -80h78q32 0 51 -17.5t19 -49.5q0 -5 -0.5 -9.5t-1.5 -9.5l-20 -129q-5 -30 -27 -49.5t-54 -19.5h-45v284z" />
    <glyph glyph-name="Rcaron" unicode="&#x158;" horiz-adv-x="1292" 
d="M391 0h-198v1433h514q87 0 163.5 -33t133 -89.5t89.5 -133t33 -163.5q0 -70 -21.5 -133.5t-60.5 -115.5t-92.5 -90.5t-116.5 -58.5l456 -616h-136q-58 0 -102.5 22.5t-73.5 67.5l-375 506h-213v-596zM391 1235v-441h316q46 0 86 17t70 47t47.5 70t17.5 86t-17.5 86
t-47.5 70t-70 47.5t-86 17.5h-316zM636 1675q4 -7 6 -14.5t3 -9.5q0 2 2.5 10t7.5 14l92 113q32 44 115 44h74q-76 -117 -116.5 -178t-45.5 -66q-32 -44 -115 -44h-27q-83 0 -115 44q-5 5 -45.5 66t-116.5 178h74q83 0 115 -44z" />
    <glyph glyph-name="rcaron" unicode="&#x159;" horiz-adv-x="780" 
d="M342 1050l4.5 -6.5t10 -17.5t10.5 -26.5t5 -33.5v-73q18 36 50 67t72 54.5t86.5 37t94.5 13.5q81 0 153 -29l-15 -85q-8 -42 -36 -65.5t-69 -23.5q-5 0 -6 0.5t-3.5 0.5t-7.5 0.5t-18 0.5q-60 0 -113.5 -17.5t-94 -45.5t-65.5 -63.5t-28 -71.5v-666h-198v1050h168z
M427 1292q4 -7 6 -14.5t3 -9.5q0 2 2.5 10t7.5 14l92 113q32 44 115 44h74q-76 -117 -116.5 -178t-45.5 -66q-32 -44 -115 -44h-27q-83 0 -115 44q-5 5 -45.5 66t-116.5 178h74q83 0 115 -44z" />
    <glyph glyph-name="Sacute" unicode="&#x15a;" horiz-adv-x="1065" 
d="M698 1189q-39 28 -79 44.5t-75 16.5q-47 0 -88.5 -13t-73 -36t-50 -54.5t-18.5 -68.5q0 -43 14 -73t45 -53.5t80.5 -44.5t120.5 -45q35 -14 70.5 -26.5t69.5 -27t67 -31.5t63 -40q151 -115 151 -310q0 -98 -40 -179t-108 -139.5t-157 -91t-186 -32.5q-193 0 -323 115
q-26 23 -46 46.5t-34.5 45.5t-24.5 40t-16 30l48 25q38 23 79 23q65 0 110 -47l16 -13q38 -32 84.5 -49.5t106.5 -17.5q49 0 101 16t94.5 46.5t70 76t27.5 105.5q0 58 -26 96t-67.5 65t-93 46t-101.5 39q-74 29 -144.5 60t-126 75.5t-89 109t-33.5 160.5q0 88 36.5 157
t96.5 116.5t137 72.5t158 25q59 0 117 -20t109 -51t92 -68t68 -70l-51 -38q-42 -36 -97 -36q-47 0 -84 23zM644 1588q-32 -44 -115 -44h-74q111 183 122 194q32 44 115 44h114z" />
    <glyph glyph-name="sacute" unicode="&#x15b;" horiz-adv-x="852" 
d="M116 225q20 10 39.5 16.5t39.5 6.5q26 0 49.5 -10t56.5 -33q23 -16 50 -23t56 -7q31 0 61.5 9.5t54.5 28t39 45.5t15 63q0 28 -8.5 48t-29.5 36.5t-56.5 32t-88.5 33.5q-55 19 -108.5 43.5t-95.5 59.5t-68 85t-26 120q0 61 28 113.5t73.5 90.5t103.5 60t118 22
q61 0 111.5 -22t87 -50t58 -53t26.5 -31l-47 -40q-42 -36 -98 -36q-20 0 -42.5 8.5t-52.5 23.5q-20 10 -43 10q-39 0 -64.5 -11t-41 -26.5t-21.5 -32t-6 -26.5q0 -29 15 -48.5t39 -34t54.5 -25.5t61.5 -21q60 -20 116 -46t99.5 -64t69.5 -91.5t26 -127.5q0 -68 -26.5 -128.5
t-74.5 -107t-114 -73.5t-145 -27q-54 0 -105.5 14.5t-96.5 42.5t-81.5 67t-61.5 89zM508 1205q-33 -44 -115 -44h-74q130 232 142 244q32 44 115 44h114z" />
    <glyph glyph-name="Scircumflex" unicode="&#x15c;" horiz-adv-x="1065" 
d="M698 1189q-39 28 -79 44.5t-75 16.5q-47 0 -88.5 -13t-73 -36t-50 -54.5t-18.5 -68.5q0 -43 14 -73t45 -53.5t80.5 -44.5t120.5 -45q35 -14 70.5 -26.5t69.5 -27t67 -31.5t63 -40q151 -115 151 -310q0 -98 -40 -179t-108 -139.5t-157 -91t-186 -32.5q-193 0 -323 115
q-26 23 -46 46.5t-34.5 45.5t-24.5 40t-16 30l48 25q38 23 79 23q65 0 110 -47l16 -13q38 -32 84.5 -49.5t106.5 -17.5q49 0 101 16t94.5 46.5t70 76t27.5 105.5q0 58 -26 96t-67.5 65t-93 46t-101.5 39q-74 29 -144.5 60t-126 75.5t-89 109t-33.5 160.5q0 88 36.5 157
t96.5 116.5t137 72.5t158 25q59 0 117 -20t109 -51t92 -68t68 -70l-51 -38q-42 -36 -97 -36q-47 0 -84 23zM444 1578q-42 -44 -115 -44h-74l162 204q32 44 115 44h27q83 0 115 -44l162 -204h-74q-38 -1 -66 11t-49 33l-92 93q-5 5 -7.5 13t-2.5 10q-1 -3 -3 -10.5t-6 -12.5z
" />
    <glyph glyph-name="scircumflex" unicode="&#x15d;" horiz-adv-x="852" 
d="M116 225q20 10 39.5 16.5t39.5 6.5q26 0 49.5 -10t56.5 -33q23 -16 50 -23t56 -7q31 0 61.5 9.5t54.5 28t39 45.5t15 63q0 28 -8.5 48t-29.5 36.5t-56.5 32t-88.5 33.5q-55 19 -108.5 43.5t-95.5 59.5t-68 85t-26 120q0 61 28 113.5t73.5 90.5t103.5 60t118 22
q61 0 111.5 -22t87 -50t58 -53t26.5 -31l-47 -40q-42 -36 -98 -36q-20 0 -42.5 8.5t-52.5 23.5q-20 10 -43 10q-39 0 -64.5 -11t-41 -26.5t-21.5 -32t-6 -26.5q0 -29 15 -48.5t39 -34t54.5 -25.5t61.5 -21q60 -20 116 -46t99.5 -64t69.5 -91.5t26 -127.5q0 -68 -26.5 -128.5
t-74.5 -107t-114 -73.5t-145 -27q-54 0 -105.5 14.5t-96.5 42.5t-81.5 67t-61.5 89zM314 1205q-32 -44 -115 -44h-74q76 117 116.5 178t45.5 66q32 44 115 44h27q83 0 115 -44q5 -5 45.5 -66t116.5 -178h-74q-83 0 -115 44l-92 113q-5 5 -7.5 13t-2.5 10q-1 -3 -3 -10.5
t-6 -12.5z" />
    <glyph glyph-name="Scedilla" unicode="&#x15e;" horiz-adv-x="1065" 
d="M698 1189q-39 28 -79 44.5t-75 16.5q-47 0 -88.5 -13t-73 -36t-50 -54.5t-18.5 -68.5q0 -43 14 -73t45 -53.5t80.5 -44.5t120.5 -45q35 -14 70.5 -26.5t69.5 -27t67 -31.5t63 -40q151 -115 151 -310q0 -98 -40 -179t-108 -139.5t-157 -91t-186 -32.5q-193 0 -323 115
q-26 23 -46 46.5t-34.5 45.5t-24.5 40t-16 30l48 25q38 23 79 23q65 0 110 -47l16 -13q38 -32 84.5 -49.5t106.5 -17.5q49 0 101 16t94.5 46.5t70 76t27.5 105.5q0 58 -26 96t-67.5 65t-93 46t-101.5 39q-74 29 -144.5 60t-126 75.5t-89 109t-33.5 160.5q0 88 36.5 157
t96.5 116.5t137 72.5t158 25q59 0 117 -20t109 -51t92 -68t68 -70l-51 -38q-42 -36 -97 -36q-47 0 -84 23zM490 10h106l-1 -76q41 -3 76 -16t61 -33t41 -45.5t15 -53.5q0 -31 -17.5 -58t-47.5 -47.5t-70 -32.5t-86 -12q-22 0 -44 6t-39 14q-20 9 -39 21v73q19 -7 40 -12
q17 -5 39 -8t43 -3q36 0 62 17.5t26 41.5t-26 41.5t-62 17.5q-8 0 -16.5 -0.5t-16.5 -0.5q-19 0 -31.5 8.5t-12.5 40.5v117z" />
    <glyph glyph-name="scedilla" unicode="&#x15f;" horiz-adv-x="852" 
d="M116 225q20 10 39.5 16.5t39.5 6.5q26 0 49.5 -10t56.5 -33q23 -16 50 -23t56 -7q31 0 61.5 9.5t54.5 28t39 45.5t15 63q0 28 -8.5 48t-29.5 36.5t-56.5 32t-88.5 33.5q-55 19 -108.5 43.5t-95.5 59.5t-68 85t-26 120q0 61 28 113.5t73.5 90.5t103.5 60t118 22
q61 0 111.5 -22t87 -50t58 -53t26.5 -31l-47 -40q-42 -36 -98 -36q-20 0 -42.5 8.5t-52.5 23.5q-20 10 -43 10q-39 0 -64.5 -11t-41 -26.5t-21.5 -32t-6 -26.5q0 -29 15 -48.5t39 -34t54.5 -25.5t61.5 -21q60 -20 116 -46t99.5 -64t69.5 -91.5t26 -127.5q0 -68 -26.5 -128.5
t-74.5 -107t-114 -73.5t-145 -27q-54 0 -105.5 14.5t-96.5 42.5t-81.5 67t-61.5 89zM360 10h106l-1 -76q41 -3 76 -16t61 -33t41 -45.5t15 -53.5q0 -31 -17.5 -58t-47.5 -47.5t-70 -32.5t-86 -12q-22 0 -44 6t-39 14q-20 9 -39 21v73q19 -7 40 -12q17 -5 39 -8t43 -3
q36 0 62 17.5t26 41.5t-26 41.5t-62 17.5q-8 0 -16.5 -0.5t-16.5 -0.5q-19 0 -31.5 8.5t-12.5 40.5v117z" />
    <glyph glyph-name="Scaron" unicode="&#x160;" horiz-adv-x="1065" 
d="M698 1189q-39 28 -79 44.5t-75 16.5q-47 0 -88.5 -13t-73 -36t-50 -54.5t-18.5 -68.5q0 -43 14 -73t45 -53.5t80.5 -44.5t120.5 -45q35 -14 70.5 -26.5t69.5 -27t67 -31.5t63 -40q151 -115 151 -310q0 -98 -40 -179t-108 -139.5t-157 -91t-186 -32.5q-193 0 -323 115
q-26 23 -46 46.5t-34.5 45.5t-24.5 40t-16 30l48 25q38 23 79 23q65 0 110 -47l16 -13q38 -32 84.5 -49.5t106.5 -17.5q49 0 101 16t94.5 46.5t70 76t27.5 105.5q0 58 -26 96t-67.5 65t-93 46t-101.5 39q-74 29 -144.5 60t-126 75.5t-89 109t-33.5 160.5q0 88 36.5 157
t96.5 116.5t137 72.5t158 25q59 0 117 -20t109 -51t92 -68t68 -70l-51 -38q-42 -36 -97 -36q-47 0 -84 23zM523 1674q4 -7 6 -14.5t3 -9.5q0 2 2.5 10t7.5 14l92 113q32 44 115 44h74q-76 -117 -116.5 -178t-45.5 -66q-32 -44 -115 -44h-27q-83 0 -115 44q-5 5 -45.5 66
t-116.5 178h74q83 0 115 -44z" />
    <glyph glyph-name="scaron" unicode="&#x161;" horiz-adv-x="852" 
d="M116 225q20 10 39.5 16.5t39.5 6.5q26 0 49.5 -10t56.5 -33q23 -16 50 -23t56 -7q31 0 61.5 9.5t54.5 28t39 45.5t15 63q0 28 -8.5 48t-29.5 36.5t-56.5 32t-88.5 33.5q-55 19 -108.5 43.5t-95.5 59.5t-68 85t-26 120q0 61 28 113.5t73.5 90.5t103.5 60t118 22
q61 0 111.5 -22t87 -50t58 -53t26.5 -31l-47 -40q-42 -36 -98 -36q-20 0 -42.5 8.5t-52.5 23.5q-20 10 -43 10q-39 0 -64.5 -11t-41 -26.5t-21.5 -32t-6 -26.5q0 -29 15 -48.5t39 -34t54.5 -25.5t61.5 -21q60 -20 116 -46t99.5 -64t69.5 -91.5t26 -127.5q0 -68 -26.5 -128.5
t-74.5 -107t-114 -73.5t-145 -27q-54 0 -105.5 14.5t-96.5 42.5t-81.5 67t-61.5 89zM397 1292q4 -7 6 -14.5t3 -9.5q0 2 2.5 10t7.5 14l92 113q32 44 115 44h74q-76 -117 -116.5 -178t-45.5 -66q-32 -44 -115 -44h-27q-83 0 -115 44q-5 5 -45.5 66t-116.5 178h74
q83 0 115 -44z" />
    <glyph glyph-name="Tcommaaccent" unicode="&#x162;" horiz-adv-x="1145" 
d="M28 1235v199h1089v-199h-445v-1235h-198v1235h-446zM498 -112h78q32 0 51 -17.5t19 -49.5q0 -5 -0.5 -9.5t-1.5 -9.5l-20 -129q-5 -30 -27 -49.5t-54 -19.5h-45v284z" />
    <glyph glyph-name="tcommaaccent" unicode="&#x163;" horiz-adv-x="759" 
d="M401 265q0 -16 5 -32t14 -29.5t22.5 -22t31.5 -8.5l24 3q43 12 75 12q41 0 72 -21t52 -52l24 -35q-18 -18 -48.5 -35.5t-65 -30.5t-70 -21t-63.5 -8q-63 0 -113 21t-85 58t-54 88.5t-19 112.5v596h-175v108q0 83 153 83h22v216q0 32 7.5 60t16.5 48q11 24 24 43h150v-368
h291v-190h-291v-596zM305 -179h78q32 0 51 -17.5t19 -49.5q0 -5 -0.5 -9.5t-1.5 -9.5l-20 -129q-5 -30 -27 -49.5t-54 -19.5h-45v284z" />
    <glyph glyph-name="Tcaron" unicode="&#x164;" horiz-adv-x="1145" 
d="M28 1235v199h1089v-199h-445v-1235h-198v1235h-446zM563 1675q4 -7 6 -14.5t3 -9.5q0 2 2.5 10t7.5 14l92 113q32 44 115 44h74q-76 -117 -116.5 -178t-45.5 -66q-32 -44 -115 -44h-27q-83 0 -115 44q-5 5 -45.5 66t-116.5 178h74q83 0 115 -44z" />
    <glyph glyph-name="tcaron" unicode="&#x165;" horiz-adv-x="857" 
d="M401 265q0 -16 5 -32t14 -29.5t22.5 -22t31.5 -8.5l24 3q43 12 75 12q41 0 72 -21t52 -52l24 -35q-18 -18 -48.5 -35.5t-65 -30.5t-70 -21t-63.5 -8q-63 0 -113 21t-85 58t-54 88.5t-19 112.5v596h-175v108q0 83 153 83h22v216q0 32 7.5 60t16.5 48q11 24 24 43h150v-368
h291v-190h-291v-596zM711 1434h78q32 0 51 -17.5t19 -49.5q0 -5 -0.5 -9.5t-1.5 -9.5l-20 -129q-5 -30 -27 -49.5t-54 -19.5h-45v284z" />
    <glyph glyph-name="Tbar" unicode="&#x166;" horiz-adv-x="1145" 
d="M28 1235v199h1089v-199h-445v-1235h-198v1235h-446zM295 800h554v-148h-554v148z" />
    <glyph glyph-name="tbar" unicode="&#x167;" horiz-adv-x="759" 
d="M407 265q0 -16 5 -32t14 -29.5t22.5 -22t31.5 -8.5l24 3q43 12 75 12q41 0 72 -21t52 -52l24 -35q-18 -18 -48.5 -35.5t-65 -30.5t-70 -21t-63.5 -8q-63 0 -113 21t-85 58t-54 88.5t-19 112.5v596h-175v108q0 83 153 83h22v216q0 32 7.5 60t16.5 48q11 24 24 43h150v-368
h291v-190h-291v-596zM28.2822 719.867h670.015v-146.997h-670.015v146.997z" />
    <glyph glyph-name="Utilde" unicode="&#x168;" horiz-adv-x="1454" 
d="M353 560q0 -78 29.5 -147t81 -120.5t120.5 -81t147 -29.5t147 29.5t120.5 81t81 120.5t29.5 147v873h199v-873q0 -80 -20.5 -153.5t-58 -137.5t-90.5 -116.5t-117 -90t-137.5 -58t-153.5 -20.5q-79 0 -152.5 20.5t-137.5 58t-117 90t-90.5 116.5t-58 138t-20.5 153v873
h198v-873zM846 1533q-38 0 -73 14t-66.5 31t-57 31t-43.5 14q-16 0 -25.5 -8t-15 -20t-7 -26t-1.5 -25h-130v10q0 41 12 77.5t35 63.5t56 42.5t76 15.5q34 0 67 -14t63.5 -31t58.5 -31t51 -14q18 0 29 5.5t17 14.5t7.5 22t1.5 28h130q-4 -48 -13 -83.5t-29.5 -60
t-54.5 -38.5t-88 -18z" />
    <glyph glyph-name="utilde" unicode="&#x169;" horiz-adv-x="1164" 
d="M849 0l-4.5 6.5t-10 17.5t-10.5 26.5t-5 33.5v43q-18 -36 -50 -62.5t-72 -44t-86.5 -26.5t-94.5 -9q-89 0 -161.5 33t-124 94t-80 147.5t-28.5 193.5v597h198v-597q0 -131 48 -205.5t148 -74.5q60 0 113.5 14.5t95 39.5t66.5 58t28 69v696h198v-1050h-168zM701 1201
q-38 0 -73 14t-66.5 31t-57 31t-43.5 14q-16 0 -25.5 -9.5t-15 -23.5t-7 -29.5t-1.5 -26.5h-130v10q0 42 12 79.5t35 66.5t56 46t76 17q34 0 67 -14t63.5 -31t58.5 -31t51 -14q18 0 29 7t17 18t7.5 25.5t1.5 29.5h130q-4 -48 -13 -87t-29.5 -66t-54.5 -42t-88 -15z" />
    <glyph glyph-name="Umacron" unicode="&#x16a;" horiz-adv-x="1454" 
d="M353 560q0 -78 29.5 -147t81 -120.5t120.5 -81t147 -29.5t147 29.5t120.5 81t81 120.5t29.5 147v873h199v-873q0 -80 -20.5 -153.5t-58 -137.5t-90.5 -116.5t-117 -90t-137.5 -58t-153.5 -20.5q-79 0 -152.5 20.5t-137.5 58t-117 90t-90.5 116.5t-58 138t-20.5 153v873
h198v-873zM450 1708h554v-148h-554v148z" />
    <glyph glyph-name="umacron" unicode="&#x16b;" horiz-adv-x="1164" 
d="M849 0l-4.5 6.5t-10 17.5t-10.5 26.5t-5 33.5v43q-18 -36 -50 -62.5t-72 -44t-86.5 -26.5t-94.5 -9q-89 0 -161.5 33t-124 94t-80 147.5t-28.5 193.5v597h198v-597q0 -131 48 -205.5t148 -74.5q60 0 113.5 14.5t95 39.5t66.5 58t28 69v696h198v-1050h-168zM305 1348h554
v-148h-554v148z" />
    <glyph glyph-name="Ubreve" unicode="&#x16c;" horiz-adv-x="1454" 
d="M353 560q0 -78 29.5 -147t81 -120.5t120.5 -81t147 -29.5t147 29.5t120.5 81t81 120.5t29.5 147v873h199v-873q0 -80 -20.5 -153.5t-58 -137.5t-90.5 -116.5t-117 -90t-137.5 -58t-153.5 -20.5q-79 0 -152.5 20.5t-137.5 58t-117 90t-90.5 116.5t-58 138t-20.5 153v873
h198v-873zM1021 1781q0 -57 -22 -104.5t-59.5 -81.5t-88 -52.5t-107.5 -18.5t-107.5 18.5t-88 52.5t-59.5 81.5t-22 104.5h52q29 0 53.5 -16.5t33.5 -44.5q19 -37 55.5 -53.5t82.5 -16.5q45 0 82 16.5t55 53.5q11 29 35 45t53 16h52z" />
    <glyph glyph-name="ubreve" unicode="&#x16d;" horiz-adv-x="1164" 
d="M849 0l-4.5 6.5t-10 17.5t-10.5 26.5t-5 33.5v43q-18 -36 -50 -62.5t-72 -44t-86.5 -26.5t-94.5 -9q-89 0 -161.5 33t-124 94t-80 147.5t-28.5 193.5v597h198v-597q0 -131 48 -205.5t148 -74.5q60 0 113.5 14.5t95 39.5t66.5 58t28 69v696h198v-1050h-168zM859 1421
q0 -57 -22 -106t-59.5 -85t-88 -56t-107.5 -20t-107.5 20t-88 56t-59.5 85t-22 106h52q29 0 53.5 -16.5t33.5 -44.5q19 -37 55.5 -58.5t82.5 -21.5q45 0 82 21.5t55 58.5q11 29 35 45t53 16h52z" />
    <glyph glyph-name="Uring" unicode="&#x16e;" horiz-adv-x="1454" 
d="M353 560q0 -78 29.5 -147t81 -120.5t120.5 -81t147 -29.5t147 29.5t120.5 81t81 120.5t29.5 147v873h199v-873q0 -80 -20.5 -153.5t-58 -137.5t-90.5 -116.5t-117 -90t-137.5 -58t-153.5 -20.5q-79 0 -152.5 20.5t-137.5 58t-117 90t-90.5 116.5t-58 138t-20.5 153v873
h198v-873zM555 1700q0 39 14.5 72.5t40 59t59 40t72.5 14.5t72.5 -14.5t59 -40t40 -59t14.5 -72.5t-14.5 -72.5t-40 -59t-59 -40t-72.5 -14.5t-72.5 14.5t-59 40t-40 59t-14.5 72.5zM666 1700q0 -32 21.5 -53.5t53.5 -21.5t53.5 21.5t21.5 53.5t-21.5 53.5t-53.5 21.5
t-53.5 -21.5t-21.5 -53.5z" />
    <glyph glyph-name="uring" unicode="&#x16f;" horiz-adv-x="1164" 
d="M849 0l-4.5 6.5t-10 17.5t-10.5 26.5t-5 33.5v43q-18 -36 -50 -62.5t-72 -44t-86.5 -26.5t-94.5 -9q-89 0 -161.5 33t-124 94t-80 147.5t-28.5 193.5v597h198v-597q0 -131 48 -205.5t148 -74.5q60 0 113.5 14.5t95 39.5t66.5 58t28 69v696h198v-1050h-168zM396 1317
q0 39 14.5 72.5t40 59t59 40t72.5 14.5t72.5 -14.5t59 -40t40 -59t14.5 -72.5t-14.5 -72.5t-40 -59t-59 -40t-72.5 -14.5t-72.5 14.5t-59 40t-40 59t-14.5 72.5zM507 1317q0 -32 21.5 -53.5t53.5 -21.5t53.5 21.5t21.5 53.5t-21.5 53.5t-53.5 21.5t-53.5 -21.5t-21.5 -53.5z
" />
    <glyph glyph-name="Uhungarumlaut" unicode="&#x170;" horiz-adv-x="1454" 
d="M353 560q0 -78 29.5 -147t81 -120.5t120.5 -81t147 -29.5t147 29.5t120.5 81t81 120.5t29.5 147v873h199v-873q0 -80 -20.5 -153.5t-58 -137.5t-90.5 -116.5t-117 -90t-137.5 -58t-153.5 -20.5q-79 0 -152.5 20.5t-137.5 58t-117 90t-90.5 116.5t-58 138t-20.5 153v873
h198v-873zM635 1588q-33 -44 -115 -44h-54q130 232 142 244q32 44 115 44h94zM880 1588q-32 -44 -115 -44h-64l172 244q32 44 115 44h104z" />
    <glyph glyph-name="uhungarumlaut" unicode="&#x171;" horiz-adv-x="1164" 
d="M849 0l-4.5 6.5t-10 17.5t-10.5 26.5t-5 33.5v43q-18 -36 -50 -62.5t-72 -44t-86.5 -26.5t-94.5 -9q-89 0 -161.5 33t-124 94t-80 147.5t-28.5 193.5v597h198v-597q0 -131 48 -205.5t148 -74.5q60 0 113.5 14.5t95 39.5t66.5 58t28 69v696h198v-1050h-168zM438 1205
q-33 -44 -115 -44h-54q130 232 142 244q32 44 115 44h94zM683 1205q-32 -44 -115 -44h-64l172 244q32 44 115 44h104z" />
    <glyph glyph-name="Uogonek" unicode="&#x172;" horiz-adv-x="1454" 
d="M353 560q0 -78 29.5 -147t81 -120.5t120.5 -81t147 -29.5t147 29.5t120.5 81t81 120.5t29.5 147v873h199v-873q0 -80 -20.5 -153.5t-58 -137.5t-90.5 -116.5t-117 -90t-137.5 -58t-153.5 -20.5q-79 0 -152.5 20.5t-137.5 58t-117 90t-90.5 116.5t-58 138t-20.5 153v873
h198v-873zM809 1q-21 -12 -42 -27.5t-37.5 -33.5t-27 -38.5t-10.5 -42.5q0 -42 29.5 -64.5t79.5 -22.5q18 0 37.5 2.5t39.5 2.5q21 -1 40.5 -7.5t30.5 -27.5l14 -29q-35 -25 -90 -40.5t-115 -15.5q-105 0 -164.5 42.5t-59.5 112.5q0 28 12.5 55.5t34.5 52.5t51 48t62 43z
" />
    <glyph glyph-name="uogonek" unicode="&#x173;" horiz-adv-x="1164" 
d="M849 0l-4.5 6.5t-10 17.5t-10.5 26.5t-5 33.5v43q-18 -36 -50 -62.5t-72 -44t-86.5 -26.5t-94.5 -9q-89 0 -161.5 33t-124 94t-80 147.5t-28.5 193.5v597h198v-597q0 -131 48 -205.5t148 -74.5q60 0 113.5 14.5t95 39.5t66.5 58t28 69v696h198v-1050h-168zM957 1
q-21 -12 -42 -27.5t-37.5 -33.5t-27 -38.5t-10.5 -42.5q0 -42 29.5 -64.5t79.5 -22.5q18 0 37.5 2.5t39.5 2.5q21 -1 40.5 -7.5t30.5 -27.5l14 -29q-35 -25 -90 -40.5t-115 -15.5q-105 0 -164.5 42.5t-59.5 112.5q0 28 12.5 55.5t34.5 52.5t51 48t62 43z" />
    <glyph glyph-name="Wcircumflex" unicode="&#x174;" horiz-adv-x="1993" 
d="M1028 612q-2 -2 -267 -612h-193l-625 1433h114q46 0 86 -25t56 -67l447 -1025q17 -39 18 -88q3 50 19 88l447 1025q18 42 57 67t85 25h114l-281 -645l206 -472q8 -19 12 -41.5t6 -48.5q3 54 19 90l447 1025q18 42 57 67t85 25h114l-625 -1433h-193l-185 425
q-31 71 -31 127q0 32 11 60zM897 1583q-42 -44 -115 -44h-74l162 204q32 44 115 44h27q83 0 115 -44l162 -204h-74q-38 -1 -66 11t-49 33l-92 93q-5 5 -7.5 13t-2.5 10q-1 -3 -3 -10.5t-6 -12.5z" />
    <glyph glyph-name="wcircumflex" unicode="&#x175;" horiz-adv-x="1721" 
d="M892 612q-2 -2 -267 -612h-193l-458 1050h114q46 0 86 -25t56 -67l280 -642q9 -20 12.5 -44.5t5.5 -52.5q2 58 19 97l280 643q18 42 57 67t85 25h114l-115 -263l207 -472q7 -19 11.5 -40.5t6.5 -47.5q3 52 19 88l280 643q18 42 57 67t85 25h114l-458 -1051h-193l-185 425
q-31 71 -31 127q0 32 11 60zM759 1205q-32 -44 -115 -44h-74q76 117 116.5 178t45.5 66q32 44 115 44h27q83 0 115 -44q5 -5 45.5 -66t116.5 -178h-74q-83 0 -115 44l-92 113q-5 5 -7.5 13t-2.5 10q-1 -3 -3 -10.5t-6 -12.5z" />
    <glyph glyph-name="Ycircumflex" unicode="&#x176;" horiz-adv-x="1336" 
d="M769 0h-198v606q0 22 -4 39t-11.5 32.5t-18.5 31.5t-25 35l-509 689h136q58 0 102.5 -22.5t73.5 -67.5l339 -458q7 -11 10.5 -25.5t5.5 -23.5q0 8 4 23t12 26l339 458q29 45 73.5 67.5t102.5 22.5h136l-509 -689q-14 -19 -25 -35t-18.5 -31.5t-11.5 -32.5t-4 -39v-606z
M568 1583q-42 -44 -115 -44h-74l162 204q32 44 115 44h27q83 0 115 -44l162 -204h-74q-38 -1 -66 11t-49 33l-92 93q-5 5 -7.5 13t-2.5 10q-1 -3 -3 -10.5t-6 -12.5z" />
    <glyph glyph-name="ycircumflex" unicode="&#x177;" horiz-adv-x="1133" 
d="M28 1050h114q23 0 45 -6.5t41 -18.5t33.5 -29t22.5 -38l232 -533q31 -71 31 -128q0 -14 -2 -26.5t-6 -24.5q14 34 86.5 198.5t201.5 460.5l23 53q18 42 56.5 67t85.5 25h114l-585 -1343q-17 -45 -57 -70.5t-87 -25.5h-114l196 450zM465 1205q-32 -44 -115 -44h-74
q76 117 116.5 178t45.5 66q32 44 115 44h27q83 0 115 -44q5 -5 45.5 -66t116.5 -178h-74q-83 0 -115 44l-92 113q-5 5 -7.5 13t-2.5 10q-1 -3 -3 -10.5t-6 -12.5z" />
    <glyph glyph-name="Ydieresis" unicode="&#x178;" horiz-adv-x="1336" 
d="M769 0h-198v606q0 22 -4 39t-11.5 32.5t-18.5 31.5t-25 35l-509 689h136q58 0 102.5 -22.5t73.5 -67.5l339 -458q7 -11 10.5 -25.5t5.5 -23.5q0 8 4 23t12 26l339 458q29 45 73.5 67.5t102.5 22.5h136l-509 -689q-14 -19 -25 -35t-18.5 -31.5t-11.5 -32.5t-4 -39v-606z
M379 1655q0 25 9.5 46.5t25.5 38t37.5 26t46.5 9.5t46.5 -9.5t38 -26t26 -38t9.5 -46.5t-9.5 -46.5t-26 -37.5t-38 -25.5t-46.5 -9.5t-46.5 9.5t-37.5 25.5t-25.5 37.5t-9.5 46.5zM718 1655q0 25 9.5 46.5t25.5 38t37.5 26t46.5 9.5t46.5 -9.5t38 -26t26 -38t9.5 -46.5
t-9.5 -46.5t-26 -37.5t-38 -25.5t-46.5 -9.5t-46.5 9.5t-37.5 25.5t-25.5 37.5t-9.5 46.5z" />
    <glyph glyph-name="Zacute" unicode="&#x179;" horiz-adv-x="1248" 
d="M1159 199v-199h-1073v82q0 76 46 129l757 1024h-765v199h1048v-82q0 -69 -37 -118l-778 -1052q5 4 11 8q5 3 12 6t16 3h763zM729 1588q-32 -44 -115 -44h-74q111 183 122 194q32 44 115 44h114z" />
    <glyph glyph-name="zacute" unicode="&#x17a;" horiz-adv-x="952" 
d="M862 198v-198h-792v81q0 76 46 129l485 642h-499v198h772v-81q0 -69 -37 -118l-506 -668q7 3 16 7q8 3 17.5 5.5t21.5 2.5h476zM541 1205q-33 -44 -115 -44h-74q130 232 142 244q32 44 115 44h114z" />
    <glyph glyph-name="Zdotaccent" unicode="&#x17b;" horiz-adv-x="1248" 
d="M1159 199v-199h-1073v82q0 76 46 129l757 1024h-765v199h1048v-82q0 -69 -37 -118l-778 -1052q5 4 11 8q5 3 12 6t16 3h763zM507 1668q0 28 10.5 52.5t28.5 42.5t42.5 28.5t52.5 10.5t52.5 -10.5t42.5 -28.5t28.5 -42.5t10.5 -52.5t-10.5 -52.5t-28.5 -42.5t-42.5 -28.5
t-52.5 -10.5t-52.5 10.5t-42.5 28.5t-28.5 42.5t-10.5 52.5z" />
    <glyph glyph-name="zdotaccent" unicode="&#x17c;" horiz-adv-x="952" 
d="M862 198v-198h-792v81q0 76 46 129l485 642h-499v198h772v-81q0 -69 -37 -118l-506 -668q7 3 16 7q8 3 17.5 5.5t21.5 2.5h476zM353 1287q0 28 10.5 52.5t28.5 42.5t42.5 28.5t52.5 10.5t52.5 -10.5t42.5 -28.5t28.5 -42.5t10.5 -52.5t-10.5 -52.5t-28.5 -42.5
t-42.5 -28.5t-52.5 -10.5t-52.5 10.5t-42.5 28.5t-28.5 42.5t-10.5 52.5z" />
    <glyph glyph-name="Zcaron" unicode="&#x17d;" horiz-adv-x="1248" 
d="M1159 199v-199h-1073v82q0 76 46 129l757 1024h-765v199h1048v-82q0 -69 -37 -118l-778 -1052q5 4 11 8q5 3 12 6t16 3h763zM639 1675q4 -7 6 -14.5t3 -9.5q0 2 2.5 10t7.5 14l92 113q32 44 115 44h74q-76 -117 -116.5 -178t-45.5 -66q-32 -44 -115 -44h-27
q-83 0 -115 44q-5 5 -45.5 66t-116.5 178h74q83 0 115 -44z" />
    <glyph glyph-name="zcaron" unicode="&#x17e;" horiz-adv-x="952" 
d="M862 198v-198h-792v81q0 76 46 129l485 642h-499v198h772v-81q0 -69 -37 -118l-506 -668q7 3 16 7q8 3 17.5 5.5t21.5 2.5h476zM466 1292q4 -7 6 -14.5t3 -9.5q0 2 2.5 10t7.5 14l92 113q32 44 115 44h74q-76 -117 -116.5 -178t-45.5 -66q-32 -44 -115 -44h-27
q-83 0 -115 44q-5 5 -45.5 66t-116.5 178h74q83 0 115 -44z" />
    <glyph glyph-name="longs" unicode="&#x17f;" horiz-adv-x="655" 
d="M186 0v794h-175v108q0 83 153 83h22v174q0 61 19 112.5t54 88.5t85 58t113 21q28 0 63 -8t69.5 -21t65 -30t48.5 -35l-23 -36q-20 -32 -52.5 -52.5t-71.5 -20.5q-32 0 -75 12q-3 0 -7 1q-8 2 -17 2q-18 0 -31.5 -8.5t-22.5 -22t-14 -29.5t-5 -32v-1159h-198z" />
    <glyph glyph-name="florin" unicode="&#x192;" horiz-adv-x="686" 
d="M186 -61v922h-175v108q0 83 153 83h22v107q0 61 19 112.5t54 88.5t85 58t113 21q28 0 63 -8t69.5 -21t65 -30t48.5 -35l-23 -36q-20 -32 -52.5 -52.5t-71.5 -20.5q-32 0 -75 12q-3 0 -7 1q-8 2 -17 2q-18 0 -31.5 -8.5t-22.5 -22t-14 -29.5t-5 -32v-109h271v-189h-271
v-922q0 -61 -19 -112.5t-54 -88.5t-85 -58t-113 -21q-28 0 -63 8t-69.5 21t-65 30t-48.5 35l23 36q20 32 52.5 52.5t71.5 20.5q31 0 75 -12q3 -1 7 -2t17 -1q18 0 31.5 8.5t22.5 22t14 29.5t5 32z" />
    <glyph glyph-name="AEacute" unicode="&#x1fc;" horiz-adv-x="2006" 
d="M1911 0h-574q-47 0 -82.5 24.5t-50.5 67.5l-79 228h-732l-120 -228q-23 -42 -63.5 -67t-87.5 -25h-116l759 1433h1146v-198h-883l142 -413h610v-198h-543l146 -426h528v-198zM816 1117l-317 -599h559l-205 599q-11 33 -11 71q0 5 0.5 8.5t0.5 8.5q-7 -50 -27 -88z
M965 1588q-32 -44 -115 -44h-74q111 183 122 194q32 44 115 44h114z" />
    <glyph glyph-name="aeacute" unicode="&#x1fd;" horiz-adv-x="1875" 
d="M1802 614q0 -35 -13.5 -62.5t-33.5 -47t-44.5 -30t-46.5 -10.5h-622q-26 0 -48 -7.5t-22 -27.5l1 -6q15 -53 47.5 -98t76.5 -77.5t97.5 -51t111.5 -18.5q46 0 88.5 11.5t80.5 32.5q20 11 39 16t42 5q32 0 58 -12t49 -35l38 -38q-75 -80 -176 -126.5t-219 -46.5
q-107 0 -201.5 38.5t-166.5 106.5q-7 7 -14.5 18.5t-9.5 14.5q1 -3 3.5 -13t2.5 -20q0 -5 -1 -9.5t-5 -6.5l-9 -5q-40 -23 -90 -45t-107.5 -39.5t-120.5 -28.5t-129 -11q-79 0 -146 22.5t-115.5 64t-75.5 100t-27 130.5q0 78 30.5 140.5t92 107t153.5 68.5t215 24
q30 0 60.5 -1.5t57 -3.5t46.5 -4t29 -3q1 0 2 2q2 4 2 17q-6 67 -26.5 111t-50.5 69.5t-67 35.5t-77 10q-49 0 -77 -8.5t-49.5 -19t-42.5 -19t-56 -8.5q-54 0 -97 35l-57 41q10 15 24 30q12 13 30 28.5t42 31.5q60 38 129 58.5t154 20.5q128 0 212.5 -44.5t128.5 -119.5v-2
q0 -1 0.5 -1.5t0.5 -2.5q0 -4 -1 -7l-8 -20l26 33q73 79 173 121.5t213 42.5q93 0 173.5 -31t144 -85t108 -128t66.5 -161q3 -11 3.5 -23t0.5 -23zM457 175q43 0 91.5 10.5t96 27t92.5 37.5t82 42q-15 32 -25.5 65.5t-17.5 68.5l-4 11q-3 1 -20.5 3.5t-43 5t-57 4.5t-64.5 2
q-62 0 -117 -8t-96.5 -26t-65.5 -46.5t-24 -69.5q0 -35 14 -59t38 -39t55.5 -22t65.5 -7zM1039 657h558q-20 47 -47.5 86.5t-63.5 68t-81 44.5t-99 16q-64 0 -117.5 -18.5t-96 -51.5t-72.5 -78.5t-46 -99.5q8 11 24 22t41 11zM1027 1205q-33 -44 -115 -44h-74
q130 232 142 244q32 44 115 44h114z" />
    <glyph glyph-name="Oslashacute" unicode="&#x1fe;" horiz-adv-x="1648" 
d="M92 717q0 101 26 194.5t74 175t114.5 148t148 114.5t175 74t194.5 26q107 0 204.5 -29t182.5 -82l80 110q19 27 35.5 38.5t48.5 11.5h100l-169 -231q57 -50 103.5 -111.5t79 -131.5t50 -147.5t17.5 -159.5q0 -101 -26 -194.5t-74 -175t-114.5 -148t-148 -114.5t-175 -74
t-194.5 -26q-106 0 -201.5 28t-179.5 79l-107 -146q-22 -29 -51 -42t-58 -13h-78l198 270q-59 51 -106 113t-80 132.5t-51 149t-18 161.5zM290 717q0 -118 47 -220t128 -176l628 857q-60 35 -127.5 54t-141.5 19q-111 0 -208 -42t-169.5 -114.5t-114.5 -169.5t-42 -208z
M824 183q111 0 208 42t169.5 114.5t114.5 169.5t42 208q0 116 -45.5 216.5t-124.5 173.5l-628 -855q59 -33 125.5 -51t138.5 -18zM837 1588q-32 -44 -115 -44h-74q111 183 122 194q32 44 115 44h114z" />
    <glyph glyph-name="oslashacute" unicode="&#x1ff;" horiz-adv-x="1226" 
d="M983 1107q19 27 35.5 38.5t48.5 11.5h100l-888 -1211q-22 -29 -51 -42t-58 -13h-78zM72 525q0 111 42.5 209.5t116 172t172 116t209.5 42.5t209.5 -42.5t172 -116t116 -172t42.5 -209.5t-42.5 -209.5t-116 -172t-172 -116t-209.5 -42.5t-209.5 42.5t-172 116t-116 172
t-42.5 209.5zM265 525q0 -72 27.5 -135t74.5 -110t110 -74.5t135 -27.5t135 27.5t110 74.5t74.5 110t27.5 135t-27.5 135t-74.5 110t-110 74.5t-135 27.5t-135 -27.5t-110 -74.5t-74.5 -110t-27.5 -135zM616 1205q-33 -44 -115 -44h-74q130 232 142 244q32 44 115 44h114z
" />
    <glyph glyph-name="Scommaaccent" unicode="&#x218;" horiz-adv-x="1065" 
d="M698 1189q-39 28 -79 44.5t-75 16.5q-47 0 -88.5 -13t-73 -36t-50 -54.5t-18.5 -68.5q0 -43 14 -73t45 -53.5t80.5 -44.5t120.5 -45q35 -14 70.5 -26.5t69.5 -27t67 -31.5t63 -40q151 -115 151 -310q0 -98 -40 -179t-108 -139.5t-157 -91t-186 -32.5q-193 0 -323 115
q-26 23 -46 46.5t-34.5 45.5t-24.5 40t-16 30l48 25q38 23 79 23q65 0 110 -47l16 -13q38 -32 84.5 -49.5t106.5 -17.5q49 0 101 16t94.5 46.5t70 76t27.5 105.5q0 58 -26 96t-67.5 65t-93 46t-101.5 39q-74 29 -144.5 60t-126 75.5t-89 109t-33.5 160.5q0 88 36.5 157
t96.5 116.5t137 72.5t158 25q59 0 117 -20t109 -51t92 -68t68 -70l-51 -38q-42 -36 -97 -36q-47 0 -84 23zM435 -78h78q32 0 51 -17.5t19 -49.5q0 -5 -0.5 -9.5t-1.5 -9.5l-20 -129q-5 -30 -27.5 -49.5t-53.5 -19.5h-45v284z" />
    <glyph glyph-name="scommaaccent" unicode="&#x219;" horiz-adv-x="852" 
d="M116 225q20 10 39.5 16.5t39.5 6.5q26 0 49.5 -10t56.5 -33q23 -16 50 -23t56 -7q31 0 61.5 9.5t54.5 28t39 45.5t15 63q0 28 -8.5 48t-29.5 36.5t-56.5 32t-88.5 33.5q-55 19 -108.5 43.5t-95.5 59.5t-68 85t-26 120q0 61 28 113.5t73.5 90.5t103.5 60t118 22
q61 0 111.5 -22t87 -50t58 -53t26.5 -31l-47 -40q-42 -36 -98 -36q-20 0 -42.5 8.5t-52.5 23.5q-20 10 -43 10q-39 0 -64.5 -11t-41 -26.5t-21.5 -32t-6 -26.5q0 -29 15 -48.5t39 -34t54.5 -25.5t61.5 -21q60 -20 116 -46t99.5 -64t69.5 -91.5t26 -127.5q0 -68 -26.5 -128.5
t-74.5 -107t-114 -73.5t-145 -27q-54 0 -105.5 14.5t-96.5 42.5t-81.5 67t-61.5 89zM352 -130h78q32 0 51 -17.5t19 -49.5q0 -5 -0.5 -9.5t-1.5 -9.5l-20 -129q-5 -30 -27 -49.5t-54 -19.5h-45v284z" />
    <glyph glyph-name="circumflex" unicode="&#x2c6;" 
d="M200 1205q-32 -44 -115 -44h-74q76 117 116.5 178t45.5 66q32 44 115 44h27q83 0 115 -44q5 -5 45.5 -66t116.5 -178h-74q-83 0 -115 44l-92 113q-5 5 -7.5 13t-2.5 10q-1 -3 -3 -10.5t-6 -12.5z" />
    <glyph glyph-name="caron" unicode="&#x2c7;" 
d="M292 1292q4 -7 6 -14.5t3 -9.5q0 2 2.5 10t7.5 14l92 113q32 44 115 44h74q-76 -117 -116.5 -178t-45.5 -66q-32 -44 -115 -44h-27q-83 0 -115 44q-5 5 -45.5 66t-116.5 178h74q83 0 115 -44z" />
    <glyph glyph-name="uni02C9" unicode="&#x2c9;" 
d="M30 1348h554v-148h-554v148z" />
    <glyph glyph-name="breve" unicode="&#x2d8;" 
d="M583 1421q0 -57 -22 -106t-59.5 -85t-88 -56t-107.5 -20t-107.5 20t-88 56t-59.5 85t-22 106h52q29 0 53.5 -16.5t33.5 -44.5q19 -37 55.5 -58.5t82.5 -21.5q45 0 82 21.5t55 58.5q11 29 35 45t53 16h52z" />
    <glyph glyph-name="dotaccent" unicode="&#x2d9;" 
d="M171 1287q0 28 10.5 52.5t28.5 42.5t42.5 28.5t52.5 10.5t52.5 -10.5t42.5 -28.5t28.5 -42.5t10.5 -52.5t-10.5 -52.5t-28.5 -42.5t-42.5 -28.5t-52.5 -10.5t-52.5 10.5t-42.5 28.5t-28.5 42.5t-10.5 52.5z" />
    <glyph glyph-name="ring" unicode="&#x2da;" 
d="M121 1317q0 39 14.5 72.5t40 59t59 40t72.5 14.5t72.5 -14.5t59 -40t40 -59t14.5 -72.5t-14.5 -72.5t-40 -59t-59 -40t-72.5 -14.5t-72.5 14.5t-59 40t-40 59t-14.5 72.5zM232 1317q0 -32 21.5 -53.5t53.5 -21.5t53.5 21.5t21.5 53.5t-21.5 53.5t-53.5 21.5t-53.5 -21.5
t-21.5 -53.5z" />
    <glyph glyph-name="ogonek" unicode="&#x2db;" 
d="M381 1q-21 -12 -42 -27.5t-37.5 -33.5t-27 -38.5t-10.5 -42.5q0 -42 29.5 -64.5t79.5 -22.5q18 0 37.5 2.5t39.5 2.5q21 -1 40.5 -7.5t30.5 -27.5l14 -29q-35 -25 -90 -40.5t-115 -15.5q-105 0 -164.5 42.5t-59.5 112.5q0 28 12.5 55.5t34.5 52.5t51 48t62 43z" />
    <glyph glyph-name="tilde" unicode="&#x2dc;" 
d="M426 1201q-38 0 -73 14t-66.5 31t-57 31t-43.5 14q-16 0 -25.5 -9.5t-15 -23.5t-7 -29.5t-1.5 -26.5h-130v10q0 42 12 79.5t35 66.5t56 46t76 17q34 0 67 -14t63.5 -31t58.5 -31t51 -14q18 0 29 7t17 18t7.5 25.5t1.5 29.5h130q-4 -48 -13 -87t-29.5 -66t-54.5 -42
t-88 -15z" />
    <glyph glyph-name="hungarumlaut" unicode="&#x2dd;" 
d="M263 1205q-33 -44 -115 -44h-54q130 232 142 244q32 44 115 44h94zM508 1205q-32 -44 -115 -44h-64l172 244q32 44 115 44h104z" />
    <glyph glyph-name="pi" unicode="&#x3c0;" horiz-adv-x="1310" 
d="M57 853v198h1086v-198h-186l-15 -120t-16.5 -153t-13 -163.5t-5.5 -151.5q0 -16 1.5 -32t7 -29.5t16 -22t28.5 -8.5l6 1q43 12 75 12q41 0 72 -21t52 -52l-6 -35q-37 -37 -89.5 -65t-109.5 -28q-63 0 -110 21t-78.5 58t-47 88.5t-15.5 112.5q0 43 2.5 94.5t7 106
t10 109.5t11 106t11 95.5t9.5 76.5h-341v-853h-198v853h-164z" />
    <glyph glyph-name="Wgrave" unicode="&#x1e80;" horiz-adv-x="1993" 
d="M1028 612q-2 -2 -267 -612h-193l-625 1433h114q46 0 86 -25t56 -67l447 -1025q17 -39 18 -88q3 50 19 88l447 1025q18 42 57 67t85 25h114l-281 -645l206 -472q8 -19 12 -41.5t6 -48.5q3 54 19 90l447 1025q18 42 57 67t85 25h114l-625 -1433h-193l-185 425
q-31 71 -31 127q0 32 11 60zM693 1782h114q83 0 115 -44q11 -11 122 -194h-74q-83 0 -115 44z" />
    <glyph glyph-name="wgrave" unicode="&#x1e81;" horiz-adv-x="1721" 
d="M892 612q-2 -2 -267 -612h-193l-458 1050h114q46 0 86 -25t56 -67l280 -642q9 -20 12.5 -44.5t5.5 -52.5q2 58 19 97l280 643q18 42 57 67t85 25h114l-115 -263l207 -472q7 -19 11.5 -40.5t6.5 -47.5q3 52 19 88l280 643q18 42 57 67t85 25h114l-458 -1051h-193l-185 425
q-31 71 -31 127q0 32 11 60zM568 1449h114q83 0 115 -44q11 -12 142 -244h-74q-83 0 -115 44z" />
    <glyph glyph-name="Wacute" unicode="&#x1e82;" horiz-adv-x="1993" 
d="M1028 612q-2 -2 -267 -612h-193l-625 1433h114q46 0 86 -25t56 -67l447 -1025q17 -39 18 -88q3 50 19 88l447 1025q18 42 57 67t85 25h114l-281 -645l206 -472q8 -19 12 -41.5t6 -48.5q3 54 19 90l447 1025q18 42 57 67t85 25h114l-625 -1433h-193l-185 425
q-31 71 -31 127q0 32 11 60zM1062 1588q-32 -44 -115 -44h-74q111 183 122 194q32 44 115 44h114z" />
    <glyph glyph-name="wacute" unicode="&#x1e83;" horiz-adv-x="1721" 
d="M892 612q-2 -2 -267 -612h-193l-458 1050h114q46 0 86 -25t56 -67l280 -642q9 -20 12.5 -44.5t5.5 -52.5q2 58 19 97l280 643q18 42 57 67t85 25h114l-115 -263l207 -472q7 -19 11.5 -40.5t6.5 -47.5q3 52 19 88l280 643q18 42 57 67t85 25h114l-458 -1051h-193l-185 425
q-31 71 -31 127q0 32 11 60zM930 1205q-33 -44 -115 -44h-74q130 232 142 244q32 44 115 44h114z" />
    <glyph glyph-name="Wdieresis" unicode="&#x1e84;" horiz-adv-x="1993" 
d="M1028 612q-2 -2 -267 -612h-193l-625 1433h114q46 0 86 -25t56 -67l447 -1025q17 -39 18 -88q3 50 19 88l447 1025q18 42 57 67t85 25h114l-281 -645l206 -472q8 -19 12 -41.5t6 -48.5q3 54 19 90l447 1025q18 42 57 67t85 25h114l-625 -1433h-193l-185 425
q-31 71 -31 127q0 32 11 60zM710 1655q0 25 9.5 46.5t25.5 38t37.5 26t46.5 9.5t46.5 -9.5t38 -26t26 -38t9.5 -46.5t-9.5 -46.5t-26 -37.5t-38 -25.5t-46.5 -9.5t-46.5 9.5t-37.5 25.5t-25.5 37.5t-9.5 46.5zM1049 1655q0 25 9.5 46.5t25.5 38t37.5 26t46.5 9.5t46.5 -9.5
t38 -26t26 -38t9.5 -46.5t-9.5 -46.5t-26 -37.5t-38 -25.5t-46.5 -9.5t-46.5 9.5t-37.5 25.5t-25.5 37.5t-9.5 46.5z" />
    <glyph glyph-name="wdieresis" unicode="&#x1e85;" horiz-adv-x="1721" 
d="M892 612q-2 -2 -267 -612h-193l-458 1050h114q46 0 86 -25t56 -67l280 -642q9 -20 12.5 -44.5t5.5 -52.5q2 58 19 97l280 643q18 42 57 67t85 25h114l-115 -263l207 -472q7 -19 11.5 -40.5t6.5 -47.5q3 52 19 88l280 643q18 42 57 67t85 25h114l-458 -1051h-193l-185 425
q-31 71 -31 127q0 32 11 60zM571 1290q0 25 9.5 46.5t25.5 38t37.5 26t46.5 9.5t46.5 -9.5t38 -26t26 -38t9.5 -46.5t-9.5 -46.5t-26 -37.5t-38 -25.5t-46.5 -9.5t-46.5 9.5t-37.5 25.5t-25.5 37.5t-9.5 46.5zM910 1290q0 25 9.5 46.5t25.5 38t37.5 26t46.5 9.5t46.5 -9.5
t38 -26t26 -38t9.5 -46.5t-9.5 -46.5t-26 -37.5t-38 -25.5t-46.5 -9.5t-46.5 9.5t-37.5 25.5t-25.5 37.5t-9.5 46.5z" />
    <glyph glyph-name="Ygrave" unicode="&#x1ef2;" horiz-adv-x="1336" 
d="M769 0h-198v606q0 22 -4 39t-11.5 32.5t-18.5 31.5t-25 35l-509 689h136q58 0 102.5 -22.5t73.5 -67.5l339 -458q7 -11 10.5 -25.5t5.5 -23.5q0 8 4 23t12 26l339 458q29 45 73.5 67.5t102.5 22.5h136l-509 -689q-14 -19 -25 -35t-18.5 -31.5t-11.5 -32.5t-4 -39v-606z
M376 1782h114q83 0 115 -44q11 -11 122 -194h-74q-83 0 -115 44z" />
    <glyph glyph-name="ygrave" unicode="&#x1ef3;" horiz-adv-x="1133" 
d="M28 1050h114q23 0 45 -6.5t41 -18.5t33.5 -29t22.5 -38l232 -533q31 -71 31 -128q0 -14 -2 -26.5t-6 -24.5q14 34 86.5 198.5t201.5 460.5l23 53q18 42 56.5 67t85.5 25h114l-585 -1343q-17 -45 -57 -70.5t-87 -25.5h-114l196 450zM262 1449h114q83 0 115 -44
q11 -12 142 -244h-74q-83 0 -115 44z" />
    <glyph glyph-name="endash" unicode="&#x2013;" horiz-adv-x="1112" 
d="M957 573h-802v188h802v-188z" />
    <glyph glyph-name="emdash" unicode="&#x2014;" horiz-adv-x="1642" 
d="M1487 573h-1332v188h1332v-188z" />
    <glyph glyph-name="quoteleft" unicode="&#x2018;" horiz-adv-x="424" 
d="M135 991q-3 4 -12 21.5t-18.5 48t-17.5 74t-8 99.5q0 47 14.5 88.5t38 78t53 69.5t60.5 64l21 -25q20 -23 27.5 -45.5t7.5 -43.5q0 -27 -8 -50t-18 -45.5t-18 -44.5t-8 -46q0 -35 8.5 -62.5t19 -47t19.5 -30l9 -10.5z" />
    <glyph glyph-name="quoteright" unicode="&#x2019;" horiz-adv-x="424" 
d="M269 1508q3 -4 12 -21.5t18.5 -48t17.5 -74t8 -99.5q0 -47 -14.5 -88.5t-38 -78t-53 -69.5t-60.5 -64l-21 25q-20 23 -27.5 45.5t-7.5 43.5q0 27 8 50t18 45.5t18 44.5t8 46q0 34 -8.5 62t-19 47.5t-19.5 30l-9 10.5z" />
    <glyph glyph-name="quotesinglbase" unicode="&#x201a;" horiz-adv-x="424" 
d="M266 252q3 -4 12 -21.5t18.5 -48t17.5 -74t8 -99.5q0 -47 -14.5 -88.5t-38 -78t-53 -69.5t-60.5 -64l-21 25q-20 23 -27.5 45.5t-7.5 43.5q0 27 8 50t18 45.5t18 44.5t8 46q0 34 -8.5 62t-19 47.5t-19.5 30l-9 10.5z" />
    <glyph glyph-name="quotedblleft" unicode="&#x201c;" horiz-adv-x="728" 
d="M418 994q-3 4 -12 21.5t-18.5 48t-17.5 74t-8 99.5q0 47 14.5 88.5t38 78t53 69.5t60.5 64l21 -25q20 -23 27.5 -45.5t7.5 -43.5q0 -27 -8 -50t-18 -45.5t-18 -44.5t-8 -46q0 -35 8.5 -62.5t19 -47t19.5 -30l9 -10.5zM118 994q-3 4 -12 21.5t-18.5 48t-17.5 74t-8 99.5
q0 47 14.5 88.5t38 78t53 69.5t60.5 64l21 -25q20 -23 27.5 -45.5t7.5 -43.5q0 -27 -8 -50t-18 -45.5t-18 -44.5t-8 -46q0 -35 8.5 -62.5t19 -47t19.5 -30l9 -10.5z" />
    <glyph glyph-name="quotedblright" unicode="&#x201d;" horiz-adv-x="728" 
d="M270 1508q3 -4 12 -21.5t18.5 -48t17.5 -74t8 -99.5q0 -47 -14.5 -88.5t-38 -78t-53 -69.5t-60.5 -64l-21 25q-20 23 -27.5 45.5t-7.5 43.5q0 27 8 50t18 45.5t18 44.5t8 46q0 34 -8.5 62t-19 47.5t-19.5 30l-9 10.5zM570 1508q3 -4 12 -21.5t18.5 -48t17.5 -74t8 -99.5
q0 -47 -14.5 -88.5t-38 -78t-53 -69.5t-60.5 -64l-21 25q-20 23 -27.5 45.5t-7.5 43.5q0 27 8 50t18 45.5t18 44.5t8 46q0 34 -8.5 62t-19 47.5t-19.5 30l-9 10.5z" />
    <glyph glyph-name="quotedblbase" unicode="&#x201e;" horiz-adv-x="728" 
d="M269 248q3 -4 12 -21.5t18.5 -48t17.5 -74t8 -99.5q0 -47 -14.5 -88.5t-38 -78t-53 -69.5t-60.5 -64l-21 25q-20 23 -27.5 45.5t-7.5 43.5q0 27 8 50t18 45.5t18 44.5t8 46q0 34 -8.5 62t-19 47.5t-19.5 30l-9 10.5zM569 248q3 -4 12 -21.5t18.5 -48t17.5 -74t8 -99.5
q0 -47 -14.5 -88.5t-38 -78t-53 -69.5t-60.5 -64l-21 25q-20 23 -27.5 45.5t-7.5 43.5q0 27 8 50t18 45.5t18 44.5t8 46q0 34 -8.5 62t-19 47.5t-19.5 30l-9 10.5z" />
    <glyph glyph-name="dagger" unicode="&#x2020;" horiz-adv-x="1160" 
d="M494 540l20 309h-375v158h375v426h158v-446h355v-158h-375l20 -289v-883h-178v883z" />
    <glyph glyph-name="daggerdbl" unicode="&#x2021;" horiz-adv-x="1160" 
d="M1027 987v-158h-375l19 -256v-53l-19 -276h375v-158h-375v-426h-158v446h-355v158h375l-19 256v53l19 276h-375v158h375v426h158v-446h355z" />
    <glyph glyph-name="bullet" unicode="&#x2022;" horiz-adv-x="1160" 
d="M241 596q0 70 26.5 132t72.5 108t108 72.5t132 26.5t132 -26.5t108 -72.5t72.5 -108t26.5 -132t-26.5 -132t-72.5 -108t-108 -72.5t-132 -26.5t-132 26.5t-108 72.5t-72.5 108t-26.5 132z" />
    <glyph glyph-name="ellipsis" unicode="&#x2026;" horiz-adv-x="1196" 
d="M83 120q0 28 10.5 52.5t29 43t43 29t52.5 10.5t52.5 -10.5t43 -29t29 -43t10.5 -52.5t-10.5 -52.5t-29 -43t-43 -29t-52.5 -10.5t-52.5 10.5t-43 29t-29 43t-10.5 52.5zM463 120q0 28 10.5 52.5t29 43t43 29t52.5 10.5t52.5 -10.5t43 -29t29 -43t10.5 -52.5t-10.5 -52.5
t-29 -43t-43 -29t-52.5 -10.5t-52.5 10.5t-43 29t-29 43t-10.5 52.5zM843 120q0 28 10.5 52.5t29 43t43 29t52.5 10.5t52.5 -10.5t43 -29t29 -43t10.5 -52.5t-10.5 -52.5t-29 -43t-43 -29t-52.5 -10.5t-52.5 10.5t-43 29t-29 43t-10.5 52.5z" />
    <glyph glyph-name="perthousand" unicode="&#x2030;" horiz-adv-x="2306" 
d="M434 90q-32 -43 -75 -66.5t-101 -23.5h-136l1006 1343q32 43 75 66.5t101 23.5h136zM74 1082q0 76 25.5 143t71.5 116.5t109.5 78.5t139.5 29t140 -29t110 -78.5t71.5 -116.5t25.5 -143t-25.5 -143t-71.5 -116.5t-110 -78t-140 -28.5t-139.5 28.5t-109.5 78t-71.5 116.5
t-25.5 143zM247 1082q0 -40 12 -75t34.5 -61.5t54.5 -41.5t72 -15t72 15t54.5 41.5t34.5 61.5t12 75t-12 75t-34.5 61.5t-54.5 41.5t-72 15t-72 -15t-54.5 -41.5t-34.5 -61.5t-12 -75zM803 352q0 76 25.5 143t71.5 116.5t109.5 78.5t139.5 29t140 -29t110 -78.5t71.5 -116.5
t25.5 -143t-25.5 -143t-71.5 -116.5t-110 -78t-140 -28.5t-139.5 28.5t-109.5 78t-71.5 116.5t-25.5 143zM976 352q0 -40 12 -75t34.5 -61.5t54.5 -41.5t72 -15t72 15t54.5 41.5t34.5 61.5t12 75t-12 75t-34.5 61.5t-54.5 41.5t-72 15t-72 -15t-54.5 -41.5t-34.5 -61.5
t-12 -75zM1533 352q0 76 25.5 143t71.5 116.5t109.5 78.5t139.5 29t140 -29t110 -78.5t71.5 -116.5t25.5 -143t-25.5 -143t-71.5 -116.5t-110 -78t-140 -28.5t-139.5 28.5t-109.5 78t-71.5 116.5t-25.5 143zM1706 352q0 -40 12 -75t34.5 -61.5t54.5 -41.5t72 -15t72 15
t54.5 41.5t34.5 61.5t12 75t-12 75t-34.5 61.5t-54.5 41.5t-72 15t-72 -15t-54.5 -41.5t-34.5 -61.5t-12 -75z" />
    <glyph glyph-name="guilsinglleft" unicode="&#x2039;" horiz-adv-x="632" 
d="M292 865q18 42 57 67t85 25h61l-151 -352q-22 -51 -72 -76q24 -12 42.5 -31t29.5 -44l151 -352h-61q-46 0 -85 25t-57 67l-137 319q-4 8 -10.5 11.5t-7.5 4.5q2 1 8 5t10 12z" />
    <glyph glyph-name="guilsinglright" unicode="&#x203a;" horiz-adv-x="632" 
d="M467 546q4 -8 10 -12.5t7 -4.5q-2 -1 -8 -4.5t-9 -11.5l-137 -319q-18 -42 -57 -67t-85 -25h-61l151 352q11 25 29.5 44t42.5 31q-50 25 -72 76l-151 352h61q46 0 85 -25t57 -67z" />
    <glyph glyph-name="fraction" unicode="&#x2044;" horiz-adv-x="576" 
d="M494 1341q18 42 57 67t85 25h91l-641 -1341q-20 -41 -58 -66.5t-84 -25.5h-91z" />
    <glyph glyph-name="Euro" unicode="&#x20ac;" horiz-adv-x="1442" 
d="M677 658v-104h-346q24 -81 70 -149t110 -117.5t143 -77t168 -27.5q86 0 162 25t142 70q37 25 83 25q36 0 62.5 -12t49.5 -35l37 -37q-50 -54 -110.5 -97.5t-128.5 -73.5t-143 -46.5t-154 -16.5q-131 0 -246 43t-206 119t-154 180.5t-89 226.5h-118v104h103q-1 14 -1.5 29
t-0.5 30v24t1 24h-102v104h116q25 124 87.5 230t154 184t207.5 122t248 44q79 0 154 -16.5t143 -46.5t128.5 -73.5t110.5 -97.5l-37 -37q-23 -23 -50 -35.5t-62 -12.5q-45 0 -83 26q-66 45 -142.5 70t-161.5 25q-91 0 -171 -28.5t-144 -79.5t-110 -121t-69 -153h349v-104
h-367q-2 -12 -2 -24v-24q0 -31 3 -59h366z" />
    <glyph glyph-name="trademark" unicode="&#x2122;" horiz-adv-x="1516" 
d="M58 1323v111h526v-112h-207v-518h-112v518zM1405 804h-112v422l-208 -422h-101l-206 417v-417h-112v630h87q22 0 43.5 -15t31.5 -34l207 -420l207 420q11 22 31.5 35.5t43.5 13.5h88v-630z" />
    <glyph glyph-name="Omega" unicode="&#x2126;" horiz-adv-x="1426" 
d="M587 471v-471h-499v192h307v146q-66 36 -121.5 86.5t-96 113.5t-63 137.5t-22.5 157.5q0 85 22 163.5t62 147t96.5 125t125 96.5t147 62t163.5 22t163.5 -22t147 -62t125 -96.5t96.5 -125t62 -147t22 -163.5q0 -84 -23 -158.5t-64 -138t-97 -114.5t-123 -87v-143h307
v-192h-499v471q66 7 122.5 39t97 81t63.5 111.5t23 130.5q0 87 -33 163.5t-90 133.5t-133.5 90t-163.5 33t-163.5 -33t-134 -90t-90.5 -133.5t-33 -163.5q0 -69 22 -129.5t61.5 -108t94 -80t119.5 -44.5z" />
    <glyph glyph-name="partialdiff" unicode="&#x2202;" horiz-adv-x="1261" 
d="M72 525q0 111 42.5 209.5t116 172t172 116t209.5 42.5q49 0 101 -13.5t97 -37t78 -54.5t46 -66q-29 102 -89.5 175.5t-141 126t-175 87t-191.5 57.5l26 179q216 -44 366.5 -131t244 -213t136 -288t42.5 -356v-5q0 -112 -42.5 -210.5t-116 -172t-172 -116t-209.5 -42.5
t-209.5 42.5t-172 116t-116 172t-42.5 209.5zM265 525q0 -72 27.5 -135t74.5 -110t110 -74.5t135 -27.5t135 27.5t110 74.5t74.5 110t27.5 135t-27.5 135t-74.5 110t-110 74.5t-135 27.5t-135 -27.5t-110 -74.5t-74.5 -110t-27.5 -135z" />
    <glyph glyph-name="Delta" unicode="&#x2206;" horiz-adv-x="1486" 
d="M10 0l625 1433h193l625 -1433h-1443zM750 1117q-16 35 -19 85q-2 -25 -6.5 -46t-11.5 -39l-401 -919h839z" />
    <glyph glyph-name="product" unicode="&#x220f;" horiz-adv-x="1368" 
d="M63 1235v198h1243v-198h-188v-1575h-198v1575h-474v-1575h-198v1575h-185z" />
    <glyph glyph-name="summation" unicode="&#x2211;" horiz-adv-x="1368" 
d="M878 545l-509 -688h914v-199h-1197v82q0 69 37 118l509 687l-509 688q-37 49 -37 118v82h1197v-199h-914z" />
    <glyph glyph-name="minus" unicode="&#x2212;" horiz-adv-x="1160" 
d="M1056 573h-954v188h954v-188z" />
    <glyph glyph-name="radical" unicode="&#x221a;" horiz-adv-x="1146" 
d="M294 640h-116q-35 0 -59.5 13t-40.5 33.5t-23.5 46.5t-7.5 52v45h385l144 -444q6 -18 10.5 -42.5t8 -47.5t5.5 -40t3 -21q0 5 2 22t5.5 39.5t8 46t10.5 41.5l389 1179q10 32 31 54.5t46 36.5t51.5 20.5t48.5 6.5h62l-546 -1658q-10 -29 -36.5 -46t-68.5 -17t-71.5 14.5
t-37.5 40.5z" />
    <glyph glyph-name="infinity" unicode="&#x221e;" horiz-adv-x="1531" 
d="M1338 916q50 -50 76 -113.5t26 -133.5q0 -71 -27.5 -134.5t-75 -111t-110.5 -75.5t-135 -28q-71 0 -134 26.5t-113 75.5l-91 109l-91 -109q-50 -49 -113 -75.5t-133 -26.5q-72 0 -136 28t-111 75.5t-74.5 111t-27.5 134.5q0 72 27.5 135.5t75 111t111 75t135.5 27.5
q70 0 133 -26t113 -76l91 -109l91 109q50 50 113 76t134 26q70 0 133 -26t113 -76zM638 669q-53 52 -88.5 83.5t-60 47.5t-41 21t-31.5 5q-33 0 -61.5 -12.5t-49.5 -34t-33.5 -50t-12.5 -60.5t12 -60t33.5 -50t50 -34.5t61.5 -12.5q15 0 32 5t41.5 21t59.5 47t88 84z
M1202 558q46 46 46 111q0 32 -12.5 60.5t-33.5 50t-49.5 34t-60.5 12.5q-16 0 -33 -4.5t-41.5 -21t-59.5 -47.5t-88 -84q52 -53 87.5 -84t60 -47t41.5 -21t33 -5q31 0 59.5 12t50.5 34z" />
    <glyph glyph-name="integral" unicode="&#x222b;" horiz-adv-x="721" 
d="M260 -71v1250q0 61 19 115.5t54 95.5t85 65t113 24q28 0 63 -8t69.5 -21t65 -30t48.5 -35l-23 -36q-20 -32 -52.5 -52.5t-71.5 -20.5q-32 0 -75 12q-3 0 -7 1q-8 2 -17 2q-18 0 -31.5 -11.5t-22.5 -28.5t-14 -36.5t-5 -35.5v-1250q0 -61 -19 -115.5t-54 -95.5t-85 -65
t-113 -24q-28 0 -63 8t-69.5 21t-65 30t-48.5 35l23 36q20 32 52.5 52.5t71.5 20.5q31 0 75 -12q3 -1 7 -2t17 -1q18 0 31.5 11.5t22.5 28.5t14 36.5t5 35.5z" />
    <glyph glyph-name="approxequal" unicode="&#x2248;" horiz-adv-x="1160" 
d="M774 346q-65 0 -121 16t-106.5 35t-95 35t-84.5 16q-32 0 -60.5 -5t-51 -11t-37 -11.5t-17.5 -6.5v172q14 4 32 11t39 14t44.5 12t50.5 5q56 0 107.5 -16t101 -35t98.5 -35t100 -16q31 0 59.5 4.5t51.5 10.5t39 11.5t23 7.5v-173q-15 -4 -34 -11t-40.5 -13.5t-46.5 -11.5
t-52 -5zM771 652q-64 0 -120.5 16t-106.5 35t-94.5 35t-84.5 16q-31 0 -58.5 -4.5t-49.5 -10.5t-36.5 -11.5t-19.5 -6.5v172q14 4 31.5 10.5t38.5 13.5t44.5 12t49.5 5q56 0 107 -16t100.5 -35t98.5 -35t100 -16q33 0 63 5t53.5 11t39 11.5t20.5 7.5v-172q-15 -4 -34 -11.5
t-41 -14.5t-47.5 -12t-53.5 -5z" />
    <glyph glyph-name="notequal" unicode="&#x2260;" horiz-adv-x="1160" 
d="M648 1154l100 -26l-45 -167h303v-188h-353l-57 -212h410v-188h-460l-56 -210l-100 26l49 184h-287v188h337l57 212h-394v188h444z" />
    <glyph glyph-name="lessequal" unicode="&#x2264;" horiz-adv-x="1160" 
d="M119 807v120q0 46 25 75t67 47l721 311v-101q0 -46 -25 -85t-67 -57l-552 -240l-33 -10l33 -10l552 -240q42 -18 67 -57t25 -85v-101l-721 311q-42 18 -67 47t-25 75zM119 479v123l721 -313q42 -18 67 -57t25 -85v-101l-721 311q-42 18 -67 47t-25 75z" />
    <glyph glyph-name="greaterequal" unicode="&#x2265;" horiz-adv-x="1160" 
d="M1032 807q0 -46 -25 -75t-67 -47l-721 -311v101q0 46 25 85t67 57l552 240l33 10l-33 10l-552 240q-42 18 -67 57t-25 85v101l721 -311q42 -18 67 -47t25 -75v-120zM1032 479q0 -46 -25 -75t-67 -47l-721 -311v101q0 46 25 85t67 57l721 313v-123z" />
    <glyph glyph-name="lozenge" unicode="&#x25ca;" horiz-adv-x="1160" 
d="M1060 667l-378 -866h-193l-378 866l378 867h193zM604 1218q-8 17 -13 47t-6 55q-2 -25 -6.5 -55t-11.5 -47l-240 -551l240 -550q7 -19 11.5 -49t6.5 -55q2 25 6.5 55t12.5 49l240 550z" />
    <glyph glyph-name="commaaccent" unicode="&#xf6c3;" 
d="M237 1826h78q32 0 51 -17.5t19 -49.5q0 -5 -0.5 -9.5t-1.5 -9.5l-20 -129q-5 -30 -27 -49.5t-54 -19.5h-45v284z" />
    <glyph glyph-name="dollaroldstyle" unicode="&#xf724;" horiz-adv-x="1065" 
 />
    <glyph glyph-name="ff" unicode="&#xfb00;" horiz-adv-x="1372" 
d="M186 0v861h-175v108q0 83 153 83h22v107q0 61 19 112.5t54 88.5t85 58t113 21q28 0 63 -8t69.5 -21t65 -30t48.5 -35l-23 -36q-20 -32 -52.5 -52.5t-71.5 -20.5q-32 0 -75 12q-3 0 -7 1q-8 2 -17 2q-18 0 -31.5 -8.5t-22.5 -22t-14 -29.5t-5 -32v-109h776v-189h-776v-861
h-198zM872 0v861h-175v108q0 83 153 83h22v107q0 61 19 112.5t54 88.5t85 58t113 21q28 0 63 -8t69.5 -21t65 -30t48.5 -35l-23 -36q-20 -32 -52.5 -52.5t-71.5 -20.5q-32 0 -75 12q-3 0 -7 1q-8 2 -17 2q-18 0 -31.5 -8.5t-22.5 -22t-14 -29.5t-5 -32v-109h271v-189h-271
v-861h-198z" />
    <glyph glyph-name="fi" unicode="&#xfb01;" horiz-adv-x="1218" 
d="M186 0v861h-175v108q0 83 153 83h22v107q0 61 19 112.5t54 88.5t85 58t113 21q28 0 63 -8t69.5 -21t65 -30t48.5 -35l-23 -36q-20 -32 -52.5 -52.5t-71.5 -20.5q-32 0 -75 12q-3 0 -7 1q-8 2 -17 2q-18 0 -31.5 -8.5t-22.5 -22t-14 -29.5t-5 -32v-109h640v-189h-640v-861
h-198zM1050 1050v-1050h-198v1050h198zM817 1314q0 28 10.5 52.5t29 43t43 29t52.5 10.5t52.5 -10.5t43 -29t29 -43t10.5 -52.5t-10.5 -52.5t-29 -43t-43 -29t-52.5 -10.5t-52.5 10.5t-43 29t-29 43t-10.5 52.5z" />
    <glyph glyph-name="fl" unicode="&#xfb02;" horiz-adv-x="1218" 
d="M186 0v861h-175v108q0 83 153 83h22v107q0 61 19 112.5t54 88.5t85 58t113 21q28 0 63 -8t69.5 -21t65 -30t48.5 -35l-23 -36q-20 -32 -52.5 -52.5t-71.5 -20.5q-32 0 -75 12q-3 0 -7 1q-8 2 -17 2q-18 0 -31.5 -8.5t-22.5 -22t-14 -29.5t-5 -32v-109h271v-189h-271v-861
h-198zM1050 1433v-1433h-198v1433h198z" />
    <glyph glyph-name="ffi" unicode="&#xfb03;" horiz-adv-x="1904" 
d="M186 0v861h-175v108q0 83 153 83h22v107q0 61 19 112.5t54 88.5t85 58t113 21q28 0 63 -8t69.5 -21t65 -30t48.5 -35l-23 -36q-20 -32 -52.5 -52.5t-71.5 -20.5q-32 0 -75 12q-3 0 -7 1q-8 2 -17 2q-18 0 -31.5 -8.5t-22.5 -22t-14 -29.5t-5 -32v-109h1286v-189h-1286
v-861h-198zM872 0v861h-175v108q0 83 153 83h22v107q0 61 19 112.5t54 88.5t85 58t113 21q28 0 63 -8t69.5 -21t65 -30t48.5 -35l-23 -36q-20 -32 -52.5 -52.5t-71.5 -20.5q-32 0 -75 12q-3 0 -7 1q-8 2 -17 2q-18 0 -31.5 -8.5t-22.5 -22t-14 -29.5t-5 -32v-109h271v-189
h-271v-861h-198zM1736 1050v-1050h-198v1050h198zM1503 1314q0 28 10.5 52.5t29 43t43 29t52.5 10.5t52.5 -10.5t43 -29t29 -43t10.5 -52.5t-10.5 -52.5t-29 -43t-43 -29t-52.5 -10.5t-52.5 10.5t-43 29t-29 43t-10.5 52.5z" />
    <glyph glyph-name="ffl" unicode="&#xfb04;" horiz-adv-x="1904" 
d="M186 0v861h-175v108q0 83 153 83h22v107q0 61 19 112.5t54 88.5t85 58t113 21q28 0 63 -8t69.5 -21t65 -30t48.5 -35l-23 -36q-20 -32 -52.5 -52.5t-71.5 -20.5q-32 0 -75 12q-3 0 -7 1q-8 2 -17 2q-18 0 -31.5 -8.5t-22.5 -22t-14 -29.5t-5 -32v-109h628v-189h-628v-861
h-198zM872 0v861h-175v108q0 83 153 83h22v107q0 61 19 112.5t54 88.5t85 58t113 21q28 0 63 -8t69.5 -21t65 -30t48.5 -35l-23 -36q-20 -32 -52.5 -52.5t-71.5 -20.5q-32 0 -75 12q-3 0 -7 1q-8 2 -17 2q-18 0 -31.5 -8.5t-22.5 -22t-14 -29.5t-5 -32v-109h271v-189h-271
v-861h-198zM1736 1433v-1433h-198v1433h198z" />
    <glyph glyph-name="undercommaaccent" 
d="M227 -78h78q32 0 51 -17.5t19 -49.5q0 -5 -0.5 -9.5t-1.5 -9.5l-20 -129q-5 -30 -27.5 -49.5t-53.5 -19.5h-45v284z" />
    <glyph glyph-name="dieresis.case" 
d="M17 1655q0 25 9.5 46.5t25.5 38t37.5 26t46.5 9.5t46.5 -9.5t38 -26t26 -38t9.5 -46.5t-9.5 -46.5t-26 -37.5t-38 -25.5t-46.5 -9.5t-46.5 9.5t-37.5 25.5t-25.5 37.5t-9.5 46.5zM356 1655q0 25 9.5 46.5t25.5 38t37.5 26t46.5 9.5t46.5 -9.5t38 -26t26 -38t9.5 -46.5
t-9.5 -46.5t-26 -37.5t-38 -25.5t-46.5 -9.5t-46.5 9.5t-37.5 25.5t-25.5 37.5t-9.5 46.5z" />
    <glyph glyph-name="macron.case" 
d="M30 1708h554v-148h-554v148z" />
    <glyph glyph-name="circumflex.case" 
d="M205 1583q-42 -44 -115 -44h-74l162 204q32 44 115 44h27q83 0 115 -44l162 -204h-74q-38 -1 -66 11t-49 33l-92 93q-5 5 -7.5 13t-2.5 10q-1 -3 -3 -10.5t-6 -12.5z" />
    <glyph glyph-name="caron.case" 
d="M297 1648q2 -4 3.5 -8t3.5 -8q1 -4 2 -9q0 5 2 9t3.5 8t4.5 8l92 93q42 44 115 44h74l-162 -204q-32 -44 -115 -44h-27q-83 0 -115 44l-162 204h74q73 0 115 -44z" />
    <glyph glyph-name="breve.case" 
d="M583 1781q0 -57 -22 -104.5t-59.5 -81.5t-88 -52.5t-107.5 -18.5t-107.5 18.5t-88 52.5t-59.5 81.5t-22 104.5h52q29 0 53.5 -16.5t33.5 -44.5q19 -37 55.5 -53.5t82.5 -16.5q45 0 82 16.5t55 53.5q11 29 35 45t53 16h52z" />
    <glyph glyph-name="dotaccent.case" 
d="M171 1668q0 28 10.5 52.5t28.5 42.5t42.5 28.5t52.5 10.5t52.5 -10.5t42.5 -28.5t28.5 -42.5t10.5 -52.5t-10.5 -52.5t-28.5 -42.5t-42.5 -28.5t-52.5 -10.5t-52.5 10.5t-42.5 28.5t-28.5 42.5t-10.5 52.5z" />
    <glyph glyph-name="ring.case" 
d="M121 1667q0 39 14.5 72.5t40 59t59 40t72.5 14.5t72.5 -14.5t59 -40t40 -59t14.5 -72.5t-14.5 -72.5t-40 -59t-59 -40t-72.5 -14.5t-72.5 14.5t-59 40t-40 59t-14.5 72.5zM232 1667q0 -32 21.5 -53.5t53.5 -21.5t53.5 21.5t21.5 53.5t-21.5 53.5t-53.5 21.5t-53.5 -21.5
t-21.5 -53.5z" />
    <glyph glyph-name="tilde.case" 
d="M425 1533q-38 0 -73 14t-66.5 31t-57 31t-43.5 14q-16 0 -25.5 -8t-15 -20t-7 -26t-1.5 -25h-130v10q0 41 12 77.5t35 63.5t56 42.5t76 15.5q34 0 67 -14t63.5 -31t58.5 -31t51 -14q18 0 29 5.5t17 14.5t7.5 22t1.5 28h130q-4 -48 -13 -83.5t-29.5 -60t-54.5 -38.5
t-88 -18z" />
    <glyph glyph-name="hungarumlaut.case" 
d="M232 1580q-33 -36 -116 -36h-54q130 187 142 197q33 36 116 36h94zM477 1580q-32 -36 -115 -36h-64l172 197q31 36 116 36h104z" />
    <glyph glyph-name="commaaccent.case" 
d="M227 1425h78q32 0 51 -17.5t19 -49.5q0 -5 -0.5 -9.5t-1.5 -9.5l-20 -129q-5 -30 -27.5 -49.5t-53.5 -19.5h-45v284z" />
    <glyph glyph-name="grave.case" 
d="M107 1782h114q83 0 115 -44q11 -11 122 -194h-74q-83 0 -115 44z" />
    <glyph glyph-name="acute.case" 
d="M296 1588q-32 -44 -115 -44h-74q111 183 122 194q32 44 115 44h114z" />
    <glyph glyph-name="one.taboldstyle" horiz-adv-x="1075" 
d="M970 0h-774v198h302v979l-46 -68q-10 -15 -26.5 -27t-36 -21t-40.5 -13.5t-40 -4.5q-20 0 -37.5 5.5t-31.5 19.5l-58 57l327 311h187v-1238h274v-198z" />
    <glyph glyph-name="two.taboldstyle" horiz-adv-x="1160" 
d="M1047 0h-927v79q0 28 9.5 65t35.5 65q156 155 289 295q57 60 113.5 122t106 119.5t87 107t55.5 84.5q11 23 17 44t6 45q0 57 -26.5 101t-67.5 74t-91 45t-97 15q-112 0 -184 -64q-34 -30 -62.5 -44t-58.5 -14q-20 0 -39 6t-38 16l-46 24q6 12 15.5 29.5t23.5 38t33 43.5
t45 45q126 111 311 111q94 0 179.5 -31t150.5 -87.5t104 -135t39 -172.5q0 -65 -17 -114.5t-51 -105.5q-24 -39 -58 -84t-73 -91.5t-81.5 -92.5t-82.5 -88q-95 -99 -199 -199q-20 -22 -44 -35t-39 -18h662v-198z" />
    <glyph glyph-name="three.taboldstyle" horiz-adv-x="1061" 
d="M564 -14q-8 -1 -14.5 -1h-14.5q-193 0 -323 115q-26 23 -46 46.5t-34.5 45.5t-24.5 40t-16 30l48 25q38 23 79 23q65 0 110 -47l16 -13q38 -32 84.5 -52t106.5 -20q50 0 94.5 19t77.5 52t52 77t19 94t-19 94.5t-52 77.5t-77.5 52t-94.5 19h-92v193h92q42 0 78.5 15.5
t64 42.5t43 63t15.5 78t-15.5 78.5t-43 63.5t-64 42.5t-78.5 15.5h-10q-36 0 -75 -19.5t-79 -46.5q-19 -13 -40 -18t-44 -5q-55 0 -97 36l-51 38q38 46 81 84t91 66t101.5 43.5t112.5 15.5q83 0 156.5 -30t128 -83t86.5 -124.5t32 -155.5q0 -43 -15.5 -88t-39.5 -84.5
t-54 -70.5t-60 -47q39 -19 77 -55.5t68 -83.5t48.5 -101t18.5 -106q0 -86 -32 -162.5t-87 -135t-129 -94.5t-159 -42z" />
    <glyph glyph-name="four.taboldstyle" horiz-adv-x="1160" 
d="M715 0v335h-635v105q0 26 8 50t18 42q11 21 26 40l470 784q22 36 54 55.5t69 19.5h188v-898h192v-198h-192v-335h-198zM312 533h403v643l-36 -80l-298 -496q-15 -25 -35 -42t-34 -25z" />
    <glyph glyph-name="five.taboldstyle" horiz-adv-x="1160" 
d="M984 1235h-515l-40 -265q23 18 51 31.5t65 13.5q100 0 191.5 -35t161 -99t110.5 -154.5t41 -201.5t-42.5 -209.5t-116 -172t-172 -116t-209.5 -42.5q-118 0 -219 46.5t-176 126.5l38 38q23 23 49 35t58 12h5q20 0 38.5 -5.5t36.5 -15.5q76 -44 170 -44q72 0 135 27.5
t110 74.5t74.5 110t27.5 135t-27.5 128.5t-74.5 96.5t-110 61t-135 21q-26 0 -52 -7t-51 -16t-49.5 -16t-47.5 -7q-17 0 -33 8t-28.5 22t-20.5 34t-8 43v12t2 12l78 516h685v-198z" />
    <glyph glyph-name="six.taboldstyle" horiz-adv-x="1065" 
d="M147 600l323 741q18 42 57 67t85 25h114l-227 -520q-8 -18 -19.5 -33t-23 -26.5t-20 -18.5t-10.5 -8q15 7 28.5 12.5t27 9t28.5 5t34 1.5q90 0 169 -34t138.5 -93.5t93.5 -138.5t34 -169t-34 -169.5t-93.5 -138.5t-138.5 -93.5t-169 -34.5t-169.5 34.5t-138.5 93.5
t-93.5 138.5t-34.5 169.5q0 48 10 93t29 87zM786 420q0 50 -19 94t-52 77t-77 52t-94 19t-94.5 -19t-77.5 -52t-52 -77t-19 -94t19 -94.5t52 -77.5t77.5 -52t94.5 -19t94 19t77 52t52 77.5t19 94.5z" />
    <glyph glyph-name="seven.taboldstyle" horiz-adv-x="1108" 
d="M119 1433h927v-79q0 -12 -2.5 -24t-5.5 -21q-4 -11 -8 -20l-521 -1197q-20 -47 -58 -69.5t-84 -22.5h-114l501 1154q13 29 34.5 51t32.5 30h-702v198z" />
    <glyph glyph-name="eight.taboldstyle" horiz-adv-x="1059" 
d="M133 1056q0 81 31 152.5t84 125t124.5 84.5t152.5 31t153 -31t125 -84.5t84 -125t31 -152.5q0 -43 -15.5 -88t-39.5 -84.5t-54 -70.5t-60 -47q39 -19 77 -55.5t68 -83.5t48.5 -101t18.5 -106q0 -90 -34.5 -169t-93.5 -138.5t-138.5 -93.5t-169.5 -34t-169 34t-138.5 93.5
t-93.5 138.5t-34 169q0 52 18.5 106t48 101t67.5 83.5t77 55.5q-30 16 -60 47t-54 70.5t-39 84.5t-15 88zM283 420q0 -50 19 -94t52 -77t77 -52t94 -19t94.5 19t77.5 52t52 77t19 94t-19 94.5t-52 77.5t-77.5 52t-94.5 19t-94 -19t-77 -52t-52 -77.5t-19 -94.5zM326 1055
q0 -42 15.5 -78t42.5 -63t63 -42.5t78 -15.5t78.5 15.5t64 42.5t43 63t15.5 78t-15.5 78.5t-43 63.5t-64 42.5t-78.5 15.5t-78 -15.5t-63 -42.5t-42.5 -63.5t-15.5 -78.5z" />
    <glyph glyph-name="nine.taboldstyle" horiz-adv-x="1099" 
d="M979 833l-323 -741q-18 -42 -57 -67t-85 -25h-114l227 520q7 18 19 33t23 26t20 18t11 8q-16 -7 -29.5 -12t-27 -8.5t-28.5 -5t-33 -1.5q-90 0 -169 34t-138.5 93.5t-93.5 138.5t-34 169t34 169.5t93.5 138.5t138.5 93.5t169 34.5t169.5 -34.5t138.5 -93.5t93.5 -138.5
t34.5 -169.5q0 -49 -10 -93.5t-29 -86.5zM340 1013q0 -50 19 -94t52 -77t77 -52t94 -19t94.5 19t77.5 52t52 77t19 94t-19 94.5t-52 77.5t-77.5 52t-94.5 19t-94 -19t-77 -52t-52 -77.5t-19 -94.5z" />
    <glyph glyph-name="zero.taboldstyle" horiz-adv-x="1160" 
d="M61 932q0 107 40.5 201.5t111 164.5t165 110.5t201.5 40.5t201.5 -40.5t165 -110.5t111 -164.5t40.5 -201.5v-432q0 -107 -41 -201t-111.5 -163.5t-165 -110t-200.5 -40.5q-107 0 -201.5 40.5t-164.5 110.5t-111 164t-41 201v431zM255 502q0 -67 25.5 -126t69.5 -103
t103 -69.5t126 -25.5t126 25.5t103 69t69.5 102.5t25.5 126v431q0 67 -25.5 126t-69.5 103t-103 69.5t-126 25.5t-126.5 -25.5t-103.5 -69.5t-69.5 -103t-25.5 -126z" />
    <glyph glyph-name="f_j" horiz-adv-x="1216" 
d="M186 0v861h-175v108q0 83 153 83h22v107q0 61 19 112.5t54 88.5t85 58t113 21q28 0 63 -8t69.5 -21t65 -30t48.5 -35l-23 -36q-20 -32 -52.5 -52.5t-71.5 -20.5q-32 0 -75 12q-3 0 -7 1q-8 2 -17 2q-18 0 -31.5 -8.5t-22.5 -22t-14 -29.5t-5 -32v-109h558v-189h-558v-861
h-198zM1050 37q-1 -73 -23 -138.5t-59.5 -120t-88.5 -96t-110 -65.5l-31 71q-5 12 -8 31.5t-3 30.5q0 30 12 53t28.5 44t34 43t29.5 49q21 48 21 99v1012h198v-1013zM817 1314q0 28 10.5 52.5t29 43t43 29t52.5 10.5t52.5 -10.5t43 -29t29 -43t10.5 -52.5t-10.5 -52.5
t-29 -43t-43 -29t-52.5 -10.5t-52.5 10.5t-43 29t-29 43t-10.5 52.5z" />
    <glyph glyph-name="f_f_j" horiz-adv-x="1902" 
d="M186 0v861h-175v108q0 83 153 83h22v107q0 61 19 112.5t54 88.5t85 58t113 21q28 0 63 -8t69.5 -21t65 -30t48.5 -35l-23 -36q-20 -32 -52.5 -52.5t-71.5 -20.5q-32 0 -75 12q-3 0 -7 1q-8 2 -17 2q-18 0 -31.5 -8.5t-22.5 -22t-14 -29.5t-5 -32v-109h1228v-189h-1228
v-861h-198zM872 0v861h-175v108q0 83 153 83h22v107q0 61 19 112.5t54 88.5t85 58t113 21q28 0 63 -8t69.5 -21t65 -30t48.5 -35l-23 -36q-20 -32 -52.5 -52.5t-71.5 -20.5q-32 0 -75 12q-3 0 -7 1q-8 2 -17 2q-18 0 -31.5 -8.5t-22.5 -22t-14 -29.5t-5 -32v-109h271v-189
h-271v-861h-198zM1736 37q-1 -73 -23 -138.5t-59.5 -120t-88.5 -96t-110 -65.5l-31 71q-5 12 -8 31.5t-3 30.5q0 30 12 53t28.5 44t34 43t29.5 49q21 48 21 99v1012h198v-1013zM1503 1314q0 28 10.5 52.5t29 43t43 29t52.5 10.5t52.5 -10.5t43 -29t29 -43t10.5 -52.5
t-10.5 -52.5t-29 -43t-43 -29t-52.5 -10.5t-52.5 10.5t-43 29t-29 43t-10.5 52.5z" />
    </font>
</defs>
</svg>
