<?xml version="1.0" standalone="no"?>
<!DOCTYPE svg PUBLIC "-//W3C//DTD SVG 1.1//EN" "http://www.w3.org/Graphics/SVG/1.1/DTD/svg11.dtd" >
<svg xmlns="http://www.w3.org/2000/svg" xmlns:xlink="http://www.w3.org/1999/xlink" version="1.1">
<metadata>
Created by FontForge 20201107 at Thu Jan 28 13:14:41 2021
 By 
Copyright 2020 The Archivo Project Authors (https://github.com/Omnibus-Type/Archivo)
</metadata>
<defs>
<font id="ArchivoExpanded-BlackItalic" horiz-adv-x="0" >
  <font-face 
    font-family="Archivo Expanded Black"
    font-weight="900"
    font-style="italic"
    font-stretch="expanded"
    units-per-em="1000"
    panose-1="0 0 0 0 0 0 0 0 0 0"
    ascent="800"
    descent="-200"
    x-height="528"
    cap-height="688"
    bbox="-253 -440 1831 1107"
    underline-thickness="44"
    underline-position="-170"
    slope="-10"
    unicode-range="U+000D-FEFF"
  />
<missing-glyph horiz-adv-x="648" 
d="M89 0v700h500v-700h-500zM169 50h340l-170 255zM139 95l170 255l-170 255v-510zM539 95v510l-170 -255zM339 395l170 255h-340z" />
    <glyph glyph-name="fi" unicode="fi" horiz-adv-x="870" 
d="M75 -209q-24 0 -54.5 2.5t-60 6.5t-52.5 9l21 123h64q58 0 81.5 11.5t28.5 41.5l70 402h-115l25 141h115l3 14q15 70 50 113t86.5 62.5t114.5 19.5q25 0 55 -2.5t60 -6.5t52 -9l-21 -123h-64q-58 0 -82 -11.5t-28 -41.5l-2 -15h164l-25 -141h-164l-70 -401
q-12 -70 -48 -113t-88.5 -62.5t-115.5 -19.5zM642 590l24 135h224l-24 -135h-224zM541 0l92 528h224l-93 -528h-223z" />
    <glyph glyph-name="fl" unicode="fl" horiz-adv-x="870" 
d="M75 -209q-24 0 -54.5 2.5t-60 6.5t-52.5 9l21 123h64q58 0 81.5 11.5t28.5 41.5l70 402h-115l25 141h115l3 14q15 70 50 113t86.5 62.5t114.5 19.5q25 0 55 -2.5t60 -6.5t52 -9l-21 -123h-64q-58 0 -82 -11.5t-28 -41.5l-2 -15h164l-25 -141h-164l-70 -401
q-12 -70 -48 -113t-88.5 -62.5t-115.5 -19.5zM541 0l126 725h224l-127 -725h-223z" />
    <glyph glyph-name="f_f" unicode="ff" horiz-adv-x="989" 
d="M75 -209q-24 0 -54.5 2.5t-60 6.5t-52.5 9l21 123h64q58 0 81.5 11.5t28.5 41.5l70 402h-115l25 141h115l3 14q15 70 50 113t86.5 62.5t114.5 19.5q25 0 55 -2.5t60 -6.5t52 -9l-21 -123h-64q-58 0 -82 -11.5t-28 -41.5l-2 -15h239l3 14q15 70 50.5 113t86.5 62.5
t114 19.5q25 0 55 -2.5t60 -6.5t52 -9l-21 -123h-64q-58 0 -82 -11.5t-28 -41.5l-2 -15h164l-25 -141h-164l-68 -387h-224l68 387h-239l-70 -401q-12 -70 -48 -113t-88.5 -62.5t-115.5 -19.5z" />
    <glyph glyph-name="f_f_i" unicode="ffi" horiz-adv-x="1333" 
d="M75 -209q-24 0 -54.5 2.5t-60 6.5t-52.5 9l21 123h64q58 0 81.5 11.5t28.5 41.5l70 402h-115l25 141h115l3 14q15 70 50 113t86.5 62.5t114.5 19.5q25 0 55 -2.5t60 -6.5t52 -9l-21 -123h-64q-58 0 -82 -11.5t-28 -41.5l-2 -15h239l3 14q15 70 50.5 113t86.5 62.5
t114 19.5q25 0 55 -2.5t60 -6.5t52 -9l-21 -123h-64q-58 0 -82 -11.5t-28 -41.5l-2 -15h164l-25 -141h-164l-68 -387h-224l68 387h-239l-70 -401q-12 -70 -48 -113t-88.5 -62.5t-115.5 -19.5zM1105 590l24 135h224l-24 -135h-224zM1004 0l92 528h224l-93 -528h-223z" />
    <glyph glyph-name="f_f_l" unicode="ffl" horiz-adv-x="1333" 
d="M75 -209q-24 0 -54.5 2.5t-60 6.5t-52.5 9l21 123h64q58 0 81.5 11.5t28.5 41.5l70 402h-115l25 141h115l3 14q15 70 50 113t86.5 62.5t114.5 19.5q25 0 55 -2.5t60 -6.5t52 -9l-21 -123h-64q-58 0 -82 -11.5t-28 -41.5l-2 -15h239l3 14q15 70 50.5 113t86.5 62.5
t114 19.5q25 0 55 -2.5t60 -6.5t52 -9l-21 -123h-64q-58 0 -82 -11.5t-28 -41.5l-2 -15h164l-25 -141h-164l-68 -387h-224l68 387h-239l-70 -401q-12 -70 -48 -113t-88.5 -62.5t-115.5 -19.5zM1004 0l126 725h224l-127 -725h-223z" />
    <glyph glyph-name=".notdef" horiz-adv-x="648" 
d="M89 0v700h500v-700h-500zM169 50h340l-170 255zM139 95l170 255l-170 255v-510zM539 95v510l-170 -255zM339 395l170 255h-340z" />
    <glyph glyph-name=".null" 
 />
    <glyph glyph-name="nonmarkingreturn" horiz-adv-x="333" 
 />
    <glyph glyph-name="CR" unicode="&#xd;" horiz-adv-x="600" 
 />
    <glyph glyph-name="space" unicode=" " horiz-adv-x="290" 
 />
    <glyph glyph-name="exclam" unicode="!" horiz-adv-x="391" 
d="M105 272l30 416h271l-116 -416h-185zM19 0l36 206h261l-36 -206h-261z" />
    <glyph glyph-name="quotedbl" unicode="&#x22;" horiz-adv-x="598" 
d="M129 382l-24 143l28 163h204l-28 -163l-74 -143h-106zM403 382l-24 143l28 163h204l-28 -163l-74 -143h-106z" />
    <glyph glyph-name="numbersign" unicode="#" horiz-adv-x="773" 
d="M102 -12l42 160h-122v127h156l28 108h-134v127h168l51 190h139l-51 -190h139l51 190h139l-51 -190h117v-127h-151l-28 -108h129v-127h-163l-42 -160h-139l42 160h-139l-42 -160h-139zM317 275h139l28 108h-139z" />
    <glyph glyph-name="dollar" unicode="$" horiz-adv-x="747" 
d="M261 -67l145 823h97l-145 -823h-97zM350 67q-59 0 -117 8.5t-105 26t-75.5 45.5t-28.5 67q0 8 1 15.5t5 17.5h231q-1 -4 -2 -7.5t-1 -7.5q0 -15 13 -25.5t35 -15.5t50 -5q14 0 35 1t41.5 5t34.5 12.5t14 23.5q0 13 -19 20t-50.5 10.5t-70 7t-78.5 9.5q-36 6 -69.5 15.5
t-60.5 26t-42.5 41t-15.5 60.5q0 59 29.5 98t79.5 61.5t112.5 32t128.5 9.5q56 0 110 -7.5t98 -23.5t70.5 -41.5t26.5 -61.5q0 -7 -1.5 -15.5t-3.5 -16.5h-229q1 7 1 9v3q0 12 -12 19.5t-30.5 11.5t-38.5 4q-9 0 -27 -0.5t-37.5 -4t-33 -11t-13.5 -21.5q0 -15 26 -21t68 -9
t89 -8q41 -4 80.5 -12.5t72 -24.5t52 -43t19.5 -68q0 -61 -30.5 -102t-82 -64.5t-116.5 -33.5t-133 -10z" />
    <glyph glyph-name="percent" unicode="%" horiz-adv-x="1166" 
d="M218 0l638 687h124l-636 -687h-126zM299 342q-110 0 -158 42t-48 106q0 38 11 71.5t33 60.5q19 24 47 41.5t65 27t83 9.5q110 0 158 -41.5t48 -106.5q0 -42 -13.5 -79.5t-42.5 -66.5q-19 -19 -46 -33.5t-61 -22.5t-76 -8zM863 -12q-110 0 -158 42t-48 106q0 38 11 71.5
t33 60.5q19 24 47 41.5t65 27t83 9.5q110 0 158 -41.5t48 -106.5q0 -42 -13.5 -79.5t-42.5 -66.5q-19 -19 -46 -33.5t-61 -22.5t-76 -8zM299 426q41 0 64 24.5t28 60.5q2 14 3 22t1.5 13t0.5 9q0 27 -14.5 44t-49.5 17q-41 0 -63.5 -24.5t-28.5 -60.5q-2 -14 -3.5 -22.5
t-2 -13t-0.5 -8.5q0 -27 15.5 -44t49.5 -17zM863 72q41 0 64 24.5t28 60.5q2 14 3 22t1.5 13t0.5 9q0 27 -14.5 44t-49.5 17q-41 0 -63.5 -24.5t-28.5 -60.5q-2 -14 -3.5 -22.5t-2 -13t-0.5 -8.5q0 -27 15.5 -44t49.5 -17z" />
    <glyph glyph-name="ampersand" unicode="&#x26;" horiz-adv-x="1065" 
d="M473 -12q-146 0 -239.5 21.5t-138 62.5t-44.5 97q0 46 22 84.5t61 65.5t91 38v4q-41 13 -67 47.5t-26 78.5q0 46 27 85t80.5 67.5t131.5 44.5t180 16q129 0 219.5 -20.5t138.5 -58t48 -88.5q0 -5 -0.5 -15.5t-5.5 -30.5h-226q1 3 2 8t1 9q0 15 -17.5 26.5t-53.5 18
t-91 6.5q-54 0 -93 -6t-64.5 -18t-37.5 -28.5t-12 -37.5q0 -17 11 -28t29 -16t39 -5h154l-23 -131h-181q-19 0 -37.5 -5t-32.5 -15t-22.5 -25t-8.5 -35q0 -23 19 -39t60.5 -24.5t110.5 -8.5q73 0 116 11.5t63 31t24 42.5l35 198h375l-23 -131h-152l-11 -63
q-12 -71 -60.5 -124t-139 -81.5t-231.5 -28.5z" />
    <glyph glyph-name="quotesingle" unicode="'" horiz-adv-x="324" 
d="M129 382l-24 143l28 163h204l-28 -163l-74 -143h-106z" />
    <glyph glyph-name="parenleft" unicode="(" horiz-adv-x="389" 
d="M155 -160q-55 73 -82.5 162t-27.5 184q0 100 32 198t92.5 188t144.5 165h120q-52 -64 -93.5 -137.5t-70.5 -150t-44 -150t-15 -136.5q0 -57 7.5 -114.5t21.5 -111t35 -97.5h-120z" />
    <glyph glyph-name="parenright" unicode=")" horiz-adv-x="389" 
d="M243 738q55 -73 82.5 -162t27.5 -184q0 -99 -32 -197.5t-92 -188.5t-145 -165h-120q53 64 94 137.5t70 150t44 150t15 136.5q0 57 -7.5 114.5t-21.5 111t-35 97.5h120z" />
    <glyph glyph-name="asterisk" unicode="*" horiz-adv-x="431" 
d="M178 322l34 122l-121 -71l-34 81l128 51l-110 52l63 80l95 -71l10 122h96l-34 -121l121 70l35 -80l-130 -52l112 -51l-64 -81l-95 71l-10 -122h-96z" />
    <glyph glyph-name="plus" unicode="+" horiz-adv-x="750" 
d="M261 0l38 212h-225l23 132h225l38 212h134l-38 -212h225l-23 -132h-225l-38 -212h-134z" />
    <glyph glyph-name="comma" unicode="," horiz-adv-x="381" 
d="M-19 -200l16 93q29 2 59 16.5t52 38.5t27 52h-119l36 206h261l-32 -183q-11 -64 -39.5 -105.5t-69.5 -66t-90 -36.5t-101 -15z" />
    <glyph glyph-name="hyphen" unicode="-" horiz-adv-x="416" 
d="M37 189l31 172h315l-31 -172h-315z" />
    <glyph glyph-name="period" unicode="." horiz-adv-x="381" 
d="M13 0l37 206h261l-37 -206h-261z" />
    <glyph glyph-name="slash" unicode="/" horiz-adv-x="309" 
d="M-55 -48l311 784h136l-312 -784h-135z" />
    <glyph glyph-name="zero" unicode="0" horiz-adv-x="811" 
d="M378 -12q-123 0 -196 33t-105 91.5t-32 136.5q0 52 9.5 107.5t30 109t53.5 97.5q24 32 55 57.5t71 43t89 27t109 9.5q124 0 196.5 -33t104.5 -92t32 -137q0 -43 -8 -91.5t-22 -95t-34 -83.5q-22 -42 -54.5 -75t-75.5 -56.5t-98.5 -36t-124.5 -12.5zM383 129q38 0 65.5 12
t47 36t33 60t21.5 85q5 29 8 49.5t5 35t2.5 24.5t0.5 19q0 56 -24.5 83t-82.5 27q-37 0 -65 -11.5t-48 -35t-33.5 -59.5t-21.5 -85q-5 -29 -8 -49.5t-5 -34.5t-2.5 -24.5t-0.5 -19.5q0 -56 25 -84t83 -28z" />
    <glyph glyph-name="one" unicode="1" horiz-adv-x="731" 
d="M1 0l29 168h218l53 297h-218l20 116q44 2 95 12t103.5 25t101.5 33.5t89 37.5h72l-92 -521h199l-29 -168h-641z" />
    <glyph glyph-name="two" unicode="2" horiz-adv-x="809" 
d="M2 0l8 49q8 51 41.5 93t83 77.5t106 66t112 57.5t101 52.5t73 50.5t27.5 52q0 26 -24.5 42t-83.5 16q-39 0 -68.5 -12t-47.5 -32.5t-23 -46.5l-4 -20h-221q7 57 34 104t75.5 81t119 52t164.5 18q100 0 171 -20t109.5 -60t38.5 -99q0 -38 -15.5 -71t-42.5 -62t-62 -54.5
t-74.5 -47.5t-79.5 -40.5t-77 -34.5q-22 -9 -41.5 -17.5t-36.5 -16.5h379l-31 -177h-711z" />
    <glyph glyph-name="three" unicode="3" horiz-adv-x="813" 
d="M382 -12q-123 0 -201 23.5t-115.5 63.5t-37.5 89q0 6 1.5 18t5.5 29h218q-3 -13 -3.5 -19t-0.5 -8q0 -25 30.5 -40t91.5 -15q55 0 90 12.5t52.5 35t17.5 51.5q0 19 -11 31.5t-29.5 19t-41.5 6.5h-100l23 131h80q20 0 38.5 4.5t34 14.5t24.5 24.5t9 34.5q0 19 -12 34
t-36.5 24t-62.5 9q-30 0 -57.5 -9t-45.5 -23.5t-21 -31.5l-2 -14h-210l5 29q9 52 54 94.5t121.5 68t180.5 25.5q107 0 178.5 -21.5t107.5 -59.5t36 -88q0 -41 -20.5 -75.5t-55 -58.5t-78.5 -36v-4q59 -13 91 -50t32 -92q0 -61 -40 -112.5t-124.5 -83t-216.5 -31.5z" />
    <glyph glyph-name="four" unicode="4" horiz-adv-x="819" 
d="M398 0l24 137h-420l27 161q50 47 106 111.5t110 139.5t95 151h240q-11 -32 -40 -74t-69 -88.5t-85.5 -92t-90.5 -85t-84 -68.5h238l25 138q19 18 42.5 44t46.5 55t42.5 56.5t31.5 48.5h99l-61 -342h126l-27 -155h-126l-24 -137h-226z" />
    <glyph glyph-name="five" unicode="5" horiz-adv-x="813" 
d="M393 -12q-120 0 -201 24.5t-121.5 69t-40.5 104.5q0 9 1 18t3 18h218q-1 -3 -1 -6v-6q0 -26 14.5 -44.5t42.5 -27.5t67 -9q36 0 65 8t50.5 23t33 37.5t11.5 51.5q0 41 -33 61.5t-92 20.5q-30 0 -56 -5.5t-46 -16.5t-34 -28l-189 22l104 385h595l-30 -173h-423l-29 -102
q16 10 45.5 20.5t71 18t90.5 7.5q82 0 140.5 -22.5t90 -66t31.5 -107.5q0 -76 -45.5 -138.5t-130.5 -99.5t-202 -37z" />
    <glyph glyph-name="six" unicode="6" horiz-adv-x="815" 
d="M388 -12q-112 0 -188.5 27.5t-115 84.5t-38.5 144q0 21 2.5 43.5t6.5 47.5q23 131 77 211t139.5 117t201.5 37q99 0 172 -22t113.5 -64.5t40.5 -105.5q0 -10 -1 -19.5t-3 -20.5h-218q1 5 1.5 9.5t0.5 8.5q0 38 -29.5 56t-77.5 18q-57 0 -91 -19.5t-52.5 -57.5t-28.5 -96
q32 20 69 31.5t73 16t65 4.5q78 0 139 -21t96.5 -62t35.5 -101q0 -64 -29.5 -113.5t-82 -84t-123.5 -52t-155 -17.5zM391 129q46 0 81.5 13t54.5 39q8 12 12.5 26.5t4.5 30.5q0 25 -14.5 41.5t-41.5 25t-65 8.5q-49 0 -84 -13t-53 -41q-7 -10 -11.5 -25.5t-4.5 -29.5
q0 -25 14.5 -41.5t42 -25t64.5 -8.5z" />
    <glyph glyph-name="seven" unicode="7" horiz-adv-x="755" 
d="M125 0q12 71 43.5 139.5t78.5 133t106 124.5t126 115h-419l31 176h725l-17 -95q-55 -47 -108.5 -96.5t-101.5 -101t-87 -106t-65.5 -112t-37.5 -118.5q-2 -15 -5 -29.5t-5 -29.5h-264z" />
    <glyph glyph-name="eight" unicode="8" horiz-adv-x="828" 
d="M389 -12q-112 0 -194 20.5t-126 60.5t-44 99q0 48 22 83t60.5 59.5t85.5 38.5q-46 32 -64 61t-18 63q0 55 29 97t79 71t116 44t139 15q94 0 169 -21t118.5 -61t43.5 -99q0 -34 -12 -64t-41 -56t-81 -50q50 -22 81 -54.5t31 -83.5q0 -72 -49.5 -122t-138.5 -75.5
t-206 -25.5zM394 129q39 0 72 7.5t55 24t27 43.5q1 4 1 7v7q0 32 -32 48.5t-96 16.5q-37 0 -70.5 -7t-56 -23t-27.5 -44q-1 -4 -1 -7v-7q0 -31 32 -48.5t96 -17.5zM445 418q37 0 70.5 7t56 22.5t26.5 40.5q1 3 1 5.5v5.5q0 29 -32 45t-97 16q-33 0 -66.5 -6.5t-57.5 -21.5
t-29 -42q-1 -2 -1 -5v-6q0 -28 32.5 -44.5t96.5 -16.5z" />
    <glyph glyph-name="nine" unicode="9" horiz-adv-x="815" 
d="M376 -12q-98 0 -171.5 21.5t-114 64.5t-40.5 106q0 10 1 20t3 20h218q-1 -4 -1.5 -8.5t-0.5 -9.5q0 -37 29.5 -55.5t77.5 -18.5q57 0 91 19.5t52.5 58t28.5 95.5q-32 -20 -69 -31.5t-72.5 -16t-65.5 -4.5q-77 0 -138.5 21t-97 62.5t-35.5 100.5q0 64 29.5 113.5t82 84
t123.5 52t155 17.5q113 0 189 -27.5t114.5 -84t38.5 -144.5q0 -21 -2 -43.5t-7 -47.5q-22 -130 -76.5 -210.5t-139.5 -117.5t-202 -37zM426 375q49 0 84 13t53 41q8 11 12 26t4 29q0 25 -14.5 41.5t-41.5 25t-65 8.5q-46 0 -81.5 -13t-54.5 -39q-8 -12 -12.5 -26t-4.5 -31
q0 -24 14.5 -41t41.5 -25.5t65 -8.5z" />
    <glyph glyph-name="colon" unicode=":" horiz-adv-x="381" 
d="M73 322l36 206h261l-36 -206h-261zM16 0l36 206h261l-36 -206h-261z" />
    <glyph glyph-name="semicolon" unicode=";" horiz-adv-x="381" 
d="M-19 -200l16 93q29 2 59 16.5t52 38.5t27 52h-119l36 206h261l-32 -183q-11 -64 -39.5 -105.5t-69.5 -66t-90 -36.5t-101 -15zM72 322l37 206h261l-37 -206h-261z" />
    <glyph glyph-name="less" unicode="&#x3c;" horiz-adv-x="750" 
d="M606 -12l-540 222l25 143l618 223l-25 -147l-440 -152l387 -151z" />
    <glyph glyph-name="equal" unicode="=" horiz-adv-x="750" 
d="M94 325l23 132h584l-23 -132h-584zM54 99l23 132h584l-23 -132h-584z" />
    <glyph glyph-name="greater" unicode="&#x3e;" horiz-adv-x="750" 
d="M46 -12l25 145l440 151l-387 151l25 139l541 -222l-25 -143z" />
    <glyph glyph-name="question" unicode="?" horiz-adv-x="743" 
d="M274 266l7 42q3 18 20 33.5t42.5 30t52.5 29t51.5 30t39.5 33.5t15 39q0 17 -10.5 28.5t-29.5 17t-47 5.5q-37 0 -60.5 -7.5t-36 -20t-18 -28t-7.5 -31.5q-1 -4 -1 -8.5v-7.5h-211q0 46 17.5 84.5t50 69t77 52t99.5 32.5t117 11q71 0 127.5 -11t97.5 -32t62.5 -53
t21.5 -74q0 -40 -17.5 -70t-45.5 -53t-59.5 -40.5t-60.5 -32t-48 -27.5t-21 -28l-2 -13h-223zM210 0l36 206h261l-36 -206h-261z" />
    <glyph glyph-name="at" unicode="@" horiz-adv-x="1240" 
d="M541 -161q-120 0 -215 22.5t-160.5 67.5t-100 113.5t-34.5 159.5q0 79 21 146t61.5 122.5t99 98t134 72t167 44.5t197.5 15q109 0 201.5 -18t161 -56t106.5 -97t38 -141q0 -68 -12.5 -125.5t-37.5 -103t-64 -77t-91.5 -48t-119.5 -16.5q-54 0 -89.5 13.5t-57 32.5
t-33.5 35h-7q-40 -46 -88 -64t-96 -18q-61 0 -108.5 21t-74.5 65.5t-27 112.5q0 40 6.5 74t16.5 62q17 44 43 75.5t59 51.5t70 30t75 10q26 0 56 -6t57 -20t43 -38h8l32 53h163l-15 -96q-1 -4 -5 -26.5t-10 -55t-12 -64.5t-10 -56t-4 -29q0 -21 16 -28t32 -7q40 0 67 14.5
t44.5 39t27.5 55.5t13.5 64.5t3.5 64.5q0 77 -45 124t-129.5 68.5t-203.5 21.5q-108 0 -195.5 -17.5t-154 -51t-111.5 -81.5t-67.5 -108.5t-22.5 -131.5q0 -67 25 -117t76.5 -83.5t130 -50t184.5 -16.5q27 0 64 2.5t75.5 7t73 10t57.5 12.5l-18 -103q-38 -8 -90 -15.5
t-104.5 -11.5t-92.5 -4zM594 159q35 0 59 12.5t39 34t21 47.5l2 10t1.5 10l1 10t0.5 10q0 24 -9 43t-28.5 30t-51.5 11q-37 0 -62 -14.5t-38.5 -37.5t-19.5 -49q-1 -5 -2 -9.5t-1.5 -9.5t-0.5 -9.5v-9.5q0 -34 21 -56.5t68 -22.5z" />
    <glyph glyph-name="A" unicode="A" horiz-adv-x="954" 
d="M-38 0l453 688h272l212 -688h-260l-25 91h-337l-56 -91h-259zM382 262h187l-28 116q-2 8 -4.5 21.5t-5 30.5t-5.5 34t-5 31h-7q-9 -17 -21 -39t-23.5 -43t-19.5 -35z" />
    <glyph glyph-name="B" unicode="B" horiz-adv-x="930" 
d="M28 0l121 688h574q57 0 101.5 -18.5t70.5 -52t26 -78.5q0 -57 -24 -94t-59.5 -57.5t-72.5 -28.5l-1 -4q48 -13 81.5 -43.5t33.5 -92.5q0 -64 -29 -113.5t-81 -77.5t-121 -28h-620zM303 160h254q19 0 35.5 8t27 24.5t10.5 41.5q0 19 -14.5 31.5t-37.5 12.5h-254zM349 420
h238q14 0 26.5 4.5t23.5 13.5t17 22.5t6 31.5q0 19 -14.5 32t-37.5 13h-238z" />
    <glyph glyph-name="C" unicode="C" horiz-adv-x="939" 
d="M459 -12q-205 0 -306 71t-101 208q0 91 26.5 165t75.5 128q43 46 101 77t131.5 47t159.5 16q115 0 199.5 -31t131 -87t46.5 -131q0 -11 -1 -22.5t-3 -23.5h-240q1 5 1.5 10t0.5 9q0 31 -18 54.5t-51.5 37t-79.5 13.5q-49 0 -86.5 -13.5t-64 -37.5t-42.5 -55t-23 -66
q-3 -14 -4.5 -23.5t-2 -16.5t-1 -11.5t-0.5 -9.5q0 -38 16 -69.5t50 -49.5t88 -18q57 0 100 15t69.5 42t32.5 63h233q-14 -84 -71.5 -150t-151 -103.5t-215.5 -37.5z" />
    <glyph glyph-name="D" unicode="D" horiz-adv-x="933" 
d="M28 0l121 688h380q180 0 280 -73t100 -208q0 -76 -21.5 -140t-60.5 -113q-40 -51 -98 -85t-129 -51.5t-152 -17.5h-420zM305 171h138q40 0 74.5 12t61.5 33.5t44.5 51t23.5 65.5q3 18 4.5 28t2 16.5t0.5 11.5q0 39 -17.5 67.5t-51 44.5t-81.5 16h-138z" />
    <glyph glyph-name="E" unicode="E" horiz-adv-x="860" 
d="M28 0l121 688h735l-30 -171h-487l-16 -89h420l-28 -162h-420l-17 -95h495l-30 -171h-743z" />
    <glyph glyph-name="F" unicode="F" horiz-adv-x="807" 
d="M28 0l121 688h696l-30 -171h-449l-20 -116h393l-31 -171h-393l-40 -230h-247z" />
    <glyph glyph-name="G" unicode="G" horiz-adv-x="1012" 
d="M436 -12q-192 0 -288.5 68t-96.5 206q0 89 25 161.5t71 125.5q45 51 108 84.5t143 50t173 16.5q86 0 159.5 -14t129.5 -42t87 -69.5t31 -97.5q0 -9 -1 -18.5t-3 -19.5h-240q0 2 0.5 5t0.5 5q0 19 -12.5 34t-35 25t-52 15.5t-63.5 5.5q-57 0 -101 -12t-76 -34t-51.5 -54
t-28.5 -73l-5 -25t-2.5 -17.5t-1 -13.5t-0.5 -11q0 -45 20.5 -73.5t62 -42.5t103.5 -14q51 0 96.5 9t75.5 27.5t34 44.5l1 4h-209l25 140h451l-68 -384h-140l-9 76q-42 -29 -90.5 -49t-103.5 -29.5t-119 -9.5z" />
    <glyph glyph-name="H" unicode="H" horiz-adv-x="1009" 
d="M28 0l121 688h247l-43 -244h367l43 244h247l-121 -688h-247l45 255h-367l-45 -255h-247z" />
    <glyph glyph-name="I" unicode="I" horiz-adv-x="395" 
d="M28 0l121 688h247l-121 -688h-247z" />
    <glyph glyph-name="J" unicode="J" horiz-adv-x="764" 
d="M330 -12q-153 0 -234.5 48.5t-81.5 155.5q0 14 2 30.5t7 44.5h233q-4 -22 -5 -30.5t-1 -14.5q0 -34 21 -48.5t60 -14.5q53 0 82 24.5t39 82.5l74 422h248l-75 -423q-18 -102 -66.5 -163t-124.5 -87.5t-178 -26.5z" />
    <glyph glyph-name="K" unicode="K" horiz-adv-x="988" 
d="M28 0l121 688h247l-53 -299l380 299h312l-355 -287l242 -401h-283l-155 262l-186 -132l-23 -130h-247z" />
    <glyph glyph-name="L" unicode="L" horiz-adv-x="786" 
d="M28 0l121 688h247l-88 -499h446l-33 -189h-693z" />
    <glyph glyph-name="M" unicode="M" horiz-adv-x="1178" 
d="M28 0l121 688h380l41 -252q4 -21 7 -48.5l6 -55t4 -47.5h7q8 19 20 45t26 54.5t26 51.5l129 252h384l-121 -688h-247l53 300q5 25 10.5 55t11.5 59t10 50h-8q-11 -23 -26 -53.5t-30 -60t-26 -50.5l-161 -300h-219l-55 300q-9 48 -15.5 93.5t-8.5 70.5h-8q-2 -16 -6 -42.5
t-9 -58t-11 -63.5l-53 -300h-232z" />
    <glyph glyph-name="N" unicode="N" horiz-adv-x="1007" 
d="M28 0l121 688h215l288 -303q5 -5 14 -15t19.5 -21t18.5 -20h10q2 14 6 37.5t8 45.5l48 276h232l-121 -688h-213l-275 290q-17 18 -36.5 38.5t-30.5 33.5h-9q-2 -14 -6.5 -39.5t-9.5 -51.5l-47 -271h-232z" />
    <glyph glyph-name="O" unicode="O" horiz-adv-x="1008" 
d="M476 -12q-133 0 -227.5 35t-145 101t-50.5 159q0 79 25.5 146.5t71.5 118.5q45 50 107.5 83.5t139 51t164.5 17.5q133 0 227.5 -35.5t145 -101.5t50.5 -160q0 -80 -26.5 -148.5t-74.5 -119.5q-45 -48 -107 -81t-138 -49.5t-162 -16.5zM486 159q47 0 87 12.5t71.5 36
t51.5 55.5t26 70q2 13 3.5 22t2 15t1 10.5t0.5 8.5q0 42 -21 73.5t-61 49t-96 17.5q-47 0 -87 -12.5t-71 -35.5t-51 -54.5t-26 -69.5q-2 -13 -3.5 -22t-2 -15.5t-1 -10.5t-0.5 -8q0 -42 21 -74t60.5 -50t95.5 -18z" />
    <glyph glyph-name="P" unicode="P" horiz-adv-x="865" 
d="M28 0l121 688h533q66 0 113.5 -24.5t73.5 -68.5t26 -104q0 -64 -21 -116.5t-57.5 -90.5t-82.5 -59t-97 -21h-326l-36 -204h-247zM341 375h237q27 0 47 10.5t31 30.5t11 50q0 26 -16 38.5t-48 12.5h-237z" />
    <glyph glyph-name="Q" unicode="Q" horiz-adv-x="1008" 
d="M590 -131l-107 119h-2h-3q-133 0 -227.5 35t-145 101t-50.5 159q0 79 25.5 146.5t71.5 118.5q45 50 107.5 83.5t139 51t164.5 17.5q133 0 227.5 -35.5t145 -101.5t50.5 -160q0 -80 -26.5 -148.5t-74.5 -119.5q-31 -32 -69 -57.5t-83 -43.5l169 -165h-312zM488 159
q47 0 87 12.5t71.5 36t51.5 55.5t26 70q2 13 3.5 22t2 15t1 10.5t0.5 8.5q0 42 -21 73.5t-61 49t-96 17.5q-47 0 -87 -12.5t-71 -35.5t-51 -54.5t-26 -69.5q-2 -13 -3.5 -22t-2 -15.5t-1 -10.5t-0.5 -8q0 -42 21 -74t60.5 -50t95.5 -18z" />
    <glyph glyph-name="R" unicode="R" horiz-adv-x="943" 
d="M28 0l121 688h576q74 0 121.5 -25.5t71 -68.5t23.5 -95q0 -56 -18 -105t-53 -86.5t-87 -59.5l89 -248h-268l-66 215h-225l-38 -215h-247zM343 386h262q20 0 38 9.5t29.5 27t11.5 42.5q0 26 -15.5 39t-40.5 13h-262z" />
    <glyph glyph-name="S" unicode="S" horiz-adv-x="882" 
d="M438 -12q-87 0 -161 9t-129.5 30t-86.5 58t-31 94q0 12 1.5 28t5.5 26h241q-3 -7 -4 -14t-1 -12q0 -25 18.5 -38.5t52 -18t77.5 -4.5q23 0 50 1.5t51.5 6t40 14.5t15.5 28q0 17 -23 26.5t-61.5 15t-86 11t-95.5 14.5q-43 8 -83 21.5t-72 34.5t-50.5 52.5t-18.5 76.5
q0 69 34 117t92 78t131.5 43.5t152.5 13.5q76 0 142.5 -10t116.5 -31t78.5 -55t28.5 -83q0 -8 -1 -18t-4 -27h-239q1 5 1 8.5v5.5q0 26 -27.5 43t-91.5 17q-52 0 -85.5 -7t-50 -18t-16.5 -24q0 -16 18.5 -25t50.5 -14.5t72.5 -10t83.5 -10.5q48 -7 95.5 -18.5t86 -31.5
t61.5 -52.5t23 -81.5q0 -72 -32.5 -123t-88.5 -83.5t-128.5 -47.5t-153.5 -15z" />
    <glyph glyph-name="T" unicode="T" horiz-adv-x="877" 
d="M269 0l88 499h-292l33 189h831l-33 -189h-292l-88 -499h-247z" />
    <glyph glyph-name="U" unicode="U" horiz-adv-x="989" 
d="M466 -12q-196 0 -291.5 69t-95.5 200q0 20 2 40t6 42l62 349h247l-61 -346q-2 -13 -3 -24t-1 -22q0 -65 37.5 -100.5t107.5 -35.5q83 0 137 48t69 134l61 346h247l-65 -365q-20 -115 -76.5 -189.5t-151.5 -110t-231 -35.5z" />
    <glyph glyph-name="V" unicode="V" horiz-adv-x="938" 
d="M297 0l-214 688h267l75 -289q4 -15 10 -43.5t12.5 -60t11.5 -57.5h7q12 23 28.5 53t33 59t28.5 49l179 289h270l-456 -688h-252z" />
    <glyph glyph-name="W" unicode="W" horiz-adv-x="1230" 
d="M161 0l-81 688h246l28 -305q2 -24 3.5 -47t2.5 -41.5t1 -29.5h7q5 15 12.5 36t16.5 42.5t16 39.5l132 305h301l23 -305q2 -18 3 -39.5t1.5 -42.5t0.5 -36h7q6 16 14 37t17 42.5t16 38.5l137 305h235l-323 -688h-284l-31 387q-1 17 -2.5 34t-2 31t-1.5 22h-7
q-4 -12 -11 -28t-13.5 -31.5t-11.5 -27.5l-168 -387h-284z" />
    <glyph glyph-name="X" unicode="X" horiz-adv-x="961" 
d="M-43 0l387 361l-237 327h304l111 -161h9l165 161h308l-360 -329l267 -359h-304l-135 193h-10l-198 -193h-307z" />
    <glyph glyph-name="Y" unicode="Y" horiz-adv-x="966" 
d="M314 0l48 271l-270 417h282l138 -232h7l220 232h285l-415 -417l-48 -271h-247z" />
    <glyph glyph-name="Z" unicode="Z" horiz-adv-x="877" 
d="M-24 0l12 71l467 446h-359l30 171h782l-12 -71l-469 -446h400l-30 -171h-821z" />
    <glyph glyph-name="bracketleft" unicode="[" horiz-adv-x="389" 
d="M1 -160l158 897h273l-19 -103h-114l-121 -691h114l-19 -103h-272z" />
    <glyph glyph-name="backslash" unicode="\" horiz-adv-x="309" 
d="M128 -48l-45 784h126l45 -784h-126z" />
    <glyph glyph-name="bracketright" unicode="]" horiz-adv-x="389" 
d="M396 734l-158 -897h-273l19 103h114l121 691h-114l19 103h272z" />
    <glyph glyph-name="asciicircum" unicode="^" horiz-adv-x="750" 
d="M104 307l276 381h140l143 -381h-142l-92 241l-174 -241h-151z" />
    <glyph glyph-name="underscore" unicode="_" horiz-adv-x="679" 
d="M-77 -180l20 118h679l-21 -118h-678z" />
    <glyph glyph-name="grave" unicode="`" horiz-adv-x="353" 
d="M235 592l-154 128v5h238l92 -133h-176z" />
    <glyph glyph-name="a" unicode="a" horiz-adv-x="808" 
d="M282 -12q-73 0 -129.5 23.5t-89 72t-32.5 123.5q0 52 10 95t28 77q29 56 73 91.5t98 52.5t111 17q31 0 66 -6.5t67 -22t51 -41.5h9l39 58h194l-18 -106q-1 -4 -5.5 -30t-11.5 -63t-13.5 -74.5t-11 -64.5t-4.5 -33q0 -12 6.5 -20t19.5 -8h55l-22 -121q-18 -7 -52 -13.5
t-71 -6.5q-52 0 -82 12.5t-45 33.5q-7 10 -11 21t-6 23h-8q-48 -51 -104.5 -70.5t-110.5 -19.5zM365 144q33 0 58 9.5t42.5 25.5t28 37t14.5 45q1 8 1.5 13t1 9.5t0.5 8.5q0 26 -10.5 47t-33 33t-60.5 12q-43 0 -72.5 -15.5t-46 -40.5t-22.5 -55q-2 -13 -3.5 -20.5
t-1.5 -12.5v-9q0 -37 24.5 -62t79.5 -25z" />
    <glyph glyph-name="b" unicode="b" horiz-adv-x="795" 
d="M438 -12q-61 0 -114.5 20.5t-87.5 73.5h-9l-31 -82h-181l126 725h224l-44 -255h9q26 26 58.5 41.5t66 22t60.5 6.5q73 0 129 -23t88.5 -71t32.5 -123q0 -51 -10 -97t-29 -81q-29 -55 -74.5 -90t-100.5 -51t-113 -16zM386 144q44 0 74.5 15t48 40.5t22.5 55.5q2 13 3 20.5
t1.5 12t0.5 7.5q0 25 -11 45t-34.5 32t-62.5 12q-33 0 -58 -9.5t-42.5 -25.5t-28 -37t-15.5 -45q-1 -7 -2 -13t-1.5 -10.5t-0.5 -8.5q0 -25 10.5 -46t34 -33t61.5 -12z" />
    <glyph glyph-name="c" unicode="c" horiz-adv-x="809" 
d="M371 -12q-102 0 -178.5 25t-119 76t-42.5 128q0 56 15.5 103t43.5 84q27 35 63.5 60.5t81.5 42t96.5 25t106.5 8.5q95 0 171.5 -21.5t121.5 -64t45 -106.5q0 -8 -0.5 -16.5t-2.5 -17.5h-227q1 3 1 5.5v5.5q0 21 -14.5 38t-41 26.5t-63.5 9.5q-48 0 -82 -17t-53 -45.5
t-25 -62.5q-2 -14 -3.5 -23t-2 -14t-0.5 -10q0 -27 13 -49.5t41 -35.5t74 -13q40 0 72 12.5t52 32.5t24 41h218q-13 -78 -68.5 -128t-138 -74.5t-178.5 -24.5z" />
    <glyph glyph-name="d" unicode="d" horiz-adv-x="795" 
d="M282 -12q-73 0 -129.5 23.5t-89 72t-32.5 123.5t21.5 134t57.5 99q23 26 51.5 45t60 31t65 18t67.5 6q31 0 66.5 -6.5t67.5 -22t51 -41.5h9l44 255h224l-127 -725h-185v82h-9q-48 -53 -102.5 -73.5t-110.5 -20.5zM368 144q44 0 74 16t47.5 43t22.5 58q1 8 1.5 13t1 9.5
t0.5 8.5q0 26 -10.5 47t-33.5 33t-61 12q-44 0 -74 -15.5t-47 -40.5t-23 -55q-2 -13 -3.5 -20.5t-1.5 -12.5v-9q0 -37 25 -62t82 -25z" />
    <glyph glyph-name="e" unicode="e" horiz-adv-x="811" 
d="M382 -12q-106 0 -185 24t-122.5 74.5t-43.5 128.5q0 65 20 117t56 91q37 40 88 65.5t113 38.5t131 13q107 0 183.5 -23.5t117.5 -71.5t41 -124q0 -13 -2 -34t-10 -61h-505q-1 -5 -1 -9.5v-9.5q0 -31 14.5 -51.5t43 -30.5t70.5 -10q30 0 54.5 6t42 16.5t28 23.5t13.5 27
h232q-8 -50 -41.5 -87.5t-85.5 -62.5t-116.5 -37.5t-135.5 -12.5zM283 328h264q1 3 1 6v6q0 20 -12.5 36.5t-36 26.5t-57.5 10q-44 0 -76.5 -11.5t-53 -31t-29.5 -42.5z" />
    <glyph glyph-name="f" unicode="f" horiz-adv-x="526" 
d="M75 -209q-24 0 -54.5 2.5t-60 6.5t-52.5 9l21 123h64q58 0 81.5 11.5t28.5 41.5l70 402h-115l25 141h115l3 14q15 70 50 113t86.5 62.5t114.5 19.5q25 0 55 -2.5t60 -6.5t52 -9l-21 -123h-64q-58 0 -82 -11.5t-28 -41.5l-2 -15h164l-25 -141h-164l-70 -401
q-12 -70 -48 -113t-88.5 -62.5t-115.5 -19.5z" />
    <glyph glyph-name="g" unicode="g" horiz-adv-x="798" 
d="M318 -209q-117 0 -184.5 19t-96.5 51t-29 71q0 7 1 22t7 30h220q-1 -3 -1 -5.5v-4.5q0 -8 8.5 -17.5t29.5 -15.5t57 -6q53 0 84 16t46 39t19 44q3 15 5.5 29.5t5.5 29.5h-9q-27 -27 -64 -43.5t-74 -23.5t-66 -7q-70 0 -125 22.5t-86.5 69t-31.5 117.5q0 52 11.5 95.5
t31.5 77.5q44 72 119 105.5t157 33.5q62 0 117.5 -20.5t89.5 -73.5h9l31 82h182l-86 -490q-14 -82 -66 -137t-132 -82.5t-180 -27.5zM373 175q33 0 58 8t42.5 22.5t28 32.5t13.5 39q1 7 1.5 11.5t1 8t0.5 6.5q0 23 -11 41.5t-34.5 29t-62.5 10.5q-44 0 -73.5 -12.5t-46 -34
t-22.5 -48.5q-2 -12 -3.5 -17.5t-1.5 -9v-8.5q0 -22 11 -40t35.5 -28.5t63.5 -10.5z" />
    <glyph glyph-name="h" unicode="h" horiz-adv-x="788" 
d="M15 0l126 725h224l-45 -258h8q29 26 62 42t68 23.5t69 7.5q72 0 120 -19.5t72.5 -58.5t24.5 -96q0 -14 -1.5 -29.5t-4.5 -32.5l-54 -304h-224l50 285q1 6 1.5 12t0.5 11q0 23 -9 40t-27.5 26.5t-47.5 9.5q-27 0 -51 -8.5t-43 -23.5t-31.5 -36t-16.5 -45l-47 -271h-224z
" />
    <glyph glyph-name="i" unicode="i" horiz-adv-x="344" 
d="M116 590l24 135h224l-24 -135h-224zM15 0l92 528h224l-93 -528h-223z" />
    <glyph glyph-name="j" unicode="j" horiz-adv-x="342" 
d="M117 590l24 135h224l-24 -135h-224zM-7 -210q-22 0 -49 2t-53 6.5t-46 9.5l22 123h59q38 0 60.5 20t27.5 51l93 526h224l-93 -529q-12 -69 -40.5 -115.5t-78 -70t-126.5 -23.5z" />
    <glyph glyph-name="k" unicode="k" horiz-adv-x="773" 
d="M15 0l126 725h224l-69 -392l244 195h273l-257 -212l169 -316h-251l-100 204l-113 -70l-23 -134h-223z" />
    <glyph glyph-name="l" unicode="l" horiz-adv-x="344" 
d="M15 0l126 725h224l-127 -725h-223z" />
    <glyph glyph-name="m" unicode="m" horiz-adv-x="1201" 
d="M15 0l93 528h182v-86h9q30 35 66.5 56.5t76 31.5t77.5 10q81 0 130.5 -25t68.5 -73h10q30 35 66.5 56.5t76 31.5t77.5 10q105 0 157 -43.5t52 -128.5q0 -15 -1.5 -31t-4.5 -33l-54 -304h-224l50 285q1 7 1.5 13.5t0.5 12.5q0 22 -8 38t-24.5 25.5t-42.5 9.5
q-34 0 -62.5 -14.5t-47 -40t-24.5 -58.5l-48 -271h-224l50 285q1 7 1.5 13.5t0.5 12.5q0 22 -8 38t-24.5 25.5t-42.5 9.5q-34 0 -62.5 -14.5t-47 -40t-24.5 -58.5l-48 -271h-224z" />
    <glyph glyph-name="n" unicode="n" horiz-adv-x="788" 
d="M15 0l93 528h182v-86h9q31 35 68.5 56.5t78.5 31.5t81 10q73 0 121 -20t72 -58.5t24 -96.5q0 -14 -1.5 -29t-4.5 -32l-54 -304h-224l50 285q1 6 1.5 12t0.5 12q0 22 -8.5 39t-27 26.5t-47.5 9.5q-27 0 -51 -8.5t-43 -23.5t-31.5 -36t-16.5 -45l-48 -271h-224z" />
    <glyph glyph-name="o" unicode="o" horiz-adv-x="810" 
d="M376 -12q-104 0 -182 25t-120.5 76t-42.5 128q0 62 18.5 113.5t52.5 89.5q36 41 87 67.5t113 39.5t131 13q105 0 182.5 -25.5t120.5 -76.5t43 -129q0 -54 -14 -99t-40 -80q-35 -48 -88.5 -79.5t-120 -47t-140.5 -15.5zM381 129q48 0 81.5 17t53.5 45.5t25 62.5
q3 15 4 23.5t1 14v9.5q0 28 -12 50t-38 35t-68 13q-48 0 -82 -17t-53 -45.5t-25 -62.5q-2 -14 -3.5 -23t-2 -14.5t-0.5 -9.5q0 -28 12 -50t38.5 -35t68.5 -13z" />
    <glyph glyph-name="p" unicode="p" horiz-adv-x="795" 
d="M-18 -197l126 725h186v-82h9q48 53 102.5 73.5t109.5 20.5q72 0 128.5 -23t89 -71.5t32.5 -123.5q0 -51 -10 -94.5t-28 -78.5q-29 -55 -74.5 -91t-101 -53t-113.5 -17q-30 0 -64.5 6.5t-65.5 22t-50 41.5h-9l-44 -255h-223zM387 144q44 0 74 15.5t47 41t22 54.5
q2 13 3 21t1.5 12.5t0.5 8.5q0 25 -11 44.5t-34 31t-61 11.5q-43 0 -73 -16t-47.5 -42.5t-23.5 -58.5q-1 -7 -2 -12.5t-1 -10v-9.5q0 -25 10.5 -46t34 -33t60.5 -12z" />
    <glyph glyph-name="q" unicode="q" horiz-adv-x="795" 
d="M430 -197l44 255h-9q-25 -26 -58 -41.5t-66.5 -22t-60.5 -6.5q-72 0 -128 23t-88.5 71.5t-32.5 122.5q0 68 17.5 122.5t47.5 94.5q31 41 72 67t88 38.5t96 12.5q62 0 117.5 -20.5t89.5 -73.5h9l31 82h182l-127 -725h-224zM366 144q33 0 58 9t43 24.5t28.5 35.5t14.5 42
q2 13 3 21t1.5 12.5t0.5 8.5q0 25 -11 44.5t-34.5 31t-61.5 11.5q-43 0 -73 -16t-47.5 -42.5t-23.5 -58.5q-1 -7 -2 -12.5t-1 -10v-9.5q0 -38 24.5 -64.5t80.5 -26.5z" />
    <glyph glyph-name="r" unicode="r" horiz-adv-x="515" 
d="M15 0l93 528h182v-86h9q24 35 53 57t60 32t60 10q25 0 45.5 -3t39.5 -10l-29 -166h-103q-31 0 -55.5 -9.5t-42.5 -26t-29.5 -39t-16.5 -49.5l-42 -238h-224z" />
    <glyph glyph-name="s" unicode="s" horiz-adv-x="747" 
d="M336 -12q-59 0 -117 8.5t-105 26t-75.5 45.5t-28.5 67q0 8 1 15.5t5 17.5h231q-1 -4 -2 -7.5t-1 -7.5q0 -15 13 -25.5t35 -15.5t50 -5q14 0 35 1t41.5 5t34.5 12.5t14 23.5q0 13 -19 20t-50.5 10.5t-70 7t-78.5 9.5q-36 6 -69.5 15.5t-60.5 26t-42.5 41t-15.5 60.5
q0 59 29.5 98t79.5 61.5t112.5 32t128.5 9.5q56 0 110 -7.5t98 -23.5t70.5 -41.5t26.5 -61.5q0 -7 -1.5 -15.5t-3.5 -16.5h-229q1 7 1 9v3q0 12 -12 19.5t-30.5 11.5t-38.5 4q-9 0 -27 -0.5t-37.5 -4t-33 -11t-13.5 -21.5q0 -15 26 -21t68 -9t89 -8q41 -4 80.5 -12.5
t72 -24.5t52 -43t19.5 -68q0 -61 -30.5 -102t-82 -64.5t-116.5 -33.5t-133 -10z" />
    <glyph glyph-name="t" unicode="t" horiz-adv-x="545" 
d="M320 -12q-64 0 -110.5 11.5t-71 40t-24.5 80.5q0 10 1 21t3 23l40 223h-105l25 141h114l72 160h172l-29 -160h151l-25 -141h-151l-31 -177q-1 -7 -2 -13.5t-1 -12.5q0 -27 17 -41t60 -14h63l-22 -122q-15 -5 -43 -9.5t-56 -7t-47 -2.5z" />
    <glyph glyph-name="u" unicode="u" horiz-adv-x="788" 
d="M262 -12q-73 0 -121 20t-72 59t-24 96q0 14 1.5 29.5t4.5 31.5l54 304h224l-50 -285q-1 -6 -1.5 -12t-0.5 -12q0 -22 8.5 -39t27 -26.5t47.5 -9.5q27 0 51 8.5t43 23.5t31.5 36t16.5 45l48 271h224l-93 -528h-182v86h-9q-30 -35 -68 -56.5t-79 -31.5t-81 -10z" />
    <glyph glyph-name="v" unicode="v" horiz-adv-x="750" 
d="M208 0l-161 528h238l50 -223q4 -15 7.5 -37t7.5 -44t6 -39h10q9 18 21 40.5t24.5 44.5t20.5 37l124 221h241l-347 -528h-242z" />
    <glyph glyph-name="w" unicode="w" horiz-adv-x="1167" 
d="M200 0l-153 528h234l43 -225q3 -15 6 -33t5.5 -35t3.5 -29h9q6 14 14 31.5t16.5 35t14.5 30.5l114 225h256l31 -225q2 -13 3.5 -31t3 -35.5t2.5 -30.5h8q7 14 15.5 31.5t17.5 35t16 30.5l125 225h229l-339 -528h-227l-34 231q-3 19 -5.5 38t-4 35.5l-2.5 27.5h-8
q-4 -11 -12 -28t-17 -36.5t-18 -38.5l-113 -229h-234z" />
    <glyph glyph-name="x" unicode="x" horiz-adv-x="831" 
d="M-43 0l309 280l-192 248h271l91 -132h6l134 132h280l-285 -253l207 -275h-269l-107 158h-6l-159 -158h-280z" />
    <glyph glyph-name="y" unicode="y" horiz-adv-x="750" 
d="M84 -210q-39 0 -67.5 5.5t-49.5 12.5l20 123h95q37 0 61 9.5t39 25.5t26 34l-161 528h239l47 -233q3 -15 6.5 -37t7.5 -44t6 -39h10q7 13 16 29.5t18 33.5t17.5 32.5t14.5 26.5l127 231h241l-318 -484q-33 -50 -69 -95.5t-81 -81.5t-105 -56.5t-140 -20.5z" />
    <glyph glyph-name="z" unicode="z" horiz-adv-x="685" 
d="M-21 0l11 65l328 322h-257l25 141h610l-11 -62l-333 -325h286l-25 -141h-634z" />
    <glyph glyph-name="braceleft" unicode="{" horiz-adv-x="389" 
d="M282 -160q-76 0 -123.5 7t-69.5 26t-22 53q0 8 4.5 36.5t11.5 67t14.5 76.5t12 65t4.5 33q0 25 -23.5 35.5t-54.5 10.5l14 79q30 0 61 13.5t36 43.5l42 239q8 46 35.5 70t80.5 33t136 9l-18 -98q-14 0 -31.5 -2.5t-32 -11t-19.5 -27.5l-45 -201q-7 -32 -22.5 -55.5
t-39.5 -35.5t-58 -12l-1 -9q44 0 64 -21.5t20 -60.5q0 -11 -2.5 -34.5t-6.5 -52.5t-8.5 -57.5t-7 -51t-2.5 -32.5q0 -17 11.5 -25t27.5 -10t30 -2z" />
    <glyph glyph-name="bar" unicode="|" horiz-adv-x="292" 
d="M72 -210v936h144v-936h-144z" />
    <glyph glyph-name="braceright" unicode="}" horiz-adv-x="388" 
d="M115 736q76 0 123.5 -7t69.5 -25.5t22 -53.5q0 -8 -4.5 -36.5t-11.5 -67t-14.5 -76.5t-12 -65t-4.5 -33q0 -25 23.5 -35.5t54.5 -10.5l-14 -79q-30 0 -61 -13.5t-36 -43.5l-42 -239q-8 -46 -35.5 -70t-80.5 -33t-136 -9l18 98q14 0 31.5 2.5t32.5 11.5t19 27l45 201
q7 33 22.5 56t40 35t57.5 12l1 9q-44 0 -64 21.5t-20 60.5q0 11 2.5 34.5t7 52.5t8.5 57.5t6.5 51t2.5 32.5q0 17 -11.5 25t-27.5 10t-30 2z" />
    <glyph glyph-name="asciitilde" unicode="~" horiz-adv-x="750" 
d="M23 177l22 130l17.5 14.5t48.5 33.5t70.5 33.5t84.5 14.5q40 0 74.5 -12.5t67.5 -29.5t68.5 -29.5t76.5 -12.5q45 0 85.5 14.5t71 33.5t48 33.5l17.5 14.5l-22 -130l-18 -14.5t-49 -33.5t-71.5 -33.5t-84.5 -14.5q-40 0 -75 12.5t-67.5 29.5t-67.5 29.5t-77 12.5
q-46 0 -86 -14.5t-70 -33.5t-47 -33.5z" />
    <glyph glyph-name="uni00A0" unicode="&#xa0;" horiz-adv-x="290" 
 />
    <glyph glyph-name="exclamdown" unicode="&#xa1;" horiz-adv-x="391" 
d="M-14 -160l115 416h185l-30 -416h-270zM75 322l36 206h261l-36 -206h-261z" />
    <glyph glyph-name="cent" unicode="&#xa2;" horiz-adv-x="808" 
d="M301 -67l145 823h97l-145 -823h-97zM389 68q-102 0 -178.5 25t-119 76t-42.5 128q0 56 15.5 103t43.5 84q27 35 63.5 60.5t81.5 42t96.5 25t106.5 8.5q95 0 171.5 -21.5t121.5 -64t45 -106.5q0 -8 -0.5 -16.5t-2.5 -17.5h-227q1 3 1 5.5v5.5q0 21 -14.5 37.5t-41 26.5
t-63.5 10q-48 0 -82 -17t-53 -45.5t-25 -62.5q-2 -14 -3.5 -23t-2 -14t-0.5 -10q0 -27 13 -49.5t41 -35.5t74 -13q40 0 72 12.5t52 32.5t24 41h218q-13 -78 -68.5 -128t-138 -74.5t-178.5 -24.5z" />
    <glyph glyph-name="sterling" unicode="&#xa3;" horiz-adv-x="799" 
d="M27 0l27 157h78l21 119h-115l23 127h115l12 68q11 63 49.5 115t107.5 83t170 31q98 0 162 -25t96 -68.5t32 -97.5q0 -9 -1.5 -22t-4.5 -28h-223q1 3 1 5v4.5v4.5q0 20 -9 35t-24.5 23.5t-36.5 8.5q-23 0 -43.5 -10.5t-35 -29t-18.5 -41.5l-10 -56h153l-23 -127h-154
l-45 -119h380l-27 -157h-657z" />
    <glyph glyph-name="currency" unicode="&#xa4;" horiz-adv-x="660" 
d="M144 80l-61 61l58 58q-22 25 -34 61.5t-12 78.5q0 41 11.5 79.5t34.5 60.5l-58 58l63 63l57 -57q23 20 61.5 32t78.5 12q42 0 79.5 -12t56.5 -30l58 58l68 -68l-56 -56q20 -21 31 -59.5t11 -80.5q0 -40 -11.5 -78t-32.5 -64l56 -56l-60 -60l-58 58q-22 -22 -60.5 -35
t-81.5 -13q-42 0 -80 12t-62 34zM343 201q39 0 67.5 19t44.5 50.5t16 68.5t-16 68.5t-44.5 50.5t-67.5 19q-37 0 -66 -18.5t-45.5 -50t-16.5 -69.5t17 -69.5t46 -50t65 -18.5z" />
    <glyph glyph-name="yen" unicode="&#xa5;" horiz-adv-x="807" 
d="M252 0l25 143h-252l16 96h253l7 42h-253l17 96h182q-8 14 -23.5 43t-32.5 63l-99 205h252l62 -148q4 -8 9.5 -22.5t12 -29.5t10.5 -28h7q7 10 16 24t19.5 29t19.5 27l114 148h251l-171 -205q-25 -30 -51 -59.5t-40 -46.5h181l-17 -96h-252l-7 -42h252l-17 -96h-252
l-25 -143h-214z" />
    <glyph glyph-name="brokenbar" unicode="&#xa6;" horiz-adv-x="282" 
d="M72 336v390h134v-390h-134zM72 -210v390h134v-390h-134z" />
    <glyph glyph-name="section" unicode="&#xa7;" horiz-adv-x="807" 
d="M350 -184q-52 0 -107.5 7t-103.5 22.5t-78 43t-30 67.5q0 5 0.5 12.5t3.5 18.5h226q-1 -4 -1 -6v-3q0 -12 13 -20t32 -12t36 -4q23 0 46 3.5t38.5 11t15.5 19.5q0 14 -21 26t-56 24t-76.5 26t-83 31t-76.5 39.5t-56 51.5t-21 67q0 34 15.5 61t38.5 47.5t47 35t42 22.5
q-34 21 -55 49t-21 63q0 42 22 72.5t58.5 51.5t81 33.5t90.5 18t86 5.5q52 0 107.5 -7t103.5 -23t78 -43t30 -68q0 -4 -0.5 -11.5t-3.5 -18.5h-226q1 5 1 6.5v2.5q0 12 -13 20t-31.5 12t-36.5 4q-23 0 -46 -3.5t-38.5 -11t-15.5 -19.5q0 -14 21 -26t56 -24t76.5 -26t83 -31
t76.5 -39.5t56 -51.5t21 -67q0 -34 -15.5 -61t-38.5 -47.5t-47 -35t-42 -22.5q33 -22 54 -49.5t21 -62.5q0 -42 -22 -72.5t-58.5 -51.5t-80.5 -33.5t-90 -18t-86 -5.5zM488 165q12 7 23 15t18.5 19t7.5 24q0 21 -18.5 38.5t-50.5 32.5t-70.5 28.5t-79.5 28.5
q-12 -7 -23 -15.5t-18.5 -19t-7.5 -23.5q0 -21 18.5 -38.5t50.5 -32.5t71 -28.5t79 -28.5z" />
    <glyph glyph-name="dieresis" unicode="&#xa8;" horiz-adv-x="466" 
d="M55 575l27 150h189l-27 -150h-189zM328 575l27 150h192l-27 -150h-192z" />
    <glyph glyph-name="copyright" unicode="&#xa9;" horiz-adv-x="800" 
d="M415 -12q-78 0 -143 26.5t-113 74.5t-74.5 113t-26.5 142t26.5 142t74.5 113t113 74.5t143 26.5q76 0 141 -26.5t113 -74.5t74.5 -113t26.5 -142t-26.5 -142.5t-74.5 -113t-113 -74t-141 -26.5zM418 130q-71 0 -119 24t-72 72t-24 119q0 70 24 117.5t72 71.5t119 24
q60 0 105 -20.5t69.5 -59.5t24.5 -97h-127q0 24 -8.5 41.5t-24.5 27t-40 9.5q-44 0 -61 -27.5t-17 -80.5v-10q0 -39 7.5 -63.5t24.5 -36.5t45 -12q26 0 43.5 9t26 26t8.5 41h123q0 -57 -23.5 -96t-68 -59t-107.5 -20zM414 61q82 0 146 36.5t100.5 100.5t36.5 146
q0 83 -37 147t-100 100.5t-146 36.5q-82 0 -146 -36.5t-100.5 -100.5t-36.5 -146q0 -83 36.5 -147t100.5 -100.5t146 -36.5z" />
    <glyph glyph-name="ordfeminine" unicode="&#xaa;" horiz-adv-x="536" 
d="M223 326q-73 0 -119 37t-46 116q0 35 7.5 64.5t20.5 52.5q19 36 49.5 59t67.5 34t76 11q32 0 69 -11.5t56 -34.5h6l26 34h130l-12 -59q0 -3 -4 -23t-10 -48t-11.5 -56.5t-9.5 -49t-4 -24.5q0 -7 4.5 -12t13.5 -5h37l-15 -73q-12 -4 -35 -8t-48 -4q-35 0 -55.5 8t-30.5 21
q-4 6 -6.5 12t-3.5 13h-6q-32 -31 -70.5 -42.5t-76.5 -11.5zM277 420q30 0 50.5 10t33 27t17.5 36q4 16 5 24.5t1 12.5q0 25 -8 42t-24 25.5t-39 8.5q-36 0 -59.5 -17.5t-33.5 -50.5q-4 -14 -6.5 -28t-2.5 -27q0 -31 17 -47t49 -16z" />
    <glyph glyph-name="guillemotleft" unicode="&#xab;" horiz-adv-x="641" 
d="M178 119l-158 205l231 204h160l-202 -204l129 -205h-160zM441 119l-158 205l231 204h160l-202 -204l129 -205h-160z" />
    <glyph glyph-name="logicalnot" unicode="&#xac;" horiz-adv-x="750" 
d="M508 143l34 192h-478l29 161h644l-63 -353h-166z" />
    <glyph glyph-name="uni00AD" unicode="&#xad;" horiz-adv-x="416" 
d="M37 189l31 172h315l-31 -172h-315z" />
    <glyph glyph-name="registered" unicode="&#xae;" horiz-adv-x="800" 
d="M415 -12q-78 0 -143 26.5t-113 74.5t-74.5 113t-26.5 142t26.5 142t74.5 113t113 74.5t143 26.5q76 0 141 -26.5t113 -74.5t74.5 -113t26.5 -142t-26.5 -142.5t-74.5 -113t-113 -74t-141 -26.5zM414 61q82 0 146 36.5t100.5 100.5t36.5 146q0 83 -37 147t-100 100.5
t-146 36.5q-82 0 -146 -36.5t-100.5 -100.5t-36.5 -146q0 -83 36.5 -147t100.5 -100.5t146 -36.5zM243 138v413h211q65 0 100 -34.5t35 -90.5q0 -39 -18 -69t-43 -51l81 -168h-145l-56 146h-32v-146h-133zM376 376h40q16 0 27 11.5t11 29.5q0 17 -11 28.5t-27 11.5h-40v-81z
" />
    <glyph glyph-name="macron" unicode="&#xaf;" horiz-adv-x="396" 
d="M60 600l17 100h395l-17 -100h-395z" />
    <glyph glyph-name="degree" unicode="&#xb0;" horiz-adv-x="400" 
d="M250 399q-41 0 -75.5 20t-54.5 54.5t-20 75.5q0 42 20 76t54.5 54.5t75.5 20.5q42 0 76 -20.5t54.5 -54.5t20.5 -76q0 -41 -20.5 -75.5t-54.5 -54.5t-76 -20zM250 489q26 0 43.5 17.5t17.5 42.5q0 26 -18 43.5t-43 17.5t-42.5 -17.5t-17.5 -43.5q0 -25 17.5 -42.5
t42.5 -17.5z" />
    <glyph glyph-name="plusminus" unicode="&#xb1;" horiz-adv-x="750" 
d="M298 173l32 185h-224l23 132h224l33 184h136l-33 -184h224l-23 -132h-224l-32 -185h-136zM43 0l23 132h584l-23 -132h-584z" />
    <glyph glyph-name="uni00B2" unicode="&#xb2;" horiz-adv-x="492" 
d="M82 440l5 26q7 33 30.5 59t57 46.5t69.5 37t67.5 31t51.5 28.5t20 29q0 14 -13.5 23t-46.5 9q-21 0 -37 -6.5t-25.5 -17t-12.5 -24.5l-2 -11h-121v6t1 7q8 41 35 68t72 40.5t107 13.5q54 0 93 -11t60 -33t21 -54q0 -23 -12 -43t-32.5 -36.5t-46 -30t-52.5 -25t-52 -21.5
l-45 -18h215l-17 -93h-390z" />
    <glyph glyph-name="uni00B3" unicode="&#xb3;" horiz-adv-x="492" 
d="M287 428q-100 0 -146 27t-46 66q0 4 0.5 10t2.5 16h119q-1 -7 -1.5 -10t-0.5 -4q0 -13 16.5 -21.5t50.5 -8.5q30 0 49.5 6.5t29 18.5t9.5 27q0 11 -6 17.5t-16 10t-23 3.5h-55l12 69h44q14 0 27.5 4.5t22 14t8.5 22.5q0 15 -15 25.5t-46 10.5q-17 0 -32 -4.5t-24.5 -12.5
t-11.5 -17l-1 -7h-115l2 15q4 27 29 49.5t68 36t99 13.5q88 0 132 -26t44 -67q0 -21 -11 -38t-29.5 -29t-43.5 -18v-4q33 -7 50 -27.5t17 -51.5t-21.5 -57.5t-67.5 -42.5t-120 -16z" />
    <glyph glyph-name="acute" unicode="&#xb4;" horiz-adv-x="334" 
d="M58 592l115 133h241v-5l-177 -128h-179z" />
    <glyph glyph-name="uni00B5" unicode="&#xb5;" horiz-adv-x="789" 
d="M-18 -197l126 725h224l-50 -285q-1 -6 -1.5 -12t-0.5 -12q0 -22 8.5 -39t27 -26.5t46.5 -9.5q29 0 52.5 8t42 22.5t30.5 35.5t16 47l48 271h224l-93 -528h-182v86h-9q-27 -35 -59 -56.5t-65.5 -31.5t-67.5 -10q-19 0 -35.5 4t-30.5 12q0 -13 -3 -42.5t-10 -69.5l-15 -89
h-223z" />
    <glyph glyph-name="paragraph" unicode="&#xb6;" horiz-adv-x="738" 
d="M176 -161l73 416q-51 2 -90 26.5t-61 65.5t-22 92q0 50 18.5 95t52 79.5t79 54.5t98.5 20h469l-21 -121h-76l-128 -728h-138l128 728h-116l-128 -728h-138z" />
    <glyph glyph-name="periodcentered" unicode="&#xb7;" horiz-adv-x="418" 
d="M71 224l37 206h261l-37 -206h-261z" />
    <glyph glyph-name="cedilla" unicode="&#xb8;" horiz-adv-x="305" 
d="M78 -211q-43 0 -88.5 4.5t-70.5 11.5l10 57h134q20 0 34 3.5t14 25.5q0 11 -9 14t-29 3h-55l48 131h111l-28 -69q33 -4 61 -21t28 -58q0 -31 -16.5 -51t-41.5 -31t-52.5 -15.5t-49.5 -4.5z" />
    <glyph glyph-name="uni00B9" unicode="&#xb9;" horiz-adv-x="492" 
d="M105 440l16 89h119l26 150h-119l11 62q33 2 71 10.5t75 21t67 25.5h39l-47 -269h109l-16 -89h-351z" />
    <glyph glyph-name="ordmasculine" unicode="&#xba;" horiz-adv-x="521" 
d="M285 326q-106 0 -169 39t-63 120q0 44 13.5 80.5t37.5 61.5q25 25 58 41t74 24t87 8q105 0 168.5 -40t63.5 -120q0 -38 -10 -71.5t-29 -56.5q-23 -29 -56.5 -48t-76.5 -28.5t-98 -9.5zM288 411q48 0 71.5 22.5t31.5 53.5q3 9 4.5 19t2.5 18.5t1 10.5q0 34 -18.5 57
t-61.5 23q-49 0 -74 -24t-31 -62q-2 -11 -3.5 -18.5t-2 -13t-0.5 -11.5q0 -30 18.5 -52.5t61.5 -22.5z" />
    <glyph glyph-name="guillemotright" unicode="&#xbb;" horiz-adv-x="641" 
d="M484 528l158 -205l-231 -204h-160l202 204l-129 205h160zM221 528l158 -205l-231 -204h-160l202 204l-129 205h160z" />
    <glyph glyph-name="onequarter" unicode="&#xbc;" horiz-adv-x="1100" 
d="M258 -12l535 712h108l-536 -712h-107zM87 340l16 89h119l26 150h-119l11 62q33 2 71 10.5t75 21t67 25.5h39l-47 -269h109l-16 -89h-351zM809 0l13 72h-231l15 85q41 37 88 93t81 115h132q-7 -21 -29.5 -49.5t-52.5 -58.5t-61.5 -57t-57.5 -46h130l12 68q15 13 32.5 32.5
t33.5 40t24 35.5h54l-32 -176h70l-14 -82h-70l-13 -72h-124z" />
    <glyph glyph-name="onehalf" unicode="&#xbd;" horiz-adv-x="1100" 
d="M258 -12l535 712h108l-536 -712h-107zM87 340l16 89h119l26 150h-119l11 62q33 2 71 10.5t75 21t67 25.5h39l-47 -269h109l-16 -89h-351zM620 0l5 26q7 33 30.5 59t57 46.5t69.5 37t67.5 31t51.5 28.5t20 29q0 14 -13.5 23t-46.5 9q-21 0 -37 -6.5t-25.5 -17t-12.5 -24.5
l-2 -11h-121v6t1 7q8 41 35 68t72 40.5t107 13.5q54 0 93 -11t60 -33t21 -54q0 -23 -12 -43t-32.5 -36.5t-46 -30t-52.5 -25t-52 -21.5l-45 -18h215l-17 -93h-390z" />
    <glyph glyph-name="threequarters" unicode="&#xbe;" horiz-adv-x="1100" 
d="M258 -12l535 712h108l-536 -712h-107zM269 328q-100 0 -146 27t-46 66q0 4 0.5 10t2.5 16h119q-1 -7 -1.5 -10t-0.5 -4q0 -13 16.5 -21.5t50.5 -8.5q30 0 49.5 6.5t29 18.5t9.5 27q0 11 -6 17.5t-16 10t-23 3.5h-55l12 69h44q14 0 27.5 4.5t22 14t8.5 22.5q0 15 -15 25.5
t-46 10.5q-17 0 -32 -4.5t-24.5 -12.5t-11.5 -17l-1 -7h-115l2 15q4 27 29 49.5t68 36t99 13.5q88 0 132 -26t44 -67q0 -21 -11 -38t-29.5 -29t-43.5 -18v-4q33 -7 50 -27.5t17 -51.5t-21.5 -57.5t-67.5 -42.5t-120 -16zM809 0l13 72h-231l15 85q41 37 88 93t81 115h132
q-7 -21 -29.5 -49.5t-52.5 -58.5t-61.5 -57t-57.5 -46h130l12 68q15 13 32.5 32.5t33.5 40t24 35.5h54l-32 -176h70l-14 -82h-70l-13 -72h-124z" />
    <glyph glyph-name="questiondown" unicode="&#xbf;" horiz-adv-x="743" 
d="M308 -171q-70 0 -127 11t-98 32t-62.5 53t-21.5 74q0 40 17.5 70t45.5 53t59.5 40.5t60.5 32t48 28t21 27.5l2 13h223l-7 -42q-3 -18 -20 -33.5t-42.5 -30t-52.5 -29t-51.5 -30t-39.5 -33.5t-15 -39q0 -17 10.5 -28.5t30 -17t46.5 -5.5q38 0 61 7.5t35.5 20t18 28
t7.5 31.5q1 4 1 8v8h211q0 -46 -17.5 -84.5t-50 -69t-77 -52t-99.5 -32.5t-117 -11zM243 323l36 206h261l-36 -206h-261z" />
    <glyph glyph-name="Agrave" unicode="&#xc0;" horiz-adv-x="954" 
d="M-38 0l453 688h272l212 -688h-260l-25 91h-337l-56 -91h-259zM382 262h187l-28 116q-2 8 -4.5 21.5t-5 30.5t-5.5 34t-5 31h-7q-9 -17 -21 -39t-23.5 -43t-19.5 -35zM539 752l-200 129l3 4h241l115 -133h-159z" />
    <glyph glyph-name="Aacute" unicode="&#xc1;" horiz-adv-x="954" 
d="M-38 0l453 688h272l212 -688h-260l-25 91h-337l-56 -91h-259zM382 262h187l-28 116q-2 8 -4.5 21.5t-5 30.5t-5.5 34t-5 31h-7q-9 -17 -21 -39t-23.5 -43t-19.5 -35zM431 752l115 133h242l2 -4l-200 -129h-159z" />
    <glyph glyph-name="Acircumflex" unicode="&#xc2;" horiz-adv-x="954" 
d="M-38 0l453 688h272l212 -688h-260l-25 91h-337l-56 -91h-259zM382 262h187l-28 116q-2 8 -4.5 21.5t-5 30.5t-5.5 34t-5 31h-7q-9 -17 -21 -39t-23.5 -43t-19.5 -35zM286 740l200 145h160l148 -145h-151l-110 106h70l-146 -106h-171z" />
    <glyph glyph-name="Atilde" unicode="&#xc3;" horiz-adv-x="954" 
d="M-38 0l453 688h272l212 -688h-260l-25 91h-337l-56 -91h-259zM382 262h187l-28 116q-2 8 -4.5 21.5t-5 30.5t-5.5 34t-5 31h-7q-9 -17 -21 -39t-23.5 -43t-19.5 -35zM279 736q6 32 28.5 66.5t61 58.5t90.5 24q45 0 84.5 -10.5t75 -21.5t68.5 -11q23 0 41 12t27 31h91
q-5 -32 -27.5 -66.5t-60.5 -58.5t-91 -24q-45 0 -85 11t-75.5 21.5t-67.5 10.5q-23 0 -40.5 -12.5t-28.5 -30.5h-91z" />
    <glyph glyph-name="Adieresis" unicode="&#xc4;" horiz-adv-x="954" 
d="M-38 0l453 688h272l212 -688h-260l-25 91h-337l-56 -91h-259zM382 262h187l-28 116q-2 8 -4.5 21.5t-5 30.5t-5.5 34t-5 31h-7q-9 -17 -21 -39t-23.5 -43t-19.5 -35zM317 735l26 150h190l-26 -150h-190zM591 735l26 150h192l-26 -150h-192z" />
    <glyph glyph-name="Aring" unicode="&#xc5;" horiz-adv-x="954" 
d="M-38 0l453 688h272l212 -688h-260l-25 91h-337l-56 -91h-259zM382 262h187l-28 116q-2 8 -4.5 21.5t-5 30.5t-5.5 34t-5 31h-7q-9 -17 -21 -39t-23.5 -43t-19.5 -35zM552 734q-41 0 -67.5 25.5t-26.5 65.5q0 35 16 61.5t44 42t64 15.5q41 0 67.5 -25.5t26.5 -65.5
q0 -34 -16 -61t-44 -42.5t-64 -15.5zM561 799q14 0 25 6t17.5 17t6.5 24q0 14 -10.5 23.5t-27.5 9.5q-14 0 -25 -6t-17 -16.5t-6 -24.5t10.5 -23.5t26.5 -9.5z" />
    <glyph glyph-name="AE" unicode="&#xc6;" horiz-adv-x="1252" 
d="M-55 0l521 688h810l-30 -171h-483l13 -89h387l-28 -162h-335l13 -95h380l-30 -171h-566l-11 91h-316l-64 -91h-261zM390 262h176l-13 125q-1 11 -2 25t-1.5 30t-1 31t-0.5 27h-8q-6 -13 -16 -32.5t-22 -40.5t-25 -40z" />
    <glyph glyph-name="Ccedilla" unicode="&#xc7;" horiz-adv-x="939" 
d="M459 -12q-205 0 -306 71t-101 208q0 91 26.5 165t75.5 128q43 46 101 77t131.5 47t159.5 16q115 0 199.5 -31t131 -87t46.5 -131q0 -11 -1 -22.5t-3 -23.5h-240q1 5 1.5 10t0.5 9q0 31 -18 54.5t-51.5 37t-79.5 13.5q-49 0 -86.5 -13.5t-64 -37.5t-42.5 -55t-23 -66
q-3 -14 -4.5 -23.5t-2 -16.5t-1 -11.5t-0.5 -9.5q0 -38 16 -69.5t50 -49.5t88 -18q57 0 100 15t69.5 42t32.5 63h233q-14 -84 -71.5 -150t-151 -103.5t-215.5 -37.5zM407 -211q-43 0 -88.5 4.5t-70.5 11.5l10 57h134q20 0 34 3.5t14 25.5q0 11 -9 14t-29 3h-55l48 131h111
l-28 -69q33 -4 61 -21t28 -58q0 -31 -16.5 -51t-41.5 -31t-52.5 -15.5t-49.5 -4.5z" />
    <glyph glyph-name="Egrave" unicode="&#xc8;" horiz-adv-x="860" 
d="M28 0l121 688h735l-30 -171h-487l-16 -89h420l-28 -162h-420l-17 -95h495l-30 -171h-743zM506 752l-200 129l3 4h241l115 -133h-159z" />
    <glyph glyph-name="Eacute" unicode="&#xc9;" horiz-adv-x="860" 
d="M28 0l121 688h735l-30 -171h-487l-16 -89h420l-28 -162h-420l-17 -95h495l-30 -171h-743zM398 752l115 133h242l2 -4l-200 -129h-159z" />
    <glyph glyph-name="Ecircumflex" unicode="&#xca;" horiz-adv-x="860" 
d="M28 0l121 688h735l-30 -171h-487l-16 -89h420l-28 -162h-420l-17 -95h495l-30 -171h-743zM253 740l200 145h160l148 -145h-151l-110 106h70l-146 -106h-171z" />
    <glyph glyph-name="Edieresis" unicode="&#xcb;" horiz-adv-x="860" 
d="M28 0l121 688h735l-30 -171h-487l-16 -89h420l-28 -162h-420l-17 -95h495l-30 -171h-743zM284 735l26 150h190l-26 -150h-190zM558 735l26 150h192l-26 -150h-192z" />
    <glyph glyph-name="Igrave" unicode="&#xcc;" horiz-adv-x="395" 
d="M28 0l121 688h247l-121 -688h-247zM271 752l-200 129l3 4h241l115 -133h-159z" />
    <glyph glyph-name="Iacute" unicode="&#xcd;" horiz-adv-x="395" 
d="M28 0l121 688h247l-121 -688h-247zM163 752l115 133h242l2 -4l-200 -129h-159z" />
    <glyph glyph-name="Icircumflex" unicode="&#xce;" horiz-adv-x="395" 
d="M28 0l121 688h247l-121 -688h-247zM18 740l200 145h160l148 -145h-151l-110 106h70l-146 -106h-171z" />
    <glyph glyph-name="Idieresis" unicode="&#xcf;" horiz-adv-x="395" 
d="M28 0l121 688h247l-121 -688h-247zM49 735l26 150h190l-26 -150h-190zM323 735l26 150h192l-26 -150h-192z" />
    <glyph glyph-name="Eth" unicode="&#xd0;" horiz-adv-x="933" 
d="M2 273l24 141h474l-24 -141h-474zM28 0l121 688h380q180 0 280 -73t100 -208q0 -76 -21.5 -140t-60.5 -113q-40 -51 -98 -85t-129 -51.5t-152 -17.5h-420zM305 171h138q40 0 74.5 12t61.5 33.5t44.5 51t23.5 65.5q3 18 4.5 28t2 16.5t0.5 11.5q0 39 -17.5 67.5t-51 44.5
t-81.5 16h-138z" />
    <glyph glyph-name="Ntilde" unicode="&#xd1;" horiz-adv-x="1007" 
d="M28 0l121 688h215l288 -303q5 -5 14 -15t19.5 -21t18.5 -20h10q2 14 6 37.5t8 45.5l48 276h232l-121 -688h-213l-275 290q-17 18 -36.5 38.5t-30.5 33.5h-9q-2 -14 -6.5 -39.5t-9.5 -51.5l-47 -271h-232zM310 736q6 32 28.5 66.5t61 58.5t90.5 24q45 0 84.5 -10.5
t75 -21.5t68.5 -11q23 0 41 12t27 31h91q-5 -32 -27.5 -66.5t-60.5 -58.5t-91 -24q-45 0 -85 11t-75.5 21.5t-67.5 10.5q-23 0 -40.5 -12.5t-28.5 -30.5h-91z" />
    <glyph glyph-name="Ograve" unicode="&#xd2;" horiz-adv-x="1008" 
d="M476 -12q-133 0 -227.5 35t-145 101t-50.5 159q0 79 25.5 146.5t71.5 118.5q45 50 107.5 83.5t139 51t164.5 17.5q133 0 227.5 -35.5t145 -101.5t50.5 -160q0 -80 -26.5 -148.5t-74.5 -119.5q-45 -48 -107 -81t-138 -49.5t-162 -16.5zM486 159q47 0 87 12.5t71.5 36
t51.5 55.5t26 70q2 13 3.5 22t2 15t1 10.5t0.5 8.5q0 42 -21 73.5t-61 49t-96 17.5q-47 0 -87 -12.5t-71 -35.5t-51 -54.5t-26 -69.5q-2 -13 -3.5 -22t-2 -15.5t-1 -10.5t-0.5 -8q0 -42 21 -74t60.5 -50t95.5 -18zM568 752l-200 129l3 4h241l115 -133h-159z" />
    <glyph glyph-name="Oacute" unicode="&#xd3;" horiz-adv-x="1008" 
d="M476 -12q-133 0 -227.5 35t-145 101t-50.5 159q0 79 25.5 146.5t71.5 118.5q45 50 107.5 83.5t139 51t164.5 17.5q133 0 227.5 -35.5t145 -101.5t50.5 -160q0 -80 -26.5 -148.5t-74.5 -119.5q-45 -48 -107 -81t-138 -49.5t-162 -16.5zM486 159q47 0 87 12.5t71.5 36
t51.5 55.5t26 70q2 13 3.5 22t2 15t1 10.5t0.5 8.5q0 42 -21 73.5t-61 49t-96 17.5q-47 0 -87 -12.5t-71 -35.5t-51 -54.5t-26 -69.5q-2 -13 -3.5 -22t-2 -15.5t-1 -10.5t-0.5 -8q0 -42 21 -74t60.5 -50t95.5 -18zM460 752l115 133h242l2 -4l-200 -129h-159z" />
    <glyph glyph-name="Ocircumflex" unicode="&#xd4;" horiz-adv-x="1008" 
d="M476 -12q-133 0 -227.5 35t-145 101t-50.5 159q0 79 25.5 146.5t71.5 118.5q45 50 107.5 83.5t139 51t164.5 17.5q133 0 227.5 -35.5t145 -101.5t50.5 -160q0 -80 -26.5 -148.5t-74.5 -119.5q-45 -48 -107 -81t-138 -49.5t-162 -16.5zM486 159q47 0 87 12.5t71.5 36
t51.5 55.5t26 70q2 13 3.5 22t2 15t1 10.5t0.5 8.5q0 42 -21 73.5t-61 49t-96 17.5q-47 0 -87 -12.5t-71 -35.5t-51 -54.5t-26 -69.5q-2 -13 -3.5 -22t-2 -15.5t-1 -10.5t-0.5 -8q0 -42 21 -74t60.5 -50t95.5 -18zM315 740l200 145h160l148 -145h-151l-110 106h70l-146 -106
h-171z" />
    <glyph glyph-name="Otilde" unicode="&#xd5;" horiz-adv-x="1008" 
d="M476 -12q-133 0 -227.5 35t-145 101t-50.5 159q0 79 25.5 146.5t71.5 118.5q45 50 107.5 83.5t139 51t164.5 17.5q133 0 227.5 -35.5t145 -101.5t50.5 -160q0 -80 -26.5 -148.5t-74.5 -119.5q-45 -48 -107 -81t-138 -49.5t-162 -16.5zM486 159q47 0 87 12.5t71.5 36
t51.5 55.5t26 70q2 13 3.5 22t2 15t1 10.5t0.5 8.5q0 42 -21 73.5t-61 49t-96 17.5q-47 0 -87 -12.5t-71 -35.5t-51 -54.5t-26 -69.5q-2 -13 -3.5 -22t-2 -15.5t-1 -10.5t-0.5 -8q0 -42 21 -74t60.5 -50t95.5 -18zM308 736q6 32 28.5 66.5t61 58.5t90.5 24q45 0 84.5 -10.5
t75 -21.5t68.5 -11q23 0 41 12t27 31h91q-5 -32 -27.5 -66.5t-60.5 -58.5t-91 -24q-45 0 -85 11t-75.5 21.5t-67.5 10.5q-23 0 -40.5 -12.5t-28.5 -30.5h-91z" />
    <glyph glyph-name="Odieresis" unicode="&#xd6;" horiz-adv-x="1008" 
d="M476 -12q-133 0 -227.5 35t-145 101t-50.5 159q0 79 25.5 146.5t71.5 118.5q45 50 107.5 83.5t139 51t164.5 17.5q133 0 227.5 -35.5t145 -101.5t50.5 -160q0 -80 -26.5 -148.5t-74.5 -119.5q-45 -48 -107 -81t-138 -49.5t-162 -16.5zM486 159q47 0 87 12.5t71.5 36
t51.5 55.5t26 70q2 13 3.5 22t2 15t1 10.5t0.5 8.5q0 42 -21 73.5t-61 49t-96 17.5q-47 0 -87 -12.5t-71 -35.5t-51 -54.5t-26 -69.5q-2 -13 -3.5 -22t-2 -15.5t-1 -10.5t-0.5 -8q0 -42 21 -74t60.5 -50t95.5 -18zM346 735l26 150h190l-26 -150h-190zM620 735l26 150h192
l-26 -150h-192z" />
    <glyph glyph-name="multiply" unicode="&#xd7;" horiz-adv-x="750" 
d="M178 19l-87 105l189 160l-119 144l109 93l119 -144l188 160l87 -105l-189 -160l119 -144l-109 -93l-119 144z" />
    <glyph glyph-name="Oslash" unicode="&#xd8;" horiz-adv-x="1008" 
d="M476 -12q-133 0 -227.5 35t-145 101t-50.5 159q0 79 25.5 146.5t71.5 118.5q45 50 107.5 83.5t139 51t164.5 17.5q133 0 227.5 -35.5t145 -101.5t50.5 -160q0 -80 -26.5 -148.5t-74.5 -119.5q-45 -48 -107 -81t-138 -49.5t-162 -16.5zM486 159q47 0 87 12.5t71.5 36
t51.5 55.5t26 70q2 13 3.5 22t2 15t1 10.5t0.5 8.5q0 42 -21 73.5t-61 49t-96 17.5q-47 0 -87 -12.5t-71 -35.5t-51 -54.5t-26 -69.5q-2 -13 -3.5 -22t-2 -15.5t-1 -10.5t-0.5 -8q0 -42 21 -74t60.5 -50t95.5 -18zM20 -37l857 761h141l-856 -761h-142z" />
    <glyph glyph-name="Ugrave" unicode="&#xd9;" horiz-adv-x="989" 
d="M466 -12q-196 0 -291.5 69t-95.5 200q0 20 2 40t6 42l62 349h247l-61 -346q-2 -13 -3 -24t-1 -22q0 -65 37.5 -100.5t107.5 -35.5q83 0 137 48t69 134l61 346h247l-65 -365q-20 -115 -76.5 -189.5t-151.5 -110t-231 -35.5zM570 752l-200 129l3 4h241l115 -133h-159z" />
    <glyph glyph-name="Uacute" unicode="&#xda;" horiz-adv-x="989" 
d="M466 -12q-196 0 -291.5 69t-95.5 200q0 20 2 40t6 42l62 349h247l-61 -346q-2 -13 -3 -24t-1 -22q0 -65 37.5 -100.5t107.5 -35.5q83 0 137 48t69 134l61 346h247l-65 -365q-20 -115 -76.5 -189.5t-151.5 -110t-231 -35.5zM462 752l115 133h242l2 -4l-200 -129h-159z" />
    <glyph glyph-name="Ucircumflex" unicode="&#xdb;" horiz-adv-x="989" 
d="M466 -12q-196 0 -291.5 69t-95.5 200q0 20 2 40t6 42l62 349h247l-61 -346q-2 -13 -3 -24t-1 -22q0 -65 37.5 -100.5t107.5 -35.5q83 0 137 48t69 134l61 346h247l-65 -365q-20 -115 -76.5 -189.5t-151.5 -110t-231 -35.5zM317 740l200 145h160l148 -145h-151l-110 106
h70l-146 -106h-171z" />
    <glyph glyph-name="Udieresis" unicode="&#xdc;" horiz-adv-x="989" 
d="M466 -12q-196 0 -291.5 69t-95.5 200q0 20 2 40t6 42l62 349h247l-61 -346q-2 -13 -3 -24t-1 -22q0 -65 37.5 -100.5t107.5 -35.5q83 0 137 48t69 134l61 346h247l-65 -365q-20 -115 -76.5 -189.5t-151.5 -110t-231 -35.5zM348 735l26 150h190l-26 -150h-190zM622 735
l26 150h192l-26 -150h-192z" />
    <glyph glyph-name="Yacute" unicode="&#xdd;" horiz-adv-x="966" 
d="M314 0l48 271l-270 417h282l138 -232h7l220 232h285l-415 -417l-48 -271h-247zM448 752l115 133h242l2 -4l-200 -129h-159z" />
    <glyph glyph-name="Thorn" unicode="&#xde;" horiz-adv-x="899" 
d="M28 0l121 688h247l-16 -93h282q66 0 113.5 -24.5t73.5 -68.5t26 -104q0 -64 -21 -116.5t-57.5 -90.5t-82.5 -59t-97 -21h-322l-20 -111h-247zM325 282h233q27 0 47 10.5t31 30.5t11 50q0 26 -16 38.5t-48 12.5h-233z" />
    <glyph glyph-name="germandbls" unicode="&#xdf;" horiz-adv-x="796" 
d="M13 0l88 499q12 68 45.5 114t82 73t105.5 39t117 12t116.5 -8t101.5 -27t71 -51t26 -79q0 -37 -17.5 -72t-49 -61.5t-74.5 -38.5l-1 -5q53 -11 84 -51t31 -99q0 -62 -23.5 -108t-66 -76.5t-99.5 -45.5t-124 -15h-111l24 141h58q41 0 68 14.5t40.5 39t13.5 53.5
q0 20 -9.5 36.5t-29 26t-51.5 9.5h-58l26 146h47q35 0 58 10.5t34.5 27.5t11.5 38q0 23 -24 38.5t-74 15.5q-32 0 -58.5 -9t-43 -26t-20.5 -41l-91 -520h-224z" />
    <glyph glyph-name="agrave" unicode="&#xe0;" horiz-adv-x="808" 
d="M282 -12q-73 0 -129.5 23.5t-89 72t-32.5 123.5q0 52 10 95t28 77q29 56 73 91.5t98 52.5t111 17q31 0 66 -6.5t67 -22t51 -41.5h9l39 58h194l-18 -106q-1 -4 -5.5 -30t-11.5 -63t-13.5 -74.5t-11 -64.5t-4.5 -33q0 -12 6.5 -20t19.5 -8h55l-22 -121q-18 -7 -52 -13.5
t-71 -6.5q-52 0 -82 12.5t-45 33.5q-7 10 -11 21t-6 23h-8q-48 -51 -104.5 -70.5t-110.5 -19.5zM365 144q33 0 58 9.5t42.5 25.5t28 37t14.5 45q1 8 1.5 13t1 9.5t0.5 8.5q0 26 -10.5 47t-33 33t-60.5 12q-43 0 -72.5 -15.5t-46 -40.5t-22.5 -55q-2 -13 -3.5 -20.5
t-1.5 -12.5v-9q0 -37 24.5 -62t79.5 -25zM394 592l-146 128v5h226l87 -133h-167z" />
    <glyph glyph-name="aacute" unicode="&#xe1;" horiz-adv-x="808" 
d="M282 -12q-73 0 -129.5 23.5t-89 72t-32.5 123.5q0 52 10 95t28 77q29 56 73 91.5t98 52.5t111 17q31 0 66 -6.5t67 -22t51 -41.5h9l39 58h194l-18 -106q-1 -4 -5.5 -30t-11.5 -63t-13.5 -74.5t-11 -64.5t-4.5 -33q0 -12 6.5 -20t19.5 -8h55l-22 -121q-18 -7 -52 -13.5
t-71 -6.5q-52 0 -82 12.5t-45 33.5q-7 10 -11 21t-6 23h-8q-48 -51 -104.5 -70.5t-110.5 -19.5zM365 144q33 0 58 9.5t42.5 25.5t28 37t14.5 45q1 8 1.5 13t1 9.5t0.5 8.5q0 26 -10.5 47t-33 33t-60.5 12q-43 0 -72.5 -15.5t-46 -40.5t-22.5 -55q-2 -13 -3.5 -20.5
t-1.5 -12.5v-9q0 -37 24.5 -62t79.5 -25zM318 592l115 133h241v-5l-177 -128h-179z" />
    <glyph glyph-name="acircumflex" unicode="&#xe2;" horiz-adv-x="808" 
d="M282 -12q-73 0 -129.5 23.5t-89 72t-32.5 123.5q0 52 10 95t28 77q29 56 73 91.5t98 52.5t111 17q31 0 66 -6.5t67 -22t51 -41.5h9l39 58h194l-18 -106q-1 -4 -5.5 -30t-11.5 -63t-13.5 -74.5t-11 -64.5t-4.5 -33q0 -12 6.5 -20t19.5 -8h55l-22 -121q-18 -7 -52 -13.5
t-71 -6.5q-52 0 -82 12.5t-45 33.5q-7 10 -11 21t-6 23h-8q-48 -51 -104.5 -70.5t-110.5 -19.5zM365 144q33 0 58 9.5t42.5 25.5t28 37t14.5 45q1 8 1.5 13t1 9.5t0.5 8.5q0 26 -10.5 47t-33 33t-60.5 12q-43 0 -72.5 -15.5t-46 -40.5t-22.5 -55q-2 -13 -3.5 -20.5
t-1.5 -12.5v-9q0 -37 24.5 -62t79.5 -25zM193 580l198 145h160l149 -145h-156l-97 92h35l-124 -92h-165z" />
    <glyph glyph-name="atilde" unicode="&#xe3;" horiz-adv-x="808" 
d="M282 -12q-73 0 -129.5 23.5t-89 72t-32.5 123.5q0 52 10 95t28 77q29 56 73 91.5t98 52.5t111 17q31 0 66 -6.5t67 -22t51 -41.5h9l39 58h194l-18 -106q-1 -4 -5.5 -30t-11.5 -63t-13.5 -74.5t-11 -64.5t-4.5 -33q0 -12 6.5 -20t19.5 -8h55l-22 -121q-18 -7 -52 -13.5
t-71 -6.5q-52 0 -82 12.5t-45 33.5q-7 10 -11 21t-6 23h-8q-48 -51 -104.5 -70.5t-110.5 -19.5zM365 144q33 0 58 9.5t42.5 25.5t28 37t14.5 45q1 8 1.5 13t1 9.5t0.5 8.5q0 26 -10.5 47t-33 33t-60.5 12q-43 0 -72.5 -15.5t-46 -40.5t-22.5 -55q-2 -13 -3.5 -20.5
t-1.5 -12.5v-9q0 -37 24.5 -62t79.5 -25zM159 576q6 32 29 66.5t63.5 58.5t97.5 24q45 0 82 -10.5t69.5 -21.5t65.5 -11q23 0 41 12t28 31h91q-6 -32 -28 -66.5t-61.5 -58.5t-100.5 -24q-45 0 -82.5 11t-70 21.5t-64.5 10.5q-23 0 -41 -12.5t-29 -30.5h-90z" />
    <glyph glyph-name="adieresis" unicode="&#xe4;" horiz-adv-x="808" 
d="M282 -12q-73 0 -129.5 23.5t-89 72t-32.5 123.5q0 52 10 95t28 77q29 56 73 91.5t98 52.5t111 17q31 0 66 -6.5t67 -22t51 -41.5h9l39 58h194l-18 -106q-1 -4 -5.5 -30t-11.5 -63t-13.5 -74.5t-11 -64.5t-4.5 -33q0 -12 6.5 -20t19.5 -8h55l-22 -121q-18 -7 -52 -13.5
t-71 -6.5q-52 0 -82 12.5t-45 33.5q-7 10 -11 21t-6 23h-8q-48 -51 -104.5 -70.5t-110.5 -19.5zM365 144q33 0 58 9.5t42.5 25.5t28 37t14.5 45q1 8 1.5 13t1 9.5t0.5 8.5q0 26 -10.5 47t-33 33t-60.5 12q-43 0 -72.5 -15.5t-46 -40.5t-22.5 -55q-2 -13 -3.5 -20.5
t-1.5 -12.5v-9q0 -37 24.5 -62t79.5 -25zM222 575l27 150h189l-27 -150h-189zM495 575l27 150h192l-27 -150h-192z" />
    <glyph glyph-name="aring" unicode="&#xe5;" horiz-adv-x="808" 
d="M282 -12q-73 0 -129.5 23.5t-89 72t-32.5 123.5q0 52 10 95t28 77q29 56 73 91.5t98 52.5t111 17q31 0 66 -6.5t67 -22t51 -41.5h9l39 58h194l-18 -106q-1 -4 -5.5 -30t-11.5 -63t-13.5 -74.5t-11 -64.5t-4.5 -33q0 -12 6.5 -20t19.5 -8h55l-22 -121q-18 -7 -52 -13.5
t-71 -6.5q-52 0 -82 12.5t-45 33.5q-7 10 -11 21t-6 23h-8q-48 -51 -104.5 -70.5t-110.5 -19.5zM365 144q33 0 58 9.5t42.5 25.5t28 37t14.5 45q1 8 1.5 13t1 9.5t0.5 8.5q0 26 -10.5 47t-33 33t-60.5 12q-43 0 -72.5 -15.5t-46 -40.5t-22.5 -55q-2 -13 -3.5 -20.5
t-1.5 -12.5v-9q0 -37 24.5 -62t79.5 -25zM454 575q-41 0 -67.5 25.5t-26.5 64.5q0 56 35.5 91.5t90.5 35.5q41 0 68 -25t27 -64q0 -37 -16.5 -66t-45 -45.5t-65.5 -16.5zM464 640q15 0 26.5 6.5t18 18t6.5 26.5q0 16 -10.5 26t-27.5 10q-14 0 -25.5 -6.5t-18 -18t-6.5 -26.5
q0 -16 10.5 -26t26.5 -10z" />
    <glyph glyph-name="ae" unicode="&#xe6;" horiz-adv-x="1269" 
d="M272 -12q-58 0 -106.5 6t-84.5 20.5t-56 39.5t-20 63q0 59 25.5 98t71.5 61.5t109 33.5t138.5 14.5t159.5 3.5l2 10q1 4 1 7v7q0 32 -27.5 46.5t-74.5 14.5q-21 0 -47.5 -3t-47 -12.5t-24.5 -28.5l-1 -5h-228q0 5 0.5 9.5t1.5 8.5q8 46 54.5 81.5t126.5 56t186 20.5
q81 0 140 -14t95 -46q51 30 110.5 45t125.5 15q105 0 180.5 -23.5t116 -71.5t40.5 -124q0 -13 -2 -32t-10 -63h-505q-1 -5 -1 -9.5v-9.5q0 -31 14.5 -51.5t43 -30.5t70.5 -10q30 0 54.5 6t42 16.5t28 23.5t13.5 27h232q-8 -50 -42 -87.5t-87 -62.5t-118.5 -37.5
t-136.5 -12.5q-87 0 -156.5 17t-113.5 52q-37 -21 -81.5 -36.5t-97.5 -24t-114 -8.5zM311 114q15 0 41.5 3.5t55.5 12.5t51 24t26 39l6 33q-93 0 -150 -9t-83 -26t-26 -41q0 -15 11.5 -23t29.5 -10.5t38 -2.5zM741 328h264q1 3 1 6v6q0 20 -12.5 36.5t-36 26.5t-57.5 10
q-44 0 -76.5 -11.5t-53 -31t-29.5 -42.5z" />
    <glyph glyph-name="ccedilla" unicode="&#xe7;" horiz-adv-x="809" 
d="M371 -12q-102 0 -178.5 25t-119 76t-42.5 128q0 56 15.5 103t43.5 84q27 35 63.5 60.5t81.5 42t96.5 25t106.5 8.5q95 0 171.5 -21.5t121.5 -64t45 -106.5q0 -8 -0.5 -16.5t-2.5 -17.5h-227q1 3 1 5.5v5.5q0 21 -14.5 38t-41 26.5t-63.5 9.5q-48 0 -82 -17t-53 -45.5
t-25 -62.5q-2 -14 -3.5 -23t-2 -14t-0.5 -10q0 -27 13 -49.5t41 -35.5t74 -13q40 0 72 12.5t52 32.5t24 41h218q-13 -78 -68.5 -128t-138 -74.5t-178.5 -24.5zM334 -211q-43 0 -88.5 4.5t-70.5 11.5l10 57h134q20 0 34 3.5t14 25.5q0 11 -9 14t-29 3h-55l48 131h111l-28 -69
q33 -4 61 -21t28 -58q0 -31 -16.5 -51t-41.5 -31t-52.5 -15.5t-49.5 -4.5z" />
    <glyph glyph-name="egrave" unicode="&#xe8;" horiz-adv-x="811" 
d="M382 -12q-106 0 -185 24t-122.5 74.5t-43.5 128.5q0 65 20 117t56 91q37 40 88 65.5t113 38.5t131 13q107 0 183.5 -23.5t117.5 -71.5t41 -124q0 -13 -2 -34t-10 -61h-505q-1 -5 -1 -9.5v-9.5q0 -31 14.5 -51.5t43 -30.5t70.5 -10q30 0 54.5 6t42 16.5t28 23.5t13.5 27
h232q-8 -50 -41.5 -87.5t-85.5 -62.5t-116.5 -37.5t-135.5 -12.5zM283 328h264q1 3 1 6v6q0 20 -12.5 36.5t-36 26.5t-57.5 10q-44 0 -76.5 -11.5t-53 -31t-29.5 -42.5zM396 592l-146 128v5h226l87 -133h-167z" />
    <glyph glyph-name="eacute" unicode="&#xe9;" horiz-adv-x="811" 
d="M382 -12q-106 0 -185 24t-122.5 74.5t-43.5 128.5q0 65 20 117t56 91q37 40 88 65.5t113 38.5t131 13q107 0 183.5 -23.5t117.5 -71.5t41 -124q0 -13 -2 -34t-10 -61h-505q-1 -5 -1 -9.5v-9.5q0 -31 14.5 -51.5t43 -30.5t70.5 -10q30 0 54.5 6t42 16.5t28 23.5t13.5 27
h232q-8 -50 -41.5 -87.5t-85.5 -62.5t-116.5 -37.5t-135.5 -12.5zM283 328h264q1 3 1 6v6q0 20 -12.5 36.5t-36 26.5t-57.5 10q-44 0 -76.5 -11.5t-53 -31t-29.5 -42.5zM320 592l115 133h241v-5l-177 -128h-179z" />
    <glyph glyph-name="ecircumflex" unicode="&#xea;" horiz-adv-x="811" 
d="M382 -12q-106 0 -185 24t-122.5 74.5t-43.5 128.5q0 65 20 117t56 91q37 40 88 65.5t113 38.5t131 13q107 0 183.5 -23.5t117.5 -71.5t41 -124q0 -13 -2 -34t-10 -61h-505q-1 -5 -1 -9.5v-9.5q0 -31 14.5 -51.5t43 -30.5t70.5 -10q30 0 54.5 6t42 16.5t28 23.5t13.5 27
h232q-8 -50 -41.5 -87.5t-85.5 -62.5t-116.5 -37.5t-135.5 -12.5zM283 328h264q1 3 1 6v6q0 20 -12.5 36.5t-36 26.5t-57.5 10q-44 0 -76.5 -11.5t-53 -31t-29.5 -42.5zM195 580l198 145h160l149 -145h-156l-97 92h35l-124 -92h-165z" />
    <glyph glyph-name="edieresis" unicode="&#xeb;" horiz-adv-x="811" 
d="M382 -12q-106 0 -185 24t-122.5 74.5t-43.5 128.5q0 65 20 117t56 91q37 40 88 65.5t113 38.5t131 13q107 0 183.5 -23.5t117.5 -71.5t41 -124q0 -13 -2 -34t-10 -61h-505q-1 -5 -1 -9.5v-9.5q0 -31 14.5 -51.5t43 -30.5t70.5 -10q30 0 54.5 6t42 16.5t28 23.5t13.5 27
h232q-8 -50 -41.5 -87.5t-85.5 -62.5t-116.5 -37.5t-135.5 -12.5zM283 328h264q1 3 1 6v6q0 20 -12.5 36.5t-36 26.5t-57.5 10q-44 0 -76.5 -11.5t-53 -31t-29.5 -42.5zM224 575l27 150h189l-27 -150h-189zM497 575l27 150h192l-27 -150h-192z" />
    <glyph glyph-name="igrave" unicode="&#xec;" horiz-adv-x="344" 
d="M15 0l92 528h224l-93 -528h-223zM168 592l-146 128v5h226l87 -133h-167z" />
    <glyph glyph-name="iacute" unicode="&#xed;" horiz-adv-x="344" 
d="M15 0l92 528h224l-93 -528h-223zM92 592l115 133h241v-5l-177 -128h-179z" />
    <glyph glyph-name="icircumflex" unicode="&#xee;" horiz-adv-x="344" 
d="M15 0l92 528h224l-93 -528h-223zM-33 580l198 145h160l149 -145h-156l-97 92h35l-124 -92h-165z" />
    <glyph glyph-name="idieresis" unicode="&#xef;" horiz-adv-x="344" 
d="M15 0l92 528h224l-93 -528h-223zM-4 575l27 150h189l-27 -150h-189zM269 575l27 150h192l-27 -150h-192z" />
    <glyph glyph-name="eth" unicode="&#xf0;" horiz-adv-x="809" 
d="M377 -12q-106 0 -184 26t-120.5 76.5t-42.5 123.5q0 63 24 116t69 92q25 22 56 38.5t66.5 28t74 17.5t79.5 6q29 0 55 -3t50 -9l6 6q-14 20 -27 37.5t-27 33.5l-206 -24l14 81l124 14q-21 20 -42 37t-44 33l1 7h243q17 -12 33 -24.5t30 -26.5l175 20l-14 -81l-90 -10
q45 -54 73.5 -119t28.5 -144q0 -77 -21.5 -136.5t-60.5 -102.5q-35 -39 -84.5 -64t-109.5 -37t-129 -12zM381 129q50 0 82.5 17t51.5 45.5t26 62.5q2 11 3.5 18.5t2 12.5t0.5 9v7q0 28 -12 50t-38 35t-68 13q-49 0 -82 -17t-52 -45.5t-26 -62.5q-3 -14 -4.5 -23t-2 -14.5
t-0.5 -9.5q0 -28 12 -50t38.5 -35t68.5 -13z" />
    <glyph glyph-name="ntilde" unicode="&#xf1;" horiz-adv-x="788" 
d="M15 0l93 528h182v-86h9q31 35 68.5 56.5t78.5 31.5t81 10q73 0 121 -20t72 -58.5t24 -96.5q0 -14 -1.5 -29t-4.5 -32l-54 -304h-224l50 285q1 6 1.5 12t0.5 12q0 22 -8.5 39t-27 26.5t-47.5 9.5q-27 0 -51 -8.5t-43 -23.5t-31.5 -36t-16.5 -45l-48 -271h-224zM155 576
q6 32 29 66.5t63.5 58.5t97.5 24q45 0 82 -10.5t69.5 -21.5t65.5 -11q23 0 41 12t28 31h91q-6 -32 -28 -66.5t-61.5 -58.5t-100.5 -24q-45 0 -82.5 11t-70 21.5t-64.5 10.5q-23 0 -41 -12.5t-29 -30.5h-90z" />
    <glyph glyph-name="ograve" unicode="&#xf2;" horiz-adv-x="810" 
d="M376 -12q-104 0 -182 25t-120.5 76t-42.5 128q0 62 18.5 113.5t52.5 89.5q36 41 87 67.5t113 39.5t131 13q105 0 182.5 -25.5t120.5 -76.5t43 -129q0 -54 -14 -99t-40 -80q-35 -48 -88.5 -79.5t-120 -47t-140.5 -15.5zM381 129q48 0 81.5 17t53.5 45.5t25 62.5
q3 15 4 23.5t1 14v9.5q0 28 -12 50t-38 35t-68 13q-48 0 -82 -17t-53 -45.5t-25 -62.5q-2 -14 -3.5 -23t-2 -14.5t-0.5 -9.5q0 -28 12 -50t38.5 -35t68.5 -13zM391 592l-146 128v5h226l87 -133h-167z" />
    <glyph glyph-name="oacute" unicode="&#xf3;" horiz-adv-x="810" 
d="M376 -12q-104 0 -182 25t-120.5 76t-42.5 128q0 62 18.5 113.5t52.5 89.5q36 41 87 67.5t113 39.5t131 13q105 0 182.5 -25.5t120.5 -76.5t43 -129q0 -54 -14 -99t-40 -80q-35 -48 -88.5 -79.5t-120 -47t-140.5 -15.5zM381 129q48 0 81.5 17t53.5 45.5t25 62.5
q3 15 4 23.5t1 14v9.5q0 28 -12 50t-38 35t-68 13q-48 0 -82 -17t-53 -45.5t-25 -62.5q-2 -14 -3.5 -23t-2 -14.5t-0.5 -9.5q0 -28 12 -50t38.5 -35t68.5 -13zM315 592l115 133h241v-5l-177 -128h-179z" />
    <glyph glyph-name="ocircumflex" unicode="&#xf4;" horiz-adv-x="810" 
d="M376 -12q-104 0 -182 25t-120.5 76t-42.5 128q0 62 18.5 113.5t52.5 89.5q36 41 87 67.5t113 39.5t131 13q105 0 182.5 -25.5t120.5 -76.5t43 -129q0 -54 -14 -99t-40 -80q-35 -48 -88.5 -79.5t-120 -47t-140.5 -15.5zM381 129q48 0 81.5 17t53.5 45.5t25 62.5
q3 15 4 23.5t1 14v9.5q0 28 -12 50t-38 35t-68 13q-48 0 -82 -17t-53 -45.5t-25 -62.5q-2 -14 -3.5 -23t-2 -14.5t-0.5 -9.5q0 -28 12 -50t38.5 -35t68.5 -13zM190 580l198 145h160l149 -145h-156l-97 92h35l-124 -92h-165z" />
    <glyph glyph-name="otilde" unicode="&#xf5;" horiz-adv-x="810" 
d="M376 -12q-104 0 -182 25t-120.5 76t-42.5 128q0 62 18.5 113.5t52.5 89.5q36 41 87 67.5t113 39.5t131 13q105 0 182.5 -25.5t120.5 -76.5t43 -129q0 -54 -14 -99t-40 -80q-35 -48 -88.5 -79.5t-120 -47t-140.5 -15.5zM381 129q48 0 81.5 17t53.5 45.5t25 62.5
q3 15 4 23.5t1 14v9.5q0 28 -12 50t-38 35t-68 13q-48 0 -82 -17t-53 -45.5t-25 -62.5q-2 -14 -3.5 -23t-2 -14.5t-0.5 -9.5q0 -28 12 -50t38.5 -35t68.5 -13zM156 576q6 32 29 66.5t63.5 58.5t97.5 24q45 0 82 -10.5t69.5 -21.5t65.5 -11q23 0 41 12t28 31h91
q-6 -32 -28 -66.5t-61.5 -58.5t-100.5 -24q-45 0 -82.5 11t-70 21.5t-64.5 10.5q-23 0 -41 -12.5t-29 -30.5h-90z" />
    <glyph glyph-name="odieresis" unicode="&#xf6;" horiz-adv-x="810" 
d="M376 -12q-104 0 -182 25t-120.5 76t-42.5 128q0 62 18.5 113.5t52.5 89.5q36 41 87 67.5t113 39.5t131 13q105 0 182.5 -25.5t120.5 -76.5t43 -129q0 -54 -14 -99t-40 -80q-35 -48 -88.5 -79.5t-120 -47t-140.5 -15.5zM381 129q48 0 81.5 17t53.5 45.5t25 62.5
q3 15 4 23.5t1 14v9.5q0 28 -12 50t-38 35t-68 13q-48 0 -82 -17t-53 -45.5t-25 -62.5q-2 -14 -3.5 -23t-2 -14.5t-0.5 -9.5q0 -28 12 -50t38.5 -35t68.5 -13zM219 575l27 150h189l-27 -150h-189zM492 575l27 150h192l-27 -150h-192z" />
    <glyph glyph-name="divide" unicode="&#xf7;" horiz-adv-x="750" 
d="M74 212l23 132h584l-23 -132h-584zM262 0l24 131h132l-24 -131h-132zM337 425l24 131h132l-24 -131h-132z" />
    <glyph glyph-name="oslash" unicode="&#xf8;" horiz-adv-x="810" 
d="M376 -12q-104 0 -182 25t-120.5 76t-42.5 128q0 62 18.5 113.5t52.5 89.5q36 41 87 67.5t113 39.5t131 13q105 0 182.5 -25.5t120.5 -76.5t43 -129q0 -54 -14 -99t-40 -80q-35 -48 -88.5 -79.5t-120 -47t-140.5 -15.5zM381 129q48 0 81.5 17t53.5 45.5t25 62.5
q3 15 4 23.5t1 14v9.5q0 28 -12 50t-38 35t-68 13q-48 0 -82 -17t-53 -45.5t-25 -62.5q-2 -14 -3.5 -23t-2 -14.5t-0.5 -9.5q0 -28 12 -50t38.5 -35t68.5 -13zM-17 -38l728 604h116l-728 -604h-116z" />
    <glyph glyph-name="ugrave" unicode="&#xf9;" horiz-adv-x="788" 
d="M262 -12q-73 0 -121 20t-72 59t-24 96q0 14 1.5 29.5t4.5 31.5l54 304h224l-50 -285q-1 -6 -1.5 -12t-0.5 -12q0 -22 8.5 -39t27 -26.5t47.5 -9.5q27 0 51 8.5t43 23.5t31.5 36t16.5 45l48 271h224l-93 -528h-182v86h-9q-30 -35 -68 -56.5t-79 -31.5t-81 -10zM384 592
l-146 128v5h226l87 -133h-167z" />
    <glyph glyph-name="uacute" unicode="&#xfa;" horiz-adv-x="788" 
d="M262 -12q-73 0 -121 20t-72 59t-24 96q0 14 1.5 29.5t4.5 31.5l54 304h224l-50 -285q-1 -6 -1.5 -12t-0.5 -12q0 -22 8.5 -39t27 -26.5t47.5 -9.5q27 0 51 8.5t43 23.5t31.5 36t16.5 45l48 271h224l-93 -528h-182v86h-9q-30 -35 -68 -56.5t-79 -31.5t-81 -10zM308 592
l115 133h241v-5l-177 -128h-179z" />
    <glyph glyph-name="ucircumflex" unicode="&#xfb;" horiz-adv-x="788" 
d="M262 -12q-73 0 -121 20t-72 59t-24 96q0 14 1.5 29.5t4.5 31.5l54 304h224l-50 -285q-1 -6 -1.5 -12t-0.5 -12q0 -22 8.5 -39t27 -26.5t47.5 -9.5q27 0 51 8.5t43 23.5t31.5 36t16.5 45l48 271h224l-93 -528h-182v86h-9q-30 -35 -68 -56.5t-79 -31.5t-81 -10zM183 580
l198 145h160l149 -145h-156l-97 92h35l-124 -92h-165z" />
    <glyph glyph-name="udieresis" unicode="&#xfc;" horiz-adv-x="788" 
d="M262 -12q-73 0 -121 20t-72 59t-24 96q0 14 1.5 29.5t4.5 31.5l54 304h224l-50 -285q-1 -6 -1.5 -12t-0.5 -12q0 -22 8.5 -39t27 -26.5t47.5 -9.5q27 0 51 8.5t43 23.5t31.5 36t16.5 45l48 271h224l-93 -528h-182v86h-9q-30 -35 -68 -56.5t-79 -31.5t-81 -10zM212 575
l27 150h189l-27 -150h-189zM485 575l27 150h192l-27 -150h-192z" />
    <glyph glyph-name="yacute" unicode="&#xfd;" horiz-adv-x="750" 
d="M84 -210q-39 0 -67.5 5.5t-49.5 12.5l20 123h95q37 0 61 9.5t39 25.5t26 34l-161 528h239l47 -233q3 -15 6.5 -37t7.5 -44t6 -39h10q7 13 16 29.5t18 33.5t17.5 32.5t14.5 26.5l127 231h241l-318 -484q-33 -50 -69 -95.5t-81 -81.5t-105 -56.5t-140 -20.5zM289 592
l115 133h241v-5l-177 -128h-179z" />
    <glyph glyph-name="thorn" unicode="&#xfe;" horiz-adv-x="795" 
d="M-21 -197l162 922h224l-45 -255h9q26 26 58.5 41.5t66 22t60.5 6.5q73 0 129.5 -23t89 -71.5t32.5 -123.5q0 -79 -23.5 -140.5t-63.5 -102.5q-31 -32 -70.5 -52.5t-82.5 -29.5t-88 -9q-30 0 -65 6.5t-66 22t-50 41.5h-9l-45 -255h-223zM386 144q44 0 74.5 15t48 40.5
t22.5 55.5q2 13 3 20.5t1.5 12t0.5 7.5q0 25 -11 45t-34.5 32t-62.5 12q-44 0 -74 -16t-47 -42.5t-23 -58.5q-1 -7 -2 -13t-1.5 -10.5t-0.5 -8.5q0 -25 10.5 -46t34 -33t61.5 -12z" />
    <glyph glyph-name="ydieresis" unicode="&#xff;" horiz-adv-x="750" 
d="M84 -210q-39 0 -67.5 5.5t-49.5 12.5l20 123h95q37 0 61 9.5t39 25.5t26 34l-161 528h239l47 -233q3 -15 6.5 -37t7.5 -44t6 -39h10q7 13 16 29.5t18 33.5t17.5 32.5t14.5 26.5l127 231h241l-318 -484q-33 -50 -69 -95.5t-81 -81.5t-105 -56.5t-140 -20.5zM193 575
l27 150h189l-27 -150h-189zM466 575l27 150h192l-27 -150h-192z" />
    <glyph glyph-name="Amacron" unicode="&#x100;" horiz-adv-x="954" 
d="M-38 0l453 688h272l212 -688h-260l-25 91h-337l-56 -91h-259zM382 262h187l-28 116q-2 8 -4.5 21.5t-5 30.5t-5.5 34t-5 31h-7q-9 -17 -21 -39t-23.5 -43t-19.5 -35zM353 746l18 100h397l-18 -100h-397z" />
    <glyph glyph-name="amacron" unicode="&#x101;" horiz-adv-x="808" 
d="M282 -12q-73 0 -129.5 23.5t-89 72t-32.5 123.5q0 52 10 95t28 77q29 56 73 91.5t98 52.5t111 17q31 0 66 -6.5t67 -22t51 -41.5h9l39 58h194l-18 -106q-1 -4 -5.5 -30t-11.5 -63t-13.5 -74.5t-11 -64.5t-4.5 -33q0 -12 6.5 -20t19.5 -8h55l-22 -121q-18 -7 -52 -13.5
t-71 -6.5q-52 0 -82 12.5t-45 33.5q-7 10 -11 21t-6 23h-8q-48 -51 -104.5 -70.5t-110.5 -19.5zM365 144q33 0 58 9.5t42.5 25.5t28 37t14.5 45q1 8 1.5 13t1 9.5t0.5 8.5q0 26 -10.5 47t-33 33t-60.5 12q-43 0 -72.5 -15.5t-46 -40.5t-22.5 -55q-2 -13 -3.5 -20.5
t-1.5 -12.5v-9q0 -37 24.5 -62t79.5 -25zM261 600l17 100h395l-17 -100h-395z" />
    <glyph glyph-name="Abreve" unicode="&#x102;" horiz-adv-x="954" 
d="M-38 0l453 688h272l212 -688h-260l-25 91h-337l-56 -91h-259zM382 262h187l-28 116q-2 8 -4.5 21.5t-5 30.5t-5.5 34t-5 31h-7q-9 -17 -21 -39t-23.5 -43t-19.5 -35zM550 737q-67 0 -112.5 19.5t-69 50.5t-23.5 63v7.5t1 7.5h118q0 -5 2.5 -9.5t6.5 -9.5q9 -9 24 -16
t33 -11t35 -4q31 0 57 8t43 20t21 22h121q-6 -34 -40 -68.5t-90 -57t-127 -22.5z" />
    <glyph glyph-name="abreve" unicode="&#x103;" horiz-adv-x="808" 
d="M282 -12q-73 0 -129.5 23.5t-89 72t-32.5 123.5q0 52 10 95t28 77q29 56 73 91.5t98 52.5t111 17q31 0 66 -6.5t67 -22t51 -41.5h9l39 58h194l-18 -106q-1 -4 -5.5 -30t-11.5 -63t-13.5 -74.5t-11 -64.5t-4.5 -33q0 -12 6.5 -20t19.5 -8h55l-22 -121q-18 -7 -52 -13.5
t-71 -6.5q-52 0 -82 12.5t-45 33.5q-7 10 -11 21t-6 23h-8q-48 -51 -104.5 -70.5t-110.5 -19.5zM365 144q33 0 58 9.5t42.5 25.5t28 37t14.5 45q1 8 1.5 13t1 9.5t0.5 8.5q0 26 -10.5 47t-33 33t-60.5 12q-43 0 -72.5 -15.5t-46 -40.5t-22.5 -55q-2 -13 -3.5 -20.5
t-1.5 -12.5v-9q0 -37 24.5 -62t79.5 -25zM453 577q-69 0 -117 19.5t-72.5 49.5t-24.5 62q0 5 0.5 9t1.5 8h119q1 -14 16.5 -25.5t38.5 -18t46 -6.5q31 0 57 8t43 20t21 22h119q-6 -34 -39 -68.5t-87 -57t-122 -22.5z" />
    <glyph glyph-name="Aogonek" unicode="&#x104;" horiz-adv-x="954" 
d="M-38 0l453 688h272l212 -688h-260l-25 91h-337l-56 -91h-259zM382 262h187l-28 116q-2 8 -4.5 21.5t-5 30.5t-5.5 34t-5 31h-7q-9 -17 -21 -39t-23.5 -43t-19.5 -35zM704 -211q-33 0 -62.5 10t-48 32t-18.5 58q0 29 12.5 51.5t30 40t33.5 31.5h126l-1 -4
q-21 -13 -36 -35.5t-15 -42.5q0 -17 12 -31.5t38 -14.5h82l-15 -80q-30 -7 -68 -11t-70 -4z" />
    <glyph glyph-name="aogonek" unicode="&#x105;" horiz-adv-x="808" 
d="M282 -12q-73 0 -129.5 23.5t-89 72t-32.5 123.5q0 52 10 95t28 77q29 56 73 91.5t98 52.5t111 17q31 0 66 -6.5t67 -22t51 -41.5h9l39 58h194l-18 -106q-1 -4 -5.5 -30t-11.5 -63t-13.5 -74.5t-11 -64.5t-4.5 -33q0 -12 6.5 -20t19.5 -8h55l-22 -121q-18 -7 -52 -13.5
t-71 -6.5q-52 0 -82 12.5t-45 33.5q-7 10 -11 21t-6 23h-8q-48 -51 -104.5 -70.5t-110.5 -19.5zM365 144q33 0 58 9.5t42.5 25.5t28 37t14.5 45q1 8 1.5 13t1 9.5t0.5 8.5q0 26 -10.5 47t-33 33t-60.5 12q-43 0 -72.5 -15.5t-46 -40.5t-22.5 -55q-2 -13 -3.5 -20.5
t-1.5 -12.5v-9q0 -37 24.5 -62t79.5 -25zM605 -211q-33 0 -62.5 10t-48 32t-18.5 58q0 29 12.5 51.5t30 40t33.5 31.5h126l-1 -4q-21 -13 -36 -35.5t-15 -42.5q0 -17 12 -31.5t38 -14.5h82l-15 -80q-30 -7 -68 -11t-70 -4z" />
    <glyph glyph-name="Cacute" unicode="&#x106;" horiz-adv-x="939" 
d="M459 -12q-205 0 -306 71t-101 208q0 91 26.5 165t75.5 128q43 46 101 77t131.5 47t159.5 16q115 0 199.5 -31t131 -87t46.5 -131q0 -11 -1 -22.5t-3 -23.5h-240q1 5 1.5 10t0.5 9q0 31 -18 54.5t-51.5 37t-79.5 13.5q-49 0 -86.5 -13.5t-64 -37.5t-42.5 -55t-23 -66
q-3 -14 -4.5 -23.5t-2 -16.5t-1 -11.5t-0.5 -9.5q0 -38 16 -69.5t50 -49.5t88 -18q57 0 100 15t69.5 42t32.5 63h233q-14 -84 -71.5 -150t-151 -103.5t-215.5 -37.5zM432 752l115 133h242l2 -4l-200 -129h-159z" />
    <glyph glyph-name="cacute" unicode="&#x107;" horiz-adv-x="809" 
d="M371 -12q-102 0 -178.5 25t-119 76t-42.5 128q0 56 15.5 103t43.5 84q27 35 63.5 60.5t81.5 42t96.5 25t106.5 8.5q95 0 171.5 -21.5t121.5 -64t45 -106.5q0 -8 -0.5 -16.5t-2.5 -17.5h-227q1 3 1 5.5v5.5q0 21 -14.5 38t-41 26.5t-63.5 9.5q-48 0 -82 -17t-53 -45.5
t-25 -62.5q-2 -14 -3.5 -23t-2 -14t-0.5 -10q0 -27 13 -49.5t41 -35.5t74 -13q40 0 72 12.5t52 32.5t24 41h218q-13 -78 -68.5 -128t-138 -74.5t-178.5 -24.5zM324 592l115 133h241v-5l-177 -128h-179z" />
    <glyph glyph-name="Ccircumflex" unicode="&#x108;" horiz-adv-x="939" 
d="M459 -12q-205 0 -306 71t-101 208q0 91 26.5 165t75.5 128q43 46 101 77t131.5 47t159.5 16q115 0 199.5 -31t131 -87t46.5 -131q0 -11 -1 -22.5t-3 -23.5h-240q1 5 1.5 10t0.5 9q0 31 -18 54.5t-51.5 37t-79.5 13.5q-49 0 -86.5 -13.5t-64 -37.5t-42.5 -55t-23 -66
q-3 -14 -4.5 -23.5t-2 -16.5t-1 -11.5t-0.5 -9.5q0 -38 16 -69.5t50 -49.5t88 -18q57 0 100 15t69.5 42t32.5 63h233q-14 -84 -71.5 -150t-151 -103.5t-215.5 -37.5zM287 740l200 145h160l148 -145h-151l-110 106h70l-146 -106h-171z" />
    <glyph glyph-name="ccircumflex" unicode="&#x109;" horiz-adv-x="809" 
d="M371 -12q-102 0 -178.5 25t-119 76t-42.5 128q0 56 15.5 103t43.5 84q27 35 63.5 60.5t81.5 42t96.5 25t106.5 8.5q95 0 171.5 -21.5t121.5 -64t45 -106.5q0 -8 -0.5 -16.5t-2.5 -17.5h-227q1 3 1 5.5v5.5q0 21 -14.5 38t-41 26.5t-63.5 9.5q-48 0 -82 -17t-53 -45.5
t-25 -62.5q-2 -14 -3.5 -23t-2 -14t-0.5 -10q0 -27 13 -49.5t41 -35.5t74 -13q40 0 72 12.5t52 32.5t24 41h218q-13 -78 -68.5 -128t-138 -74.5t-178.5 -24.5zM199 580l198 145h160l149 -145h-156l-97 92h35l-124 -92h-165z" />
    <glyph glyph-name="Cdotaccent" unicode="&#x10a;" horiz-adv-x="939" 
d="M459 -12q-205 0 -306 71t-101 208q0 91 26.5 165t75.5 128q43 46 101 77t131.5 47t159.5 16q115 0 199.5 -31t131 -87t46.5 -131q0 -11 -1 -22.5t-3 -23.5h-240q1 5 1.5 10t0.5 9q0 31 -18 54.5t-51.5 37t-79.5 13.5q-49 0 -86.5 -13.5t-64 -37.5t-42.5 -55t-23 -66
q-3 -14 -4.5 -23.5t-2 -16.5t-1 -11.5t-0.5 -9.5q0 -38 16 -69.5t50 -49.5t88 -18q57 0 100 15t69.5 42t32.5 63h233q-14 -84 -71.5 -150t-151 -103.5t-215.5 -37.5zM455 735l26 150h192l-26 -150h-192z" />
    <glyph glyph-name="cdotaccent" unicode="&#x10b;" horiz-adv-x="809" 
d="M371 -12q-102 0 -178.5 25t-119 76t-42.5 128q0 56 15.5 103t43.5 84q27 35 63.5 60.5t81.5 42t96.5 25t106.5 8.5q95 0 171.5 -21.5t121.5 -64t45 -106.5q0 -8 -0.5 -16.5t-2.5 -17.5h-227q1 3 1 5.5v5.5q0 21 -14.5 38t-41 26.5t-63.5 9.5q-48 0 -82 -17t-53 -45.5
t-25 -62.5q-2 -14 -3.5 -23t-2 -14t-0.5 -10q0 -27 13 -49.5t41 -35.5t74 -13q40 0 72 12.5t52 32.5t24 41h218q-13 -78 -68.5 -128t-138 -74.5t-178.5 -24.5zM363 575l26 145h191l-26 -145h-191z" />
    <glyph glyph-name="Ccaron" unicode="&#x10c;" horiz-adv-x="939" 
d="M459 -12q-205 0 -306 71t-101 208q0 91 26.5 165t75.5 128q43 46 101 77t131.5 47t159.5 16q115 0 199.5 -31t131 -87t46.5 -131q0 -11 -1 -22.5t-3 -23.5h-240q1 5 1.5 10t0.5 9q0 31 -18 54.5t-51.5 37t-79.5 13.5q-49 0 -86.5 -13.5t-64 -37.5t-42.5 -55t-23 -66
q-3 -14 -4.5 -23.5t-2 -16.5t-1 -11.5t-0.5 -9.5q0 -38 16 -69.5t50 -49.5t88 -18q57 0 100 15t69.5 42t32.5 63h233q-14 -84 -71.5 -150t-151 -103.5t-215.5 -37.5zM823 897l-200 -145h-160l-148 145h151l110 -106h-70l146 106h171z" />
    <glyph glyph-name="ccaron" unicode="&#x10d;" horiz-adv-x="809" 
d="M371 -12q-102 0 -178.5 25t-119 76t-42.5 128q0 56 15.5 103t43.5 84q27 35 63.5 60.5t81.5 42t96.5 25t106.5 8.5q95 0 171.5 -21.5t121.5 -64t45 -106.5q0 -8 -0.5 -16.5t-2.5 -17.5h-227q1 3 1 5.5v5.5q0 21 -14.5 38t-41 26.5t-63.5 9.5q-48 0 -82 -17t-53 -45.5
t-25 -62.5q-2 -14 -3.5 -23t-2 -14t-0.5 -10q0 -27 13 -49.5t41 -35.5t74 -13q40 0 72 12.5t52 32.5t24 41h218q-13 -78 -68.5 -128t-138 -74.5t-178.5 -24.5zM736 725l-198 -145h-160l-149 145h156l97 -92h-35l124 92h165z" />
    <glyph glyph-name="Dcaron" unicode="&#x10e;" horiz-adv-x="933" 
d="M28 0l121 688h380q180 0 280 -73t100 -208q0 -76 -21.5 -140t-60.5 -113q-40 -51 -98 -85t-129 -51.5t-152 -17.5h-420zM305 171h138q40 0 74.5 12t61.5 33.5t44.5 51t23.5 65.5q3 18 4.5 28t2 16.5t0.5 11.5q0 39 -17.5 67.5t-51 44.5t-81.5 16h-138zM826 897l-200 -145
h-160l-148 145h151l110 -106h-70l146 106h171z" />
    <glyph glyph-name="dcaron" unicode="&#x10f;" horiz-adv-x="795" 
d="M282 -12q-73 0 -129.5 23.5t-89 72t-32.5 123.5t21.5 134t57.5 99q23 26 51.5 45t60 31t65 18t67.5 6q31 0 66.5 -6.5t67.5 -22t51 -41.5h9l44 255h224l-127 -725h-185v82h-9q-48 -53 -102.5 -73.5t-110.5 -20.5zM368 144q44 0 74 16t47.5 43t22.5 58q1 8 1.5 13t1 9.5
t0.5 8.5q0 26 -10.5 47t-33.5 33t-61 12q-44 0 -74 -15.5t-47 -40.5t-23 -55q-2 -13 -3.5 -20.5t-1.5 -12.5v-9q0 -37 25 -62t82 -25zM835 555l30 170h169l-74 -170h-125z" />
    <glyph glyph-name="Dcroat" unicode="&#x110;" horiz-adv-x="933" 
d="M2 273l24 141h474l-24 -141h-474zM28 0l121 688h380q180 0 280 -73t100 -208q0 -76 -21.5 -140t-60.5 -113q-40 -51 -98 -85t-129 -51.5t-152 -17.5h-420zM305 171h138q40 0 74.5 12t61.5 33.5t44.5 51t23.5 65.5q3 18 4.5 28t2 16.5t0.5 11.5q0 39 -17.5 67.5t-51 44.5
t-81.5 16h-138z" />
    <glyph glyph-name="dcroat" unicode="&#x111;" horiz-adv-x="795" 
d="M282 -12q-73 0 -129.5 23.5t-89 72t-32.5 123.5t21.5 134t57.5 99q23 26 51.5 45t60 31t65 18t67.5 6q31 0 66.5 -6.5t67.5 -22t51 -41.5h9l44 255h224l-127 -725h-185v82h-9q-48 -53 -102.5 -73.5t-110.5 -20.5zM368 144q44 0 74 16t47.5 43t22.5 58q1 8 1.5 13t1 9.5
t0.5 8.5q0 26 -10.5 47t-33.5 33t-61 12q-44 0 -74 -15.5t-47 -40.5t-23 -55q-2 -13 -3.5 -20.5t-1.5 -12.5v-9q0 -37 25 -62t82 -25zM303 563l22 113h544l-22 -113h-544z" />
    <glyph glyph-name="Emacron" unicode="&#x112;" horiz-adv-x="860" 
d="M28 0l121 688h735l-30 -171h-487l-16 -89h420l-28 -162h-420l-17 -95h495l-30 -171h-743zM320 746l18 100h397l-18 -100h-397z" />
    <glyph glyph-name="emacron" unicode="&#x113;" horiz-adv-x="811" 
d="M382 -12q-106 0 -185 24t-122.5 74.5t-43.5 128.5q0 65 20 117t56 91q37 40 88 65.5t113 38.5t131 13q107 0 183.5 -23.5t117.5 -71.5t41 -124q0 -13 -2 -34t-10 -61h-505q-1 -5 -1 -9.5v-9.5q0 -31 14.5 -51.5t43 -30.5t70.5 -10q30 0 54.5 6t42 16.5t28 23.5t13.5 27
h232q-8 -50 -41.5 -87.5t-85.5 -62.5t-116.5 -37.5t-135.5 -12.5zM283 328h264q1 3 1 6v6q0 20 -12.5 36.5t-36 26.5t-57.5 10q-44 0 -76.5 -11.5t-53 -31t-29.5 -42.5zM263 600l17 100h395l-17 -100h-395z" />
    <glyph glyph-name="Ebreve" unicode="&#x114;" horiz-adv-x="860" 
d="M28 0l121 688h735l-30 -171h-487l-16 -89h420l-28 -162h-420l-17 -95h495l-30 -171h-743zM517 737q-67 0 -112.5 19.5t-69 50.5t-23.5 63v7.5t1 7.5h118q0 -5 2.5 -9.5t6.5 -9.5q9 -9 24 -16t33 -11t35 -4q31 0 57 8t43 20t21 22h121q-6 -34 -40 -68.5t-90 -57
t-127 -22.5z" />
    <glyph glyph-name="ebreve" unicode="&#x115;" horiz-adv-x="811" 
d="M382 -12q-106 0 -185 24t-122.5 74.5t-43.5 128.5q0 65 20 117t56 91q37 40 88 65.5t113 38.5t131 13q107 0 183.5 -23.5t117.5 -71.5t41 -124q0 -13 -2 -34t-10 -61h-505q-1 -5 -1 -9.5v-9.5q0 -31 14.5 -51.5t43 -30.5t70.5 -10q30 0 54.5 6t42 16.5t28 23.5t13.5 27
h232q-8 -50 -41.5 -87.5t-85.5 -62.5t-116.5 -37.5t-135.5 -12.5zM283 328h264q1 3 1 6v6q0 20 -12.5 36.5t-36 26.5t-57.5 10q-44 0 -76.5 -11.5t-53 -31t-29.5 -42.5zM455 577q-69 0 -117 19.5t-72.5 49.5t-24.5 62q0 5 0.5 9t1.5 8h119q1 -14 16.5 -25.5t38.5 -18
t46 -6.5q31 0 57 8t43 20t21 22h119q-6 -34 -39 -68.5t-87 -57t-122 -22.5z" />
    <glyph glyph-name="Edotaccent" unicode="&#x116;" horiz-adv-x="860" 
d="M28 0l121 688h735l-30 -171h-487l-16 -89h420l-28 -162h-420l-17 -95h495l-30 -171h-743zM421 735l26 150h192l-26 -150h-192z" />
    <glyph glyph-name="edotaccent" unicode="&#x117;" horiz-adv-x="811" 
d="M382 -12q-106 0 -185 24t-122.5 74.5t-43.5 128.5q0 65 20 117t56 91q37 40 88 65.5t113 38.5t131 13q107 0 183.5 -23.5t117.5 -71.5t41 -124q0 -13 -2 -34t-10 -61h-505q-1 -5 -1 -9.5v-9.5q0 -31 14.5 -51.5t43 -30.5t70.5 -10q30 0 54.5 6t42 16.5t28 23.5t13.5 27
h232q-8 -50 -41.5 -87.5t-85.5 -62.5t-116.5 -37.5t-135.5 -12.5zM283 328h264q1 3 1 6v6q0 20 -12.5 36.5t-36 26.5t-57.5 10q-44 0 -76.5 -11.5t-53 -31t-29.5 -42.5zM359 575l26 145h191l-26 -145h-191z" />
    <glyph glyph-name="Eogonek" unicode="&#x118;" horiz-adv-x="860" 
d="M28 0l121 688h735l-30 -171h-487l-16 -89h420l-28 -162h-420l-17 -95h495l-30 -171h-743zM598 -211q-33 0 -62.5 10t-48 32t-18.5 58q0 29 12.5 51.5t30 40t33.5 31.5h126l-1 -4q-21 -13 -36 -35.5t-15 -42.5q0 -17 12 -31.5t38 -14.5h82l-15 -80q-30 -7 -68 -11t-70 -4z
" />
    <glyph glyph-name="eogonek" unicode="&#x119;" horiz-adv-x="811" 
d="M382 -12q-106 0 -185 24t-122.5 74.5t-43.5 128.5q0 65 20 117t56 91q37 40 88 65.5t113 38.5t131 13q107 0 183.5 -23.5t117.5 -71.5t41 -124q0 -13 -2 -34t-10 -61h-505q-1 -5 -1 -9.5v-9.5q0 -31 14.5 -51.5t43 -30.5t70.5 -10q30 0 54.5 6t42 16.5t28 23.5t13.5 27
h232q-8 -50 -41.5 -87.5t-85.5 -62.5t-116.5 -37.5t-135.5 -12.5zM283 328h264q1 3 1 6v6q0 20 -12.5 36.5t-36 26.5t-57.5 10q-44 0 -76.5 -11.5t-53 -31t-29.5 -42.5zM478 -211q-33 0 -62.5 10t-48 32t-18.5 58q0 29 12.5 51.5t30 40t33.5 31.5h126l-1 -4
q-21 -13 -36 -35.5t-15 -42.5q0 -17 12 -31.5t38 -14.5h82l-15 -80q-30 -7 -68 -11t-70 -4z" />
    <glyph glyph-name="Ecaron" unicode="&#x11a;" horiz-adv-x="860" 
d="M28 0l121 688h735l-30 -171h-487l-16 -89h420l-28 -162h-420l-17 -95h495l-30 -171h-743zM789 897l-200 -145h-160l-148 145h151l110 -106h-70l146 106h171z" />
    <glyph glyph-name="ecaron" unicode="&#x11b;" horiz-adv-x="811" 
d="M382 -12q-106 0 -185 24t-122.5 74.5t-43.5 128.5q0 65 20 117t56 91q37 40 88 65.5t113 38.5t131 13q107 0 183.5 -23.5t117.5 -71.5t41 -124q0 -13 -2 -34t-10 -61h-505q-1 -5 -1 -9.5v-9.5q0 -31 14.5 -51.5t43 -30.5t70.5 -10q30 0 54.5 6t42 16.5t28 23.5t13.5 27
h232q-8 -50 -41.5 -87.5t-85.5 -62.5t-116.5 -37.5t-135.5 -12.5zM283 328h264q1 3 1 6v6q0 20 -12.5 36.5t-36 26.5t-57.5 10q-44 0 -76.5 -11.5t-53 -31t-29.5 -42.5zM732 725l-198 -145h-160l-149 145h156l97 -92h-35l124 92h165z" />
    <glyph glyph-name="Gcircumflex" unicode="&#x11c;" horiz-adv-x="1012" 
d="M436 -12q-192 0 -288.5 68t-96.5 206q0 89 25 161.5t71 125.5q45 51 108 84.5t143 50t173 16.5q86 0 159.5 -14t129.5 -42t87 -69.5t31 -97.5q0 -9 -1 -18.5t-3 -19.5h-240q0 2 0.5 5t0.5 5q0 19 -12.5 34t-35 25t-52 15.5t-63.5 5.5q-57 0 -101 -12t-76 -34t-51.5 -54
t-28.5 -73l-5 -25t-2.5 -17.5t-1 -13.5t-0.5 -11q0 -45 20.5 -73.5t62 -42.5t103.5 -14q51 0 96.5 9t75.5 27.5t34 44.5l1 4h-209l25 140h451l-68 -384h-140l-9 76q-42 -29 -90.5 -49t-103.5 -29.5t-119 -9.5zM331 740l200 145h160l148 -145h-151l-110 106h70l-146 -106
h-171z" />
    <glyph glyph-name="gcircumflex" unicode="&#x11d;" horiz-adv-x="798" 
d="M318 -209q-117 0 -184.5 19t-96.5 51t-29 71q0 7 1 22t7 30h220q-1 -3 -1 -5.5v-4.5q0 -8 8.5 -17.5t29.5 -15.5t57 -6q53 0 84 16t46 39t19 44q3 15 5.5 29.5t5.5 29.5h-9q-27 -27 -64 -43.5t-74 -23.5t-66 -7q-70 0 -125 22.5t-86.5 69t-31.5 117.5q0 52 11.5 95.5
t31.5 77.5q44 72 119 105.5t157 33.5q62 0 117.5 -20.5t89.5 -73.5h9l31 82h182l-86 -490q-14 -82 -66 -137t-132 -82.5t-180 -27.5zM373 175q33 0 58 8t42.5 22.5t28 32.5t13.5 39q1 7 1.5 11.5t1 8t0.5 6.5q0 23 -11 41.5t-34.5 29t-62.5 10.5q-44 0 -73.5 -12.5t-46 -34
t-22.5 -48.5q-2 -12 -3.5 -17.5t-1.5 -9v-8.5q0 -22 11 -40t35.5 -28.5t63.5 -10.5zM180 580l198 145h160l149 -145h-156l-97 92h35l-124 -92h-165z" />
    <glyph glyph-name="Gbreve" unicode="&#x11e;" horiz-adv-x="1012" 
d="M436 -12q-192 0 -288.5 68t-96.5 206q0 89 25 161.5t71 125.5q45 51 108 84.5t143 50t173 16.5q86 0 159.5 -14t129.5 -42t87 -69.5t31 -97.5q0 -9 -1 -18.5t-3 -19.5h-240q0 2 0.5 5t0.5 5q0 19 -12.5 34t-35 25t-52 15.5t-63.5 5.5q-57 0 -101 -12t-76 -34t-51.5 -54
t-28.5 -73l-5 -25t-2.5 -17.5t-1 -13.5t-0.5 -11q0 -45 20.5 -73.5t62 -42.5t103.5 -14q51 0 96.5 9t75.5 27.5t34 44.5l1 4h-209l25 140h451l-68 -384h-140l-9 76q-42 -29 -90.5 -49t-103.5 -29.5t-119 -9.5zM595 737q-67 0 -112.5 19.5t-69 50.5t-23.5 63v7.5t1 7.5h118
q0 -5 2.5 -9.5t6.5 -9.5q9 -9 24 -16t33 -11t35 -4q31 0 57 8t43 20t21 22h121q-6 -34 -40 -68.5t-90 -57t-127 -22.5z" />
    <glyph glyph-name="gbreve" unicode="&#x11f;" horiz-adv-x="798" 
d="M318 -209q-117 0 -184.5 19t-96.5 51t-29 71q0 7 1 22t7 30h220q-1 -3 -1 -5.5v-4.5q0 -8 8.5 -17.5t29.5 -15.5t57 -6q53 0 84 16t46 39t19 44q3 15 5.5 29.5t5.5 29.5h-9q-27 -27 -64 -43.5t-74 -23.5t-66 -7q-70 0 -125 22.5t-86.5 69t-31.5 117.5q0 52 11.5 95.5
t31.5 77.5q44 72 119 105.5t157 33.5q62 0 117.5 -20.5t89.5 -73.5h9l31 82h182l-86 -490q-14 -82 -66 -137t-132 -82.5t-180 -27.5zM373 175q33 0 58 8t42.5 22.5t28 32.5t13.5 39q1 7 1.5 11.5t1 8t0.5 6.5q0 23 -11 41.5t-34.5 29t-62.5 10.5q-44 0 -73.5 -12.5t-46 -34
t-22.5 -48.5q-2 -12 -3.5 -17.5t-1.5 -9v-8.5q0 -22 11 -40t35.5 -28.5t63.5 -10.5zM440 577q-69 0 -117 19.5t-72.5 49.5t-24.5 62q0 5 0.5 9t1.5 8h119q1 -14 16.5 -25.5t38.5 -18t46 -6.5q31 0 57 8t43 20t21 22h119q-6 -34 -39 -68.5t-87 -57t-122 -22.5z" />
    <glyph glyph-name="Gdotaccent" unicode="&#x120;" horiz-adv-x="1012" 
d="M436 -12q-192 0 -288.5 68t-96.5 206q0 89 25 161.5t71 125.5q45 51 108 84.5t143 50t173 16.5q86 0 159.5 -14t129.5 -42t87 -69.5t31 -97.5q0 -9 -1 -18.5t-3 -19.5h-240q0 2 0.5 5t0.5 5q0 19 -12.5 34t-35 25t-52 15.5t-63.5 5.5q-57 0 -101 -12t-76 -34t-51.5 -54
t-28.5 -73l-5 -25t-2.5 -17.5t-1 -13.5t-0.5 -11q0 -45 20.5 -73.5t62 -42.5t103.5 -14q51 0 96.5 9t75.5 27.5t34 44.5l1 4h-209l25 140h451l-68 -384h-140l-9 76q-42 -29 -90.5 -49t-103.5 -29.5t-119 -9.5zM499 735l26 150h192l-26 -150h-192z" />
    <glyph glyph-name="gdotaccent" unicode="&#x121;" horiz-adv-x="798" 
d="M318 -209q-117 0 -184.5 19t-96.5 51t-29 71q0 7 1 22t7 30h220q-1 -3 -1 -5.5v-4.5q0 -8 8.5 -17.5t29.5 -15.5t57 -6q53 0 84 16t46 39t19 44q3 15 5.5 29.5t5.5 29.5h-9q-27 -27 -64 -43.5t-74 -23.5t-66 -7q-70 0 -125 22.5t-86.5 69t-31.5 117.5q0 52 11.5 95.5
t31.5 77.5q44 72 119 105.5t157 33.5q62 0 117.5 -20.5t89.5 -73.5h9l31 82h182l-86 -490q-14 -82 -66 -137t-132 -82.5t-180 -27.5zM373 175q33 0 58 8t42.5 22.5t28 32.5t13.5 39q1 7 1.5 11.5t1 8t0.5 6.5q0 23 -11 41.5t-34.5 29t-62.5 10.5q-44 0 -73.5 -12.5t-46 -34
t-22.5 -48.5q-2 -12 -3.5 -17.5t-1.5 -9v-8.5q0 -22 11 -40t35.5 -28.5t63.5 -10.5zM344 575l26 145h191l-26 -145h-191z" />
    <glyph glyph-name="uni0122" unicode="&#x122;" horiz-adv-x="1012" 
d="M436 -12q-192 0 -288.5 68t-96.5 206q0 89 25 161.5t71 125.5q45 51 108 84.5t143 50t173 16.5q86 0 159.5 -14t129.5 -42t87 -69.5t31 -97.5q0 -9 -1 -18.5t-3 -19.5h-240q0 2 0.5 5t0.5 5q0 19 -12.5 34t-35 25t-52 15.5t-63.5 5.5q-57 0 -101 -12t-76 -34t-51.5 -54
t-28.5 -73l-5 -25t-2.5 -17.5t-1 -13.5t-0.5 -11q0 -45 20.5 -73.5t62 -42.5t103.5 -14q51 0 96.5 9t75.5 27.5t34 44.5l1 4h-209l25 140h451l-68 -384h-140l-9 76q-42 -29 -90.5 -49t-103.5 -29.5t-119 -9.5zM263 -440l16 93q57 4 94.5 31t44.5 69h-121l34 192h247
l-30 -169q-11 -65 -47.5 -111.5t-96 -72.5t-141.5 -32z" />
    <glyph glyph-name="uni0123" unicode="&#x123;" horiz-adv-x="798" 
d="M318 -209q-117 0 -184.5 19t-96.5 51t-29 71q0 7 1 22t7 30h220q-1 -3 -1 -5.5v-4.5q0 -8 8.5 -17.5t29.5 -15.5t57 -6q53 0 84 16t46 39t19 44q3 15 5.5 29.5t5.5 29.5h-9q-27 -27 -64 -43.5t-74 -23.5t-66 -7q-70 0 -125 22.5t-86.5 69t-31.5 117.5q0 52 11.5 95.5
t31.5 77.5q44 72 119 105.5t157 33.5q62 0 117.5 -20.5t89.5 -73.5h9l31 82h182l-86 -490q-14 -82 -66 -137t-132 -82.5t-180 -27.5zM373 175q33 0 58 8t42.5 22.5t28 32.5t13.5 39q1 7 1.5 11.5t1 8t0.5 6.5q0 23 -11 41.5t-34.5 29t-62.5 10.5q-44 0 -73.5 -12.5t-46 -34
t-22.5 -48.5q-2 -12 -3.5 -17.5t-1.5 -9v-8.5q0 -22 11 -40t35.5 -28.5t63.5 -10.5zM594 886l-13 -74q-46 -3 -75.5 -25t-35.5 -55h96l-27 -154h-197l24 135q9 52 38 89t76.5 58.5t113.5 25.5z" />
    <glyph glyph-name="Hcircumflex" unicode="&#x124;" horiz-adv-x="1009" 
d="M28 0l121 688h247l-43 -244h367l43 244h247l-121 -688h-247l45 255h-367l-45 -255h-247zM328 740l200 145h160l148 -145h-151l-110 106h70l-146 -106h-171z" />
    <glyph glyph-name="hcircumflex" unicode="&#x125;" horiz-adv-x="788" 
d="M15 0l126 725h224l-45 -258h8q29 26 62 42t68 23.5t69 7.5q72 0 120 -19.5t72.5 -58.5t24.5 -96q0 -14 -1.5 -29.5t-4.5 -32.5l-54 -304h-224l50 285q1 6 1.5 12t0.5 11q0 23 -9 40t-27.5 26.5t-47.5 9.5q-27 0 -51 -8.5t-43 -23.5t-31.5 -36t-16.5 -45l-47 -271h-224z
M-7 740l200 145h160l148 -145h-151l-110 106h70l-146 -106h-171z" />
    <glyph glyph-name="Hbar" unicode="&#x126;" horiz-adv-x="1009" 
d="M28 0l121 688h247l-43 -244h367l43 244h247l-121 -688h-247l45 255h-367l-45 -255h-247zM30 507l22 125h1039l-22 -125h-1039z" />
    <glyph glyph-name="hbar" unicode="&#x127;" horiz-adv-x="788" 
d="M15 0l126 725h224l-45 -258h8q29 26 62 42t68 23.5t69 7.5q72 0 120 -19.5t72.5 -58.5t24.5 -96q0 -14 -1.5 -29.5t-4.5 -32.5l-54 -304h-224l50 285q1 6 1.5 12t0.5 11q0 23 -9 40t-27.5 26.5t-47.5 9.5q-27 0 -51 -8.5t-43 -23.5t-31.5 -36t-16.5 -45l-47 -271h-224z
M52 563l22 113h544l-22 -113h-544z" />
    <glyph glyph-name="Itilde" unicode="&#x128;" horiz-adv-x="395" 
d="M28 0l121 688h247l-121 -688h-247zM11 736q6 32 28.5 66.5t61 58.5t90.5 24q45 0 84.5 -10.5t75 -21.5t68.5 -11q23 0 41 12t27 31h91q-5 -32 -27.5 -66.5t-60.5 -58.5t-91 -24q-45 0 -85 11t-75.5 21.5t-67.5 10.5q-23 0 -40.5 -12.5t-28.5 -30.5h-91z" />
    <glyph glyph-name="itilde" unicode="&#x129;" horiz-adv-x="344" 
d="M15 0l92 528h224l-93 -528h-223zM-67 576q6 32 29 66.5t63.5 58.5t97.5 24q45 0 81.5 -10.5t69.5 -21.5t66 -11q23 0 41 12t28 31h91q-6 -32 -28 -66.5t-61.5 -58.5t-100.5 -24q-45 0 -82.5 11t-70 21.5t-64.5 10.5q-23 0 -41 -12.5t-29 -30.5h-90z" />
    <glyph glyph-name="Imacron" unicode="&#x12a;" horiz-adv-x="395" 
d="M28 0l121 688h247l-121 -688h-247zM85 746l18 100h397l-18 -100h-397z" />
    <glyph glyph-name="imacron" unicode="&#x12b;" horiz-adv-x="344" 
d="M15 0l92 528h224l-93 -528h-223zM35 600l17 100h395l-17 -100h-395z" />
    <glyph glyph-name="Ibreve" unicode="&#x12c;" horiz-adv-x="395" 
d="M28 0l121 688h247l-121 -688h-247zM282 737q-67 0 -112.5 19.5t-69 50.5t-23.5 63v7.5t1 7.5h118q0 -5 2.5 -9.5t6.5 -9.5q9 -9 24 -16t33 -11t35 -4q31 0 57 8t43 20t21 22h121q-6 -34 -40 -68.5t-90 -57t-127 -22.5z" />
    <glyph glyph-name="ibreve" unicode="&#x12d;" horiz-adv-x="344" 
d="M15 0l92 528h224l-93 -528h-223zM227 577q-69 0 -117 19.5t-72.5 49.5t-24.5 62q0 5 0.5 9t1.5 8h119q1 -14 16.5 -25.5t38.5 -18t46 -6.5q31 0 57 8t43 20t21 22h119q-6 -34 -39 -68.5t-87 -57t-122 -22.5z" />
    <glyph glyph-name="Iogonek" unicode="&#x12e;" horiz-adv-x="395" 
d="M28 0l121 688h247l-121 -688h-247zM94 -211q-33 0 -62.5 10t-48 32t-18.5 58q0 29 12.5 51.5t30 40t33.5 31.5h126l-1 -4q-21 -13 -36 -35.5t-15 -42.5q0 -17 12 -31.5t38 -14.5h82l-15 -80q-30 -7 -68 -11t-70 -4z" />
    <glyph glyph-name="iogonek" unicode="&#x12f;" horiz-adv-x="344" 
d="M15 0l92 528h224l-93 -528h-223zM131 575l26 145h191l-26 -145h-191zM71 -211q-33 0 -62.5 10t-48 32t-18.5 58q0 29 12.5 51.5t30 40t33.5 31.5h126l-1 -4q-21 -13 -36 -35.5t-15 -42.5q0 -17 12 -31.5t38 -14.5h82l-15 -80q-30 -7 -68 -11t-70 -4z" />
    <glyph glyph-name="Idotaccent" unicode="&#x130;" horiz-adv-x="395" 
d="M28 0l121 688h247l-121 -688h-247zM186 735l26 150h192l-26 -150h-192z" />
    <glyph glyph-name="dotlessi" unicode="&#x131;" horiz-adv-x="344" 
d="M15 0l92 528h224l-93 -528h-223z" />
    <glyph glyph-name="IJ" unicode="&#x132;" horiz-adv-x="1159" 
d="M28 0l121 688h247l-121 -688h-247zM725 -12q-153 0 -234.5 48.5t-81.5 155.5q0 14 2 30.5t7 44.5h233q-4 -22 -5 -30.5t-1 -14.5q0 -34 21 -48.5t60 -14.5q53 0 82 24.5t39 82.5l74 422h248l-75 -423q-18 -102 -66.5 -163t-124.5 -87.5t-178 -26.5z" />
    <glyph glyph-name="ij" unicode="&#x133;" horiz-adv-x="686" 
d="M116 590l24 135h224l-24 -135h-224zM15 0l92 528h224l-93 -528h-223zM461 590l24 135h224l-24 -135h-224zM337 -210q-22 0 -49 2t-53 6.5t-46 9.5l22 123h59q38 0 60.5 20t27.5 51l93 526h224l-93 -529q-12 -69 -40.5 -115.5t-78 -70t-126.5 -23.5z" />
    <glyph glyph-name="Jcircumflex" unicode="&#x134;" horiz-adv-x="764" 
d="M330 -12q-153 0 -234.5 48.5t-81.5 155.5q0 14 2 30.5t7 44.5h233q-4 -22 -5 -30.5t-1 -14.5q0 -34 21 -48.5t60 -14.5q53 0 82 24.5t39 82.5l74 422h248l-75 -423q-18 -102 -66.5 -163t-124.5 -87.5t-178 -26.5zM386 740l200 145h160l148 -145h-151l-110 106h70
l-146 -106h-171z" />
    <glyph glyph-name="jcircumflex" unicode="&#x135;" horiz-adv-x="342" 
d="M-7 -210q-22 0 -49 2t-53 6.5t-46 9.5l22 123h59q38 0 60.5 20t27.5 51l93 526h224l-93 -529q-12 -69 -40.5 -115.5t-78 -70t-126.5 -23.5zM-32 580l198 145h160l149 -145h-156l-97 92h35l-124 -92h-165z" />
    <glyph glyph-name="uni0136" unicode="&#x136;" horiz-adv-x="988" 
d="M28 0l121 688h247l-53 -299l380 299h312l-355 -287l242 -401h-283l-155 262l-186 -132l-23 -130h-247zM249 -440l16 93q57 4 94.5 31t44.5 69h-121l34 192h247l-30 -169q-11 -65 -47.5 -111.5t-96 -72.5t-141.5 -32z" />
    <glyph glyph-name="uni0137" unicode="&#x137;" horiz-adv-x="773" 
d="M15 0l126 725h224l-69 -392l244 195h273l-257 -212l169 -316h-251l-100 204l-113 -70l-23 -134h-223zM179 -352l13 74q45 3 75 25t36 55h-97l27 154h198l-24 -135q-9 -52 -38.5 -89t-77 -58.5t-112.5 -25.5z" />
    <glyph glyph-name="kgreenlandic" unicode="&#x138;" horiz-adv-x="773" 
d="M16 0l92 528h224l-35 -195l244 195h273l-257 -212l168 -316h-251l-99 204l-113 -70l-23 -134h-223z" />
    <glyph glyph-name="Lacute" unicode="&#x139;" horiz-adv-x="786" 
d="M28 0l121 688h247l-88 -499h446l-33 -189h-693zM161 752l115 133h242l2 -4l-200 -129h-159z" />
    <glyph glyph-name="lacute" unicode="&#x13a;" horiz-adv-x="344" 
d="M15 0l126 725h224l-127 -725h-223zM137 752l115 133h242l2 -4l-200 -129h-159z" />
    <glyph glyph-name="uni013B" unicode="&#x13b;" horiz-adv-x="786" 
d="M28 0l121 688h247l-88 -499h446l-33 -189h-693zM148 -440l16 93q57 4 94.5 31t44.5 69h-121l34 192h247l-30 -169q-11 -65 -47.5 -111.5t-96 -72.5t-141.5 -32z" />
    <glyph glyph-name="uni013C" unicode="&#x13c;" horiz-adv-x="344" 
d="M15 0l126 725h224l-127 -725h-223zM-36 -352l13 74q45 3 75 25t36 55h-97l27 154h198l-24 -135q-9 -52 -38.5 -89t-77 -58.5t-112.5 -25.5z" />
    <glyph glyph-name="Lcaron" unicode="&#x13d;" horiz-adv-x="786" 
d="M28 0l121 688h247l-88 -499h446l-33 -189h-693zM575 555l30 170h169l-74 -170h-125z" />
    <glyph glyph-name="lcaron" unicode="&#x13e;" horiz-adv-x="344" 
d="M15 0l126 725h224l-127 -725h-223zM391 555l30 170h169l-74 -170h-125z" />
    <glyph glyph-name="Ldot" unicode="&#x13f;" horiz-adv-x="786" 
d="M28 0l121 688h247l-88 -499h446l-33 -189h-693zM484 310l25 139h201l-25 -139h-201z" />
    <glyph glyph-name="ldot" unicode="&#x140;" horiz-adv-x="344" 
d="M15 0l126 725h224l-127 -725h-223zM303 290l24 139h139l-24 -139h-139z" />
    <glyph glyph-name="Lslash" unicode="&#x141;" horiz-adv-x="786" 
d="M28 0l121 688h247l-88 -499h446l-33 -189h-693zM-9 169v91l536 259v-93z" />
    <glyph glyph-name="lslash" unicode="&#x142;" horiz-adv-x="344" 
d="M15 0l126 725h224l-127 -725h-223zM-38 202v98l456 226v-100z" />
    <glyph glyph-name="Nacute" unicode="&#x143;" horiz-adv-x="1007" 
d="M28 0l121 688h215l288 -303q5 -5 14 -15t19.5 -21t18.5 -20h10q2 14 6 37.5t8 45.5l48 276h232l-121 -688h-213l-275 290q-17 18 -36.5 38.5t-30.5 33.5h-9q-2 -14 -6.5 -39.5t-9.5 -51.5l-47 -271h-232zM462 752l115 133h242l2 -4l-200 -129h-159z" />
    <glyph glyph-name="nacute" unicode="&#x144;" horiz-adv-x="788" 
d="M15 0l93 528h182v-86h9q31 35 68.5 56.5t78.5 31.5t81 10q73 0 121 -20t72 -58.5t24 -96.5q0 -14 -1.5 -29t-4.5 -32l-54 -304h-224l50 285q1 6 1.5 12t0.5 12q0 22 -8.5 39t-27 26.5t-47.5 9.5q-27 0 -51 -8.5t-43 -23.5t-31.5 -36t-16.5 -45l-48 -271h-224zM314 592
l115 133h241v-5l-177 -128h-179z" />
    <glyph glyph-name="uni0145" unicode="&#x145;" horiz-adv-x="1007" 
d="M28 0l121 688h215l288 -303q5 -5 14 -15t19.5 -21t18.5 -20h10q2 14 6 37.5t8 45.5l48 276h232l-121 -688h-213l-275 290q-17 18 -36.5 38.5t-30.5 33.5h-9q-2 -14 -6.5 -39.5t-9.5 -51.5l-47 -271h-232zM259 -440l16 93q57 4 94.5 31t44.5 69h-121l34 192h247l-30 -169
q-11 -65 -47.5 -111.5t-96 -72.5t-141.5 -32z" />
    <glyph glyph-name="uni0146" unicode="&#x146;" horiz-adv-x="788" 
d="M15 0l93 528h182v-86h9q31 35 68.5 56.5t78.5 31.5t81 10q73 0 121 -20t72 -58.5t24 -96.5q0 -14 -1.5 -29t-4.5 -32l-54 -304h-224l50 285q1 6 1.5 12t0.5 12q0 22 -8.5 39t-27 26.5t-47.5 9.5q-27 0 -51 -8.5t-43 -23.5t-31.5 -36t-16.5 -45l-48 -271h-224zM186 -352
l13 74q45 3 75 25t36 55h-97l27 154h198l-24 -135q-9 -52 -38.5 -89t-77 -58.5t-112.5 -25.5z" />
    <glyph glyph-name="Ncaron" unicode="&#x147;" horiz-adv-x="1007" 
d="M28 0l121 688h215l288 -303q5 -5 14 -15t19.5 -21t18.5 -20h10q2 14 6 37.5t8 45.5l48 276h232l-121 -688h-213l-275 290q-17 18 -36.5 38.5t-30.5 33.5h-9q-2 -14 -6.5 -39.5t-9.5 -51.5l-47 -271h-232zM853 897l-200 -145h-160l-148 145h151l110 -106h-70l146 106h171z
" />
    <glyph glyph-name="ncaron" unicode="&#x148;" horiz-adv-x="788" 
d="M15 0l93 528h182v-86h9q31 35 68.5 56.5t78.5 31.5t81 10q73 0 121 -20t72 -58.5t24 -96.5q0 -14 -1.5 -29t-4.5 -32l-54 -304h-224l50 285q1 6 1.5 12t0.5 12q0 22 -8.5 39t-27 26.5t-47.5 9.5q-27 0 -51 -8.5t-43 -23.5t-31.5 -36t-16.5 -45l-48 -271h-224zM726 725
l-198 -145h-160l-149 145h156l97 -92h-35l124 92h165z" />
    <glyph glyph-name="napostrophe" unicode="&#x149;" horiz-adv-x="788" 
d="M15 0l93 528h182v-86h9q31 35 68.5 56.5t78.5 31.5t81 10q73 0 121 -20t72 -58.5t24 -96.5q0 -14 -1.5 -29t-4.5 -32l-54 -304h-224l50 285q1 6 1.5 12t0.5 12q0 22 -8.5 39t-27 26.5t-47.5 9.5q-27 0 -51 -8.5t-43 -23.5t-31.5 -36t-16.5 -45l-48 -271h-224zM48 537
l13 73q50 0 76.5 17t33.5 54h-97l27 154h198l-24 -135q-9 -53 -38.5 -89.5t-76.5 -55t-112 -18.5z" />
    <glyph glyph-name="Eng" unicode="&#x14a;" horiz-adv-x="1007" 
d="M636 -210q-20 0 -45.5 2t-49.5 6.5t-42 9.5l22 127h47q38 0 61 20t27 51l1 11l-258 273q-17 18 -36.5 38.5t-30.5 33.5h-9q-2 -14 -6.5 -39.5t-9.5 -51.5l-47 -271h-232l121 688h215l279 -293q11 -11 22.5 -24t22 -24.5t16.5 -19.5h10q2 14 6 38.5t8 46.5l48 276h232
l-121 -688q-9 -52 -27 -91t-48 -65.5t-73 -40t-103 -13.5z" />
    <glyph glyph-name="eng" unicode="&#x14b;" horiz-adv-x="788" 
d="M428 -210q-20 0 -45 2t-49 6.5t-43 9.5l21 123h59q38 0 61.5 21.5t28.5 52.5l49 280q1 6 1.5 12t0.5 12q0 22 -8.5 39t-27 26.5t-47.5 9.5q-27 0 -51 -8.5t-43 -23.5t-31.5 -36t-16.5 -45l-48 -271h-224l93 528h182v-86h9q31 35 68.5 56.5t78.5 31.5t81 10q73 0 121 -20
t72 -58.5t24 -96.5q0 -14 -1.5 -29t-4.5 -32l-54 -305q-9 -52 -27.5 -91t-49.5 -65.5t-75 -39.5t-104 -13z" />
    <glyph glyph-name="Omacron" unicode="&#x14c;" horiz-adv-x="1008" 
d="M476 -12q-133 0 -227.5 35t-145 101t-50.5 159q0 79 25.5 146.5t71.5 118.5q45 50 107.5 83.5t139 51t164.5 17.5q133 0 227.5 -35.5t145 -101.5t50.5 -160q0 -80 -26.5 -148.5t-74.5 -119.5q-45 -48 -107 -81t-138 -49.5t-162 -16.5zM486 159q47 0 87 12.5t71.5 36
t51.5 55.5t26 70q2 13 3.5 22t2 15t1 10.5t0.5 8.5q0 42 -21 73.5t-61 49t-96 17.5q-47 0 -87 -12.5t-71 -35.5t-51 -54.5t-26 -69.5q-2 -13 -3.5 -22t-2 -15.5t-1 -10.5t-0.5 -8q0 -42 21 -74t60.5 -50t95.5 -18zM382 746l18 100h397l-18 -100h-397z" />
    <glyph glyph-name="omacron" unicode="&#x14d;" horiz-adv-x="810" 
d="M376 -12q-104 0 -182 25t-120.5 76t-42.5 128q0 62 18.5 113.5t52.5 89.5q36 41 87 67.5t113 39.5t131 13q105 0 182.5 -25.5t120.5 -76.5t43 -129q0 -54 -14 -99t-40 -80q-35 -48 -88.5 -79.5t-120 -47t-140.5 -15.5zM381 129q48 0 81.5 17t53.5 45.5t25 62.5
q3 15 4 23.5t1 14v9.5q0 28 -12 50t-38 35t-68 13q-48 0 -82 -17t-53 -45.5t-25 -62.5q-2 -14 -3.5 -23t-2 -14.5t-0.5 -9.5q0 -28 12 -50t38.5 -35t68.5 -13zM258 600l17 100h395l-17 -100h-395z" />
    <glyph glyph-name="Obreve" unicode="&#x14e;" horiz-adv-x="1008" 
d="M476 -12q-133 0 -227.5 35t-145 101t-50.5 159q0 79 25.5 146.5t71.5 118.5q45 50 107.5 83.5t139 51t164.5 17.5q133 0 227.5 -35.5t145 -101.5t50.5 -160q0 -80 -26.5 -148.5t-74.5 -119.5q-45 -48 -107 -81t-138 -49.5t-162 -16.5zM486 159q47 0 87 12.5t71.5 36
t51.5 55.5t26 70q2 13 3.5 22t2 15t1 10.5t0.5 8.5q0 42 -21 73.5t-61 49t-96 17.5q-47 0 -87 -12.5t-71 -35.5t-51 -54.5t-26 -69.5q-2 -13 -3.5 -22t-2 -15.5t-1 -10.5t-0.5 -8q0 -42 21 -74t60.5 -50t95.5 -18zM579 737q-67 0 -112.5 19.5t-69 50.5t-23.5 63v7.5t1 7.5
h118q0 -5 2.5 -9.5t6.5 -9.5q9 -9 24 -16t33 -11t35 -4q31 0 57 8t43 20t21 22h121q-6 -34 -40 -68.5t-90 -57t-127 -22.5z" />
    <glyph glyph-name="obreve" unicode="&#x14f;" horiz-adv-x="810" 
d="M376 -12q-104 0 -182 25t-120.5 76t-42.5 128q0 62 18.5 113.5t52.5 89.5q36 41 87 67.5t113 39.5t131 13q105 0 182.5 -25.5t120.5 -76.5t43 -129q0 -54 -14 -99t-40 -80q-35 -48 -88.5 -79.5t-120 -47t-140.5 -15.5zM381 129q48 0 81.5 17t53.5 45.5t25 62.5
q3 15 4 23.5t1 14v9.5q0 28 -12 50t-38 35t-68 13q-48 0 -82 -17t-53 -45.5t-25 -62.5q-2 -14 -3.5 -23t-2 -14.5t-0.5 -9.5q0 -28 12 -50t38.5 -35t68.5 -13zM450 577q-69 0 -117 19.5t-72.5 49.5t-24.5 62q0 5 0.5 9t1.5 8h119q1 -14 16.5 -25.5t38.5 -18t46 -6.5
q31 0 57 8t43 20t21 22h119q-6 -34 -39 -68.5t-87 -57t-122 -22.5z" />
    <glyph glyph-name="Ohungarumlaut" unicode="&#x150;" horiz-adv-x="1008" 
d="M476 -12q-133 0 -227.5 35t-145 101t-50.5 159q0 79 25.5 146.5t71.5 118.5q45 50 107.5 83.5t139 51t164.5 17.5q133 0 227.5 -35.5t145 -101.5t50.5 -160q0 -80 -26.5 -148.5t-74.5 -119.5q-45 -48 -107 -81t-138 -49.5t-162 -16.5zM486 159q47 0 87 12.5t71.5 36
t51.5 55.5t26 70q2 13 3.5 22t2 15t1 10.5t0.5 8.5q0 42 -21 73.5t-61 49t-96 17.5q-47 0 -87 -12.5t-71 -35.5t-51 -54.5t-26 -69.5q-2 -13 -3.5 -22t-2 -15.5t-1 -10.5t-0.5 -8q0 -42 21 -74t60.5 -50t95.5 -18zM608 751l96 134h223l2 -4l-174 -130h-147zM344 751l96 134
h223l2 -4l-174 -130h-147z" />
    <glyph glyph-name="ohungarumlaut" unicode="&#x151;" horiz-adv-x="810" 
d="M376 -12q-104 0 -182 25t-120.5 76t-42.5 128q0 62 18.5 113.5t52.5 89.5q36 41 87 67.5t113 39.5t131 13q105 0 182.5 -25.5t120.5 -76.5t43 -129q0 -54 -14 -99t-40 -80q-35 -48 -88.5 -79.5t-120 -47t-140.5 -15.5zM381 129q48 0 81.5 17t53.5 45.5t25 62.5
q3 15 4 23.5t1 14v9.5q0 28 -12 50t-38 35t-68 13q-48 0 -82 -17t-53 -45.5t-25 -62.5q-2 -14 -3.5 -23t-2 -14.5t-0.5 -9.5q0 -28 12 -50t38.5 -35t68.5 -13zM203 592l95 134h223v-8l-172 -126h-146zM467 592l96 134h222v-8l-172 -126h-146z" />
    <glyph glyph-name="OE" unicode="&#x152;" horiz-adv-x="1494" 
d="M436 -12q-121 0 -206.5 34.5t-131 100t-45.5 156.5q0 89 29.5 163t83.5 128q43 43 99 71.5t123.5 43.5t142.5 15q74 0 135.5 -12.5t110.5 -35.5l6 36h735l-30 -171h-487l-16 -89h420l-28 -162h-420l-17 -95h495l-30 -171h-743l6 36q-49 -23 -108 -35.5t-124 -12.5z
M486 159q47 0 87 12.5t71.5 36t51.5 55.5t26 70q2 13 3.5 22t2 15t1 10.5t0.5 8.5q0 42 -21 73.5t-61 49t-96 17.5q-62 0 -112 -21.5t-82 -60.5t-41 -90q-2 -13 -3.5 -22t-2 -15.5t-1 -10.5t-0.5 -8q0 -42 21 -74t60.5 -50t95.5 -18z" />
    <glyph glyph-name="oe" unicode="&#x153;" horiz-adv-x="1318" 
d="M376 -12q-104 0 -182 25t-120.5 76t-42.5 128q0 62 18.5 113.5t52.5 89.5q36 41 87 67.5t113 39.5t131 13q80 0 145 -16t110 -48q53 32 118.5 48t139.5 16q107 0 183.5 -23.5t117.5 -71.5t41 -124q0 -13 -2 -34t-10 -61h-505q-1 -5 -1 -9.5v-9.5q0 -31 14.5 -51.5
t43 -30.5t70.5 -10q30 0 54.5 6t42 16.5t28 23.5t13.5 27h232q-8 -50 -41.5 -87.5t-85.5 -62.5t-116.5 -37.5t-135.5 -12.5q-82 0 -148 14.5t-113 45.5q-52 -30 -116.5 -45t-135.5 -15zM381 129q49 0 82.5 17t53.5 45.5t25 62.5q2 11 3 18.5t1.5 12.5t0.5 9v7q0 28 -12 50
t-38 35t-69 13q-48 0 -82 -17t-53 -45.5t-25 -62.5q-2 -11 -3 -18.5t-2 -13t-1 -9v-6.5q0 -28 12 -50t38.5 -35t68.5 -13zM790 328h264q1 3 1 6v6q0 20 -12.5 36.5t-36 26.5t-57.5 10q-44 0 -76.5 -11.5t-53 -31t-29.5 -42.5z" />
    <glyph glyph-name="Racute" unicode="&#x154;" horiz-adv-x="943" 
d="M28 0l121 688h576q74 0 121.5 -25.5t71 -68.5t23.5 -95q0 -56 -18 -105t-53 -86.5t-87 -59.5l89 -248h-268l-66 215h-225l-38 -215h-247zM343 386h262q20 0 38 9.5t29.5 27t11.5 42.5q0 26 -15.5 39t-40.5 13h-262zM420 752l115 133h242l2 -4l-200 -129h-159z" />
    <glyph glyph-name="racute" unicode="&#x155;" horiz-adv-x="515" 
d="M15 0l93 528h182v-86h9q24 35 53 57t60 32t60 10q25 0 45.5 -3t39.5 -10l-29 -166h-103q-31 0 -55.5 -9.5t-42.5 -26t-29.5 -39t-16.5 -49.5l-42 -238h-224zM178 592l115 133h241v-5l-177 -128h-179z" />
    <glyph glyph-name="uni0156" unicode="&#x156;" horiz-adv-x="943" 
d="M28 0l121 688h576q74 0 121.5 -25.5t71 -68.5t23.5 -95q0 -56 -18 -105t-53 -86.5t-87 -59.5l89 -248h-268l-66 215h-225l-38 -215h-247zM343 386h262q20 0 38 9.5t29.5 27t11.5 42.5q0 26 -15.5 39t-40.5 13h-262zM228 -440l16 93q57 4 94.5 31t44.5 69h-121l34 192h247
l-30 -169q-11 -65 -47.5 -111.5t-96 -72.5t-141.5 -32z" />
    <glyph glyph-name="uni0157" unicode="&#x157;" horiz-adv-x="515" 
d="M15 0l93 528h182v-86h9q24 35 53 57t60 32t60 10q25 0 45.5 -3t39.5 -10l-29 -166h-103q-31 0 -55.5 -9.5t-42.5 -26t-29.5 -39t-16.5 -49.5l-42 -238h-224zM-33 -352l13 74q45 3 75 25t36 55h-97l27 154h198l-24 -135q-9 -52 -38.5 -89t-77 -58.5t-112.5 -25.5z" />
    <glyph glyph-name="Rcaron" unicode="&#x158;" horiz-adv-x="943" 
d="M28 0l121 688h576q74 0 121.5 -25.5t71 -68.5t23.5 -95q0 -56 -18 -105t-53 -86.5t-87 -59.5l89 -248h-268l-66 215h-225l-38 -215h-247zM343 386h262q20 0 38 9.5t29.5 27t11.5 42.5q0 26 -15.5 39t-40.5 13h-262zM811 897l-200 -145h-160l-148 145h151l110 -106h-70
l146 106h171z" />
    <glyph glyph-name="rcaron" unicode="&#x159;" horiz-adv-x="515" 
d="M15 0l93 528h182v-86h9q24 35 53 57t60 32t60 10q25 0 45.5 -3t39.5 -10l-29 -166h-103q-31 0 -55.5 -9.5t-42.5 -26t-29.5 -39t-16.5 -49.5l-42 -238h-224zM590 725l-198 -145h-160l-149 145h156l97 -92h-35l124 92h165z" />
    <glyph glyph-name="Sacute" unicode="&#x15a;" horiz-adv-x="882" 
d="M438 -12q-87 0 -161 9t-129.5 30t-86.5 58t-31 94q0 12 1.5 28t5.5 26h241q-3 -7 -4 -14t-1 -12q0 -25 18.5 -38.5t52 -18t77.5 -4.5q23 0 50 1.5t51.5 6t40 14.5t15.5 28q0 17 -23 26.5t-61.5 15t-86 11t-95.5 14.5q-43 8 -83 21.5t-72 34.5t-50.5 52.5t-18.5 76.5
q0 69 34 117t92 78t131.5 43.5t152.5 13.5q76 0 142.5 -10t116.5 -31t78.5 -55t28.5 -83q0 -8 -1 -18t-4 -27h-239q1 5 1 8.5v5.5q0 26 -27.5 43t-91.5 17q-52 0 -85.5 -7t-50 -18t-16.5 -24q0 -16 18.5 -25t50.5 -14.5t72.5 -10t83.5 -10.5q48 -7 95.5 -18.5t86 -31.5
t61.5 -52.5t23 -81.5q0 -72 -32.5 -123t-88.5 -83.5t-128.5 -47.5t-153.5 -15zM405 752l115 133h242l2 -4l-200 -129h-159z" />
    <glyph glyph-name="sacute" unicode="&#x15b;" horiz-adv-x="747" 
d="M336 -12q-59 0 -117 8.5t-105 26t-75.5 45.5t-28.5 67q0 8 1 15.5t5 17.5h231q-1 -4 -2 -7.5t-1 -7.5q0 -15 13 -25.5t35 -15.5t50 -5q14 0 35 1t41.5 5t34.5 12.5t14 23.5q0 13 -19 20t-50.5 10.5t-70 7t-78.5 9.5q-36 6 -69.5 15.5t-60.5 26t-42.5 41t-15.5 60.5
q0 59 29.5 98t79.5 61.5t112.5 32t128.5 9.5q56 0 110 -7.5t98 -23.5t70.5 -41.5t26.5 -61.5q0 -7 -1.5 -15.5t-3.5 -16.5h-229q1 7 1 9v3q0 12 -12 19.5t-30.5 11.5t-38.5 4q-9 0 -27 -0.5t-37.5 -4t-33 -11t-13.5 -21.5q0 -15 26 -21t68 -9t89 -8q41 -4 80.5 -12.5
t72 -24.5t52 -43t19.5 -68q0 -61 -30.5 -102t-82 -64.5t-116.5 -33.5t-133 -10zM294 592l115 133h241v-5l-177 -128h-179z" />
    <glyph glyph-name="Scircumflex" unicode="&#x15c;" horiz-adv-x="882" 
d="M438 -12q-87 0 -161 9t-129.5 30t-86.5 58t-31 94q0 12 1.5 28t5.5 26h241q-3 -7 -4 -14t-1 -12q0 -25 18.5 -38.5t52 -18t77.5 -4.5q23 0 50 1.5t51.5 6t40 14.5t15.5 28q0 17 -23 26.5t-61.5 15t-86 11t-95.5 14.5q-43 8 -83 21.5t-72 34.5t-50.5 52.5t-18.5 76.5
q0 69 34 117t92 78t131.5 43.5t152.5 13.5q76 0 142.5 -10t116.5 -31t78.5 -55t28.5 -83q0 -8 -1 -18t-4 -27h-239q1 5 1 8.5v5.5q0 26 -27.5 43t-91.5 17q-52 0 -85.5 -7t-50 -18t-16.5 -24q0 -16 18.5 -25t50.5 -14.5t72.5 -10t83.5 -10.5q48 -7 95.5 -18.5t86 -31.5
t61.5 -52.5t23 -81.5q0 -72 -32.5 -123t-88.5 -83.5t-128.5 -47.5t-153.5 -15zM260 740l200 145h160l148 -145h-151l-110 106h70l-146 -106h-171z" />
    <glyph glyph-name="scircumflex" unicode="&#x15d;" horiz-adv-x="747" 
d="M336 -12q-59 0 -117 8.5t-105 26t-75.5 45.5t-28.5 67q0 8 1 15.5t5 17.5h231q-1 -4 -2 -7.5t-1 -7.5q0 -15 13 -25.5t35 -15.5t50 -5q14 0 35 1t41.5 5t34.5 12.5t14 23.5q0 13 -19 20t-50.5 10.5t-70 7t-78.5 9.5q-36 6 -69.5 15.5t-60.5 26t-42.5 41t-15.5 60.5
q0 59 29.5 98t79.5 61.5t112.5 32t128.5 9.5q56 0 110 -7.5t98 -23.5t70.5 -41.5t26.5 -61.5q0 -7 -1.5 -15.5t-3.5 -16.5h-229q1 7 1 9v3q0 12 -12 19.5t-30.5 11.5t-38.5 4q-9 0 -27 -0.5t-37.5 -4t-33 -11t-13.5 -21.5q0 -15 26 -21t68 -9t89 -8q41 -4 80.5 -12.5
t72 -24.5t52 -43t19.5 -68q0 -61 -30.5 -102t-82 -64.5t-116.5 -33.5t-133 -10zM169 580l198 145h160l149 -145h-156l-97 92h35l-124 -92h-165z" />
    <glyph glyph-name="Scedilla" unicode="&#x15e;" horiz-adv-x="882" 
d="M438 -12q-87 0 -161 9t-129.5 30t-86.5 58t-31 94q0 12 1.5 28t5.5 26h241q-3 -7 -4 -14t-1 -12q0 -25 18.5 -38.5t52 -18t77.5 -4.5q23 0 50 1.5t51.5 6t40 14.5t15.5 28q0 17 -23 26.5t-61.5 15t-86 11t-95.5 14.5q-43 8 -83 21.5t-72 34.5t-50.5 52.5t-18.5 76.5
q0 69 34 117t92 78t131.5 43.5t152.5 13.5q76 0 142.5 -10t116.5 -31t78.5 -55t28.5 -83q0 -8 -1 -18t-4 -27h-239q1 5 1 8.5v5.5q0 26 -27.5 43t-91.5 17q-52 0 -85.5 -7t-50 -18t-16.5 -24q0 -16 18.5 -25t50.5 -14.5t72.5 -10t83.5 -10.5q48 -7 95.5 -18.5t86 -31.5
t61.5 -52.5t23 -81.5q0 -72 -32.5 -123t-88.5 -83.5t-128.5 -47.5t-153.5 -15zM370 -211q-43 0 -88.5 4.5t-70.5 11.5l10 57h134q20 0 34 3.5t14 25.5q0 11 -9 14t-29 3h-55l48 131h111l-28 -69q33 -4 61 -21t28 -58q0 -31 -16.5 -51t-41.5 -31t-52.5 -15.5t-49.5 -4.5z" />
    <glyph glyph-name="scedilla" unicode="&#x15f;" horiz-adv-x="747" 
d="M336 -12q-59 0 -117 8.5t-105 26t-75.5 45.5t-28.5 67q0 8 1 15.5t5 17.5h231q-1 -4 -2 -7.5t-1 -7.5q0 -15 13 -25.5t35 -15.5t50 -5q14 0 35 1t41.5 5t34.5 12.5t14 23.5q0 13 -19 20t-50.5 10.5t-70 7t-78.5 9.5q-36 6 -69.5 15.5t-60.5 26t-42.5 41t-15.5 60.5
q0 59 29.5 98t79.5 61.5t112.5 32t128.5 9.5q56 0 110 -7.5t98 -23.5t70.5 -41.5t26.5 -61.5q0 -7 -1.5 -15.5t-3.5 -16.5h-229q1 7 1 9v3q0 12 -12 19.5t-30.5 11.5t-38.5 4q-9 0 -27 -0.5t-37.5 -4t-33 -11t-13.5 -21.5q0 -15 26 -21t68 -9t89 -8q41 -4 80.5 -12.5
t72 -24.5t52 -43t19.5 -68q0 -61 -30.5 -102t-82 -64.5t-116.5 -33.5t-133 -10zM304 -211q-43 0 -88.5 4.5t-70.5 11.5l10 57h134q20 0 34 3.5t14 25.5q0 11 -9 14t-29 3h-55l48 131h111l-28 -69q33 -4 61 -21t28 -58q0 -31 -16.5 -51t-41.5 -31t-52.5 -15.5t-49.5 -4.5z
" />
    <glyph glyph-name="Scaron" unicode="&#x160;" horiz-adv-x="882" 
d="M438 -12q-87 0 -161 9t-129.5 30t-86.5 58t-31 94q0 12 1.5 28t5.5 26h241q-3 -7 -4 -14t-1 -12q0 -25 18.5 -38.5t52 -18t77.5 -4.5q23 0 50 1.5t51.5 6t40 14.5t15.5 28q0 17 -23 26.5t-61.5 15t-86 11t-95.5 14.5q-43 8 -83 21.5t-72 34.5t-50.5 52.5t-18.5 76.5
q0 69 34 117t92 78t131.5 43.5t152.5 13.5q76 0 142.5 -10t116.5 -31t78.5 -55t28.5 -83q0 -8 -1 -18t-4 -27h-239q1 5 1 8.5v5.5q0 26 -27.5 43t-91.5 17q-52 0 -85.5 -7t-50 -18t-16.5 -24q0 -16 18.5 -25t50.5 -14.5t72.5 -10t83.5 -10.5q48 -7 95.5 -18.5t86 -31.5
t61.5 -52.5t23 -81.5q0 -72 -32.5 -123t-88.5 -83.5t-128.5 -47.5t-153.5 -15zM796 897l-200 -145h-160l-148 145h151l110 -106h-70l146 106h171z" />
    <glyph glyph-name="scaron" unicode="&#x161;" horiz-adv-x="747" 
d="M336 -12q-59 0 -117 8.5t-105 26t-75.5 45.5t-28.5 67q0 8 1 15.5t5 17.5h231q-1 -4 -2 -7.5t-1 -7.5q0 -15 13 -25.5t35 -15.5t50 -5q14 0 35 1t41.5 5t34.5 12.5t14 23.5q0 13 -19 20t-50.5 10.5t-70 7t-78.5 9.5q-36 6 -69.5 15.5t-60.5 26t-42.5 41t-15.5 60.5
q0 59 29.5 98t79.5 61.5t112.5 32t128.5 9.5q56 0 110 -7.5t98 -23.5t70.5 -41.5t26.5 -61.5q0 -7 -1.5 -15.5t-3.5 -16.5h-229q1 7 1 9v3q0 12 -12 19.5t-30.5 11.5t-38.5 4q-9 0 -27 -0.5t-37.5 -4t-33 -11t-13.5 -21.5q0 -15 26 -21t68 -9t89 -8q41 -4 80.5 -12.5
t72 -24.5t52 -43t19.5 -68q0 -61 -30.5 -102t-82 -64.5t-116.5 -33.5t-133 -10zM706 725l-198 -145h-160l-149 145h156l97 -92h-35l124 92h165z" />
    <glyph glyph-name="uni0162" unicode="&#x162;" horiz-adv-x="877" 
d="M269 0l88 499h-292l33 189h831l-33 -189h-292l-88 -499h-247zM375 -211q-43 0 -88.5 4.5t-70.5 11.5l10 57h134q20 0 34 3.5t14 25.5q0 11 -9 14t-29 3h-55l48 131h111l-28 -69q33 -4 61 -21t28 -58q0 -31 -16.5 -51t-41.5 -31t-52.5 -15.5t-49.5 -4.5z" />
    <glyph glyph-name="uni0163" unicode="&#x163;" horiz-adv-x="545" 
d="M320 -12q-64 0 -110.5 11.5t-71 40t-24.5 80.5q0 10 1 21t3 23l40 223h-105l25 141h114l72 160h172l-29 -160h151l-25 -141h-151l-31 -177q-1 -7 -2 -13.5t-1 -12.5q0 -27 17 -41t60 -14h63l-22 -122q-15 -5 -43 -9.5t-56 -7t-47 -2.5zM235 -211q-43 0 -88.5 4.5
t-70.5 11.5l10 57h134q20 0 34 3.5t14 25.5q0 11 -9 14t-29 3h-55l48 131h111l-28 -69q33 -4 61 -21t28 -58q0 -31 -16.5 -51t-41.5 -31t-52.5 -15.5t-49.5 -4.5z" />
    <glyph glyph-name="Tcaron" unicode="&#x164;" horiz-adv-x="877" 
d="M269 0l88 499h-292l33 189h831l-33 -189h-292l-88 -499h-247zM801 897l-200 -145h-160l-148 145h151l110 -106h-70l146 106h171z" />
    <glyph glyph-name="tcaron" unicode="&#x165;" horiz-adv-x="545" 
d="M320 -12q-64 0 -110.5 11.5t-71 40t-24.5 80.5q0 10 1 21t3 23l40 223h-105l25 141h114l72 160h172l-29 -160h151l-25 -141h-151l-31 -177q-1 -7 -2 -13.5t-1 -12.5q0 -27 17 -41t60 -14h63l-22 -122q-15 -5 -43 -9.5t-56 -7t-47 -2.5zM444 555l30 170h169l-74 -170h-125
z" />
    <glyph glyph-name="Tbar" unicode="&#x166;" horiz-adv-x="877" 
d="M269 0l88 499h-292l33 189h831l-33 -189h-292l-88 -499h-247zM169 251l22 125h544l-22 -125h-544z" />
    <glyph glyph-name="tbar" unicode="&#x167;" horiz-adv-x="534" 
d="M18 214l20 114h439l-20 -114h-439zM320 -12q-64 0 -110.5 11.5t-71 40t-24.5 80.5q0 10 1 21t3 23l40 223h-105l25 141h114l72 160h172l-29 -160h151l-25 -141h-151l-31 -177q-1 -7 -2 -13.5t-1 -12.5q0 -27 17 -41t60 -14h63l-22 -122q-15 -5 -43 -9.5t-56 -7t-47 -2.5z
" />
    <glyph glyph-name="Utilde" unicode="&#x168;" horiz-adv-x="989" 
d="M466 -12q-196 0 -291.5 69t-95.5 200q0 20 2 40t6 42l62 349h247l-61 -346q-2 -13 -3 -24t-1 -22q0 -65 37.5 -100.5t107.5 -35.5q83 0 137 48t69 134l61 346h247l-65 -365q-20 -115 -76.5 -189.5t-151.5 -110t-231 -35.5zM310 736q6 32 28.5 66.5t61 58.5t90.5 24
q45 0 84.5 -10.5t75 -21.5t68.5 -11q23 0 41 12t27 31h91q-5 -32 -27.5 -66.5t-60.5 -58.5t-91 -24q-45 0 -85 11t-75.5 21.5t-67.5 10.5q-23 0 -40.5 -12.5t-28.5 -30.5h-91z" />
    <glyph glyph-name="utilde" unicode="&#x169;" horiz-adv-x="788" 
d="M262 -12q-73 0 -121 20t-72 59t-24 96q0 14 1.5 29.5t4.5 31.5l54 304h224l-50 -285q-1 -6 -1.5 -12t-0.5 -12q0 -22 8.5 -39t27 -26.5t47.5 -9.5q27 0 51 8.5t43 23.5t31.5 36t16.5 45l48 271h224l-93 -528h-182v86h-9q-30 -35 -68 -56.5t-79 -31.5t-81 -10zM149 576
q6 32 29 66.5t63.5 58.5t97.5 24q45 0 82 -10.5t69.5 -21.5t65.5 -11q23 0 41 12t28 31h91q-6 -32 -28 -66.5t-61.5 -58.5t-100.5 -24q-45 0 -82.5 11t-70 21.5t-64.5 10.5q-23 0 -41 -12.5t-29 -30.5h-90z" />
    <glyph glyph-name="Umacron" unicode="&#x16a;" horiz-adv-x="989" 
d="M466 -12q-196 0 -291.5 69t-95.5 200q0 20 2 40t6 42l62 349h247l-61 -346q-2 -13 -3 -24t-1 -22q0 -65 37.5 -100.5t107.5 -35.5q83 0 137 48t69 134l61 346h247l-65 -365q-20 -115 -76.5 -189.5t-151.5 -110t-231 -35.5zM384 746l18 100h397l-18 -100h-397z" />
    <glyph glyph-name="umacron" unicode="&#x16b;" horiz-adv-x="788" 
d="M262 -12q-73 0 -121 20t-72 59t-24 96q0 14 1.5 29.5t4.5 31.5l54 304h224l-50 -285q-1 -6 -1.5 -12t-0.5 -12q0 -22 8.5 -39t27 -26.5t47.5 -9.5q27 0 51 8.5t43 23.5t31.5 36t16.5 45l48 271h224l-93 -528h-182v86h-9q-30 -35 -68 -56.5t-79 -31.5t-81 -10zM251 600
l17 100h395l-17 -100h-395z" />
    <glyph glyph-name="Ubreve" unicode="&#x16c;" horiz-adv-x="989" 
d="M466 -12q-196 0 -291.5 69t-95.5 200q0 20 2 40t6 42l62 349h247l-61 -346q-2 -13 -3 -24t-1 -22q0 -65 37.5 -100.5t107.5 -35.5q83 0 137 48t69 134l61 346h247l-65 -365q-20 -115 -76.5 -189.5t-151.5 -110t-231 -35.5zM581 737q-67 0 -112.5 19.5t-69 50.5t-23.5 63
v7.5t1 7.5h118q0 -5 2.5 -9.5t6.5 -9.5q9 -9 24 -16t33 -11t35 -4q31 0 57 8t43 20t21 22h121q-6 -34 -40 -68.5t-90 -57t-127 -22.5z" />
    <glyph glyph-name="ubreve" unicode="&#x16d;" horiz-adv-x="788" 
d="M262 -12q-73 0 -121 20t-72 59t-24 96q0 14 1.5 29.5t4.5 31.5l54 304h224l-50 -285q-1 -6 -1.5 -12t-0.5 -12q0 -22 8.5 -39t27 -26.5t47.5 -9.5q27 0 51 8.5t43 23.5t31.5 36t16.5 45l48 271h224l-93 -528h-182v86h-9q-30 -35 -68 -56.5t-79 -31.5t-81 -10zM443 577
q-69 0 -117 19.5t-72.5 49.5t-24.5 62q0 5 0.5 9t1.5 8h119q1 -14 16.5 -25.5t38.5 -18t46 -6.5q31 0 57 8t43 20t21 22h119q-6 -34 -39 -68.5t-87 -57t-122 -22.5z" />
    <glyph glyph-name="Uring" unicode="&#x16e;" horiz-adv-x="989" 
d="M466 -12q-196 0 -291.5 69t-95.5 200q0 20 2 40t6 42l62 349h247l-61 -346q-2 -13 -3 -24t-1 -22q0 -65 37.5 -100.5t107.5 -35.5q83 0 137 48t69 134l61 346h247l-65 -365q-20 -115 -76.5 -189.5t-151.5 -110t-231 -35.5zM583 734q-41 0 -67.5 25.5t-26.5 65.5
q0 35 16 61.5t44 42t64 15.5q41 0 67.5 -25.5t26.5 -65.5q0 -34 -16 -61t-44 -42.5t-64 -15.5zM592 799q14 0 25 6t17.5 17t6.5 24q0 14 -10.5 23.5t-27.5 9.5q-14 0 -25 -6t-17 -16.5t-6 -24.5t10.5 -23.5t26.5 -9.5z" />
    <glyph glyph-name="uring" unicode="&#x16f;" horiz-adv-x="788" 
d="M262 -12q-73 0 -121 20t-72 59t-24 96q0 14 1.5 29.5t4.5 31.5l54 304h224l-50 -285q-1 -6 -1.5 -12t-0.5 -12q0 -22 8.5 -39t27 -26.5t47.5 -9.5q27 0 51 8.5t43 23.5t31.5 36t16.5 45l48 271h224l-93 -528h-182v86h-9q-30 -35 -68 -56.5t-79 -31.5t-81 -10zM444 575
q-41 0 -67.5 25.5t-26.5 64.5q0 56 35.5 91.5t90.5 35.5q41 0 68 -25t27 -64q0 -37 -16.5 -66t-45 -45.5t-65.5 -16.5zM454 640q15 0 26.5 6.5t18 18t6.5 26.5q0 16 -10.5 26t-27.5 10q-14 0 -25.5 -6.5t-18 -18t-6.5 -26.5q0 -16 10.5 -26t26.5 -10z" />
    <glyph glyph-name="Uhungarumlaut" unicode="&#x170;" horiz-adv-x="989" 
d="M466 -12q-196 0 -291.5 69t-95.5 200q0 20 2 40t6 42l62 349h247l-61 -346q-2 -13 -3 -24t-1 -22q0 -65 37.5 -100.5t107.5 -35.5q83 0 137 48t69 134l61 346h247l-65 -365q-20 -115 -76.5 -189.5t-151.5 -110t-231 -35.5zM610 751l96 134h223l2 -4l-174 -130h-147z
M346 751l96 134h223l2 -4l-174 -130h-147z" />
    <glyph glyph-name="uhungarumlaut" unicode="&#x171;" horiz-adv-x="788" 
d="M262 -12q-73 0 -121 20t-72 59t-24 96q0 14 1.5 29.5t4.5 31.5l54 304h224l-50 -285q-1 -6 -1.5 -12t-0.5 -12q0 -22 8.5 -39t27 -26.5t47.5 -9.5q27 0 51 8.5t43 23.5t31.5 36t16.5 45l48 271h224l-93 -528h-182v86h-9q-30 -35 -68 -56.5t-79 -31.5t-81 -10zM196 592
l95 134h223v-8l-172 -126h-146zM460 592l96 134h222v-8l-172 -126h-146z" />
    <glyph glyph-name="Uogonek" unicode="&#x172;" horiz-adv-x="989" 
d="M466 -12q-196 0 -291.5 69t-95.5 200q0 20 2 40t6 42l62 349h247l-61 -346q-2 -13 -3 -24t-1 -22q0 -65 37.5 -100.5t107.5 -35.5q83 0 137 48t69 134l61 346h247l-65 -365q-20 -115 -76.5 -189.5t-151.5 -110t-231 -35.5zM572 -211q-33 0 -62.5 10t-48 32t-18.5 58
q0 29 12.5 51.5t30 40t33.5 31.5h126l-1 -4q-21 -13 -36 -35.5t-15 -42.5q0 -17 12 -31.5t38 -14.5h82l-15 -80q-30 -7 -68 -11t-70 -4z" />
    <glyph glyph-name="uogonek" unicode="&#x173;" horiz-adv-x="788" 
d="M552 -211q-33 0 -62.5 10t-48 32t-18.5 58q0 29 12.5 51.5t30 40.5t33.5 31h126l-1 -4q-21 -13 -36 -35.5t-15 -42.5q0 -17 12 -31.5t38 -14.5h82l-15 -80q-30 -7 -68 -11t-70 -4zM262 -12q-73 0 -121 20t-72 59t-24 96q0 14 1.5 29.5t4.5 31.5l54 304h224l-50 -285
q-1 -6 -1.5 -12t-0.5 -12q0 -22 8.5 -39t27 -26.5t47.5 -9.5q27 0 51 8.5t43 23.5t31.5 36t16.5 45l48 271h224l-93 -528h-182v86h-9q-30 -35 -68 -56.5t-79 -31.5t-81 -10z" />
    <glyph glyph-name="Wcircumflex" unicode="&#x174;" horiz-adv-x="1230" 
d="M161 0l-81 688h246l28 -305q2 -24 3.5 -47t2.5 -41.5t1 -29.5h7q5 15 12.5 36t16.5 42.5t16 39.5l132 305h301l23 -305q2 -18 3 -39.5t1.5 -42.5t0.5 -36h7q6 16 14 37t17 42.5t16 38.5l137 305h235l-323 -688h-284l-31 387q-1 17 -2.5 34t-2 31t-1.5 22h-7
q-4 -12 -11 -28t-13.5 -31.5t-11.5 -27.5l-168 -387h-284zM444 740l200 145h160l148 -145h-151l-110 106h70l-146 -106h-171z" />
    <glyph glyph-name="wcircumflex" unicode="&#x175;" horiz-adv-x="1167" 
d="M200 0l-153 528h234l43 -225q3 -15 6 -33t5.5 -35t3.5 -29h9q6 14 14 31.5t16.5 35t14.5 30.5l114 225h256l31 -225q2 -13 3.5 -31t3 -35.5t2.5 -30.5h8q7 14 15.5 31.5t17.5 35t16 30.5l125 225h229l-339 -528h-227l-34 231q-3 19 -5.5 38t-4 35.5l-2.5 27.5h-8
q-4 -11 -12 -28t-17 -36.5t-18 -38.5l-113 -229h-234zM380 580l198 145h160l149 -145h-156l-97 92h35l-124 -92h-165z" />
    <glyph glyph-name="Ycircumflex" unicode="&#x176;" horiz-adv-x="966" 
d="M314 0l48 271l-270 417h282l138 -232h7l220 232h285l-415 -417l-48 -271h-247zM303 740l200 145h160l148 -145h-151l-110 106h70l-146 -106h-171z" />
    <glyph glyph-name="ycircumflex" unicode="&#x177;" horiz-adv-x="750" 
d="M84 -210q-39 0 -67.5 5.5t-49.5 12.5l20 123h95q37 0 61 9.5t39 25.5t26 34l-161 528h239l47 -233q3 -15 6.5 -37t7.5 -44t6 -39h10q7 13 16 29.5t18 33.5t17.5 32.5t14.5 26.5l127 231h241l-318 -484q-33 -50 -69 -95.5t-81 -81.5t-105 -56.5t-140 -20.5zM164 580
l198 145h160l149 -145h-156l-97 92h35l-124 -92h-165z" />
    <glyph glyph-name="Ydieresis" unicode="&#x178;" horiz-adv-x="966" 
d="M314 0l48 271l-270 417h282l138 -232h7l220 232h285l-415 -417l-48 -271h-247zM334 735l26 150h190l-26 -150h-190zM608 735l26 150h192l-26 -150h-192z" />
    <glyph glyph-name="Zacute" unicode="&#x179;" horiz-adv-x="877" 
d="M-24 0l12 71l467 446h-359l30 171h782l-12 -71l-469 -446h400l-30 -171h-821zM385 752l115 133h242l2 -4l-200 -129h-159z" />
    <glyph glyph-name="zacute" unicode="&#x17a;" horiz-adv-x="685" 
d="M-21 0l11 65l328 322h-257l25 141h610l-11 -62l-333 -325h286l-25 -141h-634zM258 592l115 133h241v-5l-177 -128h-179z" />
    <glyph glyph-name="Zdotaccent" unicode="&#x17b;" horiz-adv-x="877" 
d="M-24 0l12 71l467 446h-359l30 171h782l-12 -71l-469 -446h400l-30 -171h-821zM408 735l26 150h192l-26 -150h-192z" />
    <glyph glyph-name="zdotaccent" unicode="&#x17c;" horiz-adv-x="685" 
d="M-21 0l11 65l328 322h-257l25 141h610l-11 -62l-333 -325h286l-25 -141h-634zM297 575l26 145h191l-26 -145h-191z" />
    <glyph glyph-name="Zcaron" unicode="&#x17d;" horiz-adv-x="877" 
d="M-24 0l12 71l467 446h-359l30 171h782l-12 -71l-469 -446h400l-30 -171h-821zM776 897l-200 -145h-160l-148 145h151l110 -106h-70l146 106h171z" />
    <glyph glyph-name="zcaron" unicode="&#x17e;" horiz-adv-x="685" 
d="M-21 0l11 65l328 322h-257l25 141h610l-11 -62l-333 -325h286l-25 -141h-634zM670 725l-198 -145h-160l-149 145h156l97 -92h-35l124 92h165z" />
    <glyph glyph-name="longs" unicode="&#x17f;" horiz-adv-x="526" 
d="M75 -209q-24 0 -54.5 2.5t-60 6.5t-52.5 9l21 123h64q58 0 81.5 11.5t28.5 41.5l70 402h-115l25 141h115l2 14q12 71 48 113.5t88.5 62t115.5 19.5q25 0 55 -2.5t60 -6.5t52 -9l-21 -123h-64q-58 0 -81.5 -11.5t-28.5 -41.5l-97 -557q-12 -70 -48 -113t-88.5 -62.5
t-115.5 -19.5z" />
    <glyph glyph-name="uni018F" unicode="&#x18f;" horiz-adv-x="1008" 
d="M476 -12q-133 0 -227.5 36t-144.5 101.5t-50 154.5q0 14 2 35.5t7 53.5l4 18h661q1 5 1 9v8q0 35 -24.5 63t-66.5 45t-97 17q-34 0 -67 -6.5t-61 -18t-49.5 -27t-33.5 -33.5h-253q20 61 66 108.5t111 80.5t143.5 50t163.5 17q133 0 227.5 -35.5t145 -101.5t50.5 -160
q0 -76 -24.5 -143t-68.5 -117q-45 -51 -108 -85.5t-140.5 -52t-166.5 -17.5zM486 159q48 0 89 13t72.5 37.5t49.5 56.5h-384q0 -7 1 -13t3 -12q9 -24 33 -42.5t59.5 -29t76.5 -10.5z" />
    <glyph glyph-name="florin" unicode="&#x192;" horiz-adv-x="814" 
d="M106 -209q-22 0 -49.5 2.5t-54 6.5t-47.5 9l47 123h64q57 0 82 11.5t37 41.5l133 341h-115l55 141h115l30 75q33 83 78.5 125t102.5 56t122 14q23 0 51 -2.5t55 -6.5t47 -9l-48 -123h-64q-58 0 -83.5 -11.5t-36.5 -41.5l-30 -76h164l-55 -141h-164l-133 -340
q-31 -80 -77 -122.5t-103 -57.5t-123 -15z" />
    <glyph glyph-name="uni019D" unicode="&#x19d;" horiz-adv-x="1007" 
d="M8 -210q-20 0 -45 2t-49 6.5t-42 9.5l22 127h48q38 0 60 20t27 51l120 682h215l288 -303q8 -7 17 -17.5t18.5 -20.5t16.5 -18h10q2 14 6 37.5t8 45.5l48 276h232l-121 -688h-213l-275 290q-17 18 -36.5 38.5t-30.5 33.5h-9q-2 -14 -6.5 -39.5t-9.5 -51.5l-47 -271
q-9 -52 -27.5 -91t-48 -65.5t-73 -40t-103.5 -13.5z" />
    <glyph glyph-name="Ohorn" unicode="&#x1a0;" horiz-adv-x="1008" 
d="M476 -12q-133 0 -227.5 35t-145 101t-50.5 159q0 79 25.5 146.5t71.5 118.5q45 50 107.5 83.5t139 51t164.5 17.5q133 0 227.5 -35.5t145 -101.5t50.5 -160q0 -80 -26.5 -148.5t-74.5 -119.5q-45 -48 -107 -81t-138 -49.5t-162 -16.5zM486 159q47 0 87 12.5t71.5 36
t51.5 55.5t26 70q2 13 3.5 22t2 15t1 10.5t0.5 8.5q0 42 -21 73.5t-61 49t-96 17.5q-47 0 -87 -12.5t-71 -35.5t-51 -54.5t-26 -69.5q-2 -13 -3.5 -22t-2 -15.5t-1 -10.5t-0.5 -8q0 -42 21 -74t60.5 -50t95.5 -18zM769 515l17 95q65 0 102 13.5t41 39.5h-88l28 157h229
l-18 -99q-11 -67 -51 -113t-105 -69.5t-155 -23.5z" />
    <glyph glyph-name="ohorn" unicode="&#x1a1;" horiz-adv-x="810" 
d="M376 -12q-104 0 -182 25t-120.5 76t-42.5 128q0 62 18.5 113.5t52.5 89.5q36 41 87 67.5t113 39.5t131 13q105 0 182.5 -25.5t120.5 -76.5t43 -129q0 -54 -14 -99t-40 -80q-35 -48 -88.5 -79.5t-120 -47t-140.5 -15.5zM381 129q48 0 81.5 17t53.5 45.5t25 62.5
q3 15 4 23.5t1 14v9.5q0 28 -12 50t-38 35t-68 13q-48 0 -82 -17t-53 -45.5t-25 -62.5q-2 -14 -3.5 -23t-2 -14.5t-0.5 -9.5q0 -28 12 -50t38.5 -35t68.5 -13zM591 383l17 95q75 0 117 13.5t46 39.5h-88l28 157h229l-18 -99q-12 -67 -54 -113t-111.5 -69.5t-165.5 -23.5z
" />
    <glyph glyph-name="Uhorn" unicode="&#x1af;" horiz-adv-x="989" 
d="M466 -12q-196 0 -291.5 69t-95.5 200q0 20 2 40t6 42l62 349h247l-61 -346q-2 -13 -3 -24t-1 -22q0 -65 37.5 -100.5t107.5 -35.5q83 0 137 48t69 134l61 346h247l-65 -365q-20 -115 -76.5 -189.5t-151.5 -110t-231 -35.5zM785 593l17 95q65 0 102 13.5t41 39.5h-88
l28 157h229l-18 -99q-11 -67 -51 -113t-105 -69.5t-155 -23.5z" />
    <glyph glyph-name="uhorn" unicode="&#x1b0;" horiz-adv-x="788" 
d="M262 -12q-73 0 -121 20t-72 59t-24 96q0 14 1.5 29.5t4.5 31.5l54 304h224l-50 -285q-1 -6 -1.5 -12t-0.5 -12q0 -22 8.5 -39t27 -26.5t47.5 -9.5q27 0 51 8.5t43 23.5t31.5 36t16.5 45l48 271h224l-93 -528h-182v86h-9q-30 -35 -68 -56.5t-79 -31.5t-81 -10zM593 433
l17 95q75 0 117 13.5t46 39.5h-88l28 157h229l-18 -99q-12 -67 -54 -113t-111.5 -69.5t-165.5 -23.5z" />
    <glyph glyph-name="uni01C4" unicode="&#x1c4;" horiz-adv-x="1800" 
d="M28 0l121 688h380q180 0 280 -73t100 -208q0 -76 -21.5 -140t-60.5 -113q-40 -51 -98 -85t-129 -51.5t-152 -17.5h-420zM305 171h138q40 0 74.5 12t61.5 33.5t44.5 51t23.5 65.5q3 18 4.5 28t2 16.5t0.5 11.5q0 39 -17.5 67.5t-51 44.5t-81.5 16h-138zM899 0l12 71
l467 446h-359l30 171h782l-12 -71l-469 -446h400l-30 -171h-821zM1699 897l-200 -145h-160l-148 145h151l110 -106h-70l146 106h171z" />
    <glyph glyph-name="uni01C5" unicode="&#x1c5;" horiz-adv-x="1618" 
d="M28 0l121 688h380q180 0 280 -73t100 -208q0 -76 -21.5 -140t-60.5 -113q-40 -51 -98 -85t-129 -51.5t-152 -17.5h-420zM305 171h138q40 0 74.5 12t61.5 33.5t44.5 51t23.5 65.5q3 18 4.5 28t2 16.5t0.5 11.5q0 39 -17.5 67.5t-51 44.5t-81.5 16h-138zM912 0l11 65
l328 322h-257l25 141h610l-11 -62l-333 -325h286l-25 -141h-634zM1603 725l-198 -145h-160l-149 145h156l97 -92h-35l124 92h165z" />
    <glyph glyph-name="uni01C6" unicode="&#x1c6;" horiz-adv-x="1480" 
d="M282 -12q-73 0 -129.5 23.5t-89 72t-32.5 123.5t21.5 134t57.5 99q23 26 51.5 45t60 31t65 18t67.5 6q31 0 66.5 -6.5t67.5 -22t51 -41.5h9l44 255h224l-127 -725h-185v82h-9q-48 -53 -102.5 -73.5t-110.5 -20.5zM368 144q44 0 74 16t47.5 43t22.5 58q1 8 1.5 13t1 9.5
t0.5 8.5q0 26 -10.5 47t-33.5 33t-61 12q-44 0 -74 -15.5t-47 -40.5t-23 -55q-2 -13 -3.5 -20.5t-1.5 -12.5v-9q0 -37 25 -62t82 -25zM774 0l11 65l328 322h-257l25 141h610l-11 -62l-333 -325h286l-25 -141h-634zM1465 725l-198 -145h-160l-149 145h156l97 -92h-35l124 92
h165z" />
    <glyph glyph-name="uni01C7" unicode="&#x1c7;" horiz-adv-x="1520" 
d="M28 0l121 688h247l-88 -499h446l-33 -189h-693zM1086 -12q-153 0 -234.5 48.5t-81.5 155.5q0 14 2 30.5t7 44.5h233q-4 -22 -5 -30.5t-1 -14.5q0 -34 21 -48.5t60 -14.5q53 0 82 24.5t39 82.5l74 422h248l-75 -423q-18 -102 -66.5 -163t-124.5 -87.5t-178 -26.5z" />
    <glyph glyph-name="uni01C8" unicode="&#x1c8;" horiz-adv-x="1128" 
d="M28 0l121 688h247l-88 -499h446l-33 -189h-693zM903 590l24 135h224l-24 -135h-224zM779 -210q-22 0 -49 2t-53 6.5t-46 9.5l22 123h59q38 0 60.5 20t27.5 51l93 526h224l-93 -529q-12 -69 -40.5 -115.5t-78 -70t-126.5 -23.5z" />
    <glyph glyph-name="uni01C9" unicode="&#x1c9;" horiz-adv-x="686" 
d="M15 0l126 725h224l-127 -725h-223zM461 590l24 135h224l-24 -135h-224zM337 -210q-22 0 -49 2t-53 6.5t-46 9.5l22 123h59q38 0 60.5 20t27.5 51l93 526h224l-93 -529q-12 -69 -40.5 -115.5t-78 -70t-126.5 -23.5z" />
    <glyph glyph-name="uni01CA" unicode="&#x1ca;" horiz-adv-x="1771" 
d="M28 0l121 688h215l288 -303q5 -5 14 -15t19.5 -21t18.5 -20h10q2 14 6 37.5t8 45.5l48 276h232l-121 -688h-213l-275 290q-17 18 -36.5 38.5t-30.5 33.5h-9q-2 -14 -6.5 -39.5t-9.5 -51.5l-47 -271h-232zM1337 -12q-153 0 -234.5 48.5t-81.5 155.5q0 14 2 30.5t7 44.5
h233q-4 -22 -5 -30.5t-1 -14.5q0 -34 21 -48.5t60 -14.5q53 0 82 24.5t39 82.5l74 422h248l-75 -423q-18 -102 -66.5 -163t-124.5 -87.5t-178 -26.5z" />
    <glyph glyph-name="uni01CB" unicode="&#x1cb;" horiz-adv-x="1349" 
d="M28 0l121 688h215l288 -303q5 -5 14 -15t19.5 -21t18.5 -20h10q2 14 6 37.5t8 45.5l48 276h232l-121 -688h-213l-275 290q-17 18 -36.5 38.5t-30.5 33.5h-9q-2 -14 -6.5 -39.5t-9.5 -51.5l-47 -271h-232zM1124 590l24 135h224l-24 -135h-224zM1000 -210q-22 0 -49 2
t-53 6.5t-46 9.5l22 123h59q38 0 60.5 20t27.5 51l93 526h224l-93 -529q-12 -69 -40.5 -115.5t-78 -70t-126.5 -23.5z" />
    <glyph glyph-name="uni01CC" unicode="&#x1cc;" horiz-adv-x="1130" 
d="M15 0l93 528h182v-86h9q31 35 68.5 56.5t78.5 31.5t81 10q73 0 121 -20t72 -58.5t24 -96.5q0 -14 -1.5 -29t-4.5 -32l-54 -304h-224l50 285q1 6 1.5 12t0.5 12q0 22 -8.5 39t-27 26.5t-47.5 9.5q-27 0 -51 -8.5t-43 -23.5t-31.5 -36t-16.5 -45l-48 -271h-224zM905 590
l24 135h224l-24 -135h-224zM781 -210q-22 0 -49 2t-53 6.5t-46 9.5l22 123h59q38 0 60.5 20t27.5 51l93 526h224l-93 -529q-12 -69 -40.5 -115.5t-78 -70t-126.5 -23.5z" />
    <glyph glyph-name="uni01CD" unicode="&#x1cd;" horiz-adv-x="954" 
d="M-38 0l453 688h272l212 -688h-260l-25 91h-337l-56 -91h-259zM382 262h187l-28 116q-2 8 -4.5 21.5t-5 30.5t-5.5 34t-5 31h-7q-9 -17 -21 -39t-23.5 -43t-19.5 -35zM822 897l-200 -145h-160l-148 145h151l110 -106h-70l146 106h171z" />
    <glyph glyph-name="uni01CE" unicode="&#x1ce;" horiz-adv-x="808" 
d="M282 -12q-73 0 -129.5 23.5t-89 72t-32.5 123.5q0 52 10 95t28 77q29 56 73 91.5t98 52.5t111 17q31 0 66 -6.5t67 -22t51 -41.5h9l39 58h194l-18 -106q-1 -4 -5.5 -30t-11.5 -63t-13.5 -74.5t-11 -64.5t-4.5 -33q0 -12 6.5 -20t19.5 -8h55l-22 -121q-18 -7 -52 -13.5
t-71 -6.5q-52 0 -82 12.5t-45 33.5q-7 10 -11 21t-6 23h-8q-48 -51 -104.5 -70.5t-110.5 -19.5zM365 144q33 0 58 9.5t42.5 25.5t28 37t14.5 45q1 8 1.5 13t1 9.5t0.5 8.5q0 26 -10.5 47t-33 33t-60.5 12q-43 0 -72.5 -15.5t-46 -40.5t-22.5 -55q-2 -13 -3.5 -20.5
t-1.5 -12.5v-9q0 -37 24.5 -62t79.5 -25zM730 725l-198 -145h-160l-149 145h156l97 -92h-35l124 92h165z" />
    <glyph glyph-name="uni01CF" unicode="&#x1cf;" horiz-adv-x="395" 
d="M28 0l121 688h247l-121 -688h-247zM554 897l-200 -145h-160l-148 145h151l110 -106h-70l146 106h171z" />
    <glyph glyph-name="uni01D0" unicode="&#x1d0;" horiz-adv-x="344" 
d="M15 0l92 528h224l-93 -528h-223zM504 725l-198 -145h-160l-149 145h156l97 -92h-35l124 92h165z" />
    <glyph glyph-name="uni01D1" unicode="&#x1d1;" horiz-adv-x="1008" 
d="M476 -12q-133 0 -227.5 35t-145 101t-50.5 159q0 79 25.5 146.5t71.5 118.5q45 50 107.5 83.5t139 51t164.5 17.5q133 0 227.5 -35.5t145 -101.5t50.5 -160q0 -80 -26.5 -148.5t-74.5 -119.5q-45 -48 -107 -81t-138 -49.5t-162 -16.5zM486 159q47 0 87 12.5t71.5 36
t51.5 55.5t26 70q2 13 3.5 22t2 15t1 10.5t0.5 8.5q0 42 -21 73.5t-61 49t-96 17.5q-47 0 -87 -12.5t-71 -35.5t-51 -54.5t-26 -69.5q-2 -13 -3.5 -22t-2 -15.5t-1 -10.5t-0.5 -8q0 -42 21 -74t60.5 -50t95.5 -18zM851 897l-200 -145h-160l-148 145h151l110 -106h-70
l146 106h171z" />
    <glyph glyph-name="uni01D2" unicode="&#x1d2;" horiz-adv-x="810" 
d="M376 -12q-104 0 -182 25t-120.5 76t-42.5 128q0 62 18.5 113.5t52.5 89.5q36 41 87 67.5t113 39.5t131 13q105 0 182.5 -25.5t120.5 -76.5t43 -129q0 -54 -14 -99t-40 -80q-35 -48 -88.5 -79.5t-120 -47t-140.5 -15.5zM381 129q48 0 81.5 17t53.5 45.5t25 62.5
q3 15 4 23.5t1 14v9.5q0 28 -12 50t-38 35t-68 13q-48 0 -82 -17t-53 -45.5t-25 -62.5q-2 -14 -3.5 -23t-2 -14.5t-0.5 -9.5q0 -28 12 -50t38.5 -35t68.5 -13zM727 725l-198 -145h-160l-149 145h156l97 -92h-35l124 92h165z" />
    <glyph glyph-name="uni01D3" unicode="&#x1d3;" horiz-adv-x="989" 
d="M466 -12q-196 0 -291.5 69t-95.5 200q0 20 2 40t6 42l62 349h247l-61 -346q-2 -13 -3 -24t-1 -22q0 -65 37.5 -100.5t107.5 -35.5q83 0 137 48t69 134l61 346h247l-65 -365q-20 -115 -76.5 -189.5t-151.5 -110t-231 -35.5zM853 897l-200 -145h-160l-148 145h151l110 -106
h-70l146 106h171z" />
    <glyph glyph-name="uni01D4" unicode="&#x1d4;" horiz-adv-x="788" 
d="M262 -12q-73 0 -121 20t-72 59t-24 96q0 14 1.5 29.5t4.5 31.5l54 304h224l-50 -285q-1 -6 -1.5 -12t-0.5 -12q0 -22 8.5 -39t27 -26.5t47.5 -9.5q27 0 51 8.5t43 23.5t31.5 36t16.5 45l48 271h224l-93 -528h-182v86h-9q-30 -35 -68 -56.5t-79 -31.5t-81 -10zM720 725
l-198 -145h-160l-149 145h156l97 -92h-35l124 92h165z" />
    <glyph glyph-name="uni01D5" unicode="&#x1d5;" horiz-adv-x="989" 
d="M466 -12q-196 0 -291.5 69t-95.5 200q0 20 2 40t6 42l62 349h247l-61 -346q-2 -13 -3 -24t-1 -22q0 -65 37.5 -100.5t107.5 -35.5q83 0 137 48t69 134l61 346h247l-65 -365q-20 -115 -76.5 -189.5t-151.5 -110t-231 -35.5zM348 735l26 150h190l-26 -150h-190zM622 735
l26 150h192l-26 -150h-192zM416 928l18 100h397l-18 -100h-397z" />
    <glyph glyph-name="uni01D6" unicode="&#x1d6;" horiz-adv-x="788" 
d="M262 -12q-73 0 -121 20t-72 59t-24 96q0 14 1.5 29.5t4.5 31.5l54 304h224l-50 -285q-1 -6 -1.5 -12t-0.5 -12q0 -22 8.5 -39t27 -26.5t47.5 -9.5q27 0 51 8.5t43 23.5t31.5 36t16.5 45l48 271h224l-93 -528h-182v86h-9q-30 -35 -68 -56.5t-79 -31.5t-81 -10zM212 575
l27 150h189l-27 -150h-189zM485 575l27 150h192l-27 -150h-192zM283 772l17 100h395l-17 -100h-395z" />
    <glyph glyph-name="uni01D7" unicode="&#x1d7;" horiz-adv-x="989" 
d="M466 -12q-196 0 -291.5 69t-95.5 200q0 20 2 40t6 42l62 349h247l-61 -346q-2 -13 -3 -24t-1 -22q0 -65 37.5 -100.5t107.5 -35.5q83 0 137 48t69 134l61 346h247l-65 -365q-20 -115 -76.5 -189.5t-151.5 -110t-231 -35.5zM348 735l26 150h190l-26 -150h-190zM622 735
l26 150h192l-26 -150h-192zM494 934l115 133h242l2 -4l-200 -129h-159z" />
    <glyph glyph-name="uni01D8" unicode="&#x1d8;" horiz-adv-x="788" 
d="M262 -12q-73 0 -121 20t-72 59t-24 96q0 14 1.5 29.5t4.5 31.5l54 304h224l-50 -285q-1 -6 -1.5 -12t-0.5 -12q0 -22 8.5 -39t27 -26.5t47.5 -9.5q27 0 51 8.5t43 23.5t31.5 36t16.5 45l48 271h224l-93 -528h-182v86h-9q-30 -35 -68 -56.5t-79 -31.5t-81 -10zM212 575
l27 150h189l-27 -150h-189zM485 575l27 150h192l-27 -150h-192zM340 764l115 133h241v-5l-177 -128h-179z" />
    <glyph glyph-name="uni01D9" unicode="&#x1d9;" horiz-adv-x="989" 
d="M466 -12q-196 0 -291.5 69t-95.5 200q0 20 2 40t6 42l62 349h247l-61 -346q-2 -13 -3 -24t-1 -22q0 -65 37.5 -100.5t107.5 -35.5q83 0 137 48t69 134l61 346h247l-65 -365q-20 -115 -76.5 -189.5t-151.5 -110t-231 -35.5zM348 735l26 150h190l-26 -150h-190zM622 735
l26 150h192l-26 -150h-192zM885 1079l-200 -145h-160l-148 145h151l110 -106h-70l146 106h171z" />
    <glyph glyph-name="uni01DA" unicode="&#x1da;" horiz-adv-x="788" 
d="M262 -12q-73 0 -121 20t-72 59t-24 96q0 14 1.5 29.5t4.5 31.5l54 304h224l-50 -285q-1 -6 -1.5 -12t-0.5 -12q0 -22 8.5 -39t27 -26.5t47.5 -9.5q27 0 51 8.5t43 23.5t31.5 36t16.5 45l48 271h224l-93 -528h-182v86h-9q-30 -35 -68 -56.5t-79 -31.5t-81 -10zM212 575
l27 150h189l-27 -150h-189zM485 575l27 150h192l-27 -150h-192zM752 897l-198 -145h-160l-149 145h156l97 -92h-35l124 92h165z" />
    <glyph glyph-name="uni01DB" unicode="&#x1db;" horiz-adv-x="989" 
d="M466 -12q-196 0 -291.5 69t-95.5 200q0 20 2 40t6 42l62 349h247l-61 -346q-2 -13 -3 -24t-1 -22q0 -65 37.5 -100.5t107.5 -35.5q83 0 137 48t69 134l61 346h247l-65 -365q-20 -115 -76.5 -189.5t-151.5 -110t-231 -35.5zM348 735l26 150h190l-26 -150h-190zM622 735
l26 150h192l-26 -150h-192zM602 934l-200 129l3 4h241l115 -133h-159z" />
    <glyph glyph-name="uni01DC" unicode="&#x1dc;" horiz-adv-x="788" 
d="M262 -12q-73 0 -121 20t-72 59t-24 96q0 14 1.5 29.5t4.5 31.5l54 304h224l-50 -285q-1 -6 -1.5 -12t-0.5 -12q0 -22 8.5 -39t27 -26.5t47.5 -9.5q27 0 51 8.5t43 23.5t31.5 36t16.5 45l48 271h224l-93 -528h-182v86h-9q-30 -35 -68 -56.5t-79 -31.5t-81 -10zM212 575
l27 150h189l-27 -150h-189zM485 575l27 150h192l-27 -150h-192zM416 764l-146 128v5h226l87 -133h-167z" />
    <glyph glyph-name="Gcaron" unicode="&#x1e6;" horiz-adv-x="1012" 
d="M436 -12q-192 0 -288.5 68t-96.5 206q0 89 25 161.5t71 125.5q45 51 108 84.5t143 50t173 16.5q86 0 159.5 -14t129.5 -42t87 -69.5t31 -97.5q0 -9 -1 -18.5t-3 -19.5h-240q0 2 0.5 5t0.5 5q0 19 -12.5 34t-35 25t-52 15.5t-63.5 5.5q-57 0 -101 -12t-76 -34t-51.5 -54
t-28.5 -73l-5 -25t-2.5 -17.5t-1 -13.5t-0.5 -11q0 -45 20.5 -73.5t62 -42.5t103.5 -14q51 0 96.5 9t75.5 27.5t34 44.5l1 4h-209l25 140h451l-68 -384h-140l-9 76q-42 -29 -90.5 -49t-103.5 -29.5t-119 -9.5zM867 897l-200 -145h-160l-148 145h151l110 -106h-70l146 106
h171z" />
    <glyph glyph-name="gcaron" unicode="&#x1e7;" horiz-adv-x="798" 
d="M318 -209q-117 0 -184.5 19t-96.5 51t-29 71q0 7 1 22t7 30h220q-1 -3 -1 -5.5v-4.5q0 -8 8.5 -17.5t29.5 -15.5t57 -6q53 0 84 16t46 39t19 44q3 15 5.5 29.5t5.5 29.5h-9q-27 -27 -64 -43.5t-74 -23.5t-66 -7q-70 0 -125 22.5t-86.5 69t-31.5 117.5q0 52 11.5 95.5
t31.5 77.5q44 72 119 105.5t157 33.5q62 0 117.5 -20.5t89.5 -73.5h9l31 82h182l-86 -490q-14 -82 -66 -137t-132 -82.5t-180 -27.5zM373 175q33 0 58 8t42.5 22.5t28 32.5t13.5 39q1 7 1.5 11.5t1 8t0.5 6.5q0 23 -11 41.5t-34.5 29t-62.5 10.5q-44 0 -73.5 -12.5t-46 -34
t-22.5 -48.5q-2 -12 -3.5 -17.5t-1.5 -9v-8.5q0 -22 11 -40t35.5 -28.5t63.5 -10.5zM717 725l-198 -145h-160l-149 145h156l97 -92h-35l124 92h165z" />
    <glyph glyph-name="uni01EA" unicode="&#x1ea;" horiz-adv-x="1008" 
d="M476 -12q-133 0 -227.5 35t-145 101t-50.5 159q0 79 25.5 146.5t71.5 118.5q45 50 107.5 83.5t139 51t164.5 17.5q133 0 227.5 -35.5t145 -101.5t50.5 -160q0 -80 -26.5 -148.5t-74.5 -119.5q-45 -48 -107 -81t-138 -49.5t-162 -16.5zM486 159q47 0 87 12.5t71.5 36
t51.5 55.5t26 70q2 13 3.5 22t2 15t1 10.5t0.5 8.5q0 42 -21 73.5t-61 49t-96 17.5q-47 0 -87 -12.5t-71 -35.5t-51 -54.5t-26 -69.5q-2 -13 -3.5 -22t-2 -15.5t-1 -10.5t-0.5 -8q0 -42 21 -74t60.5 -50t95.5 -18zM575 -211q-33 0 -62.5 10t-48 32t-18.5 58q0 29 12.5 51.5
t30 40t33.5 31.5h126l-1 -4q-21 -13 -36 -35.5t-15 -42.5q0 -17 12 -31.5t38 -14.5h82l-15 -80q-30 -7 -68 -11t-70 -4z" />
    <glyph glyph-name="uni01EB" unicode="&#x1eb;" horiz-adv-x="810" 
d="M376 -12q-104 0 -182 25t-120.5 76t-42.5 128q0 62 18.5 113.5t52.5 89.5q36 41 87 67.5t113 39.5t131 13q105 0 182.5 -25.5t120.5 -76.5t43 -129q0 -54 -14 -99t-40 -80q-35 -48 -88.5 -79.5t-120 -47t-140.5 -15.5zM381 129q48 0 81.5 17t53.5 45.5t25 62.5
q3 15 4 23.5t1 14v9.5q0 28 -12 50t-38 35t-68 13q-48 0 -82 -17t-53 -45.5t-25 -62.5q-2 -14 -3.5 -23t-2 -14.5t-0.5 -9.5q0 -28 12 -50t38.5 -35t68.5 -13zM462 -211q-33 0 -62.5 10t-48 32t-18.5 58q0 29 12.5 51.5t30 40t33.5 31.5h126l-1 -4q-21 -13 -36 -35.5
t-15 -42.5q0 -17 12 -31.5t38 -14.5h82l-15 -80q-30 -7 -68 -11t-70 -4z" />
    <glyph glyph-name="Aringacute" unicode="&#x1fa;" horiz-adv-x="954" 
d="M-38 0l453 688h272l212 -688h-260l-25 91h-337l-56 -91h-259zM382 262h187l-28 116q-2 8 -4.5 21.5t-5 30.5t-5.5 34t-5 31h-7q-9 -17 -21 -39t-23.5 -43t-19.5 -35zM552 734q-41 0 -67.5 25.5t-26.5 65.5q0 35 16 61.5t44 42t64 15.5q41 0 67.5 -25.5t26.5 -65.5
q0 -34 -16 -61t-44 -42.5t-64 -15.5zM561 799q14 0 25 6t17.5 17t6.5 24q0 14 -10.5 23.5t-27.5 9.5q-14 0 -25 -6t-17 -16.5t-6 -24.5t10.5 -23.5t26.5 -9.5zM469 974l115 133h242l2 -4l-200 -129h-159z" />
    <glyph glyph-name="aringacute" unicode="&#x1fb;" horiz-adv-x="808" 
d="M282 -12q-73 0 -129.5 23.5t-89 72t-32.5 123.5q0 52 10 95t28 77q29 56 73 91.5t98 52.5t111 17q31 0 66 -6.5t67 -22t51 -41.5h9l39 58h194l-18 -106q-1 -4 -5.5 -30t-11.5 -63t-13.5 -74.5t-11 -64.5t-4.5 -33q0 -12 6.5 -20t19.5 -8h55l-22 -121q-18 -7 -52 -13.5
t-71 -6.5q-52 0 -82 12.5t-45 33.5q-7 10 -11 21t-6 23h-8q-48 -51 -104.5 -70.5t-110.5 -19.5zM365 144q33 0 58 9.5t42.5 25.5t28 37t14.5 45q1 8 1.5 13t1 9.5t0.5 8.5q0 26 -10.5 47t-33 33t-60.5 12q-43 0 -72.5 -15.5t-46 -40.5t-22.5 -55q-2 -13 -3.5 -20.5
t-1.5 -12.5v-9q0 -37 24.5 -62t79.5 -25zM454 575q-41 0 -67.5 25.5t-26.5 64.5q0 56 35.5 91.5t90.5 35.5q41 0 68 -25t27 -64q0 -37 -16.5 -66t-45 -45.5t-65.5 -16.5zM464 640q15 0 26.5 6.5t18 18t6.5 26.5q0 16 -10.5 26t-27.5 10q-14 0 -25.5 -6.5t-18 -18t-6.5 -26.5
q0 -16 10.5 -26t26.5 -10zM359 826l115 133h241v-5l-177 -128h-179z" />
    <glyph glyph-name="AEacute" unicode="&#x1fc;" horiz-adv-x="1252" 
d="M-55 0l521 688h810l-30 -171h-483l13 -89h387l-28 -162h-335l13 -95h380l-30 -171h-566l-11 91h-316l-64 -91h-261zM390 262h176l-13 125q-1 11 -2 25t-1.5 30t-1 31t-0.5 27h-8q-6 -13 -16 -32.5t-22 -40.5t-25 -40zM628 752l115 133h242l2 -4l-200 -129h-159z" />
    <glyph glyph-name="aeacute" unicode="&#x1fd;" horiz-adv-x="1269" 
d="M272 -12q-58 0 -106.5 6t-84.5 20.5t-56 39.5t-20 63q0 59 25.5 98t71.5 61.5t109 33.5t138.5 14.5t159.5 3.5l2 10q1 4 1 7v7q0 32 -27.5 46.5t-74.5 14.5q-21 0 -47.5 -3t-47 -12.5t-24.5 -28.5l-1 -5h-228q0 5 0.5 9.5t1.5 8.5q8 46 54.5 81.5t126.5 56t186 20.5
q81 0 140 -14t95 -46q51 30 110.5 45t125.5 15q105 0 180.5 -23.5t116 -71.5t40.5 -124q0 -13 -2 -32t-10 -63h-505q-1 -5 -1 -9.5v-9.5q0 -31 14.5 -51.5t43 -30.5t70.5 -10q30 0 54.5 6t42 16.5t28 23.5t13.5 27h232q-8 -50 -42 -87.5t-87 -62.5t-118.5 -37.5
t-136.5 -12.5q-87 0 -156.5 17t-113.5 52q-37 -21 -81.5 -36.5t-97.5 -24t-114 -8.5zM311 114q15 0 41.5 3.5t55.5 12.5t51 24t26 39l6 33q-93 0 -150 -9t-83 -26t-26 -41q0 -15 11.5 -23t29.5 -10.5t38 -2.5zM741 328h264q1 3 1 6v6q0 20 -12.5 36.5t-36 26.5t-57.5 10
q-44 0 -76.5 -11.5t-53 -31t-29.5 -42.5zM555 592l115 133h241v-5l-177 -128h-179z" />
    <glyph glyph-name="Oslashacute" unicode="&#x1fe;" horiz-adv-x="1008" 
d="M476 -12q-133 0 -227.5 35t-145 101t-50.5 159q0 79 25.5 146.5t71.5 118.5q45 50 107.5 83.5t139 51t164.5 17.5q133 0 227.5 -35.5t145 -101.5t50.5 -160q0 -80 -26.5 -148.5t-74.5 -119.5q-45 -48 -107 -81t-138 -49.5t-162 -16.5zM486 159q47 0 87 12.5t71.5 36
t51.5 55.5t26 70q2 13 3.5 22t2 15t1 10.5t0.5 8.5q0 42 -21 73.5t-61 49t-96 17.5q-47 0 -87 -12.5t-71 -35.5t-51 -54.5t-26 -69.5q-2 -13 -3.5 -22t-2 -15.5t-1 -10.5t-0.5 -8q0 -42 21 -74t60.5 -50t95.5 -18zM20 -37l857 761h141l-856 -761h-142zM460 752l115 133h242
l2 -4l-200 -129h-159z" />
    <glyph glyph-name="oslashacute" unicode="&#x1ff;" horiz-adv-x="810" 
d="M376 -12q-104 0 -182 25t-120.5 76t-42.5 128q0 62 18.5 113.5t52.5 89.5q36 41 87 67.5t113 39.5t131 13q105 0 182.5 -25.5t120.5 -76.5t43 -129q0 -54 -14 -99t-40 -80q-35 -48 -88.5 -79.5t-120 -47t-140.5 -15.5zM381 129q48 0 81.5 17t53.5 45.5t25 62.5
q3 15 4 23.5t1 14v9.5q0 28 -12 50t-38 35t-68 13q-48 0 -82 -17t-53 -45.5t-25 -62.5q-2 -14 -3.5 -23t-2 -14.5t-0.5 -9.5q0 -28 12 -50t38.5 -35t68.5 -13zM-17 -38l728 604h116l-728 -604h-116zM315 592l115 133h241v-5l-177 -128h-179z" />
    <glyph glyph-name="uni0200" unicode="&#x200;" horiz-adv-x="954" 
d="M-38 0l453 688h272l212 -688h-260l-25 91h-337l-56 -91h-259zM382 262h187l-28 116q-2 8 -4.5 21.5t-5 30.5t-5.5 34t-5 31h-7q-9 -17 -21 -39t-23.5 -43t-19.5 -35zM379 752l-150 125l2 8h222l72 -133h-146zM643 752l-150 125l2 8h223l71 -133h-146z" />
    <glyph glyph-name="uni0201" unicode="&#x201;" horiz-adv-x="808" 
d="M282 -12q-73 0 -129.5 23.5t-89 72t-32.5 123.5q0 52 10 95t28 77q29 56 73 91.5t98 52.5t111 17q31 0 66 -6.5t67 -22t51 -41.5h9l39 58h194l-18 -106q-1 -4 -5.5 -30t-11.5 -63t-13.5 -74.5t-11 -64.5t-4.5 -33q0 -12 6.5 -20t19.5 -8h55l-22 -121q-18 -7 -52 -13.5
t-71 -6.5q-52 0 -82 12.5t-45 33.5q-7 10 -11 21t-6 23h-8q-48 -51 -104.5 -70.5t-110.5 -19.5zM365 144q33 0 58 9.5t42.5 25.5t28 37t14.5 45q1 8 1.5 13t1 9.5t0.5 8.5q0 26 -10.5 47t-33 33t-60.5 12q-43 0 -72.5 -15.5t-46 -40.5t-22.5 -55q-2 -13 -3.5 -20.5
t-1.5 -12.5v-9q0 -37 24.5 -62t79.5 -25zM558 592l-150 125l2 8h223l71 -133h-146zM294 592l-150 125l2 8h222l72 -133h-146z" />
    <glyph glyph-name="uni0202" unicode="&#x202;" horiz-adv-x="954" 
d="M-38 0l453 688h272l212 -688h-260l-25 91h-337l-56 -91h-259zM382 262h187l-28 116q-2 8 -4.5 21.5t-5 30.5t-5.5 34t-5 31h-7q-9 -17 -21 -39t-23.5 -43t-19.5 -35zM319 737q8 43 43 76.5t90.5 52.5t122.5 19q71 0 119 -22.5t70 -56.5t16 -69h-115q0 11 -13 22.5
t-36 19.5t-54 8q-27 0 -51.5 -6.5t-42 -17.5t-25.5 -26h-124z" />
    <glyph glyph-name="uni0203" unicode="&#x203;" horiz-adv-x="808" 
d="M282 -12q-73 0 -129.5 23.5t-89 72t-32.5 123.5q0 52 10 95t28 77q29 56 73 91.5t98 52.5t111 17q31 0 66 -6.5t67 -22t51 -41.5h9l39 58h194l-18 -106q-1 -4 -5.5 -30t-11.5 -63t-13.5 -74.5t-11 -64.5t-4.5 -33q0 -12 6.5 -20t19.5 -8h55l-22 -121q-18 -7 -52 -13.5
t-71 -6.5q-52 0 -82 12.5t-45 33.5q-7 10 -11 21t-6 23h-8q-48 -51 -104.5 -70.5t-110.5 -19.5zM365 144q33 0 58 9.5t42.5 25.5t28 37t14.5 45q1 8 1.5 13t1 9.5t0.5 8.5q0 26 -10.5 47t-33 33t-60.5 12q-43 0 -72.5 -15.5t-46 -40.5t-22.5 -55q-2 -13 -3.5 -20.5
t-1.5 -12.5v-9q0 -37 24.5 -62t79.5 -25zM478 727q70 0 117.5 -19.5t72 -49.5t24.5 -62q0 -4 -0.5 -8t-1.5 -9h-119q0 15 -16 26t-39 17.5t-46 6.5q-31 0 -57 -8t-42.5 -19.5t-21.5 -22.5h-119q6 35 39 69t87 56.5t122 22.5z" />
    <glyph glyph-name="uni0204" unicode="&#x204;" horiz-adv-x="860" 
d="M28 0l121 688h735l-30 -171h-487l-16 -89h420l-28 -162h-420l-17 -95h495l-30 -171h-743zM346 752l-150 125l2 8h222l72 -133h-146zM610 752l-150 125l2 8h223l71 -133h-146z" />
    <glyph glyph-name="uni0205" unicode="&#x205;" horiz-adv-x="811" 
d="M382 -12q-106 0 -185 24t-122.5 74.5t-43.5 128.5q0 65 20 117t56 91q37 40 88 65.5t113 38.5t131 13q107 0 183.5 -23.5t117.5 -71.5t41 -124q0 -13 -2 -34t-10 -61h-505q-1 -5 -1 -9.5v-9.5q0 -31 14.5 -51.5t43 -30.5t70.5 -10q30 0 54.5 6t42 16.5t28 23.5t13.5 27
h232q-8 -50 -41.5 -87.5t-85.5 -62.5t-116.5 -37.5t-135.5 -12.5zM283 328h264q1 3 1 6v6q0 20 -12.5 36.5t-36 26.5t-57.5 10q-44 0 -76.5 -11.5t-53 -31t-29.5 -42.5zM560 592l-150 125l2 8h223l71 -133h-146zM296 592l-150 125l2 8h222l72 -133h-146z" />
    <glyph glyph-name="uni0206" unicode="&#x206;" horiz-adv-x="860" 
d="M28 0l121 688h735l-30 -171h-487l-16 -89h420l-28 -162h-420l-17 -95h495l-30 -171h-743zM286 737q8 43 43 76.5t90.5 52.5t122.5 19q71 0 119 -22.5t70 -56.5t16 -69h-115q0 11 -13 22.5t-36 19.5t-54 8q-27 0 -51.5 -6.5t-42 -17.5t-25.5 -26h-124z" />
    <glyph glyph-name="uni0207" unicode="&#x207;" horiz-adv-x="811" 
d="M382 -12q-106 0 -185 24t-122.5 74.5t-43.5 128.5q0 65 20 117t56 91q37 40 88 65.5t113 38.5t131 13q107 0 183.5 -23.5t117.5 -71.5t41 -124q0 -13 -2 -34t-10 -61h-505q-1 -5 -1 -9.5v-9.5q0 -31 14.5 -51.5t43 -30.5t70.5 -10q30 0 54.5 6t42 16.5t28 23.5t13.5 27
h232q-8 -50 -41.5 -87.5t-85.5 -62.5t-116.5 -37.5t-135.5 -12.5zM283 328h264q1 3 1 6v6q0 20 -12.5 36.5t-36 26.5t-57.5 10q-44 0 -76.5 -11.5t-53 -31t-29.5 -42.5zM480 727q70 0 117.5 -19.5t72 -49.5t24.5 -62q0 -4 -0.5 -8t-1.5 -9h-119q0 15 -16 26t-39 17.5
t-46 6.5q-31 0 -57 -8t-42.5 -19.5t-21.5 -22.5h-119q6 35 39 69t87 56.5t122 22.5z" />
    <glyph glyph-name="uni0208" unicode="&#x208;" horiz-adv-x="395" 
d="M28 0l121 688h247l-121 -688h-247zM111 752l-150 125l2 8h222l72 -133h-146zM375 752l-150 125l2 8h223l71 -133h-146z" />
    <glyph glyph-name="uni0209" unicode="&#x209;" horiz-adv-x="344" 
d="M15 0l92 528h224l-93 -528h-223zM332 592l-150 125l2 8h223l71 -133h-146zM68 592l-150 125l2 8h222l72 -133h-146z" />
    <glyph glyph-name="uni020A" unicode="&#x20a;" horiz-adv-x="395" 
d="M28 0l121 688h247l-121 -688h-247zM51 737q8 43 43 76.5t90.5 52.5t122.5 19q71 0 119 -22.5t70 -56.5t16 -69h-115q0 11 -13 22.5t-36 19.5t-54 8q-27 0 -51.5 -6.5t-42 -17.5t-25.5 -26h-124z" />
    <glyph glyph-name="uni020B" unicode="&#x20b;" horiz-adv-x="344" 
d="M15 0l92 528h224l-93 -528h-223zM252 727q70 0 117.5 -19.5t72 -49.5t24.5 -62q0 -4 -0.5 -8t-1.5 -9h-119q0 15 -16 26t-39 17.5t-46 6.5q-31 0 -57 -8t-42.5 -19.5t-21.5 -22.5h-119q6 35 39 69t87 56.5t122 22.5z" />
    <glyph glyph-name="uni020C" unicode="&#x20c;" horiz-adv-x="1008" 
d="M476 -12q-133 0 -227.5 35t-145 101t-50.5 159q0 79 25.5 146.5t71.5 118.5q45 50 107.5 83.5t139 51t164.5 17.5q133 0 227.5 -35.5t145 -101.5t50.5 -160q0 -80 -26.5 -148.5t-74.5 -119.5q-45 -48 -107 -81t-138 -49.5t-162 -16.5zM486 159q47 0 87 12.5t71.5 36
t51.5 55.5t26 70q2 13 3.5 22t2 15t1 10.5t0.5 8.5q0 42 -21 73.5t-61 49t-96 17.5q-47 0 -87 -12.5t-71 -35.5t-51 -54.5t-26 -69.5q-2 -13 -3.5 -22t-2 -15.5t-1 -10.5t-0.5 -8q0 -42 21 -74t60.5 -50t95.5 -18zM408 752l-150 125l2 8h222l72 -133h-146zM672 752l-150 125
l2 8h223l71 -133h-146z" />
    <glyph glyph-name="uni020D" unicode="&#x20d;" horiz-adv-x="810" 
d="M376 -12q-104 0 -182 25t-120.5 76t-42.5 128q0 62 18.5 113.5t52.5 89.5q36 41 87 67.5t113 39.5t131 13q105 0 182.5 -25.5t120.5 -76.5t43 -129q0 -54 -14 -99t-40 -80q-35 -48 -88.5 -79.5t-120 -47t-140.5 -15.5zM381 129q48 0 81.5 17t53.5 45.5t25 62.5
q3 15 4 23.5t1 14v9.5q0 28 -12 50t-38 35t-68 13q-48 0 -82 -17t-53 -45.5t-25 -62.5q-2 -14 -3.5 -23t-2 -14.5t-0.5 -9.5q0 -28 12 -50t38.5 -35t68.5 -13zM555 592l-150 125l2 8h223l71 -133h-146zM291 592l-150 125l2 8h222l72 -133h-146z" />
    <glyph glyph-name="uni020E" unicode="&#x20e;" horiz-adv-x="1008" 
d="M476 -12q-133 0 -227.5 35t-145 101t-50.5 159q0 79 25.5 146.5t71.5 118.5q45 50 107.5 83.5t139 51t164.5 17.5q133 0 227.5 -35.5t145 -101.5t50.5 -160q0 -80 -26.5 -148.5t-74.5 -119.5q-45 -48 -107 -81t-138 -49.5t-162 -16.5zM486 159q47 0 87 12.5t71.5 36
t51.5 55.5t26 70q2 13 3.5 22t2 15t1 10.5t0.5 8.5q0 42 -21 73.5t-61 49t-96 17.5q-47 0 -87 -12.5t-71 -35.5t-51 -54.5t-26 -69.5q-2 -13 -3.5 -22t-2 -15.5t-1 -10.5t-0.5 -8q0 -42 21 -74t60.5 -50t95.5 -18zM348 737q8 43 43 76.5t90.5 52.5t122.5 19q71 0 119 -22.5
t70 -56.5t16 -69h-115q0 11 -13 22.5t-36 19.5t-54 8q-27 0 -51.5 -6.5t-42 -17.5t-25.5 -26h-124z" />
    <glyph glyph-name="uni020F" unicode="&#x20f;" horiz-adv-x="810" 
d="M376 -12q-104 0 -182 25t-120.5 76t-42.5 128q0 62 18.5 113.5t52.5 89.5q36 41 87 67.5t113 39.5t131 13q105 0 182.5 -25.5t120.5 -76.5t43 -129q0 -54 -14 -99t-40 -80q-35 -48 -88.5 -79.5t-120 -47t-140.5 -15.5zM381 129q48 0 81.5 17t53.5 45.5t25 62.5
q3 15 4 23.5t1 14v9.5q0 28 -12 50t-38 35t-68 13q-48 0 -82 -17t-53 -45.5t-25 -62.5q-2 -14 -3.5 -23t-2 -14.5t-0.5 -9.5q0 -28 12 -50t38.5 -35t68.5 -13zM475 727q70 0 117.5 -19.5t72 -49.5t24.5 -62q0 -4 -0.5 -8t-1.5 -9h-119q0 15 -16 26t-39 17.5t-46 6.5
q-31 0 -57 -8t-42.5 -19.5t-21.5 -22.5h-119q6 35 39 69t87 56.5t122 22.5z" />
    <glyph glyph-name="uni0210" unicode="&#x210;" horiz-adv-x="943" 
d="M28 0l121 688h576q74 0 121.5 -25.5t71 -68.5t23.5 -95q0 -56 -18 -105t-53 -86.5t-87 -59.5l89 -248h-268l-66 215h-225l-38 -215h-247zM343 386h262q20 0 38 9.5t29.5 27t11.5 42.5q0 26 -15.5 39t-40.5 13h-262zM368 752l-150 125l2 8h222l72 -133h-146zM632 752
l-150 125l2 8h223l71 -133h-146z" />
    <glyph glyph-name="uni0211" unicode="&#x211;" horiz-adv-x="515" 
d="M15 0l93 528h182v-86h9q24 35 53 57t60 32t60 10q25 0 45.5 -3t39.5 -10l-29 -166h-103q-31 0 -55.5 -9.5t-42.5 -26t-29.5 -39t-16.5 -49.5l-42 -238h-224zM418 592l-150 125l2 8h223l71 -133h-146zM154 592l-150 125l2 8h222l72 -133h-146z" />
    <glyph glyph-name="uni0212" unicode="&#x212;" horiz-adv-x="943" 
d="M28 0l121 688h576q74 0 121.5 -25.5t71 -68.5t23.5 -95q0 -56 -18 -105t-53 -86.5t-87 -59.5l89 -248h-268l-66 215h-225l-38 -215h-247zM343 386h262q20 0 38 9.5t29.5 27t11.5 42.5q0 26 -15.5 39t-40.5 13h-262zM308 737q8 43 43 76.5t90.5 52.5t122.5 19
q71 0 119 -22.5t70 -56.5t16 -69h-115q0 11 -13 22.5t-36 19.5t-54 8q-27 0 -51.5 -6.5t-42 -17.5t-25.5 -26h-124z" />
    <glyph glyph-name="uni0213" unicode="&#x213;" horiz-adv-x="515" 
d="M15 0l93 528h182v-86h9q24 35 53 57t60 32t60 10q25 0 45.5 -3t39.5 -10l-29 -166h-103q-31 0 -55.5 -9.5t-42.5 -26t-29.5 -39t-16.5 -49.5l-42 -238h-224zM338 727q70 0 117.5 -19.5t72 -49.5t24.5 -62q0 -4 -0.5 -8t-1.5 -9h-119q0 15 -16 26t-39 17.5t-46 6.5
q-31 0 -57 -8t-42.5 -19.5t-21.5 -22.5h-119q6 35 39 69t87 56.5t122 22.5z" />
    <glyph glyph-name="uni0214" unicode="&#x214;" horiz-adv-x="989" 
d="M466 -12q-196 0 -291.5 69t-95.5 200q0 20 2 40t6 42l62 349h247l-61 -346q-2 -13 -3 -24t-1 -22q0 -65 37.5 -100.5t107.5 -35.5q83 0 137 48t69 134l61 346h247l-65 -365q-20 -115 -76.5 -189.5t-151.5 -110t-231 -35.5zM410 752l-150 125l2 8h222l72 -133h-146z
M674 752l-150 125l2 8h223l71 -133h-146z" />
    <glyph glyph-name="uni0215" unicode="&#x215;" horiz-adv-x="788" 
d="M262 -12q-73 0 -121 20t-72 59t-24 96q0 14 1.5 29.5t4.5 31.5l54 304h224l-50 -285q-1 -6 -1.5 -12t-0.5 -12q0 -22 8.5 -39t27 -26.5t47.5 -9.5q27 0 51 8.5t43 23.5t31.5 36t16.5 45l48 271h224l-93 -528h-182v86h-9q-30 -35 -68 -56.5t-79 -31.5t-81 -10zM548 592
l-150 125l2 8h223l71 -133h-146zM284 592l-150 125l2 8h222l72 -133h-146z" />
    <glyph glyph-name="uni0216" unicode="&#x216;" horiz-adv-x="989" 
d="M466 -12q-196 0 -291.5 69t-95.5 200q0 20 2 40t6 42l62 349h247l-61 -346q-2 -13 -3 -24t-1 -22q0 -65 37.5 -100.5t107.5 -35.5q83 0 137 48t69 134l61 346h247l-65 -365q-20 -115 -76.5 -189.5t-151.5 -110t-231 -35.5zM350 737q8 43 43 76.5t90.5 52.5t122.5 19
q71 0 119 -22.5t70 -56.5t16 -69h-115q0 11 -13 22.5t-36 19.5t-54 8q-27 0 -51.5 -6.5t-42 -17.5t-25.5 -26h-124z" />
    <glyph glyph-name="uni0217" unicode="&#x217;" horiz-adv-x="788" 
d="M262 -12q-73 0 -121 20t-72 59t-24 96q0 14 1.5 29.5t4.5 31.5l54 304h224l-50 -285q-1 -6 -1.5 -12t-0.5 -12q0 -22 8.5 -39t27 -26.5t47.5 -9.5q27 0 51 8.5t43 23.5t31.5 36t16.5 45l48 271h224l-93 -528h-182v86h-9q-30 -35 -68 -56.5t-79 -31.5t-81 -10zM468 727
q70 0 117.5 -19.5t72 -49.5t24.5 -62q0 -4 -0.5 -8t-1.5 -9h-119q0 15 -16 26t-39 17.5t-46 6.5q-31 0 -57 -8t-42.5 -19.5t-21.5 -22.5h-119q6 35 39 69t87 56.5t122 22.5z" />
    <glyph glyph-name="uni0218" unicode="&#x218;" horiz-adv-x="882" 
d="M438 -12q-87 0 -161 9t-129.5 30t-86.5 58t-31 94q0 12 1.5 28t5.5 26h241q-3 -7 -4 -14t-1 -12q0 -25 18.5 -38.5t52 -18t77.5 -4.5q23 0 50 1.5t51.5 6t40 14.5t15.5 28q0 17 -23 26.5t-61.5 15t-86 11t-95.5 14.5q-43 8 -83 21.5t-72 34.5t-50.5 52.5t-18.5 76.5
q0 69 34 117t92 78t131.5 43.5t152.5 13.5q76 0 142.5 -10t116.5 -31t78.5 -55t28.5 -83q0 -8 -1 -18t-4 -27h-239q1 5 1 8.5v5.5q0 26 -27.5 43t-91.5 17q-52 0 -85.5 -7t-50 -18t-16.5 -24q0 -16 18.5 -25t50.5 -14.5t72.5 -10t83.5 -10.5q48 -7 95.5 -18.5t86 -31.5
t61.5 -52.5t23 -81.5q0 -72 -32.5 -123t-88.5 -83.5t-128.5 -47.5t-153.5 -15zM192 -440l16 93q57 4 94.5 31t44.5 69h-121l34 192h247l-30 -169q-11 -65 -47.5 -111.5t-96 -72.5t-141.5 -32z" />
    <glyph glyph-name="uni0219" unicode="&#x219;" horiz-adv-x="747" 
d="M336 -12q-59 0 -117 8.5t-105 26t-75.5 45.5t-28.5 67q0 8 1 15.5t5 17.5h231q-1 -4 -2 -7.5t-1 -7.5q0 -15 13 -25.5t35 -15.5t50 -5q14 0 35 1t41.5 5t34.5 12.5t14 23.5q0 13 -19 20t-50.5 10.5t-70 7t-78.5 9.5q-36 6 -69.5 15.5t-60.5 26t-42.5 41t-15.5 60.5
q0 59 29.5 98t79.5 61.5t112.5 32t128.5 9.5q56 0 110 -7.5t98 -23.5t70.5 -41.5t26.5 -61.5q0 -7 -1.5 -15.5t-3.5 -16.5h-229q1 7 1 9v3q0 12 -12 19.5t-30.5 11.5t-38.5 4q-9 0 -27 -0.5t-37.5 -4t-33 -11t-13.5 -21.5q0 -15 26 -21t68 -9t89 -8q41 -4 80.5 -12.5
t72 -24.5t52 -43t19.5 -68q0 -61 -30.5 -102t-82 -64.5t-116.5 -33.5t-133 -10zM166 -352l13 74q45 3 75 25t36 55h-97l27 154h198l-24 -135q-9 -52 -38.5 -89t-77 -58.5t-112.5 -25.5z" />
    <glyph glyph-name="uni021A" unicode="&#x21a;" horiz-adv-x="877" 
d="M269 0l88 499h-292l33 189h831l-33 -189h-292l-88 -499h-247zM197 -440l16 93q57 4 94.5 31t44.5 69h-121l34 192h247l-30 -169q-11 -65 -47.5 -111.5t-96 -72.5t-141.5 -32z" />
    <glyph glyph-name="uni021B" unicode="&#x21b;" horiz-adv-x="545" 
d="M320 -12q-64 0 -110.5 11.5t-71 40t-24.5 80.5q0 10 1 21t3 23l40 223h-105l25 141h114l72 160h172l-29 -160h151l-25 -141h-151l-31 -177q-1 -7 -2 -13.5t-1 -12.5q0 -27 17 -41t60 -14h63l-22 -122q-15 -5 -43 -9.5t-56 -7t-47 -2.5zM97 -352l13 74q45 3 75 25t36 55
h-97l27 154h198l-24 -135q-9 -52 -38.5 -89t-77 -58.5t-112.5 -25.5z" />
    <glyph glyph-name="uni022A" unicode="&#x22a;" horiz-adv-x="1008" 
d="M476 -12q-133 0 -227.5 35t-145 101t-50.5 159q0 79 25.5 146.5t71.5 118.5q45 50 107.5 83.5t139 51t164.5 17.5q133 0 227.5 -35.5t145 -101.5t50.5 -160q0 -80 -26.5 -148.5t-74.5 -119.5q-45 -48 -107 -81t-138 -49.5t-162 -16.5zM486 159q47 0 87 12.5t71.5 36
t51.5 55.5t26 70q2 13 3.5 22t2 15t1 10.5t0.5 8.5q0 42 -21 73.5t-61 49t-96 17.5q-47 0 -87 -12.5t-71 -35.5t-51 -54.5t-26 -69.5q-2 -13 -3.5 -22t-2 -15.5t-1 -10.5t-0.5 -8q0 -42 21 -74t60.5 -50t95.5 -18zM346 735l26 150h190l-26 -150h-190zM620 735l26 150h192
l-26 -150h-192zM414 928l18 100h397l-18 -100h-397z" />
    <glyph glyph-name="uni022B" unicode="&#x22b;" horiz-adv-x="810" 
d="M376 -12q-104 0 -182 25t-120.5 76t-42.5 128q0 62 18.5 113.5t52.5 89.5q36 41 87 67.5t113 39.5t131 13q105 0 182.5 -25.5t120.5 -76.5t43 -129q0 -54 -14 -99t-40 -80q-35 -48 -88.5 -79.5t-120 -47t-140.5 -15.5zM381 129q48 0 81.5 17t53.5 45.5t25 62.5
q3 15 4 23.5t1 14v9.5q0 28 -12 50t-38 35t-68 13q-48 0 -82 -17t-53 -45.5t-25 -62.5q-2 -14 -3.5 -23t-2 -14.5t-0.5 -9.5q0 -28 12 -50t38.5 -35t68.5 -13zM219 575l27 150h189l-27 -150h-189zM492 575l27 150h192l-27 -150h-192zM290 772l17 100h395l-17 -100h-395z" />
    <glyph glyph-name="uni022C" unicode="&#x22c;" horiz-adv-x="1008" 
d="M476 -12q-133 0 -227.5 35t-145 101t-50.5 159q0 79 25.5 146.5t71.5 118.5q45 50 107.5 83.5t139 51t164.5 17.5q133 0 227.5 -35.5t145 -101.5t50.5 -160q0 -80 -26.5 -148.5t-74.5 -119.5q-45 -48 -107 -81t-138 -49.5t-162 -16.5zM486 159q47 0 87 12.5t71.5 36
t51.5 55.5t26 70q2 13 3.5 22t2 15t1 10.5t0.5 8.5q0 42 -21 73.5t-61 49t-96 17.5q-47 0 -87 -12.5t-71 -35.5t-51 -54.5t-26 -69.5q-2 -13 -3.5 -22t-2 -15.5t-1 -10.5t-0.5 -8q0 -42 21 -74t60.5 -50t95.5 -18zM308 736q6 32 28.5 66.5t61 58.5t90.5 24q45 0 84.5 -10.5
t75 -21.5t68.5 -11q23 0 41 12t27 31h91q-5 -32 -27.5 -66.5t-60.5 -58.5t-91 -24q-45 0 -85 11t-75.5 21.5t-67.5 10.5q-23 0 -40.5 -12.5t-28.5 -30.5h-91zM414 928l18 100h397l-18 -100h-397z" />
    <glyph glyph-name="uni022D" unicode="&#x22d;" horiz-adv-x="810" 
d="M376 -12q-104 0 -182 25t-120.5 76t-42.5 128q0 62 18.5 113.5t52.5 89.5q36 41 87 67.5t113 39.5t131 13q105 0 182.5 -25.5t120.5 -76.5t43 -129q0 -54 -14 -99t-40 -80q-35 -48 -88.5 -79.5t-120 -47t-140.5 -15.5zM381 129q48 0 81.5 17t53.5 45.5t25 62.5
q3 15 4 23.5t1 14v9.5q0 28 -12 50t-38 35t-68 13q-48 0 -82 -17t-53 -45.5t-25 -62.5q-2 -14 -3.5 -23t-2 -14.5t-0.5 -9.5q0 -28 12 -50t38.5 -35t68.5 -13zM156 576q6 32 29 66.5t63.5 58.5t97.5 24q45 0 82 -10.5t69.5 -21.5t65.5 -11q23 0 41 12t28 31h91
q-6 -32 -28 -66.5t-61.5 -58.5t-100.5 -24q-45 0 -82.5 11t-70 21.5t-64.5 10.5q-23 0 -41 -12.5t-29 -30.5h-90zM286 762l17 100h395l-17 -100h-395z" />
    <glyph glyph-name="uni0230" unicode="&#x230;" horiz-adv-x="1008" 
d="M476 -12q-133 0 -227.5 35t-145 101t-50.5 159q0 79 25.5 146.5t71.5 118.5q45 50 107.5 83.5t139 51t164.5 17.5q133 0 227.5 -35.5t145 -101.5t50.5 -160q0 -80 -26.5 -148.5t-74.5 -119.5q-45 -48 -107 -81t-138 -49.5t-162 -16.5zM486 159q47 0 87 12.5t71.5 36
t51.5 55.5t26 70q2 13 3.5 22t2 15t1 10.5t0.5 8.5q0 42 -21 73.5t-61 49t-96 17.5q-47 0 -87 -12.5t-71 -35.5t-51 -54.5t-26 -69.5q-2 -13 -3.5 -22t-2 -15.5t-1 -10.5t-0.5 -8q0 -42 21 -74t60.5 -50t95.5 -18zM483 735l26 150h192l-26 -150h-192zM411 928l18 100h397
l-18 -100h-397z" />
    <glyph glyph-name="uni0231" unicode="&#x231;" horiz-adv-x="810" 
d="M376 -12q-104 0 -182 25t-120.5 76t-42.5 128q0 62 18.5 113.5t52.5 89.5q36 41 87 67.5t113 39.5t131 13q105 0 182.5 -25.5t120.5 -76.5t43 -129q0 -54 -14 -99t-40 -80q-35 -48 -88.5 -79.5t-120 -47t-140.5 -15.5zM381 129q48 0 81.5 17t53.5 45.5t25 62.5
q3 15 4 23.5t1 14v9.5q0 28 -12 50t-38 35t-68 13q-48 0 -82 -17t-53 -45.5t-25 -62.5q-2 -14 -3.5 -23t-2 -14.5t-0.5 -9.5q0 -28 12 -50t38.5 -35t68.5 -13zM354 575l26 145h191l-26 -145h-191zM288 772l17 100h395l-17 -100h-395z" />
    <glyph glyph-name="uni0232" unicode="&#x232;" horiz-adv-x="966" 
d="M314 0l48 271l-270 417h282l138 -232h7l220 232h285l-415 -417l-48 -271h-247zM370 746l18 100h397l-18 -100h-397z" />
    <glyph glyph-name="uni0233" unicode="&#x233;" horiz-adv-x="750" 
d="M84 -210q-39 0 -67.5 5.5t-49.5 12.5l20 123h95q37 0 61 9.5t39 25.5t26 34l-161 528h239l47 -233q3 -15 6.5 -37t7.5 -44t6 -39h10q7 13 16 29.5t18 33.5t17.5 32.5t14.5 26.5l127 231h241l-318 -484q-33 -50 -69 -95.5t-81 -81.5t-105 -56.5t-140 -20.5zM232 600
l17 100h395l-17 -100h-395z" />
    <glyph glyph-name="uni0237" unicode="&#x237;" horiz-adv-x="342" 
d="M-7 -210q-22 0 -49 2t-53 6.5t-46 9.5l22 123h59q38 0 60.5 20t27.5 51l93 526h224l-93 -529q-12 -69 -40.5 -115.5t-78 -70t-126.5 -23.5z" />
    <glyph glyph-name="uni0259" unicode="&#x259;" horiz-adv-x="811" 
d="M373 -12q-106 0 -183 23.5t-118 72t-41 123.5q0 14 2 34.5t10 60.5h505q1 5 1 10v9q0 31 -14.5 51.5t-42.5 30.5t-71 10q-30 0 -54.5 -6t-42 -16.5t-28 -23.5t-13.5 -27h-232q8 50 41.5 87.5t85.5 62.5t117 37.5t135 12.5q107 0 185.5 -24t122 -74t43.5 -129
q0 -64 -20 -116.5t-56 -91.5q-37 -39 -88 -65t-113 -39t-131 -13zM370 115q44 0 76.5 11.5t53 31t29.5 42.5h-264q-1 -3 -1 -6v-6q0 -20 12.5 -36.5t36 -26.5t57.5 -10z" />
    <glyph glyph-name="uni0272" unicode="&#x272;" horiz-adv-x="788" 
d="M-17 -210q-20 0 -45 2t-49 6.5t-43 9.5l21 123h59q38 0 61 19t28 50l93 528h182v-86h9q31 35 68.5 56.5t78.5 31.5t81 10q73 0 121 -20t72 -58.5t24 -96.5q0 -14 -1.5 -29t-4.5 -32l-54 -304h-224l50 285q1 6 1.5 12t0.5 12q0 22 -8.5 39t-27 26.5t-47.5 9.5
q-27 0 -51 -8.5t-43 -23.5t-31.5 -36t-16.5 -45l-48 -271q-9 -52 -28 -91.5t-49.5 -65.5t-74.5 -39.5t-104 -13.5z" />
    <glyph glyph-name="uni02B9" unicode="&#x2b9;" horiz-adv-x="287" 
d="M47 528l133 197h186l2 -4l-191 -193h-130z" />
    <glyph glyph-name="uni02BA" unicode="&#x2ba;" horiz-adv-x="523" 
d="M47 528l133 197h186l2 -4l-191 -193h-130zM283 528l133 197h186l2 -4l-191 -193h-130z" />
    <glyph glyph-name="uni02BC" unicode="&#x2bc;" horiz-adv-x="198" 
d="M48 537l13 73q50 0 76.5 17t33.5 54h-97l27 154h198l-24 -135q-9 -53 -38.5 -89.5t-76.5 -55t-112 -18.5z" />
    <glyph glyph-name="circumflex" unicode="&#x2c6;" horiz-adv-x="507" 
d="M56 580l198 145h160l149 -145h-156l-97 92h35l-124 -92h-165z" />
    <glyph glyph-name="caron" unicode="&#x2c7;" horiz-adv-x="507" 
d="M588 725l-198 -145h-160l-149 145h156l97 -92h-35l124 92h165z" />
    <glyph glyph-name="uni02C9" unicode="&#x2c9;" horiz-adv-x="649" 
d="M48 536l27 152h649l-27 -152h-649z" />
    <glyph glyph-name="breve" unicode="&#x2d8;" horiz-adv-x="460" 
d="M293 577q-69 0 -117 19.5t-72.5 49.5t-24.5 62q0 5 0.5 9t1.5 8h119q1 -14 16.5 -25.5t38.5 -18t46 -6.5q31 0 57 8t43 20t21 22h119q-6 -34 -39 -68.5t-87 -57t-122 -22.5z" />
    <glyph glyph-name="dotaccent" unicode="&#x2d9;" horiz-adv-x="192" 
d="M55 575l26 145h191l-26 -145h-191z" />
    <glyph glyph-name="ring" unicode="&#x2da;" horiz-adv-x="219" 
d="M167 573q-41 0 -67.5 25.5t-26.5 64.5q0 56 35.5 91.5t90.5 35.5q41 0 68 -25t27 -64q0 -37 -16.5 -66t-45 -45.5t-65.5 -16.5zM177 638q15 0 26.5 6.5t18 18t6.5 26.5q0 16 -10.5 26t-27.5 10q-14 0 -25.5 -6.5t-18 -18t-6.5 -26.5q0 -16 10.5 -26t26.5 -10z" />
    <glyph glyph-name="ogonek" unicode="&#x2db;" horiz-adv-x="285" 
d="M65 -211q-33 0 -62.5 10t-48 32t-18.5 58q0 29 12.5 51.5t30 40t33.5 31.5h126l-1 -4q-21 -13 -36 -35.5t-15 -42.5q0 -17 12 -31.5t38 -14.5h82l-15 -80q-30 -7 -68 -11t-70 -4z" />
    <glyph glyph-name="tilde" unicode="&#x2dc;" horiz-adv-x="541" 
d="M55 576q6 32 29 66.5t63.5 58.5t97.5 24q45 0 82 -10.5t69.5 -21.5t65.5 -11q23 0 41 12t28 31h91q-6 -32 -28 -66.5t-61.5 -58.5t-100.5 -24q-45 0 -82.5 11t-70 21.5t-64.5 10.5q-23 0 -41 -12.5t-29 -30.5h-90z" />
    <glyph glyph-name="hungarumlaut" unicode="&#x2dd;" horiz-adv-x="560" 
d="M58 592l95 134h223v-8l-172 -126h-146zM322 592l96 134h222v-8l-172 -126h-146z" />
    <glyph glyph-name="gravecomb" unicode="&#x300;" 
d="M227 592l-146 128v5h226l87 -133h-167z" />
    <glyph glyph-name="acutecomb" unicode="&#x301;" 
d="M58 592l115 133h241v-5l-177 -128h-179z" />
    <glyph glyph-name="uni0302" unicode="&#x302;" 
d="M56 580l198 145h160l149 -145h-156l-97 92h35l-124 -92h-165z" />
    <glyph glyph-name="tildecomb" unicode="&#x303;" 
d="M55 576q6 32 29 66.5t63.5 58.5t97.5 24q45 0 82 -10.5t69.5 -21.5t65.5 -11q23 0 41 12t28 31h91q-6 -32 -28 -66.5t-61.5 -58.5t-100.5 -24q-45 0 -82.5 11t-70 21.5t-64.5 10.5q-23 0 -41 -12.5t-29 -30.5h-90z" />
    <glyph glyph-name="uni0304" unicode="&#x304;" 
d="M60 600l17 100h395l-17 -100h-395z" />
    <glyph glyph-name="uni0306" unicode="&#x306;" 
d="M293 577q-69 0 -117 19.5t-72.5 49.5t-24.5 62q0 5 0.5 9t1.5 8h119q1 -14 16.5 -25.5t38.5 -18t46 -6.5q31 0 57 8t43 20t21 22h119q-6 -34 -39 -68.5t-87 -57t-122 -22.5z" />
    <glyph glyph-name="uni0307" unicode="&#x307;" 
d="M55 575l26 145h191l-26 -145h-191z" />
    <glyph glyph-name="uni0308" unicode="&#x308;" 
d="M55 575l27 150h189l-27 -150h-189zM328 575l27 150h192l-27 -150h-192z" />
    <glyph glyph-name="hookabovecomb" unicode="&#x309;" 
d="M124 591l9 53h4q17 0 27 2.5t10 16.5q0 9 -9 12t-28 3h-64l10 54q14 3 36.5 5t45 3t36.5 1q18 0 42.5 -3t49 -10.5t40.5 -20t16 -31.5q0 -22 -19.5 -34.5t-46.5 -18t-52 -7.5l-4 -25h-103z" />
    <glyph glyph-name="uni030A" unicode="&#x30a;" 
d="M167 573q-41 0 -67.5 25.5t-26.5 64.5q0 56 35.5 91.5t90.5 35.5q41 0 68 -25t27 -64q0 -37 -16.5 -66t-45 -45.5t-65.5 -16.5zM177 638q15 0 26.5 6.5t18 18t6.5 26.5q0 16 -10.5 26t-27.5 10q-14 0 -25.5 -6.5t-18 -18t-6.5 -26.5q0 -16 10.5 -26t26.5 -10z" />
    <glyph glyph-name="uni030B" unicode="&#x30b;" 
d="M58 592l95 134h223v-8l-172 -126h-146zM322 592l96 134h222v-8l-172 -126h-146z" />
    <glyph glyph-name="uni030C" unicode="&#x30c;" 
d="M588 725l-198 -145h-160l-149 145h156l97 -92h-35l124 92h165z" />
    <glyph glyph-name="uni030F" unicode="&#x30f;" 
d="M494 592l-150 125l2 8h223l71 -133h-146zM230 592l-150 125l2 8h222l72 -133h-146z" />
    <glyph glyph-name="uni0311" unicode="&#x311;" 
d="M303 725q70 0 117.5 -19.5t72 -49.5t24.5 -62q0 -4 -0.5 -8t-1.5 -9h-119q0 15 -16 26t-39 17.5t-46 6.5q-31 0 -57 -8t-42.5 -19.5t-21.5 -22.5h-119q6 35 39 69t87 56.5t122 22.5z" />
    <glyph glyph-name="uni0312" unicode="&#x312;" 
d="M372 975l-16 -93q-57 -4 -94 -31t-45 -69h121l-34 -192h-247l30 169q12 65 48 111.5t96 73t141 31.5z" />
    <glyph glyph-name="uni0313" unicode="&#x313;" 
d="M32 445l16 93q57 4 94.5 31t44.5 69h-121l34 192h247l-30 -169q-11 -65 -47.5 -111.5t-96 -72.5t-141.5 -32z" />
    <glyph glyph-name="uni031B" unicode="&#x31b;" 
d="M21 383l17 95q75 0 117 13.5t46 39.5h-88l28 157h229l-18 -99q-12 -67 -53.5 -113t-111.5 -69.5t-166 -23.5z" />
    <glyph glyph-name="dotbelowcomb" unicode="&#x323;" 
d="M-83 -205l26 145h191l-26 -145h-191z" />
    <glyph glyph-name="uni0324" unicode="&#x324;" 
d="M-83 -205l27 150h189l-27 -150h-189zM190 -205l27 150h192l-27 -150h-192z" />
    <glyph glyph-name="uni0326" unicode="&#x326;" 
d="M-124 -440l16 93q57 4 94.5 31t44.5 69h-121l34 192h247l-30 -169q-11 -65 -47.5 -111.5t-96 -72.5t-141.5 -32z" />
    <glyph glyph-name="uni0327" unicode="&#x327;" 
d="M78 -211q-43 0 -88.5 4.5t-70.5 11.5l10 57h134q20 0 34 3.5t14 25.5q0 11 -9 14t-29 3h-55l48 131h111l-28 -69q33 -4 61 -21t28 -58q0 -31 -16.5 -51t-41.5 -31t-52.5 -15.5t-49.5 -4.5z" />
    <glyph glyph-name="uni0328" unicode="&#x328;" 
d="M65 -211q-33 0 -62.5 10t-48 32t-18.5 58q0 29 12.5 51.5t30 40t33.5 31.5h126l-1 -4q-21 -13 -36 -35.5t-15 -42.5q0 -17 12 -31.5t38 -14.5h82l-15 -80q-30 -7 -68 -11t-70 -4z" />
    <glyph glyph-name="uni032E" unicode="&#x32e;" 
d="M156 -203q-69 0 -117 19.5t-72.5 49.5t-24.5 62q0 5 0.5 9t1.5 8h119q1 -14 16.5 -25.5t38.5 -18t46 -6.5q31 0 57 8t43 20t21 22h119q-6 -34 -39 -68.5t-87 -57t-122 -22.5z" />
    <glyph glyph-name="uni0331" unicode="&#x331;" 
d="M-74 -160l17 100h395l-17 -100h-395z" />
    <glyph glyph-name="uni0335" unicode="&#x335;" 
d="M8 308l22 125h544l-22 -125h-544z" />
    <glyph glyph-name="uni0336" unicode="&#x336;" 
d="M8 308l22 125h1039l-22 -125h-1039z" />
    <glyph glyph-name="uni0337" unicode="&#x337;" 
d="M3 185v98l456 226v-100z" />
    <glyph glyph-name="uni0338" unicode="&#x338;" 
d="M-54 -45l728 604h116l-728 -604h-116z" />
    <glyph glyph-name="uni0394" unicode="&#x394;" horiz-adv-x="971" 
d="M-11 0l426 688h290l187 -688h-903zM326 171h290q-3 12 -5.5 24t-5.5 24l-53 241q-2 11 -4.5 21t-4.5 20.5t-5 20.5h-10q-6 -10 -12 -20.5t-12 -20.5t-12 -21l-139 -241q-4 -8 -8.5 -16l-9 -16t-9.5 -16z" />
    <glyph glyph-name="uni03A9" unicode="&#x3a9;" horiz-adv-x="1032" 
d="M-14 0l30 171h38q22 -3 44.5 -6t44.5 -6l44 -6q-54 34 -82.5 84t-28.5 114q0 53 15.5 100t44.5 85q30 40 74.5 70.5t100.5 51.5t122 31.5t140 10.5q135 0 231.5 -31t147.5 -89.5t51 -141.5q0 -13 -1.5 -25.5t-3.5 -26.5q-13 -76 -62.5 -135.5t-127.5 -97.5l46 6l46 6
l46 6h39l-30 -171h-410l27 153q43 12 76.5 36.5t55 59t28.5 76.5q2 14 3.5 23t2 15.5t1 11.5t0.5 9q0 44 -20.5 76.5t-60 50.5t-95.5 18q-62 0 -112.5 -22t-83 -61.5t-41.5 -93.5q-2 -13 -3.5 -23t-2 -17.5t-1 -12.5t-0.5 -10q0 -33 12 -60t34.5 -46.5t55.5 -29.5l-27 -153
h-408z" />
    <glyph glyph-name="uni03BC" unicode="&#x3bc;" horiz-adv-x="789" 
d="M-18 -197l126 725h224l-50 -285q-1 -6 -1.5 -12t-0.5 -12q0 -22 8.5 -39t27 -26.5t46.5 -9.5q29 0 52.5 8t42 22.5t30.5 35.5t16 47l48 271h224l-93 -528h-182v86h-9q-27 -35 -59 -56.5t-65.5 -31.5t-67.5 -10q-19 0 -35.5 4t-30.5 12q0 -13 -3 -42.5t-10 -69.5l-15 -89
h-223z" />
    <glyph glyph-name="pi" unicode="&#x3c0;" horiz-adv-x="841" 
d="M38 0q21 37 43.5 87t43 104.5t35.5 105.5t22 90q-39 0 -69.5 -2.5t-55.5 -7.5l4 115q25 17 84 26.5t156 9.5h562l-41 -141h-101l-39 -222q-7 -43 -11 -77t-4 -59q0 -8 0.5 -15.5t1.5 -13.5h-217q-4 6 -6.5 17t-2.5 27q0 21 4 49.5t9 59.5l41 234h-91q-9 -43 -24.5 -97.5
t-35.5 -110.5t-42 -103t-43 -76h-223z" />
    <glyph glyph-name="uni1E24" unicode="&#x1e24;" horiz-adv-x="1009" 
d="M28 0l121 688h247l-43 -244h367l43 244h247l-121 -688h-247l45 255h-367l-45 -255h-247zM329 -205l26 145h191l-26 -145h-191z" />
    <glyph glyph-name="uni1E25" unicode="&#x1e25;" horiz-adv-x="788" 
d="M15 0l126 725h224l-45 -258h8q29 26 62 42t68 23.5t69 7.5q72 0 120 -19.5t72.5 -58.5t24.5 -96q0 -14 -1.5 -29.5t-4.5 -32.5l-54 -304h-224l50 285q1 6 1.5 12t0.5 11q0 23 -9 40t-27.5 26.5t-47.5 9.5q-27 0 -51 -8.5t-43 -23.5t-31.5 -36t-16.5 -45l-47 -271h-224z
M215 -205l26 145h191l-26 -145h-191z" />
    <glyph glyph-name="uni1E62" unicode="&#x1e62;" horiz-adv-x="882" 
d="M438 -12q-87 0 -161 9t-129.5 30t-86.5 58t-31 94q0 12 1.5 28t5.5 26h241q-3 -7 -4 -14t-1 -12q0 -25 18.5 -38.5t52 -18t77.5 -4.5q23 0 50 1.5t51.5 6t40 14.5t15.5 28q0 17 -23 26.5t-61.5 15t-86 11t-95.5 14.5q-43 8 -83 21.5t-72 34.5t-50.5 52.5t-18.5 76.5
q0 69 34 117t92 78t131.5 43.5t152.5 13.5q76 0 142.5 -10t116.5 -31t78.5 -55t28.5 -83q0 -8 -1 -18t-4 -27h-239q1 5 1 8.5v5.5q0 26 -27.5 43t-91.5 17q-52 0 -85.5 -7t-50 -18t-16.5 -24q0 -16 18.5 -25t50.5 -14.5t72.5 -10t83.5 -10.5q48 -7 95.5 -18.5t86 -31.5
t61.5 -52.5t23 -81.5q0 -72 -32.5 -123t-88.5 -83.5t-128.5 -47.5t-153.5 -15zM261 -205l26 145h191l-26 -145h-191z" />
    <glyph glyph-name="uni1E62" unicode="&#x1e63;" horiz-adv-x="882" 
d="M438 -12q-87 0 -161 9t-129.5 30t-86.5 58t-31 94q0 12 1.5 28t5.5 26h241q-3 -7 -4 -14t-1 -12q0 -25 18.5 -38.5t52 -18t77.5 -4.5q23 0 50 1.5t51.5 6t40 14.5t15.5 28q0 17 -23 26.5t-61.5 15t-86 11t-95.5 14.5q-43 8 -83 21.5t-72 34.5t-50.5 52.5t-18.5 76.5
q0 69 34 117t92 78t131.5 43.5t152.5 13.5q76 0 142.5 -10t116.5 -31t78.5 -55t28.5 -83q0 -8 -1 -18t-4 -27h-239q1 5 1 8.5v5.5q0 26 -27.5 43t-91.5 17q-52 0 -85.5 -7t-50 -18t-16.5 -24q0 -16 18.5 -25t50.5 -14.5t72.5 -10t83.5 -10.5q48 -7 95.5 -18.5t86 -31.5
t61.5 -52.5t23 -81.5q0 -72 -32.5 -123t-88.5 -83.5t-128.5 -47.5t-153.5 -15zM261 -205l26 145h191l-26 -145h-191z" />
    <glyph glyph-name="uni1E6C" unicode="&#x1e6c;" horiz-adv-x="877" 
d="M269 0l88 499h-292l33 189h831l-33 -189h-292l-88 -499h-247zM266 -205l26 145h191l-26 -145h-191z" />
    <glyph glyph-name="uni1E6D" unicode="&#x1e6d;" horiz-adv-x="545" 
d="M320 -12q-64 0 -110.5 11.5t-71 40t-24.5 80.5q0 10 1 21t3 23l40 223h-105l25 141h114l72 160h172l-29 -160h151l-25 -141h-151l-31 -177q-1 -7 -2 -13.5t-1 -12.5q0 -27 17 -41t60 -14h63l-22 -122q-15 -5 -43 -9.5t-56 -7t-47 -2.5zM126 -205l26 145h191l-26 -145
h-191z" />
    <glyph glyph-name="Wgrave" unicode="&#x1e80;" horiz-adv-x="1230" 
d="M161 0l-81 688h246l28 -305q2 -24 3.5 -47t2.5 -41.5t1 -29.5h7q5 15 12.5 36t16.5 42.5t16 39.5l132 305h301l23 -305q2 -18 3 -39.5t1.5 -42.5t0.5 -36h7q6 16 14 37t17 42.5t16 38.5l137 305h235l-323 -688h-284l-31 387q-1 17 -2.5 34t-2 31t-1.5 22h-7
q-4 -12 -11 -28t-13.5 -31.5t-11.5 -27.5l-168 -387h-284zM697 752l-200 129l3 4h241l115 -133h-159z" />
    <glyph glyph-name="wgrave" unicode="&#x1e81;" horiz-adv-x="1167" 
d="M200 0l-153 528h234l43 -225q3 -15 6 -33t5.5 -35t3.5 -29h9q6 14 14 31.5t16.5 35t14.5 30.5l114 225h256l31 -225q2 -13 3.5 -31t3 -35.5t2.5 -30.5h8q7 14 15.5 31.5t17.5 35t16 30.5l125 225h229l-339 -528h-227l-34 231q-3 19 -5.5 38t-4 35.5l-2.5 27.5h-8
q-4 -11 -12 -28t-17 -36.5t-18 -38.5l-113 -229h-234zM581 592l-146 128v5h226l87 -133h-167z" />
    <glyph glyph-name="Wacute" unicode="&#x1e82;" horiz-adv-x="1230" 
d="M161 0l-81 688h246l28 -305q2 -24 3.5 -47t2.5 -41.5t1 -29.5h7q5 15 12.5 36t16.5 42.5t16 39.5l132 305h301l23 -305q2 -18 3 -39.5t1.5 -42.5t0.5 -36h7q6 16 14 37t17 42.5t16 38.5l137 305h235l-323 -688h-284l-31 387q-1 17 -2.5 34t-2 31t-1.5 22h-7
q-4 -12 -11 -28t-13.5 -31.5t-11.5 -27.5l-168 -387h-284zM589 752l115 133h242l2 -4l-200 -129h-159z" />
    <glyph glyph-name="wacute" unicode="&#x1e83;" horiz-adv-x="1167" 
d="M200 0l-153 528h234l43 -225q3 -15 6 -33t5.5 -35t3.5 -29h9q6 14 14 31.5t16.5 35t14.5 30.5l114 225h256l31 -225q2 -13 3.5 -31t3 -35.5t2.5 -30.5h8q7 14 15.5 31.5t17.5 35t16 30.5l125 225h229l-339 -528h-227l-34 231q-3 19 -5.5 38t-4 35.5l-2.5 27.5h-8
q-4 -11 -12 -28t-17 -36.5t-18 -38.5l-113 -229h-234zM505 592l115 133h241v-5l-177 -128h-179z" />
    <glyph glyph-name="Wdieresis" unicode="&#x1e84;" horiz-adv-x="1230" 
d="M161 0l-81 688h246l28 -305q2 -24 3.5 -47t2.5 -41.5t1 -29.5h7q5 15 12.5 36t16.5 42.5t16 39.5l132 305h301l23 -305q2 -18 3 -39.5t1.5 -42.5t0.5 -36h7q6 16 14 37t17 42.5t16 38.5l137 305h235l-323 -688h-284l-31 387q-1 17 -2.5 34t-2 31t-1.5 22h-7
q-4 -12 -11 -28t-13.5 -31.5t-11.5 -27.5l-168 -387h-284zM475 735l26 150h190l-26 -150h-190zM749 735l26 150h192l-26 -150h-192z" />
    <glyph glyph-name="wdieresis" unicode="&#x1e85;" horiz-adv-x="1167" 
d="M200 0l-153 528h234l43 -225q3 -15 6 -33t5.5 -35t3.5 -29h9q6 14 14 31.5t16.5 35t14.5 30.5l114 225h256l31 -225q2 -13 3.5 -31t3 -35.5t2.5 -30.5h8q7 14 15.5 31.5t17.5 35t16 30.5l125 225h229l-339 -528h-227l-34 231q-3 19 -5.5 38t-4 35.5l-2.5 27.5h-8
q-4 -11 -12 -28t-17 -36.5t-18 -38.5l-113 -229h-234zM409 575l27 150h189l-27 -150h-189zM682 575l27 150h192l-27 -150h-192z" />
    <glyph glyph-name="uni1E9E" unicode="&#x1e9e;" horiz-adv-x="1054" 
d="M22 0l73 417q17 95 77.5 157.5t170 94t271.5 31.5q83 0 157 -10t131 -32t89.5 -56.5t32.5 -83.5q0 -46 -20.5 -79.5t-51.5 -54.5t-64 -30l-1 -9q56 -13 86 -47.5t30 -85.5q0 -59 -31 -107t-92 -76.5t-151 -28.5h-382l29 168h298q27 0 45 6t27 20t9 37q0 13 -7 21
t-20.5 12t-35.5 4h-298l25 143h257q27 0 47.5 8.5t32 24t11.5 36.5q0 34 -42.5 47t-140.5 13q-89 0 -140 -17t-74.5 -49.5t-31.5 -79.5l-69 -394h-247z" />
    <glyph glyph-name="uni1EA0" unicode="&#x1ea0;" horiz-adv-x="954" 
d="M-38 0l453 688h272l212 -688h-260l-25 91h-337l-56 -91h-259zM382 262h187l-28 116q-2 8 -4.5 21.5t-5 30.5t-5.5 34t-5 31h-7q-9 -17 -21 -39t-23.5 -43t-19.5 -35zM307 -205l26 145h191l-26 -145h-191z" />
    <glyph glyph-name="uni1EA1" unicode="&#x1ea1;" horiz-adv-x="808" 
d="M282 -12q-73 0 -129.5 23.5t-89 72t-32.5 123.5q0 52 10 95t28 77q29 56 73 91.5t98 52.5t111 17q31 0 66 -6.5t67 -22t51 -41.5h9l39 58h194l-18 -106q-1 -4 -5.5 -30t-11.5 -63t-13.5 -74.5t-11 -64.5t-4.5 -33q0 -12 6.5 -20t19.5 -8h55l-22 -121q-18 -7 -52 -13.5
t-71 -6.5q-52 0 -82 12.5t-45 33.5q-7 10 -11 21t-6 23h-8q-48 -51 -104.5 -70.5t-110.5 -19.5zM365 144q33 0 58 9.5t42.5 25.5t28 37t14.5 45q1 8 1.5 13t1 9.5t0.5 8.5q0 26 -10.5 47t-33 33t-60.5 12q-43 0 -72.5 -15.5t-46 -40.5t-22.5 -55q-2 -13 -3.5 -20.5
t-1.5 -12.5v-9q0 -37 24.5 -62t79.5 -25zM239 -205l26 145h191l-26 -145h-191z" />
    <glyph glyph-name="uni1EA2" unicode="&#x1ea2;" horiz-adv-x="954" 
d="M-38 0l453 688h272l212 -688h-260l-25 91h-337l-56 -91h-259zM382 262h187l-28 116q-2 8 -4.5 21.5t-5 30.5t-5.5 34t-5 31h-7q-9 -17 -21 -39t-23.5 -43t-19.5 -35zM490 748l9 53h4q18 0 28.5 3t10.5 17q0 8 -10 11t-28 3h-63l10 54q13 3 35 5t44.5 3t36.5 1
q18 0 42.5 -3t49 -10.5t40.5 -20t16 -31.5q0 -22 -19 -34.5t-46.5 -18t-52.5 -7.5l-4 -25h-103z" />
    <glyph glyph-name="uni1EA3" unicode="&#x1ea3;" horiz-adv-x="808" 
d="M282 -12q-73 0 -129.5 23.5t-89 72t-32.5 123.5q0 52 10 95t28 77q29 56 73 91.5t98 52.5t111 17q31 0 66 -6.5t67 -22t51 -41.5h9l39 58h194l-18 -106q-1 -4 -5.5 -30t-11.5 -63t-13.5 -74.5t-11 -64.5t-4.5 -33q0 -12 6.5 -20t19.5 -8h55l-22 -121q-18 -7 -52 -13.5
t-71 -6.5q-52 0 -82 12.5t-45 33.5q-7 10 -11 21t-6 23h-8q-48 -51 -104.5 -70.5t-110.5 -19.5zM365 144q33 0 58 9.5t42.5 25.5t28 37t14.5 45q1 8 1.5 13t1 9.5t0.5 8.5q0 26 -10.5 47t-33 33t-60.5 12q-43 0 -72.5 -15.5t-46 -40.5t-22.5 -55q-2 -13 -3.5 -20.5
t-1.5 -12.5v-9q0 -37 24.5 -62t79.5 -25zM379 591l9 53h4q17 0 27 2.5t10 16.5q0 9 -9 12t-28 3h-64l10 54q14 3 36.5 5t45 3t36.5 1q18 0 42.5 -3t49 -10.5t40.5 -20t16 -31.5q0 -22 -19.5 -34.5t-46.5 -18t-52 -7.5l-4 -25h-103z" />
    <glyph glyph-name="uni1EA4" unicode="&#x1ea4;" horiz-adv-x="954" 
d="M-38 0l453 688h272l212 -688h-260l-25 91h-337l-56 -91h-259zM382 262h187l-28 116q-2 8 -4.5 21.5t-5 30.5t-5.5 34t-5 31h-7q-9 -17 -21 -39t-23.5 -43t-19.5 -35zM286 740l200 145h160l148 -145h-151l-110 106h70l-146 -106h-171zM454 914l115 133h242l2 -4l-200 -129
h-159z" />
    <glyph glyph-name="uni1EA5" unicode="&#x1ea5;" horiz-adv-x="808" 
d="M282 -12q-73 0 -129.5 23.5t-89 72t-32.5 123.5q0 52 10 95t28 77q29 56 73 91.5t98 52.5t111 17q31 0 66 -6.5t67 -22t51 -41.5h9l39 58h194l-18 -106q-1 -4 -5.5 -30t-11.5 -63t-13.5 -74.5t-11 -64.5t-4.5 -33q0 -12 6.5 -20t19.5 -8h55l-22 -121q-18 -7 -52 -13.5
t-71 -6.5q-52 0 -82 12.5t-45 33.5q-7 10 -11 21t-6 23h-8q-48 -51 -104.5 -70.5t-110.5 -19.5zM365 144q33 0 58 9.5t42.5 25.5t28 37t14.5 45q1 8 1.5 13t1 9.5t0.5 8.5q0 26 -10.5 47t-33 33t-60.5 12q-43 0 -72.5 -15.5t-46 -40.5t-22.5 -55q-2 -13 -3.5 -20.5
t-1.5 -12.5v-9q0 -37 24.5 -62t79.5 -25zM193 580l198 145h160l149 -145h-156l-97 92h35l-124 -92h-165zM347 774l115 133h241v-5l-177 -128h-179z" />
    <glyph glyph-name="uni1EA6" unicode="&#x1ea6;" horiz-adv-x="954" 
d="M-38 0l453 688h272l212 -688h-260l-25 91h-337l-56 -91h-259zM382 262h187l-28 116q-2 8 -4.5 21.5t-5 30.5t-5.5 34t-5 31h-7q-9 -17 -21 -39t-23.5 -43t-19.5 -35zM286 740l200 145h160l148 -145h-151l-110 106h70l-146 -106h-171zM562 914l-200 129l3 4h241l115 -133
h-159z" />
    <glyph glyph-name="uni1EA7" unicode="&#x1ea7;" horiz-adv-x="808" 
d="M282 -12q-73 0 -129.5 23.5t-89 72t-32.5 123.5q0 52 10 95t28 77q29 56 73 91.5t98 52.5t111 17q31 0 66 -6.5t67 -22t51 -41.5h9l39 58h194l-18 -106q-1 -4 -5.5 -30t-11.5 -63t-13.5 -74.5t-11 -64.5t-4.5 -33q0 -12 6.5 -20t19.5 -8h55l-22 -121q-18 -7 -52 -13.5
t-71 -6.5q-52 0 -82 12.5t-45 33.5q-7 10 -11 21t-6 23h-8q-48 -51 -104.5 -70.5t-110.5 -19.5zM365 144q33 0 58 9.5t42.5 25.5t28 37t14.5 45q1 8 1.5 13t1 9.5t0.5 8.5q0 26 -10.5 47t-33 33t-60.5 12q-43 0 -72.5 -15.5t-46 -40.5t-22.5 -55q-2 -13 -3.5 -20.5
t-1.5 -12.5v-9q0 -37 24.5 -62t79.5 -25zM193 580l198 145h160l149 -145h-156l-97 92h35l-124 -92h-165zM423 774l-146 128v5h226l87 -133h-167z" />
    <glyph glyph-name="uni1EA8" unicode="&#x1ea8;" horiz-adv-x="954" 
d="M-38 0l453 688h272l212 -688h-260l-25 91h-337l-56 -91h-259zM382 262h187l-28 116q-2 8 -4.5 21.5t-5 30.5t-5.5 34t-5 31h-7q-9 -17 -21 -39t-23.5 -43t-19.5 -35zM286 740l200 145h160l148 -145h-151l-110 106h70l-146 -106h-171zM513 910l9 53h4q18 0 28.5 3t10.5 17
q0 8 -10 11t-28 3h-63l10 54q13 3 35 5t44.5 3t36.5 1q18 0 42.5 -3t49 -10.5t40.5 -20t16 -31.5q0 -22 -19 -34.5t-46.5 -18t-52.5 -7.5l-4 -25h-103z" />
    <glyph glyph-name="uni1EA9" unicode="&#x1ea9;" horiz-adv-x="808" 
d="M282 -12q-73 0 -129.5 23.5t-89 72t-32.5 123.5q0 52 10 95t28 77q29 56 73 91.5t98 52.5t111 17q31 0 66 -6.5t67 -22t51 -41.5h9l39 58h194l-18 -106q-1 -4 -5.5 -30t-11.5 -63t-13.5 -74.5t-11 -64.5t-4.5 -33q0 -12 6.5 -20t19.5 -8h55l-22 -121q-18 -7 -52 -13.5
t-71 -6.5q-52 0 -82 12.5t-45 33.5q-7 10 -11 21t-6 23h-8q-48 -51 -104.5 -70.5t-110.5 -19.5zM365 144q33 0 58 9.5t42.5 25.5t28 37t14.5 45q1 8 1.5 13t1 9.5t0.5 8.5q0 26 -10.5 47t-33 33t-60.5 12q-43 0 -72.5 -15.5t-46 -40.5t-22.5 -55q-2 -13 -3.5 -20.5
t-1.5 -12.5v-9q0 -37 24.5 -62t79.5 -25zM193 580l198 145h160l149 -145h-156l-97 92h35l-124 -92h-165zM408 773l9 53h4q17 0 27 2.5t10 16.5q0 9 -9 12t-28 3h-64l10 54q14 3 36.5 5t45 3t36.5 1q18 0 42.5 -3t49 -10.5t40.5 -20t16 -31.5q0 -22 -19.5 -34.5t-46.5 -18
t-52 -7.5l-4 -25h-103z" />
    <glyph glyph-name="uni1EAA" unicode="&#x1eaa;" horiz-adv-x="954" 
d="M-38 0l453 688h272l212 -688h-260l-25 91h-337l-56 -91h-259zM382 262h187l-28 116q-2 8 -4.5 21.5t-5 30.5t-5.5 34t-5 31h-7q-9 -17 -21 -39t-23.5 -43t-19.5 -35zM286 740l200 145h160l148 -145h-151l-110 106h70l-146 -106h-171zM302 898q6 32 28.5 66.5t61 58.5
t90.5 24q45 0 84.5 -11t75 -21.5t68.5 -10.5q23 0 41 12t27 31h91q-5 -32 -27.5 -66.5t-60.5 -58.5t-91 -24q-45 0 -85 11t-75.5 21.5t-67.5 10.5q-23 0 -40.5 -12.5t-28.5 -30.5h-91z" />
    <glyph glyph-name="uni1EAB" unicode="&#x1eab;" horiz-adv-x="808" 
d="M282 -12q-73 0 -129.5 23.5t-89 72t-32.5 123.5q0 52 10 95t28 77q29 56 73 91.5t98 52.5t111 17q31 0 66 -6.5t67 -22t51 -41.5h9l39 58h194l-18 -106q-1 -4 -5.5 -30t-11.5 -63t-13.5 -74.5t-11 -64.5t-4.5 -33q0 -12 6.5 -20t19.5 -8h55l-22 -121q-18 -7 -52 -13.5
t-71 -6.5q-52 0 -82 12.5t-45 33.5q-7 10 -11 21t-6 23h-8q-48 -51 -104.5 -70.5t-110.5 -19.5zM365 144q33 0 58 9.5t42.5 25.5t28 37t14.5 45q1 8 1.5 13t1 9.5t0.5 8.5q0 26 -10.5 47t-33 33t-60.5 12q-43 0 -72.5 -15.5t-46 -40.5t-22.5 -55q-2 -13 -3.5 -20.5
t-1.5 -12.5v-9q0 -37 24.5 -62t79.5 -25zM193 580l198 145h160l149 -145h-156l-97 92h35l-124 -92h-165zM188 758q6 32 29 66.5t63.5 58.5t97.5 24q45 0 82 -10.5t69.5 -21.5t65.5 -11q23 0 41 12t28 31h91q-6 -32 -28 -66.5t-61.5 -58.5t-100.5 -24q-45 0 -82.5 11
t-70 21.5t-64.5 10.5q-23 0 -41 -12.5t-29 -30.5h-90z" />
    <glyph glyph-name="uni1EAC" unicode="&#x1eac;" horiz-adv-x="954" 
d="M-38 0l453 688h272l212 -688h-260l-25 91h-337l-56 -91h-259zM382 262h187l-28 116q-2 8 -4.5 21.5t-5 30.5t-5.5 34t-5 31h-7q-9 -17 -21 -39t-23.5 -43t-19.5 -35zM307 -205l26 145h191l-26 -145h-191zM286 740l200 145h160l148 -145h-151l-110 106h70l-146 -106h-171z
" />
    <glyph glyph-name="uni1EAD" unicode="&#x1ead;" horiz-adv-x="808" 
d="M282 -12q-73 0 -129.5 23.5t-89 72t-32.5 123.5q0 52 10 95t28 77q29 56 73 91.5t98 52.5t111 17q31 0 66 -6.5t67 -22t51 -41.5h9l39 58h194l-18 -106q-1 -4 -5.5 -30t-11.5 -63t-13.5 -74.5t-11 -64.5t-4.5 -33q0 -12 6.5 -20t19.5 -8h55l-22 -121q-18 -7 -52 -13.5
t-71 -6.5q-52 0 -82 12.5t-45 33.5q-7 10 -11 21t-6 23h-8q-48 -51 -104.5 -70.5t-110.5 -19.5zM365 144q33 0 58 9.5t42.5 25.5t28 37t14.5 45q1 8 1.5 13t1 9.5t0.5 8.5q0 26 -10.5 47t-33 33t-60.5 12q-43 0 -72.5 -15.5t-46 -40.5t-22.5 -55q-2 -13 -3.5 -20.5
t-1.5 -12.5v-9q0 -37 24.5 -62t79.5 -25zM239 -205l26 145h191l-26 -145h-191zM193 580l198 145h160l149 -145h-156l-97 92h35l-124 -92h-165z" />
    <glyph glyph-name="uni1EAE" unicode="&#x1eae;" horiz-adv-x="954" 
d="M-38 0l453 688h272l212 -688h-260l-25 91h-337l-56 -91h-259zM382 262h187l-28 116q-2 8 -4.5 21.5t-5 30.5t-5.5 34t-5 31h-7q-9 -17 -21 -39t-23.5 -43t-19.5 -35zM550 737q-67 0 -112.5 19.5t-69 50.5t-23.5 63v7.5t1 7.5h118q0 -5 2.5 -9.5t6.5 -9.5q9 -9 24 -16
t33 -11t35 -4q31 0 57 8t43 20t21 22h121q-6 -34 -40 -68.5t-90 -57t-127 -22.5zM460 914l115 133h242l2 -4l-200 -129h-159z" />
    <glyph glyph-name="uni1EAF" unicode="&#x1eaf;" horiz-adv-x="808" 
d="M282 -12q-73 0 -129.5 23.5t-89 72t-32.5 123.5q0 52 10 95t28 77q29 56 73 91.5t98 52.5t111 17q31 0 66 -6.5t67 -22t51 -41.5h9l39 58h194l-18 -106q-1 -4 -5.5 -30t-11.5 -63t-13.5 -74.5t-11 -64.5t-4.5 -33q0 -12 6.5 -20t19.5 -8h55l-22 -121q-18 -7 -52 -13.5
t-71 -6.5q-52 0 -82 12.5t-45 33.5q-7 10 -11 21t-6 23h-8q-48 -51 -104.5 -70.5t-110.5 -19.5zM365 144q33 0 58 9.5t42.5 25.5t28 37t14.5 45q1 8 1.5 13t1 9.5t0.5 8.5q0 26 -10.5 47t-33 33t-60.5 12q-43 0 -72.5 -15.5t-46 -40.5t-22.5 -55q-2 -13 -3.5 -20.5
t-1.5 -12.5v-9q0 -37 24.5 -62t79.5 -25zM453 577q-69 0 -117 19.5t-72.5 49.5t-24.5 62q0 5 0.5 9t1.5 8h119q1 -14 16.5 -25.5t38.5 -18t46 -6.5q31 0 57 8t43 20t21 22h119q-6 -34 -39 -68.5t-87 -57t-122 -22.5zM350 774l115 133h241v-5l-177 -128h-179z" />
    <glyph glyph-name="uni1EB0" unicode="&#x1eb0;" horiz-adv-x="954" 
d="M-38 0l453 688h272l212 -688h-260l-25 91h-337l-56 -91h-259zM382 262h187l-28 116q-2 8 -4.5 21.5t-5 30.5t-5.5 34t-5 31h-7q-9 -17 -21 -39t-23.5 -43t-19.5 -35zM550 737q-67 0 -112.5 19.5t-69 50.5t-23.5 63v7.5t1 7.5h118q0 -5 2.5 -9.5t6.5 -9.5q9 -9 24 -16
t33 -11t35 -4q31 0 57 8t43 20t21 22h121q-6 -34 -40 -68.5t-90 -57t-127 -22.5zM568 914l-200 129l3 4h241l115 -133h-159z" />
    <glyph glyph-name="uni1EB1" unicode="&#x1eb1;" horiz-adv-x="808" 
d="M282 -12q-73 0 -129.5 23.5t-89 72t-32.5 123.5q0 52 10 95t28 77q29 56 73 91.5t98 52.5t111 17q31 0 66 -6.5t67 -22t51 -41.5h9l39 58h194l-18 -106q-1 -4 -5.5 -30t-11.5 -63t-13.5 -74.5t-11 -64.5t-4.5 -33q0 -12 6.5 -20t19.5 -8h55l-22 -121q-18 -7 -52 -13.5
t-71 -6.5q-52 0 -82 12.5t-45 33.5q-7 10 -11 21t-6 23h-8q-48 -51 -104.5 -70.5t-110.5 -19.5zM365 144q33 0 58 9.5t42.5 25.5t28 37t14.5 45q1 8 1.5 13t1 9.5t0.5 8.5q0 26 -10.5 47t-33 33t-60.5 12q-43 0 -72.5 -15.5t-46 -40.5t-22.5 -55q-2 -13 -3.5 -20.5
t-1.5 -12.5v-9q0 -37 24.5 -62t79.5 -25zM453 577q-69 0 -117 19.5t-72.5 49.5t-24.5 62q0 5 0.5 9t1.5 8h119q1 -14 16.5 -25.5t38.5 -18t46 -6.5q31 0 57 8t43 20t21 22h119q-6 -34 -39 -68.5t-87 -57t-122 -22.5zM426 774l-146 128v5h226l87 -133h-167z" />
    <glyph glyph-name="uni1EB2" unicode="&#x1eb2;" horiz-adv-x="954" 
d="M-38 0l453 688h272l212 -688h-260l-25 91h-337l-56 -91h-259zM382 262h187l-28 116q-2 8 -4.5 21.5t-5 30.5t-5.5 34t-5 31h-7q-9 -17 -21 -39t-23.5 -43t-19.5 -35zM550 737q-67 0 -112.5 19.5t-69 50.5t-23.5 63v7.5t1 7.5h118q0 -5 2.5 -9.5t6.5 -9.5q9 -9 24 -16
t33 -11t35 -4q31 0 57 8t43 20t21 22h121q-6 -34 -40 -68.5t-90 -57t-127 -22.5zM519 910l9 53h4q18 0 28.5 3t10.5 17q0 8 -10 11t-28 3h-63l10 54q13 3 35 5t44.5 3t36.5 1q18 0 42.5 -3t49 -10.5t40.5 -20t16 -31.5q0 -22 -19 -34.5t-46.5 -18t-52.5 -7.5l-4 -25h-103z
" />
    <glyph glyph-name="uni1EB3" unicode="&#x1eb3;" horiz-adv-x="808" 
d="M282 -12q-73 0 -129.5 23.5t-89 72t-32.5 123.5q0 52 10 95t28 77q29 56 73 91.5t98 52.5t111 17q31 0 66 -6.5t67 -22t51 -41.5h9l39 58h194l-18 -106q-1 -4 -5.5 -30t-11.5 -63t-13.5 -74.5t-11 -64.5t-4.5 -33q0 -12 6.5 -20t19.5 -8h55l-22 -121q-18 -7 -52 -13.5
t-71 -6.5q-52 0 -82 12.5t-45 33.5q-7 10 -11 21t-6 23h-8q-48 -51 -104.5 -70.5t-110.5 -19.5zM365 144q33 0 58 9.5t42.5 25.5t28 37t14.5 45q1 8 1.5 13t1 9.5t0.5 8.5q0 26 -10.5 47t-33 33t-60.5 12q-43 0 -72.5 -15.5t-46 -40.5t-22.5 -55q-2 -13 -3.5 -20.5
t-1.5 -12.5v-9q0 -37 24.5 -62t79.5 -25zM453 577q-69 0 -117 19.5t-72.5 49.5t-24.5 62q0 5 0.5 9t1.5 8h119q1 -14 16.5 -25.5t38.5 -18t46 -6.5q31 0 57 8t43 20t21 22h119q-6 -34 -39 -68.5t-87 -57t-122 -22.5zM411 773l9 53h4q17 0 27 2.5t10 16.5q0 9 -9 12t-28 3
h-64l10 54q14 3 36.5 5t45 3t36.5 1q18 0 42.5 -3t49 -10.5t40.5 -20t16 -31.5q0 -22 -19.5 -34.5t-46.5 -18t-52 -7.5l-4 -25h-103z" />
    <glyph glyph-name="uni1EB4" unicode="&#x1eb4;" horiz-adv-x="954" 
d="M-38 0l453 688h272l212 -688h-260l-25 91h-337l-56 -91h-259zM382 262h187l-28 116q-2 8 -4.5 21.5t-5 30.5t-5.5 34t-5 31h-7q-9 -17 -21 -39t-23.5 -43t-19.5 -35zM550 737q-67 0 -112.5 19.5t-69 50.5t-23.5 63v7.5t1 7.5h118q0 -5 2.5 -9.5t6.5 -9.5q9 -9 24 -16
t33 -11t35 -4q31 0 57 8t43 20t21 22h121q-6 -34 -40 -68.5t-90 -57t-127 -22.5zM308 898q6 32 28.5 66.5t61 58.5t90.5 24q45 0 84.5 -11t75 -21.5t68.5 -10.5q23 0 41 12t27 31h91q-5 -32 -27.5 -66.5t-60.5 -58.5t-91 -24q-45 0 -85 11t-75.5 21.5t-67.5 10.5
q-23 0 -40.5 -12.5t-28.5 -30.5h-91z" />
    <glyph glyph-name="uni1EB5" unicode="&#x1eb5;" horiz-adv-x="808" 
d="M282 -12q-73 0 -129.5 23.5t-89 72t-32.5 123.5q0 52 10 95t28 77q29 56 73 91.5t98 52.5t111 17q31 0 66 -6.5t67 -22t51 -41.5h9l39 58h194l-18 -106q-1 -4 -5.5 -30t-11.5 -63t-13.5 -74.5t-11 -64.5t-4.5 -33q0 -12 6.5 -20t19.5 -8h55l-22 -121q-18 -7 -52 -13.5
t-71 -6.5q-52 0 -82 12.5t-45 33.5q-7 10 -11 21t-6 23h-8q-48 -51 -104.5 -70.5t-110.5 -19.5zM365 144q33 0 58 9.5t42.5 25.5t28 37t14.5 45q1 8 1.5 13t1 9.5t0.5 8.5q0 26 -10.5 47t-33 33t-60.5 12q-43 0 -72.5 -15.5t-46 -40.5t-22.5 -55q-2 -13 -3.5 -20.5
t-1.5 -12.5v-9q0 -37 24.5 -62t79.5 -25zM453 577q-69 0 -117 19.5t-72.5 49.5t-24.5 62q0 5 0.5 9t1.5 8h119q1 -14 16.5 -25.5t38.5 -18t46 -6.5q31 0 57 8t43 20t21 22h119q-6 -34 -39 -68.5t-87 -57t-122 -22.5zM191 758q6 32 29 66.5t63.5 58.5t97.5 24q45 0 82 -10.5
t69.5 -21.5t65.5 -11q23 0 41 12t28 31h91q-6 -32 -28 -66.5t-61.5 -58.5t-100.5 -24q-45 0 -82.5 11t-70 21.5t-64.5 10.5q-23 0 -41 -12.5t-29 -30.5h-90z" />
    <glyph glyph-name="uni1EB6" unicode="&#x1eb6;" horiz-adv-x="954" 
d="M-38 0l453 688h272l212 -688h-260l-25 91h-337l-56 -91h-259zM382 262h187l-28 116q-2 8 -4.5 21.5t-5 30.5t-5.5 34t-5 31h-7q-9 -17 -21 -39t-23.5 -43t-19.5 -35zM307 -205l26 145h191l-26 -145h-191zM550 737q-67 0 -112.5 19.5t-69 50.5t-23.5 63v7.5t1 7.5h118
q0 -5 2.5 -9.5t6.5 -9.5q9 -9 24 -16t33 -11t35 -4q31 0 57 8t43 20t21 22h121q-6 -34 -40 -68.5t-90 -57t-127 -22.5z" />
    <glyph glyph-name="uni1EB7" unicode="&#x1eb7;" horiz-adv-x="808" 
d="M282 -12q-73 0 -129.5 23.5t-89 72t-32.5 123.5q0 52 10 95t28 77q29 56 73 91.5t98 52.5t111 17q31 0 66 -6.5t67 -22t51 -41.5h9l39 58h194l-18 -106q-1 -4 -5.5 -30t-11.5 -63t-13.5 -74.5t-11 -64.5t-4.5 -33q0 -12 6.5 -20t19.5 -8h55l-22 -121q-18 -7 -52 -13.5
t-71 -6.5q-52 0 -82 12.5t-45 33.5q-7 10 -11 21t-6 23h-8q-48 -51 -104.5 -70.5t-110.5 -19.5zM365 144q33 0 58 9.5t42.5 25.5t28 37t14.5 45q1 8 1.5 13t1 9.5t0.5 8.5q0 26 -10.5 47t-33 33t-60.5 12q-43 0 -72.5 -15.5t-46 -40.5t-22.5 -55q-2 -13 -3.5 -20.5
t-1.5 -12.5v-9q0 -37 24.5 -62t79.5 -25zM239 -205l26 145h191l-26 -145h-191zM453 577q-69 0 -117 19.5t-72.5 49.5t-24.5 62q0 5 0.5 9t1.5 8h119q1 -14 16.5 -25.5t38.5 -18t46 -6.5q31 0 57 8t43 20t21 22h119q-6 -34 -39 -68.5t-87 -57t-122 -22.5z" />
    <glyph glyph-name="uni1EB8" unicode="&#x1eb8;" horiz-adv-x="860" 
d="M28 0l121 688h735l-30 -171h-487l-16 -89h420l-28 -162h-420l-17 -95h495l-30 -171h-743zM254 -205l26 145h191l-26 -145h-191z" />
    <glyph glyph-name="uni1EB9" unicode="&#x1eb9;" horiz-adv-x="811" 
d="M382 -12q-106 0 -185 24t-122.5 74.5t-43.5 128.5q0 65 20 117t56 91q37 40 88 65.5t113 38.5t131 13q107 0 183.5 -23.5t117.5 -71.5t41 -124q0 -13 -2 -34t-10 -61h-505q-1 -5 -1 -9.5v-9.5q0 -31 14.5 -51.5t43 -30.5t70.5 -10q30 0 54.5 6t42 16.5t28 23.5t13.5 27
h232q-8 -50 -41.5 -87.5t-85.5 -62.5t-116.5 -37.5t-135.5 -12.5zM283 328h264q1 3 1 6v6q0 20 -12.5 36.5t-36 26.5t-57.5 10q-44 0 -76.5 -11.5t-53 -31t-29.5 -42.5zM227 -205l26 145h191l-26 -145h-191z" />
    <glyph glyph-name="uni1EBA" unicode="&#x1eba;" horiz-adv-x="860" 
d="M28 0l121 688h735l-30 -171h-487l-16 -89h420l-28 -162h-420l-17 -95h495l-30 -171h-743zM457 748l9 53h4q18 0 28.5 3t10.5 17q0 8 -10 11t-28 3h-63l10 54q13 3 35 5t44.5 3t36.5 1q18 0 42.5 -3t49 -10.5t40.5 -20t16 -31.5q0 -22 -19 -34.5t-46.5 -18t-52.5 -7.5
l-4 -25h-103z" />
    <glyph glyph-name="uni1EBB" unicode="&#x1ebb;" horiz-adv-x="811" 
d="M382 -12q-106 0 -185 24t-122.5 74.5t-43.5 128.5q0 65 20 117t56 91q37 40 88 65.5t113 38.5t131 13q107 0 183.5 -23.5t117.5 -71.5t41 -124q0 -13 -2 -34t-10 -61h-505q-1 -5 -1 -9.5v-9.5q0 -31 14.5 -51.5t43 -30.5t70.5 -10q30 0 54.5 6t42 16.5t28 23.5t13.5 27
h232q-8 -50 -41.5 -87.5t-85.5 -62.5t-116.5 -37.5t-135.5 -12.5zM283 328h264q1 3 1 6v6q0 20 -12.5 36.5t-36 26.5t-57.5 10q-44 0 -76.5 -11.5t-53 -31t-29.5 -42.5zM381 591l9 53h4q17 0 27 2.5t10 16.5q0 9 -9 12t-28 3h-64l10 54q14 3 36.5 5t45 3t36.5 1
q18 0 42.5 -3t49 -10.5t40.5 -20t16 -31.5q0 -22 -19.5 -34.5t-46.5 -18t-52 -7.5l-4 -25h-103z" />
    <glyph glyph-name="uni1EBC" unicode="&#x1ebc;" horiz-adv-x="860" 
d="M28 0l121 688h735l-30 -171h-487l-16 -89h420l-28 -162h-420l-17 -95h495l-30 -171h-743zM246 736q6 32 28.5 66.5t61 58.5t90.5 24q45 0 84.5 -10.5t75 -21.5t68.5 -11q23 0 41 12t27 31h91q-5 -32 -27.5 -66.5t-60.5 -58.5t-91 -24q-45 0 -85 11t-75.5 21.5t-67.5 10.5
q-23 0 -40.5 -12.5t-28.5 -30.5h-91z" />
    <glyph glyph-name="uni1EBD" unicode="&#x1ebd;" horiz-adv-x="811" 
d="M382 -12q-106 0 -185 24t-122.5 74.5t-43.5 128.5q0 65 20 117t56 91q37 40 88 65.5t113 38.5t131 13q107 0 183.5 -23.5t117.5 -71.5t41 -124q0 -13 -2 -34t-10 -61h-505q-1 -5 -1 -9.5v-9.5q0 -31 14.5 -51.5t43 -30.5t70.5 -10q30 0 54.5 6t42 16.5t28 23.5t13.5 27
h232q-8 -50 -41.5 -87.5t-85.5 -62.5t-116.5 -37.5t-135.5 -12.5zM283 328h264q1 3 1 6v6q0 20 -12.5 36.5t-36 26.5t-57.5 10q-44 0 -76.5 -11.5t-53 -31t-29.5 -42.5zM161 576q6 32 29 66.5t63.5 58.5t97.5 24q45 0 82 -10.5t69.5 -21.5t65.5 -11q23 0 41 12t28 31h91
q-6 -32 -28 -66.5t-61.5 -58.5t-100.5 -24q-45 0 -82.5 11t-70 21.5t-64.5 10.5q-23 0 -41 -12.5t-29 -30.5h-90z" />
    <glyph glyph-name="uni1EBE" unicode="&#x1ebe;" horiz-adv-x="860" 
d="M28 0l121 688h735l-30 -171h-487l-16 -89h420l-28 -162h-420l-17 -95h495l-30 -171h-743zM253 740l200 145h160l148 -145h-151l-110 106h70l-146 -106h-171zM421 914l115 133h242l2 -4l-200 -129h-159z" />
    <glyph glyph-name="uni1EBF" unicode="&#x1ebf;" horiz-adv-x="811" 
d="M382 -12q-106 0 -185 24t-122.5 74.5t-43.5 128.5q0 65 20 117t56 91q37 40 88 65.5t113 38.5t131 13q107 0 183.5 -23.5t117.5 -71.5t41 -124q0 -13 -2 -34t-10 -61h-505q-1 -5 -1 -9.5v-9.5q0 -31 14.5 -51.5t43 -30.5t70.5 -10q30 0 54.5 6t42 16.5t28 23.5t13.5 27
h232q-8 -50 -41.5 -87.5t-85.5 -62.5t-116.5 -37.5t-135.5 -12.5zM283 328h264q1 3 1 6v6q0 20 -12.5 36.5t-36 26.5t-57.5 10q-44 0 -76.5 -11.5t-53 -31t-29.5 -42.5zM195 580l198 145h160l149 -145h-156l-97 92h35l-124 -92h-165zM349 774l115 133h241v-5l-177 -128h-179
z" />
    <glyph glyph-name="uni1EC0" unicode="&#x1ec0;" horiz-adv-x="860" 
d="M28 0l121 688h735l-30 -171h-487l-16 -89h420l-28 -162h-420l-17 -95h495l-30 -171h-743zM253 740l200 145h160l148 -145h-151l-110 106h70l-146 -106h-171zM529 914l-200 129l3 4h241l115 -133h-159z" />
    <glyph glyph-name="uni1EC1" unicode="&#x1ec1;" horiz-adv-x="811" 
d="M382 -12q-106 0 -185 24t-122.5 74.5t-43.5 128.5q0 65 20 117t56 91q37 40 88 65.5t113 38.5t131 13q107 0 183.5 -23.5t117.5 -71.5t41 -124q0 -13 -2 -34t-10 -61h-505q-1 -5 -1 -9.5v-9.5q0 -31 14.5 -51.5t43 -30.5t70.5 -10q30 0 54.5 6t42 16.5t28 23.5t13.5 27
h232q-8 -50 -41.5 -87.5t-85.5 -62.5t-116.5 -37.5t-135.5 -12.5zM283 328h264q1 3 1 6v6q0 20 -12.5 36.5t-36 26.5t-57.5 10q-44 0 -76.5 -11.5t-53 -31t-29.5 -42.5zM195 580l198 145h160l149 -145h-156l-97 92h35l-124 -92h-165zM425 774l-146 128v5h226l87 -133h-167z
" />
    <glyph glyph-name="uni1EC2" unicode="&#x1ec2;" horiz-adv-x="860" 
d="M28 0l121 688h735l-30 -171h-487l-16 -89h420l-28 -162h-420l-17 -95h495l-30 -171h-743zM253 740l200 145h160l148 -145h-151l-110 106h70l-146 -106h-171zM480 910l9 53h4q18 0 28.5 3t10.5 17q0 8 -10 11t-28 3h-63l10 54q13 3 35 5t44.5 3t36.5 1q18 0 42.5 -3
t49 -10.5t40.5 -20t16 -31.5q0 -22 -19 -34.5t-46.5 -18t-52.5 -7.5l-4 -25h-103z" />
    <glyph glyph-name="uni1EC3" unicode="&#x1ec3;" horiz-adv-x="811" 
d="M382 -12q-106 0 -185 24t-122.5 74.5t-43.5 128.5q0 65 20 117t56 91q37 40 88 65.5t113 38.5t131 13q107 0 183.5 -23.5t117.5 -71.5t41 -124q0 -13 -2 -34t-10 -61h-505q-1 -5 -1 -9.5v-9.5q0 -31 14.5 -51.5t43 -30.5t70.5 -10q30 0 54.5 6t42 16.5t28 23.5t13.5 27
h232q-8 -50 -41.5 -87.5t-85.5 -62.5t-116.5 -37.5t-135.5 -12.5zM283 328h264q1 3 1 6v6q0 20 -12.5 36.5t-36 26.5t-57.5 10q-44 0 -76.5 -11.5t-53 -31t-29.5 -42.5zM195 580l198 145h160l149 -145h-156l-97 92h35l-124 -92h-165zM410 773l9 53h4q17 0 27 2.5t10 16.5
q0 9 -9 12t-28 3h-64l10 54q14 3 36.5 5t45 3t36.5 1q18 0 42.5 -3t49 -10.5t40.5 -20t16 -31.5q0 -22 -19.5 -34.5t-46.5 -18t-52 -7.5l-4 -25h-103z" />
    <glyph glyph-name="uni1EC4" unicode="&#x1ec4;" horiz-adv-x="860" 
d="M28 0l121 688h735l-30 -171h-487l-16 -89h420l-28 -162h-420l-17 -95h495l-30 -171h-743zM253 740l200 145h160l148 -145h-151l-110 106h70l-146 -106h-171zM269 898q6 32 28.5 66.5t61 58.5t90.5 24q45 0 84.5 -11t75 -21.5t68.5 -10.5q23 0 41 12t27 31h91
q-5 -32 -27.5 -66.5t-60.5 -58.5t-91 -24q-45 0 -85 11t-75.5 21.5t-67.5 10.5q-23 0 -40.5 -12.5t-28.5 -30.5h-91z" />
    <glyph glyph-name="uni1EC5" unicode="&#x1ec5;" horiz-adv-x="811" 
d="M382 -12q-106 0 -185 24t-122.5 74.5t-43.5 128.5q0 65 20 117t56 91q37 40 88 65.5t113 38.5t131 13q107 0 183.5 -23.5t117.5 -71.5t41 -124q0 -13 -2 -34t-10 -61h-505q-1 -5 -1 -9.5v-9.5q0 -31 14.5 -51.5t43 -30.5t70.5 -10q30 0 54.5 6t42 16.5t28 23.5t13.5 27
h232q-8 -50 -41.5 -87.5t-85.5 -62.5t-116.5 -37.5t-135.5 -12.5zM283 328h264q1 3 1 6v6q0 20 -12.5 36.5t-36 26.5t-57.5 10q-44 0 -76.5 -11.5t-53 -31t-29.5 -42.5zM195 580l198 145h160l149 -145h-156l-97 92h35l-124 -92h-165zM190 758q6 32 29 66.5t63.5 58.5
t97.5 24q45 0 82 -10.5t69.5 -21.5t65.5 -11q23 0 41 12t28 31h91q-6 -32 -28 -66.5t-61.5 -58.5t-100.5 -24q-45 0 -82.5 11t-70 21.5t-64.5 10.5q-23 0 -41 -12.5t-29 -30.5h-90z" />
    <glyph glyph-name="uni1EC6" unicode="&#x1ec6;" horiz-adv-x="860" 
d="M28 0l121 688h735l-30 -171h-487l-16 -89h420l-28 -162h-420l-17 -95h495l-30 -171h-743zM254 -205l26 145h191l-26 -145h-191zM253 740l200 145h160l148 -145h-151l-110 106h70l-146 -106h-171z" />
    <glyph glyph-name="uni1EC7" unicode="&#x1ec7;" horiz-adv-x="811" 
d="M382 -12q-106 0 -185 24t-122.5 74.5t-43.5 128.5q0 65 20 117t56 91q37 40 88 65.5t113 38.5t131 13q107 0 183.5 -23.5t117.5 -71.5t41 -124q0 -13 -2 -34t-10 -61h-505q-1 -5 -1 -9.5v-9.5q0 -31 14.5 -51.5t43 -30.5t70.5 -10q30 0 54.5 6t42 16.5t28 23.5t13.5 27
h232q-8 -50 -41.5 -87.5t-85.5 -62.5t-116.5 -37.5t-135.5 -12.5zM283 328h264q1 3 1 6v6q0 20 -12.5 36.5t-36 26.5t-57.5 10q-44 0 -76.5 -11.5t-53 -31t-29.5 -42.5zM227 -205l26 145h191l-26 -145h-191zM195 580l198 145h160l149 -145h-156l-97 92h35l-124 -92h-165z
" />
    <glyph glyph-name="uni1EC8" unicode="&#x1ec8;" horiz-adv-x="395" 
d="M28 0l121 688h247l-121 -688h-247zM222 748l9 53h4q18 0 28.5 3t10.5 17q0 8 -10 11t-28 3h-63l10 54q13 3 35 5t44.5 3t36.5 1q18 0 42.5 -3t49 -10.5t40.5 -20t16 -31.5q0 -22 -19 -34.5t-46.5 -18t-52.5 -7.5l-4 -25h-103z" />
    <glyph glyph-name="uni1EC9" unicode="&#x1ec9;" horiz-adv-x="344" 
d="M15 0l92 528h224l-93 -528h-223zM153 591l9 53h4q17 0 27 2.5t10 16.5q0 9 -9 12t-28 3h-64l10 54q14 3 36.5 5t45 3t36.5 1q18 0 42.5 -3t49 -10.5t40.5 -20t16 -31.5q0 -22 -19.5 -34.5t-46.5 -18t-52 -7.5l-4 -25h-103z" />
    <glyph glyph-name="uni1ECA" unicode="&#x1eca;" horiz-adv-x="395" 
d="M28 0l121 688h247l-121 -688h-247zM19 -205l26 145h191l-26 -145h-191z" />
    <glyph glyph-name="uni1ECB" unicode="&#x1ecb;" horiz-adv-x="344" 
d="M116 590l24 135h224l-24 -135h-224zM15 0l92 528h224l-93 -528h-223zM-5 -205l26 145h191l-26 -145h-191z" />
    <glyph glyph-name="uni1ECC" unicode="&#x1ecc;" horiz-adv-x="1008" 
d="M476 -12q-133 0 -227.5 35t-145 101t-50.5 159q0 79 25.5 146.5t71.5 118.5q45 50 107.5 83.5t139 51t164.5 17.5q133 0 227.5 -35.5t145 -101.5t50.5 -160q0 -80 -26.5 -148.5t-74.5 -119.5q-45 -48 -107 -81t-138 -49.5t-162 -16.5zM486 159q47 0 87 12.5t71.5 36
t51.5 55.5t26 70q2 13 3.5 22t2 15t1 10.5t0.5 8.5q0 42 -21 73.5t-61 49t-96 17.5q-47 0 -87 -12.5t-71 -35.5t-51 -54.5t-26 -69.5q-2 -13 -3.5 -22t-2 -15.5t-1 -10.5t-0.5 -8q0 -42 21 -74t60.5 -50t95.5 -18zM336 -205l26 145h191l-26 -145h-191z" />
    <glyph glyph-name="uni1ECD" unicode="&#x1ecd;" horiz-adv-x="810" 
d="M376 -12q-104 0 -182 25t-120.5 76t-42.5 128q0 62 18.5 113.5t52.5 89.5q36 41 87 67.5t113 39.5t131 13q105 0 182.5 -25.5t120.5 -76.5t43 -129q0 -54 -14 -99t-40 -80q-35 -48 -88.5 -79.5t-120 -47t-140.5 -15.5zM381 129q48 0 81.5 17t53.5 45.5t25 62.5
q3 15 4 23.5t1 14v9.5q0 28 -12 50t-38 35t-68 13q-48 0 -82 -17t-53 -45.5t-25 -62.5q-2 -14 -3.5 -23t-2 -14.5t-0.5 -9.5q0 -28 12 -50t38.5 -35t68.5 -13zM236 -205l26 145h191l-26 -145h-191z" />
    <glyph glyph-name="uni1ECE" unicode="&#x1ece;" horiz-adv-x="1008" 
d="M476 -12q-133 0 -227.5 35t-145 101t-50.5 159q0 79 25.5 146.5t71.5 118.5q45 50 107.5 83.5t139 51t164.5 17.5q133 0 227.5 -35.5t145 -101.5t50.5 -160q0 -80 -26.5 -148.5t-74.5 -119.5q-45 -48 -107 -81t-138 -49.5t-162 -16.5zM486 159q47 0 87 12.5t71.5 36
t51.5 55.5t26 70q2 13 3.5 22t2 15t1 10.5t0.5 8.5q0 42 -21 73.5t-61 49t-96 17.5q-47 0 -87 -12.5t-71 -35.5t-51 -54.5t-26 -69.5q-2 -13 -3.5 -22t-2 -15.5t-1 -10.5t-0.5 -8q0 -42 21 -74t60.5 -50t95.5 -18zM519 748l9 53h4q18 0 28.5 3t10.5 17q0 8 -10 11t-28 3h-63
l10 54q13 3 35 5t44.5 3t36.5 1q18 0 42.5 -3t49 -10.5t40.5 -20t16 -31.5q0 -22 -19 -34.5t-46.5 -18t-52.5 -7.5l-4 -25h-103z" />
    <glyph glyph-name="uni1ECF" unicode="&#x1ecf;" horiz-adv-x="810" 
d="M376 -12q-104 0 -182 25t-120.5 76t-42.5 128q0 62 18.5 113.5t52.5 89.5q36 41 87 67.5t113 39.5t131 13q105 0 182.5 -25.5t120.5 -76.5t43 -129q0 -54 -14 -99t-40 -80q-35 -48 -88.5 -79.5t-120 -47t-140.5 -15.5zM381 129q48 0 81.5 17t53.5 45.5t25 62.5
q3 15 4 23.5t1 14v9.5q0 28 -12 50t-38 35t-68 13q-48 0 -82 -17t-53 -45.5t-25 -62.5q-2 -14 -3.5 -23t-2 -14.5t-0.5 -9.5q0 -28 12 -50t38.5 -35t68.5 -13zM376 591l9 53h4q17 0 27 2.5t10 16.5q0 9 -9 12t-28 3h-64l10 54q14 3 36.5 5t45 3t36.5 1q18 0 42.5 -3
t49 -10.5t40.5 -20t16 -31.5q0 -22 -19.5 -34.5t-46.5 -18t-52 -7.5l-4 -25h-103z" />
    </font>
</defs>
</svg>
