<?xml version="1.0" standalone="no"?>
<!DOCTYPE svg PUBLIC "-//W3C//DTD SVG 1.1//EN" "http://www.w3.org/Graphics/SVG/1.1/DTD/svg11.dtd" >
<svg xmlns="http://www.w3.org/2000/svg" xmlns:xlink="http://www.w3.org/1999/xlink" version="1.1">
<metadata>
Created by FontForge 20201107 at Thu Jan 28 13:14:41 2021
 By 
Copyright 2020 The Archivo Project Authors (https://github.com/Omnibus-Type/Archivo)
</metadata>
<defs>
<font id="ArchivoSemiExpanded-Regular" horiz-adv-x="0" >
  <font-face 
    font-family="Archivo SemiExpanded"
    font-weight="400"
    font-stretch="semi-expanded"
    units-per-em="1000"
    panose-1="0 0 0 0 0 0 0 0 0 0"
    ascent="800"
    descent="-200"
    x-height="526"
    cap-height="686"
    bbox="-250 -394 1501 1085"
    underline-thickness="44"
    underline-position="-170"
    unicode-range="U+000D-FEFF"
  />
<missing-glyph horiz-adv-x="694" 
d="M97 0v700h500v-700h-500zM177 50h340l-170 255zM147 95l170 255l-170 255v-510zM547 95v510l-170 -255zM347 395l170 255h-340z" />
    <glyph glyph-name="fi" unicode="fi" horiz-adv-x="571" 
d="M106 0v450h-92v76h92v76q0 35 11.5 64.5t40 47.5t77.5 18q16 0 32 -1.5t30 -4t26 -6.5v-64h-61q-33 0 -48 -13.5t-15 -41.5v-75h124v-76h-124v-450h-93zM405 627v96h93v-96h-93zM405 0v526h93v-526h-93z" />
    <glyph glyph-name="fl" unicode="fl" horiz-adv-x="571" 
d="M106 0v450h-92v76h92v76q0 35 11.5 64.5t40 47.5t77.5 18q16 0 32 -1.5t30 -4t26 -6.5v-64h-61q-33 0 -48 -13.5t-15 -41.5v-75h124v-76h-124v-450h-93zM405 0v723h93v-723h-93z" />
    <glyph glyph-name="f_f" unicode="ff" horiz-adv-x="632" 
d="M106 0v450h-92v76h92v76q0 35 11.5 64.5t40 47.5t77.5 18q16 0 32 -1.5t30 -4t26 -6.5v-64h-61q-33 0 -48 -13.5t-15 -41.5v-75h206v76q0 35 12 64.5t40 47.5t78 18q16 0 31.5 -1.5t30 -4t25.5 -6.5v-64h-61q-33 0 -48 -13.5t-15 -41.5v-75h124v-76h-124v-450h-93v450
h-206v-450h-93z" />
    <glyph glyph-name="f_f_i" unicode="ffi" horiz-adv-x="870" 
d="M106 0v450h-92v76h92v76q0 35 11.5 64.5t40 47.5t77.5 18q16 0 32 -1.5t30 -4t26 -6.5v-64h-61q-33 0 -48 -13.5t-15 -41.5v-75h206v76q0 35 12 64.5t40 47.5t78 18q15 0 31 -1.5t30.5 -4t25.5 -6.5v-64h-61q-33 0 -48 -13.5t-15 -41.5v-75h124v-76h-124v-450h-93v450
h-206v-450h-93zM705 627v96h93v-96h-93zM705 0v526h93v-526h-93z" />
    <glyph glyph-name="f_f_l" unicode="ffl" horiz-adv-x="870" 
d="M106 0v450h-92v76h92v76q0 35 11.5 64.5t40 47.5t77.5 18q16 0 32 -1.5t30 -4t26 -6.5v-64h-61q-33 0 -48 -13.5t-15 -41.5v-75h206v76q0 35 12 64.5t40 47.5t78 18q15 0 31 -1.5t30.5 -4t25.5 -6.5v-64h-61q-33 0 -48 -13.5t-15 -41.5v-75h124v-76h-124v-450h-93v450
h-206v-450h-93zM705 0v723h93v-723h-93z" />
    <glyph glyph-name=".notdef" horiz-adv-x="694" 
d="M97 0v700h500v-700h-500zM177 50h340l-170 255zM147 95l170 255l-170 255v-510zM547 95v510l-170 -255zM347 395l170 255h-340z" />
    <glyph glyph-name=".null" 
 />
    <glyph glyph-name="nonmarkingreturn" horiz-adv-x="333" 
 />
    <glyph glyph-name="CR" unicode="&#xd;" horiz-adv-x="600" 
 />
    <glyph glyph-name="space" unicode=" " horiz-adv-x="271" 
 />
    <glyph glyph-name="exclam" unicode="!" horiz-adv-x="279" 
d="M106 192l-22 494h111l-22 -494h-67zM84 0v113h111v-113h-111z" />
    <glyph glyph-name="quotedbl" unicode="&#x22;" horiz-adv-x="364" 
d="M67 407l-18 130v149h94v-149l-19 -130h-57zM237 407l-18 130v149h94v-149l-19 -130h-57z" />
    <glyph glyph-name="numbersign" unicode="#" horiz-adv-x="653" 
d="M74 -12l48 190h-96v76h114l39 156h-103v75h122l53 213h81l-54 -213h176l54 213h80l-53 -213h92v-75h-111l-39 -156h100v-76h-118l-48 -190h-80l47 190h-176l-47 -190h-81zM220 254h177l39 156h-177z" />
    <glyph glyph-name="dollar" unicode="$" horiz-adv-x="569" 
d="M262 -49v772h54v-772h-54zM283 68q-56 0 -101.5 10t-77.5 30t-49 49.5t-17 68.5q0 5 0.5 9.5t1.5 7.5h93v-5.5v-6.5q0 -35 21.5 -54.5t56.5 -27.5t75 -8q39 0 72.5 8t53.5 25.5t20 45.5q0 34 -22.5 51t-62 26t-89.5 19q-41 8 -77.5 19t-64.5 27.5t-43.5 42.5t-15.5 65
q0 35 15.5 62.5t45 46.5t73 29t99.5 10q54 0 95.5 -11t70 -30.5t43 -46t14.5 -57.5q0 -5 -0.5 -9t-0.5 -9h-94v8q0 27 -15.5 45t-44.5 27.5t-71 9.5q-25 0 -49 -3.5t-43.5 -11.5t-31.5 -21t-12 -32q0 -27 21.5 -41.5t56 -23t73.5 -16.5q42 -9 82 -19t72.5 -26t51.5 -44
t19 -74q0 -44 -17.5 -75t-49 -51t-76.5 -29.5t-101 -9.5z" />
    <glyph glyph-name="percent" unicode="%" horiz-adv-x="1004" 
d="M192 0l540 686h81l-540 -686h-81zM249 338q-54 0 -92 18.5t-57.5 58t-19.5 103.5t19.5 103.5t57.5 58t92 18.5t91.5 -18.5t57 -58t19.5 -103.5t-19.5 -104t-57 -58t-91.5 -18zM249 396q53 0 72 32t19 85v10q0 35 -8 61.5t-28 41t-55 14.5q-53 0 -72 -32t-19 -85v-10
q0 -53 19 -85t72 -32zM756 -12q-54 0 -91.5 18.5t-57 58t-19.5 103.5t19.5 103.5t57 58t91.5 18.5q55 0 92 -18.5t56.5 -58t19.5 -103.5t-19.5 -104t-56.5 -58t-92 -18zM756 46q54 0 72.5 32t18.5 86v9q0 36 -8 62t-27.5 40.5t-55.5 14.5q-52 0 -71 -32t-19 -85v-9
q0 -54 19 -86t71 -32z" />
    <glyph glyph-name="ampersand" unicode="&#x26;" horiz-adv-x="777" 
d="M350 -12q-92 0 -158.5 23t-103 67.5t-36.5 107.5q0 67 37 109.5t92 58.5v4q-47 20 -79 56t-32 95q0 60 36 102.5t102.5 64.5t155.5 22q88 0 152.5 -23t100 -65.5t35.5 -97.5v-17h-93v10q0 40 -26 65.5t-69.5 38t-97.5 12.5q-39 0 -75 -6.5t-64 -20.5t-44 -36.5t-16 -54.5
q0 -41 21.5 -66.5t56.5 -37.5t76 -12h88v-74h-89q-44 0 -83.5 -10.5t-63.5 -36.5t-24 -73q0 -45 26 -73t73.5 -41.5t110.5 -13.5q69 0 113 15t65.5 44t21.5 72v191h191v-75h-98v-113q0 -68 -33.5 -115.5t-100.5 -71.5t-168 -24z" />
    <glyph glyph-name="quotesingle" unicode="'" horiz-adv-x="194" 
d="M67 407l-18 130v149h94v-149l-19 -130h-57z" />
    <glyph glyph-name="parenleft" unicode="(" horiz-adv-x="343" 
d="M250 -157q-87 92 -134 208t-47 238q0 123 47 239t134 208h60q-42 -61 -77 -134.5t-55.5 -153t-20.5 -159.5q0 -79 20.5 -159t55.5 -153t77 -134h-60z" />
    <glyph glyph-name="parenright" unicode=")" horiz-adv-x="343" 
d="M93 735q87 -92 134 -208t47 -238q0 -123 -47 -239t-134 -208h-60q43 61 77.5 134.5t55 153t20.5 159.5t-20.5 159.5t-55 153t-77.5 133.5h60z" />
    <glyph glyph-name="asterisk" unicode="*" horiz-adv-x="419" 
d="M175 333l12 137l-110 -78l-35 59l121 58l-121 60l35 58l110 -79l-12 139h69l-11 -139l109 79l35 -58l-122 -60l122 -58l-35 -59l-109 78l11 -137h-69z" />
    <glyph glyph-name="plus" unicode="+" horiz-adv-x="666" 
d="M295 0v221h-213v76h213v221h76v-221h213v-76h-213v-221h-76z" />
    <glyph glyph-name="comma" unicode="," horiz-adv-x="279" 
d="M73 -149v46q20 4 33.5 18.5t20 36t6.5 48.5h-49v113h110v-100q0 -60 -19 -94t-47 -49t-55 -19z" />
    <glyph glyph-name="hyphen" unicode="-" horiz-adv-x="375" 
d="M45 224v95h285v-95h-285z" />
    <glyph glyph-name="period" unicode="." horiz-adv-x="279" 
d="M84 0v113h110v-113h-110z" />
    <glyph glyph-name="slash" unicode="/" horiz-adv-x="299" 
d="M0 -49l227 784h72l-227 -784h-72z" />
    <glyph glyph-name="zero" unicode="0" horiz-adv-x="656" 
d="M328 -12q-66 0 -117 18.5t-86 60.5t-53 110t-18 166q0 99 18 166.5t53 109.5t86 60.5t117 18.5q67 0 117.5 -18.5t85.5 -60.5t53.5 -109.5t18.5 -166.5q0 -98 -18.5 -166t-53 -110t-85.5 -60.5t-118 -18.5zM328 64q67 0 105.5 29t55.5 86t17 142v43q0 86 -17.5 143
t-56 86t-104.5 29q-65 0 -104 -29t-56 -85.5t-17 -142.5v-43q0 -85 17 -142.5t56 -86.5t104 -29z" />
    <glyph glyph-name="one" unicode="1" horiz-adv-x="582" 
d="M72 0v81h200v462h-200v59q49 3 93 11.5t84 26.5t75 48h42v-607h187v-81h-481z" />
    <glyph glyph-name="two" unicode="2" horiz-adv-x="647" 
d="M53 0v33q0 45 19.5 82t52 67t72.5 57t82 51q57 33 105.5 65t77.5 69.5t29 83.5q0 34 -17.5 59t-52.5 39.5t-87 14.5q-65 0 -104.5 -19t-56.5 -49.5t-17 -65.5v-38h-92q-1 6 -2 15.5t-1 21.5q0 74 37.5 120.5t101 69t141.5 22.5q57 0 103 -13t78.5 -38t49.5 -60.5
t17 -78.5q0 -50 -19 -89.5t-52.5 -72t-77.5 -61t-93 -56.5q-42 -22 -80.5 -45t-65.5 -47t-34 -50h427v-87h-541z" />
    <glyph glyph-name="three" unicode="3" horiz-adv-x="655" 
d="M328 -12q-93 0 -156 24.5t-95 69.5t-32 106v13h93v-12q0 -60 47 -92.5t131 -32.5q88 0 139 31.5t51 97.5q0 48 -25 73t-65.5 34.5t-87.5 9.5h-96v76h97q40 0 76.5 11.5t60 38.5t23.5 71q0 38 -21.5 63.5t-57.5 38.5t-80 13q-47 0 -86.5 -14t-63 -40.5t-23.5 -65.5v-13
h-93v17q0 56 33.5 99.5t94 68t140.5 24.5q74 0 131 -21.5t89.5 -63t32.5 -99.5q0 -45 -18 -76t-47 -50.5t-62 -30.5v-4q63 -14 104 -55t41 -113q0 -61 -34.5 -105.5t-96.5 -68t-144 -23.5z" />
    <glyph glyph-name="four" unicode="4" horiz-adv-x="627" 
d="M398 0v169h-372v77q47 71 86.5 143.5t70.5 149.5t52 159h101q-13 -53 -34 -108.5t-46.5 -109t-52 -99.5t-49.5 -81t-39 -54h283v223q7 16 13.5 33.5l13 35t12 34t8.5 30.5h46v-356h107v-77h-107v-169h-93z" />
    <glyph glyph-name="five" unicode="5" horiz-adv-x="653" 
d="M333 -12q-86 0 -149.5 28.5t-97.5 79.5t-34 118h93q0 -45 25 -79t67 -52.5t92 -18.5q48 0 88.5 18t65.5 53.5t25 89.5q0 50 -21.5 83t-59.5 49.5t-89 16.5q-36 0 -69.5 -10t-60 -28t-42.5 -44l-85 13l32 381h448v-87h-369l-18 -211q19 15 45 29t61 23t79 9
q68 0 123.5 -23.5t88.5 -72t33 -125.5q0 -74 -32.5 -128t-93.5 -83t-145 -29z" />
    <glyph glyph-name="six" unicode="6" horiz-adv-x="656" 
d="M340 -12q-68 0 -121 17.5t-90 56t-56 103t-19 159.5q0 103 19.5 174.5t56.5 115.5t90.5 64t121.5 20q82 0 135 -27t79.5 -75t26.5 -112h-93q0 48 -18.5 78.5t-52.5 45t-81 14.5q-72 0 -113 -32.5t-58 -93t-17 -147.5q21 32 54 53t74 31.5t80 10.5q83 0 138.5 -29
t83.5 -79.5t28 -114.5q0 -71 -35 -123.5t-95.5 -81t-137.5 -28.5zM335 64q59 0 98 21t59 56t20 79q0 41 -18.5 75t-57 54.5t-98.5 20.5q-58 0 -98 -21t-60.5 -56t-20.5 -78q0 -41 20 -75.5t59 -55t97 -20.5z" />
    <glyph glyph-name="seven" unicode="7" horiz-adv-x="607" 
d="M157 0q0 94 27 179.5t70.5 161t95 140.5t101.5 118h-422v87h554v-53q-44 -45 -89 -97.5t-86 -111.5t-74 -121.5t-52 -127t-19 -127.5v-48h-106z" />
    <glyph glyph-name="eight" unicode="8" horiz-adv-x="661" 
d="M331 -12q-97 0 -159 25.5t-91.5 70t-29.5 100.5q0 58 33 101.5t98 66.5q-54 27 -81.5 68t-27.5 91q0 53 28.5 95.5t86 67t143.5 24.5t143 -24.5t85.5 -67t28.5 -95.5q0 -50 -27.5 -91t-81.5 -68q66 -23 98.5 -66.5t32.5 -101.5q0 -56 -29.5 -100.5t-91 -70t-158.5 -25.5z
M331 64q89 0 135.5 33t46.5 90q0 59 -46 93t-136 34t-136.5 -34t-46.5 -93q0 -57 46.5 -90t136.5 -33zM331 389q76 0 121 31t45 88q0 55 -44 84.5t-122 29.5q-79 0 -123 -29.5t-44 -84.5q0 -57 45 -88t122 -31z" />
    <glyph glyph-name="nine" unicode="9" horiz-adv-x="656" 
d="M314 -12q-81 0 -134.5 27t-79.5 75.5t-26 112.5h93q0 -48 18 -78.5t52.5 -45.5t81.5 -15q72 0 112.5 32.5t57.5 93.5t17 147q-19 -31 -53 -52.5t-74 -32t-81 -10.5q-82 0 -137.5 29t-84 80t-28.5 115q0 71 35 123t96 80.5t137 28.5q68 0 121.5 -17.5t90 -56t56 -103
t19.5 -158.5q0 -103 -19.5 -175t-56.5 -116t-91 -64t-122 -20zM318 317q59 0 99 20.5t60 56t20 77.5t-19.5 76t-58.5 54.5t-98 20.5q-58 0 -97.5 -20.5t-59.5 -55.5t-20 -80q0 -41 19 -75t57.5 -54t97.5 -20z" />
    <glyph glyph-name="colon" unicode=":" horiz-adv-x="288" 
d="M89 413v113h110v-113h-110zM89 0v113h110v-113h-110z" />
    <glyph glyph-name="semicolon" unicode=";" horiz-adv-x="288" 
d="M78 -149v46q20 4 33.5 18.5t20.5 36t7 48.5h-49v113h109v-100q0 -60 -19 -94t-47 -49t-55 -19zM90 413v113h109v-113h-109z" />
    <glyph glyph-name="less" unicode="&#x3c;" horiz-adv-x="666" 
d="M573 2l-501 207v92l501 208v-84l-423 -169l423 -170v-84z" />
    <glyph glyph-name="equal" unicode="=" horiz-adv-x="666" 
d="M82 326v76h502v-76h-502zM82 114v76h502v-76h-502z" />
    <glyph glyph-name="greater" unicode="&#x3e;" horiz-adv-x="666" 
d="M92 2v84l423 170l-423 169v84l502 -208v-92z" />
    <glyph glyph-name="question" unicode="?" horiz-adv-x="615" 
d="M256 186v51q0 37 13.5 62.5t35.5 44.5t46.5 35t46.5 34t36 41.5t14 57.5q0 14 -5.5 32.5t-21 35.5t-44 28t-75.5 11q-52 0 -84 -14.5t-48 -36t-21.5 -43t-5.5 -35.5v-14t1 -14h-92q-1 4 -2.5 12.5t-1.5 21.5q0 21 7.5 48t25 54t48 49.5t75 36.5t106.5 14q59 0 100 -12.5
t68 -33.5t42.5 -45t21.5 -47.5t6 -41.5q0 -48 -14.5 -80.5t-37 -55.5t-48.5 -40t-48.5 -33t-37 -35t-14.5 -46v-42h-92zM247 0v113h110v-113h-110z" />
    <glyph glyph-name="at" unicode="@" horiz-adv-x="1144" 
d="M540 -154q-146 0 -253 43.5t-164.5 136t-57.5 236.5q0 119 41.5 202.5t113.5 135t165.5 75t197.5 23.5q107 0 197.5 -21.5t157.5 -67t104.5 -117t37.5 -172.5q0 -67 -15 -117t-39.5 -84.5t-56 -56t-66.5 -31t-68 -9.5q-44 0 -70 11t-38 28.5t-15 38.5h-6
q-21 -25 -51.5 -43t-67.5 -27t-76 -9q-33 0 -64 6.5t-55 21.5t-38 40.5t-14 63.5q0 54 27.5 86.5t77.5 49t116.5 22t144.5 5.5v41q0 35 -12 56.5t-41 31.5t-81 10q-44 0 -73 -9t-42.5 -25.5t-13.5 -37.5v-16h-80q-1 4 -1 8.5v10.5q0 43 25.5 73.5t74.5 46t118 15.5
q68 0 114 -16t70 -49.5t24 -87.5v-233q0 -25 11.5 -36.5t45.5 -11.5q44 0 82 22t61.5 73.5t23.5 138.5q0 112 -54.5 181.5t-151 102t-224.5 32.5q-138 0 -239.5 -41t-156 -124.5t-54.5 -210.5q0 -177 100 -265.5t310 -88.5q29 0 68 4.5t76.5 11t59.5 15.5v-64
q-26 -8 -63.5 -14.5t-76 -10t-66.5 -3.5zM528 87q33 0 64.5 9.5t57 26t41 40t15.5 53.5v39q-92 0 -155 -7t-95.5 -28t-32.5 -61q0 -26 14.5 -42t38 -23t52.5 -7z" />
    <glyph glyph-name="A" unicode="A" horiz-adv-x="784" 
d="M19 0l310 686h126l310 -686h-111l-74 166h-382l-73 -166h-106zM236 252h305l-92 209q-5 10 -12.5 28t-15.5 38t-15.5 39t-12.5 32h-8q-8 -21 -19 -47.5t-21 -50.5t-16 -39z" />
    <glyph glyph-name="B" unicode="B" horiz-adv-x="789" 
d="M97 0v686h425q58 0 101.5 -20t67 -57t23.5 -88q0 -39 -14.5 -72t-40.5 -55.5t-60 -33.5v-4q39 -8 69.5 -29.5t48 -56.5t17.5 -85q0 -65 -28.5 -106t-76 -60t-107.5 -19h-425zM199 87h314q52 0 84 25.5t32 83.5q0 37 -14 62t-41 37.5t-66 12.5h-309v-221zM199 394h293
q34 0 60.5 13t42 37t15.5 56q0 51 -29 75t-77 24h-305v-205z" />
    <glyph glyph-name="C" unicode="C" horiz-adv-x="839" 
d="M434 -12q-120 0 -202.5 39.5t-124.5 118.5t-42 197q0 175 96 265t272 90q102 0 179.5 -29t121 -87.5t43.5 -146.5h-101q0 61 -30.5 100t-85 57.5t-128.5 18.5q-79 0 -138.5 -27.5t-91.5 -84.5t-32 -145v-23q0 -89 32.5 -145.5t92 -83.5t140.5 -27q74 0 128.5 18.5
t84.5 57.5t30 99h100q0 -88 -44.5 -146t-121.5 -87t-178 -29z" />
    <glyph glyph-name="D" unicode="D" horiz-adv-x="835" 
d="M97 0v686h303q116 0 198.5 -37.5t127 -113.5t44.5 -192q0 -115 -44.5 -191.5t-127 -114t-198.5 -37.5h-303zM199 87h198q59 0 108 14t85 43.5t55.5 76t19.5 111.5v21q0 66 -19.5 112.5t-55 76t-84.5 43.5t-109 14h-198v-512z" />
    <glyph glyph-name="E" unicode="E" horiz-adv-x="773" 
d="M97 0v686h602v-87h-500v-204h450v-87h-450v-221h507v-87h-609z" />
    <glyph glyph-name="F" unicode="F" horiz-adv-x="697" 
d="M97 0v686h560v-87h-458v-213h419v-87h-419v-299h-102z" />
    <glyph glyph-name="G" unicode="G" horiz-adv-x="905" 
d="M444 -12q-187 0 -282 87.5t-95 267.5q0 117 46 196t134 119t213 40q80 0 145.5 -15t113 -45.5t72.5 -77t25 -110.5h-102q0 46 -20 77t-55 50t-80.5 26.5t-96.5 7.5q-64 0 -117 -14t-92 -45t-60 -80t-21 -117v-23q0 -92 33.5 -149t95.5 -82.5t146 -25.5q95 0 154 22.5
t86.5 65.5t27.5 105v13h-276v84h377v-365h-72l-11 94q-32 -38 -77 -61.5t-99 -34t-113 -10.5z" />
    <glyph glyph-name="H" unicode="H" horiz-adv-x="840" 
d="M97 0v686h102v-291h443v291h102v-686h-102v306h-443v-306h-102z" />
    <glyph glyph-name="I" unicode="I" horiz-adv-x="296" 
d="M97 0v686h102v-686h-102z" />
    <glyph glyph-name="J" unicode="J" horiz-adv-x="614" 
d="M282 -12q-76 0 -130.5 24.5t-83.5 72.5t-29 122v21h100v-29q0 -60 37.5 -92t103.5 -32q70 0 108.5 42t38.5 124v445h102v-435q0 -89 -29.5 -147.5t-85 -87t-132.5 -28.5z" />
    <glyph glyph-name="K" unicode="K" horiz-adv-x="766" 
d="M97 0v686h102v-377l406 377h131l-292 -276l302 -410h-126l-250 344l-171 -148v-196h-102z" />
    <glyph glyph-name="L" unicode="L" horiz-adv-x="609" 
d="M97 0v686h102v-597h386v-89h-488z" />
    <glyph glyph-name="M" unicode="M" horiz-adv-x="965" 
d="M97 0v686h156l182 -437q7 -16 15 -39t16.5 -45.5t14.5 -39.5h6q6 16 13.5 38t16 45t14.5 40l182 438h155v-686h-102v422q0 24 0.5 54t1.5 56.5t1 41.5h-8q-4 -13 -11.5 -34.5t-15 -44t-14.5 -39.5l-192 -456h-94l-192 456q-8 18 -15.5 39t-14.5 42t-12 37h-8
q1 -19 1.5 -46t1 -55t0.5 -51v-422h-98z" />
    <glyph glyph-name="N" unicode="N" horiz-adv-x="841" 
d="M97 0v686h99l381 -444q9 -8 20.5 -22l23 -28t19.5 -25h6q0 18 -0.5 40t-0.5 40v439h99v-686h-93l-385 450q-16 17 -35 40.5t-30 37.5h-6q0 -16 0.5 -39.5t0.5 -48.5v-440h-99z" />
    <glyph glyph-name="O" unicode="O" horiz-adv-x="906" 
d="M453 -12q-120 0 -207.5 40t-134 119t-46.5 196q0 118 46.5 196.5t134 118.5t207.5 40q121 0 208 -40t133.5 -118.5t46.5 -196.5q0 -117 -46.5 -196t-133.5 -119t-208 -40zM453 75q63 0 114.5 15t89.5 46.5t58.5 80t20.5 115.5v22q0 67 -20.5 116t-58.5 80t-89.5 46
t-114.5 15t-114.5 -15t-89.5 -46t-58.5 -80t-20.5 -116v-22q0 -67 20.5 -115.5t58.5 -80t89.5 -46.5t114.5 -15z" />
    <glyph glyph-name="P" unicode="P" horiz-adv-x="754" 
d="M97 0v686h413q68 0 115 -27t71.5 -74.5t24.5 -109.5q0 -63 -26 -111.5t-73.5 -75.5t-113.5 -27h-309v-261h-102zM199 348h293q60 0 93 34t33 92q0 39 -14.5 67t-42.5 43t-69 15h-293v-251z" />
    <glyph glyph-name="Q" unicode="Q" horiz-adv-x="906" 
d="M636 -130l-128 121q-13 -1 -27 -2t-28 -1q-121 0 -208 40t-133.5 119t-46.5 196q0 118 46.5 196.5t133.5 118.5t208 40t208 -40t133.5 -118.5t46.5 -196.5q0 -130 -58 -213t-164 -118l154 -142h-137zM453 75q63 0 114.5 15t89.5 46.5t58.5 80t20.5 115.5v22
q0 67 -20.5 116t-58.5 80t-89.5 46t-114.5 15t-114.5 -15t-89.5 -46t-58.5 -80t-20.5 -116v-22q0 -67 20.5 -115.5t58.5 -80t89.5 -46.5t114.5 -15z" />
    <glyph glyph-name="R" unicode="R" horiz-adv-x="815" 
d="M97 0v686h438q70 0 116 -26.5t69 -72.5t23 -104q0 -68 -32.5 -119.5t-93.5 -74.5l147 -289h-113l-135 271h-317v-271h-102zM199 357h319q58 0 90 34t32 91q0 37 -14 63t-41.5 40t-66.5 14h-319v-242z" />
    <glyph glyph-name="S" unicode="S" horiz-adv-x="760" 
d="M385 -12q-65 0 -124 10t-104 33.5t-71.5 64t-26.5 101.5q0 6 0.5 10.5t0.5 7.5h102q0 -4 -0.5 -10.5t-0.5 -13.5q0 -38 27 -64.5t77.5 -39.5t116.5 -13q30 0 61 3.5t58.5 11t49 20t34 31t12.5 43.5q0 34 -21.5 55.5t-58.5 35t-83.5 23.5t-95.5 20t-95.5 24t-83.5 35
t-58.5 54.5t-21.5 82.5q0 42 18.5 76t56.5 58.5t95.5 37.5t136.5 13q72 0 126.5 -13.5t91.5 -38.5t55.5 -60t18.5 -78v-16h-101v17q0 30 -23 53t-64.5 36.5t-98.5 13.5q-70 0 -116 -11.5t-69 -32.5t-23 -49q0 -31 21.5 -50.5t58.5 -32t83.5 -22t95.5 -19.5t95.5 -24
t83.5 -36t59 -55.5t22 -82.5q0 -76 -40.5 -122t-112 -66.5t-164.5 -20.5z" />
    <glyph glyph-name="T" unicode="T" horiz-adv-x="696" 
d="M296 0v597h-273v89h649v-89h-274v-597h-102z" />
    <glyph glyph-name="U" unicode="U" horiz-adv-x="828" 
d="M413 -12q-106 0 -177.5 33t-107.5 99t-36 162v404h102v-409q0 -99 57 -150.5t162 -51.5t163 51.5t58 150.5v409h102v-404q0 -96 -36.5 -162t-108.5 -99t-178 -33z" />
    <glyph glyph-name="V" unicode="V" horiz-adv-x="739" 
d="M308 0l-294 686h113l191 -461q8 -17 17 -39.5t18 -44t16 -38.5h8q6 16 14.5 37.5t18 43.5t17.5 40l190 462h108l-294 -686h-123z" />
    <glyph glyph-name="W" unicode="W" horiz-adv-x="1039" 
d="M229 0l-215 686h109l141 -466q4 -12 9 -32t10.5 -41.5t9.5 -38.5h8q2 13 5.5 28.5t7.5 31t7.5 29t5.5 23.5l128 466h138l128 -466q4 -12 9 -32t10 -41.5t8 -38.5h8q3 13 7 28t8.5 30.5t8 29.5t6.5 24l141 466h98l-215 -686h-127l-134 470q-3 14 -8 34t-9.5 41t-8.5 37h-6
q-3 -16 -8 -37.5t-10 -41.5t-8 -33l-131 -470h-131z" />
    <glyph glyph-name="X" unicode="X" horiz-adv-x="791" 
d="M25 0l304 358l-277 328h131l211 -253h8l211 253h123l-274 -324l305 -362h-131l-239 287h-8l-240 -287h-124z" />
    <glyph glyph-name="Y" unicode="Y" horiz-adv-x="740" 
d="M319 0v284l-306 402h121l235 -315h8l235 315h115l-306 -402v-284h-102z" />
    <glyph glyph-name="Z" unicode="Z" horiz-adv-x="725" 
d="M38 0v51l468 548h-439v87h602v-50l-471 -549h479v-87h-639z" />
    <glyph glyph-name="bracketleft" unicode="[" horiz-adv-x="296" 
d="M88 -161v896h193v-62h-113v-771h113v-63h-193z" />
    <glyph glyph-name="backslash" unicode="\" horiz-adv-x="299" 
d="M299 -49h-72l-227 784h72z" />
    <glyph glyph-name="bracketright" unicode="]" horiz-adv-x="296" 
d="M208 735v-896h-193v62h113v771h-113v63h193z" />
    <glyph glyph-name="asciicircum" unicode="^" horiz-adv-x="666" 
d="M107 276l184 410h84l184 -410h-80l-147 331l-146 -331h-79z" />
    <glyph glyph-name="underscore" unicode="_" horiz-adv-x="544" 
d="M0 -134v70h544v-70h-544z" />
    <glyph glyph-name="grave" unicode="`" horiz-adv-x="213" 
d="M213 591h-82l-131 129l1 3h111z" />
    <glyph glyph-name="a" unicode="a" horiz-adv-x="627" 
d="M236 -12q-37 0 -71 7.5t-61.5 24t-43 45t-15.5 71.5q0 59 31 94.5t86.5 53t130 23t161.5 5.5v45q0 37 -13.5 60.5t-45.5 34.5t-90 11q-50 0 -82 -10.5t-47 -28t-15 -38.5v-17h-91q-1 5 -1 9.5v11.5q0 47 29 80.5t84 50.5t132 17t128.5 -18t78 -55t26.5 -96v-268
q0 -20 8 -28.5t24 -8.5h45v-61q-15 -5 -34.5 -9.5t-41.5 -4.5q-32 0 -50.5 11t-27 31t-11.5 44h-7q-23 -27 -57 -47t-74.5 -30t-84.5 -10zM256 64q36 0 71 10t63.5 28t46 43.5t17.5 56.5v43q-102 0 -172 -8.5t-105.5 -31t-35.5 -65.5q0 -28 15.5 -44.5t42 -24t57.5 -7.5z
" />
    <glyph glyph-name="b" unicode="b" horiz-adv-x="633" 
d="M348 -12q-59 0 -106 22t-79 69h-7l-9 -79h-74v723h93v-266h6q20 28 47.5 46t62 26.5t73.5 8.5q71 0 122.5 -29.5t79.5 -90t28 -153.5q0 -94 -28 -155.5t-81 -91.5t-128 -30zM329 68q49 0 85 19t55 59.5t19 106.5v20q0 65 -18.5 105.5t-54 60t-86.5 19.5q-35 0 -65 -10
t-52 -32t-34.5 -58t-12.5 -88v-15q0 -62 19 -103.5t56 -62.5t89 -21z" />
    <glyph glyph-name="c" unicode="c" horiz-adv-x="605" 
d="M314 -12q-88 0 -147.5 30.5t-89.5 91.5t-30 153t30 153t90 91.5t148 30.5q57 0 101.5 -13.5t76.5 -40.5t48.5 -65.5t16.5 -89.5h-94q0 46 -19 75.5t-52.5 43.5t-78.5 14q-51 0 -89.5 -19.5t-59.5 -60.5t-21 -109v-20q0 -65 20.5 -107t59.5 -62t92 -20q45 0 79 15t53 45
t19 73h91q0 -48 -17 -87t-48.5 -66t-76.5 -41.5t-102 -14.5z" />
    <glyph glyph-name="d" unicode="d" horiz-adv-x="633" 
d="M283 -12q-74 0 -126.5 30t-80.5 91.5t-28 155.5q0 93 28.5 153.5t80.5 90t123 29.5q40 0 73.5 -8.5t60.5 -26.5t47 -46h7v266h93v-723h-75l-9 79h-7q-31 -47 -79.5 -69t-107.5 -22zM303 68q53 0 90 21t56 62.5t19 103.5v15q0 52 -12 88t-34.5 58t-52 32t-64.5 10
q-50 0 -86 -19.5t-55 -60t-19 -105.5v-20q0 -66 19 -106.5t55 -59.5t84 -19z" />
    <glyph glyph-name="e" unicode="e" horiz-adv-x="631" 
d="M321 -12q-87 0 -148 29.5t-93 90.5t-32 155q0 93 31.5 154t92.5 91t149 30t146 -30t87 -86.5t29 -136.5v-46h-438q2 -63 23.5 -102t61.5 -56.5t94 -17.5q37 0 66 9.5t50 25t33.5 36.5t13.5 45h92q-1 -39 -17 -73.5t-48 -61t-80.5 -41.5t-112.5 -15zM146 308h339
q0 43 -13 72.5t-36 48t-52.5 26.5t-64.5 8q-50 0 -87.5 -16.5t-59.5 -51t-26 -87.5z" />
    <glyph glyph-name="f" unicode="f" horiz-adv-x="333" 
d="M106 0v450h-92v76h92v76q0 35 11.5 64.5t40 47.5t77.5 18q16 0 32 -1.5t30 -4t26 -6.5v-64h-61q-33 0 -48 -13.5t-15 -41.5v-75h124v-76h-124v-450h-93z" />
    <glyph glyph-name="g" unicode="g" horiz-adv-x="628" 
d="M172 -186q-41 0 -75.5 15t-54.5 44t-20 71t25.5 72.5t62.5 44.5q-27 13 -41 36t-14 50q0 36 25.5 62.5t66.5 33.5q-37 22 -57 55.5t-20 72.5q0 52 26.5 89.5t81 57.5t136.5 20q37 0 68 -4.5t56 -12.5q41 15 64 39.5t29 52.5h91q-2 -31 -16 -57t-39.5 -44t-62.5 -25
q28 -22 41.5 -51.5t13.5 -64.5q0 -50 -25 -88t-77 -58.5t-133 -20.5h-110q-28 0 -46 -11.5t-18 -34.5q0 -22 18.5 -34.5t49.5 -12.5h257q63 0 101.5 -40.5t38.5 -101.5q0 -44 -23 -79.5t-62 -55.5t-90 -20h-268zM193 -116h245q23 0 41.5 9.5t29.5 26.5t11 37q0 34 -20 54
t-51 20h-256q-32 0 -54 -21t-22 -53q0 -33 21.5 -53t54.5 -20zM315 273q76 0 113 25.5t37 72.5t-37 72.5t-113 25.5t-113 -25.5t-37 -72.5q0 -31 16 -53t49 -33.5t85 -11.5z" />
    <glyph glyph-name="h" unicode="h" horiz-adv-x="623" 
d="M73 0v723h93v-270h6q25 32 55.5 50.5t65 26.5t70.5 8q61 0 104 -19t66 -60t23 -109v-350h-94v335q0 38 -9.5 62t-26.5 37t-41 18.5t-53 5.5q-42 0 -80.5 -19t-62 -54t-23.5 -85v-300h-93z" />
    <glyph glyph-name="i" unicode="i" horiz-adv-x="238" 
d="M73 627v96h93v-96h-93zM73 0v526h93v-526h-93z" />
    <glyph glyph-name="j" unicode="j" horiz-adv-x="236" 
d="M73 627v96h93v-96h-93zM40 -187q-13 0 -26.5 2t-26.5 4.5t-22 5.5v64h47q29 0 45 15.5t16 44.5v577h93v-578q0 -35 -11 -66t-38 -50t-77 -19z" />
    <glyph glyph-name="k" unicode="k" horiz-adv-x="580" 
d="M73 0v723h93v-459l266 262h115l-204 -205l214 -321h-110l-170 259l-111 -98v-161h-93z" />
    <glyph glyph-name="l" unicode="l" horiz-adv-x="238" 
d="M73 0v723h93v-723h-93z" />
    <glyph glyph-name="m" unicode="m" horiz-adv-x="975" 
d="M73 0v526h74l8 -85h8q25 36 55.5 57.5t66 30.5t70.5 9q63 0 105.5 -22.5t61.5 -74.5h8q24 36 55.5 57t67 30.5t72.5 9.5q57 0 98 -18.5t63 -59.5t22 -109v-351h-93v336q0 37 -9.5 61t-25.5 37t-38.5 18.5t-48.5 5.5q-40 0 -76 -19.5t-58 -54.5t-22 -84v-300h-93v336
q0 37 -9 61t-25.5 37t-38.5 18.5t-47 5.5q-41 0 -77.5 -19.5t-58.5 -54.5t-22 -84v-300h-93z" />
    <glyph glyph-name="n" unicode="n" horiz-adv-x="623" 
d="M73 0v526h74l8 -85h8q25 36 57.5 57.5t69 30.5t73.5 9q61 0 104 -19t66 -60t23 -109v-350h-94v335q0 38 -9.5 62t-26.5 37t-41 18.5t-53 5.5q-42 0 -80.5 -19.5t-62 -54.5t-23.5 -84v-300h-93z" />
    <glyph glyph-name="o" unicode="o" horiz-adv-x="644" 
d="M322 -12q-89 0 -150 30.5t-92.5 91.5t-31.5 153q0 93 31.5 154t92.5 91t150 30t149.5 -30t92 -91t31.5 -154q0 -92 -31.5 -153t-92 -91.5t-149.5 -30.5zM322 64q55 0 94.5 20t60.5 62t21 107v21q0 66 -21 107t-60.5 61t-94.5 20t-95 -20t-61 -61t-21 -107v-21
q0 -65 21 -107t61 -62t95 -20z" />
    <glyph glyph-name="p" unicode="p" horiz-adv-x="633" 
d="M73 -177v703h74l9 -79h7q32 47 79 69t106 22q75 0 128 -29.5t81 -91t28 -156.5q0 -91 -28 -152t-79.5 -91t-122.5 -30q-39 0 -73.5 9t-62 27t-47.5 46h-6v-247h-93zM329 68q51 0 86.5 19.5t54 60.5t18.5 105v20q0 66 -19 107t-55 59.5t-85 18.5q-52 0 -89 -20.5t-56 -62
t-19 -105.5v-14q0 -52 12.5 -88t34.5 -57.5t52 -32t65 -10.5z" />
    <glyph glyph-name="q" unicode="q" horiz-adv-x="633" 
d="M468 -177v247h-7q-20 -28 -47.5 -46t-62 -27t-72.5 -9q-71 0 -123 30t-80 91t-28 152q0 95 28.5 156.5t81.5 91t127 29.5q60 0 107 -22t78 -69h7l9 79h75v-703h-93zM305 68q35 0 64.5 10.5t51.5 32t34.5 57.5t12.5 88v14q0 64 -19 105.5t-55.5 62t-89.5 20.5
q-49 0 -84.5 -18.5t-55 -59.5t-19.5 -107v-20q0 -64 18.5 -105t54.5 -60.5t87 -19.5z" />
    <glyph glyph-name="r" unicode="r" horiz-adv-x="367" 
d="M73 0v526h75l7 -92h7q8 24 24 48t44 40t68 16q15 0 30 -2t24 -6v-83h-43q-40 0 -67 -14t-44 -38.5t-24.5 -54.5t-7.5 -61v-279h-93z" />
    <glyph glyph-name="s" unicode="s" horiz-adv-x="569" 
d="M283 -12q-56 0 -101.5 10.5t-77.5 30t-49 49t-17 68.5q0 5 0.5 9.5t1.5 8.5h93v-6.5v-6.5q0 -34 21.5 -54t56.5 -28t75 -8q39 0 72.5 8t53.5 25.5t20 45.5q0 34 -22.5 51t-62 26t-89.5 19q-41 8 -77.5 19t-64.5 27.5t-43.5 42.5t-15.5 65q0 36 15.5 63t45 46t73 29
t99.5 10q54 0 95.5 -11t70 -30.5t43 -46t14.5 -57.5q0 -5 -0.5 -9t-0.5 -8h-94v7q0 27 -15.5 45t-44.5 27.5t-71 9.5q-25 0 -49 -3.5t-43.5 -11.5t-31.5 -21t-12 -32q0 -27 21.5 -41.5t56 -23t73.5 -16.5q42 -9 82 -18.5t72.5 -26t51.5 -44.5t19 -74q0 -44 -17.5 -75
t-49 -51t-76.5 -29.5t-101 -9.5z" />
    <glyph glyph-name="t" unicode="t" horiz-adv-x="351" 
d="M222 -12q-43 0 -69 14.5t-38 42.5t-12 68v337h-84v76h86l18 149h73v-149h119v-76h-119v-323q0 -31 10 -47t45 -16h64v-60q-12 -5 -28.5 -8.5t-33.5 -5.5t-31 -2z" />
    <glyph glyph-name="u" unicode="u" horiz-adv-x="623" 
d="M259 -12q-90 0 -141 43.5t-51 145.5v349h93v-334q0 -38 9.5 -62t27 -37.5t41.5 -18.5t52 -5q43 0 81 19t62 54.5t24 83.5v300h93v-526h-74l-8 86h-8q-25 -37 -57.5 -58.5t-69 -30.5t-74.5 -9z" />
    <glyph glyph-name="v" unicode="v" horiz-adv-x="556" 
d="M232 0l-222 526h100l111 -270q8 -18 18 -44.5t20.5 -55t17.5 -50.5h6q8 21 17.5 48t20 54.5t18.5 47.5l111 270h96l-222 -526h-92z" />
    <glyph glyph-name="w" unicode="w" horiz-adv-x="803" 
d="M188 0l-179 526h98l90 -286q9 -25 15.5 -49.5t11.5 -43.5t8 -29h6l9.5 38t12 44.5t11.5 40.5l83 285h101l84 -285q6 -19 12 -42t12 -44.5t9 -36.5h6q5 16 11 38t12.5 44.5t11.5 39.5l89 286h92l-179 -526h-91l-83 277q-6 20 -13 44.5t-13 48t-10 39.5h-6l-10 -37.5
t-12.5 -47t-13.5 -47.5l-83 -277h-92z" />
    <glyph glyph-name="x" unicode="x" horiz-adv-x="577" 
d="M15 0l217 270l-208 256h117l151 -189h5l151 189h109l-206 -255l218 -271h-116l-161 204h-7l-161 -204h-109z" />
    <glyph glyph-name="y" unicode="y" horiz-adv-x="556" 
d="M121 -186q-24 0 -42.5 3t-31.5 7v65h51q37 0 63.5 10.5t45.5 35t35 65.5l-232 526h100l117 -272q9 -18 19.5 -46.5t22 -58t20.5 -51.5h6q4 12 10.5 32t14.5 43t16.5 45t14.5 39l99 269h96l-199 -509q-20 -48 -40 -86t-45 -64t-59 -39.5t-82 -13.5z" />
    <glyph glyph-name="z" unicode="z" horiz-adv-x="552" 
d="M33 0v49l330 401h-307v76h448v-47l-333 -403h348v-76h-486z" />
    <glyph glyph-name="braceleft" unicode="{" horiz-adv-x="330" 
d="M295 -159q-36 0 -66.5 5.5t-54 19.5t-36.5 38.5t-13 62.5v222q0 21 -13 33.5t-32.5 18t-40.5 5.5v82q21 0 40.5 6t32.5 18.5t13 33.5v223q0 38 13 62.5t36.5 38.5t54.5 19.5t66 5.5v-56q-17 0 -37 -5t-34.5 -17t-15.5 -36l-10 -225q-2 -49 -22 -76.5t-76 -27.5v-9
q39 0 59.5 -13t29 -37.5t9.5 -58.5l10 -219q1 -22 15.5 -34.5t34.5 -17.5t37 -5v-57z" />
    <glyph glyph-name="bar" unicode="|" horiz-adv-x="270" 
d="M97 -183v907h76v-907h-76z" />
    <glyph glyph-name="braceright" unicode="}" horiz-adv-x="330" 
d="M35 735q36 0 67 -5.5t54 -19.5t36 -38.5t13 -62.5v-222q0 -20 13 -33t33 -18.5t40 -5.5v-82q-20 0 -40 -6t-33 -18.5t-13 -33.5v-223q0 -38 -13 -62.5t-36.5 -38.5t-54 -19.5t-66.5 -5.5v56q17 0 37 5t34.5 17.5t15.5 35.5l10 225q2 49 22 76.5t76 27.5v9q-38 0 -58.5 13
t-29 37.5t-10.5 58.5l-10 219q-1 22 -15.5 35t-34 17.5t-37.5 4.5v57z" />
    <glyph glyph-name="asciitilde" unicode="~" horiz-adv-x="666" 
d="M45 210v84q13 18 36.5 37t56.5 32t73 13q33 0 63 -10.5t59.5 -24.5t60 -24.5t64.5 -10.5q35 0 66.5 13.5t56.5 32.5t40 36v-84q-12 -17 -36.5 -36.5t-57.5 -32.5t-73 -13q-33 0 -63 10.5t-59 24.5t-60 24.5t-65 10.5t-65.5 -13.5t-56.5 -32.5t-40 -36z" />
    <glyph glyph-name="uni00A0" unicode="&#xa0;" horiz-adv-x="271" 
 />
    <glyph glyph-name="exclamdown" unicode="&#xa1;" horiz-adv-x="279" 
d="M84 -160l22 494h67l22 -494h-111zM84 413v113h111v-113h-111z" />
    <glyph glyph-name="cent" unicode="&#xa2;" horiz-adv-x="634" 
d="M293 -49v772h54v-772h-54zM323 68q-87 0 -146.5 30t-90 91.5t-30.5 153.5t30.5 153t90.5 91.5t147 30.5q57 0 101.5 -13.5t76.5 -40.5t48.5 -66t16.5 -89h-94q0 46 -19 75t-52.5 43.5t-78.5 14.5q-51 0 -89.5 -19.5t-59.5 -61t-21 -108.5v-20q0 -66 20.5 -108t59.5 -61.5
t93 -19.5q45 0 78.5 15t53 45t19.5 73h90q0 -49 -17 -87.5t-48.5 -66t-76.5 -41.5t-102 -14z" />
    <glyph glyph-name="sterling" unicode="&#xa3;" horiz-adv-x="650" 
d="M54 0v79h87v223h-105v76h105v125q0 66 29.5 109t81 64.5t119.5 21.5q65 0 114.5 -20.5t78.5 -62t29 -104.5v-16h-89v18q0 38 -17.5 62t-47.5 35.5t-68 11.5q-40 0 -71 -12t-48.5 -36.5t-17.5 -61.5v-134h185v-76h-185l-9 -223h367v-79h-538z" />
    <glyph glyph-name="currency" unicode="&#xa4;" horiz-adv-x="577" 
d="M82 96l-46 46l56 55q-27 31 -39.5 70t-12.5 81q0 41 12.5 81t39.5 69l-56 55l47 47l56 -56q30 25 69 38.5t79 13.5q42 0 81 -13.5t67 -38.5l57 57l47 -48l-55 -55q26 -28 38.5 -68t12.5 -82t-12.5 -81t-38.5 -70l55 -55l-46 -46l-56 57q-29 -27 -68.5 -40t-81.5 -13
q-41 0 -80 13t-69 40zM287 166q50 0 91 24.5t65 66.5t24 91t-24 90t-65 66t-91 25q-49 0 -90 -25t-65.5 -65.5t-24.5 -90.5t25 -91.5t65.5 -66t89.5 -24.5z" />
    <glyph glyph-name="yen" unicode="&#xa5;" horiz-adv-x="629" 
d="M267 0v159h-217v64h217v66h-217v64h181q-8 12 -24 34.5t-31 45.5l-163 253h112l131 -213q9 -13 19.5 -31t21 -35t18.5 -30h6q8 13 17.5 29.5t20 34.5t19.5 32l130 213h107l-162 -252q-15 -22 -30.5 -45.5t-23.5 -35.5h180v-64h-216v-66h216v-64h-216v-159h-96z" />
    <glyph glyph-name="brokenbar" unicode="&#xa6;" horiz-adv-x="270" 
d="M97 351v373h76v-373h-76zM97 -183v372h76v-372h-76z" />
    <glyph glyph-name="section" unicode="&#xa7;" horiz-adv-x="643" 
d="M320 -182q-65 0 -112.5 11.5t-78.5 32t-45.5 47.5t-14.5 58q0 3 0.5 8t0.5 8h96v-11q0 -14 7 -29t24.5 -27t48 -19t77.5 -7t81.5 10t53.5 29.5t19 46.5q0 29 -23 48.5t-61 33t-83.5 25.5t-90.5 26t-83.5 34.5t-61.5 51t-23 73.5q0 33 14 60t38.5 48t55.5 35
q-40 20 -66 50.5t-26 76.5q0 39 18 68.5t52 50t81 31t105 10.5q64 0 111 -11t78 -31.5t46.5 -47.5t15.5 -59v-8t-1 -8h-96v11q0 14 -7 28.5t-24 26.5t-47.5 19.5t-77.5 7.5t-82 -10t-54 -29.5t-19 -46.5q0 -29 23 -48.5t61 -33t83.5 -25.5t91 -26.5t83.5 -34.5t61 -50.5
t23 -74.5q0 -32 -14 -59.5t-38.5 -48t-55.5 -34.5q41 -20 67 -50.5t26 -76.5q0 -38 -18 -68t-52 -50.5t-81.5 -31t-105.5 -10.5zM411 137q38 12 62.5 35.5t24.5 56.5q0 36 -24.5 58t-64 37.5t-86 27.5t-92.5 26q-37 -12 -61.5 -35.5t-24.5 -55.5q0 -35 24.5 -58t64 -38.5
t86 -27.5t91.5 -26z" />
    <glyph glyph-name="dieresis" unicode="&#xa8;" horiz-adv-x="313" 
d="M0 627v93h96v-93h-96zM217 627v93h96v-93h-96z" />
    <glyph glyph-name="copyright" unicode="&#xa9;" horiz-adv-x="801" 
d="M400 -12q-77 0 -142 26.5t-112.5 74t-74 112.5t-26.5 142t26.5 142t74 112.5t112.5 74t142 26.5t142 -26.5t113 -74t74.5 -112.5t26.5 -142t-26.5 -142t-74.5 -112.5t-113 -74t-142 -26.5zM398 131q-57 0 -99.5 21t-65.5 67.5t-23 122.5t23 122.5t65 68t100 21.5
q51 0 91 -16.5t62.5 -53t22.5 -96.5h-63q0 42 -14.5 66t-40 34.5t-58.5 10.5q-58 0 -90.5 -35t-32.5 -109v-24q0 -51 14.5 -83t42.5 -47t66 -15q33 0 59 10.5t41 35t15 63.5h61q0 -56 -22.5 -92.5t-62 -54t-91.5 -17.5zM400 35q90 0 159 40t108.5 109.5t39.5 158.5
t-39.5 158.5t-108.5 109.5t-159 40q-89 0 -158.5 -40t-109 -109.5t-39.5 -158.5t39.5 -158.5t109 -109.5t158.5 -40z" />
    <glyph glyph-name="ordfeminine" unicode="&#xaa;" horiz-adv-x="434" 
d="M154 330q-32 0 -61.5 9t-47.5 30.5t-18 58.5q0 40 20.5 64t57 36t85.5 16.5t105 4.5v27q0 25 -8.5 40t-28.5 22.5t-57 7.5q-33 0 -53 -7t-29.5 -18t-9.5 -26v-11h-65q-1 2 -1.5 6t-0.5 7q0 49 43 75t121 26q51 0 85.5 -12t52.5 -37.5t18 -64.5v-176q0 -14 5 -19.5
t16 -5.5h30v-42q-10 -3 -23 -6t-27 -3q-36 0 -48.5 17t-15.5 44h-5q-22 -30 -59.5 -46.5t-80.5 -16.5zM167 382q32 0 61.5 12t48 34.5t18.5 53.5v19q-65 1 -109.5 -4.5t-67.5 -20.5t-23 -43q0 -19 10 -30t26.5 -16t35.5 -5z" />
    <glyph glyph-name="guillemotleft" unicode="&#xab;" horiz-adv-x="566" 
d="M232 125l-185 201l185 200h77l-154 -200l154 -201h-77zM441 125l-185 201l185 200h77l-153 -200l153 -201h-77z" />
    <glyph glyph-name="logicalnot" unicode="&#xac;" horiz-adv-x="666" 
d="M512 172v195h-450v81h531v-276h-81z" />
    <glyph glyph-name="uni00AD" unicode="&#xad;" horiz-adv-x="375" 
d="M45 224v95h285v-95h-285z" />
    <glyph glyph-name="registered" unicode="&#xae;" horiz-adv-x="801" 
d="M400 -12q-77 0 -142 26.5t-112.5 74t-74 112.5t-26.5 142t26.5 142t74 112.5t112.5 74t142 26.5t142 -26.5t113 -74t74.5 -112.5t26.5 -142t-26.5 -142t-74.5 -112.5t-113 -74t-142 -26.5zM400 35q90 0 159 40t108.5 109.5t39.5 158.5t-39.5 158.5t-108.5 109.5t-159 40
q-89 0 -158.5 -40t-109 -109.5t-39.5 -158.5t39.5 -158.5t109 -109.5t158.5 -40zM246 136v412h199q66 0 100 -32.5t34 -89.5q0 -42 -20.5 -73t-57.5 -46l92 -171h-70l-83 159h-131v-159h-63zM309 349h134q32 0 51.5 19.5t19.5 55.5q0 33 -18.5 51.5t-52.5 18.5h-134v-145z
" />
    <glyph glyph-name="macron" unicode="&#xaf;" horiz-adv-x="338" 
d="M0 637v63h338v-63h-338z" />
    <glyph glyph-name="degree" unicode="&#xb0;" horiz-adv-x="400" 
d="M201 437q-36 0 -66 17.5t-48 47t-18 65.5q0 37 18 67t48 47t66 17q37 0 66.5 -17.5t47 -47t17.5 -66.5q0 -36 -17.5 -65.5t-47 -47t-66.5 -17.5zM201 490q33 0 54.5 22.5t21.5 54.5q0 33 -21.5 55.5t-54.5 22.5t-55.5 -22.5t-22.5 -55.5q0 -32 22.5 -54.5t55.5 -22.5z
" />
    <glyph glyph-name="plusminus" unicode="&#xb1;" horiz-adv-x="666" 
d="M295 133v216h-213v76h213v216h76v-216h213v-76h-213v-216h-76zM82 0v76h502v-76h-502z" />
    <glyph glyph-name="uni00B2" unicode="&#xb2;" horiz-adv-x="378" 
d="M43 440v22q0 35 19 60t49 44.5t64 37.5q39 21 68 42t29 50q0 22 -19.5 35t-57.5 13q-31 0 -49.5 -8.5t-26.5 -22t-8 -28.5v-25h-62q0 5 -1 12t-1 14q0 39 20 64t54.5 36.5t77.5 11.5q42 0 73 -12t48 -34.5t17 -54.5q0 -26 -11 -47t-29 -37t-40 -29.5t-45 -25.5
q-29 -15 -55 -28.5t-36 -31.5h219v-58h-297z" />
    <glyph glyph-name="uni00B3" unicode="&#xb3;" horiz-adv-x="378" 
d="M194 428q-75 0 -114.5 29t-39.5 79v12h63v-11q0 -26 23.5 -40t61.5 -14q28 0 49 5.5t32.5 17.5t11.5 32q0 21 -12.5 32t-31.5 15t-39 4h-62v54h63q18 0 34.5 5.5t27 17t10.5 30.5q0 17 -10.5 27.5t-28 15.5t-38.5 5t-40 -5.5t-30.5 -17t-11.5 -29.5v-12h-64v14
q0 32 19.5 55t52.5 36t75 13q41 0 73 -11t50 -33t18 -55q0 -28 -17 -48t-42 -30v-2q31 -9 50 -29.5t19 -54.5q0 -33 -19 -57.5t-53.5 -37t-79.5 -12.5z" />
    <glyph glyph-name="acute" unicode="&#xb4;" horiz-adv-x="213" 
d="M0 591l101 132h112v-3l-131 -129h-82z" />
    <glyph glyph-name="uni00B5" unicode="&#xb5;" horiz-adv-x="628" 
d="M73 -180v706h93v-334q0 -38 9.5 -62t26.5 -37.5t41 -18.5t52 -5q43 0 81 19t62 54.5t24 83.5v300h93v-526h-74l-8 86h-8q-23 -37 -54 -58.5t-65 -30.5t-69 -9t-65 8.5t-50 26.5q2 -14 3 -34t1 -38v-131h-93z" />
    <glyph glyph-name="paragraph" unicode="&#xb6;" horiz-adv-x="626" 
d="M278 -169v420q-59 2 -107.5 30.5t-77 76.5t-28.5 109q0 69 30.5 118t83 75t117.5 26h288v-65h-75v-790h-72v790h-87v-790h-72z" />
    <glyph glyph-name="periodcentered" unicode="&#xb7;" horiz-adv-x="376" 
d="M132 295v114h112v-114h-112z" />
    <glyph glyph-name="cedilla" unicode="&#xb8;" horiz-adv-x="228" 
d="M104 -180q-26 0 -53.5 2t-50.5 7v39h115q19 0 30 7t11 21q0 13 -9 19t-32 6h-62l20 95h61l-9 -54q29 0 52.5 -6t37 -20.5t13.5 -39.5q0 -23 -10.5 -38t-28.5 -23t-40 -11.5t-45 -3.5z" />
    <glyph glyph-name="uni00B9" unicode="&#xb9;" horiz-adv-x="378" 
d="M64 440v57h106v211h-105v42q26 1 51 6t48 14.5t42 23.5h28v-297h96v-57h-266z" />
    <glyph glyph-name="ordmasculine" unicode="&#xba;" horiz-adv-x="423" 
d="M211 329q-59 0 -99.5 20.5t-61.5 61.5t-21 103t21.5 103t62 61t99.5 20t99.5 -20t61.5 -61t21 -103t-21 -103t-62 -61.5t-100 -20.5zM212 384q54 0 83 30t29 93v13q0 63 -29.5 93.5t-82.5 30.5q-54 0 -83 -30t-29 -93v-14q0 -62 29 -92.5t83 -30.5z" />
    <glyph glyph-name="guillemotright" unicode="&#xbb;" horiz-adv-x="566" 
d="M335 526l185 -201l-185 -200h-77l153 200l-153 201h77zM125 526l185 -201l-185 -200h-77l154 200l-154 201h77z" />
    <glyph glyph-name="onequarter" unicode="&#xbc;" horiz-adv-x="946" 
d="M153 -12l578 710h72l-578 -710h-72zM64 340v57h106v211h-105v42q26 1 51 6t48 14.5t42 23.5h28v-297h96v-57h-266zM754 0v79h-194v50q36 52 64 109t45 120h69q-8 -32 -22 -65t-30 -64t-32 -56t-28 -40h128v101q5 10 10 22.5t9.5 25.5t7.5 24h36v-173h56v-54h-56v-79h-63z
" />
    <glyph glyph-name="onehalf" unicode="&#xbd;" horiz-adv-x="946" 
d="M153 -12l578 710h72l-579 -710h-71zM592 0v22q0 35 19 60t49 44.5t64 37.5q39 21 68 42t29 50q0 22 -19.5 35t-57.5 13q-31 0 -49.5 -8.5t-26.5 -22t-8 -28.5v-25h-62q0 5 -1 12t-1 14q0 39 20 64t54.5 36.5t77.5 11.5q42 0 73 -12t48 -34.5t17 -54.5q0 -26 -11 -47
t-29 -37t-40 -29.5t-45 -25.5q-29 -15 -55 -28.5t-36 -31.5h219v-58h-297zM64 340v57h106v211h-105v42q26 1 51 6t48 14.5t42 23.5h28v-297h96v-57h-266z" />
    <glyph glyph-name="threequarters" unicode="&#xbe;" horiz-adv-x="946" 
d="M153 -12l578 710h72l-579 -710h-71zM194 328q-75 0 -114.5 29t-39.5 79v12h63v-11q0 -26 23.5 -40t61.5 -14q28 0 49 5.5t32.5 17.5t11.5 32q0 21 -12.5 32t-31.5 15t-39 4h-62v54h63q18 0 34.5 5.5t27 17t10.5 30.5q0 17 -10.5 27.5t-28 15.5t-38.5 5t-40 -5.5
t-30.5 -17t-11.5 -29.5v-12h-64v14q0 32 19.5 55t52.5 36t75 13q41 0 73 -11t50 -33t18 -55q0 -28 -17 -48t-42 -30v-2q31 -9 50 -29.5t19 -54.5q0 -33 -19 -57t-53.5 -37t-79.5 -13zM754 0v79h-194v50q36 52 64 109t45 120h69q-8 -32 -22 -65t-30 -64t-32 -56t-28 -40h128
v101q5 10 10 22.5t9.5 25.5t7.5 24h36v-173h56v-54h-56v-79h-63z" />
    <glyph glyph-name="questiondown" unicode="&#xbf;" horiz-adv-x="615" 
d="M305 -172q-58 0 -99.5 12.5t-68 33.5t-42 45t-21.5 47.5t-6 41.5q0 48 14.5 81t37 55.5t48 39.5t48.5 33t37.5 35t14.5 46v42h92v-51q0 -36 -14 -62t-35.5 -44.5t-46.5 -35t-47 -34.5t-35.5 -41.5t-13.5 -57.5q0 -14 5.5 -32.5t20.5 -35.5t44 -28t75 -11q53 0 84.5 14.5
t48 36t22 43.5t5.5 35q0 8 -0.5 15t-0.5 13h92q1 -4 2 -12.5t1 -21.5q0 -21 -7.5 -48t-25 -54t-47.5 -49.5t-75 -36.5t-107 -14zM259 413v113h110v-113h-110z" />
    <glyph glyph-name="Agrave" unicode="&#xc0;" horiz-adv-x="784" 
d="M19 0l310 686h126l310 -686h-111l-74 166h-382l-73 -166h-106zM236 252h305l-92 209q-5 10 -12.5 28t-15.5 38t-15.5 39t-12.5 32h-8q-8 -21 -19 -47.5t-21 -50.5t-16 -39zM452 738h-84l-132 129l1 3h113z" />
    <glyph glyph-name="Aacute" unicode="&#xc1;" horiz-adv-x="784" 
d="M19 0l310 686h126l310 -686h-111l-74 166h-382l-73 -166h-106zM236 252h305l-92 209q-5 10 -12.5 28t-15.5 38t-15.5 39t-12.5 32h-8q-8 -21 -19 -47.5t-21 -50.5t-16 -39zM333 738l102 132h113l1 -3l-132 -129h-84z" />
    <glyph glyph-name="Acircumflex" unicode="&#xc2;" horiz-adv-x="784" 
d="M19 0l310 686h126l310 -686h-111l-74 166h-382l-73 -166h-106zM236 252h305l-92 209q-5 10 -12.5 28t-15.5 38t-15.5 39t-12.5 32h-8q-8 -21 -19 -47.5t-21 -50.5t-16 -39zM224 735l125 135h86l125 -135h-88l-103 111h45l-103 -111h-87z" />
    <glyph glyph-name="Atilde" unicode="&#xc3;" horiz-adv-x="784" 
d="M19 0l310 686h126l310 -686h-111l-74 166h-382l-73 -166h-106zM236 252h305l-92 209q-5 10 -12.5 28t-15.5 38t-15.5 39t-12.5 32h-8q-8 -21 -19 -47.5t-21 -50.5t-16 -39zM208 762q2 26 13 49.5t33 38t56 14.5q30 0 58.5 -9t55.5 -18.5t53 -9.5q19 0 28 11t12 25h59
q-1 -26 -13 -49.5t-34.5 -38t-56.5 -14.5q-27 0 -56 9.5t-56 18.5t-52 9q-20 0 -29.5 -10.5t-12.5 -25.5h-58z" />
    <glyph glyph-name="Adieresis" unicode="&#xc4;" horiz-adv-x="784" 
d="M19 0l310 686h126l310 -686h-111l-74 166h-382l-73 -166h-106zM236 252h305l-92 209q-5 10 -12.5 28t-15.5 38t-15.5 39t-12.5 32h-8q-8 -21 -19 -47.5t-21 -50.5t-16 -39zM236 776v93h95v-93h-95zM453 776v93h96v-93h-96z" />
    <glyph glyph-name="Aring" unicode="&#xc5;" horiz-adv-x="784" 
d="M19 0l310 686h126l310 -686h-111l-74 166h-382l-73 -166h-106zM236 252h305l-92 209q-5 10 -12.5 28t-15.5 38t-15.5 39t-12.5 32h-7q-9 -21 -20 -47.5t-21 -51t-16 -38.5zM392 719q-45 0 -73.5 28t-28.5 71t28.5 71t73.5 28t73.5 -28t28.5 -71t-28.5 -71t-73.5 -28z
M392 767q23 0 38 14.5t15 36.5t-15 36.5t-38 14.5t-37.5 -14.5t-14.5 -36.5t14.5 -36.5t37.5 -14.5z" />
    <glyph glyph-name="AE" unicode="&#xc6;" horiz-adv-x="1149" 
d="M1 0l403 686h671v-87h-519l61 -204h408v-87h-382l66 -221h373v-87h-452l-49 167h-376l-97 -167h-107zM255 254h300l-68 237q-3 10 -7 24t-8.5 29t-8 28t-6.5 21h-7q-7 -12 -15 -26t-16.5 -28t-16 -26.5t-12.5 -22.5z" />
    <glyph glyph-name="Ccedilla" unicode="&#xc7;" horiz-adv-x="839" 
d="M434 -12q-120 0 -202.5 39.5t-124.5 118.5t-42 197q0 175 96 265t272 90q102 0 179.5 -29t121 -87.5t43.5 -146.5h-101q0 61 -30.5 100t-85 57.5t-128.5 18.5q-79 0 -138.5 -27.5t-91.5 -84.5t-32 -145v-23q0 -89 32.5 -145.5t92 -83.5t140.5 -27q74 0 128.5 18.5
t84.5 57.5t30 99h100q0 -88 -44.5 -146t-121.5 -87t-178 -29zM436 -180q-26 0 -54 2t-50 7v39h114q20 0 31 7t11 21q0 13 -9 19t-32 6h-62l19 95h61l-9 -54q30 0 53 -6t37 -20.5t14 -39.5q0 -23 -10.5 -38t-28.5 -23t-40 -11.5t-45 -3.5z" />
    <glyph glyph-name="Egrave" unicode="&#xc8;" horiz-adv-x="773" 
d="M97 0v686h602v-87h-500v-204h450v-87h-450v-221h507v-87h-609zM462 739h-84l-131 128v4h114z" />
    <glyph glyph-name="Eacute" unicode="&#xc9;" horiz-adv-x="773" 
d="M97 0v686h602v-87h-500v-204h450v-87h-450v-221h507v-87h-609zM344 739l101 132h114v-4l-131 -128h-84z" />
    <glyph glyph-name="Ecircumflex" unicode="&#xca;" horiz-adv-x="773" 
d="M97 0v686h602v-87h-500v-204h450v-87h-450v-221h507v-87h-609zM235 736l125 135h85l126 -135h-89l-103 110h46l-103 -110h-87z" />
    <glyph glyph-name="Edieresis" unicode="&#xcb;" horiz-adv-x="773" 
d="M97 0v686h602v-87h-500v-204h450v-87h-450v-221h507v-87h-609zM246 777v93h96v-93h-96zM463 777v93h96v-93h-96z" />
    <glyph glyph-name="Igrave" unicode="&#xcc;" horiz-adv-x="296" 
d="M97 0v686h102v-686h-102zM207 738h-84l-131 129v3h114z" />
    <glyph glyph-name="Iacute" unicode="&#xcd;" horiz-adv-x="296" 
d="M97 0v686h102v-686h-102zM89 738l102 132h113v-3l-131 -129h-84z" />
    <glyph glyph-name="Icircumflex" unicode="&#xce;" horiz-adv-x="296" 
d="M97 0v686h102v-686h-102zM-20 735l125 135h85l126 -135h-88l-104 111h46l-103 -111h-87z" />
    <glyph glyph-name="Idieresis" unicode="&#xcf;" horiz-adv-x="296" 
d="M97 0v686h102v-686h-102zM-9 776v93h96v-93h-96zM208 776v93h96v-93h-96z" />
    <glyph glyph-name="Eth" unicode="&#xd0;" horiz-adv-x="835" 
d="M0 305v81h421v-81h-421zM97 0v686h303q116 0 198.5 -37.5t127 -113.5t44.5 -192q0 -115 -44.5 -191.5t-127 -114t-198.5 -37.5h-303zM199 87h198q59 0 108 14t85 43.5t55.5 76t19.5 111.5v21q0 66 -19.5 112.5t-55 76t-84.5 43.5t-109 14h-198v-512z" />
    <glyph glyph-name="Ntilde" unicode="&#xd1;" horiz-adv-x="841" 
d="M97 0v686h99l381 -444q9 -8 20.5 -22l23 -28t19.5 -25h6q0 18 -0.5 40t-0.5 40v439h99v-686h-93l-385 450q-16 17 -35 40.5t-30 37.5h-6q0 -16 0.5 -39.5t0.5 -48.5v-440h-99zM238 762q1 26 12 49.5t33.5 38t56.5 14.5q30 0 58 -9t55.5 -18.5t52.5 -9.5q19 0 28 11t12 25
h60q-1 -26 -13 -49.5t-34.5 -38t-56.5 -14.5q-28 0 -56.5 9.5t-56 18.5t-52.5 9q-19 0 -29 -10.5t-12 -25.5h-58z" />
    <glyph glyph-name="Ograve" unicode="&#xd2;" horiz-adv-x="906" 
d="M453 -12q-121 0 -208 40t-133.5 119t-46.5 196q0 118 46.5 196.5t133.5 118.5t208 40t208 -40t133.5 -118.5t46.5 -196.5q0 -117 -46.5 -196t-133.5 -119t-208 -40zM453 75q63 0 114.5 15t89.5 46.5t58.5 80t20.5 115.5v22q0 67 -20.5 116t-58.5 80t-89.5 46t-114.5 15
t-114.5 -15t-89.5 -46t-58.5 -80t-20.5 -116v-22q0 -67 20.5 -115.5t58.5 -80t89.5 -46.5t114.5 -15zM512 738h-84l-131 129v3h114z" />
    <glyph glyph-name="Oacute" unicode="&#xd3;" horiz-adv-x="906" 
d="M453 -12q-121 0 -208 40t-133.5 119t-46.5 196q0 118 46.5 196.5t133.5 118.5t208 40t208 -40t133.5 -118.5t46.5 -196.5q0 -117 -46.5 -196t-133.5 -119t-208 -40zM453 75q63 0 114.5 15t89.5 46.5t58.5 80t20.5 115.5v22q0 67 -20.5 116t-58.5 80t-89.5 46t-114.5 15
t-114.5 -15t-89.5 -46t-58.5 -80t-20.5 -116v-22q0 -67 20.5 -115.5t58.5 -80t89.5 -46.5t114.5 -15zM394 738l101 132h114v-3l-131 -129h-84z" />
    <glyph glyph-name="Ocircumflex" unicode="&#xd4;" horiz-adv-x="906" 
d="M453 -12q-121 0 -208 40t-133.5 119t-46.5 196q0 118 46.5 196.5t133.5 118.5t208 40t208 -40t133.5 -118.5t46.5 -196.5q0 -117 -46.5 -196t-133.5 -119t-208 -40zM453 75q63 0 114.5 15t89.5 46.5t58.5 80t20.5 115.5v22q0 67 -20.5 116t-58.5 80t-89.5 46t-114.5 15
t-114.5 -15t-89.5 -46t-58.5 -80t-20.5 -116v-22q0 -67 20.5 -115.5t58.5 -80t89.5 -46.5t114.5 -15zM284 735l126 135h85l126 -135h-89l-103 111h45l-102 -111h-88z" />
    <glyph glyph-name="Otilde" unicode="&#xd5;" horiz-adv-x="906" 
d="M453 -12q-121 0 -208 40t-133.5 119t-46.5 196q0 118 46.5 196.5t133.5 118.5t208 40t208 -40t133.5 -118.5t46.5 -196.5q0 -117 -46.5 -196t-133.5 -119t-208 -40zM453 75q63 0 114.5 15t89.5 46.5t58.5 80t20.5 115.5v22q0 67 -20.5 116t-58.5 80t-89.5 46t-114.5 15
t-114.5 -15t-89.5 -46t-58.5 -80t-20.5 -116v-22q0 -67 20.5 -115.5t58.5 -80t89.5 -46.5t114.5 -15zM269 762q1 26 12 49.5t33.5 38t56.5 14.5q30 0 58 -9t55.5 -18.5t52.5 -9.5q19 0 28 11t12 25h60q-1 -26 -13 -49.5t-34.5 -38t-56.5 -14.5q-28 0 -56.5 9.5t-56 18.5
t-52.5 9q-19 0 -29 -10.5t-12 -25.5h-58z" />
    <glyph glyph-name="Odieresis" unicode="&#xd6;" horiz-adv-x="906" 
d="M453 -12q-120 0 -207.5 40t-134 119t-46.5 196q0 118 46.5 196.5t134 118.5t207.5 40q121 0 208 -40t133.5 -118.5t46.5 -196.5q0 -117 -46.5 -196t-133.5 -119t-208 -40zM453 75q63 0 114.5 15t89.5 46.5t58.5 80t20.5 115.5v22q0 67 -20.5 116t-58.5 80t-89.5 46
t-114.5 15t-114.5 -15t-89.5 -46t-58.5 -80t-20.5 -116v-22q0 -67 20.5 -115.5t58.5 -80t89.5 -46.5t114.5 -15zM296 776v93h96v-93h-96zM513 776v93h96v-93h-96z" />
    <glyph glyph-name="multiply" unicode="&#xd7;" horiz-adv-x="666" 
d="M255 37l-90 90l78 79l-130 130l89 90l79 -78l131 131l89 -90l-79 -78l131 -130l-90 -90l-78 78z" />
    <glyph glyph-name="Oslash" unicode="&#xd8;" horiz-adv-x="906" 
d="M453 -12q-121 0 -208 40t-133.5 119t-46.5 196q0 118 46.5 196.5t133.5 118.5t208 40t208 -40t133.5 -118.5t46.5 -196.5q0 -117 -46.5 -196t-133.5 -119t-208 -40zM453 75q63 0 114.5 15t89.5 46.5t58.5 80t20.5 115.5v22q0 67 -20.5 116t-58.5 80t-89.5 46t-114.5 15
t-114.5 -15t-89.5 -46t-58.5 -80t-20.5 -116v-22q0 -67 20.5 -115.5t58.5 -80t89.5 -46.5t114.5 -15zM75 -47l669 781h86l-669 -781h-86z" />
    <glyph glyph-name="Ugrave" unicode="&#xd9;" horiz-adv-x="828" 
d="M413 -12q-106 0 -177.5 33t-107.5 99t-36 162v404h102v-409q0 -99 57 -150.5t162 -51.5t163 51.5t58 150.5v409h102v-404q0 -96 -36.5 -162t-108.5 -99t-178 -33zM473 738h-84l-131 129v3h114z" />
    <glyph glyph-name="Uacute" unicode="&#xda;" horiz-adv-x="828" 
d="M413 -12q-106 0 -177.5 33t-107.5 99t-36 162v404h102v-409q0 -99 57 -150.5t162 -51.5t163 51.5t58 150.5v409h102v-404q0 -96 -36.5 -162t-108.5 -99t-178 -33zM355 738l101 132h114v-3l-131 -129h-84z" />
    <glyph glyph-name="Ucircumflex" unicode="&#xdb;" horiz-adv-x="828" 
d="M413 -12q-106 0 -177.5 33t-107.5 99t-36 162v404h102v-409q0 -99 57 -150.5t162 -51.5t163 51.5t58 150.5v409h102v-404q0 -96 -36.5 -162t-108.5 -99t-178 -33zM245 735l126 135h85l126 -135h-89l-103 111h45l-102 -111h-88z" />
    <glyph glyph-name="Udieresis" unicode="&#xdc;" horiz-adv-x="828" 
d="M413 -12q-106 0 -177.5 33t-107.5 99t-36 162v404h102v-409q0 -99 57 -150.5t162 -51.5t163 51.5t58 150.5v409h102v-404q0 -96 -36.5 -162t-108.5 -99t-178 -33zM257 776v93h96v-93h-96zM474 776v93h96v-93h-96z" />
    <glyph glyph-name="Yacute" unicode="&#xdd;" horiz-adv-x="740" 
d="M319 0v284l-306 402h121l235 -315h8l235 315h115l-306 -402v-284h-102zM312 738l102 132h113l1 -3l-131 -129h-85z" />
    <glyph glyph-name="Thorn" unicode="&#xde;" horiz-adv-x="763" 
d="M96 0v686h102v-117h308q68 0 115.5 -27.5t72.5 -75t25 -109.5q0 -63 -26 -111.5t-73.5 -75.5t-113.5 -27h-308v-143h-102zM198 230h292q58 0 92 34t34 93q0 38 -14.5 66t-42.5 43t-69 15h-292v-251z" />
    <glyph glyph-name="germandbls" unicode="&#xdf;" horiz-adv-x="681" 
d="M77 0v514q0 62 22 104.5t59.5 68t86.5 37t103 11.5q63 0 110.5 -12.5t80 -36t48.5 -55.5t16 -71q0 -58 -33 -102t-93 -62v-4q71 -12 114 -61t43 -123q0 -70 -30 -116.5t-82 -69t-119 -22.5h-123v77h111q43 0 76 14t52 44t19 79q0 47 -20 76t-53.5 43.5t-73.5 14.5h-111
v78h99q36 0 65 16t46.5 43.5t17.5 63.5q0 50 -40 80t-120 30q-54 0 -94 -14.5t-62 -45.5t-22 -81v-518h-93z" />
    <glyph glyph-name="agrave" unicode="&#xe0;" horiz-adv-x="627" 
d="M236 -12q-37 0 -71 7.5t-61.5 24t-43 45t-15.5 71.5q0 59 31 94.5t86.5 53t130 23t161.5 5.5v45q0 37 -13.5 60.5t-45.5 34.5t-90 11q-50 0 -82 -10.5t-47 -28t-15 -38.5v-17h-91q-1 5 -1 9.5v11.5q0 47 29 80.5t84 50.5t132 17t128.5 -18t78 -55t26.5 -96v-268
q0 -20 8 -28.5t24 -8.5h45v-61q-15 -5 -34.5 -9.5t-41.5 -4.5q-32 0 -50.5 11t-27 31t-11.5 44h-7q-23 -27 -57 -47t-74.5 -30t-84.5 -10zM256 64q36 0 71 10t63.5 28t46 43.5t17.5 56.5v43q-102 0 -172 -8.5t-105.5 -31t-35.5 -65.5q0 -28 15.5 -44.5t42 -24t57.5 -7.5z
M384 591h-82l-131 129l1 3h111z" />
    <glyph glyph-name="aacute" unicode="&#xe1;" horiz-adv-x="627" 
d="M236 -12q-37 0 -71 7.5t-61.5 24t-43 45t-15.5 71.5q0 59 31 94.5t86.5 53t130 23t161.5 5.5v45q0 37 -13.5 60.5t-45.5 34.5t-90 11q-50 0 -82 -10.5t-47 -28t-15 -38.5v-17h-91q-1 5 -1 9.5v11.5q0 47 29 80.5t84 50.5t132 17t128.5 -18t78 -55t26.5 -96v-268
q0 -20 8 -28.5t24 -8.5h45v-61q-15 -5 -34.5 -9.5t-41.5 -4.5q-32 0 -50.5 11t-27 31t-11.5 44h-7q-23 -27 -57 -47t-74.5 -30t-84.5 -10zM256 64q36 0 71 10t63.5 28t46 43.5t17.5 56.5v43q-102 0 -172 -8.5t-105.5 -31t-35.5 -65.5q0 -28 15.5 -44.5t42 -24t57.5 -7.5z
M237 591l101 132h112v-3l-131 -129h-82z" />
    <glyph glyph-name="acircumflex" unicode="&#xe2;" horiz-adv-x="627" 
d="M236 -12q-37 0 -71 7.5t-61.5 24t-43 45t-15.5 71.5q0 59 31 94.5t86.5 53t130 23t161.5 5.5v45q0 37 -13.5 60.5t-45.5 34.5t-90 11q-50 0 -82 -10.5t-47 -28t-15 -38.5v-17h-91q-1 5 -1 9.5v11.5q0 47 29 80.5t84 50.5t132 17t128.5 -18t78 -55t26.5 -96v-268
q0 -20 8 -28.5t24 -8.5h45v-61q-15 -5 -34.5 -9.5t-41.5 -4.5q-32 0 -50.5 11t-27 31t-11.5 44h-7q-23 -27 -57 -47t-74.5 -30t-84.5 -10zM256 64q36 0 71 10t63.5 28t46 43.5t17.5 56.5v43q-102 0 -172 -8.5t-105.5 -31t-35.5 -65.5q0 -28 15.5 -44.5t42 -24t57.5 -7.5z
M144 589l125 135h82l126 -135h-87l-103 111l45 -1l-103 -110h-85z" />
    <glyph glyph-name="atilde" unicode="&#xe3;" horiz-adv-x="627" 
d="M236 -12q-37 0 -71 7.5t-61.5 24t-43 45t-15.5 71.5q0 59 31 94.5t86.5 53t130 23t161.5 5.5v45q0 37 -13.5 60.5t-45.5 34.5t-90 11q-50 0 -82 -10.5t-47 -28t-15 -38.5v-17h-91q-1 5 -1 9.5v11.5q0 47 29 80.5t84 50.5t132 17t128.5 -18t78 -55t26.5 -96v-268
q0 -20 8 -28.5t24 -8.5h45v-61q-15 -5 -34.5 -9.5t-41.5 -4.5q-32 0 -50.5 11t-27 31t-11.5 44h-7q-23 -27 -57 -47t-74.5 -30t-84.5 -10zM256 64q36 0 71 10t63.5 28t46 43.5t17.5 56.5v43q-102 0 -172 -8.5t-105.5 -31t-35.5 -65.5q0 -28 15.5 -44.5t42 -24t57.5 -7.5z
M126 620q1 26 12 49t33.5 37.5t56.5 14.5q30 0 58 -8.5t55.5 -18t52.5 -9.5q19 0 28 11t12 25h60q-1 -26 -13 -49.5t-34.5 -38t-56.5 -14.5q-28 0 -56.5 9.5t-56 18.5t-51.5 9q-20 0 -29.5 -11t-12.5 -25h-58z" />
    <glyph glyph-name="adieresis" unicode="&#xe4;" horiz-adv-x="627" 
d="M236 -12q-37 0 -71 7.5t-61.5 24t-43 45t-15.5 71.5q0 59 31 94.5t86.5 53t130 23t161.5 5.5v45q0 37 -13.5 60.5t-45.5 34.5t-90 11q-50 0 -82 -10.5t-47 -28t-15 -38.5v-17h-91q-1 5 -1 9.5v11.5q0 47 29 80.5t84 50.5t132 17t128.5 -18t78 -55t26.5 -96v-268
q0 -20 8 -28.5t24 -8.5h45v-61q-15 -5 -34.5 -9.5t-41.5 -4.5q-32 0 -50.5 11t-27 31t-11.5 44h-7q-23 -27 -57 -47t-74.5 -30t-84.5 -10zM256 64q36 0 71 10t63.5 28t46 43.5t17.5 56.5v43q-102 0 -172 -8.5t-105.5 -31t-35.5 -65.5q0 -28 15.5 -44.5t42 -24t57.5 -7.5z
M153 627v93h96v-93h-96zM370 627v93h96v-93h-96z" />
    <glyph glyph-name="aring" unicode="&#xe5;" horiz-adv-x="627" 
d="M236 -12q-37 0 -71 7.5t-61.5 24t-43 45t-15.5 71.5q0 59 31 94.5t86.5 53t130 23t161.5 5.5v45q0 37 -13.5 60.5t-45.5 34.5t-90 11q-50 0 -82 -10.5t-47 -28t-15 -38.5v-17h-91q-1 5 -1 9.5v11.5q0 47 29 80.5t84 50.5t132 17t128.5 -18t78 -55t26.5 -96v-268
q0 -20 8 -28.5t24 -8.5h45v-61q-15 -5 -34.5 -9.5t-41.5 -4.5q-32 0 -50.5 11t-27 31t-11.5 44h-7q-23 -27 -57 -47t-74.5 -30t-84.5 -10zM256 64q36 0 71 10t63.5 28t46 43.5t17.5 56.5v43q-102 0 -172 -8.5t-105.5 -31t-35.5 -65.5q0 -28 15.5 -44.5t42 -24t57.5 -7.5z
M310 572q-43 0 -72 29t-29 71q0 43 29 72t72 29t72 -29t29 -72q0 -42 -29 -71t-72 -29zM310 618q23 0 38.5 16t15.5 38q0 23 -15.5 39t-38.5 16q-22 0 -38 -16t-16 -39q0 -22 16 -38t38 -16z" />
    <glyph glyph-name="ae" unicode="&#xe6;" horiz-adv-x="1036" 
d="M252 -12q-39 0 -76.5 7t-66.5 23.5t-46.5 44.5t-17.5 70q0 60 31 95.5t87.5 53t132 23t163.5 5.5v47q0 37 -13.5 60.5t-46.5 34.5t-92 11q-51 0 -83.5 -10.5t-47.5 -27.5t-15 -39v-17h-91q-1 5 -1 9.5v11.5q0 47 29 80.5t84.5 50.5t133.5 17t130 -19.5t77 -62.5
q34 41 85.5 61.5t119.5 20.5q87 0 144.5 -29.5t86.5 -85t29 -135.5v-46h-434q1 -64 22.5 -103.5t61 -57.5t93.5 -18q36 0 65 9.5t50 25t32.5 36.5t13.5 45h92q-1 -39 -17 -73.5t-48 -61t-80 -41.5t-112 -15q-79 0 -135.5 25.5t-88.5 77.5q-29 -36 -69 -58.5t-86 -33.5
t-96 -11zM260 64q37 0 72 9.5t64 27.5t46 44t17 57v41q-103 0 -174.5 -8t-107.5 -30t-36 -65q0 -28 16 -45t43.5 -24t59.5 -7zM554 311h336q0 43 -13 72t-35.5 46.5t-52.5 25.5t-63 8q-50 0 -87.5 -16t-58.5 -49.5t-26 -86.5z" />
    <glyph glyph-name="ccedilla" unicode="&#xe7;" horiz-adv-x="605" 
d="M314 -12q-88 0 -147.5 30.5t-89.5 91.5t-30 153t30 153t90 91.5t148 30.5q57 0 101.5 -13.5t76.5 -40.5t48.5 -65.5t16.5 -89.5h-94q0 46 -19 75.5t-52.5 43.5t-78.5 14q-51 0 -89.5 -19.5t-59.5 -60.5t-21 -109v-20q0 -65 20.5 -107t59.5 -62t92 -20q45 0 79 15t53 45
t19 73h91q0 -48 -17 -87t-48.5 -66t-76.5 -41.5t-102 -14.5zM312 -180q-27 0 -54.5 2t-49.5 7v39h114q20 0 31 7t11 21q0 13 -9 19t-32 6h-62l19 95h61l-9 -54q29 0 52.5 -6t37.5 -20.5t14 -39.5q0 -23 -11 -38t-28.5 -23t-39.5 -11.5t-45 -3.5z" />
    <glyph glyph-name="egrave" unicode="&#xe8;" horiz-adv-x="631" 
d="M321 -12q-87 0 -148 29.5t-93 90.5t-32 155q0 93 31.5 154t92.5 91t149 30t146 -30t87 -86.5t29 -136.5v-46h-438q2 -63 23.5 -102t61.5 -56.5t94 -17.5q37 0 66 9.5t50 25t33.5 36.5t13.5 45h92q-1 -39 -17 -73.5t-48 -61t-80.5 -41.5t-112.5 -15zM146 308h339
q0 43 -13 72.5t-36 48t-52.5 26.5t-64.5 8q-50 0 -87.5 -16.5t-59.5 -51t-26 -87.5zM393 591h-82l-132 129l1 3h111z" />
    <glyph glyph-name="eacute" unicode="&#xe9;" horiz-adv-x="631" 
d="M321 -12q-87 0 -148 29.5t-93 90.5t-32 155q0 93 31.5 154t92.5 91t149 30t146 -30t87 -86.5t29 -136.5v-46h-438q2 -63 23.5 -102t61.5 -56.5t94 -17.5q37 0 66 9.5t50 25t33.5 36.5t13.5 45h92q-1 -39 -17 -73.5t-48 -61t-80.5 -41.5t-112.5 -15zM146 308h339
q0 43 -13 72.5t-36 48t-52.5 26.5t-64.5 8q-50 0 -87.5 -16.5t-59.5 -51t-26 -87.5zM245 591l102 132h111l1 -3l-132 -129h-82z" />
    <glyph glyph-name="ecircumflex" unicode="&#xea;" horiz-adv-x="631" 
d="M321 -12q-87 0 -148 29.5t-93 90.5t-32 155q0 93 31.5 154t92.5 91t149 30t146 -30t87 -86.5t29 -136.5v-46h-438q2 -63 23.5 -102t61.5 -56.5t94 -17.5q37 0 66 9.5t50 25t33.5 36.5t13.5 45h92q-1 -39 -17 -73.5t-48 -61t-80.5 -41.5t-112.5 -15zM146 308h339
q0 43 -13 72.5t-36 48t-52.5 26.5t-64.5 8q-50 0 -87.5 -16.5t-59.5 -51t-26 -87.5zM152 589l125 135h82l126 -135h-87l-103 111l45 -1l-102 -110h-86z" />
    <glyph glyph-name="edieresis" unicode="&#xeb;" horiz-adv-x="631" 
d="M321 -12q-87 0 -148 29.5t-93 90.5t-32 155q0 93 31.5 154t92.5 91t149 30t146 -30t87 -86.5t29 -136.5v-46h-438q2 -63 23.5 -102t61.5 -56.5t94 -17.5q37 0 66 9.5t50 25t33.5 36.5t13.5 45h92q-1 -39 -17 -73.5t-48 -61t-80.5 -41.5t-112.5 -15zM146 308h339
q0 43 -13 72.5t-36 48t-52.5 26.5t-64.5 8q-50 0 -87.5 -16.5t-59.5 -51t-26 -87.5zM162 627v93h95v-93h-95zM379 627v93h96v-93h-96z" />
    <glyph glyph-name="igrave" unicode="&#xec;" horiz-adv-x="238" 
d="M73 0v526h93v-526h-93zM193 591h-82l-131 129l1 3h111z" />
    <glyph glyph-name="iacute" unicode="&#xed;" horiz-adv-x="238" 
d="M73 0v526h93v-526h-93zM46 591l101 132h112v-3l-131 -129h-82z" />
    <glyph glyph-name="icircumflex" unicode="&#xee;" horiz-adv-x="238" 
d="M73 0v526h93v-526h-93zM-47 589l125 135h82l126 -135h-87l-104 111l46 -1l-103 -110h-85z" />
    <glyph glyph-name="idieresis" unicode="&#xef;" horiz-adv-x="238" 
d="M73 0v526h93v-526h-93zM-38 627v93h96v-93h-96zM179 627v93h96v-93h-96z" />
    <glyph glyph-name="eth" unicode="&#xf0;" horiz-adv-x="642" 
d="M320 -12q-88 0 -148.5 30t-91.5 91t-31 152q0 88 30 148t88 91.5t140 31.5q27 0 51.5 -4.5t45.5 -12.5l3 4q-20 25 -44 49t-49 46l-160 -13v57l101 7q-19 15 -38.5 28.5t-38.5 25.5l1 4h114q12 -7 24 -15t23.5 -16t22.5 -17l153 12v-57l-93 -7q53 -49 91 -106t59 -120
t21 -132q0 -93 -31.5 -154.5t-92 -92t-150.5 -30.5zM321 64q56 0 95 20t60 61t21 107v20q0 66 -21 107.5t-60 61t-95 19.5q-55 0 -94.5 -19.5t-60 -61t-20.5 -106.5v-21q0 -65 20.5 -106.5t60 -61.5t94.5 -20z" />
    <glyph glyph-name="ntilde" unicode="&#xf1;" horiz-adv-x="623" 
d="M73 0v526h74l8 -85h8q25 36 57.5 57.5t69 30.5t73.5 9q61 0 104 -19t66 -60t23 -109v-350h-94v335q0 38 -9.5 62t-26.5 37t-41 18.5t-53 5.5q-42 0 -80.5 -19.5t-62 -54.5t-23.5 -84v-300h-93zM128 620q1 26 12 49t33.5 37.5t56.5 14.5q30 0 58 -8.5t55.5 -18t52.5 -9.5
q19 0 28 11t12 25h60q-1 -26 -13 -49.5t-34.5 -38t-56.5 -14.5q-28 0 -56.5 9.5t-56 18.5t-51.5 9q-20 0 -29.5 -11t-12.5 -25h-58z" />
    <glyph glyph-name="ograve" unicode="&#xf2;" horiz-adv-x="644" 
d="M322 -12q-89 0 -150 30.5t-92.5 91.5t-31.5 153q0 93 31.5 154t92.5 91t150 30t149.5 -30t92 -91t31.5 -154q0 -92 -31.5 -153t-92 -91.5t-149.5 -30.5zM322 64q55 0 94.5 20t60.5 62t21 107v21q0 66 -21 107t-60.5 61t-94.5 20t-95 -20t-61 -61t-21 -107v-21
q0 -65 21 -107t61 -62t95 -20zM396 591h-82l-131 129v3h111z" />
    <glyph glyph-name="oacute" unicode="&#xf3;" horiz-adv-x="644" 
d="M322 -12q-89 0 -150 30.5t-92.5 91.5t-31.5 153q0 93 31.5 154t92.5 91t150 30t149.5 -30t92 -91t31.5 -154q0 -92 -31.5 -153t-92 -91.5t-149.5 -30.5zM322 64q55 0 94.5 20t60.5 62t21 107v21q0 66 -21 107t-60.5 61t-94.5 20t-95 -20t-61 -61t-21 -107v-21
q0 -65 21 -107t61 -62t95 -20zM248 591l102 132h111l1 -3l-132 -129h-82z" />
    <glyph glyph-name="ocircumflex" unicode="&#xf4;" horiz-adv-x="644" 
d="M322 -12q-89 0 -150 30.5t-92.5 91.5t-31.5 153q0 93 31.5 154t92.5 91t150 30t149.5 -30t92 -91t31.5 -154q0 -92 -31.5 -153t-92 -91.5t-149.5 -30.5zM322 64q55 0 94.5 20t60.5 62t21 107v21q0 66 -21 107t-60.5 61t-94.5 20t-95 -20t-61 -61t-21 -107v-21
q0 -65 21 -107t61 -62t95 -20zM155 589l126 135h81l126 -135h-87l-103 111l45 -1l-102 -110h-86z" />
    <glyph glyph-name="otilde" unicode="&#xf5;" horiz-adv-x="644" 
d="M322 -12q-89 0 -150 30.5t-92.5 91.5t-31.5 153q0 93 31.5 154t92.5 91t150 30t149.5 -30t92 -91t31.5 -154q0 -92 -31.5 -153t-92 -91.5t-149.5 -30.5zM322 64q55 0 94.5 20t60.5 62t21 107v21q0 66 -21 107t-60.5 61t-94.5 20t-95 -20t-61 -61t-21 -107v-21
q0 -65 21 -107t61 -62t95 -20zM137 620q2 26 13 49t33 37.5t56 14.5q30 0 58.5 -8.5t55.5 -18t53 -9.5q19 0 28 11t12 25h59q-1 -26 -13 -49.5t-34.5 -38t-55.5 -14.5q-28 0 -57 9.5t-56 18.5t-52 9q-20 0 -29.5 -11t-12.5 -25h-58z" />
    <glyph glyph-name="odieresis" unicode="&#xf6;" horiz-adv-x="644" 
d="M322 -12q-89 0 -150 30.5t-92.5 91.5t-31.5 153q0 93 31.5 154t92.5 91t150 30t149.5 -30t92 -91t31.5 -154q0 -92 -31.5 -153t-92 -91.5t-149.5 -30.5zM322 64q55 0 94.5 20t60.5 62t21 107v21q0 66 -21 107t-60.5 61t-94.5 20t-95 -20t-61 -61t-21 -107v-21
q0 -65 21 -107t61 -62t95 -20zM165 627v93h96v-93h-96zM382 627v93h96v-93h-96z" />
    <glyph glyph-name="divide" unicode="&#xf7;" horiz-adv-x="666" 
d="M82 221v76h502v-76h-502zM287 27v92h91v-92h-91zM287 400v91h91v-91h-91z" />
    <glyph glyph-name="oslash" unicode="&#xf8;" horiz-adv-x="644" 
d="M322 -12q-89 0 -150 30.5t-92.5 91.5t-31.5 153q0 93 31.5 154t92.5 91t150 30t149.5 -30t92 -91t31.5 -154q0 -92 -31.5 -153t-92 -91.5t-149.5 -30.5zM322 64q55 0 94.5 20t60.5 62t21 107v21q0 66 -21 107t-60.5 61t-94.5 20t-95 -20t-61 -61t-21 -107v-21
q0 -65 21 -107t61 -62t95 -20zM42 -47l488 621h71l-485 -621h-74z" />
    <glyph glyph-name="ugrave" unicode="&#xf9;" horiz-adv-x="623" 
d="M259 -12q-90 0 -141 43.5t-51 145.5v349h93v-334q0 -38 9.5 -62t27 -37.5t41.5 -18.5t52 -5q43 0 81 19t62 54.5t24 83.5v300h93v-526h-74l-8 86h-8q-25 -37 -57.5 -58.5t-69 -30.5t-74.5 -9zM386 591h-82l-132 129l1 3h111z" />
    <glyph glyph-name="uacute" unicode="&#xfa;" horiz-adv-x="623" 
d="M259 -12q-90 0 -141 43.5t-51 145.5v349h93v-334q0 -38 9.5 -62t27 -37.5t41.5 -18.5t52 -5q43 0 81 19t62 54.5t24 83.5v300h93v-526h-74l-8 86h-8q-25 -37 -57.5 -58.5t-69 -30.5t-74.5 -9zM238 591l102 132h111v-3l-131 -129h-82z" />
    <glyph glyph-name="ucircumflex" unicode="&#xfb;" horiz-adv-x="623" 
d="M259 -12q-90 0 -141 43.5t-51 145.5v349h93v-334q0 -38 9.5 -62t27 -37.5t41.5 -18.5t52 -5q43 0 81 19t62 54.5t24 83.5v300h93v-526h-74l-8 86h-8q-25 -37 -57.5 -58.5t-69 -30.5t-74.5 -9zM145 589l125 135h82l126 -135h-87l-103 111l45 -1l-102 -110h-86z" />
    <glyph glyph-name="udieresis" unicode="&#xfc;" horiz-adv-x="623" 
d="M259 -12q-90 0 -141 43.5t-51 145.5v349h93v-334q0 -38 9.5 -62t27 -37.5t41.5 -18.5t52 -5q43 0 81 19t62 54.5t24 83.5v300h93v-526h-74l-8 86h-8q-25 -37 -57.5 -58.5t-69 -30.5t-74.5 -9zM154 627v93h96v-93h-96zM371 627v93h97v-93h-97z" />
    <glyph glyph-name="yacute" unicode="&#xfd;" horiz-adv-x="556" 
d="M121 -186q-24 0 -42.5 3t-31.5 7v65h51q37 0 63.5 10.5t45.5 35t35 65.5l-232 526h100l117 -272q9 -18 19.5 -46.5t22 -58t20.5 -51.5h6q4 12 10.5 32t14.5 43t16.5 45t14.5 39l99 269h96l-199 -509q-20 -48 -40 -86t-45 -64t-59 -39.5t-82 -13.5zM210 591l101 132h111
l1 -3l-131 -129h-82z" />
    <glyph glyph-name="thorn" unicode="&#xfe;" horiz-adv-x="631" 
d="M73 -177v903h93v-269h6q20 28 48 46t62.5 26.5t72.5 8.5q71 0 121.5 -29.5t78.5 -90t28 -153.5q0 -94 -28 -155.5t-79 -91.5t-123 -30q-39 0 -72.5 9t-61 27.5t-47.5 45.5h-6v-247h-93zM329 68q48 0 83.5 19t54.5 59.5t19 106.5v20q0 65 -18.5 105.5t-53 60t-85.5 19.5
q-35 0 -64.5 -10t-52 -32t-35 -57.5t-12.5 -87.5v-15q0 -63 19.5 -104.5t56 -62.5t88.5 -21z" />
    <glyph glyph-name="ydieresis" unicode="&#xff;" horiz-adv-x="556" 
d="M121 -186q-24 0 -42.5 3t-31.5 7v65h51q37 0 63.5 10.5t45.5 35t35 65.5l-232 526h100l117 -272q9 -18 19.5 -46.5t22 -58t20.5 -51.5h6q4 12 10.5 32t14.5 43t16.5 45t14.5 39l99 269h96l-199 -509q-20 -48 -40 -86t-45 -64t-59 -39.5t-82 -13.5zM126 627v93h96v-93h-96
zM343 627v93h96v-93h-96z" />
    <glyph glyph-name="Amacron" unicode="&#x100;" horiz-adv-x="784" 
d="M19 0l310 686h126l310 -686h-111l-74 166h-382l-73 -166h-106zM236 252h305l-92 209q-5 10 -12.5 28t-15.5 38t-15.5 39t-12.5 32h-8q-8 -21 -19 -47.5t-21 -50.5t-16 -39zM221 774v64h341v-64h-341z" />
    <glyph glyph-name="amacron" unicode="&#x101;" horiz-adv-x="627" 
d="M236 -12q-37 0 -71 7.5t-61.5 24t-43 45t-15.5 71.5q0 59 31 94.5t86.5 53t130 23t161.5 5.5v45q0 37 -13.5 60.5t-45.5 34.5t-90 11q-50 0 -82 -10.5t-47 -28t-15 -38.5v-17h-91q-1 5 -1 9.5v11.5q0 47 29 80.5t84 50.5t132 17t128.5 -18t78 -55t26.5 -96v-268
q0 -20 8 -28.5t24 -8.5h45v-61q-15 -5 -34.5 -9.5t-41.5 -4.5q-32 0 -50.5 11t-27 31t-11.5 44h-7q-23 -27 -57 -47t-74.5 -30t-84.5 -10zM256 64q36 0 71 10t63.5 28t46 43.5t17.5 56.5v43q-102 0 -172 -8.5t-105.5 -31t-35.5 -65.5q0 -28 15.5 -44.5t42 -24t57.5 -7.5z
M140 637v63h339v-63h-339z" />
    <glyph glyph-name="Abreve" unicode="&#x102;" horiz-adv-x="784" 
d="M19 0l310 686h126l310 -686h-111l-74 166h-382l-73 -166h-106zM236 252h305l-92 209q-5 10 -12.5 28t-15.5 38t-15.5 39t-12.5 32h-8q-8 -21 -19 -47.5t-21 -50.5t-16 -39zM392 753q-62 0 -98 18t-51 45.5t-15 53.5h63q3 -11 12.5 -24t31 -22t57.5 -9q38 0 59.5 9.5
t31 22.5t11.5 23h63q0 -26 -15.5 -53.5t-51.5 -45.5t-98 -18z" />
    <glyph glyph-name="abreve" unicode="&#x103;" horiz-adv-x="627" 
d="M236 -12q-37 0 -71 7.5t-61.5 24t-43 45t-15.5 71.5q0 59 31 94.5t86.5 53t130 23t161.5 5.5v45q0 37 -13.5 60.5t-45.5 34.5t-90 11q-50 0 -82 -10.5t-47 -28t-15 -38.5v-17h-91q-1 5 -1 9.5v11.5q0 47 29 80.5t84 50.5t132 17t128.5 -18t78 -55t26.5 -96v-268
q0 -20 8 -28.5t24 -8.5h45v-61q-15 -5 -34.5 -9.5t-41.5 -4.5q-32 0 -50.5 11t-27 31t-11.5 44h-7q-23 -27 -57 -47t-74.5 -30t-84.5 -10zM256 64q36 0 71 10t63.5 28t46 43.5t17.5 56.5v43q-102 0 -172 -8.5t-105.5 -31t-35.5 -65.5q0 -28 15.5 -44.5t42 -24t57.5 -7.5z
M309 607q-62 0 -98 17.5t-51 45t-15 54.5h63q3 -11 13 -24t31 -22t57 -9q38 0 59.5 9t31.5 22.5t11 23.5h63q0 -27 -15.5 -54.5t-51.5 -45t-98 -17.5z" />
    <glyph glyph-name="Aogonek" unicode="&#x104;" horiz-adv-x="784" 
d="M19 0l310 686h126l310 -686h-111l-74 166h-382l-73 -166h-106zM236 252h305l-92 209q-5 10 -12.5 28t-15.5 38t-15.5 39t-12.5 32h-8q-8 -21 -19 -47.5t-21 -50.5t-16 -39zM718 -179q-26 0 -50.5 8.5t-40 28.5t-15.5 53q0 34 15 58t39 43h61v-5q-14 -11 -28.5 -30
t-14.5 -44q0 -22 14 -38.5t46 -16.5h50v-43q-16 -7 -38 -10.5t-38 -3.5z" />
    <glyph glyph-name="aogonek" unicode="&#x105;" horiz-adv-x="627" 
d="M236 -12q-37 0 -71 7.5t-61.5 24t-43 45t-15.5 71.5q0 59 31 94.5t86.5 53t130 23t161.5 5.5v45q0 37 -13.5 60.5t-45.5 34.5t-90 11q-50 0 -82 -10.5t-47 -28t-15 -38.5v-17h-91q-1 5 -1 9.5v11.5q0 47 29 80.5t84 50.5t132 17t128.5 -18t78 -55t26.5 -96v-268
q0 -20 8 -28.5t24 -8.5h45v-61q-15 -5 -34.5 -9.5t-41.5 -4.5q-32 0 -50.5 11t-27 31t-11.5 44h-7q-23 -27 -57 -47t-74.5 -30t-84.5 -10zM256 64q36 0 71 10t63.5 28t46 43.5t17.5 56.5v43q-102 0 -172 -8.5t-105.5 -31t-35.5 -65.5q0 -28 15.5 -44.5t42 -24t57.5 -7.5z
M547 -179q-26 0 -50.5 8.5t-40 28.5t-15.5 53q0 34 15.5 58t38.5 43h61v-5q-14 -11 -28 -30t-14 -44q0 -22 13.5 -38.5t45.5 -16.5h50v-43q-16 -7 -38 -10.5t-38 -3.5z" />
    <glyph glyph-name="Cacute" unicode="&#x106;" horiz-adv-x="839" 
d="M434 -12q-120 0 -202.5 39.5t-124.5 118.5t-42 197q0 175 96 265t272 90q102 0 179.5 -29t121 -87.5t43.5 -146.5h-101q0 61 -30.5 100t-85 57.5t-128.5 18.5q-79 0 -138.5 -27.5t-91.5 -84.5t-32 -145v-23q0 -89 32.5 -145.5t92 -83.5t140.5 -27q74 0 128.5 18.5
t84.5 57.5t30 99h100q0 -88 -44.5 -146t-121.5 -87t-178 -29zM375 738l101 132h114v-3l-131 -129h-84z" />
    <glyph glyph-name="cacute" unicode="&#x107;" horiz-adv-x="605" 
d="M314 -12q-88 0 -147.5 30.5t-89.5 91.5t-30 153t30 153t90 91.5t148 30.5q57 0 101.5 -13.5t76.5 -40.5t48.5 -65.5t16.5 -89.5h-94q0 46 -19 75.5t-52.5 43.5t-78.5 14q-51 0 -89.5 -19.5t-59.5 -60.5t-21 -109v-20q0 -65 20.5 -107t59.5 -62t92 -20q45 0 79 15t53 45
t19 73h91q0 -48 -17 -87t-48.5 -66t-76.5 -41.5t-102 -14.5zM242 591l101 132h112v-3l-131 -129h-82z" />
    <glyph glyph-name="Ccircumflex" unicode="&#x108;" horiz-adv-x="839" 
d="M434 -12q-120 0 -202.5 39.5t-124.5 118.5t-42 197q0 175 96 265t272 90q102 0 179.5 -29t121 -87.5t43.5 -146.5h-101q0 61 -30.5 100t-85 57.5t-128.5 18.5q-79 0 -138.5 -27.5t-91.5 -84.5t-32 -145v-23q0 -89 32.5 -145.5t92 -83.5t140.5 -27q74 0 128.5 18.5
t84.5 57.5t30 99h100q0 -88 -44.5 -146t-121.5 -87t-178 -29zM265 735l126 135h85l126 -135h-89l-103 111h45l-102 -111h-88z" />
    <glyph glyph-name="ccircumflex" unicode="&#x109;" horiz-adv-x="605" 
d="M314 -12q-88 0 -147.5 30.5t-89.5 91.5t-30 153t30 153t90 91.5t148 30.5q57 0 101.5 -13.5t76.5 -40.5t48.5 -65.5t16.5 -89.5h-94q0 46 -19 75.5t-52.5 43.5t-78.5 14q-51 0 -89.5 -19.5t-59.5 -60.5t-21 -109v-20q0 -65 20.5 -107t59.5 -62t92 -20q45 0 79 15t53 45
t19 73h91q0 -48 -17 -87t-48.5 -66t-76.5 -41.5t-102 -14.5zM149 589l125 135h82l125 -135h-86l-104 111l46 -1l-103 -110h-85z" />
    <glyph glyph-name="Cdotaccent" unicode="&#x10a;" horiz-adv-x="839" 
d="M434 -12q-120 0 -202.5 39.5t-124.5 118.5t-42 197q0 175 96 265t272 90q102 0 179.5 -29t121 -87.5t43.5 -146.5h-101q0 61 -30.5 100t-85 57.5t-128.5 18.5q-79 0 -138.5 -27.5t-91.5 -84.5t-32 -145v-23q0 -89 32.5 -145.5t92 -83.5t140.5 -27q74 0 128.5 18.5
t84.5 57.5t30 99h100q0 -88 -44.5 -146t-121.5 -87t-178 -29zM384 776v96h99v-96h-99z" />
    <glyph glyph-name="cdotaccent" unicode="&#x10b;" horiz-adv-x="605" 
d="M314 -12q-88 0 -147.5 30.5t-89.5 91.5t-30 153t30 153t90 91.5t148 30.5q57 0 101.5 -13.5t76.5 -40.5t48.5 -65.5t16.5 -89.5h-94q0 46 -19 75.5t-52.5 43.5t-78.5 14q-51 0 -89.5 -19.5t-59.5 -60.5t-21 -109v-20q0 -65 20.5 -107t59.5 -62t92 -20q45 0 79 15t53 45
t19 73h91q0 -48 -17 -87t-48.5 -66t-76.5 -41.5t-102 -14.5zM266 624v96h98v-96h-98z" />
    <glyph glyph-name="Ccaron" unicode="&#x10c;" horiz-adv-x="839" 
d="M434 -12q-120 0 -202.5 39.5t-124.5 118.5t-42 197q0 175 96 265t272 90q102 0 179.5 -29t121 -87.5t43.5 -146.5h-101q0 61 -30.5 100t-85 57.5t-128.5 18.5q-79 0 -138.5 -27.5t-91.5 -84.5t-32 -145v-23q0 -89 32.5 -145.5t92 -83.5t140.5 -27q74 0 128.5 18.5
t84.5 57.5t30 99h100q0 -88 -44.5 -146t-121.5 -87t-178 -29zM265 870h88l102 -110h-45l103 110h89l-126 -135h-85z" />
    <glyph glyph-name="ccaron" unicode="&#x10d;" horiz-adv-x="605" 
d="M314 -12q-88 0 -147.5 30.5t-89.5 91.5t-30 153t30 153t90 91.5t148 30.5q57 0 101.5 -13.5t76.5 -40.5t48.5 -65.5t16.5 -89.5h-94q0 46 -19 75.5t-52.5 43.5t-78.5 14q-51 0 -89.5 -19.5t-59.5 -60.5t-21 -109v-20q0 -65 20.5 -107t59.5 -62t92 -20q45 0 79 15t53 45
t19 73h91q0 -48 -17 -87t-48.5 -66t-76.5 -41.5t-102 -14.5zM149 724h85l103 -110l-46 -1l104 111h86l-125 -135h-82z" />
    <glyph glyph-name="Dcaron" unicode="&#x10e;" horiz-adv-x="835" 
d="M97 0v686h303q116 0 198.5 -37.5t127 -113.5t44.5 -192q0 -115 -44.5 -191.5t-127 -114t-198.5 -37.5h-303zM199 87h198q59 0 108 14t85 43.5t55.5 76t19.5 111.5v21q0 66 -19.5 112.5t-55 76t-84.5 43.5t-109 14h-198v-512zM246 870h88l102 -110h-45l103 110h89
l-126 -135h-85z" />
    <glyph glyph-name="dcaron" unicode="&#x10f;" horiz-adv-x="633" 
d="M283 -12q-74 0 -126.5 30t-80.5 91.5t-28 155.5q0 93 28.5 153.5t80.5 90t123 29.5q40 0 73.5 -8.5t60.5 -26.5t47 -46h7v266h93v-723h-75l-9 79h-7q-31 -47 -79.5 -69t-107.5 -22zM303 68q53 0 90 21t56 62.5t19 103.5v15q0 52 -12 88t-34.5 58t-52 32t-64.5 10
q-50 0 -86 -19.5t-55 -60t-19 -105.5v-20q0 -66 19 -106.5t55 -59.5t84 -19zM606 555v168h91l-24 -168h-67z" />
    <glyph glyph-name="Dcroat" unicode="&#x110;" horiz-adv-x="835" 
d="M0 305v81h421v-81h-421zM97 0v686h303q116 0 198.5 -37.5t127 -113.5t44.5 -192q0 -115 -44.5 -191.5t-127 -114t-198.5 -37.5h-303zM199 87h198q59 0 108 14t85 43.5t55.5 76t19.5 111.5v21q0 66 -19.5 112.5t-55 76t-84.5 43.5t-109 14h-198v-512z" />
    <glyph glyph-name="dcroat" unicode="&#x111;" horiz-adv-x="633" 
d="M283 -12q-74 0 -126.5 30t-80.5 91.5t-28 155.5q0 93 28.5 153.5t80.5 90t123 29.5q40 0 73.5 -8.5t60.5 -26.5t47 -46h7v266h93v-723h-75l-9 79h-7q-31 -47 -79.5 -69t-107.5 -22zM303 68q53 0 90 21t56 62.5t19 103.5v15q0 52 -12 88t-34.5 58t-52 32t-64.5 10
q-50 0 -86 -19.5t-55 -60t-19 -105.5v-20q0 -66 19 -106.5t55 -59.5t84 -19zM262 590v60h371v-60h-371z" />
    <glyph glyph-name="Emacron" unicode="&#x112;" horiz-adv-x="773" 
d="M97 0v686h602v-87h-500v-204h450v-87h-450v-221h507v-87h-609zM232 775v64h341v-64h-341z" />
    <glyph glyph-name="emacron" unicode="&#x113;" horiz-adv-x="631" 
d="M321 -12q-87 0 -148 29.5t-93 90.5t-32 155q0 93 31.5 154t92.5 91t149 30t146 -30t87 -86.5t29 -136.5v-46h-438q2 -63 23.5 -102t61.5 -56.5t94 -17.5q37 0 66 9.5t50 25t33.5 36.5t13.5 45h92q-1 -39 -17 -73.5t-48 -61t-80.5 -41.5t-112.5 -15zM146 308h339
q0 43 -13 72.5t-36 48t-52.5 26.5t-64.5 8q-50 0 -87.5 -16.5t-59.5 -51t-26 -87.5zM149 637v63h338v-63h-338z" />
    <glyph glyph-name="Ebreve" unicode="&#x114;" horiz-adv-x="773" 
d="M97 0v686h602v-87h-500v-204h450v-87h-450v-221h507v-87h-609zM402 753q-61 0 -97 18t-51 45.5t-15 54.5h62q3 -11 13 -24t31.5 -22t57.5 -9q38 0 59 9t31 22t11 24h64q0 -27 -15.5 -54.5t-51.5 -45.5t-99 -18z" />
    <glyph glyph-name="ebreve" unicode="&#x115;" horiz-adv-x="631" 
d="M321 -12q-87 0 -148 29.5t-93 90.5t-32 155q0 93 31.5 154t92.5 91t149 30t146 -30t87 -86.5t29 -136.5v-46h-438q2 -63 23.5 -102t61.5 -56.5t94 -17.5q37 0 66 9.5t50 25t33.5 36.5t13.5 45h92q-1 -39 -17 -73.5t-48 -61t-80.5 -41.5t-112.5 -15zM146 308h339
q0 43 -13 72.5t-36 48t-52.5 26.5t-64.5 8q-50 0 -87.5 -16.5t-59.5 -51t-26 -87.5zM317 607q-61 0 -97 17.5t-51 45t-15 54.5h62q3 -11 13 -24t31.5 -22t57.5 -9q38 0 59 9t31 22.5t12 23.5h63q0 -27 -15.5 -54.5t-51.5 -45t-99 -17.5z" />
    <glyph glyph-name="Edotaccent" unicode="&#x116;" horiz-adv-x="773" 
d="M97 0v686h602v-87h-500v-204h450v-87h-450v-221h507v-87h-609zM354 777v95h98v-95h-98z" />
    <glyph glyph-name="edotaccent" unicode="&#x117;" horiz-adv-x="631" 
d="M321 -12q-87 0 -148 29.5t-93 90.5t-32 155q0 93 31.5 154t92.5 91t149 30t146 -30t87 -86.5t29 -136.5v-46h-438q2 -63 23.5 -102t61.5 -56.5t94 -17.5q37 0 66 9.5t50 25t33.5 36.5t13.5 45h92q-1 -39 -17 -73.5t-48 -61t-80.5 -41.5t-112.5 -15zM146 308h339
q0 43 -13 72.5t-36 48t-52.5 26.5t-64.5 8q-50 0 -87.5 -16.5t-59.5 -51t-26 -87.5zM269 624v96h99v-96h-99z" />
    <glyph glyph-name="Eogonek" unicode="&#x118;" horiz-adv-x="773" 
d="M97 0v686h602v-87h-500v-204h450v-87h-450v-221h507v-87h-609zM629 -179q-25 0 -49.5 8.5t-40 28.5t-15.5 53q0 34 15 58t39 43h61v-5q-14 -11 -28.5 -30t-14.5 -44q0 -22 14 -38.5t46 -16.5h50v-43q-16 -7 -38 -10.5t-39 -3.5z" />
    <glyph glyph-name="eogonek" unicode="&#x119;" horiz-adv-x="631" 
d="M321 -12q-87 0 -148 29.5t-93 90.5t-32 155q0 93 31.5 154t92.5 91t149 30t146 -30t87 -86.5t29 -136.5v-46h-438q2 -63 23.5 -102t61.5 -56.5t94 -17.5q37 0 66 9.5t50 25t33.5 36.5t13.5 45h92q-1 -39 -17 -73.5t-48 -61t-80.5 -41.5t-112.5 -15zM146 308h339
q0 43 -13 72.5t-36 48t-52.5 26.5t-64.5 8q-50 0 -87.5 -16.5t-59.5 -51t-26 -87.5zM434 -179q-25 0 -49.5 8.5t-40.5 28.5t-16 53q0 34 15.5 58t38.5 43h62v-5q-14 -11 -28.5 -30t-14.5 -44q0 -22 14 -38.5t45 -16.5h51v-43q-17 -7 -38.5 -10.5t-38.5 -3.5z" />
    <glyph glyph-name="Ecaron" unicode="&#x11a;" horiz-adv-x="773" 
d="M97 0v686h602v-87h-500v-204h450v-87h-450v-221h507v-87h-609zM235 871h87l103 -111h-46l103 111h89l-126 -135h-85z" />
    <glyph glyph-name="ecaron" unicode="&#x11b;" horiz-adv-x="631" 
d="M321 -12q-87 0 -148 29.5t-93 90.5t-32 155q0 93 31.5 154t92.5 91t149 30t146 -30t87 -86.5t29 -136.5v-46h-438q2 -63 23.5 -102t61.5 -56.5t94 -17.5q37 0 66 9.5t50 25t33.5 36.5t13.5 45h92q-1 -39 -17 -73.5t-48 -61t-80.5 -41.5t-112.5 -15zM146 308h339
q0 43 -13 72.5t-36 48t-52.5 26.5t-64.5 8q-50 0 -87.5 -16.5t-59.5 -51t-26 -87.5zM152 724h86l102 -110l-45 -1l103 111h87l-126 -135h-82z" />
    <glyph glyph-name="Gcircumflex" unicode="&#x11c;" horiz-adv-x="905" 
d="M444 -12q-187 0 -282 87.5t-95 267.5q0 117 46 196t134 119t213 40q80 0 145.5 -15t113 -45.5t72.5 -77t25 -110.5h-102q0 46 -20 77t-55 50t-80.5 26.5t-96.5 7.5q-64 0 -117 -14t-92 -45t-60 -80t-21 -117v-23q0 -92 33.5 -149t95.5 -82.5t146 -25.5q95 0 154 22.5
t86.5 65.5t27.5 105v13h-276v84h377v-365h-72l-11 94q-32 -38 -77 -61.5t-99 -34t-113 -10.5zM285 735l126 135h85l126 -135h-89l-103 111h46l-103 -111h-88z" />
    <glyph glyph-name="gcircumflex" unicode="&#x11d;" horiz-adv-x="628" 
d="M172 -186q-41 0 -75.5 15t-54.5 44t-20 71t25.5 72.5t62.5 44.5q-27 13 -41 36t-14 50q0 36 25.5 62.5t66.5 33.5q-37 22 -57 55.5t-20 72.5q0 52 26.5 89.5t81 57.5t136.5 20q37 0 68 -4.5t56 -12.5q41 15 64 39.5t29 52.5h91q-2 -31 -16 -57t-39.5 -44t-62.5 -25
q28 -22 41.5 -51.5t13.5 -64.5q0 -50 -25 -88t-77 -58.5t-133 -20.5h-110q-28 0 -46 -11.5t-18 -34.5q0 -22 18.5 -34.5t49.5 -12.5h257q63 0 101.5 -40.5t38.5 -101.5q0 -44 -23 -79.5t-62 -55.5t-90 -20h-268zM193 -116h245q23 0 41.5 9.5t29.5 26.5t11 37q0 34 -20 54
t-51 20h-256q-32 0 -54 -21t-22 -53q0 -33 21.5 -53t54.5 -20zM315 273q76 0 113 25.5t37 72.5t-37 72.5t-113 25.5t-113 -25.5t-37 -72.5q0 -31 16 -53t49 -33.5t85 -11.5zM142 589l125 135h82l126 -135h-87l-103 111l45 -1l-102 -110h-86z" />
    <glyph glyph-name="Gbreve" unicode="&#x11e;" horiz-adv-x="905" 
d="M444 -12q-187 0 -282 87.5t-95 267.5q0 117 46 196t134 119t213 40q80 0 145.5 -15t113 -45.5t72.5 -77t25 -110.5h-102q0 46 -20 77t-55 50t-80.5 26.5t-96.5 7.5q-64 0 -117 -14t-92 -45t-60 -80t-21 -117v-23q0 -92 33.5 -149t95.5 -82.5t146 -25.5q95 0 154 22.5
t86.5 65.5t27.5 105v13h-276v84h377v-365h-72l-11 94q-32 -38 -77 -61.5t-99 -34t-113 -10.5zM453 753q-62 0 -98 18t-51 45.5t-15 53.5h63q3 -11 13 -24t31.5 -22t57.5 -9q38 0 59 9.5t31 22.5t11 23h63q0 -26 -15.5 -53.5t-51.5 -45.5t-98 -18z" />
    <glyph glyph-name="gbreve" unicode="&#x11f;" horiz-adv-x="628" 
d="M172 -186q-41 0 -75.5 15t-54.5 44t-20 71t25.5 72.5t62.5 44.5q-27 13 -41 36t-14 50q0 36 25.5 62.5t66.5 33.5q-37 22 -57 55.5t-20 72.5q0 52 26.5 89.5t81 57.5t136.5 20q37 0 68 -4.5t56 -12.5q41 15 64 39.5t29 52.5h91q-2 -31 -16 -57t-39.5 -44t-62.5 -25
q28 -22 41.5 -51.5t13.5 -64.5q0 -50 -25 -88t-77 -58.5t-133 -20.5h-110q-28 0 -46 -11.5t-18 -34.5q0 -22 18.5 -34.5t49.5 -12.5h257q63 0 101.5 -40.5t38.5 -101.5q0 -44 -23 -79.5t-62 -55.5t-90 -20h-268zM193 -116h245q23 0 41.5 9.5t29.5 26.5t11 37q0 34 -20 54
t-51 20h-256q-32 0 -54 -21t-22 -53q0 -33 21.5 -53t54.5 -20zM315 273q76 0 113 25.5t37 72.5t-37 72.5t-113 25.5t-113 -25.5t-37 -72.5q0 -31 16 -53t49 -33.5t85 -11.5zM307 607q-61 0 -97.5 17.5t-51.5 45t-15 54.5h63q3 -11 13 -24t31.5 -22t57.5 -9q38 0 59 9
t31 22.5t11 23.5h64q0 -27 -15.5 -54.5t-52 -45t-98.5 -17.5z" />
    <glyph glyph-name="Gdotaccent" unicode="&#x120;" horiz-adv-x="905" 
d="M444 -12q-187 0 -282 87.5t-95 267.5q0 117 46 196t134 119t213 40q80 0 145.5 -15t113 -45.5t72.5 -77t25 -110.5h-102q0 46 -20 77t-55 50t-80.5 26.5t-96.5 7.5q-64 0 -117 -14t-92 -45t-60 -80t-21 -117v-23q0 -92 33.5 -149t95.5 -82.5t146 -25.5q95 0 154 22.5
t86.5 65.5t27.5 105v13h-276v84h377v-365h-72l-11 94q-32 -38 -77 -61.5t-99 -34t-113 -10.5zM404 776v96h99v-96h-99z" />
    <glyph glyph-name="gdotaccent" unicode="&#x121;" horiz-adv-x="628" 
d="M172 -186q-41 0 -75.5 15t-54.5 44t-20 71t25.5 72.5t62.5 44.5q-27 13 -41 36t-14 50q0 36 25.5 62.5t66.5 33.5q-37 22 -57 55.5t-20 72.5q0 52 26.5 89.5t81 57.5t136.5 20q37 0 68 -4.5t56 -12.5q41 15 64 39.5t29 52.5h91q-2 -31 -16 -57t-39.5 -44t-62.5 -25
q28 -22 41.5 -51.5t13.5 -64.5q0 -50 -25 -88t-77 -58.5t-133 -20.5h-110q-28 0 -46 -11.5t-18 -34.5q0 -22 18.5 -34.5t49.5 -12.5h257q63 0 101.5 -40.5t38.5 -101.5q0 -44 -23 -79.5t-62 -55.5t-90 -20h-268zM193 -116h245q23 0 41.5 9.5t29.5 26.5t11 37q0 34 -20 54
t-51 20h-256q-32 0 -54 -21t-22 -53q0 -33 21.5 -53t54.5 -20zM315 273q76 0 113 25.5t37 72.5t-37 72.5t-113 25.5t-113 -25.5t-37 -72.5q0 -31 16 -53t49 -33.5t85 -11.5zM259 624v96h99v-96h-99z" />
    <glyph glyph-name="uni0122" unicode="&#x122;" horiz-adv-x="905" 
d="M444 -12q-187 0 -282 87.5t-95 267.5q0 117 46 196t134 119t213 40q80 0 145.5 -15t113 -45.5t72.5 -77t25 -110.5h-102q0 46 -20 77t-55 50t-80.5 26.5t-96.5 7.5q-64 0 -117 -14t-92 -45t-60 -80t-21 -117v-23q0 -92 33.5 -149t95.5 -82.5t146 -25.5q95 0 154 22.5
t86.5 65.5t27.5 105v13h-276v84h377v-365h-72l-11 94q-32 -38 -77 -61.5t-99 -34t-113 -10.5zM390 -318v46q30 2 44.5 23t14.5 56h-47v106h104v-90q0 -46 -13.5 -76.5t-39 -46t-63.5 -18.5z" />
    <glyph glyph-name="uni0123" unicode="&#x123;" horiz-adv-x="628" 
d="M172 -186q-41 0 -75.5 15t-54.5 44t-20 71t25.5 72.5t62.5 44.5q-27 13 -41 36t-14 50q0 36 25.5 62.5t66.5 33.5q-37 22 -57 55.5t-20 72.5q0 52 26.5 89.5t81 57.5t136.5 20q37 0 68 -4.5t56 -12.5q41 15 64 39.5t29 52.5h91q-2 -31 -16 -57t-39.5 -44t-62.5 -25
q28 -22 41.5 -51.5t13.5 -64.5q0 -50 -25 -88t-77 -58.5t-133 -20.5h-110q-28 0 -46 -11.5t-18 -34.5q0 -22 18.5 -34.5t49.5 -12.5h257q63 0 101.5 -40.5t38.5 -101.5q0 -44 -23 -79.5t-62 -55.5t-90 -20h-268zM193 -116h245q23 0 41.5 9.5t29.5 26.5t11 37q0 34 -20 54
t-51 20h-256q-32 0 -54 -21t-22 -53q0 -33 21.5 -53t54.5 -20zM315 273q76 0 113 25.5t37 72.5t-37 72.5t-113 25.5t-113 -25.5t-37 -72.5q0 -31 16 -53t49 -33.5t85 -11.5zM370 851v-44q-29 -3 -43 -23t-14 -54h45v-102h-100v87q0 45 13 74t38 44t61 18z" />
    <glyph glyph-name="Hcircumflex" unicode="&#x124;" horiz-adv-x="840" 
d="M97 0v686h102v-291h443v291h102v-686h-102v306h-443v-306h-102zM252 735l126 135h85l126 -135h-89l-103 111h46l-103 -111h-88z" />
    <glyph glyph-name="hcircumflex" unicode="&#x125;" horiz-adv-x="623" 
d="M73 0v723h93v-270h6q25 32 55.5 50.5t65 26.5t70.5 8q61 0 104 -19t66 -60t23 -109v-350h-94v335q0 38 -9.5 62t-26.5 37t-41 18.5t-53 5.5q-42 0 -80.5 -19t-62 -54t-23.5 -85v-300h-93zM-49 735l125 135h86l125 -135h-88l-103 111h45l-103 -111h-87z" />
    <glyph glyph-name="Hbar" unicode="&#x126;" horiz-adv-x="840" 
d="M97 0v686h102v-291h443v291h102v-686h-102v306h-443v-306h-102zM11 520v75h820v-75h-820z" />
    <glyph glyph-name="hbar" unicode="&#x127;" horiz-adv-x="623" 
d="M73 0v723h93v-270h6q25 32 55.5 50.5t65 26.5t70.5 8q61 0 104 -19t66 -60t23 -109v-350h-94v335q0 38 -9.5 62t-26.5 37t-41 18.5t-53 5.5q-42 0 -80.5 -19t-62 -54t-23.5 -85v-300h-93zM0 590v60h371v-60h-371z" />
    <glyph glyph-name="Itilde" unicode="&#x128;" horiz-adv-x="296" 
d="M97 0v686h102v-686h-102zM-36 762q2 26 13 49.5t33 38t56 14.5q30 0 58.5 -9t55.5 -18.5t52 -9.5q19 0 28 11t12 25h60q-1 -26 -13 -49.5t-34.5 -38t-56.5 -14.5q-27 0 -56 9.5t-56 18.5t-52 9q-20 0 -29.5 -10.5t-12.5 -25.5h-58z" />
    <glyph glyph-name="itilde" unicode="&#x129;" horiz-adv-x="238" 
d="M73 0v526h93v-526h-93zM-65 620q1 26 12 49t33.5 37.5t56.5 14.5q30 0 58 -8.5t55.5 -18t52.5 -9.5q19 0 28 11t12 25h60q-1 -26 -13 -49.5t-34.5 -38t-56.5 -14.5q-28 0 -56.5 9.5t-56 18.5t-51.5 9q-20 0 -29.5 -11t-12.5 -25h-58z" />
    <glyph glyph-name="Imacron" unicode="&#x12a;" horiz-adv-x="296" 
d="M97 0v686h102v-686h-102zM-23 774v64h341v-64h-341z" />
    <glyph glyph-name="imacron" unicode="&#x12b;" horiz-adv-x="238" 
d="M73 0v526h93v-526h-93zM-51 637v63h339v-63h-339z" />
    <glyph glyph-name="Ibreve" unicode="&#x12c;" horiz-adv-x="296" 
d="M97 0v686h102v-686h-102zM147 753q-61 0 -97 18t-51 45.5t-15 53.5h62q3 -11 13 -24t31.5 -22t57.5 -9q38 0 59 9.5t31 22.5t12 23h63q0 -26 -15.5 -53.5t-51.5 -45.5t-99 -18z" />
    <glyph glyph-name="ibreve" unicode="&#x12d;" horiz-adv-x="238" 
d="M73 0v526h93v-526h-93zM118 607q-62 0 -98 17.5t-51 45t-15 54.5h63q3 -11 13 -24t31 -22t57 -9q38 0 59.5 9t31.5 22.5t11 23.5h63q0 -27 -15.5 -54.5t-51.5 -45t-98 -17.5z" />
    <glyph glyph-name="Iogonek" unicode="&#x12e;" horiz-adv-x="296" 
d="M97 0v686h102v-686h-102zM149 -179q-25 0 -49.5 8.5t-40 28.5t-15.5 53q0 34 15 58t39 43h61v-5q-14 -11 -28.5 -30t-14.5 -44q0 -22 14 -38.5t46 -16.5h50v-43q-16 -7 -38 -10.5t-39 -3.5z" />
    <glyph glyph-name="iogonek" unicode="&#x12f;" horiz-adv-x="238" 
d="M73 627v96h93v-96h-93zM73 0v526h93v-526h-93zM125 -179q-25 0 -49.5 8.5t-40 28.5t-15.5 53q0 34 15 58t39 43h61v-5q-14 -11 -28.5 -30t-14.5 -44q0 -22 14 -38.5t46 -16.5h50v-43q-16 -7 -38 -10.5t-39 -3.5z" />
    <glyph glyph-name="Idotaccent" unicode="&#x130;" horiz-adv-x="296" 
d="M97 0v686h102v-686h-102zM99 776v96h98v-96h-98z" />
    <glyph glyph-name="dotlessi" unicode="&#x131;" horiz-adv-x="238" 
d="M73 0v526h93v-526h-93z" />
    <glyph glyph-name="IJ" unicode="&#x132;" horiz-adv-x="910" 
d="M97 0v686h102v-686h-102zM577 -12q-75 0 -129.5 24.5t-84 72.5t-29.5 122v21h101v-29q0 -60 37.5 -92t103.5 -32q69 0 107.5 42t38.5 124v445h102v-435q0 -89 -29.5 -147.5t-84.5 -87t-133 -28.5z" />
    <glyph glyph-name="ij" unicode="&#x133;" horiz-adv-x="474" 
d="M73 627v96h93v-96h-93zM73 0v526h93v-526h-93zM311 627v96h93v-96h-93zM278 -187q-13 0 -26.5 2t-26 4.5t-22.5 5.5v64h47q29 0 45 15.5t16 44.5v577h93v-578q0 -35 -11 -66t-38 -50t-77 -19z" />
    <glyph glyph-name="Jcircumflex" unicode="&#x134;" horiz-adv-x="614" 
d="M282 -12q-76 0 -130.5 24.5t-83.5 72.5t-29 122v21h100v-29q0 -60 37.5 -92t103.5 -32q70 0 108.5 42t38.5 124v445h102v-435q0 -89 -29.5 -147.5t-85 -87t-132.5 -28.5zM309 735l126 135h85l126 -135h-89l-103 111h45l-102 -111h-88z" />
    <glyph glyph-name="jcircumflex" unicode="&#x135;" horiz-adv-x="236" 
d="M40 -187q-13 0 -26.5 1.5t-26.5 4.5t-22 6v64h47q29 0 45 15.5t16 44.5v577h93v-578q0 -35 -11 -66t-38 -50t-77 -19zM-47 589l125 135h82l126 -135h-87l-104 111l46 -1l-103 -110h-85z" />
    <glyph glyph-name="uni0136" unicode="&#x136;" horiz-adv-x="766" 
d="M97 0v686h102v-377l406 377h131l-292 -276l302 -410h-126l-250 344l-171 -148v-196h-102zM328 -318v46q30 2 44.5 23t14.5 56h-47v106h104v-90q0 -46 -13.5 -76.5t-39 -46t-63.5 -18.5z" />
    <glyph glyph-name="uni0137" unicode="&#x137;" horiz-adv-x="580" 
d="M73 0v723h93v-459l266 262h115l-204 -205l214 -321h-110l-170 259l-111 -98v-161h-93zM230 -308v44q29 3 43 23t14 54h-45v102h100v-86q0 -45 -13 -74.5t-38 -44.5t-61 -18z" />
    <glyph glyph-name="kgreenlandic" unicode="&#x138;" horiz-adv-x="580" 
d="M73 0v526h93v-262l266 262h115l-204 -205l214 -321h-110l-170 259l-111 -98v-161h-93z" />
    <glyph glyph-name="Lacute" unicode="&#x139;" horiz-adv-x="609" 
d="M97 0v686h102v-597h386v-89h-488zM89 739l101 132h114v-4l-131 -128h-84z" />
    <glyph glyph-name="lacute" unicode="&#x13a;" horiz-adv-x="238" 
d="M73 0v723h93v-723h-93zM60 738l102 132h113l1 -3l-132 -129h-84z" />
    <glyph glyph-name="uni013B" unicode="&#x13b;" horiz-adv-x="609" 
d="M97 0v686h102v-597h386v-89h-488zM277 -318v46q30 2 45 23t15 56h-48v106h105v-90q0 -47 -13.5 -77t-39.5 -45.5t-64 -18.5z" />
    <glyph glyph-name="uni013C" unicode="&#x13c;" horiz-adv-x="238" 
d="M73 0v723h93v-723h-93zM57 -308v44q29 3 43 23t14 54h-45v102h100v-86q0 -45 -13 -74.5t-37.5 -44.5t-61.5 -18z" />
    <glyph glyph-name="Lcaron" unicode="&#x13d;" horiz-adv-x="609" 
d="M97 0v686h102v-597h386v-89h-488zM412 555v168h91l-24 -168h-67z" />
    <glyph glyph-name="lcaron" unicode="&#x13e;" horiz-adv-x="238" 
d="M73 0v723h93v-723h-93zM211 555v168h91l-24 -168h-67z" />
    <glyph glyph-name="Ldot" unicode="&#x13f;" horiz-adv-x="599" 
d="M97 0v686h102v-597h386v-89h-488zM392 328v98h108v-98h-108z" />
    <glyph glyph-name="ldot" unicode="&#x140;" horiz-adv-x="238" 
d="M73 0v723h93v-723h-93zM196 317v100h97v-100h-97z" />
    <glyph glyph-name="Lslash" unicode="&#x141;" horiz-adv-x="609" 
d="M97 0v686h102v-597h386v-89h-488zM0 196v72l385 230v-74z" />
    <glyph glyph-name="lslash" unicode="&#x142;" horiz-adv-x="238" 
d="M73 0v723h93v-723h-93zM-3 232v74l244 189v-74z" />
    <glyph glyph-name="Nacute" unicode="&#x143;" horiz-adv-x="841" 
d="M97 0v686h99l381 -444q9 -8 20.5 -22l23 -28t19.5 -25h6q0 18 -0.5 40t-0.5 40v439h99v-686h-93l-385 450q-16 17 -35 40.5t-30 37.5h-6q0 -16 0.5 -39.5t0.5 -48.5v-440h-99zM363 738l101 132h114v-3l-131 -129h-84z" />
    <glyph glyph-name="nacute" unicode="&#x144;" horiz-adv-x="623" 
d="M73 0v526h74l8 -85h8q25 36 57.5 57.5t69 30.5t73.5 9q61 0 104 -19t66 -60t23 -109v-350h-94v335q0 38 -9.5 62t-26.5 37t-41 18.5t-53 5.5q-42 0 -80.5 -19.5t-62 -54.5t-23.5 -84v-300h-93zM239 591l101 132h112v-3l-131 -129h-82z" />
    <glyph glyph-name="uni0145" unicode="&#x145;" horiz-adv-x="841" 
d="M97 0v686h99l381 -444q9 -8 20.5 -22l23 -28t19.5 -25h6q0 18 -0.5 40t-0.5 40v439h99v-686h-93l-385 450q-16 17 -35 40.5t-30 37.5h-6q0 -16 0.5 -39.5t0.5 -48.5v-440h-99zM357 -318v46q29 2 44 23t15 56h-48v106h105v-90q0 -46 -13.5 -76.5t-39 -46t-63.5 -18.5z" />
    <glyph glyph-name="uni0146" unicode="&#x146;" horiz-adv-x="623" 
d="M73 0v526h74l8 -85h8q25 36 57.5 57.5t69 30.5t73.5 9q61 0 104 -19t66 -60t23 -109v-350h-94v335q0 38 -9.5 62t-26.5 37t-41 18.5t-53 5.5q-42 0 -80.5 -19.5t-62 -54.5t-23.5 -84v-300h-93zM251 -308v44q28 3 42.5 23t14.5 54h-46v102h101v-86q0 -45 -13 -74.5
t-38 -44.5t-61 -18z" />
    <glyph glyph-name="Ncaron" unicode="&#x147;" horiz-adv-x="841" 
d="M97 0v686h99l381 -444q9 -8 20.5 -22l23 -28t19.5 -25h6q0 18 -0.5 40t-0.5 40v439h99v-686h-93l-385 450q-16 17 -35 40.5t-30 37.5h-6q0 -16 0.5 -39.5t0.5 -48.5v-440h-99zM253 870h88l102 -110h-45l103 110h89l-126 -135h-85z" />
    <glyph glyph-name="ncaron" unicode="&#x148;" horiz-adv-x="623" 
d="M73 0v526h74l8 -85h8q25 36 57.5 57.5t69 30.5t73.5 9q61 0 104 -19t66 -60t23 -109v-350h-94v335q0 38 -9.5 62t-26.5 37t-41 18.5t-53 5.5q-42 0 -80.5 -19.5t-62 -54.5t-23.5 -84v-300h-93zM146 724h85l103 -110l-45 -1l103 111h87l-126 -135h-82z" />
    <glyph glyph-name="napostrophe" unicode="&#x149;" horiz-adv-x="623" 
d="M73 0v526h74l8 -85h8q25 36 57.5 57.5t69 30.5t73.5 9q61 0 104 -19t66 -60t23 -109v-350h-94v335q0 38 -9.5 62t-26.5 37t-41 18.5t-53 5.5q-42 0 -80.5 -19.5t-62 -54.5t-23.5 -84v-300h-93zM-10 549v42q30 1 43.5 19.5t13.5 47.5h-47v103h102v-82q0 -44 -13.5 -72.5
t-38.5 -43t-60 -14.5z" />
    <glyph glyph-name="Eng" unicode="&#x14a;" horiz-adv-x="841" 
d="M614 -186q-13 0 -26.5 1.5t-25.5 4t-22 4.5v67h46q29 0 44 15t15 44v57l-379 443q-16 17 -35 40.5t-30 37.5h-6q0 -17 0.5 -41.5t0.5 -50.5v-436h-99v686h99l381 -444q9 -8 20.5 -22l23 -28t19.5 -25h6q0 19 -0.5 42.5t-0.5 41.5v435h99v-729q0 -27 -5 -53t-18.5 -46
t-39 -32t-67.5 -12z" />
    <glyph glyph-name="eng" unicode="&#x14b;" horiz-adv-x="623" 
d="M426 -186q-12 0 -25.5 1.5t-25 4t-20.5 4.5v65h47q29 0 44.5 15.5t15.5 44.5v386q0 38 -9.5 62t-27 37t-41.5 18.5t-53 5.5q-42 0 -80 -19.5t-61.5 -54.5t-23.5 -84v-300h-93v526h74l8 -85h8q25 36 57 57.5t68.5 30.5t73.5 9q61 0 104 -19t66 -60t23 -109v-395
q0 -28 -4.5 -53.5t-18.5 -45.5t-39.5 -31t-66.5 -11z" />
    <glyph glyph-name="Omacron" unicode="&#x14c;" horiz-adv-x="906" 
d="M453 -12q-120 0 -207.5 40t-134 119t-46.5 196q0 118 46.5 196.5t134 118.5t207.5 40q121 0 208 -40t133.5 -118.5t46.5 -196.5q0 -117 -46.5 -196t-133.5 -119t-208 -40zM453 75q63 0 114.5 15t89.5 46.5t58.5 80t20.5 115.5v22q0 67 -20.5 116t-58.5 80t-89.5 46
t-114.5 15t-114.5 -15t-89.5 -46t-58.5 -80t-20.5 -116v-22q0 -67 20.5 -115.5t58.5 -80t89.5 -46.5t114.5 -15zM282 774v64h341v-64h-341z" />
    <glyph glyph-name="omacron" unicode="&#x14d;" horiz-adv-x="644" 
d="M322 -12q-89 0 -150 30.5t-92.5 91.5t-31.5 153q0 93 31.5 154t92.5 91t150 30t149.5 -30t92 -91t31.5 -154q0 -92 -31.5 -153t-92 -91.5t-149.5 -30.5zM322 64q55 0 94.5 20t60.5 62t21 107v21q0 66 -21 107t-60.5 61t-94.5 20t-95 -20t-61 -61t-21 -107v-21
q0 -65 21 -107t61 -62t95 -20zM152 637v63h338v-63h-338z" />
    <glyph glyph-name="Obreve" unicode="&#x14e;" horiz-adv-x="906" 
d="M453 -12q-121 0 -208 40t-133.5 119t-46.5 196q0 118 46.5 196.5t133.5 118.5t208 40t208 -40t133.5 -118.5t46.5 -196.5q0 -117 -46.5 -196t-133.5 -119t-208 -40zM453 75q63 0 114.5 15t89.5 46.5t58.5 80t20.5 115.5v22q0 67 -20.5 116t-58.5 80t-89.5 46t-114.5 15
t-114.5 -15t-89.5 -46t-58.5 -80t-20.5 -116v-22q0 -67 20.5 -115.5t58.5 -80t89.5 -46.5t114.5 -15zM452 753q-62 0 -98 18t-51 45.5t-15 53.5h63q3 -11 13 -24t31 -22t57 -9q39 0 60 9.5t31 22.5t11 23h63q0 -26 -15.5 -53.5t-51.5 -45.5t-98 -18z" />
    <glyph glyph-name="obreve" unicode="&#x14f;" horiz-adv-x="644" 
d="M322 -12q-89 0 -150 30.5t-92.5 91.5t-31.5 153q0 93 31.5 154t92.5 91t150 30t149.5 -30t92 -91t31.5 -154q0 -92 -31.5 -153t-92 -91.5t-149.5 -30.5zM322 64q55 0 94.5 20t60.5 62t21 107v21q0 66 -21 107t-60.5 61t-94.5 20t-95 -20t-61 -61t-21 -107v-21
q0 -65 21 -107t61 -62t95 -20zM321 607q-62 0 -98 17.5t-51 45t-15 54.5h63q2 -11 12 -24t31.5 -22t57.5 -9q38 0 59.5 9t31 22.5t11.5 23.5h63q0 -27 -15.5 -54.5t-51.5 -45t-98 -17.5z" />
    <glyph glyph-name="Ohungarumlaut" unicode="&#x150;" horiz-adv-x="906" 
d="M453 -12q-121 0 -208 40t-133.5 119t-46.5 196q0 118 46.5 196.5t133.5 118.5t208 40t208 -40t133.5 -118.5t46.5 -196.5q0 -117 -46.5 -196t-133.5 -119t-208 -40zM453 75q63 0 114.5 15t89.5 46.5t58.5 80t20.5 115.5v22q0 67 -20.5 116t-58.5 80t-89.5 46t-114.5 15
t-114.5 -15t-89.5 -46t-58.5 -80t-20.5 -116v-22q0 -67 20.5 -115.5t58.5 -80t89.5 -46.5t114.5 -15zM494 738l66 132h107v-4l-95 -128h-78zM310 738l65 132h107v-4l-95 -128h-77z" />
    <glyph glyph-name="ohungarumlaut" unicode="&#x151;" horiz-adv-x="644" 
d="M322 -12q-89 0 -150 30.5t-92.5 91.5t-31.5 153q0 93 31.5 154t92.5 91t150 30t149.5 -30t92 -91t31.5 -154q0 -92 -31.5 -153t-92 -91.5t-149.5 -30.5zM322 64q55 0 94.5 20t60.5 62t21 107v21q0 66 -21 107t-60.5 61t-94.5 20t-95 -20t-61 -61t-21 -107v-21
q0 -65 21 -107t61 -62t95 -20zM187 591l66 133h106l1 -5l-96 -128h-77zM371 591l66 133h107l1 -5l-96 -128h-78z" />
    <glyph glyph-name="OE" unicode="&#x152;" horiz-adv-x="1413" 
d="M453 -12q-121 0 -208 40t-133.5 119t-46.5 196q0 118 46.5 196.5t133.5 118.5t208 40q96 0 167.5 -28t115.5 -83v99h603v-87h-501v-204h450v-87h-450v-221h508v-87h-610v100q-44 -56 -115.5 -84t-167.5 -28zM453 75q63 0 114.5 15t89.5 46.5t58.5 80t20.5 114.5v22
q0 68 -20.5 117t-58.5 80t-89.5 46t-114.5 15t-114.5 -15t-89.5 -46t-58.5 -80t-20.5 -117v-22q0 -66 20.5 -114.5t58.5 -80t89.5 -46.5t114.5 -15z" />
    <glyph glyph-name="oe" unicode="&#x153;" horiz-adv-x="1075" 
d="M319 -12q-88 0 -148 30.5t-91.5 91.5t-31.5 153q0 93 31.5 154t92.5 91t148 30q78 0 134 -26t88 -78q33 53 89.5 78.5t135.5 25.5q87 0 144.5 -30t86.5 -86.5t29 -136.5v-46h-435q1 -63 22.5 -102t61.5 -56.5t94 -17.5q36 0 65 9.5t50 25t32.5 36.5t13.5 45h92
q0 -39 -16.5 -73.5t-48.5 -61t-80 -41.5t-112 -15q-78 0 -135 25.5t-90 78.5q-32 -52 -88 -78t-134 -26zM320 64q55 0 94 20t60 61.5t21 107.5v20q0 67 -21 108t-60 61t-94 20q-54 0 -93.5 -19.5t-60.5 -61t-21 -107.5v-21q0 -65 21 -107t60.5 -62t93.5 -20zM592 308h337
q0 43 -13 72.5t-35.5 48t-52.5 26.5t-64 8q-50 0 -87 -16.5t-58.5 -51t-26.5 -87.5z" />
    <glyph glyph-name="Racute" unicode="&#x154;" horiz-adv-x="815" 
d="M97 0v686h438q70 0 116 -26.5t69 -72.5t23 -104q0 -68 -32.5 -119.5t-93.5 -74.5l147 -289h-113l-135 271h-317v-271h-102zM199 357h319q58 0 90 34t32 91q0 37 -14 63t-41.5 40t-66.5 14h-319v-242zM349 738l101 132h114v-3l-131 -129h-84z" />
    <glyph glyph-name="racute" unicode="&#x155;" horiz-adv-x="367" 
d="M73 0v526h75l7 -92h7q8 24 24 48t44 40t68 16q15 0 30 -2t24 -6v-83h-43q-40 0 -67 -14t-44 -38.5t-24.5 -54.5t-7.5 -61v-279h-93zM121 591l101 132h112v-3l-131 -129h-82z" />
    <glyph glyph-name="uni0156" unicode="&#x156;" horiz-adv-x="815" 
d="M97 0v686h438q70 0 116 -26.5t69 -72.5t23 -104q0 -68 -32.5 -119.5t-93.5 -74.5l147 -289h-113l-135 271h-317v-271h-102zM199 357h319q58 0 90 34t32 91q0 37 -14 63t-41.5 40t-66.5 14h-319v-242zM345 -318v46q29 2 44 23t15 56h-48v106h105v-90q0 -46 -13.5 -76.5
t-39 -46t-63.5 -18.5z" />
    <glyph glyph-name="uni0157" unicode="&#x157;" horiz-adv-x="367" 
d="M73 0v526h75l7 -92h7q8 24 24 48t44 40t68 16q15 0 30 -2t24 -6v-83h-43q-40 0 -67 -14t-44 -38.5t-24.5 -54.5t-7.5 -61v-279h-93zM58 -308v44q29 3 43 23t14 54h-45v102h100v-86q0 -45 -13 -74.5t-37.5 -44.5t-61.5 -18z" />
    <glyph glyph-name="Rcaron" unicode="&#x158;" horiz-adv-x="815" 
d="M97 0v686h438q70 0 116 -26.5t69 -72.5t23 -104q0 -68 -32.5 -119.5t-93.5 -74.5l147 -289h-113l-135 271h-317v-271h-102zM199 357h319q58 0 90 34t32 91q0 37 -14 63t-41.5 40t-66.5 14h-319v-242zM239 870h88l102 -110h-45l103 110h89l-126 -135h-85z" />
    <glyph glyph-name="rcaron" unicode="&#x159;" horiz-adv-x="367" 
d="M73 0v526h75l7 -92h7q8 24 24 48t44 40t68 16q15 0 30 -2t24 -6v-83h-43q-40 0 -67 -14t-44 -38.5t-24.5 -54.5t-7.5 -61v-279h-93zM28 724h85l103 -110l-45 -1l103 111h87l-126 -135h-82z" />
    <glyph glyph-name="Sacute" unicode="&#x15a;" horiz-adv-x="760" 
d="M385 -12q-65 0 -124 10t-104 33.5t-71.5 64t-26.5 101.5q0 6 0.5 10.5t0.5 7.5h102q0 -4 -0.5 -10.5t-0.5 -13.5q0 -38 27 -64.5t77.5 -39.5t116.5 -13q30 0 61 3.5t58.5 11t49 20t34 31t12.5 43.5q0 34 -21.5 55.5t-58.5 35t-83.5 23.5t-95.5 20t-95.5 24t-83.5 35
t-58.5 54.5t-21.5 82.5q0 42 18.5 76t56.5 58.5t95.5 37.5t136.5 13q72 0 126.5 -13.5t91.5 -38.5t55.5 -60t18.5 -78v-16h-101v17q0 30 -23 53t-64.5 36.5t-98.5 13.5q-70 0 -116 -11.5t-69 -32.5t-23 -49q0 -31 21.5 -50.5t58.5 -32t83.5 -22t95.5 -19.5t95.5 -24
t83.5 -36t59 -55.5t22 -82.5q0 -76 -40.5 -122t-112 -66.5t-164.5 -20.5zM322 738l102 132h113l1 -3l-132 -129h-84z" />
    <glyph glyph-name="sacute" unicode="&#x15b;" horiz-adv-x="569" 
d="M283 -12q-56 0 -101.5 10.5t-77.5 30t-49 49t-17 68.5q0 5 0.5 9.5t1.5 8.5h93v-6.5v-6.5q0 -34 21.5 -54t56.5 -28t75 -8q39 0 72.5 8t53.5 25.5t20 45.5q0 34 -22.5 51t-62 26t-89.5 19q-41 8 -77.5 19t-64.5 27.5t-43.5 42.5t-15.5 65q0 36 15.5 63t45 46t73 29
t99.5 10q54 0 95.5 -11t70 -30.5t43 -46t14.5 -57.5q0 -5 -0.5 -9t-0.5 -8h-94v7q0 27 -15.5 45t-44.5 27.5t-71 9.5q-25 0 -49 -3.5t-43.5 -11.5t-31.5 -21t-12 -32q0 -27 21.5 -41.5t56 -23t73.5 -16.5q42 -9 82 -18.5t72.5 -26t51.5 -44.5t19 -74q0 -44 -17.5 -75
t-49 -51t-76.5 -29.5t-101 -9.5zM210 591l102 132h111l1 -3l-131 -129h-83z" />
    <glyph glyph-name="Scircumflex" unicode="&#x15c;" horiz-adv-x="760" 
d="M385 -12q-65 0 -124 10t-104 33.5t-71.5 64t-26.5 101.5q0 6 0.5 10.5t0.5 7.5h102q0 -4 -0.5 -10.5t-0.5 -13.5q0 -38 27 -64.5t77.5 -39.5t116.5 -13q30 0 61 3.5t58.5 11t49 20t34 31t12.5 43.5q0 34 -21.5 55.5t-58.5 35t-83.5 23.5t-95.5 20t-95.5 24t-83.5 35
t-58.5 54.5t-21.5 82.5q0 42 18.5 76t56.5 58.5t95.5 37.5t136.5 13q72 0 126.5 -13.5t91.5 -38.5t55.5 -60t18.5 -78v-16h-101v17q0 30 -23 53t-64.5 36.5t-98.5 13.5q-70 0 -116 -11.5t-69 -32.5t-23 -49q0 -31 21.5 -50.5t58.5 -32t83.5 -22t95.5 -19.5t95.5 -24
t83.5 -36t59 -55.5t22 -82.5q0 -76 -40.5 -122t-112 -66.5t-164.5 -20.5zM213 735l125 135h85l126 -135h-88l-104 111h46l-103 -111h-87z" />
    <glyph glyph-name="scircumflex" unicode="&#x15d;" horiz-adv-x="569" 
d="M283 -12q-56 0 -101.5 10.5t-77.5 30t-49 49t-17 68.5q0 5 0.5 9.5t1.5 8.5h93v-6.5v-6.5q0 -34 21.5 -54t56.5 -28t75 -8q39 0 72.5 8t53.5 25.5t20 45.5q0 34 -22.5 51t-62 26t-89.5 19q-41 8 -77.5 19t-64.5 27.5t-43.5 42.5t-15.5 65q0 36 15.5 63t45 46t73 29
t99.5 10q54 0 95.5 -11t70 -30.5t43 -46t14.5 -57.5q0 -5 -0.5 -9t-0.5 -8h-94v7q0 27 -15.5 45t-44.5 27.5t-71 9.5q-25 0 -49 -3.5t-43.5 -11.5t-31.5 -21t-12 -32q0 -27 21.5 -41.5t56 -23t73.5 -16.5q42 -9 82 -18.5t72.5 -26t51.5 -44.5t19 -74q0 -44 -17.5 -75
t-49 -51t-76.5 -29.5t-101 -9.5zM117 589l126 135h81l126 -135h-87l-103 111l46 -1l-103 -110h-86z" />
    <glyph glyph-name="Scedilla" unicode="&#x15e;" horiz-adv-x="760" 
d="M385 -12q-65 0 -124 10t-104 33.5t-71.5 64t-26.5 101.5q0 6 0.5 10.5t0.5 7.5h102q0 -4 -0.5 -10.5t-0.5 -13.5q0 -38 27 -64.5t77.5 -39.5t116.5 -13q30 0 61 3.5t58.5 11t49 20t34 31t12.5 43.5q0 34 -21.5 55.5t-58.5 35t-83.5 23.5t-95.5 20t-95.5 24t-83.5 35
t-58.5 54.5t-21.5 82.5q0 42 18.5 76t56.5 58.5t95.5 37.5t136.5 13q72 0 126.5 -13.5t91.5 -38.5t55.5 -60t18.5 -78v-16h-101v17q0 30 -23 53t-64.5 36.5t-98.5 13.5q-70 0 -116 -11.5t-69 -32.5t-23 -49q0 -31 21.5 -50.5t58.5 -32t83.5 -22t95.5 -19.5t95.5 -24
t83.5 -36t59 -55.5t22 -82.5q0 -76 -40.5 -122t-112 -66.5t-164.5 -20.5zM385 -180q-26 0 -53.5 2t-50.5 7v39h115q19 0 30 7t11 21q0 13 -8.5 19t-31.5 6h-63l20 95h61l-9 -54q29 0 52.5 -6t37 -20.5t13.5 -39.5q0 -23 -10.5 -38t-28.5 -23t-40 -11.5t-45 -3.5z" />
    <glyph glyph-name="scedilla" unicode="&#x15f;" horiz-adv-x="569" 
d="M283 -12q-56 0 -101.5 10.5t-77.5 30t-49 49t-17 68.5q0 5 0.5 9.5t1.5 8.5h93v-6.5v-6.5q0 -34 21.5 -54t56.5 -28t75 -8q39 0 72.5 8t53.5 25.5t20 45.5q0 34 -22.5 51t-62 26t-89.5 19q-41 8 -77.5 19t-64.5 27.5t-43.5 42.5t-15.5 65q0 36 15.5 63t45 46t73 29
t99.5 10q54 0 95.5 -11t70 -30.5t43 -46t14.5 -57.5q0 -5 -0.5 -9t-0.5 -8h-94v7q0 27 -15.5 45t-44.5 27.5t-71 9.5q-25 0 -49 -3.5t-43.5 -11.5t-31.5 -21t-12 -32q0 -27 21.5 -41.5t56 -23t73.5 -16.5q42 -9 82 -18.5t72.5 -26t51.5 -44.5t19 -74q0 -44 -17.5 -75
t-49 -51t-76.5 -29.5t-101 -9.5zM288 -180q-26 0 -53.5 2t-50.5 7v39h115q19 0 30 7t11 21q0 13 -9 19t-32 6h-62l20 95h61l-9 -54q29 0 52 -6t37 -20.5t14 -39.5q0 -23 -10.5 -38t-28.5 -23t-40 -11.5t-45 -3.5z" />
    <glyph glyph-name="Scaron" unicode="&#x160;" horiz-adv-x="760" 
d="M385 -12q-65 0 -124 10t-104 33.5t-71.5 64t-26.5 101.5q0 6 0.5 10.5t0.5 7.5h102q0 -4 -0.5 -10.5t-0.5 -13.5q0 -38 27 -64.5t77.5 -39.5t116.5 -13q30 0 61 3.5t58.5 11t49 20t34 31t12.5 43.5q0 34 -21.5 55.5t-58.5 35t-83.5 23.5t-95.5 20t-95.5 24t-83.5 35
t-58.5 54.5t-21.5 82.5q0 42 18.5 76t56.5 58.5t95.5 37.5t136.5 13q72 0 126.5 -13.5t91.5 -38.5t55.5 -60t18.5 -78v-16h-101v17q0 30 -23 53t-64.5 36.5t-98.5 13.5q-70 0 -116 -11.5t-69 -32.5t-23 -49q0 -31 21.5 -50.5t58.5 -32t83.5 -22t95.5 -19.5t95.5 -24
t83.5 -36t59 -55.5t22 -82.5q0 -76 -40.5 -122t-112 -66.5t-164.5 -20.5zM213 870h87l103 -110h-46l104 110h88l-126 -135h-85z" />
    <glyph glyph-name="scaron" unicode="&#x161;" horiz-adv-x="569" 
d="M283 -12q-56 0 -101.5 10.5t-77.5 30t-49 49t-17 68.5q0 5 0.5 9.5t1.5 8.5h93v-6.5v-6.5q0 -34 21.5 -54t56.5 -28t75 -8q39 0 72.5 8t53.5 25.5t20 45.5q0 34 -22.5 51t-62 26t-89.5 19q-41 8 -77.5 19t-64.5 27.5t-43.5 42.5t-15.5 65q0 36 15.5 63t45 46t73 29
t99.5 10q54 0 95.5 -11t70 -30.5t43 -46t14.5 -57.5q0 -5 -0.5 -9t-0.5 -8h-94v7q0 27 -15.5 45t-44.5 27.5t-71 9.5q-25 0 -49 -3.5t-43.5 -11.5t-31.5 -21t-12 -32q0 -27 21.5 -41.5t56 -23t73.5 -16.5q42 -9 82 -18.5t72.5 -26t51.5 -44.5t19 -74q0 -44 -17.5 -75
t-49 -51t-76.5 -29.5t-101 -9.5zM117 724h86l103 -110l-46 -1l103 111h87l-126 -135h-81z" />
    <glyph glyph-name="uni0162" unicode="&#x162;" horiz-adv-x="696" 
d="M296 0v597h-273v89h649v-89h-274v-597h-102zM350 -180q-27 0 -54.5 2t-49.5 7v39h114q20 0 31 7t11 21q0 13 -9 19t-32 6h-62l19 95h61l-9 -54q29 0 52.5 -6t37.5 -20.5t14 -39.5q0 -23 -11 -38t-28.5 -23t-40 -11.5t-44.5 -3.5z" />
    <glyph glyph-name="uni0163" unicode="&#x163;" horiz-adv-x="351" 
d="M222 -12q-43 0 -69 14.5t-38 42.5t-12 68v337h-84v76h86l18 149h73v-149h119v-76h-119v-323q0 -31 10 -47t45 -16h64v-60q-12 -5 -28.5 -8.5t-33.5 -5.5t-31 -2zM208 -180q-26 0 -53.5 2t-50.5 7v39h115q20 0 31 7t11 21q0 13 -9 19t-32 6h-63l20 95h61l-9 -54
q29 0 52.5 -6t37.5 -20.5t14 -39.5q0 -23 -11 -38t-29 -23t-40 -11.5t-45 -3.5z" />
    <glyph glyph-name="Tcaron" unicode="&#x164;" horiz-adv-x="696" 
d="M296 0v597h-273v89h649v-89h-274v-597h-102zM179 870h88l102 -110h-45l103 110h89l-126 -135h-85z" />
    <glyph glyph-name="tcaron" unicode="&#x165;" horiz-adv-x="351" 
d="M222 -12q-43 0 -69 14.5t-38 42.5t-12 68v337h-84v76h86l18 149h73v-149h119v-76h-119v-323q0 -31 10 -47t45 -16h64v-60q-12 -5 -28.5 -8.5t-33.5 -5.5t-31 -2zM234 555v168h91l-24 -168h-67z" />
    <glyph glyph-name="Tbar" unicode="&#x166;" horiz-adv-x="696" 
d="M296 0v597h-273v89h649v-89h-274v-597h-102zM162 295v67h371v-67h-371z" />
    <glyph glyph-name="tbar" unicode="&#x167;" horiz-adv-x="351" 
d="M25 246v57h272v-57h-272zM222 -12q-43 0 -69 14.5t-38 42.5t-12 68v337h-84v76h86l18 149h73v-149h119v-76h-119v-323q0 -31 10 -47t45 -16h64v-60q-12 -5 -28.5 -8.5t-33.5 -5.5t-31 -2z" />
    <glyph glyph-name="Utilde" unicode="&#x168;" horiz-adv-x="828" 
d="M413 -12q-106 0 -177.5 33t-107.5 99t-36 162v404h102v-409q0 -99 57 -150.5t162 -51.5t163 51.5t58 150.5v409h102v-404q0 -96 -36.5 -162t-108.5 -99t-178 -33zM230 762q1 26 12 49.5t33.5 38t56.5 14.5q30 0 58 -9t55.5 -18.5t52.5 -9.5q19 0 28 11t12 25h60
q-1 -26 -13 -49.5t-34.5 -38t-56.5 -14.5q-28 0 -56.5 9.5t-56 18.5t-52.5 9q-19 0 -29 -10.5t-12 -25.5h-58z" />
    <glyph glyph-name="utilde" unicode="&#x169;" horiz-adv-x="623" 
d="M259 -12q-90 0 -141 43.5t-51 145.5v349h93v-334q0 -38 9.5 -62t27 -37.5t41.5 -18.5t52 -5q43 0 81 19t62 54.5t24 83.5v300h93v-526h-74l-8 86h-8q-25 -37 -57.5 -58.5t-69 -30.5t-74.5 -9zM127 620q2 26 13 49t33 37.5t56 14.5q30 0 58.5 -8.5t55.5 -18t53 -9.5
q18 0 27 11t12 25h60q-1 -26 -13 -49.5t-34.5 -38t-56.5 -14.5q-27 0 -56 9.5t-56 18.5t-52 9q-20 0 -29.5 -11t-12.5 -25h-58z" />
    <glyph glyph-name="Umacron" unicode="&#x16a;" horiz-adv-x="828" 
d="M413 -12q-106 0 -177.5 33t-107.5 99t-36 162v404h102v-409q0 -99 57 -150.5t162 -51.5t163 51.5t58 150.5v409h102v-404q0 -96 -36.5 -162t-108.5 -99t-178 -33zM243 774v64h341v-64h-341z" />
    <glyph glyph-name="umacron" unicode="&#x16b;" horiz-adv-x="623" 
d="M259 -12q-90 0 -141 43.5t-51 145.5v349h93v-334q0 -38 9.5 -62t27 -37.5t41.5 -18.5t52 -5q43 0 81 19t62 54.5t24 83.5v300h93v-526h-74l-8 86h-8q-25 -37 -57.5 -58.5t-69 -30.5t-74.5 -9zM142 637v63h338v-63h-338z" />
    <glyph glyph-name="Ubreve" unicode="&#x16c;" horiz-adv-x="828" 
d="M413 -12q-106 0 -177.5 33t-107.5 99t-36 162v404h102v-409q0 -99 57 -150.5t162 -51.5t163 51.5t58 150.5v409h102v-404q0 -96 -36.5 -162t-108.5 -99t-178 -33zM413 753q-62 0 -98 18t-51 45.5t-15 53.5h63q3 -11 13 -24t31 -22t58 -9q38 0 59 9.5t31 22.5t11 23h63
q0 -26 -15.5 -53.5t-51.5 -45.5t-98 -18z" />
    <glyph glyph-name="ubreve" unicode="&#x16d;" horiz-adv-x="623" 
d="M259 -12q-90 0 -141 43.5t-51 145.5v349h93v-334q0 -38 9.5 -62t27 -37.5t41.5 -18.5t52 -5q43 0 81 19t62 54.5t24 83.5v300h93v-526h-74l-8 86h-8q-25 -37 -57.5 -58.5t-69 -30.5t-74.5 -9zM310 607q-61 0 -97 17.5t-51 45t-15 54.5h62q3 -11 13 -24t31.5 -22t57.5 -9
q38 0 59 9t31 22.5t11 23.5h64q0 -27 -15.5 -54.5t-51.5 -45t-99 -17.5z" />
    <glyph glyph-name="Uring" unicode="&#x16e;" horiz-adv-x="828" 
d="M413 -12q-106 0 -177.5 33t-107.5 99t-36 162v404h102v-409q0 -99 57 -150.5t162 -51.5t163 51.5t58 150.5v409h102v-404q0 -96 -36.5 -162t-108.5 -99t-178 -33zM413 719q-44 0 -73 28t-29 71t29 71t74 28q44 0 73 -28t29 -71t-29 -71t-74 -28zM414 767q23 0 37.5 14
t14.5 37q0 22 -14.5 36.5t-37.5 14.5t-38 -14.5t-15 -36.5q0 -23 15 -37t38 -14z" />
    <glyph glyph-name="uring" unicode="&#x16f;" horiz-adv-x="623" 
d="M259 -12q-90 0 -141 43.5t-51 145.5v349h93v-334q0 -38 9.5 -62t27 -37.5t41.5 -18.5t52 -5q43 0 81 19t62 54.5t24 83.5v300h93v-526h-74l-8 86h-8q-25 -37 -57.5 -58.5t-69 -30.5t-74.5 -9zM311 572q-42 0 -71.5 29t-29.5 71q0 43 29.5 72t71.5 29q43 0 72 -29t29 -72
q0 -42 -29 -71t-72 -29zM311 618q23 0 38.5 15.5t15.5 38.5t-15.5 39t-38.5 16q-22 0 -37.5 -16t-15.5 -39q0 -22 15.5 -38t37.5 -16z" />
    <glyph glyph-name="Uhungarumlaut" unicode="&#x170;" horiz-adv-x="828" 
d="M413 -12q-106 0 -177.5 33t-107.5 99t-36 162v404h102v-409q0 -99 57 -150.5t162 -51.5t163 51.5t58 150.5v409h102v-404q0 -96 -36.5 -162t-108.5 -99t-178 -33zM455 738l66 132h107v-4l-95 -128h-78zM271 738l65 132h107v-4l-95 -128h-77z" />
    <glyph glyph-name="uhungarumlaut" unicode="&#x171;" horiz-adv-x="623" 
d="M259 -12q-90 0 -141 43.5t-51 145.5v349h93v-334q0 -38 9.5 -62t27 -37.5t41.5 -18.5t52 -5q43 0 81 19t62 54.5t24 83.5v300h93v-526h-74l-8 86h-8q-25 -37 -57.5 -58.5t-69 -30.5t-74.5 -9zM176 591l66 133h107v-5l-95 -128h-78zM361 591l66 133h107v-5l-95 -128h-78z
" />
    <glyph glyph-name="Uogonek" unicode="&#x172;" horiz-adv-x="828" 
d="M413 -12q-106 0 -177.5 33t-107.5 99t-36 162v404h102v-409q0 -99 57 -150.5t162 -51.5t163 51.5t58 150.5v409h102v-404q0 -96 -36.5 -162t-108.5 -99t-178 -33zM542 -179q-26 0 -50.5 8.5t-40 28.5t-15.5 53q0 34 15.5 58t38.5 43h61v-5q-14 -11 -28 -30t-14 -44
q0 -22 13.5 -38.5t45.5 -16.5h50v-43q-16 -7 -38 -10.5t-38 -3.5z" />
    <glyph glyph-name="uogonek" unicode="&#x173;" horiz-adv-x="623" 
d="M535 -179q-26 0 -50 8.5t-40 28.5t-16 52q0 33 15.5 56.5t38.5 42.5h60v-5q-14 -11 -27.5 -29.5t-13.5 -42.5q0 -22 13.5 -38t45.5 -16h51v-43q-17 -7 -39 -10.5t-38 -3.5zM259 -12q-90 0 -141 43.5t-51 145.5v349h93v-334q0 -38 9.5 -62t27 -37.5t41.5 -18.5t52 -5
q43 0 81 19t62 54.5t24 83.5v300h93v-526h-74l-8 86h-8q-25 -37 -57.5 -58.5t-69 -30.5t-74.5 -9z" />
    <glyph glyph-name="Wcircumflex" unicode="&#x174;" horiz-adv-x="1039" 
d="M229 0l-215 686h109l141 -466q4 -12 9 -32t10.5 -41.5t9.5 -38.5h8q2 13 5.5 28.5t7.5 31t7.5 29t5.5 23.5l128 466h138l128 -466q4 -12 9 -32t10 -41.5t8 -38.5h8q3 13 7 28t8.5 30.5t8 29.5t6.5 24l141 466h98l-215 -686h-127l-134 470q-3 14 -8 34t-9.5 41t-8.5 37h-6
q-3 -16 -8 -37.5t-10 -41.5t-8 -33l-131 -470h-131zM352 735l126 135h85l126 -135h-89l-103 111h45l-102 -111h-88z" />
    <glyph glyph-name="wcircumflex" unicode="&#x175;" horiz-adv-x="803" 
d="M188 0l-179 526h98l90 -286q9 -25 15.5 -49.5t11.5 -43.5t8 -29h6l9.5 38t12 44.5t11.5 40.5l83 285h101l84 -285q6 -19 12 -42t12 -44.5t9 -36.5h6q5 16 11 38t12.5 44.5t11.5 39.5l89 286h92l-179 -526h-91l-83 277q-6 20 -13 44.5t-13 48t-10 39.5h-6l-10 -37.5
t-12.5 -47t-13.5 -47.5l-83 -277h-92zM238 589l125 135h82l126 -135h-87l-103 111l45 -1l-102 -110h-86z" />
    <glyph glyph-name="Ycircumflex" unicode="&#x176;" horiz-adv-x="740" 
d="M319 0v284l-306 402h121l235 -315h8l235 315h115l-306 -402v-284h-102zM203 735l125 135h86l126 -135h-89l-103 111h45l-102 -111h-88z" />
    <glyph glyph-name="ycircumflex" unicode="&#x177;" horiz-adv-x="556" 
d="M121 -186q-24 0 -42.5 3t-31.5 7v65h51q37 0 63.5 10.5t45.5 35t35 65.5l-232 526h100l117 -272q9 -18 19.5 -46.5t22 -58t20.5 -51.5h6q4 12 10.5 32t14.5 43t16.5 45t14.5 39l99 269h96l-199 -509q-20 -48 -40 -86t-45 -64t-59 -39.5t-82 -13.5zM116 589l126 135h82
l125 -135h-86l-104 111l46 -1l-103 -110h-86z" />
    <glyph glyph-name="Ydieresis" unicode="&#x178;" horiz-adv-x="740" 
d="M319 0v284l-306 402h121l235 -315h8l235 315h115l-306 -402v-284h-102zM215 776v93h96v-93h-96zM432 776v93h96v-93h-96z" />
    <glyph glyph-name="Zacute" unicode="&#x179;" horiz-adv-x="725" 
d="M38 0v51l468 548h-439v87h602v-50l-471 -549h479v-87h-639zM301 738l101 132h114v-3l-131 -129h-84z" />
    <glyph glyph-name="zacute" unicode="&#x17a;" horiz-adv-x="552" 
d="M33 0v49l330 401h-307v76h448v-47l-333 -403h348v-76h-486zM207 591l102 132h111l1 -3l-132 -129h-82z" />
    <glyph glyph-name="Zdotaccent" unicode="&#x17b;" horiz-adv-x="725" 
d="M38 0v51l468 548h-439v87h602v-50l-471 -549h479v-87h-639zM310 776v96h99v-96h-99z" />
    <glyph glyph-name="zdotaccent" unicode="&#x17c;" horiz-adv-x="552" 
d="M33 0v49l330 401h-307v76h448v-47l-333 -403h348v-76h-486zM231 624v96h99v-96h-99z" />
    <glyph glyph-name="Zcaron" unicode="&#x17d;" horiz-adv-x="725" 
d="M38 0v51l468 548h-439v87h602v-50l-471 -549h479v-87h-639zM191 870h88l102 -110h-45l103 110h89l-126 -135h-85z" />
    <glyph glyph-name="zcaron" unicode="&#x17e;" horiz-adv-x="552" 
d="M33 0v49l330 401h-307v76h448v-47l-333 -403h348v-76h-486zM114 724h86l102 -110l-45 -1l103 111h87l-126 -135h-82z" />
    <glyph glyph-name="longs" unicode="&#x17f;" horiz-adv-x="332" 
d="M106 0v450h-92v76h92v76q0 34 11.5 64t40 48t77.5 18q16 0 32 -1.5t30 -4t26 -6.5v-64h-61q-33 0 -48 -13.5t-15 -41.5v-601h-93z" />
    <glyph glyph-name="uni018F" unicode="&#x18f;" horiz-adv-x="880" 
d="M443 -12q-90 0 -160.5 18.5t-119.5 59.5t-74.5 108t-25.5 165v34h648q-2 85 -35.5 137.5t-95 77.5t-148.5 25q-49 0 -95.5 -9t-84.5 -28t-61 -49t-24 -72h-103q1 62 31 108t81.5 76t117.5 44.5t141 14.5q128 0 213 -40t127.5 -118.5t42.5 -197.5q0 -117 -44.5 -196
t-128 -118.5t-202.5 -39.5zM444 74q76 0 133.5 22.5t92.5 72t39 129.5h-540q1 -65 21.5 -108.5t56.5 -69t86.5 -36t110.5 -10.5z" />
    <glyph glyph-name="florin" unicode="&#x192;" horiz-adv-x="652" 
d="M153 -187q-16 0 -31.5 1.5t-29 4.5t-24.5 6l14 64h61q32 0 50 13.5t24 40.5l96 452h-91l15 76h92l28 131q7 35 24.5 64.5t50 47.5t82.5 18q17 0 32 -1.5t29 -4t24 -6.5l-14 -64h-61q-32 0 -50 -13t-24 -41l-28 -131h124l-16 -76h-124l-96 -452q-8 -36 -26 -65.5
t-49.5 -47t-81.5 -17.5z" />
    <glyph glyph-name="uni019D" unicode="&#x19d;" horiz-adv-x="841" 
d="M66 -186q-13 0 -26.5 1.5t-25.5 4t-22 4.5v67h46q29 0 44 15t15 44v736h99l381 -444q9 -8 20.5 -22l23 -28t19.5 -25h6q0 19 -0.5 42t-0.5 42v435h99v-686h-93l-385 450q-16 17 -35 40.5t-30 37.5h-6q0 -17 0.5 -42t0.5 -50v-479q0 -27 -5 -53t-18.5 -46t-39 -32
t-67.5 -12z" />
    <glyph glyph-name="Ohorn" unicode="&#x1a0;" horiz-adv-x="906" 
d="M453 -12q-120 0 -207.5 40t-134 119t-46.5 196q0 118 46.5 196.5t134 118.5t207.5 40q121 0 208 -40t133.5 -118.5t46.5 -196.5q0 -117 -46.5 -196t-133.5 -119t-208 -40zM453 75q63 0 114.5 15t89.5 46.5t58.5 80t20.5 115.5v22q0 67 -20.5 116t-58.5 80t-89.5 46
t-114.5 15t-114.5 -15t-89.5 -46t-58.5 -80t-20.5 -116v-22q0 -67 20.5 -115.5t58.5 -80t89.5 -46.5t114.5 -15zM652 579v51q69 0 109 24.5t40 66.5h-55v104h120v-78q0 -53 -25.5 -90.5t-74 -57.5t-114.5 -20z" />
    <glyph glyph-name="ohorn" unicode="&#x1a1;" horiz-adv-x="644" 
d="M322 -12q-89 0 -150 30.5t-92.5 91.5t-31.5 153q0 93 31.5 154t92.5 91t150 30t149.5 -30t92 -91t31.5 -154q0 -92 -31.5 -153t-92 -91.5t-149.5 -30.5zM322 64q55 0 94.5 20t60.5 62t21 107v21q0 66 -21 107t-60.5 61t-94.5 20t-95 -20t-61 -61t-21 -107v-21
q0 -65 21 -107t61 -62t95 -20zM460 439v52q60 4 96 27.5t41 63.5h-56v104h121v-65q0 -53 -23 -92.5t-68 -62.5t-111 -27z" />
    <glyph glyph-name="Uhorn" unicode="&#x1af;" horiz-adv-x="828" 
d="M413 -12q-106 0 -177.5 33t-107.5 99t-36 162v404h102v-409q0 -99 57 -150.5t162 -51.5t163 51.5t58 150.5v409h102v-404q0 -96 -36.5 -162t-108.5 -99t-178 -33zM647 634v52q69 0 109 24.5t40 66.5h-55v104h120v-79q0 -52 -25.5 -89.5t-73.5 -58t-115 -20.5z" />
    <glyph glyph-name="uhorn" unicode="&#x1b0;" horiz-adv-x="623" 
d="M259 -12q-90 0 -141 43.5t-51 145.5v349h93v-334q0 -38 9.5 -62t27 -37.5t41.5 -18.5t52 -5q43 0 81 19t62 54.5t24 83.5v300h93v-526h-74l-8 86h-8q-25 -37 -57.5 -58.5t-69 -30.5t-74.5 -9zM467 474v52q60 4 96 27.5t42 63.5h-56v104h121v-65q0 -53 -23 -92.5
t-68.5 -62.5t-111.5 -27z" />
    <glyph glyph-name="uni01C4" unicode="&#x1c4;" horiz-adv-x="1549" 
d="M97 0v686h303q116 0 198.5 -37.5t127 -113.5t44.5 -192q0 -115 -44.5 -191.5t-127 -114t-198.5 -37.5h-303zM199 87h198q59 0 108 14t85 43.5t55.5 76t19.5 111.5v21q0 66 -19.5 112.5t-55 76t-84.5 43.5t-109 14h-198v-512zM862 0v51l469 548h-440v87h603v-50l-471 -549
h478v-87h-639zM1016 870h87l103 -110h-45l103 110h88l-125 -135h-86z" />
    <glyph glyph-name="uni01C5" unicode="&#x1c5;" horiz-adv-x="1387" 
d="M97 0v686h303q116 0 198.5 -37.5t127 -113.5t44.5 -192q0 -115 -44.5 -191.5t-127 -114t-198.5 -37.5h-303zM199 87h198q59 0 108 14t85 43.5t55.5 76t19.5 111.5v21q0 66 -19.5 112.5t-55 76t-84.5 43.5t-109 14h-198v-512zM867 0v49l331 401h-307v76h448v-47l-333 -403
h348v-76h-487zM949 724h85l103 -110l-45 -1l103 111h87l-126 -135h-82z" />
    <glyph glyph-name="uni01C6" unicode="&#x1c6;" horiz-adv-x="1185" 
d="M283 -12q-74 0 -126.5 30t-80.5 91.5t-28 155.5q0 93 28.5 153.5t80.5 90t123 29.5q40 0 73.5 -8.5t60.5 -26.5t47 -46h7v266h93v-723h-75l-9 79h-7q-31 -47 -79.5 -69t-107.5 -22zM303 68q53 0 90 21t56 62.5t19 103.5v15q0 52 -12 88t-34.5 58t-52 32t-64.5 10
q-50 0 -86 -19.5t-55 -60t-19 -105.5v-20q0 -66 19 -106.5t55 -59.5t84 -19zM666 0v49l331 401h-307v76h447v-47l-333 -403h348v-76h-486zM747 724h86l103 -110l-46 -1l103 111h87l-126 -135h-81z" />
    <glyph glyph-name="uni01C7" unicode="&#x1c7;" horiz-adv-x="1199" 
d="M97 0v686h102v-597h386v-89h-488zM866 -12q-76 0 -130.5 24.5t-83.5 72.5t-29 122v21h100v-29q0 -60 38 -92t104 -32q69 0 107.5 42t38.5 124v445h102v-435q0 -89 -29.5 -147.5t-84.5 -87t-133 -28.5z" />
    <glyph glyph-name="uni01C8" unicode="&#x1c8;" horiz-adv-x="845" 
d="M97 0v686h102v-597h386v-89h-488zM682 627v96h93v-96h-93zM649 -187q-13 0 -26.5 2t-26 4.5t-22.5 5.5v64h48q29 0 44.5 15.5t15.5 44.5v577h93v-578q0 -35 -10.5 -66t-38 -50t-77.5 -19z" />
    <glyph glyph-name="uni01C9" unicode="&#x1c9;" horiz-adv-x="474" 
d="M73 0v723h93v-723h-93zM311 627v96h93v-96h-93zM278 -187q-13 0 -26.5 2t-26 4.5t-22.5 5.5v64h47q29 0 45 15.5t16 44.5v577h93v-578q0 -35 -11 -66t-38 -50t-77 -19z" />
    <glyph glyph-name="uni01CA" unicode="&#x1ca;" horiz-adv-x="1455" 
d="M97 0v686h99l381 -444q9 -8 20.5 -22l23 -28t19.5 -25h6q0 18 -0.5 40t-0.5 40v439h99v-686h-93l-385 450q-16 17 -35 40.5t-30 37.5h-6q0 -16 0.5 -39.5t0.5 -48.5v-440h-99zM1123 -12q-76 0 -130.5 24.5t-84 72.5t-29.5 122v21h101v-29q0 -60 37.5 -92t103.5 -32
q69 0 108 42t39 124v445h101v-435q0 -89 -29 -147.5t-84.5 -87t-132.5 -28.5z" />
    <glyph glyph-name="uni01CB" unicode="&#x1cb;" horiz-adv-x="1077" 
d="M97 0v686h99l381 -444q9 -8 20.5 -22l23 -28t19.5 -25h6q0 18 -0.5 40t-0.5 40v439h99v-686h-93l-385 450q-16 17 -35 40.5t-30 37.5h-6q0 -16 0.5 -40t0.5 -48v-440h-99zM913 627v96h93v-96h-93zM881 -187q-13 0 -27 2t-26.5 4.5t-22.5 5.5v64h48q29 0 44.5 15.5
t15.5 44.5v577h93v-578q0 -35 -10.5 -66t-37.5 -50t-77 -19z" />
    <glyph glyph-name="uni01CC" unicode="&#x1cc;" horiz-adv-x="859" 
d="M73 0v526h74l8 -85h8q25 36 57.5 57.5t69 30.5t73.5 9q61 0 104 -19t66 -60t23 -109v-350h-94v335q0 38 -9.5 62t-26.5 37t-41 18.5t-53 5.5q-42 0 -80.5 -19.5t-62 -54.5t-23.5 -84v-300h-93zM695 627v96h93v-96h-93zM663 -187q-13 0 -26.5 1.5t-26.5 4.5t-23 6v64h48
q29 0 44.5 15.5t15.5 44.5v577h93v-578q0 -35 -10.5 -66t-37.5 -50t-77 -19z" />
    <glyph glyph-name="uni01CD" unicode="&#x1cd;" horiz-adv-x="784" 
d="M19 0l310 686h126l310 -686h-111l-74 166h-382l-73 -166h-106zM236 252h305l-92 209q-5 10 -12.5 28t-15.5 38t-15.5 39t-12.5 32h-8q-8 -21 -19 -47.5t-21 -50.5t-16 -39zM224 870h87l103 -110h-45l103 110h88l-125 -135h-86z" />
    <glyph glyph-name="uni01CE" unicode="&#x1ce;" horiz-adv-x="627" 
d="M236 -12q-37 0 -71 7.5t-61.5 24t-43 45t-15.5 71.5q0 59 31 94.5t86.5 53t130 23t161.5 5.5v45q0 37 -13.5 60.5t-45.5 34.5t-90 11q-50 0 -82 -10.5t-47 -28t-15 -38.5v-17h-91q-1 5 -1 9.5v11.5q0 47 29 80.5t84 50.5t132 17t128.5 -18t78 -55t26.5 -96v-268
q0 -20 8 -28.5t24 -8.5h45v-61q-15 -5 -34.5 -9.5t-41.5 -4.5q-32 0 -50.5 11t-27 31t-11.5 44h-7q-23 -27 -57 -47t-74.5 -30t-84.5 -10zM256 64q36 0 71 10t63.5 28t46 43.5t17.5 56.5v43q-102 0 -172 -8.5t-105.5 -31t-35.5 -65.5q0 -28 15.5 -44.5t42 -24t57.5 -7.5z
M144 724h85l103 -110l-45 -1l103 111h87l-126 -135h-82z" />
    <glyph glyph-name="uni01CF" unicode="&#x1cf;" horiz-adv-x="296" 
d="M97 0v686h102v-686h-102zM-20 870h87l103 -110h-46l104 110h88l-126 -135h-85z" />
    <glyph glyph-name="uni01D0" unicode="&#x1d0;" horiz-adv-x="238" 
d="M73 0v526h93v-526h-93zM-47 724h85l103 -110l-46 -1l104 111h87l-126 -135h-82z" />
    <glyph glyph-name="uni01D1" unicode="&#x1d1;" horiz-adv-x="906" 
d="M453 -12q-121 0 -208 40t-133.5 119t-46.5 196q0 118 46.5 196.5t133.5 118.5t208 40t208 -40t133.5 -118.5t46.5 -196.5q0 -117 -46.5 -196t-133.5 -119t-208 -40zM453 75q63 0 114.5 15t89.5 46.5t58.5 80t20.5 115.5v22q0 67 -20.5 116t-58.5 80t-89.5 46t-114.5 15
t-114.5 -15t-89.5 -46t-58.5 -80t-20.5 -116v-22q0 -67 20.5 -115.5t58.5 -80t89.5 -46.5t114.5 -15zM284 870h88l102 -110h-45l103 110h89l-126 -135h-85z" />
    <glyph glyph-name="uni01D2" unicode="&#x1d2;" horiz-adv-x="644" 
d="M322 -12q-89 0 -150 30.5t-92.5 91.5t-31.5 153q0 93 31.5 154t92.5 91t150 30t149.5 -30t92 -91t31.5 -154q0 -92 -31.5 -153t-92 -91.5t-149.5 -30.5zM322 64q55 0 94.5 20t60.5 62t21 107v21q0 66 -21 107t-60.5 61t-94.5 20t-95 -20t-61 -61t-21 -107v-21
q0 -65 21 -107t61 -62t95 -20zM155 724h86l102 -110l-45 -1l103 111h87l-126 -135h-81z" />
    <glyph glyph-name="uni01D3" unicode="&#x1d3;" horiz-adv-x="828" 
d="M413 -12q-106 0 -177.5 33t-107.5 99t-36 162v404h102v-409q0 -99 57 -150.5t162 -51.5t163 51.5t58 150.5v409h102v-404q0 -96 -36.5 -162t-108.5 -99t-178 -33zM245 870h88l102 -110h-45l103 110h89l-126 -135h-85z" />
    <glyph glyph-name="uni01D4" unicode="&#x1d4;" horiz-adv-x="623" 
d="M259 -12q-90 0 -141 43.5t-51 145.5v349h93v-334q0 -38 9.5 -62t27 -37.5t41.5 -18.5t52 -5q43 0 81 19t62 54.5t24 83.5v300h93v-526h-74l-8 86h-8q-25 -37 -57.5 -58.5t-69 -30.5t-74.5 -9zM145 724h86l102 -110l-45 -1l103 111h87l-126 -135h-82z" />
    <glyph glyph-name="uni01D5" unicode="&#x1d5;" horiz-adv-x="828" 
d="M413 -12q-106 0 -177.5 33t-107.5 99t-36 162v404h102v-409q0 -99 57 -150.5t162 -51.5t163 51.5t58 150.5v409h102v-404q0 -96 -36.5 -162t-108.5 -99t-178 -33zM257 776v93h96v-93h-96zM474 776v93h96v-93h-96zM243 948v64h341v-64h-341z" />
    <glyph glyph-name="uni01D6" unicode="&#x1d6;" horiz-adv-x="623" 
d="M259 -12q-90 0 -141 43.5t-51 145.5v349h93v-334q0 -38 9.5 -62t27 -37.5t41.5 -18.5t52 -5q43 0 81 19t62 54.5t24 83.5v300h93v-526h-74l-8 86h-8q-25 -37 -57.5 -58.5t-69 -30.5t-74.5 -9zM154 627v93h96v-93h-96zM371 627v93h97v-93h-97zM142 811v63h338v-63h-338z
" />
    <glyph glyph-name="uni01D7" unicode="&#x1d7;" horiz-adv-x="828" 
d="M413 -12q-106 0 -177.5 33t-107.5 99t-36 162v404h102v-409q0 -99 57 -150.5t162 -51.5t163 51.5t58 150.5v409h102v-404q0 -96 -36.5 -162t-108.5 -99t-178 -33zM257 776v93h96v-93h-96zM474 776v93h96v-93h-96zM355 912l101 132h114v-4l-131 -128h-84z" />
    <glyph glyph-name="uni01D8" unicode="&#x1d8;" horiz-adv-x="623" 
d="M259 -12q-90 0 -141 43.5t-51 145.5v349h93v-334q0 -38 9.5 -62t27 -37.5t41.5 -18.5t52 -5q43 0 81 19t62 54.5t24 83.5v300h93v-526h-74l-8 86h-8q-25 -37 -57.5 -58.5t-69 -30.5t-74.5 -9zM154 627v93h96v-93h-96zM371 627v93h97v-93h-97zM238 765l102 132h111v-4
l-131 -128h-82z" />
    <glyph glyph-name="uni01D9" unicode="&#x1d9;" horiz-adv-x="828" 
d="M413 -12q-106 0 -177.5 33t-107.5 99t-36 162v404h102v-409q0 -99 57 -150.5t162 -51.5t163 51.5t58 150.5v409h102v-404q0 -96 -36.5 -162t-108.5 -99t-178 -33zM257 776v93h96v-93h-96zM474 776v93h96v-93h-96zM245 1044h88l102 -110l-45 -1l103 111h89l-126 -135h-85z
" />
    <glyph glyph-name="uni01DA" unicode="&#x1da;" horiz-adv-x="623" 
d="M259 -12q-90 0 -141 43.5t-51 145.5v349h93v-334q0 -38 9.5 -62t27 -37.5t41.5 -18.5t52 -5q43 0 81 19t62 54.5t24 83.5v300h93v-526h-74l-8 86h-8q-25 -37 -57.5 -58.5t-69 -30.5t-74.5 -9zM154 627v93h96v-93h-96zM371 627v93h97v-93h-97zM145 898h86l102 -111h-45
l103 111h87l-126 -135h-82z" />
    <glyph glyph-name="uni01DB" unicode="&#x1db;" horiz-adv-x="828" 
d="M413 -12q-106 0 -177.5 33t-107.5 99t-36 162v404h102v-409q0 -99 57 -150.5t162 -51.5t163 51.5t58 150.5v409h102v-404q0 -96 -36.5 -162t-108.5 -99t-178 -33zM257 776v93h96v-93h-96zM474 776v93h96v-93h-96zM473 912h-84l-131 128v4h114z" />
    <glyph glyph-name="uni01DC" unicode="&#x1dc;" horiz-adv-x="623" 
d="M259 -12q-90 0 -141 43.5t-51 145.5v349h93v-334q0 -38 9.5 -62t27 -37.5t41.5 -18.5t52 -5q43 0 81 19t62 54.5t24 83.5v300h93v-526h-74l-8 86h-8q-25 -37 -57.5 -58.5t-69 -30.5t-74.5 -9zM154 627v93h96v-93h-96zM371 627v93h97v-93h-97zM386 765h-82l-132 128l1 4
h111z" />
    <glyph glyph-name="Gcaron" unicode="&#x1e6;" horiz-adv-x="905" 
d="M444 -12q-187 0 -282 87.5t-95 267.5q0 117 46 196t134 119t213 40q80 0 145.5 -15t113 -45.5t72.5 -77t25 -110.5h-102q0 46 -20 77t-55 50t-80.5 26.5t-96.5 7.5q-64 0 -117 -14t-92 -45t-60 -80t-21 -117v-23q0 -92 33.5 -149t95.5 -82.5t146 -25.5q95 0 154 22.5
t86.5 65.5t27.5 105v13h-276v84h377v-365h-72l-11 94q-32 -38 -77 -61.5t-99 -34t-113 -10.5zM285 870h88l103 -110h-46l103 110h89l-126 -135h-85z" />
    <glyph glyph-name="gcaron" unicode="&#x1e7;" horiz-adv-x="628" 
d="M172 -186q-41 0 -75.5 15t-54.5 44t-20 71t25.5 72.5t62.5 44.5q-27 13 -41 36t-14 50q0 36 25.5 62.5t66.5 33.5q-37 22 -57 55.5t-20 72.5q0 52 26.5 89.5t81 57.5t136.5 20q37 0 68 -4.5t56 -12.5q41 15 64 39.5t29 52.5h91q-2 -31 -16 -57t-39.5 -44t-62.5 -25
q28 -22 41.5 -51.5t13.5 -64.5q0 -50 -25 -88t-77 -58.5t-133 -20.5h-110q-28 0 -46 -11.5t-18 -34.5q0 -22 18.5 -34.5t49.5 -12.5h257q63 0 101.5 -40.5t38.5 -101.5q0 -44 -23 -79.5t-62 -55.5t-90 -20h-268zM193 -116h245q23 0 41.5 9.5t29.5 26.5t11 37q0 34 -20 54
t-51 20h-256q-32 0 -54 -21t-22 -53q0 -33 21.5 -53t54.5 -20zM315 273q76 0 113 25.5t37 72.5t-37 72.5t-113 25.5t-113 -25.5t-37 -72.5q0 -31 16 -53t49 -33.5t85 -11.5zM142 724h86l102 -110l-45 -1l103 111h87l-126 -135h-82z" />
    <glyph glyph-name="uni01EA" unicode="&#x1ea;" horiz-adv-x="906" 
d="M453 -12q-120 0 -207.5 40t-134 119t-46.5 196q0 118 46.5 196.5t134 118.5t207.5 40q121 0 208 -40t133.5 -118.5t46.5 -196.5q0 -117 -46.5 -196t-133.5 -119t-208 -40zM453 75q63 0 114.5 15t89.5 46.5t58.5 80t20.5 115.5v22q0 67 -20.5 116t-58.5 80t-89.5 46
t-114.5 15t-114.5 -15t-89.5 -46t-58.5 -80t-20.5 -116v-22q0 -67 20.5 -115.5t58.5 -80t89.5 -46.5t114.5 -15zM590 -179q-25 0 -49.5 8.5t-40.5 28.5t-16 53q0 34 15.5 58t38.5 43h61v-5q-14 -11 -28 -30t-14 -44q0 -22 14 -38.5t45 -16.5h51v-43q-17 -7 -38.5 -10.5
t-38.5 -3.5z" />
    <glyph glyph-name="uni01EB" unicode="&#x1eb;" horiz-adv-x="644" 
d="M322 -12q-89 0 -150 30.5t-92.5 91.5t-31.5 153q0 93 31.5 154t92.5 91t150 30t149.5 -30t92 -91t31.5 -154q0 -92 -31.5 -153t-92 -91.5t-149.5 -30.5zM322 64q55 0 94.5 20t60.5 62t21 107v21q0 66 -21 107t-60.5 61t-94.5 20t-95 -20t-61 -61t-21 -107v-21
q0 -65 21 -107t61 -62t95 -20zM434 -179q-25 0 -49.5 8.5t-40.5 28.5t-16 53q0 34 15.5 58t38.5 43h61v-5q-14 -11 -28 -30t-14 -44q0 -22 14 -38.5t45 -16.5h51v-43q-17 -7 -39 -10.5t-38 -3.5z" />
    <glyph glyph-name="Aringacute" unicode="&#x1fa;" horiz-adv-x="784" 
d="M19 0l310 686h126l310 -686h-111l-74 166h-382l-73 -166h-106zM236 252h305l-92 209q-5 10 -12.5 28t-15.5 38t-15.5 39t-12.5 32h-7q-9 -21 -20 -47.5t-21 -51t-16 -38.5zM392 719q-45 0 -73.5 28t-28.5 71t28.5 71t73.5 28t73.5 -28t28.5 -71t-28.5 -71t-73.5 -28z
M392 767q23 0 38 14.5t15 36.5t-15 36.5t-38 14.5t-37.5 -14.5t-14.5 -36.5t14.5 -36.5t37.5 -14.5zM334 953l101 132h113l1 -4l-131 -128h-84z" />
    <glyph glyph-name="aringacute" unicode="&#x1fb;" horiz-adv-x="627" 
d="M236 -12q-37 0 -71 7.5t-61.5 24t-43 45t-15.5 71.5q0 59 31 94.5t86.5 53t130 23t161.5 5.5v45q0 37 -13.5 60.5t-45.5 34.5t-90 11q-50 0 -82 -10.5t-47 -28t-15 -38.5v-17h-91q-1 5 -1 9.5v11.5q0 47 29 80.5t84 50.5t132 17t128.5 -18t78 -55t26.5 -96v-268
q0 -20 8 -28.5t24 -8.5h45v-61q-15 -5 -34.5 -9.5t-41.5 -4.5q-32 0 -50.5 11t-27 31t-11.5 44h-7q-23 -27 -57 -47t-74.5 -30t-84.5 -10zM256 64q36 0 71 10t63.5 28t46 43.5t17.5 56.5v43q-102 0 -172 -8.5t-105.5 -31t-35.5 -65.5q0 -28 15.5 -44.5t42 -24t57.5 -7.5z
M310 572q-43 0 -72 29t-29 71q0 43 29 72t72 29t72 -29t29 -72q0 -42 -29 -71t-72 -29zM310 618q23 0 38.5 16t15.5 38q0 23 -15.5 39t-38.5 16q-22 0 -38 -16t-16 -39q0 -22 16 -38t38 -16zM237 808l101 133h112v-4l-131 -129h-82z" />
    <glyph glyph-name="AEacute" unicode="&#x1fc;" horiz-adv-x="1149" 
d="M1 0l403 686h671v-87h-519l61 -204h408v-87h-382l66 -221h373v-87h-452l-49 167h-376l-97 -167h-107zM255 254h300l-68 237q-3 10 -7 24t-8.5 29t-8 28t-6.5 21h-7q-7 -12 -15 -26t-16.5 -28t-16 -26.5t-12.5 -22.5zM519 738l102 132h113l1 -3l-132 -129h-84z" />
    <glyph glyph-name="aeacute" unicode="&#x1fd;" horiz-adv-x="1036" 
d="M252 -12q-39 0 -76.5 7t-66.5 23.5t-46.5 44.5t-17.5 70q0 60 31 95.5t87.5 53t132 23t163.5 5.5v47q0 37 -13.5 60.5t-46.5 34.5t-92 11q-51 0 -83.5 -10.5t-47.5 -27.5t-15 -39v-17h-91q-1 5 -1 9.5v11.5q0 47 29 80.5t84.5 50.5t133.5 17t130 -19.5t77 -62.5
q34 41 85.5 61.5t119.5 20.5q87 0 144.5 -29.5t86.5 -85t29 -135.5v-46h-434q1 -64 22.5 -103.5t61 -57.5t93.5 -18q36 0 65 9.5t50 25t32.5 36.5t13.5 45h92q-1 -39 -17 -73.5t-48 -61t-80 -41.5t-112 -15q-79 0 -135.5 25.5t-88.5 77.5q-29 -36 -69 -58.5t-86 -33.5
t-96 -11zM260 64q37 0 72 9.5t64 27.5t46 44t17 57v41q-103 0 -174.5 -8t-107.5 -30t-36 -65q0 -28 16 -45t43.5 -24t59.5 -7zM554 311h336q0 43 -13 72t-35.5 46.5t-52.5 25.5t-63 8q-50 0 -87.5 -16t-58.5 -49.5t-26 -86.5zM447 591l102 132h111v-3l-131 -129h-82z" />
    <glyph glyph-name="Oslashacute" unicode="&#x1fe;" horiz-adv-x="906" 
d="M453 -12q-121 0 -208 40t-133.5 119t-46.5 196q0 118 46.5 196.5t133.5 118.5t208 40t208 -40t133.5 -118.5t46.5 -196.5q0 -117 -46.5 -196t-133.5 -119t-208 -40zM453 75q63 0 114.5 15t89.5 46.5t58.5 80t20.5 115.5v22q0 67 -20.5 116t-58.5 80t-89.5 46t-114.5 15
t-114.5 -15t-89.5 -46t-58.5 -80t-20.5 -116v-22q0 -67 20.5 -115.5t58.5 -80t89.5 -46.5t114.5 -15zM75 -47l669 781h86l-669 -781h-86zM394 738l101 132h114v-3l-131 -129h-84z" />
    <glyph glyph-name="oslashacute" unicode="&#x1ff;" horiz-adv-x="644" 
d="M322 -12q-89 0 -150 30.5t-92.5 91.5t-31.5 153q0 93 31.5 154t92.5 91t150 30t149.5 -30t92 -91t31.5 -154q0 -92 -31.5 -153t-92 -91.5t-149.5 -30.5zM322 64q55 0 94.5 20t60.5 62t21 107v21q0 66 -21 107t-60.5 61t-94.5 20t-95 -20t-61 -61t-21 -107v-21
q0 -65 21 -107t61 -62t95 -20zM42 -47l488 621h71l-485 -621h-74zM248 591l102 132h111l1 -3l-132 -129h-82z" />
    <glyph glyph-name="uni0200" unicode="&#x200;" horiz-adv-x="784" 
d="M19 0l310 686h126l310 -686h-111l-74 166h-382l-73 -166h-106zM236 252h305l-92 209q-5 10 -12.5 28t-15.5 38t-15.5 39t-12.5 32h-8q-8 -21 -19 -47.5t-21 -50.5t-16 -39zM456 738l-96 128l1 4h106l66 -132h-77zM271 738l-96 128l1 4h107l66 -132h-78z" />
    <glyph glyph-name="uni0201" unicode="&#x201;" horiz-adv-x="627" 
d="M236 -12q-37 0 -71 7.5t-61.5 24t-43 45t-15.5 71.5q0 59 31 94.5t86.5 53t130 23t161.5 5.5v45q0 37 -13.5 60.5t-45.5 34.5t-90 11q-50 0 -82 -10.5t-47 -28t-15 -38.5v-17h-91q-1 5 -1 9.5v11.5q0 47 29 80.5t84 50.5t132 17t128.5 -18t78 -55t26.5 -96v-268
q0 -20 8 -28.5t24 -8.5h45v-61q-15 -5 -34.5 -9.5t-41.5 -4.5q-32 0 -50.5 11t-27 31t-11.5 44h-7q-23 -27 -57 -47t-74.5 -30t-84.5 -10zM256 64q36 0 71 10t63.5 28t46 43.5t17.5 56.5v43q-102 0 -172 -8.5t-105.5 -31t-35.5 -65.5q0 -28 15.5 -44.5t42 -24t57.5 -7.5z
M368 591l-94 128v5h104l66 -133h-76zM189 591l-95 128l1 5h105l65 -133h-76z" />
    <glyph glyph-name="uni0202" unicode="&#x202;" horiz-adv-x="784" 
d="M19 0l310 686h126l310 -686h-111l-74 166h-382l-73 -166h-106zM236 252h305l-92 209q-5 10 -12.5 28t-15.5 38t-15.5 39t-12.5 32h-8q-8 -21 -19 -47.5t-21 -50.5t-16 -39zM228 752q0 28 15.5 55t51.5 45t98 18t98 -18t51 -45t15 -55h-63q-2 11 -12 24t-31 22t-58 9
t-58.5 -9t-31.5 -21.5t-12 -24.5h-63z" />
    <glyph glyph-name="uni0203" unicode="&#x203;" horiz-adv-x="627" 
d="M236 -12q-37 0 -71 7.5t-61.5 24t-43 45t-15.5 71.5q0 59 31 94.5t86.5 53t130 23t161.5 5.5v45q0 37 -13.5 60.5t-45.5 34.5t-90 11q-50 0 -82 -10.5t-47 -28t-15 -38.5v-17h-91q-1 5 -1 9.5v11.5q0 47 29 80.5t84 50.5t132 17t128.5 -18t78 -55t26.5 -96v-268
q0 -20 8 -28.5t24 -8.5h45v-61q-15 -5 -34.5 -9.5t-41.5 -4.5q-32 0 -50.5 11t-27 31t-11.5 44h-7q-23 -27 -57 -47t-74.5 -30t-84.5 -10zM256 64q36 0 71 10t63.5 28t46 43.5t17.5 56.5v43q-102 0 -172 -8.5t-105.5 -31t-35.5 -65.5q0 -28 15.5 -44.5t42 -24t57.5 -7.5z
M309 722q63 0 99 -18t51.5 -45t15.5 -54h-64q-1 11 -11 23.5t-31 22t-59 9.5q-36 0 -57.5 -9t-31.5 -22t-13 -24h-62q0 27 15 54t51 45t97 18z" />
    <glyph glyph-name="uni0204" unicode="&#x204;" horiz-adv-x="773" 
d="M97 0v686h602v-87h-500v-204h450v-87h-450v-221h507v-87h-609zM467 739l-96 127l1 5h106l66 -132h-77zM282 739l-96 127l1 5h107l65 -132h-77z" />
    <glyph glyph-name="uni0205" unicode="&#x205;" horiz-adv-x="631" 
d="M321 -12q-87 0 -148 29.5t-93 90.5t-32 155q0 93 31.5 154t92.5 91t149 30t146 -30t87 -86.5t29 -136.5v-46h-438q2 -63 23.5 -102t61.5 -56.5t94 -17.5q37 0 66 9.5t50 25t33.5 36.5t13.5 45h92q-1 -39 -17 -73.5t-48 -61t-80.5 -41.5t-112.5 -15zM146 308h339
q0 43 -13 72.5t-36 48t-52.5 26.5t-64.5 8q-50 0 -87.5 -16.5t-59.5 -51t-26 -87.5zM377 591l-95 128v5h105l66 -133h-76zM198 591l-95 128v5h105l66 -133h-76z" />
    <glyph glyph-name="uni0206" unicode="&#x206;" horiz-adv-x="773" 
d="M97 0v686h602v-87h-500v-204h450v-87h-450v-221h507v-87h-609zM239 753q0 27 15 54t51.5 45t98.5 18t97.5 -18t51 -45t15.5 -54h-64q-2 11 -11.5 23.5t-30.5 22t-59 9.5q-36 0 -58 -9t-32 -22t-12 -24h-62z" />
    <glyph glyph-name="uni0207" unicode="&#x207;" horiz-adv-x="631" 
d="M321 -12q-87 0 -148 29.5t-93 90.5t-32 155q0 93 31.5 154t92.5 91t149 30t146 -30t87 -86.5t29 -136.5v-46h-438q2 -63 23.5 -102t61.5 -56.5t94 -17.5q37 0 66 9.5t50 25t33.5 36.5t13.5 45h92q-1 -39 -17 -73.5t-48 -61t-80.5 -41.5t-112.5 -15zM146 308h339
q0 43 -13 72.5t-36 48t-52.5 26.5t-64.5 8q-50 0 -87.5 -16.5t-59.5 -51t-26 -87.5zM318 722q62 0 98 -18t51.5 -45t15.5 -54h-63q-2 11 -11.5 23.5t-31 22t-59.5 9.5q-36 0 -57 -9t-31 -22t-13 -24h-63q0 27 15 54t51 45t98 18z" />
    <glyph glyph-name="uni0208" unicode="&#x208;" horiz-adv-x="296" 
d="M97 0v686h102v-686h-102zM212 738l-96 128l1 4h106l66 -132h-77zM27 738l-96 128l1 4h107l65 -132h-77z" />
    <glyph glyph-name="uni0209" unicode="&#x209;" horiz-adv-x="238" 
d="M73 0v526h93v-526h-93zM177 591l-94 128v5h104l66 -133h-76zM-2 591l-95 128l1 5h105l65 -133h-76z" />
    <glyph glyph-name="uni020A" unicode="&#x20a;" horiz-adv-x="296" 
d="M97 0v686h102v-686h-102zM-16 752q0 28 15 55t51.5 45t98.5 18t97.5 -18t51 -45t15.5 -55h-63q-3 11 -12.5 24t-30.5 22t-59 9q-36 0 -58 -9t-31.5 -21.5t-12.5 -24.5h-62z" />
    <glyph glyph-name="uni020B" unicode="&#x20b;" horiz-adv-x="238" 
d="M73 0v526h93v-526h-93zM118 722q63 0 99 -18t51.5 -45t15.5 -54h-64q-1 11 -11 23.5t-31 22t-59 9.5q-37 0 -58 -9t-31 -22t-13 -24h-62q0 27 15 54t51 45t97 18z" />
    <glyph glyph-name="uni020C" unicode="&#x20c;" horiz-adv-x="906" 
d="M453 -12q-121 0 -208 40t-133.5 119t-46.5 196q0 118 46.5 196.5t133.5 118.5t208 40t208 -40t133.5 -118.5t46.5 -196.5q0 -117 -46.5 -196t-133.5 -119t-208 -40zM453 75q63 0 114.5 15t89.5 46.5t58.5 80t20.5 115.5v22q0 67 -20.5 116t-58.5 80t-89.5 46t-114.5 15
t-114.5 -15t-89.5 -46t-58.5 -80t-20.5 -116v-22q0 -67 20.5 -115.5t58.5 -80t89.5 -46.5t114.5 -15zM517 738l-96 128v4h107l66 -132h-77zM331 738l-95 128v4h107l66 -132h-78z" />
    <glyph glyph-name="uni020D" unicode="&#x20d;" horiz-adv-x="644" 
d="M322 -12q-89 0 -150 30.5t-92.5 91.5t-31.5 153q0 93 31.5 154t92.5 91t150 30t149.5 -30t92 -91t31.5 -154q0 -92 -31.5 -153t-92 -91.5t-149.5 -30.5zM322 64q55 0 94.5 20t60.5 62t21 107v21q0 66 -21 107t-60.5 61t-94.5 20t-95 -20t-61 -61t-21 -107v-21
q0 -65 21 -107t61 -62t95 -20zM380 591l-95 128l1 5h104l66 -133h-76zM201 591l-95 128v5h105l66 -133h-76z" />
    <glyph glyph-name="uni020E" unicode="&#x20e;" horiz-adv-x="906" 
d="M453 -12q-121 0 -208 40t-133.5 119t-46.5 196q0 118 46.5 196.5t133.5 118.5t208 40t208 -40t133.5 -118.5t46.5 -196.5q0 -117 -46.5 -196t-133.5 -119t-208 -40zM453 75q63 0 114.5 15t89.5 46.5t58.5 80t20.5 115.5v22q0 67 -20.5 116t-58.5 80t-89.5 46t-114.5 15
t-114.5 -15t-89.5 -46t-58.5 -80t-20.5 -116v-22q0 -67 20.5 -115.5t58.5 -80t89.5 -46.5t114.5 -15zM288 752q0 28 15.5 55t52 45t97.5 18q63 0 98.5 -18t50.5 -45t15 -55h-63q-2 11 -11.5 24t-30.5 22t-59 9q-36 0 -58 -9t-32 -21.5t-12 -24.5h-63z" />
    <glyph glyph-name="uni020F" unicode="&#x20f;" horiz-adv-x="644" 
d="M322 -12q-89 0 -150 30.5t-92.5 91.5t-31.5 153q0 93 31.5 154t92.5 91t150 30t149.5 -30t92 -91t31.5 -154q0 -92 -31.5 -153t-92 -91.5t-149.5 -30.5zM322 64q55 0 94.5 20t60.5 62t21 107v21q0 66 -21 107t-60.5 61t-94.5 20t-95 -20t-61 -61t-21 -107v-21
q0 -65 21 -107t61 -62t95 -20zM321 722q62 0 98 -18t51.5 -45t15.5 -54h-63q-1 11 -11 23.5t-31.5 22t-59.5 9.5q-36 0 -57 -9t-31 -22t-13 -24h-63q0 27 15 54t51 45t98 18z" />
    <glyph glyph-name="uni0210" unicode="&#x210;" horiz-adv-x="815" 
d="M97 0v686h438q70 0 116 -26.5t69 -72.5t23 -104q0 -68 -32.5 -119.5t-93.5 -74.5l147 -289h-113l-135 271h-317v-271h-102zM199 357h319q58 0 90 34t32 91q0 37 -14 63t-41.5 40t-66.5 14h-319v-242zM472 738l-96 128v4h107l66 -132h-77zM286 738l-95 128v4h107l66 -132
h-78z" />
    <glyph glyph-name="uni0211" unicode="&#x211;" horiz-adv-x="367" 
d="M73 0v526h75l7 -92h7q8 24 24 48t44 40t68 16q15 0 30 -2t24 -6v-83h-43q-40 0 -67 -14t-44 -38.5t-24.5 -54.5t-7.5 -61v-279h-93zM253 591l-95 128v5h105l65 -133h-75zM73 591l-95 128l1 5h105l65 -133h-76z" />
    <glyph glyph-name="uni0212" unicode="&#x212;" horiz-adv-x="815" 
d="M97 0v686h438q70 0 116 -26.5t69 -72.5t23 -104q0 -68 -32.5 -119.5t-93.5 -74.5l147 -289h-113l-135 271h-317v-271h-102zM199 357h319q58 0 90 34t32 91q0 37 -14 63t-41.5 40t-66.5 14h-319v-242zM243 752q0 28 15.5 55t52 45t97.5 18q62 0 98 -18t51 -45t15 -55h-63
q-2 11 -11.5 24t-30.5 22t-59 9q-36 0 -58 -9t-32 -21.5t-12 -24.5h-63z" />
    <glyph glyph-name="uni0213" unicode="&#x213;" horiz-adv-x="367" 
d="M73 0v526h75l7 -92h7q8 24 24 48t44 40t68 16q15 0 30 -2t24 -6v-83h-43q-40 0 -67 -14t-44 -38.5t-24.5 -54.5t-7.5 -61v-279h-93zM193 722q63 0 99 -18t51.5 -45t15.5 -54h-63q-2 11 -12 23.5t-31 22t-59 9.5q-36 0 -57.5 -9t-31.5 -22t-13 -24h-62q0 27 15 54t51 45
t97 18z" />
    <glyph glyph-name="uni0214" unicode="&#x214;" horiz-adv-x="828" 
d="M413 -12q-106 0 -177.5 33t-107.5 99t-36 162v404h102v-409q0 -99 57 -150.5t162 -51.5t163 51.5t58 150.5v409h102v-404q0 -96 -36.5 -162t-108.5 -99t-178 -33zM478 738l-96 128v4h107l66 -132h-77zM292 738l-95 128v4h107l66 -132h-78z" />
    <glyph glyph-name="uni0215" unicode="&#x215;" horiz-adv-x="623" 
d="M259 -12q-90 0 -141 43.5t-51 145.5v349h93v-334q0 -38 9.5 -62t27 -37.5t41.5 -18.5t52 -5q43 0 81 19t62 54.5t24 83.5v300h93v-526h-74l-8 86h-8q-25 -37 -57.5 -58.5t-69 -30.5t-74.5 -9zM370 591l-95 128v5h105l66 -133h-76zM191 591l-95 128v5h105l66 -133h-76z
" />
    <glyph glyph-name="uni0216" unicode="&#x216;" horiz-adv-x="828" 
d="M413 -12q-106 0 -177.5 33t-107.5 99t-36 162v404h102v-409q0 -99 57 -150.5t162 -51.5t163 51.5t58 150.5v409h102v-404q0 -96 -36.5 -162t-108.5 -99t-178 -33zM249 752q0 28 15.5 55t52 45t97.5 18q63 0 98.5 -18t50.5 -45t15 -55h-63q-2 11 -11.5 24t-30.5 22t-59 9
q-36 0 -58 -9t-32 -21.5t-12 -24.5h-63z" />
    <glyph glyph-name="uni0217" unicode="&#x217;" horiz-adv-x="623" 
d="M259 -12q-90 0 -141 43.5t-51 145.5v349h93v-334q0 -38 9.5 -62t27 -37.5t41.5 -18.5t52 -5q43 0 81 19t62 54.5t24 83.5v300h93v-526h-74l-8 86h-8q-25 -37 -57.5 -58.5t-69 -30.5t-74.5 -9zM310 722q63 0 99 -18t51.5 -45t15.5 -54h-63q-2 11 -11.5 23.5t-31 22
t-59.5 9.5q-36 0 -57.5 -9t-31.5 -22t-13 -24h-62q0 27 15 54t51 45t97 18z" />
    <glyph glyph-name="uni0218" unicode="&#x218;" horiz-adv-x="760" 
d="M385 -12q-65 0 -124 10t-104 33.5t-71.5 64t-26.5 101.5q0 6 0.5 10.5t0.5 7.5h102q0 -4 -0.5 -10.5t-0.5 -13.5q0 -38 27 -64.5t77.5 -39.5t116.5 -13q30 0 61 3.5t58.5 11t49 20t34 31t12.5 43.5q0 34 -21.5 55.5t-58.5 35t-83.5 23.5t-95.5 20t-95.5 24t-83.5 35
t-58.5 54.5t-21.5 82.5q0 42 18.5 76t56.5 58.5t95.5 37.5t136.5 13q72 0 126.5 -13.5t91.5 -38.5t55.5 -60t18.5 -78v-16h-101v17q0 30 -23 53t-64.5 36.5t-98.5 13.5q-70 0 -116 -11.5t-69 -32.5t-23 -49q0 -31 21.5 -50.5t58.5 -32t83.5 -22t95.5 -19.5t95.5 -24
t83.5 -36t59 -55.5t22 -82.5q0 -76 -40.5 -122t-112 -66.5t-164.5 -20.5zM319 -318v46q30 2 44.5 23t14.5 56h-47v106h104v-90q0 -46 -13.5 -76.5t-39 -46t-63.5 -18.5z" />
    <glyph glyph-name="uni0219" unicode="&#x219;" horiz-adv-x="569" 
d="M283 -12q-56 0 -101.5 10.5t-77.5 30t-49 49t-17 68.5q0 5 0.5 9.5t1.5 8.5h93v-6.5v-6.5q0 -34 21.5 -54t56.5 -28t75 -8q39 0 72.5 8t53.5 25.5t20 45.5q0 34 -22.5 51t-62 26t-89.5 19q-41 8 -77.5 19t-64.5 27.5t-43.5 42.5t-15.5 65q0 36 15.5 63t45 46t73 29
t99.5 10q54 0 95.5 -11t70 -30.5t43 -46t14.5 -57.5q0 -5 -0.5 -9t-0.5 -8h-94v7q0 27 -15.5 45t-44.5 27.5t-71 9.5q-25 0 -49 -3.5t-43.5 -11.5t-31.5 -21t-12 -32q0 -27 21.5 -41.5t56 -23t73.5 -16.5q42 -9 82 -18.5t72.5 -26t51.5 -44.5t19 -74q0 -44 -17.5 -75
t-49 -51t-76.5 -29.5t-101 -9.5zM224 -308v44q29 3 43 23t14 54h-45v102h100v-86q0 -45 -13 -74.5t-38 -44.5t-61 -18z" />
    <glyph glyph-name="uni021A" unicode="&#x21a;" horiz-adv-x="696" 
d="M296 0v597h-273v89h649v-89h-274v-597h-102zM283 -318v46q30 2 45 23t15 56h-48v106h105v-90q0 -47 -13.5 -77t-39.5 -45.5t-64 -18.5z" />
    <glyph glyph-name="uni021B" unicode="&#x21b;" horiz-adv-x="351" 
d="M222 -12q-43 0 -69 14.5t-38 42.5t-12 68v337h-84v76h86l18 149h73v-149h119v-76h-119v-323q0 -31 10 -47t45 -16h64v-60q-12 -5 -28.5 -8.5t-33.5 -5.5t-31 -2zM145 -308v44q28 3 42.5 23t14.5 54h-46v102h101v-86q0 -45 -13 -74.5t-38 -44.5t-61 -18z" />
    <glyph glyph-name="uni022A" unicode="&#x22a;" horiz-adv-x="906" 
d="M453 -12q-120 0 -207.5 40t-134 119t-46.5 196q0 118 46.5 196.5t134 118.5t207.5 40q121 0 208 -40t133.5 -118.5t46.5 -196.5q0 -117 -46.5 -196t-133.5 -119t-208 -40zM453 75q63 0 114.5 15t89.5 46.5t58.5 80t20.5 115.5v22q0 67 -20.5 116t-58.5 80t-89.5 46
t-114.5 15t-114.5 -15t-89.5 -46t-58.5 -80t-20.5 -116v-22q0 -67 20.5 -115.5t58.5 -80t89.5 -46.5t114.5 -15zM296 776v93h96v-93h-96zM513 776v93h96v-93h-96zM282 948v64h341v-64h-341z" />
    <glyph glyph-name="uni022B" unicode="&#x22b;" horiz-adv-x="644" 
d="M322 -12q-89 0 -150 30.5t-92.5 91.5t-31.5 153q0 93 31.5 154t92.5 91t150 30t149.5 -30t92 -91t31.5 -154q0 -92 -31.5 -153t-92 -91.5t-149.5 -30.5zM322 64q55 0 94.5 20t60.5 62t21 107v21q0 66 -21 107t-60.5 61t-94.5 20t-95 -20t-61 -61t-21 -107v-21
q0 -65 21 -107t61 -62t95 -20zM165 627v93h96v-93h-96zM382 627v93h96v-93h-96zM152 811v63h338v-63h-338z" />
    <glyph glyph-name="uni022C" unicode="&#x22c;" horiz-adv-x="906" 
d="M453 -12q-121 0 -208 40t-133.5 119t-46.5 196q0 118 46.5 196.5t133.5 118.5t208 40t208 -40t133.5 -118.5t46.5 -196.5q0 -117 -46.5 -196t-133.5 -119t-208 -40zM453 75q63 0 114.5 15t89.5 46.5t58.5 80t20.5 115.5v22q0 67 -20.5 116t-58.5 80t-89.5 46t-114.5 15
t-114.5 -15t-89.5 -46t-58.5 -80t-20.5 -116v-22q0 -67 20.5 -115.5t58.5 -80t89.5 -46.5t114.5 -15zM269 762q1 26 12 49.5t33.5 38t56.5 14.5q30 0 58 -9t55.5 -18.5t52.5 -9.5q19 0 28 11t12 25h60q-1 -26 -13 -49.5t-34.5 -38t-56.5 -14.5q-28 0 -56.5 9.5t-56 18.5
t-52.5 9q-19 0 -29 -10.5t-12 -25.5h-58zM282 929v64h341v-64h-341z" />
    <glyph glyph-name="uni022D" unicode="&#x22d;" horiz-adv-x="644" 
d="M322 -12q-89 0 -150 30.5t-92.5 91.5t-31.5 153q0 93 31.5 154t92.5 91t150 30t149.5 -30t92 -91t31.5 -154q0 -92 -31.5 -153t-92 -91.5t-149.5 -30.5zM322 64q55 0 94.5 20t60.5 62t21 107v21q0 66 -21 107t-60.5 61t-94.5 20t-95 -20t-61 -61t-21 -107v-21
q0 -65 21 -107t61 -62t95 -20zM137 620q2 26 13 49t33 37.5t56 14.5q30 0 58.5 -8.5t55.5 -18t53 -9.5q19 0 28 11t12 25h59q-1 -26 -13 -49.5t-34.5 -38t-55.5 -14.5q-28 0 -57 9.5t-56 18.5t-52 9q-20 0 -29.5 -11t-12.5 -25h-58zM152 798v63h338v-63h-338z" />
    <glyph glyph-name="uni0230" unicode="&#x230;" horiz-adv-x="906" 
d="M453 -12q-120 0 -207.5 40t-134 119t-46.5 196q0 118 46.5 196.5t134 118.5t207.5 40q121 0 208 -40t133.5 -118.5t46.5 -196.5q0 -117 -46.5 -196t-133.5 -119t-208 -40zM453 75q63 0 114.5 15t89.5 46.5t58.5 80t20.5 115.5v22q0 67 -20.5 116t-58.5 80t-89.5 46
t-114.5 15t-114.5 -15t-89.5 -46t-58.5 -80t-20.5 -116v-22q0 -67 20.5 -115.5t58.5 -80t89.5 -46.5t114.5 -15zM403 776v96h99v-96h-99zM282 948v64h341v-64h-341z" />
    <glyph glyph-name="uni0231" unicode="&#x231;" horiz-adv-x="644" 
d="M322 -12q-89 0 -150 30.5t-92.5 91.5t-31.5 153q0 93 31.5 154t92.5 91t150 30t149.5 -30t92 -91t31.5 -154q0 -92 -31.5 -153t-92 -91.5t-149.5 -30.5zM322 64q55 0 94.5 20t60.5 62t21 107v21q0 66 -21 107t-60.5 61t-94.5 20t-95 -20t-61 -61t-21 -107v-21
q0 -65 21 -107t61 -62t95 -20zM272 624v96h99v-96h-99zM152 810v63h338v-63h-338z" />
    <glyph glyph-name="uni0232" unicode="&#x232;" horiz-adv-x="740" 
d="M319 0v284l-306 402h121l235 -315h8l235 315h115l-306 -402v-284h-102zM201 774v64h340v-64h-340z" />
    <glyph glyph-name="uni0233" unicode="&#x233;" horiz-adv-x="556" 
d="M121 -186q-24 0 -42.5 3t-31.5 7v65h51q37 0 63.5 10.5t45.5 35t35 65.5l-232 526h100l117 -272q9 -18 19.5 -46.5t22 -58t20.5 -51.5h6q4 12 10.5 32t14.5 43t16.5 45t14.5 39l99 269h96l-199 -509q-20 -48 -40 -86t-45 -64t-59 -39.5t-82 -13.5zM113 637v63h339v-63
h-339z" />
    <glyph glyph-name="uni0237" unicode="&#x237;" horiz-adv-x="236" 
d="M40 -187q-13 0 -26.5 1.5t-26.5 4.5t-22 6v64h47q29 0 45 15.5t16 44.5v577h93v-578q0 -35 -11 -66t-38 -50t-77 -19z" />
    <glyph glyph-name="uni0259" unicode="&#x259;" horiz-adv-x="631" 
d="M309 -12q-87 0 -144.5 30t-86.5 87t-29 137v45h435q-1 64 -23 102.5t-61.5 56t-93.5 17.5q-36 0 -65 -9t-50 -25t-33 -37t-13 -45h-92q0 39 16 73.5t48 61t80 41.5t112 15q88 0 148.5 -29.5t92 -90t31.5 -155.5q0 -92 -31.5 -153.5t-92.5 -91.5t-148 -30zM311 64
q51 0 88 16t59 50.5t25 88.5h-337q0 -44 13 -73.5t36 -47.5t52.5 -26t63.5 -8z" />
    <glyph glyph-name="uni0272" unicode="&#x272;" horiz-adv-x="623" 
d="M36 -186q-13 0 -26 1.5t-25 4t-20 4.5v65h47q29 0 45 15.5t16 44.5v577h74l8 -85h8q25 36 57.5 57.5t69 30.5t73.5 9q61 0 104 -19t66 -60t23 -109v-350h-94v335q0 38 -9.5 62t-26.5 37t-41 18.5t-53 5.5q-42 0 -80.5 -19.5t-62 -54.5t-23.5 -84v-345q0 -28 -5 -53.5
t-19 -45.5t-39.5 -31t-66.5 -11z" />
    <glyph glyph-name="uni02B9" unicode="&#x2b9;" horiz-adv-x="176" 
d="M0 526l71 197h104l1 -3l-95 -194h-81z" />
    <glyph glyph-name="uni02BA" unicode="&#x2ba;" horiz-adv-x="331" 
d="M0 526l71 197h104l1 -3l-95 -194h-81zM155 526l71 197h104l1 -3l-95 -194h-81z" />
    <glyph glyph-name="uni02BC" unicode="&#x2bc;" horiz-adv-x="112" 
d="M0 549v42q30 1 43.5 19.5t13.5 47.5h-47v103h102v-82q0 -44 -13 -72.5t-38 -43t-61 -14.5z" />
    <glyph glyph-name="circumflex" unicode="&#x2c6;" horiz-adv-x="333" 
d="M0 589l125 135h82l126 -135h-87l-103 111l45 -1l-102 -110h-86z" />
    <glyph glyph-name="caron" unicode="&#x2c7;" horiz-adv-x="333" 
d="M0 724h86l102 -110l-45 -1l103 111h87l-126 -135h-82z" />
    <glyph glyph-name="uni02C9" unicode="&#x2c9;" horiz-adv-x="483" 
d="M0 609v77h483v-77h-483z" />
    <glyph glyph-name="breve" unicode="&#x2d8;" horiz-adv-x="329" 
d="M164 607q-62 0 -98 17.5t-51 45t-15 54.5h63q3 -11 12.5 -24t31 -22t57.5 -9q38 0 59.5 9t31 22.5t11.5 23.5h63q0 -27 -15.5 -54.5t-51.5 -45t-98 -17.5z" />
    <glyph glyph-name="dotaccent" unicode="&#x2d9;" horiz-adv-x="99" 
d="M0 625v95h99v-95h-99z" />
    <glyph glyph-name="ring" unicode="&#x2da;" horiz-adv-x="202" 
d="M101 572q-43 0 -72 28.5t-29 71.5t29 72t72 29t72 -29t29 -72q0 -42 -29 -71t-72 -29zM101 618q23 0 38.5 15.5t15.5 38.5t-15.5 39t-38.5 16q-22 0 -37.5 -16t-15.5 -39q0 -22 15.5 -38t37.5 -16z" />
    <glyph glyph-name="ogonek" unicode="&#x2db;" horiz-adv-x="183" 
d="M106 -179q-26 0 -50 8.5t-40 28.5t-16 53q0 34 15.5 58t38.5 43h61v-5q-14 -11 -28 -30t-14 -44q0 -22 13.5 -38.5t45.5 -16.5h51v-43q-17 -7 -39 -10.5t-38 -3.5z" />
    <glyph glyph-name="tilde" unicode="&#x2dc;" horiz-adv-x="368" 
d="M0 620q2 26 13 49t33 37.5t56 14.5q30 0 58.5 -8.5t55.5 -18t53 -9.5q18 0 27 11t12 25h60q-1 -26 -13 -49.5t-34.5 -38t-56.5 -14.5q-27 0 -56 9.5t-56 18.5t-52 9q-20 0 -29.5 -11t-12.5 -25h-58z" />
    <glyph glyph-name="hungarumlaut" unicode="&#x2dd;" horiz-adv-x="358" 
d="M0 591l66 133h106l1 -5l-96 -128h-77zM185 591l65 133h107l1 -5l-96 -128h-77z" />
    <glyph glyph-name="gravecomb" unicode="&#x300;" 
d="M213 591h-82l-131 129l1 3h111z" />
    <glyph glyph-name="acutecomb" unicode="&#x301;" 
d="M0 591l101 132h112v-3l-131 -129h-82z" />
    <glyph glyph-name="uni0302" unicode="&#x302;" 
d="M0 589l125 135h82l126 -135h-87l-103 111l45 -1l-102 -110h-86z" />
    <glyph glyph-name="tildecomb" unicode="&#x303;" 
d="M0 620q2 26 13 49t33 37.5t56 14.5q30 0 58.5 -8.5t55.5 -18t53 -9.5q18 0 27 11t12 25h60q-1 -26 -13 -49.5t-34.5 -38t-56.5 -14.5q-27 0 -56 9.5t-56 18.5t-52 9q-20 0 -29.5 -11t-12.5 -25h-58z" />
    <glyph glyph-name="uni0304" unicode="&#x304;" 
d="M0 637v63h338v-63h-338z" />
    <glyph glyph-name="uni0306" unicode="&#x306;" 
d="M164 607q-62 0 -98 17.5t-51 45t-15 54.5h63q3 -11 12.5 -24t31 -22t57.5 -9q38 0 59.5 9t31 22.5t11.5 23.5h63q0 -27 -15.5 -54.5t-51.5 -45t-98 -17.5z" />
    <glyph glyph-name="uni0307" unicode="&#x307;" 
d="M0 625v95h99v-95h-99z" />
    <glyph glyph-name="uni0308" unicode="&#x308;" 
d="M0 627v93h96v-93h-96zM217 627v93h96v-93h-96z" />
    <glyph glyph-name="hookabovecomb" unicode="&#x309;" 
d="M61 591v62h10q28 0 37 3.5t9 12.5q0 13 -10 15.5t-30 2.5h-77v41q12 3 28.5 4.5t33 2.5t27.5 1q19 0 37.5 -2.5t34 -9t25 -18.5t9.5 -30t-10 -30.5t-27 -19t-39 -8.5v-27h-58z" />
    <glyph glyph-name="uni030A" unicode="&#x30a;" 
d="M101 572q-43 0 -72 28.5t-29 71.5t29 72t72 29t72 -29t29 -72q0 -42 -29 -71t-72 -29zM101 618q23 0 38.5 15.5t15.5 38.5t-15.5 39t-38.5 16q-22 0 -37.5 -16t-15.5 -39q0 -22 15.5 -38t37.5 -16z" />
    <glyph glyph-name="uni030B" unicode="&#x30b;" 
d="M0 591l66 133h106l1 -5l-96 -128h-77zM185 591l65 133h107l1 -5l-96 -128h-77z" />
    <glyph glyph-name="uni030C" unicode="&#x30c;" 
d="M0 724h86l102 -110l-45 -1l103 111h87l-126 -135h-82z" />
    <glyph glyph-name="uni030F" unicode="&#x30f;" 
d="M274 591l-95 128l1 5h104l66 -133h-76zM95 591l-95 128l1 5h104l66 -133h-76z" />
    <glyph glyph-name="uni0311" unicode="&#x311;" 
d="M164 722q62 0 98 -18t51.5 -45t15.5 -54h-63q-2 11 -11.5 23.5t-31 22t-59.5 9.5q-36 0 -57.5 -9t-31 -22t-12.5 -24h-63q0 27 15 54t51 45t98 18z" />
    <glyph glyph-name="uni0312" unicode="&#x312;" 
d="M116 861v-45q-29 -3 -44 -24t-15 -55h48v-107h-105v90q0 47 13.5 77t39.5 46t63 18z" />
    <glyph glyph-name="uni0313" unicode="&#x313;" 
d="M0 528v45q30 3 44.5 24t14.5 55h-47v107h104v-90q0 -47 -13 -77t-39 -45.5t-64 -18.5z" />
    <glyph glyph-name="uni031B" unicode="&#x31b;" 
d="M0 439v52q60 4 96 27.5t42 63.5h-56v104h121v-65q0 -53 -23 -92.5t-68.5 -62.5t-111.5 -27z" />
    <glyph glyph-name="dotbelowcomb" unicode="&#x323;" 
d="M0 -184v95h99v-95h-99z" />
    <glyph glyph-name="uni0324" unicode="&#x324;" 
d="M0 -182v93h96v-93h-96zM217 -182v93h96v-93h-96z" />
    <glyph glyph-name="uni0326" unicode="&#x326;" 
d="M0 -318v46q30 2 44.5 23t14.5 56h-47v106h104v-90q0 -46 -13 -76.5t-39 -46t-64 -18.5z" />
    <glyph glyph-name="uni0327" unicode="&#x327;" 
d="M104 -180q-26 0 -53.5 2t-50.5 7v39h115q19 0 30 7t11 21q0 13 -9 19t-32 6h-62l20 95h61l-9 -54q29 0 52.5 -6t37 -20.5t13.5 -39.5q0 -23 -10.5 -38t-28.5 -23t-40 -11.5t-45 -3.5z" />
    <glyph glyph-name="uni0328" unicode="&#x328;" 
d="M106 -179q-26 0 -50 8.5t-40 28.5t-16 53q0 34 15.5 58t38.5 43h61v-5q-14 -11 -28 -30t-14 -44q0 -22 13.5 -38.5t45.5 -16.5h51v-43q-17 -7 -39 -10.5t-38 -3.5z" />
    <glyph glyph-name="uni032E" unicode="&#x32e;" 
d="M164 -203q-62 0 -98 18t-51 45t-15 54h63q3 -11 12.5 -24t31 -22t57.5 -9q38 0 59.5 9.5t31 22.5t11.5 23h63q0 -27 -15.5 -54t-51.5 -45t-98 -18z" />
    <glyph glyph-name="uni0331" unicode="&#x331;" 
d="M0 -146v63h338v-63h-338z" />
    <glyph glyph-name="uni0335" unicode="&#x335;" 
d="M0 337v67h371v-67h-371z" />
    <glyph glyph-name="uni0336" unicode="&#x336;" 
d="M0 332v76h820v-76h-820z" />
    <glyph glyph-name="uni0337" unicode="&#x337;" 
d="M0 227v73l244 190v-74z" />
    <glyph glyph-name="uni0338" unicode="&#x338;" 
d="M0 -48l488 620h71l-485 -620h-74z" />
    <glyph glyph-name="uni0394" unicode="&#x394;" horiz-adv-x="752" 
d="M13 0l301 686h122l301 -686h-724zM146 85h452q-9 17 -23 47.5t-24 53.5l-140 319q-5 13 -12 31.5t-13.5 35.5t-10.5 26h-6q-3 -8 -7.5 -20.5t-10 -26.5t-10 -26t-7.5 -19l-140 -320q-6 -15 -15 -34t-17.5 -37t-15.5 -30z" />
    <glyph glyph-name="uni03A9" unicode="&#x3a9;" horiz-adv-x="869" 
d="M62 0v87h40q12 0 30 -1.5t38.5 -3t41.5 -3.5q-67 42 -104.5 111t-37.5 165q0 112 44 188.5t125.5 115.5t194.5 39t194.5 -39t125.5 -115.5t44 -188.5q0 -96 -37.5 -165t-104.5 -111q21 2 42 3.5t39 3t29 1.5h40v-87h-335v74q67 8 117 36.5t77 82.5t27 136v22
q0 92 -32 149.5t-90.5 84t-135.5 26.5t-135.5 -26.5t-91 -84t-32.5 -149.5v-22q0 -82 27.5 -136t77.5 -82.5t117 -36.5v-74h-335z" />
    <glyph glyph-name="uni03BC" unicode="&#x3bc;" horiz-adv-x="628" 
d="M73 -180v706h93v-334q0 -38 9.5 -62t26.5 -37.5t41 -18.5t52 -5q43 0 81 19t62 54.5t24 83.5v300h93v-526h-74l-8 86h-8q-23 -37 -54 -58.5t-65 -30.5t-69 -9t-65 8.5t-50 26.5q2 -14 3 -34t1 -38v-131h-93z" />
    <glyph glyph-name="pi" unicode="&#x3c0;" horiz-adv-x="754" 
d="M104 0q17 40 32.5 97t27 120t18.5 123.5t8 108.5q-53 0 -87.5 -3t-55.5 -10l-17 59q23 15 70.5 23t125.5 8h495l-12 -77h-105v-292q0 -60 5 -97t13 -60h-90q-9 13 -15 51t-6 97v301h-227q-3 -55 -11 -119.5t-19.5 -127.5t-26 -116t-30.5 -86h-93z" />
    <glyph glyph-name="uni1E24" unicode="&#x1e24;" horiz-adv-x="840" 
d="M97 0v686h102v-291h443v291h102v-686h-102v306h-443v-306h-102zM371 -184v95h99v-95h-99z" />
    <glyph glyph-name="uni1E25" unicode="&#x1e25;" horiz-adv-x="623" 
d="M73 0v723h93v-270h6q25 32 55.5 50.5t65 26.5t70.5 8q61 0 104 -19t66 -60t23 -109v-350h-94v335q0 38 -9.5 62t-26.5 37t-41 18.5t-53 5.5q-42 0 -80.5 -19t-62 -54t-23.5 -85v-300h-93zM264 -184v95h98v-95h-98z" />
    <glyph glyph-name="uni1E62" unicode="&#x1e62;" horiz-adv-x="760" 
d="M385 -12q-65 0 -124 10t-104 33.5t-71.5 64t-26.5 101.5q0 6 0.5 10.5t0.5 7.5h102q0 -4 -0.5 -10.5t-0.5 -13.5q0 -38 27 -64.5t77.5 -39.5t116.5 -13q30 0 61 3.5t58.5 11t49 20t34 31t12.5 43.5q0 34 -21.5 55.5t-58.5 35t-83.5 23.5t-95.5 20t-95.5 24t-83.5 35
t-58.5 54.5t-21.5 82.5q0 42 18.5 76t56.5 58.5t95.5 37.5t136.5 13q72 0 126.5 -13.5t91.5 -38.5t55.5 -60t18.5 -78v-16h-101v17q0 30 -23 53t-64.5 36.5t-98.5 13.5q-70 0 -116 -11.5t-69 -32.5t-23 -49q0 -31 21.5 -50.5t58.5 -32t83.5 -22t95.5 -19.5t95.5 -24
t83.5 -36t59 -55.5t22 -82.5q0 -76 -40.5 -122t-112 -66.5t-164.5 -20.5zM334 -184v95h99v-95h-99z" />
    <glyph glyph-name="uni1E63" unicode="&#x1e63;" horiz-adv-x="569" 
d="M283 -12q-56 0 -101.5 10.5t-77.5 30t-49 49t-17 68.5q0 5 0.5 9.5t1.5 8.5h93v-6.5v-6.5q0 -34 21.5 -54t56.5 -28t75 -8q39 0 72.5 8t53.5 25.5t20 45.5q0 34 -22.5 51t-62 26t-89.5 19q-41 8 -77.5 19t-64.5 27.5t-43.5 42.5t-15.5 65q0 36 15.5 63t45 46t73 29
t99.5 10q54 0 95.5 -11t70 -30.5t43 -46t14.5 -57.5q0 -5 -0.5 -9t-0.5 -8h-94v7q0 27 -15.5 45t-44.5 27.5t-71 9.5q-25 0 -49 -3.5t-43.5 -11.5t-31.5 -21t-12 -32q0 -27 21.5 -41.5t56 -23t73.5 -16.5q42 -9 82 -18.5t72.5 -26t51.5 -44.5t19 -74q0 -44 -17.5 -75
t-49 -51t-76.5 -29.5t-101 -9.5zM236 -184v95h99v-95h-99z" />
    <glyph glyph-name="uni1E6C" unicode="&#x1e6c;" horiz-adv-x="696" 
d="M296 0v597h-273v89h649v-89h-274v-597h-102zM298 -184v95h99v-95h-99z" />
    <glyph glyph-name="uni1E6D" unicode="&#x1e6d;" horiz-adv-x="351" 
d="M222 -12q-43 0 -69 14.5t-38 42.5t-12 68v337h-84v76h86l18 149h73v-149h119v-76h-119v-323q0 -31 10 -47t45 -16h64v-60q-12 -5 -28.5 -8.5t-33.5 -5.5t-31 -2zM157 -184v95h99v-95h-99z" />
    <glyph glyph-name="Wgrave" unicode="&#x1e80;" horiz-adv-x="1039" 
d="M229 0l-215 686h109l141 -466q4 -12 9 -32t10.5 -41.5t9.5 -38.5h8q2 13 5.5 28.5t7.5 31t7.5 29t5.5 23.5l128 466h138l128 -466q4 -12 9 -32t10 -41.5t8 -38.5h8q3 13 7 28t8.5 30.5t8 29.5t6.5 24l141 466h98l-215 -686h-127l-134 470q-3 14 -8 34t-9.5 41t-8.5 37h-6
q-3 -16 -8 -37.5t-10 -41.5t-8 -33l-131 -470h-131zM580 738h-84l-131 129v3h114z" />
    <glyph glyph-name="wgrave" unicode="&#x1e81;" horiz-adv-x="803" 
d="M188 0l-179 526h98l90 -286q9 -25 15.5 -49.5t11.5 -43.5t8 -29h6l9.5 38t12 44.5t11.5 40.5l83 285h101l84 -285q6 -19 12 -42t12 -44.5t9 -36.5h6q5 16 11 38t12.5 44.5t11.5 39.5l89 286h92l-179 -526h-91l-83 277q-6 20 -13 44.5t-13 48t-10 39.5h-6l-10 -37.5
t-12.5 -47t-13.5 -47.5l-83 -277h-92zM479 591h-82l-132 129l1 3h111z" />
    <glyph glyph-name="Wacute" unicode="&#x1e82;" horiz-adv-x="1039" 
d="M229 0l-215 686h109l141 -466q4 -12 9 -32t10.5 -41.5t9.5 -38.5h8q2 13 5.5 28.5t7.5 31t7.5 29t5.5 23.5l128 466h138l128 -466q4 -12 9 -32t10 -41.5t8 -38.5h8q3 13 7 28t8.5 30.5t8 29.5t6.5 24l141 466h98l-215 -686h-127l-134 470q-3 14 -8 34t-9.5 41t-8.5 37h-6
q-3 -16 -8 -37.5t-10 -41.5t-8 -33l-131 -470h-131zM462 738l101 132h114v-3l-131 -129h-84z" />
    <glyph glyph-name="wacute" unicode="&#x1e83;" horiz-adv-x="803" 
d="M188 0l-179 526h98l90 -286q9 -25 15.5 -49.5t11.5 -43.5t8 -29h6l9.5 38t12 44.5t11.5 40.5l83 285h101l84 -285q6 -19 12 -42t12 -44.5t9 -36.5h6q5 16 11 38t12.5 44.5t11.5 39.5l89 286h92l-179 -526h-91l-83 277q-6 20 -13 44.5t-13 48t-10 39.5h-6l-10 -37.5
t-12.5 -47t-13.5 -47.5l-83 -277h-92zM331 591l101 132h112v-3l-131 -129h-82z" />
    <glyph glyph-name="Wdieresis" unicode="&#x1e84;" horiz-adv-x="1039" 
d="M229 0l-215 686h109l141 -466q4 -12 9 -32t10.5 -41.5t9.5 -38.5h8q2 13 5.5 28.5t7.5 31t7.5 29t5.5 23.5l128 466h138l128 -466q4 -12 9 -32t10 -41.5t9 -38.5h7q3 13 7 28t8.5 30.5t8 29.5t6.5 24l141 466h98l-215 -686h-127l-134 470q-3 14 -8 34t-9.5 41t-8.5 37h-6
q-3 -16 -8 -37.5t-9.5 -41.5t-8.5 -33l-131 -470h-131zM364 776v93h96v-93h-96zM581 776v93h96v-93h-96z" />
    <glyph glyph-name="wdieresis" unicode="&#x1e85;" horiz-adv-x="803" 
d="M188 0l-179 526h98l90 -286q9 -25 15.5 -49.5t11.5 -43.5t8 -29h6l9.5 38t12 44.5t11.5 40.5l83 285h101l84 -285q6 -19 12 -42t12 -44.5t9 -36.5h6q5 16 11 38t12.5 44.5t11.5 39.5l89 286h92l-179 -526h-91l-83 277q-6 20 -13 44.5t-13 48t-10 39.5h-6l-10 -37.5
t-12.5 -47t-13.5 -47.5l-83 -277h-92zM247 627v93h96v-93h-96zM464 627v93h97v-93h-97z" />
    <glyph glyph-name="uni1E9E" unicode="&#x1e9e;" horiz-adv-x="861" 
d="M91 0v427q0 90 44.5 150t125.5 90.5t190 30.5q75 0 133.5 -12.5t99 -37.5t62 -61t21.5 -83q0 -37 -14 -67.5t-36.5 -52.5t-49.5 -33v-5q64 -13 100 -54t36 -104q0 -54 -24 -96.5t-70.5 -67t-112.5 -24.5h-277v88h260q39 0 66 14.5t40.5 38.5t13.5 52q0 35 -17.5 58
t-48.5 34.5t-71 11.5h-243v86h227q50 0 83.5 29t33.5 80q0 57 -48.5 88t-157.5 31q-84 0 -143 -20.5t-90 -62.5t-31 -109v-419h-102z" />
    <glyph glyph-name="uni1EA0" unicode="&#x1ea0;" horiz-adv-x="784" 
d="M19 0l310 686h126l310 -686h-111l-74 166h-382l-73 -166h-106zM236 252h305l-92 209q-5 10 -12.5 28t-15.5 38t-15.5 39t-12.5 32h-8q-8 -21 -19 -47.5t-21 -50.5t-16 -39zM343 -184v95h98v-95h-98z" />
    <glyph glyph-name="uni1EA1" unicode="&#x1ea1;" horiz-adv-x="627" 
d="M236 -12q-37 0 -71 7.5t-61.5 24t-43 45t-15.5 71.5q0 59 31 94.5t86.5 53t130 23t161.5 5.5v45q0 37 -13.5 60.5t-45.5 34.5t-90 11q-50 0 -82 -10.5t-47 -28t-15 -38.5v-17h-91q-1 5 -1 9.5v11.5q0 47 29 80.5t84 50.5t132 17t128.5 -18t78 -55t26.5 -96v-268
q0 -20 8 -28.5t24 -8.5h45v-61q-15 -5 -34.5 -9.5t-41.5 -4.5q-32 0 -50.5 11t-27 31t-11.5 44h-7q-23 -27 -57 -47t-74.5 -30t-84.5 -10zM256 64q36 0 71 10t63.5 28t46 43.5t17.5 56.5v43q-102 0 -172 -8.5t-105.5 -31t-35.5 -65.5q0 -28 15.5 -44.5t42 -24t57.5 -7.5z
M258 -184v95h99v-95h-99z" />
    <glyph glyph-name="uni1EA2" unicode="&#x1ea2;" horiz-adv-x="784" 
d="M19 0l310 686h126l310 -686h-111l-74 166h-382l-73 -166h-106zM236 252h305l-92 209q-5 10 -12.5 28t-15.5 38t-15.5 39t-12.5 32h-8q-8 -21 -19 -47.5t-21 -50.5t-16 -39zM364 736v62h10q28 0 37 3.5t9 12.5q0 13 -10 15.5t-30 2.5h-77v41q12 3 28.5 5t33 3t27.5 1
q19 0 37.5 -3t34 -9.5t25 -18t9.5 -30.5q0 -17 -10 -29.5t-27 -19.5t-39 -8v-28h-58z" />
    <glyph glyph-name="uni1EA3" unicode="&#x1ea3;" horiz-adv-x="627" 
d="M236 -12q-37 0 -71 7.5t-61.5 24t-43 45t-15.5 71.5q0 59 31 94.5t86.5 53t130 23t161.5 5.5v45q0 37 -13.5 60.5t-45.5 34.5t-90 11q-50 0 -82 -10.5t-47 -28t-15 -38.5v-17h-91q-1 5 -1 9.5v11.5q0 47 29 80.5t84 50.5t132 17t128.5 -18t78 -55t26.5 -96v-268
q0 -20 8 -28.5t24 -8.5h45v-61q-15 -5 -34.5 -9.5t-41.5 -4.5q-32 0 -50.5 11t-27 31t-11.5 44h-7q-23 -27 -57 -47t-74.5 -30t-84.5 -10zM256 64q36 0 71 10t63.5 28t46 43.5t17.5 56.5v43q-102 0 -172 -8.5t-105.5 -31t-35.5 -65.5q0 -28 15.5 -44.5t42 -24t57.5 -7.5z
M282 591v62h11q27 0 36 3.5t9 12.5q0 13 -10 15.5t-30 2.5h-77v41q12 3 28.5 4.5t33.5 2.5t28 1q18 0 37 -2.5t34 -9t24.5 -18.5t9.5 -30t-10 -30.5t-27 -19t-39 -8.5v-27h-58z" />
    <glyph glyph-name="uni1EA4" unicode="&#x1ea4;" horiz-adv-x="784" 
d="M19 0l310 686h126l310 -686h-111l-74 166h-382l-73 -166h-106zM236 252h305l-92 209q-5 10 -12.5 28t-15.5 38t-15.5 39t-12.5 32h-8q-8 -21 -19 -47.5t-21 -50.5t-16 -39zM224 735l125 135h86l125 -135h-88l-103 111h45l-103 -111h-87zM333 902l102 132h113l1 -4
l-132 -128h-84z" />
    <glyph glyph-name="uni1EA5" unicode="&#x1ea5;" horiz-adv-x="627" 
d="M236 -12q-37 0 -71 7.5t-61.5 24t-43 45t-15.5 71.5q0 59 31 94.5t86.5 53t130 23t161.5 5.5v45q0 37 -13.5 60.5t-45.5 34.5t-90 11q-50 0 -82 -10.5t-47 -28t-15 -38.5v-17h-91q-1 5 -1 9.5v11.5q0 47 29 80.5t84 50.5t132 17t128.5 -18t78 -55t26.5 -96v-268
q0 -20 8 -28.5t24 -8.5h45v-61q-15 -5 -34.5 -9.5t-41.5 -4.5q-32 0 -50.5 11t-27 31t-11.5 44h-7q-23 -27 -57 -47t-74.5 -30t-84.5 -10zM256 64q36 0 71 10t63.5 28t46 43.5t17.5 56.5v43q-102 0 -172 -8.5t-105.5 -31t-35.5 -65.5q0 -28 15.5 -44.5t42 -24t57.5 -7.5z
M144 589l125 135h82l126 -135h-87l-103 111l45 -1l-103 -110h-85zM237 775l101 132h112v-4l-131 -128h-82z" />
    <glyph glyph-name="uni1EA6" unicode="&#x1ea6;" horiz-adv-x="784" 
d="M19 0l310 686h126l310 -686h-111l-74 166h-382l-73 -166h-106zM236 252h305l-92 209q-5 10 -12.5 28t-15.5 38t-15.5 39t-12.5 32h-8q-8 -21 -19 -47.5t-21 -50.5t-16 -39zM224 735l125 135h86l125 -135h-88l-103 111h45l-103 -111h-87zM452 902h-84l-132 128l1 4h113z
" />
    <glyph glyph-name="uni1EA7" unicode="&#x1ea7;" horiz-adv-x="627" 
d="M236 -12q-37 0 -71 7.5t-61.5 24t-43 45t-15.5 71.5q0 59 31 94.5t86.5 53t130 23t161.5 5.5v45q0 37 -13.5 60.5t-45.5 34.5t-90 11q-50 0 -82 -10.5t-47 -28t-15 -38.5v-17h-91q-1 5 -1 9.5v11.5q0 47 29 80.5t84 50.5t132 17t128.5 -18t78 -55t26.5 -96v-268
q0 -20 8 -28.5t24 -8.5h45v-61q-15 -5 -34.5 -9.5t-41.5 -4.5q-32 0 -50.5 11t-27 31t-11.5 44h-7q-23 -27 -57 -47t-74.5 -30t-84.5 -10zM256 64q36 0 71 10t63.5 28t46 43.5t17.5 56.5v43q-102 0 -172 -8.5t-105.5 -31t-35.5 -65.5q0 -28 15.5 -44.5t42 -24t57.5 -7.5z
M144 589l125 135h82l126 -135h-87l-103 111l45 -1l-103 -110h-85zM384 775h-82l-131 128l1 4h111z" />
    <glyph glyph-name="uni1EA8" unicode="&#x1ea8;" horiz-adv-x="784" 
d="M19 0l310 686h126l310 -686h-111l-74 166h-382l-73 -166h-106zM236 252h305l-92 209q-5 10 -12.5 28t-15.5 38t-15.5 39t-12.5 32h-8q-8 -21 -19 -47.5t-21 -50.5t-16 -39zM224 735l125 135h86l125 -135h-88l-103 111h45l-103 -111h-87zM364 900v62h10q28 0 37 3.5
t9 12.5q0 13 -10 15.5t-30 2.5h-77v41q12 3 28.5 4.5t33 2.5t27.5 1q19 0 37.5 -2.5t34 -9t25 -18.5t9.5 -30t-10 -30.5t-27 -19t-39 -8.5v-27h-58z" />
    <glyph glyph-name="uni1EA9" unicode="&#x1ea9;" horiz-adv-x="627" 
d="M236 -12q-37 0 -71 7.5t-61.5 24t-43 45t-15.5 71.5q0 59 31 94.5t86.5 53t130 23t161.5 5.5v45q0 37 -13.5 60.5t-45.5 34.5t-90 11q-50 0 -82 -10.5t-47 -28t-15 -38.5v-17h-91q-1 5 -1 9.5v11.5q0 47 29 80.5t84 50.5t132 17t128.5 -18t78 -55t26.5 -96v-268
q0 -20 8 -28.5t24 -8.5h45v-61q-15 -5 -34.5 -9.5t-41.5 -4.5q-32 0 -50.5 11t-27 31t-11.5 44h-7q-23 -27 -57 -47t-74.5 -30t-84.5 -10zM256 64q36 0 71 10t63.5 28t46 43.5t17.5 56.5v43q-102 0 -172 -8.5t-105.5 -31t-35.5 -65.5q0 -28 15.5 -44.5t42 -24t57.5 -7.5z
M144 589l125 135h82l126 -135h-87l-103 111l45 -1l-103 -110h-85zM282 775v62h11q27 0 36 3.5t9 11.5q0 13 -10 16t-30 3h-77v40q12 3 28.5 5t33.5 3t28 1q18 0 37 -2.5t34 -9.5t24.5 -18.5t9.5 -29.5t-10 -30.5t-27 -19t-39 -8.5v-27h-58z" />
    <glyph glyph-name="uni1EAA" unicode="&#x1eaa;" horiz-adv-x="784" 
d="M19 0l310 686h126l310 -686h-111l-74 166h-382l-73 -166h-106zM236 252h305l-92 209q-5 10 -12.5 28t-15.5 38t-15.5 39t-12.5 32h-8q-8 -21 -19 -47.5t-21 -50.5t-16 -39zM224 735l125 135h86l125 -135h-88l-103 111h45l-103 -111h-87zM208 925q2 27 13 50t33 37.5
t56 14.5q30 0 58.5 -8.5t55.5 -18t53 -9.5q19 0 28 11t12 25h59q-1 -26 -13 -49.5t-34.5 -38t-56.5 -14.5q-27 0 -56 9.5t-56 18.5t-52 9q-20 0 -29.5 -11t-12.5 -26h-58z" />
    <glyph glyph-name="uni1EAB" unicode="&#x1eab;" horiz-adv-x="627" 
d="M236 -12q-37 0 -71 7.5t-61.5 24t-43 45t-15.5 71.5q0 59 31 94.5t86.5 53t130 23t161.5 5.5v45q0 37 -13.5 60.5t-45.5 34.5t-90 11q-50 0 -82 -10.5t-47 -28t-15 -38.5v-17h-91q-1 5 -1 9.5v11.5q0 47 29 80.5t84 50.5t132 17t128.5 -18t78 -55t26.5 -96v-268
q0 -20 8 -28.5t24 -8.5h45v-61q-15 -5 -34.5 -9.5t-41.5 -4.5q-32 0 -50.5 11t-27 31t-11.5 44h-7q-23 -27 -57 -47t-74.5 -30t-84.5 -10zM256 64q36 0 71 10t63.5 28t46 43.5t17.5 56.5v43q-102 0 -172 -8.5t-105.5 -31t-35.5 -65.5q0 -28 15.5 -44.5t42 -24t57.5 -7.5z
M144 589l125 135h82l126 -135h-87l-103 111l45 -1l-103 -110h-85zM126 803q1 27 12 50t33.5 37.5t56.5 14.5q30 0 58 -9t55.5 -18t52.5 -9q19 0 28 10.5t12 25.5h60q-1 -26 -13 -49.5t-34.5 -38.5t-56.5 -15q-28 0 -56.5 9.5t-56 19t-51.5 9.5q-20 0 -29.5 -11t-12.5 -26
h-58z" />
    <glyph glyph-name="uni1EAC" unicode="&#x1eac;" horiz-adv-x="784" 
d="M19 0l310 686h126l310 -686h-111l-74 166h-382l-73 -166h-106zM236 252h305l-92 209q-5 10 -12.5 28t-15.5 38t-15.5 39t-12.5 32h-8q-8 -21 -19 -47.5t-21 -50.5t-16 -39zM343 -184v95h98v-95h-98zM224 735l125 135h86l125 -135h-88l-103 111h45l-103 -111h-87z" />
    <glyph glyph-name="uni1EAD" unicode="&#x1ead;" horiz-adv-x="627" 
d="M236 -12q-37 0 -71 7.5t-61.5 24t-43 45t-15.5 71.5q0 59 31 94.5t86.5 53t130 23t161.5 5.5v45q0 37 -13.5 60.5t-45.5 34.5t-90 11q-50 0 -82 -10.5t-47 -28t-15 -38.5v-17h-91q-1 5 -1 9.5v11.5q0 47 29 80.5t84 50.5t132 17t128.5 -18t78 -55t26.5 -96v-268
q0 -20 8 -28.5t24 -8.5h45v-61q-15 -5 -34.5 -9.5t-41.5 -4.5q-32 0 -50.5 11t-27 31t-11.5 44h-7q-23 -27 -57 -47t-74.5 -30t-84.5 -10zM256 64q36 0 71 10t63.5 28t46 43.5t17.5 56.5v43q-102 0 -172 -8.5t-105.5 -31t-35.5 -65.5q0 -28 15.5 -44.5t42 -24t57.5 -7.5z
M258 -184v95h99v-95h-99zM144 589l125 135h82l126 -135h-87l-103 111l45 -1l-103 -110h-85z" />
    <glyph glyph-name="uni1EAE" unicode="&#x1eae;" horiz-adv-x="784" 
d="M19 0l310 686h126l310 -686h-111l-74 166h-382l-73 -166h-106zM236 252h305l-92 209q-5 10 -12.5 28t-15.5 38t-15.5 39t-12.5 32h-8q-8 -21 -19 -47.5t-21 -50.5t-16 -39zM392 753q-62 0 -98 18t-51 45.5t-15 53.5h63q3 -11 12.5 -24t31 -22t57.5 -9q38 0 59.5 9.5
t31 22.5t11.5 23h63q0 -26 -15.5 -53.5t-51.5 -45.5t-98 -18zM333 885l102 132h113l1 -4l-132 -128h-84z" />
    <glyph glyph-name="uni1EAF" unicode="&#x1eaf;" horiz-adv-x="627" 
d="M236 -12q-37 0 -71 7.5t-61.5 24t-43 45t-15.5 71.5q0 59 31 94.5t86.5 53t130 23t161.5 5.5v45q0 37 -13.5 60.5t-45.5 34.5t-90 11q-50 0 -82 -10.5t-47 -28t-15 -38.5v-17h-91q-1 5 -1 9.5v11.5q0 47 29 80.5t84 50.5t132 17t128.5 -18t78 -55t26.5 -96v-268
q0 -20 8 -28.5t24 -8.5h45v-61q-15 -5 -34.5 -9.5t-41.5 -4.5q-32 0 -50.5 11t-27 31t-11.5 44h-7q-23 -27 -57 -47t-74.5 -30t-84.5 -10zM256 64q36 0 71 10t63.5 28t46 43.5t17.5 56.5v43q-102 0 -172 -8.5t-105.5 -31t-35.5 -65.5q0 -28 15.5 -44.5t42 -24t57.5 -7.5z
M309 607q-62 0 -98 17.5t-51 45t-15 54.5h63q3 -11 13 -24t31 -22t57 -9q38 0 59.5 9t31.5 22.5t11 23.5h63q0 -27 -15.5 -54.5t-51.5 -45t-98 -17.5zM237 775l101 132h112v-4l-131 -128h-82z" />
    <glyph glyph-name="uni1EB0" unicode="&#x1eb0;" horiz-adv-x="784" 
d="M19 0l310 686h126l310 -686h-111l-74 166h-382l-73 -166h-106zM236 252h305l-92 209q-5 10 -12.5 28t-15.5 38t-15.5 39t-12.5 32h-8q-8 -21 -19 -47.5t-21 -50.5t-16 -39zM392 753q-62 0 -98 18t-51 45.5t-15 53.5h63q3 -11 12.5 -24t31 -22t57.5 -9q38 0 59.5 9.5
t31 22.5t11.5 23h63q0 -26 -15.5 -53.5t-51.5 -45.5t-98 -18zM452 885h-84l-132 128l1 4h113z" />
    <glyph glyph-name="uni1EB1" unicode="&#x1eb1;" horiz-adv-x="627" 
d="M236 -12q-37 0 -71 7.5t-61.5 24t-43 45t-15.5 71.5q0 59 31 94.5t86.5 53t130 23t161.5 5.5v45q0 37 -13.5 60.5t-45.5 34.5t-90 11q-50 0 -82 -10.5t-47 -28t-15 -38.5v-17h-91q-1 5 -1 9.5v11.5q0 47 29 80.5t84 50.5t132 17t128.5 -18t78 -55t26.5 -96v-268
q0 -20 8 -28.5t24 -8.5h45v-61q-15 -5 -34.5 -9.5t-41.5 -4.5q-32 0 -50.5 11t-27 31t-11.5 44h-7q-23 -27 -57 -47t-74.5 -30t-84.5 -10zM256 64q36 0 71 10t63.5 28t46 43.5t17.5 56.5v43q-102 0 -172 -8.5t-105.5 -31t-35.5 -65.5q0 -28 15.5 -44.5t42 -24t57.5 -7.5z
M309 607q-62 0 -98 17.5t-51 45t-15 54.5h63q3 -11 13 -24t31 -22t57 -9q38 0 59.5 9t31.5 22.5t11 23.5h63q0 -27 -15.5 -54.5t-51.5 -45t-98 -17.5zM384 775h-82l-131 128l1 4h111z" />
    <glyph glyph-name="uni1EB2" unicode="&#x1eb2;" horiz-adv-x="784" 
d="M19 0l310 686h126l310 -686h-111l-74 166h-382l-73 -166h-106zM236 252h305l-92 209q-5 10 -12.5 28t-15.5 38t-15.5 39t-12.5 32h-8q-8 -21 -19 -47.5t-21 -50.5t-16 -39zM392 753q-62 0 -98 18t-51 45.5t-15 53.5h63q3 -11 12.5 -24t31 -22t57.5 -9q38 0 59.5 9.5
t31 22.5t11.5 23h63q0 -26 -15.5 -53.5t-51.5 -45.5t-98 -18zM364 883v62h10q28 0 37 3.5t9 12.5q0 13 -10 15.5t-30 2.5h-77v41q12 3 28.5 4.5t33 2.5t27.5 1q19 0 37.5 -2.5t34 -9t25 -18t9.5 -30.5q0 -18 -10 -30.5t-27 -19t-39 -7.5v-28h-58z" />
    <glyph glyph-name="uni1EB3" unicode="&#x1eb3;" horiz-adv-x="627" 
d="M236 -12q-37 0 -71 7.5t-61.5 24t-43 45t-15.5 71.5q0 59 31 94.5t86.5 53t130 23t161.5 5.5v45q0 37 -13.5 60.5t-45.5 34.5t-90 11q-50 0 -82 -10.5t-47 -28t-15 -38.5v-17h-91q-1 5 -1 9.5v11.5q0 47 29 80.5t84 50.5t132 17t128.5 -18t78 -55t26.5 -96v-268
q0 -20 8 -28.5t24 -8.5h45v-61q-15 -5 -34.5 -9.5t-41.5 -4.5q-32 0 -50.5 11t-27 31t-11.5 44h-7q-23 -27 -57 -47t-74.5 -30t-84.5 -10zM256 64q36 0 71 10t63.5 28t46 43.5t17.5 56.5v43q-102 0 -172 -8.5t-105.5 -31t-35.5 -65.5q0 -28 15.5 -44.5t42 -24t57.5 -7.5z
M309 607q-62 0 -98 17.5t-51 45t-15 54.5h63q3 -11 13 -24t31 -22t57 -9q38 0 59.5 9t31.5 22.5t11 23.5h63q0 -27 -15.5 -54.5t-51.5 -45t-98 -17.5zM282 775v62h11q27 0 36 3.5t9 11.5q0 13 -10 16t-30 3h-77v40q12 3 28.5 5t33.5 3t28 1q18 0 37 -2.5t34 -9.5t24.5 -18.5
t9.5 -29.5t-10 -30.5t-27 -19t-39 -8.5v-27h-58z" />
    <glyph glyph-name="uni1EB4" unicode="&#x1eb4;" horiz-adv-x="784" 
d="M19 0l310 686h126l310 -686h-111l-74 166h-382l-73 -166h-106zM236 252h305l-92 209q-5 10 -12.5 28t-15.5 38t-15.5 39t-12.5 32h-8q-8 -21 -19 -47.5t-21 -50.5t-16 -39zM392 753q-62 0 -98 18t-51 45.5t-15 53.5h63q3 -11 12.5 -24t31 -22t57.5 -9q38 0 59.5 9.5
t31 22.5t11.5 23h63q0 -26 -15.5 -53.5t-51.5 -45.5t-98 -18zM208 909q2 26 13 49t33 37.5t56 14.5q30 0 58.5 -8.5t55.5 -18t53 -9.5q19 0 28 11t12 25h59q-1 -26 -13 -49.5t-34.5 -38t-56.5 -14.5q-27 0 -56 9.5t-56 18.5t-52 9q-20 0 -29.5 -11t-12.5 -25h-58z" />
    <glyph glyph-name="uni1EB5" unicode="&#x1eb5;" horiz-adv-x="627" 
d="M236 -12q-37 0 -71 7.5t-61.5 24t-43 45t-15.5 71.5q0 59 31 94.5t86.5 53t130 23t161.5 5.5v45q0 37 -13.5 60.5t-45.5 34.5t-90 11q-50 0 -82 -10.5t-47 -28t-15 -38.5v-17h-91q-1 5 -1 9.5v11.5q0 47 29 80.5t84 50.5t132 17t128.5 -18t78 -55t26.5 -96v-268
q0 -20 8 -28.5t24 -8.5h45v-61q-15 -5 -34.5 -9.5t-41.5 -4.5q-32 0 -50.5 11t-27 31t-11.5 44h-7q-23 -27 -57 -47t-74.5 -30t-84.5 -10zM256 64q36 0 71 10t63.5 28t46 43.5t17.5 56.5v43q-102 0 -172 -8.5t-105.5 -31t-35.5 -65.5q0 -28 15.5 -44.5t42 -24t57.5 -7.5z
M309 607q-62 0 -98 17.5t-51 45t-15 54.5h63q3 -11 13 -24t31 -22t57 -9q38 0 59.5 9t31.5 22.5t11 23.5h63q0 -27 -15.5 -54.5t-51.5 -45t-98 -17.5zM126 803q1 27 12 50t33.5 37.5t56.5 14.5q30 0 58 -9t55.5 -18t52.5 -9q19 0 28 10.5t12 25.5h60q-1 -26 -13 -49.5
t-34.5 -38.5t-56.5 -15q-28 0 -56.5 9.5t-56 19t-51.5 9.5q-20 0 -29.5 -11t-12.5 -26h-58z" />
    <glyph glyph-name="uni1EB6" unicode="&#x1eb6;" horiz-adv-x="784" 
d="M19 0l310 686h126l310 -686h-111l-74 166h-382l-73 -166h-106zM236 252h305l-92 209q-5 10 -12.5 28t-15.5 38t-15.5 39t-12.5 32h-8q-8 -21 -19 -47.5t-21 -50.5t-16 -39zM343 -184v95h98v-95h-98zM392 753q-62 0 -98 18t-51 45.5t-15 53.5h63q3 -11 12.5 -24t31 -22
t57.5 -9q38 0 59.5 9.5t31 22.5t11.5 23h63q0 -26 -15.5 -53.5t-51.5 -45.5t-98 -18z" />
    <glyph glyph-name="uni1EB7" unicode="&#x1eb7;" horiz-adv-x="627" 
d="M236 -12q-37 0 -71 7.5t-61.5 24t-43 45t-15.5 71.5q0 59 31 94.5t86.5 53t130 23t161.5 5.5v45q0 37 -13.5 60.5t-45.5 34.5t-90 11q-50 0 -82 -10.5t-47 -28t-15 -38.5v-17h-91q-1 5 -1 9.5v11.5q0 47 29 80.5t84 50.5t132 17t128.5 -18t78 -55t26.5 -96v-268
q0 -20 8 -28.5t24 -8.5h45v-61q-15 -5 -34.5 -9.5t-41.5 -4.5q-32 0 -50.5 11t-27 31t-11.5 44h-7q-23 -27 -57 -47t-74.5 -30t-84.5 -10zM256 64q36 0 71 10t63.5 28t46 43.5t17.5 56.5v43q-102 0 -172 -8.5t-105.5 -31t-35.5 -65.5q0 -28 15.5 -44.5t42 -24t57.5 -7.5z
M258 -184v95h99v-95h-99zM309 607q-62 0 -98 17.5t-51 45t-15 54.5h63q3 -11 13 -24t31 -22t57 -9q38 0 59.5 9t31.5 22.5t11 23.5h63q0 -27 -15.5 -54.5t-51.5 -45t-98 -17.5z" />
    <glyph glyph-name="uni1EB8" unicode="&#x1eb8;" horiz-adv-x="773" 
d="M97 0v686h602v-87h-500v-204h450v-87h-450v-221h507v-87h-609zM355 -184v95h99v-95h-99z" />
    <glyph glyph-name="uni1EB9" unicode="&#x1eb9;" horiz-adv-x="631" 
d="M321 -12q-87 0 -148 29.5t-93 90.5t-32 155q0 93 31.5 154t92.5 91t149 30t146 -30t87 -86.5t29 -136.5v-46h-438q2 -63 23.5 -102t61.5 -56.5t94 -17.5q37 0 66 9.5t50 25t33.5 36.5t13.5 45h92q-1 -39 -17 -73.5t-48 -61t-80.5 -41.5t-112.5 -15zM146 308h339
q0 43 -13 72.5t-36 48t-52.5 26.5t-64.5 8q-50 0 -87.5 -16.5t-59.5 -51t-26 -87.5zM274 -184v95h99v-95h-99z" />
    <glyph glyph-name="uni1EBA" unicode="&#x1eba;" horiz-adv-x="773" 
d="M97 0v686h602v-87h-500v-204h450v-87h-450v-221h507v-87h-609zM374 737v62h11q28 0 37 3.5t9 11.5q0 13 -10 16t-30 3h-77v40q11 3 27.5 5t33.5 3t28 1q19 0 37.5 -2.5t33.5 -9t24.5 -18.5t9.5 -30t-10 -30.5t-27 -19t-39 -8.5v-27h-58z" />
    <glyph glyph-name="uni1EBB" unicode="&#x1ebb;" horiz-adv-x="631" 
d="M321 -12q-87 0 -148 29.5t-93 90.5t-32 155q0 93 31.5 154t92.5 91t149 30t146 -30t87 -86.5t29 -136.5v-46h-438q2 -63 23.5 -102t61.5 -56.5t94 -17.5q37 0 66 9.5t50 25t33.5 36.5t13.5 45h92q-1 -39 -17 -73.5t-48 -61t-80.5 -41.5t-112.5 -15zM146 308h339
q0 43 -13 72.5t-36 48t-52.5 26.5t-64.5 8q-50 0 -87.5 -16.5t-59.5 -51t-26 -87.5zM290 591v62h11q28 0 37 3.5t9 12.5q0 13 -10 15.5t-30 2.5h-77v41q11 3 28 4.5t33.5 2.5t27.5 1q19 0 37.5 -2.5t33.5 -9t24.5 -18.5t9.5 -30t-10 -30.5t-27 -19t-39 -8.5v-27h-58z" />
    <glyph glyph-name="uni1EBC" unicode="&#x1ebc;" horiz-adv-x="773" 
d="M97 0v686h602v-87h-500v-204h450v-87h-450v-221h507v-87h-609zM219 762q1 27 12.5 50t33.5 37.5t56 14.5q30 0 58 -9t55.5 -18.5t52.5 -9.5q19 0 28 11t12 26h60q-1 -26 -13 -49.5t-34.5 -38.5t-56.5 -15q-28 0 -56.5 9.5t-55.5 19t-52 9.5q-20 0 -29.5 -11t-12.5 -26
h-58z" />
    <glyph glyph-name="uni1EBD" unicode="&#x1ebd;" horiz-adv-x="631" 
d="M321 -12q-87 0 -148 29.5t-93 90.5t-32 155q0 93 31.5 154t92.5 91t149 30t146 -30t87 -86.5t29 -136.5v-46h-438q2 -63 23.5 -102t61.5 -56.5t94 -17.5q37 0 66 9.5t50 25t33.5 36.5t13.5 45h92q-1 -39 -17 -73.5t-48 -61t-80.5 -41.5t-112.5 -15zM146 308h339
q0 43 -13 72.5t-36 48t-52.5 26.5t-64.5 8q-50 0 -87.5 -16.5t-59.5 -51t-26 -87.5zM134 620q2 26 13 49t33 37.5t56 14.5q30 0 58.5 -8.5t55.5 -18t53 -9.5q19 0 28 11t12 25h59q-1 -26 -13 -49.5t-34.5 -38t-56.5 -14.5q-27 0 -56 9.5t-56 18.5t-52 9q-20 0 -29.5 -11
t-12.5 -25h-58z" />
    <glyph glyph-name="uni1EBE" unicode="&#x1ebe;" horiz-adv-x="773" 
d="M97 0v686h602v-87h-500v-204h450v-87h-450v-221h507v-87h-609zM235 736l125 135h85l126 -135h-89l-103 110h46l-103 -110h-87zM344 902l102 133h113v-4l-131 -129h-84z" />
    <glyph glyph-name="uni1EBF" unicode="&#x1ebf;" horiz-adv-x="631" 
d="M321 -12q-87 0 -148 29.5t-93 90.5t-32 155q0 93 31.5 154t92.5 91t149 30t146 -30t87 -86.5t29 -136.5v-46h-438q2 -63 23.5 -102t61.5 -56.5t94 -17.5q37 0 66 9.5t50 25t33.5 36.5t13.5 45h92q-1 -39 -17 -73.5t-48 -61t-80.5 -41.5t-112.5 -15zM146 308h339
q0 43 -13 72.5t-36 48t-52.5 26.5t-64.5 8q-50 0 -87.5 -16.5t-59.5 -51t-26 -87.5zM152 589l125 135h82l126 -135h-87l-103 111l45 -1l-102 -110h-86zM245 775l102 132h111l1 -4l-132 -128h-82z" />
    <glyph glyph-name="uni1EC0" unicode="&#x1ec0;" horiz-adv-x="773" 
d="M97 0v686h602v-87h-500v-204h450v-87h-450v-221h507v-87h-609zM235 736l125 135h85l126 -135h-89l-103 110h46l-103 -110h-87zM462 902h-84l-131 129v4h114z" />
    <glyph glyph-name="uni1EC1" unicode="&#x1ec1;" horiz-adv-x="631" 
d="M321 -12q-87 0 -148 29.5t-93 90.5t-32 155q0 93 31.5 154t92.5 91t149 30t146 -30t87 -86.5t29 -136.5v-46h-438q2 -63 23.5 -102t61.5 -56.5t94 -17.5q37 0 66 9.5t50 25t33.5 36.5t13.5 45h92q-1 -39 -17 -73.5t-48 -61t-80.5 -41.5t-112.5 -15zM146 308h339
q0 43 -13 72.5t-36 48t-52.5 26.5t-64.5 8q-50 0 -87.5 -16.5t-59.5 -51t-26 -87.5zM152 589l125 135h82l126 -135h-87l-103 111l45 -1l-102 -110h-86zM393 775h-82l-132 128l1 4h111z" />
    <glyph glyph-name="uni1EC2" unicode="&#x1ec2;" horiz-adv-x="773" 
d="M97 0v686h602v-87h-500v-204h450v-87h-450v-221h507v-87h-609zM235 736l125 135h85l126 -135h-89l-103 110h46l-103 -110h-87zM374 901v61h11q28 0 37 3.5t9 12.5q0 13 -10 16t-30 3h-77v40q11 3 28 5t33.5 3t27.5 1q19 0 37.5 -2.5t33.5 -9.5t24.5 -18.5t9.5 -30.5
q0 -17 -10 -29.5t-27 -19.5t-39 -8v-27h-58z" />
    <glyph glyph-name="uni1EC3" unicode="&#x1ec3;" horiz-adv-x="631" 
d="M321 -12q-87 0 -148 29.5t-93 90.5t-32 155q0 93 31.5 154t92.5 91t149 30t146 -30t87 -86.5t29 -136.5v-46h-438q2 -63 23.5 -102t61.5 -56.5t94 -17.5q37 0 66 9.5t50 25t33.5 36.5t13.5 45h92q-1 -39 -17 -73.5t-48 -61t-80.5 -41.5t-112.5 -15zM146 308h339
q0 43 -13 72.5t-36 48t-52.5 26.5t-64.5 8q-50 0 -87.5 -16.5t-59.5 -51t-26 -87.5zM152 589l125 135h82l126 -135h-87l-103 111l45 -1l-102 -110h-86zM290 775v62h11q28 0 37 3.5t9 11.5q0 13 -10 16t-30 3h-77v40q11 3 28 5t33.5 3t27.5 1q19 0 37.5 -2.5t33.5 -9.5
t24.5 -18.5t9.5 -29.5t-10 -30.5t-27 -19t-39 -8.5v-27h-58z" />
    <glyph glyph-name="uni1EC4" unicode="&#x1ec4;" horiz-adv-x="773" 
d="M97 0v686h602v-87h-500v-204h450v-87h-450v-221h507v-87h-609zM235 736l125 135h85l126 -135h-89l-103 110h46l-103 -110h-87zM219 926q1 26 12.5 49.5t33.5 38t56 14.5q30 0 58 -9t55.5 -18.5t52.5 -9.5q19 0 28 11t12 26h60q-1 -27 -13 -50.5t-34.5 -38t-56.5 -14.5
q-28 0 -56.5 9.5l-55.5 18.5t-52 9q-20 0 -29.5 -10.5t-12.5 -25.5h-58z" />
    <glyph glyph-name="uni1EC5" unicode="&#x1ec5;" horiz-adv-x="631" 
d="M321 -12q-87 0 -148 29.5t-93 90.5t-32 155q0 93 31.5 154t92.5 91t149 30t146 -30t87 -86.5t29 -136.5v-46h-438q2 -63 23.5 -102t61.5 -56.5t94 -17.5q37 0 66 9.5t50 25t33.5 36.5t13.5 45h92q-1 -39 -17 -73.5t-48 -61t-80.5 -41.5t-112.5 -15zM146 308h339
q0 43 -13 72.5t-36 48t-52.5 26.5t-64.5 8q-50 0 -87.5 -16.5t-59.5 -51t-26 -87.5zM152 589l125 135h82l126 -135h-87l-103 111l45 -1l-102 -110h-86zM134 803q2 27 13 50t33 37.5t56 14.5q30 0 58.5 -9t55.5 -18t53 -9q19 0 28 10.5t12 25.5h59q-1 -26 -13 -49.5
t-34.5 -38.5t-56.5 -15q-27 0 -56 9.5t-56 19t-52 9.5q-20 0 -29.5 -11t-12.5 -26h-58z" />
    <glyph glyph-name="uni1EC6" unicode="&#x1ec6;" horiz-adv-x="773" 
d="M97 0v686h602v-87h-500v-204h450v-87h-450v-221h507v-87h-609zM355 -184v95h99v-95h-99zM235 736l125 135h85l126 -135h-89l-103 110h46l-103 -110h-87z" />
    <glyph glyph-name="uni1EC7" unicode="&#x1ec7;" horiz-adv-x="631" 
d="M321 -12q-87 0 -148 29.5t-93 90.5t-32 155q0 93 31.5 154t92.5 91t149 30t146 -30t87 -86.5t29 -136.5v-46h-438q2 -63 23.5 -102t61.5 -56.5t94 -17.5q37 0 66 9.5t50 25t33.5 36.5t13.5 45h92q-1 -39 -17 -73.5t-48 -61t-80.5 -41.5t-112.5 -15zM146 308h339
q0 43 -13 72.5t-36 48t-52.5 26.5t-64.5 8q-50 0 -87.5 -16.5t-59.5 -51t-26 -87.5zM274 -184v95h99v-95h-99zM152 589l125 135h82l126 -135h-87l-103 111l45 -1l-102 -110h-86z" />
    <glyph glyph-name="uni1EC8" unicode="&#x1ec8;" horiz-adv-x="296" 
d="M97 0v686h102v-686h-102zM119 736v62h11q28 0 37 3.5t9 12.5q0 13 -10 15.5t-30 2.5h-77v41q11 3 28 4.5t33.5 3t27.5 1.5q19 0 37.5 -3t33.5 -9.5t24.5 -18t9.5 -30.5q0 -17 -10 -29.5t-27 -19.5t-39 -8v-28h-58z" />
    <glyph glyph-name="uni1EC9" unicode="&#x1ec9;" horiz-adv-x="238" 
d="M73 0v526h93v-526h-93zM91 591v62h11q27 0 36 3.5t9 12.5q0 13 -10 15.5t-30 2.5h-77v41q12 3 28.5 4.5t33 2.5t28.5 1q18 0 37 -2.5t34 -9t24.5 -18.5t9.5 -30t-10 -30.5t-27 -19t-39 -8.5v-27h-58z" />
    <glyph glyph-name="uni1ECA" unicode="&#x1eca;" horiz-adv-x="296" 
d="M97 0v686h102v-686h-102zM98 -184v95h99v-95h-99z" />
    <glyph glyph-name="uni1ECB" unicode="&#x1ecb;" horiz-adv-x="238" 
d="M73 627v96h93v-96h-93zM73 0v526h93v-526h-93zM70 -184v95h98v-95h-98z" />
    <glyph glyph-name="uni1ECC" unicode="&#x1ecc;" horiz-adv-x="906" 
d="M453 -12q-120 0 -207.5 40t-134 119t-46.5 196q0 118 46.5 196.5t134 118.5t207.5 40q121 0 208 -40t133.5 -118.5t46.5 -196.5q0 -117 -46.5 -196t-133.5 -119t-208 -40zM453 75q63 0 114.5 15t89.5 46.5t58.5 80t20.5 115.5v22q0 67 -20.5 116t-58.5 80t-89.5 46
t-114.5 15t-114.5 -15t-89.5 -46t-58.5 -80t-20.5 -116v-22q0 -67 20.5 -115.5t58.5 -80t89.5 -46.5t114.5 -15zM406 -184v95h99v-95h-99z" />
    <glyph glyph-name="uni1ECD" unicode="&#x1ecd;" horiz-adv-x="644" 
d="M322 -12q-89 0 -150 30.5t-92.5 91.5t-31.5 153q0 93 31.5 154t92.5 91t150 30t149.5 -30t92 -91t31.5 -154q0 -92 -31.5 -153t-92 -91.5t-149.5 -30.5zM322 64q55 0 94.5 20t60.5 62t21 107v21q0 66 -21 107t-60.5 61t-94.5 20t-95 -20t-61 -61t-21 -107v-21
q0 -65 21 -107t61 -62t95 -20zM272 -184v95h99v-95h-99z" />
    <glyph glyph-name="uni1ECE" unicode="&#x1ece;" horiz-adv-x="906" 
d="M453 -12q-120 0 -207.5 40t-134 119t-46.5 196q0 118 46.5 196.5t134 118.5t207.5 40q121 0 208 -40t133.5 -118.5t46.5 -196.5q0 -117 -46.5 -196t-133.5 -119t-208 -40zM453 75q63 0 114.5 15t89.5 46.5t58.5 80t20.5 115.5v22q0 67 -20.5 116t-58.5 80t-89.5 46
t-114.5 15t-114.5 -15t-89.5 -46t-58.5 -80t-20.5 -116v-22q0 -67 20.5 -115.5t58.5 -80t89.5 -46.5t114.5 -15zM424 736v62h11q27 0 36 3.5t9 12.5q0 13 -10 15.5t-30 2.5h-77v41q12 3 28.5 4.5t33.5 3t28 1.5q18 0 37 -3t34 -9.5t24.5 -18t9.5 -30.5q0 -17 -10 -29.5
t-27 -19.5t-39 -8v-28h-58z" />
    <glyph glyph-name="uni1ECF" unicode="&#x1ecf;" horiz-adv-x="644" 
d="M322 -12q-89 0 -150 30.5t-92.5 91.5t-31.5 153q0 93 31.5 154t92.5 91t150 30t149.5 -30t92 -91t31.5 -154q0 -92 -31.5 -153t-92 -91.5t-149.5 -30.5zM322 64q55 0 94.5 20t60.5 62t21 107v21q0 66 -21 107t-60.5 61t-94.5 20t-95 -20t-61 -61t-21 -107v-21
q0 -65 21 -107t61 -62t95 -20zM293 591v62h11q28 0 37 3.5t9 12.5q0 13 -10 15.5t-30 2.5h-77v41q11 3 28 4.5t33.5 2.5t27.5 1q19 0 37.5 -2.5t34 -9t24.5 -18.5t9 -30t-9.5 -30.5t-26.5 -19t-39 -8.5v-27h-59z" />
    <glyph glyph-name="uni1ED0" unicode="&#x1ed0;" horiz-adv-x="906" 
d="M453 -12q-121 0 -208 40t-133.5 119t-46.5 196q0 118 46.5 196.5t133.5 118.5t208 40t208 -40t133.5 -118.5t46.5 -196.5q0 -117 -46.5 -196t-133.5 -119t-208 -40zM453 75q63 0 114.5 15t89.5 46.5t58.5 80t20.5 115.5v22q0 67 -20.5 116t-58.5 80t-89.5 46t-114.5 15
t-114.5 -15t-89.5 -46t-58.5 -80t-20.5 -116v-22q0 -67 20.5 -115.5t58.5 -80t89.5 -46.5t114.5 -15zM284 735l126 135h85l126 -135h-89l-103 111h45l-102 -111h-88zM394 902l101 132h114v-4l-131 -128h-84z" />
    <glyph glyph-name="uni1ED1" unicode="&#x1ed1;" horiz-adv-x="644" 
d="M322 -12q-89 0 -150 30.5t-92.5 91.5t-31.5 153q0 93 31.5 154t92.5 91t150 30t149.5 -30t92 -91t31.5 -154q0 -92 -31.5 -153t-92 -91.5t-149.5 -30.5zM322 64q55 0 94.5 20t60.5 62t21 107v21q0 66 -21 107t-60.5 61t-94.5 20t-95 -20t-61 -61t-21 -107v-21
q0 -65 21 -107t61 -62t95 -20zM155 589l126 135h81l126 -135h-87l-103 111l45 -1l-102 -110h-86zM248 775l102 132h111l1 -4l-132 -128h-82z" />
    <glyph glyph-name="uni1ED2" unicode="&#x1ed2;" horiz-adv-x="906" 
d="M453 -12q-121 0 -208 40t-133.5 119t-46.5 196q0 118 46.5 196.5t133.5 118.5t208 40t208 -40t133.5 -118.5t46.5 -196.5q0 -117 -46.5 -196t-133.5 -119t-208 -40zM453 75q63 0 114.5 15t89.5 46.5t58.5 80t20.5 115.5v22q0 67 -20.5 116t-58.5 80t-89.5 46t-114.5 15
t-114.5 -15t-89.5 -46t-58.5 -80t-20.5 -116v-22q0 -67 20.5 -115.5t58.5 -80t89.5 -46.5t114.5 -15zM284 735l126 135h85l126 -135h-89l-103 111h45l-102 -111h-88zM512 902h-84l-131 128v4h114z" />
    <glyph glyph-name="uni1ED3" unicode="&#x1ed3;" horiz-adv-x="644" 
d="M322 -12q-89 0 -150 30.5t-92.5 91.5t-31.5 153q0 93 31.5 154t92.5 91t150 30t149.5 -30t92 -91t31.5 -154q0 -92 -31.5 -153t-92 -91.5t-149.5 -30.5zM322 64q55 0 94.5 20t60.5 62t21 107v21q0 66 -21 107t-60.5 61t-94.5 20t-95 -20t-61 -61t-21 -107v-21
q0 -65 21 -107t61 -62t95 -20zM155 589l126 135h81l126 -135h-87l-103 111l45 -1l-102 -110h-86zM396 775h-82l-131 128v4h111z" />
    <glyph glyph-name="uni1ED4" unicode="&#x1ed4;" horiz-adv-x="906" 
d="M453 -12q-121 0 -208 40t-133.5 119t-46.5 196q0 118 46.5 196.5t133.5 118.5t208 40t208 -40t133.5 -118.5t46.5 -196.5q0 -117 -46.5 -196t-133.5 -119t-208 -40zM453 75q63 0 114.5 15t89.5 46.5t58.5 80t20.5 115.5v22q0 67 -20.5 116t-58.5 80t-89.5 46t-114.5 15
t-114.5 -15t-89.5 -46t-58.5 -80t-20.5 -116v-22q0 -67 20.5 -115.5t58.5 -80t89.5 -46.5t114.5 -15zM284 735l126 135h85l126 -135h-89l-103 111h45l-102 -111h-88zM424 900v62h11q27 0 36 3.5t9 12.5q0 13 -10 15.5t-30 2.5h-77v41q12 3 28.5 4.5t33.5 2.5t28 1
q18 0 37 -2.5t34 -9t24.5 -18.5t9.5 -30t-10 -30.5t-27 -19t-39 -8.5v-27h-58z" />
    <glyph glyph-name="uni1ED5" unicode="&#x1ed5;" horiz-adv-x="644" 
d="M322 -12q-89 0 -150 30.5t-92.5 91.5t-31.5 153q0 93 31.5 154t92.5 91t150 30t149.5 -30t92 -91t31.5 -154q0 -92 -31.5 -153t-92 -91.5t-149.5 -30.5zM322 64q55 0 94.5 20t60.5 62t21 107v21q0 66 -21 107t-60.5 61t-94.5 20t-95 -20t-61 -61t-21 -107v-21
q0 -65 21 -107t61 -62t95 -20zM155 589l126 135h81l126 -135h-87l-103 111l45 -1l-102 -110h-86zM293 775v62h11q28 0 37 3.5t9 11.5q0 13 -10 16t-30 3h-77v40q11 3 28 5t33.5 3t27.5 1q19 0 37.5 -2.5t34 -9.5t24.5 -18.5t9 -29.5t-9.5 -30.5t-26.5 -19t-39 -8.5v-27h-59z
" />
    <glyph glyph-name="uni1ED6" unicode="&#x1ed6;" horiz-adv-x="906" 
d="M453 -12q-121 0 -208 40t-133.5 119t-46.5 196q0 118 46.5 196.5t133.5 118.5t208 40t208 -40t133.5 -118.5t46.5 -196.5q0 -117 -46.5 -196t-133.5 -119t-208 -40zM453 75q63 0 114.5 15t89.5 46.5t58.5 80t20.5 115.5v22q0 67 -20.5 116t-58.5 80t-89.5 46t-114.5 15
t-114.5 -15t-89.5 -46t-58.5 -80t-20.5 -116v-22q0 -67 20.5 -115.5t58.5 -80t89.5 -46.5t114.5 -15zM284 735l126 135h85l126 -135h-89l-103 111h45l-102 -111h-88zM269 925q1 27 12 50t33.5 37.5t56.5 14.5q30 0 58 -8.5t55.5 -18t52.5 -9.5q19 0 28 11t12 25h60
q-1 -26 -13 -49.5t-34.5 -38t-56.5 -14.5q-28 0 -56.5 9.5t-56 18.5t-52.5 9q-19 0 -29 -11t-12 -26h-58z" />
    <glyph glyph-name="uni1ED7" unicode="&#x1ed7;" horiz-adv-x="644" 
d="M322 -12q-89 0 -150 30.5t-92.5 91.5t-31.5 153q0 93 31.5 154t92.5 91t150 30t149.5 -30t92 -91t31.5 -154q0 -92 -31.5 -153t-92 -91.5t-149.5 -30.5zM322 64q55 0 94.5 20t60.5 62t21 107v21q0 66 -21 107t-60.5 61t-94.5 20t-95 -20t-61 -61t-21 -107v-21
q0 -65 21 -107t61 -62t95 -20zM155 589l126 135h81l126 -135h-87l-103 111l45 -1l-102 -110h-86zM137 803q2 27 13 50t33 37.5t56 14.5q30 0 58.5 -9t55.5 -18t53 -9q19 0 28 10.5t12 25.5h59q-1 -26 -13 -49.5t-34.5 -38.5t-55.5 -15q-28 0 -57 9.5t-56 19t-52 9.5
q-20 0 -29.5 -11t-12.5 -26h-58z" />
    <glyph glyph-name="uni1ED8" unicode="&#x1ed8;" horiz-adv-x="906" 
d="M453 -12q-121 0 -208 40t-133.5 119t-46.5 196q0 118 46.5 196.5t133.5 118.5t208 40t208 -40t133.5 -118.5t46.5 -196.5q0 -117 -46.5 -196t-133.5 -119t-208 -40zM453 75q63 0 114.5 15t89.5 46.5t58.5 80t20.5 115.5v22q0 67 -20.5 116t-58.5 80t-89.5 46t-114.5 15
t-114.5 -15t-89.5 -46t-58.5 -80t-20.5 -116v-22q0 -67 20.5 -115.5t58.5 -80t89.5 -46.5t114.5 -15zM406 -184v95h99v-95h-99zM284 735l126 135h85l126 -135h-89l-103 111h45l-102 -111h-88z" />
    <glyph glyph-name="uni1ED9" unicode="&#x1ed9;" horiz-adv-x="644" 
d="M322 -12q-89 0 -150 30.5t-92.5 91.5t-31.5 153q0 93 31.5 154t92.5 91t150 30t149.5 -30t92 -91t31.5 -154q0 -92 -31.5 -153t-92 -91.5t-149.5 -30.5zM322 64q55 0 94.5 20t60.5 62t21 107v21q0 66 -21 107t-60.5 61t-94.5 20t-95 -20t-61 -61t-21 -107v-21
q0 -65 21 -107t61 -62t95 -20zM272 -184v95h99v-95h-99zM155 589l126 135h81l126 -135h-87l-103 111l45 -1l-102 -110h-86z" />
    <glyph glyph-name="uni1EDA" unicode="&#x1eda;" horiz-adv-x="906" 
d="M453 -12q-121 0 -208 40t-133.5 119t-46.5 196q0 118 46.5 196.5t133.5 118.5t208 40t208 -40t133.5 -118.5t46.5 -196.5q0 -117 -46.5 -196t-133.5 -119t-208 -40zM453 75q63 0 114.5 15t89.5 46.5t58.5 80t20.5 115.5v22q0 67 -20.5 116t-58.5 80t-89.5 46t-114.5 15
t-114.5 -15t-89.5 -46t-58.5 -80t-20.5 -116v-22q0 -67 20.5 -115.5t58.5 -80t89.5 -46.5t114.5 -15zM652 579v51q69 0 109 24.5t40 66.5h-55v104h120v-78q0 -53 -25.5 -90.5t-73.5 -57.5t-115 -20zM394 738l102 132h113l1 -3l-132 -129h-84z" />
    <glyph glyph-name="uni1EDB" unicode="&#x1edb;" horiz-adv-x="644" 
d="M322 -12q-89 0 -150 30.5t-92.5 91.5t-31.5 153q0 93 31.5 154t92.5 91t150 30t149.5 -30t92 -91t31.5 -154q0 -92 -31.5 -153t-92 -91.5t-149.5 -30.5zM322 64q55 0 94.5 20t60.5 62t21 107v21q0 66 -21 107t-60.5 61t-94.5 20t-95 -20t-61 -61t-21 -107v-21
q0 -65 21 -107t61 -62t95 -20zM460 439v52q60 4 96 27.5t41 63.5h-56v104h121v-65q0 -53 -23 -92.5t-68 -62.5t-111 -27zM248 591l102 132h111l1 -3l-132 -129h-82z" />
    <glyph glyph-name="uni1EDC" unicode="&#x1edc;" horiz-adv-x="906" 
d="M453 -12q-121 0 -208 40t-133.5 119t-46.5 196q0 118 46.5 196.5t133.5 118.5t208 40t208 -40t133.5 -118.5t46.5 -196.5q0 -117 -46.5 -196t-133.5 -119t-208 -40zM453 75q63 0 114.5 15t89.5 46.5t58.5 80t20.5 115.5v22q0 67 -20.5 116t-58.5 80t-89.5 46t-114.5 15
t-114.5 -15t-89.5 -46t-58.5 -80t-20.5 -116v-22q0 -67 20.5 -115.5t58.5 -80t89.5 -46.5t114.5 -15zM652 579v51q69 0 109 24.5t40 66.5h-55v104h120v-78q0 -53 -25.5 -90.5t-73.5 -57.5t-115 -20zM513 738h-85l-131 129l1 3h113z" />
    <glyph glyph-name="uni1EDD" unicode="&#x1edd;" horiz-adv-x="644" 
d="M322 -12q-89 0 -150 30.5t-92.5 91.5t-31.5 153q0 93 31.5 154t92.5 91t150 30t149.5 -30t92 -91t31.5 -154q0 -92 -31.5 -153t-92 -91.5t-149.5 -30.5zM322 64q55 0 94.5 20t60.5 62t21 107v21q0 66 -21 107t-60.5 61t-94.5 20t-95 -20t-61 -61t-21 -107v-21
q0 -65 21 -107t61 -62t95 -20zM460 439v52q60 4 96 27.5t41 63.5h-56v104h121v-65q0 -53 -23 -92.5t-68 -62.5t-111 -27zM396 591h-82l-131 129v3h111z" />
    <glyph glyph-name="uni1EDE" unicode="&#x1ede;" horiz-adv-x="906" 
d="M453 -12q-120 0 -207.5 40t-134 119t-46.5 196q0 118 46.5 196.5t134 118.5t207.5 40q121 0 208 -40t133.5 -118.5t46.5 -196.5q0 -117 -46.5 -196t-133.5 -119t-208 -40zM453 75q63 0 114.5 15t89.5 46.5t58.5 80t20.5 115.5v22q0 67 -20.5 116t-58.5 80t-89.5 46
t-114.5 15t-114.5 -15t-89.5 -46t-58.5 -80t-20.5 -116v-22q0 -67 20.5 -115.5t58.5 -80t89.5 -46.5t114.5 -15zM652 579v51q69 0 109 24.5t40 66.5h-55v104h120v-78q0 -53 -25.5 -90.5t-74 -57.5t-114.5 -20zM424 736v62h11q28 0 37 3.5t9 12.5q0 13 -10 15.5t-30 2.5h-77
v41q11 3 28 4.5t33.5 3t27.5 1.5q19 0 37.5 -3t34 -9.5t24.5 -18t9 -30.5q0 -17 -9.5 -29.5t-26.5 -19.5t-39 -8v-28h-59z" />
    <glyph glyph-name="uni1EDF" unicode="&#x1edf;" horiz-adv-x="644" 
d="M322 -12q-89 0 -150 30.5t-92.5 91.5t-31.5 153q0 93 31.5 154t92.5 91t150 30t149.5 -30t92 -91t31.5 -154q0 -92 -31.5 -153t-92 -91.5t-149.5 -30.5zM322 64q55 0 94.5 20t60.5 62t21 107v21q0 66 -21 107t-60.5 61t-94.5 20t-95 -20t-61 -61t-21 -107v-21
q0 -65 21 -107t61 -62t95 -20zM460 439v52q60 4 96 27.5t41 63.5h-56v104h121v-65q0 -53 -23 -92.5t-68 -62.5t-111 -27zM293 591v62h11q28 0 37 3.5t9 12.5q0 13 -10 15.5t-30 2.5h-77v41q11 3 28 4.5t33.5 2.5t27.5 1q19 0 37.5 -2.5t34 -9t24.5 -18.5t9 -30t-9.5 -30.5
t-26.5 -19t-39 -8.5v-27h-59z" />
    <glyph glyph-name="uni1EE0" unicode="&#x1ee0;" horiz-adv-x="906" 
d="M453 -12q-121 0 -208 40t-133.5 119t-46.5 196q0 118 46.5 196.5t133.5 118.5t208 40t208 -40t133.5 -118.5t46.5 -196.5q0 -117 -46.5 -196t-133.5 -119t-208 -40zM453 75q63 0 114.5 15t89.5 46.5t58.5 80t20.5 115.5v22q0 67 -20.5 116t-58.5 80t-89.5 46t-114.5 15
t-114.5 -15t-89.5 -46t-58.5 -80t-20.5 -116v-22q0 -67 20.5 -115.5t58.5 -80t89.5 -46.5t114.5 -15zM652 579v51q69 0 109 24.5t40 66.5h-55v104h120v-78q0 -53 -25.5 -90.5t-73.5 -57.5t-115 -20zM269 762q2 26 13 49.5t33 38t56 14.5q30 0 58.5 -9t55.5 -18.5t53 -9.5
q19 0 28 11t12 25h59q-1 -26 -13 -49.5t-34.5 -38t-56.5 -14.5q-27 0 -56 9.5t-56 18.5t-52 9q-20 0 -29.5 -10.5t-12.5 -25.5h-58z" />
    <glyph glyph-name="uni1EE1" unicode="&#x1ee1;" horiz-adv-x="644" 
d="M322 -12q-89 0 -150 30.5t-92.5 91.5t-31.5 153q0 93 31.5 154t92.5 91t150 30t149.5 -30t92 -91t31.5 -154q0 -92 -31.5 -153t-92 -91.5t-149.5 -30.5zM322 64q55 0 94.5 20t60.5 62t21 107v21q0 66 -21 107t-60.5 61t-94.5 20t-95 -20t-61 -61t-21 -107v-21
q0 -65 21 -107t61 -62t95 -20zM460 439v52q60 4 96 27.5t41 63.5h-56v104h121v-65q0 -53 -23 -92.5t-68 -62.5t-111 -27zM148 620q1 26 11.5 49t31.5 37.5t53 14.5q28 0 55 -8.5t52.5 -18t49.5 -9.5q18 0 26 11t12 25h56q-1 -26 -12.5 -49.5t-32.5 -38t-53 -14.5
q-26 0 -53 9.5t-52.5 18.5t-49.5 9q-18 0 -27.5 -11t-11.5 -25h-55z" />
    <glyph glyph-name="uni1EE2" unicode="&#x1ee2;" horiz-adv-x="906" 
d="M453 -12q-120 0 -207.5 40t-134 119t-46.5 196q0 118 46.5 196.5t134 118.5t207.5 40q121 0 208 -40t133.5 -118.5t46.5 -196.5q0 -117 -46.5 -196t-133.5 -119t-208 -40zM453 75q63 0 114.5 15t89.5 46.5t58.5 80t20.5 115.5v22q0 67 -20.5 116t-58.5 80t-89.5 46
t-114.5 15t-114.5 -15t-89.5 -46t-58.5 -80t-20.5 -116v-22q0 -67 20.5 -115.5t58.5 -80t89.5 -46.5t114.5 -15zM652 579v51q69 0 109 24.5t40 66.5h-55v104h120v-78q0 -53 -25.5 -90.5t-74 -57.5t-114.5 -20zM404 -184v95h98v-95h-98z" />
    <glyph glyph-name="uni1EE3" unicode="&#x1ee3;" horiz-adv-x="644" 
d="M322 -12q-89 0 -150 30.5t-92.5 91.5t-31.5 153q0 93 31.5 154t92.5 91t150 30t149.5 -30t92 -91t31.5 -154q0 -92 -31.5 -153t-92 -91.5t-149.5 -30.5zM322 64q55 0 94.5 20t60.5 62t21 107v21q0 66 -21 107t-60.5 61t-94.5 20t-95 -20t-61 -61t-21 -107v-21
q0 -65 21 -107t61 -62t95 -20zM460 439v52q60 4 96 27.5t41 63.5h-56v104h121v-65q0 -53 -23 -92.5t-68 -62.5t-111 -27zM272 -184v95h99v-95h-99z" />
    <glyph glyph-name="uni1EE4" unicode="&#x1ee4;" horiz-adv-x="828" 
d="M413 -12q-106 0 -177.5 33t-107.5 99t-36 162v404h102v-409q0 -99 57 -150.5t162 -51.5t163 51.5t58 150.5v409h102v-404q0 -96 -36.5 -162t-108.5 -99t-178 -33zM364 -184v95h98v-95h-98z" />
    <glyph glyph-name="uni1EE5" unicode="&#x1ee5;" horiz-adv-x="623" 
d="M259 -12q-90 0 -141 43.5t-51 145.5v349h93v-334q0 -38 9.5 -62t27 -37.5t41.5 -18.5t52 -5q43 0 81 19t62 54.5t24 83.5v300h93v-526h-74l-8 86h-8q-25 -37 -57.5 -58.5t-69 -30.5t-74.5 -9zM262 -184v95h99v-95h-99z" />
    <glyph glyph-name="uni1EE6" unicode="&#x1ee6;" horiz-adv-x="828" 
d="M413 -12q-106 0 -177.5 33t-107.5 99t-36 162v404h102v-409q0 -99 57 -150.5t162 -51.5t163 51.5t58 150.5v409h102v-404q0 -96 -36.5 -162t-108.5 -99t-178 -33zM385 736v62h11q27 0 36 3.5t9 12.5q0 13 -10 15.5t-30 2.5h-77v41q12 3 28.5 5t33.5 3t28 1q18 0 37 -3
t34 -9.5t24.5 -18t9.5 -30.5q0 -17 -10 -29.5t-27 -19.5t-39 -8v-28h-58z" />
    <glyph glyph-name="uni1EE7" unicode="&#x1ee7;" horiz-adv-x="623" 
d="M259 -12q-90 0 -141 43.5t-51 145.5v349h93v-334q0 -38 9.5 -62t27 -37.5t41.5 -18.5t52 -5q43 0 81 19t62 54.5t24 83.5v300h93v-526h-74l-8 86h-8q-25 -37 -57.5 -58.5t-69 -30.5t-74.5 -9zM283 591v62h11q28 0 37 3.5t9 12.5q0 13 -10 15.5t-30 2.5h-77v41
q11 3 28 4.5t33.5 2.5t27.5 1q18 0 37 -2.5t34 -9t24.5 -18.5t9.5 -30t-10 -30.5t-27 -19t-39 -8.5v-27h-58z" />
    <glyph glyph-name="uni1EE8" unicode="&#x1ee8;" horiz-adv-x="828" 
d="M413 -12q-106 0 -177.5 33t-107.5 99t-36 162v404h102v-409q0 -99 57 -150.5t162 -51.5t163 51.5t58 150.5v409h102v-404q0 -96 -36.5 -162t-108.5 -99t-178 -33zM647 634v52q69 0 109 24.5t40 66.5h-55v104h120v-79q0 -52 -25.5 -89.5t-73.5 -58t-115 -20.5zM355 738
l101 132h114v-3l-131 -129h-84z" />
    <glyph glyph-name="uni1EE9" unicode="&#x1ee9;" horiz-adv-x="623" 
d="M259 -12q-90 0 -141 43.5t-51 145.5v349h93v-334q0 -38 9.5 -62t27 -37.5t41.5 -18.5t52 -5q43 0 81 19t62 54.5t24 83.5v300h93v-526h-74l-8 86h-8q-25 -37 -57.5 -58.5t-69 -30.5t-74.5 -9zM467 474v52q60 4 96 27.5t42 63.5h-56v104h121v-65q0 -53 -23 -92.5
t-68.5 -62.5t-111.5 -27zM238 591l102 132h111v-3l-131 -129h-82z" />
    <glyph glyph-name="uni1EEA" unicode="&#x1eea;" horiz-adv-x="828" 
d="M413 -12q-106 0 -177.5 33t-107.5 99t-36 162v404h102v-409q0 -99 57 -150.5t162 -51.5t163 51.5t58 150.5v409h102v-404q0 -96 -36.5 -162t-108.5 -99t-178 -33zM647 634v52q69 0 109 24.5t40 66.5h-55v104h120v-79q0 -52 -25.5 -89.5t-73.5 -58t-115 -20.5zM473 738
h-84l-131 129v3h114z" />
    <glyph glyph-name="uni1EEB" unicode="&#x1eeb;" horiz-adv-x="623" 
d="M259 -12q-90 0 -141 43.5t-51 145.5v349h93v-334q0 -38 9.5 -62t27 -37.5t41.5 -18.5t52 -5q43 0 81 19t62 54.5t24 83.5v300h93v-526h-74l-8 86h-8q-25 -37 -57.5 -58.5t-69 -30.5t-74.5 -9zM467 474v52q60 4 96 27.5t42 63.5h-56v104h121v-65q0 -53 -23 -92.5
t-68.5 -62.5t-111.5 -27zM386 591h-82l-132 129l1 3h111z" />
    <glyph glyph-name="uni1EEC" unicode="&#x1eec;" horiz-adv-x="828" 
d="M413 -12q-106 0 -177.5 33t-107.5 99t-36 162v404h102v-409q0 -99 57 -150.5t162 -51.5t163 51.5t58 150.5v409h102v-404q0 -96 -36.5 -162t-108.5 -99t-178 -33zM647 634v52q69 0 109 24.5t40 66.5h-55v104h120v-79q0 -52 -25.5 -89.5t-73.5 -58t-115 -20.5zM385 736v62
h11q27 0 36 3.5t9 12.5q0 13 -10 15.5t-30 2.5h-77v41q12 3 28.5 5t33.5 3t28 1q18 0 37 -3t34 -9.5t24.5 -18t9.5 -30.5q0 -17 -10 -29.5t-27 -19.5t-39 -8v-28h-58z" />
    <glyph glyph-name="uni1EED" unicode="&#x1eed;" horiz-adv-x="623" 
d="M259 -12q-90 0 -141 43.5t-51 145.5v349h93v-334q0 -38 9.5 -62t27 -37.5t41.5 -18.5t52 -5q43 0 81 19t62 54.5t24 83.5v300h93v-526h-74l-8 86h-8q-25 -37 -57.5 -58.5t-69 -30.5t-74.5 -9zM467 474v52q60 4 96 27.5t42 63.5h-56v104h121v-65q0 -53 -23 -92.5
t-68.5 -62.5t-111.5 -27zM283 591v62h11q28 0 37 3.5t9 12.5q0 13 -10 15.5t-30 2.5h-77v41q11 3 28 4.5t33.5 2.5t27.5 1q18 0 37 -2.5t34 -9t24.5 -18.5t9.5 -30t-10 -30.5t-27 -19t-39 -8.5v-27h-58z" />
    <glyph glyph-name="uni1EEE" unicode="&#x1eee;" horiz-adv-x="828" 
d="M413 -12q-106 0 -177.5 33t-107.5 99t-36 162v404h102v-409q0 -99 57 -150.5t162 -51.5t163 51.5t58 150.5v409h102v-404q0 -96 -36.5 -162t-108.5 -99t-178 -33zM647 634v52q69 0 109 24.5t40 66.5h-55v104h120v-79q0 -52 -25.5 -89.5t-73.5 -58t-115 -20.5zM230 762
q1 26 12 49.5t33.5 38t56.5 14.5q30 0 58 -9t55.5 -18.5t52.5 -9.5q19 0 28 11t12 25h60q-1 -26 -13 -49.5t-34.5 -38t-56.5 -14.5q-28 0 -56.5 9.5t-56 18.5t-52.5 9q-19 0 -29 -10.5t-12 -25.5h-58z" />
    <glyph glyph-name="uni1EEF" unicode="&#x1eef;" horiz-adv-x="623" 
d="M259 -12q-90 0 -141 43.5t-51 145.5v349h93v-334q0 -38 9.5 -62t27 -37.5t41.5 -18.5t52 -5q43 0 81 19t62 54.5t24 83.5v300h93v-526h-74l-8 86h-8q-25 -37 -57.5 -58.5t-69 -30.5t-74.5 -9zM467 474v52q60 4 96 27.5t42 63.5h-56v104h121v-65q0 -53 -23 -92.5
t-68.5 -62.5t-111.5 -27zM146 620q1 26 11 49t30 37.5t51 14.5q26 0 51.5 -8.5t50.5 -18t48 -9.5q16 0 24 11t11 25h54q-1 -26 -12 -49.5t-31 -38t-50 -14.5q-26 0 -51.5 9.5t-50 18.5t-46.5 9q-18 0 -27 -11t-11 -25h-52z" />
    <glyph glyph-name="uni1EF0" unicode="&#x1ef0;" horiz-adv-x="828" 
d="M413 -12q-106 0 -177.5 33t-107.5 99t-36 162v404h102v-409q0 -99 57 -150.5t162 -51.5t163 51.5t58 150.5v409h102v-404q0 -96 -36.5 -162t-108.5 -99t-178 -33zM647 634v52q69 0 109 24.5t40 66.5h-55v104h120v-79q0 -52 -25.5 -89.5t-73.5 -58t-115 -20.5zM364 -184
v95h98v-95h-98z" />
    <glyph glyph-name="uni1EF1" unicode="&#x1ef1;" horiz-adv-x="623" 
d="M259 -12q-90 0 -141 43.5t-51 145.5v349h93v-334q0 -38 9.5 -62t27 -37.5t41.5 -18.5t52 -5q43 0 81 19t62 54.5t24 83.5v300h93v-526h-74l-8 86h-8q-25 -37 -57.5 -58.5t-69 -30.5t-74.5 -9zM467 474v52q60 4 96 27.5t42 63.5h-56v104h121v-65q0 -53 -23 -92.5
t-68.5 -62.5t-111.5 -27zM262 -184v95h99v-95h-99z" />
    <glyph glyph-name="Ygrave" unicode="&#x1ef2;" horiz-adv-x="740" 
d="M319 0v284l-306 402h121l235 -315h8l235 315h115l-306 -402v-284h-102zM431 738h-84l-132 129l1 3h113z" />
    <glyph glyph-name="ygrave" unicode="&#x1ef3;" horiz-adv-x="556" 
d="M121 -186q-24 0 -42.5 3t-31.5 7v65h51q37 0 63.5 10.5t45.5 35t35 65.5l-232 526h100l117 -272q9 -18 19.5 -46.5t22 -58t20.5 -51.5h6q4 12 10.5 32t14.5 43t16.5 45t14.5 39l99 269h96l-199 -509q-20 -48 -40 -86t-45 -64t-59 -39.5t-82 -13.5zM357 591h-82l-131 129
v3h112z" />
    <glyph glyph-name="uni1EF4" unicode="&#x1ef4;" horiz-adv-x="740" 
d="M319 0v284l-306 402h121l235 -315h8l235 315h115l-306 -402v-284h-102zM321 -184v95h99v-95h-99z" />
    <glyph glyph-name="uni1EF5" unicode="&#x1ef5;" horiz-adv-x="556" 
d="M121 -186q-24 0 -42.5 3t-31.5 7v65h51q37 0 63.5 10.5t45.5 35t35 65.5l-232 526h100l117 -272q9 -18 19.5 -46.5t22 -58t20.5 -51.5h6q4 12 10.5 32t14.5 43t16.5 45t14.5 39l99 269h96l-199 -509q-20 -48 -40 -86t-45 -64t-59 -39.5t-82 -13.5zM380 -184v95h99v-95
h-99z" />
    <glyph glyph-name="uni1EF6" unicode="&#x1ef6;" horiz-adv-x="740" 
d="M319 0v284l-306 402h121l235 -315h8l235 315h115l-306 -402v-284h-102zM343 736v62h10q28 0 37 3.5t9 12.5q0 13 -10 15.5t-30 2.5h-77v41q12 3 28.5 5t33 3t27.5 1q19 0 37.5 -3t34 -9.5t25 -18t9.5 -30.5q0 -17 -10 -29.5t-27 -19.5t-39 -8v-28h-58z" />
    <glyph glyph-name="uni1EF7" unicode="&#x1ef7;" horiz-adv-x="556" 
d="M121 -186q-24 0 -42.5 3t-31.5 7v65h51q37 0 63.5 10.5t45.5 35t35 65.5l-232 526h100l117 -272q9 -18 19.5 -46.5t22 -58t20.5 -51.5h6q4 12 10.5 32t14.5 43t16.5 45t14.5 39l99 269h96l-199 -509q-20 -48 -40 -86t-45 -64t-59 -39.5t-82 -13.5zM255 591v62h11
q27 0 36 3.5t9 12.5q0 13 -10 15.5t-30 2.5h-77v41q12 3 28.5 4.5t33 2.5t28.5 1q18 0 36.5 -2.5t34 -9t25 -18.5t9.5 -30t-10 -30.5t-27 -19t-39 -8.5v-27h-58z" />
    <glyph glyph-name="uni1EF8" unicode="&#x1ef8;" horiz-adv-x="740" 
d="M319 0v284l-306 402h121l235 -315h8l235 315h115l-306 -402v-284h-102zM187 762q2 26 13 49.5t33 38t56 14.5q30 0 58.5 -9t55.5 -18.5t53 -9.5q19 0 28 11t12 25h59q-1 -26 -13 -49.5t-34.5 -38t-55.5 -14.5q-28 0 -57 9.5t-56 18.5t-52 9q-20 0 -29.5 -10.5
t-12.5 -25.5h-58z" />
    <glyph glyph-name="uni1EF9" unicode="&#x1ef9;" horiz-adv-x="556" 
d="M121 -186q-24 0 -42.5 3t-31.5 7v65h51q37 0 63.5 10.5t45.5 35t35 65.5l-232 526h100l117 -272q9 -18 19.5 -46.5t22 -58t20.5 -51.5h6q4 12 10.5 32t14.5 43t16.5 45t14.5 39l99 269h96l-199 -509q-20 -48 -40 -86t-45 -64t-59 -39.5t-82 -13.5zM99 620q1 26 12 49
t33.5 37.5t56.5 14.5q30 0 58 -8.5t55.5 -18t52.5 -9.5q19 0 28 11t12 25h60q-1 -26 -13 -49.5t-34.5 -38t-56.5 -14.5q-28 0 -56.5 9.5t-56 18.5t-52.5 9q-19 0 -29 -11t-12 -25h-58z" />
    <glyph glyph-name="uni2009" unicode="&#x2009;" horiz-adv-x="193" 
 />
    <glyph glyph-name="uni2010" unicode="&#x2010;" horiz-adv-x="600" 
d="M51 228v87h242v-87h-242z" />
    <glyph glyph-name="uni2011" unicode="&#x2011;" horiz-adv-x="375" 
d="M45 224v95h285v-95h-285z" />
    <glyph glyph-name="endash" unicode="&#x2013;" horiz-adv-x="563" 
d="M0 232v76h563v-76h-563z" />
    <glyph glyph-name="emdash" unicode="&#x2014;" horiz-adv-x="1125" 
d="M0 232v76h1125v-76h-1125z" />
    <glyph glyph-name="uni2015" unicode="&#x2015;" horiz-adv-x="932" 
d="M22 234v71h889v-71h-889z" />
    <glyph glyph-name="underscoredbl" unicode="&#x2017;" horiz-adv-x="544" 
d="M0 -129v65h544v-65h-544zM0 -252v66h544v-66h-544z" />
    <glyph glyph-name="quoteleft" unicode="&#x2018;" horiz-adv-x="252" 
d="M189 686v-45q-19 -4 -32 -18t-19.5 -36t-6.5 -50h47v-110h-106v97q0 61 18.5 94.5t45.5 49t53 18.5z" />
    <glyph glyph-name="quoteright" unicode="&#x2019;" horiz-adv-x="252" 
d="M62 427v45q20 4 33 18.5t19.5 36t6.5 49.5h-47v110h106v-97q0 -60 -19 -94t-46 -49t-53 -19z" />
    <glyph glyph-name="quotesinglbase" unicode="&#x201a;" horiz-adv-x="252" 
d="M62 -149v45q20 4 33 18t19.5 36t6.5 50h-47v110h106v-97q0 -60 -19 -94t-46 -49t-53 -19z" />
    <glyph glyph-name="quotedblleft" unicode="&#x201c;" horiz-adv-x="421" 
d="M359 686v-45q-19 -4 -32.5 -18t-20 -36t-6.5 -50h47v-110h-105v97q0 61 18.5 94.5t45.5 49t53 18.5zM189 686v-45q-19 -4 -32 -18t-19.5 -36t-6.5 -50h47v-110h-106v97q0 61 18.5 94.5t45.5 49t53 18.5z" />
    <glyph glyph-name="quotedblright" unicode="&#x201d;" horiz-adv-x="421" 
d="M62 427v45q20 4 33 18.5t19.5 36t6.5 49.5h-47v110h106v-97q0 -60 -19 -94t-46 -49t-53 -19zM232 427v45q19 4 32 18.5t19.5 36t6.5 49.5h-47v110h106v-97q0 -60 -18.5 -94t-45.5 -49t-53 -19z" />
    <glyph glyph-name="quotedblbase" unicode="&#x201e;" horiz-adv-x="421" 
d="M62 -149v45q20 4 33 18t19.5 36t6.5 50h-47v110h106v-97q0 -60 -19 -94t-46 -49t-53 -19zM232 -149v45q19 4 32 18t19.5 36t6.5 50h-47v110h106v-97q0 -60 -18.5 -94t-45.5 -49t-53 -19z" />
    <glyph glyph-name="dagger" unicode="&#x2020;" horiz-adv-x="646" 
d="M276 -171l17 595l-232 -18v98l232 -17l-17 199h94l-17 -199l233 17v-98l-233 18l18 -595h-95z" />
    <glyph glyph-name="daggerdbl" unicode="&#x2021;" horiz-adv-x="646" 
d="M276 -175l17 200l-232 -17v98l232 -18l-18 169l18 166l-232 -18v99l232 -17l-17 199h94l-17 -199l233 17v-99l-233 18l19 -166l-19 -169l233 18v-98l-233 17l17 -200h-94z" />
    <glyph glyph-name="bullet" unicode="&#x2022;" horiz-adv-x="391" 
d="M195 218q-36 0 -64 16t-44 44.5t-16 64.5q0 37 16 65.5t44 45t64 16.5q37 0 65 -16t44 -45t16 -66q0 -36 -16 -64.5t-44 -44.5t-65 -16z" />
    <glyph glyph-name="ellipsis" unicode="&#x2026;" horiz-adv-x="835" 
d="M84 0v113h110v-113h-110zM362 0v113h110v-113h-110zM640 0v113h111v-113h-111z" />
    <glyph glyph-name="perthousand" unicode="&#x2030;" horiz-adv-x="1177" 
d="M183 0l376 686h66l-377 -686h-65zM204 338q-51 0 -86.5 18.5t-53.5 58t-18 103.5t18 103.5t53.5 58t86.5 18.5q50 0 85 -18.5t53.5 -58t18.5 -103.5t-18.5 -104t-53.5 -58t-85 -18zM204 396q48 0 65.5 31.5t17.5 85.5v11q0 35 -7.5 61.5t-25.5 40.5t-50 14
q-48 0 -66 -31.5t-18 -84.5v-11q0 -54 18 -85.5t66 -31.5zM599 -12q-50 0 -85 18.5t-53.5 58t-18.5 103.5q0 65 18.5 104.5t53.5 57.5t85 18q51 0 86 -18t53.5 -57.5t18.5 -104.5q0 -64 -18.5 -103.5t-53.5 -58t-86 -18.5zM599 46q49 0 66.5 32t17.5 85v11q0 36 -7 62
t-25.5 40t-51.5 14q-47 0 -65 -31.5t-18 -84.5v-11q0 -53 18 -85t65 -32zM959 -12q-50 0 -85.5 18.5t-53.5 58t-18 103.5q0 65 18 104.5t53.5 57.5t85.5 18q51 0 86 -18t53.5 -57.5t18.5 -104.5q0 -64 -18.5 -103.5t-53.5 -58t-86 -18.5zM959 46q49 0 66.5 32t17.5 85v11
q0 36 -7 62t-25.5 40t-51.5 14q-47 0 -65 -31.5t-18 -84.5v-11q0 -53 18 -85t65 -32z" />
    <glyph glyph-name="minute" unicode="&#x2032;" horiz-adv-x="155" 
d="M38 520l19 176h95l1 -3l-57 -173h-58z" />
    <glyph glyph-name="second" unicode="&#x2033;" horiz-adv-x="308" 
d="M38 520l19 176h95l1 -3l-57 -173h-58zM191 520l18 176h96l1 -3l-57 -173h-58z" />
    <glyph glyph-name="guilsinglleft" unicode="&#x2039;" horiz-adv-x="357" 
d="M232 125l-185 201l185 200h77l-154 -200l154 -201h-77z" />
    <glyph glyph-name="guilsinglright" unicode="&#x203a;" horiz-adv-x="357" 
d="M125 527l185 -201l-185 -200h-77l154 200l-154 201h77z" />
    <glyph glyph-name="uni203E" unicode="&#x203e;" horiz-adv-x="378" 
d="M-11 787v48h401v-48h-401z" />
    <glyph glyph-name="fraction" unicode="&#x2044;" horiz-adv-x="167" 
d="M-212 -12l527 710h65l-527 -710h-65z" />
    <glyph glyph-name="uni2052" unicode="&#x2052;" horiz-adv-x="399" 
d="M61 -29l207 784h69l-206 -784h-70zM226 29v115h104v-115h-104zM68 570v115h104v-115h-104z" />
    <glyph glyph-name="uni2070" unicode="&#x2070;" horiz-adv-x="378" 
d="M189 428q-49 0 -83 18t-52 59t-18 108q0 68 18 108.5t52 58.5t83 18q48 0 82.5 -18t52.5 -58.5t18 -108.5q0 -67 -18 -108t-52.5 -59t-82.5 -18zM189 484q47 0 66.5 29t19.5 89v23q0 60 -19.5 89t-66.5 29q-48 0 -67.5 -29t-19.5 -89v-23q0 -59 19.5 -88.5t67.5 -29.5z
" />
    <glyph glyph-name="uni2074" unicode="&#x2074;" horiz-adv-x="378" 
d="M229 440v79h-193v50q36 52 64 109t45 120h69q-8 -32 -22 -65t-30 -64t-32 -56t-28 -40h127v101q6 10 10.5 22.5t9.5 25.5t8 24h36v-173h56v-54h-56v-79h-64z" />
    <glyph glyph-name="uni2075" unicode="&#x2075;" horiz-adv-x="378" 
d="M195 428q-67 0 -109 31.5t-44 87.5h63q1 -21 13.5 -35t32.5 -21.5t42 -7.5q38 0 62 17t24 55q0 35 -22.5 50.5t-58.5 15.5q-27 0 -48.5 -8t-34.5 -24l-59 10l18 188h247v-57h-193l-10 -84q12 8 36 17.5t56 9.5q38 0 68 -12t48 -37.5t18 -66.5q0 -62 -39.5 -95.5
t-109.5 -33.5z" />
    </font>
</defs>
</svg>
