<?xml version="1.0" standalone="no"?>
<!DOCTYPE svg PUBLIC "-//W3C//DTD SVG 1.1//EN" "http://www.w3.org/Graphics/SVG/1.1/DTD/svg11.dtd" >
<svg xmlns="http://www.w3.org/2000/svg" xmlns:xlink="http://www.w3.org/1999/xlink" version="1.1">
<metadata>
Created by FontForge 20201107 at Tue Apr 18 09:20:10 2017
 By 
Copyright (c) 2015 by Connary Fagen. All rights reserved.
</metadata>
<defs>
<font id="" horiz-adv-x="0" >
  <font-face 
    font-family=""
    font-weight="700"
    font-stretch="normal"
    units-per-em="2048"
    panose-1="0 0 8 0 0 0 0 0 0 0"
    ascent="1638"
    descent="-410"
    x-height="1036"
    cap-height="1272"
    bbox="-903 -688.5 2298.48 1732.02"
    underline-thickness="0"
    underline-position="0"
    unicode-range="U+0020-FB02"
  />
<missing-glyph horiz-adv-x="1054" 
d="M864 1638v-2109h-667v2109h667zM702 1497h-348v-70h138v-77h-140v-70h350v70h-139v77h139v70zM563 1225h-211v-219h350v71h-139v148zM492 1153v-76h-70v76h70zM702 948h-350v-69h140v-78h-140v-70h211v148h139v69zM702 821h-69v-139h-281v-72h350v211zM702 565h-210v-119
h71v50h70v-101h-211v170h-70v-239h350v239zM702 201h-350v-240h350v240zM633 131v-100h-211v100h211zM702 -88h-350v-70h148l-148 -98v-70h350v70h-215l148 98h67v70z" />
    <glyph glyph-name="uniFB01" unicode="fi" horiz-adv-x="1544" 
d="M811 1393q-125 0 -170 -297l-10 -72h213q20 0 16 -18l-10 -64q-4 -14 -16 -14h-218l-86 -592q-27 -188 -84 -333.5t-123.5 -228.5t-147.5 -135.5t-146.5 -70t-130.5 -17.5q-109 0 -175.5 49.5t-66.5 125.5q0 53 32.5 84.5t82.5 31.5q45 0 75.5 -32.5t45 -70.5t41 -71
t63.5 -33q150 0 199 359l116 850q8 57 15 84h-183q-20 0 -16 20l10 62q4 14 17 14h196q41 135 110.5 230.5t153.5 139.5t154 61.5t141 17.5q119 0 187.5 -46.5t68.5 -115.5q0 -53 -36.5 -88t-88.5 -35q-43 0 -75.5 31.5t-50 70.5t-44 71t-59.5 32zM1458 246q23 -23 -2 -51
q-178 -209 -373 -209q-72 0 -106.5 42t-20.5 117l127 668q6 45 -34 45q-43 0 -125 -82q-25 -27 -52 0q-18 18 11 53q186 215 385 215q150 0 116 -176l-122 -639q-6 -27 6 -39t32 -12q49 0 115 66q20 20 43 2z" />
    <glyph glyph-name="uniFB02" unicode="fl" horiz-adv-x="1501" 
d="M1415 246q23 -23 -2 -51q-178 -209 -375 -209q-70 0 -104.5 41t-20.5 118l131 756q74 465 -159 465q-201 0 -246 -297l-6 -45h196q18 0 17 -18l-10 -64q-4 -14 -17 -14h-201l-88 -592q-27 -188 -84 -333.5t-122.5 -228.5t-146.5 -135.5t-147.5 -70t-133.5 -17.5
q-104 0 -173 49.5t-67 120.5q2 55 33.5 88t81.5 33q45 0 75.5 -32.5t45 -70.5t41 -71t63.5 -33q150 0 199 359l114 823q12 72 21 111h-187q-20 0 -16 20l10 62q4 14 17 14h202q35 104 90.5 183t113.5 124t129 73t128 37t119 9q55 0 104.5 -9t103.5 -32t91 -62.5t68.5 -100
t34.5 -145.5t-11 -200l-110 -672q-8 -51 38 -51q51 0 117 66q20 20 43 2z" />
    <glyph glyph-name=".notdef" horiz-adv-x="1054" 
d="M864 1638v-2109h-667v2109h667zM702 1497h-348v-70h138v-77h-140v-70h350v70h-139v77h139v70zM563 1225h-211v-219h350v71h-139v148zM492 1153v-76h-70v76h70zM702 948h-350v-69h140v-78h-140v-70h211v148h139v69zM702 821h-69v-139h-281v-72h350v211zM702 565h-210v-119
h71v50h70v-101h-211v170h-70v-239h350v239zM702 201h-350v-240h350v240zM633 131v-100h-211v100h211zM702 -88h-350v-70h148l-148 -98v-70h350v70h-215l148 98h67v70z" />
    <glyph glyph-name="glyph1" 
 />
    <glyph glyph-name="glyph2" horiz-adv-x="681" 
 />
    <glyph glyph-name="space" unicode=" " horiz-adv-x="450" 
 />
    <glyph glyph-name="exclam" unicode="!" horiz-adv-x="528" 
d="M207 444q20 190 11 298t-22.5 215.5t-7.5 160.5q14 86 75 136.5t124 50.5q59 0 104.5 -50.5t30.5 -136.5q-6 -53 -89 -265t-114 -409h-112zM190 -20q-53 0 -90 39.5t-37 97.5q0 70 53.5 124t121.5 54q53 0 90 -40t37 -97q0 -70 -53.5 -124t-121.5 -54z" />
    <glyph glyph-name="quotedbl" unicode="&#x22;" horiz-adv-x="784" 
d="M193 893l-27 252q-4 74 42 117t109 43q59 0 91 -43t8 -117l-99 -252q-14 -57 -65 -57q-27 0 -43 16t-16 41zM541 893l-27 252q-4 74 42 117t110 43q59 0 90.5 -43t7.5 -117l-98 -252q-14 -57 -66 -57q-27 0 -43 16t-16 41z" />
    <glyph glyph-name="numbersign" unicode="#" horiz-adv-x="1159" 
d="M1122 954q29 0 23 -30l-37 -160q-10 -31 -35 -31h-145l-84 -221h139q25 0 23 -31l-39 -162q-6 -31 -35 -30h-172l-131 -350h-223l135 350h-129l-133 -350h-220l136 350h-127q-29 0 -23 30l35 162q12 31 35 31h166l84 221h-156q-33 0 -23 31l35 160q8 31 35 30h195
l161 422h213l-159 -422h129l161 422h213l-157 -422h110zM625 512l86 221h-129l-86 -221h129z" />
    <glyph glyph-name="dollar" unicode="$" horiz-adv-x="1021" 
d="M950 383q0 -170 -127 -289t-321 -127l-13 -92h-155l16 111q-37 10 -95 37.5t-85 27.5q-61 0 -76 -51h-96l27 326h67q53 0 62 -58q12 -92 81.5 -141t159.5 -49q100 0 160.5 65.5t60.5 149.5q0 70 -38.5 120t-141.5 103q-147 76 -232 169t-85 230q0 168 118.5 272.5
t294.5 115.5l15 108h162l-17 -121q18 -6 44 -14t42.5 -13.5t30.5 -5.5q41 0 45 39h92l-28 -325h-52q-51 0 -69 67q-53 164 -197 164q-80 0 -134 -47t-54 -129q0 -117 186 -213q166 -88 229 -149q123 -117 123 -281z" />
    <glyph glyph-name="percent" unicode="%" horiz-adv-x="1355" 
d="M666 1024q-18 -117 -99.5 -200t-191.5 -83q-113 0 -170.5 83t-40.5 200q18 117 97 199t190 82q115 0 173 -82t42 -199zM1124 1303h164l-981 -1313h-168zM387 829q80 0 109 195q31 193 -56 193q-80 0 -106 -193q-29 -195 53 -195zM1228.5 260q-16.5 -117 -97 -200
t-193.5 -83q-111 0 -167 83t-39.5 200t96 199t192.5 82q111 0 168 -82t40.5 -199zM952 66q78 0 111 194q25 193 -55 193q-86 0 -111 -193q-25 -194 55 -194z" />
    <glyph glyph-name="ampersand" unicode="&#x26;" horiz-adv-x="1486" 
d="M1006 657q119 -16 178 -82.5t59 -168.5q0 -119 -101.5 -222.5t-247.5 -159t-290 -55.5q-242 0 -394.5 109.5t-152.5 306.5q0 158 119 263.5t262 92.5q-88 10 -149.5 77t-61.5 161q0 131 136.5 228.5t320.5 97.5q123 0 215 -54.5t92 -183.5q0 -96 -75.5 -190.5
t-174.5 -94.5q-115 0 -114 97q0 41 61.5 113.5t61.5 137.5q0 82 -66 82q-43 0 -73.5 -29.5t-45 -75.5t-20.5 -86t-6 -79q0 -143 88 -188l-49 -123q-88 2 -137.5 -77t-49.5 -224q0 -264 219 -264q139 0 229.5 116.5t90.5 268.5q0 104 -74 104q-33 0 -57.5 -25.5t-24.5 -58.5
t23 -55h-113q-66 29 -66 92q0 23 7.5 41t29 38.5t32.5 30t49 35t46 31.5l260 174q14 10 44 31.5t42.5 31t35 28t31.5 30.5t20.5 29.5t15.5 37t4 39.5q0 59 -72 60q-20 0 -53 -6l-10 102q78 33 162 33q88 0 166.5 -60.5t78.5 -164.5q0 -49 -23.5 -95.5t-70.5 -85.5t-90 -68.5
t-112.5 -60t-105.5 -45t-99 -37.5z" />
    <glyph glyph-name="quotesingle" unicode="'" horiz-adv-x="403" 
d="M193 893l-27 252q-4 74 42 117t109 43q59 0 91 -43t8 -117l-99 -252q-14 -57 -65 -57q-27 0 -43 16t-16 41z" />
    <glyph glyph-name="parenleft" unicode="(" horiz-adv-x="649" 
d="M344 606q-45 -340 -10 -549t153 -360q12 -16 7 -26.5t-21 -10.5h-67q-20 0 -35 14q-375 293 -287 932t549 932q23 14 39 14h63q18 0 24.5 -8t-5.5 -18q-162 -152 -262.5 -373t-147.5 -547z" />
    <glyph glyph-name="parenright" unicode=")" horiz-adv-x="649" 
d="M330 606q45 334 7 551t-159 369q-8 10 0 18t27 8h63q20 0 35 -14q375 -295 287 -932t-549 -932q-20 -14 -39 -14h-68q-10 0 -15 5t-2 13.5t13 18.5q162 154 258.5 366.5t141.5 542.5z" />
    <glyph glyph-name="asterisk" unicode="*" horiz-adv-x="638" 
d="M377 1065l-35 160q18 70 88 80q66 -10 66 -80l-82 -160q-6 -12 -14.5 -17.5t-14.5 0t-8 17.5zM344 1040q10 -14 -3 -28.5t-34 -10.5l-147 37q-47 41 -10 111q49 57 108 29zM442 1040l125 138q63 27 101 -29q18 -66 -41 -111l-158 -37q-23 -4 -32 10.5t5 28.5zM305 969
q20 4 28.5 -10.5t-5.5 -28.5l-123 -137q-70 -29 -101 28q-18 68 41 113zM461 969l151 -35q45 -45 11 -113q-53 -57 -109 -28l-84 137q-12 14 0.5 28.5t30.5 10.5zM354 909q6 12 14.5 17.5t15.5 0.5t9 -18l35 -159q-18 -70 -88 -80q-66 10 -66 80z" />
    <glyph glyph-name="plus" unicode="+" horiz-adv-x="856" 
d="M776 600l-16 -117h-283l-41 -299h-110l41 299h-281l16 117h281l41 301h113l-43 -301h282z" />
    <glyph glyph-name="comma" unicode="," horiz-adv-x="450" 
d="M127 -260q-27 -25 -45 0l-16 22q90 100 104 191q4 25 -2 27q-20 -4 -41 -5q-63 0 -97 40t-34 94q0 72 52 128t132 56q68 0 105 -45t37 -121q0 -98 -55.5 -202.5t-139.5 -184.5z" />
    <glyph glyph-name="hyphen" unicode="-" horiz-adv-x="692" 
d="M74 596h553v-115h-553v115z" />
    <glyph glyph-name="period" unicode="." horiz-adv-x="417" 
d="M123 -20q-53 0 -90 39.5t-37 97.5q0 70 53 124t121 54q53 0 90 -40t37 -97q0 -70 -53 -124t-121 -54z" />
    <glyph glyph-name="slash" unicode="/" horiz-adv-x="923" 
d="M741 1477h226l-746 -1641h-223z" />
    <glyph glyph-name="zero" unicode="0" horiz-adv-x="1232" 
d="M545 -31q-209 0 -335 158t-126 401q0 309 182.5 542t454.5 233q213 0 338 -154t125 -395q0 -313 -183.5 -549t-455.5 -236zM551 74q94 0 168 141t108.5 331.5t34.5 377.5q0 276 -141 276q-98 0 -173 -139t-110 -328.5t-35 -378.5q1 -280 148 -280z" />
    <glyph glyph-name="one" unicode="1" horiz-adv-x="673" 
d="M449 162q-4 -25 11 -39t36.5 -19.5t66.5 -9.5l-12 -94q-90 4 -260 4q-205 0 -297 -4l6 94q129 14 139 84l119 850q8 45 -10.5 55.5t-91.5 6.5l16 88q115 14 194.5 41.5t118.5 48t60 20.5q68 0 67 -59q0 -29 -25.5 -144.5t-33.5 -185.5z" />
    <glyph glyph-name="two" unicode="2" horiz-adv-x="1069" 
d="M999 377l-125 -338q-10 -39 -61 -39h-811l10 92q8 6 74 63.5t88.5 78l90 82t98 94t89 95t88 104.5t70.5 103.5t61.5 109.5t36 105.5t15.5 108.5q0 82 -35 124t-92 42q-88 0 -144.5 -85t-56.5 -171q0 -18 5.5 -58t5.5 -73q0 -51 -39 -80.5t-99 -29.5q-72 0 -110.5 48
t-38.5 115q0 188 139 312.5t344 124.5q190 0 305 -94.5t115 -254.5q0 -90 -44 -178t-102.5 -153.5t-163 -143.5t-176 -123t-190.5 -116q-31 -18 -45 -27l326 4q137 0 186 64l80 94h106z" />
    <glyph glyph-name="three" unicode="3" horiz-adv-x="1218" 
d="M731 705q31 6 90 6q137 0 223 -76t86 -199q0 -111 -58 -202t-151.5 -146t-203 -85t-219.5 -30q-203 0 -330 89.5t-127 218.5q0 59 35 105t108 46q135 0 135 -143q0 -10 -2 -31.5t-2 -30.5q0 -68 44 -113.5t139 -45.5q133 0 220 114.5t87 259.5q0 80 -36 129.5t-107 49.5
q-43 0 -166 -41l-25 90l76 37q264 115 264 346q0 156 -145 155q-92 0 -156 -76.5t-64 -175.5q0 -14 3.5 -39.5t3.5 -44.5q0 -137 -136 -137q-70 0 -107.5 47t-37.5 123q0 174 146.5 287t351.5 113q190 0 297.5 -81t107.5 -206q0 -117 -102.5 -199.5t-241.5 -113.5z" />
    <glyph glyph-name="four" unicode="4" horiz-adv-x="1163" 
d="M1042 618h66l-84 -233q-16 -39 -66 -39h-141l-29 -184q-4 -37 23 -50.5t109 -17.5l-5 -94q-301 10 -616 0l2 94q154 8 162 84l24 168h-397l-16 168l725 791h153l-114 -787h69q74 0 109 60zM512 518l63 420l-395 -420h332z" />
    <glyph glyph-name="five" unicode="5" horiz-adv-x="1122" 
d="M659 899q51 0 113 -20.5t127.5 -63.5t109.5 -126t44 -191q0 -229 -176.5 -376t-417.5 -147q-182 0 -300 82t-118 211q0 63 32.5 105.5t94.5 42.5q41 0 66.5 -14.5t36 -44t13.5 -52t3 -59.5q0 -174 172 -174q133 0 206.5 129t73.5 299q0 113 -51 174t-141 61
q-70 0 -150 -41t-131 -98l-106 8l143 668h361q143 0 190 65l154 -8l-90 -237q-16 -39 -62 -39h-520l-76 -348q161 194 399 194z" />
    <glyph glyph-name="six" unicode="6" horiz-adv-x="1130" 
d="M961 1133q-84 72 -205 71q-55 0 -100.5 -18.5t-78 -57t-57 -81.5t-43 -108t-31 -117t-24.5 -128q78 137 264 137q145 0 254 -98t109 -270q0 -215 -165 -355.5t-382 -140.5q-203 0 -313.5 137.5t-110.5 368.5q0 350 193.5 590t502.5 240q141 0 242 -86zM401 535
q-16 -98 -16 -218q0 -248 119 -247q111 0 173 137t62 319q0 203 -100 203q-68 0 -126 -44t-82 -84.5t-30 -65.5z" />
    <glyph glyph-name="seven" unicode="7" horiz-adv-x="974" 
d="M1030 1272l-635 -1209q-49 -88 -141 -88q-51 0 -77.5 34t-26.5 73q0 61 86 189t567 790l-305 -8q-172 0 -256 -135h-131l143 372l113 -2q37 -16 153 -16h510z" />
    <glyph glyph-name="eight" unicode="8" horiz-adv-x="1124" 
d="M803 684q104 -41 164.5 -125t60.5 -188q0 -174 -153.5 -290t-378.5 -116q-203 0 -325 98.5t-122 253.5q0 119 85 219.5t231 155.5q-72 35 -114 102.5t-42 151.5q0 162 134 260.5t329 98.5q174 0 271 -86t97 -215q0 -76 -56 -169.5t-181 -150.5zM657 1202q-96 0 -142 -93
t-46 -220q0 -164 119 -164q92 0 142 102.5t50 219.5q0 155 -123 155zM504 70q76 0 126 61.5t68.5 141t18.5 169.5q0 102 -33 149.5t-102 47.5q-76 0 -128.5 -67.5t-70.5 -151.5t-18 -174q0 -176 139 -176z" />
    <glyph glyph-name="nine" unicode="9" horiz-adv-x="1107" 
d="M188 147q84 -68 203 -67q55 0 100.5 18.5t78 57.5t57 82t44 107.5t31 116.5t25.5 128q-82 -137 -266 -137q-145 0 -254 98t-109 270q0 215 165 355.5t382 140.5q203 0 313.5 -137.5t110.5 -368.5q0 -352 -193.5 -590.5t-506.5 -238.5q-74 0 -146.5 22.5t-105.5 63.5z
M741 750q20 123 21 221q0 244 -119 243q-115 0 -175 -135t-60 -321q0 -203 100 -203q96 0 163.5 76t69.5 119z" />
    <glyph glyph-name="colon" unicode=":" horiz-adv-x="417" 
d="M213 618q-53 0 -90 40t-37 98q0 70 53.5 124t120.5 54q53 0 90 -40t37 -97q0 -70 -53 -124.5t-121 -54.5zM123 -20q-53 0 -90 39.5t-37 97.5q0 70 53 124t121 54q53 0 90 -40t37 -97q0 -70 -53 -124t-121 -54z" />
    <glyph glyph-name="semicolon" unicode=";" horiz-adv-x="450" 
d="M225 616q-53 0 -90 40t-37 98q0 70 53.5 124t120.5 54q53 0 90 -40t37 -97q0 -70 -53 -124.5t-121 -54.5zM127 -260q-27 -25 -45 0l-16 22q90 100 104 191q4 25 -2 27q-20 -4 -41 -5q-63 0 -97 40t-34 94q0 72 52 128t132 56q68 0 105 -45t37 -121q0 -98 -55.5 -202.5
t-139.5 -184.5z" />
    <glyph glyph-name="less" unicode="&#x3c;" horiz-adv-x="915" 
d="M109 610q446 174 776 351l-25 -162q-66 -31 -182.5 -96.5t-211.5 -109.5t-206 -79q100 -35 184 -80t183.5 -110.5t154.5 -96.5l-24 -161q-289 182 -678 350z" />
    <glyph glyph-name="equal" unicode="=" horiz-adv-x="858" 
d="M127 774h674l-17 -119h-673zM76 406h674l-17 -119h-674z" />
    <glyph glyph-name="greater" unicode="&#x3e;" horiz-adv-x="919" 
d="M838 610l-25 -194q-459 -176 -782 -350l24 161q63 31 182 96.5t215.5 110.5t206.5 80q-102 35 -185 79t-182 109.5t-155 96.5l21 162q293 -183 680 -351z" />
    <glyph glyph-name="question" unicode="?" horiz-adv-x="1003" 
d="M410 383q0 86 44 183.5t98 168t98 152.5t44 141q0 174 -119 174q-88 0 -138 -83t-50 -187q0 -16 3 -40t3 -40q0 -57 -44 -100t-122 -43q-63 0 -93 45t-30 114q0 182 145.5 309.5t342.5 127.5q190 0 297.5 -86t107.5 -230q0 -74 -51 -139.5t-123.5 -115.5t-145.5 -100
t-122 -114.5t-45 -136.5h-100zM346 -20q-53 0 -90 39.5t-37 97.5q0 70 53.5 124t120.5 54q53 0 90 -40t37 -97q0 -70 -53 -124t-121 -54z" />
    <glyph glyph-name="at" unicode="@" horiz-adv-x="1550" 
d="M680 -170q-260 0 -438.5 170t-178.5 418q0 205 117 384t302.5 282.5t387.5 103.5q260 0 437.5 -166t177.5 -424q0 -207 -114 -344t-292 -137q-137 0 -213 108q-92 -111 -245 -110q-88 0 -151.5 47t-63.5 129q0 104 98 183t373 126v12q10 51 10 88q0 96 -72 97
q-68 0 -90 -123q-4 -27 -39 -44.5t-90 -17.5q-96 0 -96 68q0 80 57 131t126 67.5t144 16.5q279 0 279 -219q0 -41 -25.5 -226.5t-25.5 -191.5q0 -43 26 -43q51 0 81 139.5t30 288.5q0 201 -90 320.5t-246 119.5q-145 0 -263 -108.5t-179.5 -267t-61.5 -322.5
q0 -201 90 -323.5t252 -122.5zM705 233q41 0 67.5 23t65.5 74l22 174q-96 -25 -151.5 -81t-55.5 -136q0 -33 10.5 -43.5t41.5 -10.5z" />
    <glyph glyph-name="A" unicode="A" horiz-adv-x="1368" 
d="M1100 301q29 -121 64.5 -161t125.5 -46l-4 -94q-324 8 -657 0l4 94q57 4 91 12.5t60.5 31t18.5 61.5l-53 235h-318l-106 -241q-27 -59 14 -76t162 -23h12v-94q-272 10 -547 0l4 94q106 6 162.5 39t93.5 105l480 1044h186zM475 530h254l-86 381z" />
    <glyph glyph-name="B" unicode="B" horiz-adv-x="1288" 
d="M915 682q301 -68 302 -293q0 -203 -166 -296t-445 -93h-624l10 94q80 6 115.5 24.5t42.5 57.5l131 942q4 29 -16.5 41t-94.5 19l2 94q127 -4 188 -4q70 0 167.5 2t119.5 2q528 0 529 -293q0 -90 -61 -170t-200 -127zM623 1176l-72 -480l63 17q264 45 265 301
q0 164 -166 164q-65 0 -90 -2zM610 104q141 0 213 91.5t72 240.5q0 92 -55.5 136t-186.5 44l-118 -22l-60 -424q-6 -49 9 -57.5t126 -8.5z" />
    <glyph glyph-name="C" unicode="C" horiz-adv-x="1261" 
d="M1065 348h121q-63 -166 -200.5 -274.5t-356.5 -108.5q-260 0 -407.5 148.5t-147.5 410.5q0 330 198.5 555.5t487.5 225.5q92 0 188 -26t144 -26q45 0 114 9q-16 -193 35 -353h-170q-94 289 -305 289q-117 0 -200 -109.5t-116.5 -262t-35.5 -324.5q0 -193 69.5 -309.5
t212.5 -116.5q100 0 200.5 65.5t168.5 206.5z" />
    <glyph glyph-name="D" unicode="D" horiz-adv-x="1329" 
d="M709 1272q573 0 573 -504q0 -336 -176 -550t-496 -214q-35 0 -151.5 16.5t-173.5 16.5q-109 0 -297 -37l4 96q8 0 26 2q51 4 72 7.5t37 14.5t20 36l134 962q4 29 -16.5 41t-94.5 19l2 94q127 -4 188 -4q59 0 175.5 2t173.5 2zM602 92q102 -2 179 124t111 291t34 324
q0 344 -246 345q-29 0 -57 -5l-150 -1028q-4 -16 -3 -25t1 -11.5t8 -4.5l8 -4q23 0 49.5 -2t44 -3t21.5 -1z" />
    <glyph glyph-name="E" unicode="E" horiz-adv-x="1095" 
d="M829 248l78 133l109 -8q-106 -231 -117 -373q-375 23 -909 0l2 88q80 6 115.5 25.5t42.5 58.5l131 940q8 37 -16.5 48t-110.5 18l10 94h866q39 0 33 -45l2 -252h-98l-19 51q-41 88 -70.5 114.5t-111.5 26.5h-107q-18 0 -33.5 -14t-17.5 -31l-57 -411h160q72 0 110.5 29.5
t59.5 97.5l75 -17q-39 -162 -47 -348l-80 16q-2 68 -25.5 92.5t-96.5 24.5h-172l-66 -469q-2 -31 31 -31h37q121 0 183 29t109 113z" />
    <glyph glyph-name="F" unicode="F" horiz-adv-x="1040" 
d="M1026 1272q35 0 29 -45v-252h-97l-20 51q-39 88 -68.5 114.5t-111.5 26.5h-101q-16 0 -31.5 -14t-17.5 -31l-57 -411h158q72 0 110.5 28.5t59.5 89.5h75q-39 -174 -47 -348h-78q-4 74 -27.5 99.5t-96.5 25.5h-168l-62 -442q-6 -39 18.5 -52.5t106.5 -17.5l-4 -94
q-303 8 -608 0l4 94q143 8 158 84l129 934q8 37 -16.5 48t-110.5 18l10 94h864z" />
    <glyph glyph-name="G" unicode="G" horiz-adv-x="1316" 
d="M715 610q309 -10 561 -2l-10 -94l-31 -4q-61 -8 -80 -96q-31 -141 -41 -291l19 -6q49 -12 43 -45l-9 -54q-86 4 -127 5q-125 0 -260 -29t-233 -29q-109 0 -202 44t-161.5 128t-97.5 221.5t-4 309.5q43 291 233.5 464t421.5 173q78 0 170 -26t141.5 -26t116.5 9
q-16 -193 31 -361l-170 14q-43 129 -123 207t-178 78q-111 0 -188.5 -141t-106.5 -361q-33 -240 4 -434t154 -194q109 0 162 47t69 153l25 170q6 68 -64 72l-75 2z" />
    <glyph glyph-name="H" unicode="H" horiz-adv-x="1409" 
d="M827 1272q309 -10 627 0v-94q-154 -8 -166 -84l-131 -932q-4 -37 21.5 -50.5t109.5 -17.5l-2 -94q-309 10 -627 0l5 94q158 8 170 84l57 412h-352l-60 -428q-6 -37 22.5 -50.5t112.5 -17.5v-94q-313 10 -626 0l4 94q147 8 162 84l131 932q6 37 -21.5 50.5t-111.5 17.5
l4 94q315 -10 622 0v-94q-162 -8 -170 -84l-57 -408h354l60 424q2 37 -26 50.5t-112 17.5v94z" />
    <glyph glyph-name="I" unicode="I" horiz-adv-x="724" 
d="M477 162q-6 -37 24.5 -50.5t116.5 -17.5l-16 -94q-311 10 -622 0l16 94q141 8 156 84l131 932q6 37 -23 50.5t-113 17.5l17 94q309 -10 614 0l-12 -94q-152 -8 -160 -84z" />
    <glyph glyph-name="J" unicode="J" horiz-adv-x="741" 
d="M168 1272q309 -10 620 0l-4 -94q-152 -8 -163 -84l-113 -803q-49 -356 -213 -504.5t-457 -148.5l4 96q68 0 111 12t87 51t72.5 123t47.5 217l135 973q8 37 -18.5 50.5t-112.5 17.5z" />
    <glyph glyph-name="K" unicode="K" horiz-adv-x="1392" 
d="M1378 1178q-131 -10 -225 -111l-367 -360q217 -365 336 -503t187 -147l-86 -94q-158 0 -313.5 125t-327.5 418l-64 -62l-39 -282q-6 -37 20.5 -50.5t110.5 -17.5l-4 -94q-305 10 -618 0l4 94q156 8 162 84l131 932q8 37 -18.5 50.5t-112.5 17.5l4 94q307 -10 618 0
l-4 -94q-147 -8 -162 -84l-67 -478l475 474q35 33 -23 61q-39 20 -104 27l4 94q242 -8 487 0z" />
    <glyph glyph-name="L" unicode="L" horiz-adv-x="1093" 
d="M932 383l110 -8q-104 -205 -118 -383q-414 18 -930 8l2 88q152 12 158 86l131 936q8 37 -18.5 50.5t-112.5 17.5l4 94q307 -10 618 0l-4 -94q-147 -8 -162 -84l-137 -959q-2 -31 31 -31h55q119 0 182.5 30t112.5 116z" />
    <glyph glyph-name="M" unicode="M" horiz-adv-x="1669" 
d="M1417 162q-4 -37 21.5 -50.5t109.5 -17.5l-2 -94q-305 10 -618 0l4 94q150 8 162 84l112 795l-454 -973l-283 973l-119 -811q-2 -18 11.5 -30.5t49 -20t67.5 -10.5t91 -7l-2 -94q-281 10 -569 0l2 94q240 16 248 84l127 893q4 41 -40 72t-122 35l2 94q229 -10 469 0
l209 -721l334 721q244 -8 489 0v-96q-86 -4 -124 -22.5t-42 -57.5z" />
    <glyph glyph-name="N" unicode="N" horiz-adv-x="1445" 
d="M920 1272q287 -8 573 0l-4 -94q-242 -14 -252 -84l-154 -1094h-100l-518 973l-117 -811q-4 -35 48.5 -47.5t170.5 -20.5l-4 -94q-285 10 -567 0l4 94q238 14 248 84l125 895q4 35 -42 68t-122 37v94q236 -8 477 0l369 -701l82 539q4 35 -49.5 47t-167.5 21v94z" />
    <glyph glyph-name="O" unicode="O" horiz-adv-x="1290" 
d="M573 -35q-227 0 -364 148.5t-137 408.5q0 326 194.5 554.5t485.5 228.5q219 0 359 -159t140 -409q0 -313 -201 -542.5t-477 -229.5zM600 72q82 0 146.5 75.5t99.5 195.5t52 245t17 246q0 365 -180 364q-86 0 -151.5 -68.5t-101.5 -181t-53 -234.5t-17 -247
q0 -182 48 -288.5t140 -106.5z" />
    <glyph glyph-name="P" unicode="P" horiz-adv-x="1230" 
d="M516 469l-45 -309q-2 -37 22.5 -48.5t106.5 -17.5l-4 -94q-303 8 -608 0l4 94q80 6 114.5 24.5t43.5 57.5l131 942q6 33 -18.5 44.5t-92.5 15.5l2 94q88 -4 185.5 -4t191.5 2t119 2q326 0 449.5 -98.5t92.5 -294.5q-20 -147 -171.5 -239.5t-481.5 -166.5zM530 571l23 9
q156 27 251 116.5t111 221.5q41 260 -170 260q-92 0 -122 -2z" />
    <glyph glyph-name="Q" unicode="Q" horiz-adv-x="1380" 
d="M1118 -143l135 -15q-20 -150 -128.5 -255t-239.5 -105q-61 0 -110.5 26.5t-80 63.5t-60.5 74t-68 63.5t-85 26.5q-61 0 -114.5 -24.5t-73.5 -53.5h-275q57 90 205 175t377 138q-244 -2 -386 135.5t-142 407.5q0 342 195.5 566.5t506.5 224.5q219 0 369.5 -163t150.5 -409
q0 -307 -189.5 -526t-518.5 -330q-12 -4 -47 -14t-47.5 -15.5t-41 -14.5t-43 -15t-35 -17.5t-37 -22.5t-32.5 -24q94 63 213 64q66 0 201 -39t196 -39q164 0 205 117zM418 541q0 -190 58.5 -328.5t162.5 -138.5q86 0 151.5 72.5t99.5 189.5t50 237.5t16 239.5
q0 387 -202 387q-106 0 -185.5 -106.5t-115 -252.5t-35.5 -300z" />
    <glyph glyph-name="R" unicode="R" horiz-adv-x="1308" 
d="M817 537q262 -463 408 -480l-86 -94q-317 0 -619 506h-4l-45 -309q-2 -37 22.5 -48.5t106.5 -17.5l-4 -94q-86 4 -303 4t-305 -4l4 94q80 6 115.5 24.5t42.5 57.5l131 942q4 29 -16.5 41t-94.5 19l2 94q63 -4 148.5 -4t191.5 2t156 2q293 0 421 -78t128 -236
q0 -178 -107 -273t-293 -148zM623 1176l-93 -607l23 6q174 23 270.5 131.5t96.5 290.5q0 180 -175 181q-91 0 -122 -2z" />
    <glyph glyph-name="S" unicode="S" horiz-adv-x="1021" 
d="M598 813q166 -88 229 -149q123 -117 123 -281q0 -174 -134 -295t-335 -121q-100 0 -194 42t-117 42q-61 0 -76 -51h-96l27 326h67q53 0 62 -58q12 -92 81.5 -141t159.5 -49q100 0 160.5 65.5t60.5 149.5q0 70 -38.5 120t-141.5 103q-147 76 -232 169t-85 230
q0 178 133 284t321 106q74 0 148 -24t88 -24q41 0 45 39h92l-28 -325h-52q-51 0 -69 67q-53 164 -197 164q-80 0 -134 -47t-54 -129q0 -117 186 -213z" />
    <glyph glyph-name="T" unicode="T" horiz-adv-x="1198" 
d="M1143 1284l112 -2l-112 -321h-109q57 205 -55 204h-127l-143 -1003q-6 -37 19.5 -50.5t109.5 -17.5v-94q-309 10 -621 0l4 94q150 8 164 84l135 987h-123q-39 0 -68.5 -36.5t-84.5 -135.5q-12 -20 -19 -32h-110l104 321l100 -2q43 -8 230 -8h364q169 0 230 12z" />
    <glyph glyph-name="U" unicode="U" horiz-adv-x="1474" 
d="M903 1272q311 -6 621 0l-4 -94q-152 -8 -164 -84l-129 -932q-4 -37 21.5 -50.5t107.5 -17.5l-4 -94q-84 4 -255 4t-243 -4l6 98q33 18 39 80l4 25q-150 -223 -379 -223q-180 0 -273 91t-93 246q0 18 110 793q2 37 -23.5 50.5t-107.5 17.5v94q309 -6 621 0l-4 -94
q-152 -8 -164 -84q-109 -780 -109 -858q0 -80 17.5 -116t74.5 -36q178 0 353 283l108 743q2 37 -22.5 50.5t-108.5 17.5v94z" />
    <glyph glyph-name="V" unicode="V" horiz-adv-x="1298" 
d="M539 -18l-260 1130q-8 37 -32 49.5t-102 16.5l2 94q307 -10 617 0l-2 -94q-86 -4 -130 -26t-32 -56l152 -699l319 715q2 12 4 21.5t-10 16.5t-22.5 11t-34 8.5t-44 5.5t-51.5 3l2 94q223 -8 449 0l-2 -94q-147 -8 -186 -82l-521 -1114h-116z" />
    <glyph glyph-name="W" unicode="W" horiz-adv-x="1968" 
d="M1583 1272q225 -8 451 0l-2 -94q-150 -8 -185 -82l-495 -1114h-113l-199 936l-411 -936h-117l-233 1130q-6 37 -31 49.5t-103 16.5l2 94q307 -10 617 0l-2 -94q-84 -4 -128 -26t-34 -56l125 -699l283 680l-9 35q-6 37 -29.5 49.5t-103.5 16.5l4 94q305 -10 619 0l-4 -94
q-84 -4 -128 -26t-36 -56l127 -699l291 715q2 12 4 21.5t-10.5 16.5t-23.5 11t-33.5 8.5t-42 5.5t-50.5 3v94z" />
    <glyph glyph-name="X" unicode="X" horiz-adv-x="1345" 
d="M1331 1178q-135 -16 -219 -117l-303 -344l258 -527q25 -51 57.5 -70.5t98.5 -25.5v-94q-289 10 -570 0l4 94q51 8 85 26.5t20 47.5l-156 319l-276 -315q-25 -31 -3.5 -51.5t76.5 -26.5l-2 -94q-197 10 -395 0v94q113 10 205 127l340 379l-238 487q-25 47 -58.5 64.5
t-104.5 26.5l4 94q281 -10 565 0l-4 -98q-47 -8 -77 -23.5t-24 -36.5l140 -287l254 283q35 37 -56 59q-23 4 -51 9v94q217 -10 434 0z" />
    <glyph glyph-name="Y" unicode="Y" horiz-adv-x="1296" 
d="M979 1272q190 -12 385 0l-4 -94q-109 -14 -191 -142l-354 -547l-51 -327q-4 -37 21.5 -50.5t109.5 -21.5v-90q-307 10 -621 0l5 94q150 8 163 84l43 303l-229 623q-8 29 -13 37t-30 20.5t-76 16.5v94q305 -12 619 0l-4 -94q-78 -8 -107 -32t-14 -56l160 -449l266 412
q29 39 18.5 65.5t-35 39.5t-61.5 20v94z" />
    <glyph glyph-name="Z" unicode="Z" horiz-adv-x="1189" 
d="M952 385l168 -8q-78 -92 -188 -275l47 -10q45 -10 41 -45l-6 -47h-1034l815 1178h-303q-12 0 -23.5 -2t-21 -5.5t-20.5 -11.5t-17.5 -12t-17.5 -17.5t-16 -20.5t-16.5 -25.5t-16.5 -26.5t-19.5 -30.5t-20.5 -33.5l-127 8l105 281l106 -2q39 -8 227 -8h619l-819 -1180h114
q76 0 127.5 20.5t70.5 39t71 77.5z" />
    <glyph glyph-name="bracketleft" unicode="[" horiz-adv-x="667" 
d="M537 1423l-230 -1632l182 -14q18 -2 28.5 -10.5t8.5 -22.5l-10 -84l-541 35l256 1825l551 34l-12 -84q-6 -29 -45 -32z" />
    <glyph glyph-name="backslash" unicode="\" horiz-adv-x="901" 
d="M432 1477l283 -1641h-223l-285 1641h225z" />
    <glyph glyph-name="bracketright" unicode="]" horiz-adv-x="692" 
d="M406 1423l-185 15q-16 2 -26.5 10t-8.5 22l13 84l540 -34l-256 -1825l-551 -35l13 84q4 29 45 33l186 14z" />
    <glyph glyph-name="asciicircum" unicode="^" horiz-adv-x="802" 
d="M481 1403q29 27 55.5 23.5t36.5 -23.5l220 -397q16 -25 -2.5 -53.5t-55.5 -28.5h-20q-41 0 -84 53l-137 170l-189 -170q-53 -53 -100 -53h-23q-33 0 -44 28.5t12 53.5z" />
    <glyph glyph-name="underscore" unicode="_" horiz-adv-x="1085" 
d="M-27 -41h985l-30 -209h-983z" />
    <glyph glyph-name="grave" unicode="`" horiz-adv-x="675" 
d="M698 1204l-36 -55l-340 119q-63 23 -86 78t8 98q33 43 81 42t99 -44z" />
    <glyph glyph-name="a" unicode="a" horiz-adv-x="1230" 
d="M1145 246q23 -23 -2 -51q-178 -209 -371 -209q-74 0 -111.5 41t-23.5 118l27 121q-55 -141 -135 -210.5t-207 -69.5q-123 0 -205 69.5t-82 231.5q0 178 101.5 354t274.5 291t359 115q129 0 295 -66l-119 -752q-8 -51 39 -51q51 0 117 66q20 20 43 2zM422 109
q195 0 315 647l31 174q-14 33 -72 33q-92 0 -166.5 -74t-115.5 -183.5t-63.5 -218t-22.5 -192.5q0 -186 94 -186z" />
    <glyph glyph-name="b" unicode="b" horiz-adv-x="1181" 
d="M877 1042q106 0 187 -76.5t81 -238.5q0 -86 -29 -185.5t-86 -198.5t-133 -179t-179.5 -130t-215.5 -50q-51 0 -105.5 10t-111 36.5t-99.5 65.5t-63.5 102.5t-7.5 141.5l133 797q8 57 -19.5 78.5t-95.5 15.5l12 94q326 76 361 76q72 0 55 -86l-139 -690q70 176 190 296.5
t265 120.5zM516 66q92 0 164 91t106.5 222t52 242.5t17.5 187.5q0 127 -70 127q-80 0 -177 -127t-160.5 -296t-63.5 -288q0 -76 35 -117.5t96 -41.5z" />
    <glyph glyph-name="c" unicode="c" horiz-adv-x="925" 
d="M631 1042q123 0 207 -70.5t84 -166.5q0 -68 -40 -117t-106 -49q-55 0 -81.5 30.5t-26.5 82.5q0 33 6 72.5t9 62t1 43t-18.5 29t-51.5 8.5q-94 0 -160.5 -87t-94 -197t-27.5 -218q0 -135 49 -213t143 -78q113 0 217 111q27 27 41 26h33q29 -4 28 -23.5t-22 -47.5
q-158 -254 -426 -254q-150 0 -249 92t-99 287q0 260 174 468.5t410 208.5z" />
    <glyph glyph-name="d" unicode="d" horiz-adv-x="1234" 
d="M1149 246q23 -23 -2 -51q-178 -209 -371 -209q-74 0 -111.5 41t-23.5 118l27 121q-55 -141 -135 -210.5t-207 -69.5q-123 0 -207 68.5t-84 234.5q0 182 96 357t263 288t351 113h33l15 90q8 57 -24 78.5t-107 15.5l12 94q98 14 185 33.5t130 31t60 11.5q66 0 55 -86
l-152 -1086q-8 -51 37 -51q51 0 117 66q20 20 43 2zM743 756l21 174q-33 33 -100 33q-90 0 -159 -71t-106 -179.5t-54 -213t-17 -194.5q0 -197 96 -196q76 0 146.5 112.5t112.5 255t60 279.5z" />
    <glyph glyph-name="e" unicode="e" horiz-adv-x="942" 
d="M821 311q53 0 4 -84q-170 -242 -417 -241q-147 0 -249 92t-102 284q0 248 184.5 464t428.5 216q117 0 170 -52t53 -134q0 -90 -57.5 -170t-152.5 -136t-171 -89t-158 -60q-6 -113 45.5 -170t124.5 -57q121 0 219 107q27 31 43 30h35zM649 854q0 106 -55 107
q-78 0 -146.5 -139.5t-91.5 -342.5q293 99 293 375z" />
    <glyph glyph-name="f" unicode="f" horiz-adv-x="839" 
d="M909 1473q119 0 187.5 -46.5t68.5 -115.5q0 -53 -36.5 -88t-88.5 -35q-43 0 -75.5 31.5t-50 70.5t-44 71t-59.5 32q-125 0 -170 -297l-10 -72h213q20 0 16 -18l-10 -64q-4 -14 -16 -14h-218l-86 -592q-27 -188 -84 -333.5t-123.5 -228.5t-147.5 -135.5t-146.5 -70
t-130.5 -17.5q-109 0 -175.5 49.5t-66.5 125.5q0 53 32.5 84.5t82.5 31.5q45 0 75.5 -32.5t45 -70.5t41 -71t63.5 -33q150 0 199 359l116 850q8 57 15 84h-183q-20 0 -16 20l10 62q4 14 17 14h196q41 135 110.5 230.5t153.5 139.5t153.5 61.5t141.5 17.5z" />
    <glyph glyph-name="g" unicode="g" horiz-adv-x="1189" 
d="M1077 1040q55 0 92 -30.5t37 -83.5q0 -49 -29.5 -82t-72.5 -33q-20 0 -44 11.5t-34 11.5q-29 0 -29 -39q0 -4 7.5 -40t7.5 -73q0 -178 -153.5 -263t-422.5 -108q-113 -10 -139.5 -14t-26.5 -14q0 -14 78 -27q20 -4 33 -6l274 -47q176 -29 268.5 -91.5t92.5 -177.5
q0 -117 -101.5 -205.5t-248 -130.5t-304.5 -42q-193 0 -310.5 68.5t-117.5 187.5q0 86 49.5 139t129.5 53q51 0 84.5 -24.5t33.5 -73.5q0 -33 -19 -76t-19 -76q0 -45 54 -82t177 -37q139 0 234.5 55.5t95.5 149.5q0 53 -33 84t-113 47l-366 74q-193 37 -193 168
q0 72 54.5 101.5t172.5 52.5q-66 25 -119 103.5t-53 182.5q0 170 144.5 279.5t351.5 109.5q213 0 334 -133q37 131 143 131zM522 385q94 0 147.5 120t53.5 263q0 201 -117 201q-92 0 -152.5 -117t-60.5 -258q0 -209 129 -209z" />
    <glyph glyph-name="h" unicode="h" horiz-adv-x="1196" 
d="M881 1042q268 0 268 -344q0 -170 -61.5 -331.5t-182.5 -272t-270 -110.5q-86 0 -135 35.5t-49 97.5q0 55 33.5 85.5t80.5 30.5q49 0 75 -26.5t29 -59t9 -59.5t24 -27q45 0 86 251t41 407q0 193 -88 192q-111 0 -217 -227t-166 -629q-14 -74 -155 -73q-66 0 -103 20.5
t-28 65.5l176 1065q8 63 -19.5 83.5t-95.5 14.5l12 94q94 14 178.5 33.5t127.5 31t59 11.5q72 0 55 -86l-135 -719q27 84 63.5 156.5t90 141.5t130.5 108.5t167 39.5z" />
    <glyph glyph-name="i" unicode="i" horiz-adv-x="751" 
d="M497.5 1137q-69.5 0 -115.5 47t-46 114q0 70 46 117t115.5 47t115.5 -47t46 -117q0 -68 -46 -114.5t-115.5 -46.5zM666 246q23 -23 -2 -51q-178 -209 -373 -209q-72 0 -106.5 42t-20.5 117l127 668q6 45 -35 45q-43 0 -125 -82q-27 -29 -51 0q-18 18 10 53
q170 215 385 215q150 0 117 -176l-123 -639q-6 -27 6 -39t33 -12q49 0 115 66q20 20 43 2z" />
    <glyph glyph-name="j" unicode="j" horiz-adv-x="696" 
d="M499.5 1137q-69.5 0 -115.5 47t-46 114q0 70 46 117t115.5 47t116 -47t46.5 -117q0 -68 -46.5 -114.5t-116 -46.5zM506 1044q150 0 117 -176l-95 -561q-31 -184 -85 -324.5t-115.5 -220t-136 -130t-138 -66t-131.5 -15.5q-129 0 -203.5 39t-74.5 111q0 53 37.5 90
t89.5 37q39 0 73.5 -28.5t57 -62.5t54.5 -62.5t64 -28.5q27 0 46.5 8t42 31.5t40 78t29.5 136.5l144 913q8 45 -33 45q-47 0 -125 -82q-27 -27 -51 0q-18 18 8 53q190 215 385 215z" />
    <glyph glyph-name="k" unicode="k" horiz-adv-x="1165" 
d="M664 610q156 -289 272.5 -416.5t185.5 -136.5l-86 -94q-309 0 -612 492l-74 -455h-284l182 1137q8 57 -19.5 78.5t-95.5 15.5l12 94q94 14 178.5 33.5t127.5 31t59 11.5q72 0 55 -86l-125 -764q236 152 295 250q49 82 -71 78h-7l17 102q117 41 206 48t130 -10.5t41 -49.5
q0 -51 -72.5 -120t-314.5 -239z" />
    <glyph glyph-name="l" unicode="l" horiz-adv-x="677" 
d="M258 1137q8 55 -22.5 77.5t-102.5 16.5l12 94q98 14 185.5 33.5t130.5 31t59 11.5q72 0 55 -86l-182 -1086q-8 -51 41 -51q47 0 117 66q18 20 41 2q23 -23 -2 -51q-178 -209 -373 -209q-70 0 -104.5 41t-22.5 118z" />
    <glyph glyph-name="m" unicode="m" horiz-adv-x="2054" 
d="M1968 246q23 -23 -2 -51q-178 -209 -375 -209q-70 0 -106.5 41t-24.5 118l94 525q23 104 11.5 170.5t-70.5 66.5q-104 0 -226 -245.5t-182 -661.5h-270l96 670q20 104 9 170.5t-70 66.5q-104 0 -225 -245.5t-181 -661.5h-270l117 813q8 45 -37 45q-43 0 -125 -82
q-25 -27 -51 0q-18 18 10 53q186 213 375 213q158 0 127 -174l-62 -286q33 94 70 165.5t91 144.5t129 111.5t167 38.5q127 0 191.5 -85t17.5 -287l-22 -88q33 94 69.5 165.5t91 144.5t129 111.5t166.5 38.5q295 0 223 -372l-81 -441q-8 -51 38 -51q49 0 115 66q20 20 43 2z
" />
    <glyph glyph-name="n" unicode="n" horiz-adv-x="1406" 
d="M1321 246q25 -23 -2 -51q-176 -209 -373 -209q-72 0 -108.5 41t-22.5 118l98 525q23 104 11.5 170.5t-66.5 66.5q-109 0 -230.5 -244.5t-181.5 -662.5h-270l117 813q8 45 -37 45q-43 0 -125 -82q-25 -27 -51 0q-18 18 10 53q186 213 383 213q150 0 119 -174l-62 -286
q33 94 70 165.5t91 144.5t131 111.5t169 38.5q127 0 194.5 -85t26.5 -287l-86 -441q-6 -25 6.5 -38t30.5 -13q51 0 117 66q23 22 41 2z" />
    <glyph glyph-name="o" unicode="o" horiz-adv-x="1110" 
d="M637 1042q178 0 300 -100t122 -313q0 -258 -174 -450.5t-404 -192.5q-164 0 -289.5 108.5t-125.5 317.5q0 258 173 444t398 186zM750 764q0 201 -115 201q-117 0 -192.5 -216.5t-75.5 -482.5q0 -201 112.5 -200.5t191.5 213.5t79 485z" />
    <glyph glyph-name="p" unicode="p" horiz-adv-x="1175" 
d="M868 1042q106 0 188.5 -79.5t82.5 -239.5q0 -113 -46 -241t-126 -239.5t-200 -185t-253 -73.5q-74 0 -129 12l-18 -105q-10 -57 21.5 -73.5t105.5 -3.5l-11 -103q-137 -27 -285.5 -91t-177.5 -64q-53 0 -47 47q2 20 20.5 38.5t39 64.5t33.5 134l110 889q8 55 -24.5 70.5
t-94.5 -0.5l17 102q98 23 180 61.5t125 66.5t55 28q63 0 53 -90l-43 -342q174 417 424 417zM510 66q94 0 164.5 78.5t106.5 197.5t52.5 230.5t16.5 203.5q0 160 -68 160q-57 0 -117.5 -75t-107.5 -181.5t-81 -217t-46 -190.5q-18 -109 -3 -157.5t83 -48.5z" />
    <glyph glyph-name="q" unicode="q" horiz-adv-x="1187" 
d="M1085 948l-147 -1057q-8 -57 22.5 -73.5t106.5 -3.5l-10 -103q-106 -20 -199.5 -60t-144.5 -67.5t-72 -27.5q-63 0 -53 82l88 616q-63 -137 -143 -202.5t-211 -65.5q-119 0 -202 71.5t-83 229.5q0 184 95 361t249 288t311 111q61 0 105.5 -16.5t63 -35t39 -35t41 -16.5
t32.5 13.5t15 26.5t9 42h25q75 0 63 -78zM426 109q63 0 134 110.5t120 252.5t63 257l27 203q-51 31 -102 31q-90 0 -161 -71t-106.5 -177.5t-53 -210t-17.5 -191.5q0 -111 22.5 -157.5t73.5 -46.5z" />
    <glyph glyph-name="r" unicode="r" horiz-adv-x="1028" 
d="M891 1044q72 0 115 -43t43 -114q0 -66 -38 -104t-91 -38q-37 0 -61.5 17.5t-34 39t-29 39t-45.5 17.5q-55 0 -101.5 -64.5t-83.5 -191.5t-64.5 -266t-56.5 -336h-278l127 813q8 45 -37 45q-43 0 -125 -82q-25 -27 -51 0q-18 18 10 53q186 213 375 213q158 0 119 -174
l-29 -151q39 121 130 224t206 103z" />
    <glyph glyph-name="s" unicode="s" horiz-adv-x="813" 
d="M731 258q0 -127 -103.5 -201.5t-269.5 -74.5q-145 0 -241.5 61t-96.5 145q0 45 28 76t79 31t85 -38t50.5 -83t51 -83t85.5 -38q88 0 88 84q0 23 -7 45.5t-27.5 53t-36 51t-54 70t-61.5 77.5q-8 10 -38 47t-38 49.5t-30.5 43t-30.5 48t-20.5 45t-16.5 53t-4 52.5
q0 123 101.5 196.5t258.5 73.5q113 0 205 -56t92 -140q0 -43 -24.5 -70.5t-71.5 -27.5q-51 0 -89 34.5t-56.5 75.5t-50 76t-70.5 35q-29 0 -51.5 -16.5t-22.5 -47.5q0 -18 10.5 -40.5t32 -53.5t43 -57.5t58 -71.5t63.5 -80q10 -14 41 -53t44 -56.5t35.5 -52t33 -59.5
t18.5 -57.5t8 -65.5z" />
    <glyph glyph-name="t" unicode="t" horiz-adv-x="727" 
d="M696 1024q20 0 17 -18l-8 -64q-4 -14 -17 -14h-147l-107 -699q-8 -51 39 -51q51 0 117 66q20 20 41 2q25 -23 -2 -51q-176 -209 -373 -209q-70 0 -103.5 41t-21.5 118l117 783h-139q-20 0 -17 20l10 62q4 14 17 14h143l41 281h295l-43 -281h141z" />
    <glyph glyph-name="u" unicode="u" horiz-adv-x="1400" 
d="M86 780q-25 23 2 51q178 209 373 209q74 0 110.5 -41t20.5 -118l-100 -525q-45 -238 55 -237q106 0 228 245.5t179 661.5h273l-117 -813q-8 -45 35 -45t125 82q25 25 51 0q18 -18 -8 -53q-188 -213 -383 -213q-154 0 -119 174l59 286q-33 -94 -69.5 -165.5t-91 -144.5
t-130 -111.5t-167.5 -38.5q-125 0 -193.5 85t-28.5 287l93 441q6 27 -6.5 39t-32.5 12q-47 0 -117 -66q-18 -20 -41 -2z" />
    <glyph glyph-name="v" unicode="v" horiz-adv-x="1185" 
d="M1147 797q0 -203 -84 -392.5t-225.5 -306t-294.5 -116.5q-143 0 -235.5 70.5t-92.5 211.5q0 229 309 557h-327q-23 0 -23 -26q0 -20 16.5 -37t37 -27t37 -34.5t16.5 -61.5q0 -39 -25 -65.5t-72 -26.5q-57 0 -92 36.5t-35 110.5q0 117 103.5 226.5t273.5 109.5h322
q-12 -25 -76 -128t-102.5 -174t-75.5 -171t-37 -176q0 -90 58.5 -143.5t154.5 -53.5q137 0 219 115t82 280q0 70 -18.5 122.5t-39 78t-39 61t-18.5 74.5q0 47 36 86t87 39q160 1 160 -239z" />
    <glyph glyph-name="w" unicode="w" horiz-adv-x="1699" 
d="M1501 1036q160 0 160 -239q0 -311 -180.5 -563t-403.5 -252q-152 0 -248 120q-121 -121 -294 -120q-135 0 -227.5 71.5t-92.5 210.5q0 229 309 557h-327q-23 0 -23 -26q0 -25 26.5 -43.5t53.5 -45t27 -71.5q0 -39 -25 -65.5t-72 -26.5q-57 0 -92 36.5t-35 110.5
q0 117 103.5 226.5t273.5 109.5h334q-16 -27 -79.5 -128t-105.5 -173t-80 -173t-38 -179q0 -86 51 -139.5t137 -53.5q82 0 115 43q-39 92 -39 215q0 213 120 407.5t263 194.5q68 0 110 -52t42 -150q0 -156 -76 -322t-174 -264q68 -72 157 -72q150 0 235 116t85 279
q0 88 -28.5 146.5t-56.5 100.5t-28 89t36 86t87 39zM1098 956q-72 0 -120 -120.5t-48 -294.5q0 -102 45 -213q78 78 139.5 217t61.5 264q0 66 -20.5 106.5t-57.5 40.5z" />
    <glyph glyph-name="x" unicode="x" horiz-adv-x="1130" 
d="M825 864q-53 0 -92 -71.5t-76 -204.5l136 -363q18 -61 71 -61q59 0 140 80q20 20 43 2q23 -23 -3 -51q-164 -209 -374 -209q-70 0 -97.5 34.5t-62.5 137.5l-53 139q-117 -315 -320 -315q-72 0 -111.5 36.5t-39.5 94.5q0 55 34.5 90t85.5 35q49 0 86 -36t74 -36
q88 0 156 225l-123 324q-25 66 -70 65q-43 0 -84 -24q-29 -18 -45 16q-8 23 13 35q76 43 150.5 103.5t116.5 97t62 36.5q23 0 38.5 -15t24.5 -35.5t30 -78.5l83 -225q127 358 338 359q72 0 112 -38t40 -93.5t-35 -90t-88 -34.5q-51 0 -86 35.5t-74 35.5z" />
    <glyph glyph-name="y" unicode="y" horiz-adv-x="1093" 
d="M868 1047q84 0 137.5 -61.5t53.5 -176.5q0 -123 -67.5 -333t-207.5 -458q-115 -201 -197.5 -307t-133 -134t-109.5 -28q-82 0 -140.5 51.5t-58.5 135.5q0 72 42 115t104 43q37 0 65.5 -19.5t42 -43.5t30.5 -43t36 -19q43 0 113 96l-326 850q-25 66 -70 65q-43 0 -84 -24
q-31 -18 -45 16q-10 25 10 35q76 43 151 103.5t118 97t63 36.5q33 0 50.5 -25.5t48.5 -103.5l272 -718q178 356 178 548q0 16 -4 18.5t-14 -3.5q-35 -14 -70 -15q-61 0 -104 44.5t-43 105.5q0 63 45.5 107.5t113.5 44.5z" />
    <glyph glyph-name="z" unicode="z" horiz-adv-x="978" 
d="M758 436q72 0 119 -62.5t47 -148.5q0 -98 -65.5 -179t-186.5 -81q-90 0 -191.5 41t-150.5 41q-45 0 -73 -4t-67.5 -24.5t-78.5 -59.5l-78 80l635 733q-4 -2 -12.5 -10t-15.5 -12.5t-23.5 -8.5t-38.5 -4q-100 0 -217 58.5t-160 58.5q-27 0 -27 -20q0 -16 42 -32t83 -44.5
t41 -79.5q0 -43 -25.5 -71.5t-76.5 -28.5q-74 0 -120 61t-46 149q0 98 65.5 179.5t186.5 81.5q90 0 194.5 -39t159.5 -39q106 0 192 88l78 -80l-635 -733q51 35 111 35q82 0 152.5 -30t124 -59.5t94.5 -29.5q27 0 26 20q0 14 -42 32.5t-83 50.5t-41 81q0 39 26 64.5t77 25.5
z" />
    <glyph glyph-name="braceleft" unicode="{" horiz-adv-x="598" 
d="M412 88q-4 -25 -10.5 -63.5t-8.5 -58t-6 -51.5t-5 -48.5t-1 -40t3 -37.5t9 -29.5t15.5 -25.5t21.5 -19l-108 -55q-125 57 -156 161.5t-10 266.5l49 350q6 45 -14.5 66.5t-92.5 58.5l15 84q80 37 106.5 58.5t34.5 66.5l47 350q14 104 40 176t87 142.5t160 109.5l96 -55
q-16 -8 -28.5 -18.5t-22.5 -25.5t-18.5 -29.5t-14.5 -38t-10 -40t-9.5 -48t-8.5 -51t-8 -59.5t-7 -63l-35 -260q-35 -213 -217 -254l2 -6q88 -23 122 -83t20 -171z" />
    <glyph glyph-name="bar" unicode="|" horiz-adv-x="544" 
d="M334 1638h194l-292 -2078h-195z" />
    <glyph glyph-name="braceright" unicode="}" horiz-adv-x="591" 
d="M66 88l36 260q27 211 211 254v6q-170 41 -143 254l41 260q4 31 11 79t10.5 73.5t6.5 61.5t1 55.5t-7.5 42t-16.5 37t-28 24.5l109 55q129 -57 159.5 -162.5t8.5 -265.5l-51 -350q-6 -45 14.5 -66.5t91.5 -58.5l-12 -84q-82 -37 -107.5 -58.5t-31.5 -66.5l-50 -350
q-25 -162 -85 -266.5t-199 -161.5l-96 55q20 10 34.5 24.5t26.5 38t19.5 41t14.5 56.5t10 59.5t10.5 74.5t11.5 79z" />
    <glyph glyph-name="asciitilde" unicode="~" horiz-adv-x="1056" 
d="M963 645q-29 -123 -124.5 -208t-185.5 -85q-72 0 -131 38t-100 76t-70 38q-20 0 -36.5 -29t-41 -56.5t-65.5 -27.5h-113q41 117 131 199t191 82q74 0 126 -33t90 -65.5t77 -32.5q23 0 65.5 52t79.5 52h107z" />
    <glyph glyph-name="exclamdown" unicode="&#xa1;" horiz-adv-x="530" 
d="M329.5 1051q59.5 0 97.5 -47.5t30 -112.5q-10 -63 -60.5 -109.5t-111.5 -46.5q-59 0 -96 46t-27 110q8 66 58 113t109.5 47zM223 586h113q-20 -188 -11 -297t21 -215.5t4 -161.5q-12 -86 -71.5 -136t-121 -50t-107.5 50t-34 136q6 49 91 262t116 412z" />
    <glyph glyph-name="cent" unicode="&#xa2;" horiz-adv-x="925" 
d="M776 639q-55 0 -81.5 30.5t-26.5 82.5q0 39 9 93t9 68l-199 -735q25 -4 37 -4q113 0 217 111q27 27 41 26h33q29 -4 28 -23.5t-22 -47.5q-145 -233 -385 -252l-30 -113h-168l34 129q-225 70 -225 361q0 236 147.5 435t358.5 236l45 168h166l-47 -172q92 -23 148.5 -86
t56.5 -141q0 -68 -40 -117t-106 -49zM332 465q0 -90 22 -158l174 639q-96 -51 -146 -194.5t-50 -286.5z" />
    <glyph glyph-name="sterling" unicode="&#xa3;" horiz-adv-x="1079" 
d="M918 709q-66 0 -102 33.5t-36 84.5q0 35 23.5 86.5t23.5 137.5q0 152 -125 151q-92 0 -148 -76.5t-56 -169.5q0 -41 9 -90t16 -78.5t26.5 -93t25.5 -82.5h213l-16 -98h-174q6 -37 6 -74q0 -117 -72 -223q16 6 89 6q63 0 105 5t96.5 35t90.5 85l91 -16
q-70 -195 -167.5 -263.5t-215.5 -68.5q-127 0 -220 53q-100 -53 -196 -53q-72 0 -126 43t-54 115q0 82 53 138t135 56q47 0 97 -30.5t61 -32.5q2 6 9 24.5t13 43t6 53.5q0 49 -30 104h-263l11 98h180q-111 145 -111 269q0 180 141.5 302t379.5 122q176 0 277 -96.5
t101 -256.5q0 -109 -44.5 -176t-122.5 -67zM195 68q78 0 116 57q-18 16 -41.5 39.5t-36 32t-26.5 8.5q-63 0 -84 -70q-8 -33 13.5 -50t58.5 -17z" />
    <glyph glyph-name="currency" unicode="&#xa4;" horiz-adv-x="1159" 
d="M969 449q-14 -123 -97 -228l123 -151l-121 -117l-126 156q-109 -70 -232 -70t-209 74l-170 -160l-96 117l172 159q-57 111 -39 256q18 121 96 226l-118 145l124 119l119 -150q109 68 230 68q123 0 217 -78l172 160l92 -119l-172 -160q55 -114 35 -247zM324 449
q-12 -104 46 -179t162 -75q102 0 188.5 87t102.5 203q16 100 -44 175t-161 75q-104 0 -190 -84.5t-104 -201.5z" />
    <glyph glyph-name="yen" unicode="&#xa5;" horiz-adv-x="1296" 
d="M979 1272q190 -12 385 0l-4 -94q-109 -14 -191 -142l-225 -346h111l-27 -174h-197l-16 -27l-4 -22h209l-23 -174h-213l-20 -131q-4 -37 21.5 -50.5t109.5 -21.5v-90q-307 10 -621 0l5 94q150 8 163 84l17 115h-226l27 174h223l2 14l-12 35h-209l27 174h117l-152 414
q-8 29 -13 37t-30 20.5t-76 16.5v94q305 -12 619 0l-4 -94q-78 -8 -107 -32t-14 -56l160 -449l266 412q29 39 18.5 65.5t-35 39.5t-61.5 20v94z" />
    <glyph glyph-name="brokenbar" unicode="&#xa6;" horiz-adv-x="544" 
d="M233 924l101 714h194l-100 -714h-195zM41 -440l100 714h195l-100 -714h-195z" />
    <glyph glyph-name="section" unicode="&#xa7;" horiz-adv-x="1009" 
d="M575 862q172 -35 246 -74q152 -82 150 -235q-6 -133 -97 -234q47 -66 46 -149q-2 -117 -81 -206t-187.5 -130t-223.5 -41q-66 0 -120 8.5t-95 23.5t-66.5 26.5t-54.5 30t-35 22.5l-45 334l82 30q33 14 64.5 3t31.5 -48q14 -37 21 -104q37 -221 219 -221q98 0 161.5 50
t65.5 154q0 18 -3 35t-8 29t-16.5 23.5l-18.5 18.5t-25.5 15t-25.5 12.5t-30.5 10.5t-32 8t-35 8t-32.5 8q-4 2 -47 11.5t-58.5 13.5t-55.5 17.5t-57 25.5t-47 33.5t-44.5 45t-25.5 58.5t-11 76q-2 129 96 237q-35 55 -35 132q-4 160 129.5 272.5t341.5 112.5q106 0 173 -25
t111 -58.5t73 -41.5l-19 -281l-80 -22q-35 -8 -59 5t-24 42q0 25 -19 108q-12 82 -50 125t-120 43q-96 0 -157.5 -63.5t-63.5 -145.5q-2 -33 7 -53t31.5 -32.5t40 -18.5t57.5 -13.5t58 -11.5zM319 614q2 -33 14.5 -55t46.5 -36.5t51.5 -19.5t68.5 -14q14 -2 20 -4
q172 -45 182 -49l3 19q4 20 4 30q0 18 -3.5 35t-7.5 28t-16 23.5t-18.5 19.5t-24.5 15t-26.5 11.5t-31 9.5t-30.5 8t-36 8t-34 8q-14 4 -65 14.5t-80 18.5q-15 -33 -17 -70z" />
    <glyph glyph-name="dieresis" unicode="&#xa8;" horiz-adv-x="1120" 
d="M364.5 1147q-61.5 0 -102.5 42t-41 103.5t41 101.5t103 40q63 0 102 -40t39 -101.5t-40 -103.5t-101.5 -42zM802.5 1147q-61.5 0 -102.5 42t-41 103.5t41 101.5t103 40q63 0 102 -40t39 -101.5t-40 -103.5t-101.5 -42z" />
    <glyph glyph-name="copyright" unicode="&#xa9;" horiz-adv-x="1482" 
d="M862 1339q281 0 435.5 -192.5t111.5 -503.5q-45 -311 -252 -503.5t-491 -192.5q-281 0 -439.5 193.5t-115.5 502.5t255.5 502.5t495.5 193.5zM1255 643q39 260 -76.5 415.5t-332.5 155.5q-223 0 -385 -155.5t-201 -415.5q-35 -260 84 -415.5t340 -155.5
q219 0 376.5 155.5t194.5 415.5zM950 479h123q-82 -123 -96 -198q-39 12 -70 12q-33 0 -81 -14.5t-97 -14.5q-174 0 -255 103.5t-56 283.5q25 168 139.5 269.5t255.5 101.5q47 0 102.5 -14.5t88 -14.5t75.5 11q0 -137 17 -207h-144q-18 70 -62 118t-95 48q-131 0 -168 -273
q-8 -84 -10.5 -164t28.5 -139t88 -59q108 -1 217 151z" />
    <glyph glyph-name="ordfeminine" unicode="&#xaa;" horiz-adv-x="751" 
d="M639 784q6 0 14.5 5.5t23.5 13.5t34 16l-6 -123q-100 -39 -148 -39q-53 0 -78 56q-63 -55 -170 -56q-86 0 -145.5 50.5t-46.5 136.5q10 74 92 128t283 87l8 8q10 39 8 89t-31 50q-49 0 -67.5 -19.5t-32.5 -78.5q-18 -51 -111 -51q-41 0 -60.5 27.5t-15.5 70.5
q8 68 92.5 104.5t182.5 36.5q139 0 187 -61t32 -182l-39 -256q0 -13 -6 -13zM471 879l18 82q-104 -20 -142 -58.5t-46 -93.5q-4 -25 3 -33t36 -8q10 0 19.5 2t17.5 6t15 8t15.5 12.5l13.5 13.5t13 16.5t12.5 16.5t13.5 18.5t11 17.5zM115 397l22 156h479l-22 -156h-479z" />
    <glyph glyph-name="guillemotleft" unicode="&#xab;" horiz-adv-x="919" 
d="M70 551l446 344l43 -59l-295 -314l207 -313l-55 -59l-359 344zM418 551l446 344l43 -59l-295 -314l207 -313l-55 -59l-358 344z" />
    <glyph glyph-name="logicalnot" unicode="&#xac;" horiz-adv-x="1044" 
d="M991 797l-73 -504h-181l43 309h-678l27 195h862z" />
    <glyph glyph-name="uni00AD" unicode="&#xad;" horiz-adv-x="692" 
d="M74 596h553v-115h-553v115z" />
    <glyph glyph-name="registered" unicode="&#xae;" horiz-adv-x="1482" 
d="M862 1339q281 0 435.5 -192.5t111.5 -503.5q-45 -311 -252 -503.5t-491 -192.5q-281 0 -439.5 193.5t-115.5 502.5t255.5 502.5t495.5 193.5zM1255 643q39 260 -76.5 415.5t-332.5 155.5q-223 0 -385 -155.5t-201 -415.5q-35 -260 84 -415.5t340 -155.5
q219 0 376.5 155.5t194.5 415.5zM971 424q23 -39 38 -52.5t46 -15.5l-11 -53q-117 6 -243 0q10 72 -17 115l-86 162l-10 2l-24 -185q-4 -20 11 -29.5t58 -11.5l-6 -53q-170 6 -334 0l6 53q82 2 88 41l64 480v21t-15.5 20.5t-41.5 11.5l8 49q45 -2 96 -2t101.5 1t64.5 1
q178 0 242.5 -47t52.5 -148q-20 -152 -178 -184zM694 635l51 4q55 2 97.5 38t54.5 109q16 139 -94 140q-49 0 -66 2z" />
    <glyph glyph-name="macron" unicode="&#xaf;" horiz-adv-x="866" 
d="M219 1329q6 37 41 37h586q39 0 31 -37l-9 -100q-8 -39 -41 -39h-585q-41 0 -33 39z" />
    <glyph glyph-name="degree" unicode="&#xb0;" horiz-adv-x="577" 
d="M401 1298q90 0 143.5 -67.5t39 -167.5t-86 -168t-163.5 -68q-90 0 -144.5 68t-40 168t87 167.5t164.5 67.5zM444 1063q6 47 -9 79t-54 32t-64.5 -32t-29.5 -79q-14 -111 63 -111q39 0 63.5 31t30.5 80z" />
    <glyph glyph-name="plusminus" unicode="&#xb1;" horiz-adv-x="886" 
d="M522 807h283l-17 -117h-282l-41 -299h-111l41 299h-280l16 117h281l41 301h112zM53 18l17 119h673l-16 -119h-674z" />
    <glyph glyph-name="uni00B2" unicode="&#xb2;" horiz-adv-x="581" 
d="M590 938l-21 -117q-6 -29 -43 -28h-387q33 158 213 268q94 57 94 113q0 27 -20 43t-49 16q-59 0 -70 -37q-8 -16 -1 -42t5 -36q-14 -31 -51 -37t-67.5 12.5t-30.5 49.5q2 72 55 121t154 49q94 0 142 -41t48 -115q0 -45 -27.5 -85t-54 -59.5t-71.5 -45.5
q-16 -10 -25.5 -15.5t-16 -9.5t-9.5 -9t-5 -8t-4 -13.5t-4 -16.5h117q33 0 43 16l18 27h68z" />
    <glyph glyph-name="uni00B3" unicode="&#xb3;" horiz-adv-x="610" 
d="M489 1102q111 -31 111 -135q0 -80 -62.5 -131.5t-170.5 -51.5q-98 0 -155.5 48.5t-57.5 113.5q0 23 15 38t44 15q31 0 43 -11t16 -40.5t7 -36.5q6 -20 31.5 -35.5t51.5 -15.5q45 0 74 33t25 59q2 57 -37 68.5t-92 -16.5l-37 69l49 23q68 25 68 90q0 51 -66 51
q-29 0 -40 -35t-1 -74l-115 13q-25 10 -24 28q-2 63 49 104.5t145 41.5q96 0 148.5 -39t52.5 -86q0 -61 -72 -88z" />
    <glyph glyph-name="acute" unicode="&#xb4;" horiz-adv-x="675" 
d="M201 1204l299 238q53 41 102 41q35 0 58.5 -23.5t23.5 -62.5q0 -47 -33 -75t-92 -52l-326 -119z" />
    <glyph glyph-name="mu" unicode="&#xb5;" horiz-adv-x="1400" 
d="M1321 250q18 -18 -8 -53q-188 -213 -383 -213q-154 0 -119 174l59 286q-33 -94 -69.5 -165.5t-91 -144.5t-130 -111.5t-167.5 -38.5q-47 0 -78 10q0 -70 18.5 -123t38 -75.5t32.5 -45t7 -41.5q-25 -80 -125 -110q-100 -31 -151 20q-33 33 -25 92l61 414q-29 90 0 231
l93 441q6 27 -6.5 39t-32.5 12q-47 0 -117 -66q-18 -20 -41 -2q-25 23 2 51q178 209 373 209q74 0 110.5 -41t20.5 -118l-100 -525q-45 -238 55 -237q106 0 228 245.5t179 661.5h273l-117 -813q-8 -45 35 -45t125 82q24 25 51 0z" />
    <glyph glyph-name="paragraph" unicode="&#xb6;" horiz-adv-x="1351" 
d="M664 1272h722l-18 -123q-31 -6 -47 -11t-31.5 -19.5t-17.5 -37.5l-137 -993q-8 -35 8 -52.5t67 -25.5l-22 -147h-823l18 147q72 8 97.5 24.5t29.5 53.5l55 404h-28q-211 0 -335 106.5t-100 282.5q25 178 187 284.5t375 106.5zM522 592h58l75 545h-41q-106 0 -167.5 -84
t-71.5 -172q-8 -33 -3 -82t17 -95.5t47 -79t86 -32.5zM1030 1079q6 35 -2 46.5t-33 11.5h-98l-143 -1049q-8 -37 5 -52.5t54 -15.5q68 0 76 68z" />
    <glyph glyph-name="periodcentered" unicode="&#xb7;" horiz-adv-x="518" 
d="M113 446q-53 0 -90 40t-37 98q0 70 53 124t121 54q53 0 90 -40t37 -97q0 -70 -53 -124.5t-121 -54.5z" />
    <glyph glyph-name="cedilla" unicode="&#xb8;" horiz-adv-x="718" 
d="M207 -352q100 0 100 98q0 41 -26.5 65.5t-85.5 47.5q-51 16 -48 57q0 8 6.5 14.5t23 26.5t34.5 43h94l-35 -61q213 -78 213 -191q0 -76 -86 -117t-188 -41q-94 0 -154.5 33t-60.5 101q0 35 21.5 58t60.5 23q41 0 54 -24.5t9 -54t10.5 -54t57.5 -24.5z" />
    <glyph glyph-name="uni00B9" unicode="&#xb9;" horiz-adv-x="454" 
d="M385 924q0 -33 59 -37v-84h-264v84q59 4 60 37v260l-64 -21v97l115 51q20 8 41.5 5t38 -14.5t14.5 -21.5v-356z" />
    <glyph glyph-name="ordmasculine" unicode="&#xba;" horiz-adv-x="743" 
d="M471 1294q123 -2 203 -95t61 -236q-20 -133 -120.5 -218.5t-219.5 -85.5t-197.5 94.5t-60.5 235.5q18 135 116.5 219t217.5 86zM549 975q16 109 -9.5 173t-70.5 64q-119 0 -150 -235q-14 -111 12.5 -174.5t78.5 -63.5q106 0 139 236zM137 553h479l-22 -156h-479z" />
    <glyph glyph-name="guillemotright" unicode="&#xbb;" horiz-adv-x="925" 
d="M510 494l-447 -344l-45 59l295 313l-204 314l55 59l356 -344zM858 494l-446 -344l-45 59l295 313l-205 314l55 59l356 -344z" />
    <glyph glyph-name="onequarter" unicode="&#xbc;" horiz-adv-x="1419" 
d="M240 924v260l-64 -21v97l115 51q20 8 41.5 5t38 -14.5t14.5 -21.5v-356q0 -33 59 -37v-84h-264v84q60 4 60 37zM1022 1303h192l-884 -1313h-193zM1282 125h-57v-53q0 -37 51 -37v-47h-250v47q49 0 49 37v53h-190v94l245 283q18 23 56.5 14.5t38.5 -33.5v-260h57v-98z" />
    <glyph glyph-name="onehalf" unicode="&#xbd;" horiz-adv-x="1439" 
d="M385 924q0 -33 59 -37v-84h-264v84q59 4 60 37v260l-64 -21v97l115 51q20 8 41.5 5t38 -14.5t14.5 -21.5v-356zM1022 1303h192l-884 -1313h-193zM1333 133l-20 -117q-6 -29 -43 -28h-387q33 158 213 268q94 57 94 113q0 27 -20.5 43t-49.5 16q-59 0 -69 -37
q-8 -16 -1 -41.5t5 -36.5q-14 -31 -51 -37t-68 12.5t-31 49.5q2 72 55.5 121t153.5 49q94 0 142.5 -41t48.5 -115q0 -45 -28 -85t-54.5 -59.5t-71.5 -45.5q-16 -10 -25.5 -15.5t-15.5 -9.5t-9 -9t-5 -8t-4 -13.5t-5 -16.5h117q33 0 43 16l19 27h67z" />
    <glyph glyph-name="threequarters" unicode="&#xbe;" horiz-adv-x="1456" 
d="M600 967q0 -80 -62.5 -131.5t-170.5 -51.5q-98 0 -155.5 48.5t-57.5 113.5q0 23 15 38t44 15q31 0 43 -11t16 -40.5t7 -36.5q6 -20 31.5 -35.5t51.5 -15.5q45 0 74 33t25 59q2 57 -37 68.5t-92 -16.5l-37 69l49 23q68 25 68 90q0 51 -66 51q-29 0 -40 -35t-1 -74l-115 13
q-25 10 -24 28q-2 63 49 104.5t145 41.5q96 0 148.5 -39t52.5 -86q0 -61 -72 -88q111 -31 111 -135zM1133 1303h192l-885 -1313h-192zM1262 483v-260h57v-98h-57v-53q0 -37 51 -37v-47h-250v47q49 0 49 37v53h-190v94l245 283q18 23 56.5 14.5t38.5 -33.5z" />
    <glyph glyph-name="questiondown" unicode="&#xbf;" horiz-adv-x="1060" 
d="M623 1051q53 0 89 -37t36 -94q0 -74 -52.5 -129.5t-117.5 -55.5q-55 0 -93.5 40t-38.5 97q0 72 54.5 125.5t122.5 53.5zM610 647q0 -86 -37.5 -158.5t-85 -118.5t-94.5 -121t-61 -161q-6 -43 -6 -80q0 -180 118 -180q88 0 138.5 84t50.5 188q0 14 -4 35t-4 35
q0 61 43 107.5t123 46.5q63 0 93.5 -46.5t30.5 -115.5q0 -180 -144 -308t-343 -128q-188 0 -293.5 78.5t-105.5 222.5q0 106 42 184t105.5 125t129 86t123.5 96t81 129h100z" />
    <glyph glyph-name="Agrave" unicode="&#xc0;" horiz-adv-x="1368" 
d="M659 1513q-63 23 -85.5 78.5t8.5 98.5q33 43 81 42t99 -44l274 -238l-37 -55zM1100 301q29 -121 64.5 -161t125.5 -46l-4 -94q-324 8 -657 0l4 94q57 4 91 12.5t60.5 31t18.5 61.5l-53 235h-318l-106 -241q-27 -59 14 -76t162 -23h12v-94q-272 10 -547 0l4 94
q106 6 162.5 39t93.5 105l480 1044h186zM475 530h254l-86 381z" />
    <glyph glyph-name="Aacute" unicode="&#xc1;" horiz-adv-x="1368" 
d="M967 1516l-326 -119l-33 53l299 238q53 41 103 41q35 0 58.5 -24t23.5 -63q0 -47 -33 -74t-92 -52zM1100 301q29 -121 64.5 -161t125.5 -46l-4 -94q-324 8 -657 0l4 94q57 4 91 12.5t60.5 31t18.5 61.5l-53 235h-318l-106 -241q-27 -59 14 -76t162 -23h12v-94
q-272 10 -547 0l4 94q106 6 162.5 39t93.5 105l480 1044h186zM475 530h254l-86 381z" />
    <glyph glyph-name="Acircumflex" unicode="&#xc2;" horiz-adv-x="1368" 
d="M834 1532l-320 -225l-47 45l367 364h47l264 -364l-60 -45zM1100 301q29 -121 64.5 -161t125.5 -46l-4 -94q-324 8 -657 0l4 94q57 4 91 12.5t60.5 31t18.5 61.5l-53 235h-318l-106 -241q-27 -59 14 -76t162 -23h12v-94q-272 10 -547 0l4 94q106 6 162.5 39t93.5 105
l480 1044h186zM475 530h254l-86 381z" />
    <glyph glyph-name="Atilde" unicode="&#xc3;" horiz-adv-x="1368" 
d="M668 1513q-33 0 -50.5 -24.5t-15.5 -42.5l-86 14q23 244 244 244q109 0 202 -38t138 -38q29 0 49 22.5t14 37.5l88 -17q-16 -133 -90 -194.5t-170 -61.5q-111 0 -203.5 49t-119.5 49zM1100 301q29 -121 64.5 -161t125.5 -46l-4 -94q-324 8 -657 0l4 94q57 4 91 12.5
t60.5 31t18.5 61.5l-53 235h-318l-106 -241q-27 -59 14 -76t162 -23h12v-94q-272 10 -547 0l4 94q106 6 162.5 39t93.5 105l480 1044h186zM475 530h254l-86 381z" />
    <glyph glyph-name="Adieresis" unicode="&#xc4;" horiz-adv-x="1368" 
d="M610.5 1393q-61.5 0 -102.5 42t-41 103t41 101t102 40q63 0 102.5 -40t39.5 -101t-40 -103t-101.5 -42zM1048.5 1393q-61.5 0 -102.5 42t-41 103t41 101t103 40q63 0 102 -40t39 -101t-40 -103t-101.5 -42zM1100 301q29 -121 64.5 -161t125.5 -46l-4 -94q-324 8 -657 0
l4 94q57 4 91 12.5t60.5 31t18.5 61.5l-53 235h-318l-106 -241q-27 -59 14 -76t162 -23h12v-94q-272 10 -547 0l4 94q106 6 162.5 39t93.5 105l480 1044h186zM475 530h254l-86 381z" />
    <glyph glyph-name="Aring" unicode="&#xc5;" horiz-adv-x="1368" 
d="M821.5 1376q-69.5 0 -111.5 48.5t-34 116t60 114.5t122 47t112 -47t33.5 -114.5t-60.5 -116t-121.5 -48.5zM768 1540q-2 -29 16.5 -51.5t45 -22.5t53 23.5t28.5 50.5t-16 49.5t-45 22.5q-29 0 -54.5 -22.5t-27.5 -49.5zM1100 301q29 -121 64.5 -161t125.5 -46l-4 -94
q-324 8 -657 0l4 94q57 4 91 12.5t60.5 31t18.5 61.5l-53 235h-318l-106 -241q-27 -59 14 -76t162 -23h12v-94q-272 10 -547 0l4 94q106 6 162.5 39t93.5 105l480 1044h186zM475 530h254l-86 381z" />
    <glyph glyph-name="AE" unicode="&#xc6;" horiz-adv-x="1980" 
d="M1714 248l78 133l109 -8q-106 -231 -117 -373q-375 23 -910 0l3 88q80 6 115.5 25.5t41.5 58.5l37 262h-506l-223 -233q-74 -76 96 -101q35 -4 78 -6l-12 -94q-268 10 -545 0l16 94q96 6 150.5 37t120.5 98l878 938q-39 8 -86 11l11 94h866q39 0 33 -45l2 -252h-99
l-18 51q-41 88 -70.5 114.5t-111.5 26.5h-107q-18 0 -33.5 -14t-17.5 -31l-57 -411h159q72 0 111 29.5t59 97.5l76 -17q-39 -162 -47 -348l-80 16q-2 68 -25.5 92.5t-97.5 24.5h-172l-65 -469q-2 -31 30 -31h37q121 0 183.5 29t109.5 113zM655 530h428l76 537z" />
    <glyph glyph-name="Ccedilla" unicode="&#xc7;" horiz-adv-x="1251" 
d="M696 76q100 0 200.5 65.5t168.5 206.5h121q-63 -166 -200.5 -274.5t-356.5 -108.5h-13l-14 -26q213 -78 213 -191q0 -76 -86 -117t-188 -41q-94 0 -154.5 33t-60.5 101q0 35 21.5 58t60.5 23q41 0 54 -24.5t9 -54t10.5 -54t57.5 -24.5q100 0 100 98q0 41 -26.5 65.5
t-86.5 47.5q-51 16 -47 57q0 6 41 57q-211 29 -328.5 173.5t-117.5 377.5q0 330 198.5 555.5t487.5 225.5q92 0 188 -26t144 -26q45 0 114 9q-16 -193 35 -353h-170q-94 289 -305 289q-117 0 -200 -109.5t-116.5 -262t-35.5 -324.5q0 -193 69.5 -309.5t212.5 -116.5z" />
    <glyph glyph-name="Egrave" unicode="&#xc8;" horiz-adv-x="1095" 
d="M512 1513q-63 23 -86 78.5t8 98.5q33 43 81 42t99 -44l275 -238l-37 -55zM829 248l78 133l109 -8q-106 -231 -117 -373q-375 23 -909 0l2 88q80 6 115.5 25.5t42.5 58.5l131 940q8 37 -16.5 48t-110.5 18l10 94h866q39 0 33 -45l2 -252h-98l-19 51q-41 88 -70.5 114.5
t-111.5 26.5h-107q-18 0 -33.5 -14t-17.5 -31l-57 -411h160q72 0 110.5 29.5t59.5 97.5l75 -17q-39 -162 -47 -348l-80 16q-2 68 -25.5 92.5t-96.5 24.5h-172l-66 -469q-2 -31 31 -31h37q121 0 183 29t109 113z" />
    <glyph glyph-name="Eacute" unicode="&#xc9;" horiz-adv-x="1095" 
d="M819 1516l-325 -119l-33 53l299 238q53 41 102 41q35 0 58.5 -24t23.5 -63q0 -47 -33 -74t-92 -52zM829 248l78 133l109 -8q-106 -231 -117 -373q-375 23 -909 0l2 88q80 6 115.5 25.5t42.5 58.5l131 940q8 37 -16.5 48t-110.5 18l10 94h866q39 0 33 -45l2 -252h-98
l-19 51q-41 88 -70.5 114.5t-111.5 26.5h-107q-18 0 -33.5 -14t-17.5 -31l-57 -411h160q72 0 110.5 29.5t59.5 97.5l75 -17q-39 -162 -47 -348l-80 16q-2 68 -25.5 92.5t-96.5 24.5h-172l-66 -469q-2 -31 31 -31h37q121 0 183 29t109 113z" />
    <glyph glyph-name="Ecircumflex" unicode="&#xca;" horiz-adv-x="1095" 
d="M686 1532l-319 -225l-48 45l367 364h47l264 -364l-59 -45zM829 248l78 133l109 -8q-106 -231 -117 -373q-375 23 -909 0l2 88q80 6 115.5 25.5t42.5 58.5l131 940q8 37 -16.5 48t-110.5 18l10 94h866q39 0 33 -45l2 -252h-98l-19 51q-41 88 -70.5 114.5t-111.5 26.5h-107
q-18 0 -33.5 -14t-17.5 -31l-57 -411h160q72 0 110.5 29.5t59.5 97.5l75 -17q-39 -162 -47 -348l-80 16q-2 68 -25.5 92.5t-96.5 24.5h-172l-66 -469q-2 -31 31 -31h37q121 0 183 29t109 113z" />
    <glyph glyph-name="Edieresis" unicode="&#xcb;" horiz-adv-x="1095" 
d="M462.5 1393q-61.5 0 -102.5 42t-41 103t41 101t103 40q63 0 102 -40t39 -101t-40 -103t-101.5 -42zM901.5 1393q-61.5 0 -102.5 42t-41 103t41 101t102 40q63 0 102 -40t39 -101t-39.5 -103t-101 -42zM829 248l78 133l109 -8q-106 -231 -117 -373q-375 23 -909 0l2 88
q80 6 115.5 25.5t42.5 58.5l131 940q8 37 -16.5 48t-110.5 18l10 94h866q39 0 33 -45l2 -252h-98l-19 51q-41 88 -70.5 114.5t-111.5 26.5h-107q-18 0 -33.5 -14t-17.5 -31l-57 -411h160q72 0 110.5 29.5t59.5 97.5l75 -17q-39 -162 -47 -348l-80 16q-2 68 -25.5 92.5
t-96.5 24.5h-172l-66 -469q-2 -31 31 -31h37q121 0 183 29t109 113z" />
    <glyph glyph-name="Igrave" unicode="&#xcc;" horiz-adv-x="724" 
d="M705 1450l-37 -55l-340 118q-63 23 -86 78.5t8 98.5q33 43 81 42t99 -44zM477 162q-6 -37 24.5 -50.5t116.5 -17.5l-16 -94q-311 10 -622 0l16 94q141 8 156 84l131 932q6 37 -23 50.5t-113 17.5l17 94q309 -10 614 0l-12 -94q-152 -8 -160 -84z" />
    <glyph glyph-name="Iacute" unicode="&#xcd;" horiz-adv-x="724" 
d="M276 1450l299 238q53 41 103 41q35 0 58.5 -24t23.5 -63q0 -47 -33 -74.5t-92 -51.5l-326 -119zM477 162q-6 -37 24.5 -50.5t116.5 -17.5l-16 -94q-311 10 -622 0l16 94q141 8 156 84l131 932q6 37 -23 50.5t-113 17.5l17 94q309 -10 614 0l-12 -94q-152 -8 -160 -84z
" />
    <glyph glyph-name="Icircumflex" unicode="&#xce;" horiz-adv-x="724" 
d="M549 1716l264 -364l-59 -45l-252 225l-320 -225l-47 45l367 364h47zM477 162q-6 -37 24.5 -50.5t116.5 -17.5l-16 -94q-311 10 -622 0l16 94q141 8 156 84l131 932q6 37 -23 50.5t-113 17.5l17 94q309 -10 614 0l-12 -94q-152 -8 -160 -84z" />
    <glyph glyph-name="Idieresis" unicode="&#xcf;" horiz-adv-x="724" 
d="M278.5 1393q-61.5 0 -102.5 42t-41 103t41 101t103 40q63 0 102 -40t39 -101t-40 -103t-101.5 -42zM716.5 1393q-61.5 0 -102.5 42t-41 103t41 101t103 40q63 0 102 -40t39 -101t-40 -103t-101.5 -42zM477 162q-6 -37 24.5 -50.5t116.5 -17.5l-16 -94q-311 10 -622 0
l16 94q141 8 156 84l131 932q6 37 -23 50.5t-113 17.5l17 94q309 -10 614 0l-12 -94q-152 -8 -160 -84z" />
    <glyph glyph-name="Eth" unicode="&#xd0;" horiz-adv-x="1329" 
d="M709 1272q573 0 573 -504q0 -336 -176 -550t-496 -214q-35 0 -151.5 16.5t-173.5 16.5q-109 0 -297 -37l4 96q8 0 26 2q51 4 72 7.5t37 14.5t20 36l56 397h-135l22 166h135l56 399q4 29 -16.5 41t-94.5 19l2 94q127 -4 188 -4q59 0 175.5 2t173.5 2zM602 92
q102 -2 179 124t111 291t34 324q0 344 -246 345q-29 0 -57 -5l-66 -452h150l-25 -166h-150l-59 -410q-4 -16 -3 -25t1 -11.5t8 -4.5l8 -4q23 0 49.5 -2t44 -3t21.5 -1z" />
    <glyph glyph-name="Ntilde" unicode="&#xd1;" horiz-adv-x="1445" 
d="M1282 1671q-16 -133 -90 -194.5t-170 -61.5q-84 0 -147.5 24.5t-104.5 49t-72 24.5q-33 0 -50 -24.5t-15 -42.5l-86 14q23 244 244 244q109 0 201.5 -38t137.5 -38q29 0 49.5 22.5t14.5 37.5zM920 1272q287 -8 573 0l-4 -94q-242 -14 -252 -84l-154 -1094h-100l-518 973
l-117 -811q-4 -35 48.5 -47.5t170.5 -20.5l-4 -94q-285 10 -567 0l4 94q238 14 248 84l125 895q4 35 -42 68t-122 37v94q236 -8 477 0l369 -701l82 539q4 35 -49.5 47t-167.5 21v94z" />
    <glyph glyph-name="Ograve" unicode="&#xd2;" horiz-adv-x="1290" 
d="M977 1450l-37 -55l-340 118q-63 23 -85.5 78.5t7.5 98.5q33 43 81 42t99 -44zM573 -35q-227 0 -364 148.5t-137 408.5q0 326 194.5 554.5t485.5 228.5q219 0 359 -159t140 -409q0 -313 -201 -542.5t-477 -229.5zM600 72q82 0 146.5 75.5t99.5 195.5t52 245t17 246
q0 365 -180 364q-86 0 -151.5 -68.5t-101.5 -181t-53 -234.5t-17 -247q0 -182 48 -288.5t140 -106.5z" />
    <glyph glyph-name="Oacute" unicode="&#xd3;" horiz-adv-x="1290" 
d="M549 1450l299 238q53 41 102 41q35 0 58.5 -24t23.5 -63q0 -47 -32.5 -74.5t-92.5 -51.5l-325 -119zM573 -35q-227 0 -364 148.5t-137 408.5q0 326 194.5 554.5t485.5 228.5q219 0 359 -159t140 -409q0 -313 -201 -542.5t-477 -229.5zM600 72q82 0 146.5 75.5t99.5 195.5
t52 245t17 246q0 365 -180 364q-86 0 -151.5 -68.5t-101.5 -181t-53 -234.5t-17 -247q0 -182 48 -288.5t140 -106.5z" />
    <glyph glyph-name="Ocircumflex" unicode="&#xd4;" horiz-adv-x="1290" 
d="M821 1716l264 -364l-59 -45l-252 225l-319 -225l-47 45l366 364h47zM573 -35q-227 0 -364 148.5t-137 408.5q0 326 194.5 554.5t485.5 228.5q219 0 359 -159t140 -409q0 -313 -201 -542.5t-477 -229.5zM600 72q82 0 146.5 75.5t99.5 195.5t52 245t17 246q0 365 -180 364
q-86 0 -151.5 -68.5t-101.5 -181t-53 -234.5t-17 -247q0 -182 48 -288.5t140 -106.5z" />
    <glyph glyph-name="Otilde" unicode="&#xd5;" horiz-adv-x="1290" 
d="M1192 1671q-16 -133 -90 -194.5t-170 -61.5q-84 0 -147.5 24.5t-104.5 49t-72 24.5q-33 0 -50 -24.5t-15 -42.5l-86 14q23 244 243 244q109 0 202 -38t138 -38q29 0 49.5 22.5t14.5 37.5zM573 -35q-227 0 -364 148.5t-137 408.5q0 326 194.5 554.5t485.5 228.5
q219 0 359 -159t140 -409q0 -313 -201 -542.5t-477 -229.5zM600 72q82 0 146.5 75.5t99.5 195.5t52 245t17 246q0 365 -180 364q-86 0 -151.5 -68.5t-101.5 -181t-53 -234.5t-17 -247q0 -182 48 -288.5t140 -106.5z" />
    <glyph glyph-name="Odieresis" unicode="&#xd6;" horiz-adv-x="1290" 
d="M550.5 1393q-61.5 0 -102 42t-40.5 103t40.5 101t102.5 40q63 0 102 -40t39 -101t-40 -103t-101.5 -42zM989.5 1393q-61.5 0 -102.5 42t-41 103t41 101t102 40q63 0 102 -40t39 -101t-39.5 -103t-101 -42zM573 -35q-227 0 -364 148.5t-137 408.5q0 326 194.5 554.5
t485.5 228.5q219 0 359 -159t140 -409q0 -313 -201 -542.5t-477 -229.5zM600 72q82 0 146.5 75.5t99.5 195.5t52 245t17 246q0 365 -180 364q-86 0 -151.5 -68.5t-101.5 -181t-53 -234.5t-17 -247q0 -182 48 -288.5t140 -106.5z" />
    <glyph glyph-name="multiply" unicode="&#xd7;" horiz-adv-x="872" 
d="M784 723l-221 -207l168 -209l-151 -135l-164 207l-223 -207l-109 135l223 207l-166 209l148 135l166 -207l223 207z" />
    <glyph glyph-name="Oslash" unicode="&#xd8;" horiz-adv-x="1290" 
d="M1165 1071q86 -139 86 -334q0 -313 -200.5 -542.5t-477.5 -229.5q-111 0 -208 39l-27 -35l-156 127l19 25q-129 152 -129 401q0 326 194.5 554.5t485.5 228.5q154 0 276 -84l64 86l155 -127zM412 467q0 -43 2 -64l479 639q-43 156 -158 156q-86 0 -151.5 -68.5
t-101.5 -181t-53 -234.5t-17 -247zM600 72q74 0 133.5 61.5t95 161.5t56 210.5t28.5 227.5l-438 -581q47 -80 125 -80z" />
    <glyph glyph-name="Ugrave" unicode="&#xd9;" horiz-adv-x="1474" 
d="M723 1513q-63 23 -86 78.5t8 98.5q33 43 81 42t99 -44l275 -238l-37 -55zM903 1272q311 -6 621 0l-4 -94q-152 -8 -164 -84l-129 -932q-4 -37 21.5 -50.5t107.5 -17.5l-4 -94q-84 4 -255 4t-243 -4l6 98q33 18 39 80l4 25q-150 -223 -379 -223q-180 0 -273 91t-93 246
q0 18 110 793q2 37 -23.5 50.5t-107.5 17.5v94q309 -6 621 0l-4 -94q-152 -8 -164 -84q-109 -780 -109 -858q0 -80 17.5 -116t74.5 -36q178 0 353 283l108 743q2 37 -22.5 50.5t-108.5 17.5v94z" />
    <glyph glyph-name="Uacute" unicode="&#xda;" horiz-adv-x="1474" 
d="M1030 1516l-325 -119l-33 53l299 238q53 41 102 41q35 0 58.5 -24t23.5 -63q0 -47 -33 -74t-92 -52zM903 1272q311 -6 621 0l-4 -94q-152 -8 -164 -84l-129 -932q-4 -37 21.5 -50.5t107.5 -17.5l-4 -94q-84 4 -255 4t-243 -4l6 98q33 18 39 80l4 25q-150 -223 -379 -223
q-180 0 -273 91t-93 246q0 18 110 793q2 37 -23.5 50.5t-107.5 17.5v94q309 -6 621 0l-4 -94q-152 -8 -164 -84q-109 -780 -109 -858q0 -80 17.5 -116t74.5 -36q178 0 353 283l108 743q2 37 -22.5 50.5t-108.5 17.5v94z" />
    <glyph glyph-name="Ucircumflex" unicode="&#xdb;" horiz-adv-x="1474" 
d="M897 1532l-319 -225l-48 45l367 364h47l264 -364l-59 -45zM903 1272q311 -6 621 0l-4 -94q-152 -8 -164 -84l-129 -932q-4 -37 21.5 -50.5t107.5 -17.5l-4 -94q-84 4 -255 4t-243 -4l6 98q33 18 39 80l4 25q-150 -223 -379 -223q-180 0 -273 91t-93 246q0 18 110 793
q2 37 -23.5 50.5t-107.5 17.5v94q309 -6 621 0l-4 -94q-152 -8 -164 -84q-109 -780 -109 -858q0 -80 17.5 -116t74.5 -36q178 0 353 283l108 743q2 37 -22.5 50.5t-108.5 17.5v94z" />
    <glyph glyph-name="Udieresis" unicode="&#xdc;" horiz-adv-x="1474" 
d="M673.5 1393q-61.5 0 -102.5 42t-41 103t41 101t103 40q63 0 102 -40t39 -101t-40 -103t-101.5 -42zM1112.5 1393q-61.5 0 -102.5 42t-41 103t41 101t102 40q63 0 102 -40t39 -101t-39.5 -103t-101 -42zM903 1272q311 -6 621 0l-4 -94q-152 -8 -164 -84l-129 -932
q-4 -37 21.5 -50.5t107.5 -17.5l-4 -94q-84 4 -255 4t-243 -4l6 98q33 18 39 80l4 25q-150 -223 -379 -223q-180 0 -273 91t-93 246q0 18 110 793q2 37 -23.5 50.5t-107.5 17.5v94q309 -6 621 0l-4 -94q-152 -8 -164 -84q-109 -780 -109 -858q0 -80 17.5 -116t74.5 -36
q178 0 353 283l108 743q2 37 -22.5 50.5t-108.5 17.5v94z" />
    <glyph glyph-name="Yacute" unicode="&#xdd;" horiz-adv-x="1296" 
d="M563 1450l299 238q53 41 103 41q35 0 58.5 -24t23.5 -63q0 -47 -33 -74.5t-92 -51.5l-326 -119zM979 1272q190 -12 385 0l-4 -94q-109 -14 -191 -142l-354 -547l-51 -327q-4 -37 21.5 -50.5t109.5 -21.5v-90q-307 10 -621 0l5 94q150 8 163 84l43 303l-229 623
q-8 29 -13 37t-30 20.5t-76 16.5v94q305 -12 619 0l-4 -94q-78 -8 -107 -32t-14 -56l160 -449l266 412q29 39 18.5 65.5t-35 39.5t-61.5 20v94z" />
    <glyph glyph-name="Thorn" unicode="&#xde;" horiz-adv-x="1181" 
d="M631 1026q244 0 382 -108.5t113 -296.5q-25 -172 -186.5 -269.5t-404.5 -97.5h-46l-12 -92q-6 -37 24.5 -50.5t116.5 -17.5l-16 -94q-311 10 -622 0l16 94q141 8 156 84l131 932q6 37 -23 50.5t-113 17.5l17 94q309 -10 614 0l-12 -94q-152 -8 -160 -84l-10 -68h35z
M825 655q14 96 -34 181.5t-138 85.5h-71l-78 -564h57q92 0 171 95.5t93 201.5z" />
    <glyph glyph-name="germandbls" unicode="&#xdf;" horiz-adv-x="1269" 
d="M479 172q-12 -76 -64.5 -124t-123.5 -48h-305l6 94q84 6 118.5 24.5t39.5 57.5l98 686q29 211 141.5 310.5t368.5 99.5q393 0 393 -295q0 -100 -45 -171t-166 -116q133 -23 195.5 -91.5t62.5 -197.5q0 -115 -47 -195.5t-135 -123.5t-195.5 -62.5t-247.5 -19.5h-26l14 92
h14q139 0 219 91t80 220q0 111 -64.5 157t-207.5 46l-57 -10zM578 885l-27 -185l35 5q145 16 207.5 89.5t62.5 225.5q0 158 -106 158q-78 0 -115 -71.5t-57 -221.5z" />
    <glyph glyph-name="agrave" unicode="&#xe0;" horiz-adv-x="1230" 
d="M918 1204l-37 -55l-340 119q-63 23 -86 78t8 98q33 43 81 42t99 -44zM1145 246q23 -23 -2 -51q-178 -209 -371 -209q-74 0 -111.5 41t-23.5 118l27 121q-55 -141 -135 -210.5t-207 -69.5q-123 0 -205 69.5t-82 231.5q0 178 101.5 354t274.5 291t359 115q129 0 295 -66
l-119 -752q-8 -51 39 -51q51 0 117 66q20 20 43 2zM422 109q195 0 315 647l31 174q-14 33 -72 33q-92 0 -166.5 -74t-115.5 -183.5t-63.5 -218t-22.5 -192.5q0 -186 94 -186z" />
    <glyph glyph-name="aacute" unicode="&#xe1;" horiz-adv-x="1230" 
d="M489 1204l299 238q53 41 103 41q35 0 58.5 -23.5t23.5 -62.5q0 -47 -33 -75t-92 -52l-326 -119zM1145 246q23 -23 -2 -51q-178 -209 -371 -209q-74 0 -111.5 41t-23.5 118l27 121q-55 -141 -135 -210.5t-207 -69.5q-123 0 -205 69.5t-82 231.5q0 178 101.5 354t274.5 291
t359 115q129 0 295 -66l-119 -752q-8 -51 39 -51q51 0 117 66q20 20 43 2zM422 109q195 0 315 647l31 174q-14 33 -72 33q-92 0 -166.5 -74t-115.5 -183.5t-63.5 -218t-22.5 -192.5q0 -186 94 -186z" />
    <glyph glyph-name="acircumflex" unicode="&#xe2;" horiz-adv-x="1230" 
d="M762 1470l264 -364l-59 -45l-252 225l-320 -225l-47 45l367 364h47zM1145 246q23 -23 -2 -51q-178 -209 -371 -209q-74 0 -111.5 41t-23.5 118l27 121q-55 -141 -135 -210.5t-207 -69.5q-123 0 -205 69.5t-82 231.5q0 178 101.5 354t274.5 291t359 115q129 0 295 -66
l-119 -752q-8 -51 39 -51q51 0 117 66q20 20 43 2zM422 109q195 0 315 647l31 174q-14 33 -72 33q-92 0 -166.5 -74t-115.5 -183.5t-63.5 -218t-22.5 -192.5q0 -186 94 -186z" />
    <glyph glyph-name="atilde" unicode="&#xe3;" horiz-adv-x="1230" 
d="M1133 1425q-16 -133 -90 -194.5t-171 -61.5q-84 0 -147 25t-104 49.5t-72 24.5q-33 0 -50.5 -24.5t-15.5 -43.5l-86 14q23 244 244 244q109 0 202 -38t138 -38q29 0 49.5 22.5t13.5 37.5zM1145 246q23 -23 -2 -51q-178 -209 -371 -209q-74 0 -111.5 41t-23.5 118l27 121
q-55 -141 -135 -210.5t-207 -69.5q-123 0 -205 69.5t-82 231.5q0 178 101.5 354t274.5 291t359 115q129 0 295 -66l-119 -752q-8 -51 39 -51q51 0 117 66q20 20 43 2zM422 109q195 0 315 647l31 174q-14 33 -72 33q-92 0 -166.5 -74t-115.5 -183.5t-63.5 -218t-22.5 -192.5
q0 -186 94 -186z" />
    <glyph glyph-name="adieresis" unicode="&#xe4;" horiz-adv-x="1230" 
d="M491.5 1147q-61.5 0 -102.5 42t-41 103.5t41 101.5t103 40q63 0 102 -40t39 -101.5t-40 -103.5t-101.5 -42zM929.5 1147q-61.5 0 -102.5 42t-41 103.5t41 101.5t103 40q63 0 102 -40t39 -101.5t-40 -103.5t-101.5 -42zM1145 246q23 -23 -2 -51q-178 -209 -371 -209
q-74 0 -111.5 41t-23.5 118l27 121q-55 -141 -135 -210.5t-207 -69.5q-123 0 -205 69.5t-82 231.5q0 178 101.5 354t274.5 291t359 115q129 0 295 -66l-119 -752q-8 -51 39 -51q51 0 117 66q20 20 43 2zM422 109q195 0 315 647l31 174q-14 33 -72 33q-92 0 -166.5 -74
t-115.5 -183.5t-63.5 -218t-22.5 -192.5q0 -186 94 -186z" />
    <glyph glyph-name="aring" unicode="&#xe5;" horiz-adv-x="1230" 
d="M702.5 1130q-69.5 0 -111.5 48.5t-34 116t60.5 114.5t122 47t111.5 -47t34 -114.5t-60.5 -116t-122 -48.5zM710.5 1221q26.5 0 53.5 22.5t29 50.5q2 27 -16.5 49.5t-45.5 22.5q-29 0 -54.5 -22.5t-27.5 -49.5q-2 -29 16.5 -51t45 -22zM1145 246q23 -23 -2 -51
q-178 -209 -371 -209q-74 0 -111.5 41t-23.5 118l27 121q-55 -141 -135 -210.5t-207 -69.5q-123 0 -205 69.5t-82 231.5q0 178 101.5 354t274.5 291t359 115q129 0 295 -66l-119 -752q-8 -51 39 -51q51 0 117 66q20 20 43 2zM422 109q195 0 315 647l31 174q-14 33 -72 33
q-92 0 -166.5 -74t-115.5 -183.5t-63.5 -218t-22.5 -192.5q0 -186 94 -186z" />
    <glyph glyph-name="ae" unicode="&#xe6;" horiz-adv-x="1556" 
d="M1446 311q53 0 4 -84q-170 -242 -418 -241q-127 0 -222 69.5t-120 214.5l-22 -39q-63 -131 -133 -188t-216 -57q-121 0 -202.5 68.5t-81.5 232.5q0 184 97 360t262 288t347 112q158 0 291 -80q129 76 262 75q117 0 170.5 -52t53.5 -134q0 -90 -57.5 -170t-153 -136
t-171 -89t-157.5 -60q-6 -113 45 -170t125 -57q121 0 219 107q29 31 43 30h35zM422 109q68 0 141.5 119.5t120.5 266t61 261.5l23 174q-59 33 -104 33q-88 0 -158 -71t-105.5 -178.5t-54 -211t-18.5 -189.5q0 -111 22.5 -157.5t71.5 -46.5zM1219 961q-78 0 -146.5 -139.5
t-91.5 -342.5q293 98 293 375q0 107 -55 107z" />
    <glyph glyph-name="ccedilla" unicode="&#xe7;" horiz-adv-x="925" 
d="M776 639q-55 0 -81.5 30.5t-26.5 82.5q0 33 6 72.5t9 62t1 43t-18.5 29t-51.5 8.5q-94 0 -160.5 -87t-94 -197t-27.5 -218q0 -135 49 -213t143 -78q113 0 217 111q27 27 41 26h33q29 -4 28 -23.5t-22 -47.5q-145 -233 -387 -252l-26 -49q213 -78 213 -191q0 -76 -86 -117
t-189 -41q-94 0 -154.5 33t-60.5 101q0 35 21.5 58t60.5 23q41 0 54.5 -24.5t9 -54t10 -54t57.5 -24.5q100 0 100 98q0 41 -26.5 65.5t-85.5 47.5q-51 16 -47 57q0 6 5 12t20.5 23.5t29.5 38.5q-129 14 -211 107t-82 268q0 260 174 468.5t410 208.5q123 0 207 -70.5
t84 -166.5q0 -68 -40 -117t-106 -49z" />
    <glyph glyph-name="egrave" unicode="&#xe8;" horiz-adv-x="942" 
d="M848 1204l-37 -55l-340 119q-63 23 -86 78t8 98q33 43 81 42t99 -44zM821 311q53 0 4 -84q-170 -242 -417 -241q-147 0 -249 92t-102 284q0 248 184.5 464t428.5 216q117 0 170 -52t53 -134q0 -90 -57.5 -170t-152.5 -136t-171 -89t-158 -60q-6 -113 45.5 -170t124.5 -57
q121 0 219 107q27 31 43 30h35zM649 854q0 106 -55 107q-78 0 -146.5 -139.5t-91.5 -342.5q293 99 293 375z" />
    <glyph glyph-name="eacute" unicode="&#xe9;" horiz-adv-x="942" 
d="M420 1204l299 238q53 41 102 41q35 0 58.5 -23.5t23.5 -62.5q0 -47 -32.5 -75t-92.5 -52l-325 -119zM821 311q53 0 4 -84q-170 -242 -417 -241q-147 0 -249 92t-102 284q0 248 184.5 464t428.5 216q117 0 170 -52t53 -134q0 -90 -57.5 -170t-152.5 -136t-171 -89
t-158 -60q-6 -113 45.5 -170t124.5 -57q121 0 219 107q27 31 43 30h35zM649 854q0 106 -55 107q-78 0 -146.5 -139.5t-91.5 -342.5q293 99 293 375z" />
    <glyph glyph-name="ecircumflex" unicode="&#xea;" horiz-adv-x="942" 
d="M692 1470l264 -364l-59 -45l-252 225l-319 -225l-47 45l366 364h47zM821 311q53 0 4 -84q-170 -242 -417 -241q-147 0 -249 92t-102 284q0 248 184.5 464t428.5 216q117 0 170 -52t53 -134q0 -90 -57.5 -170t-152.5 -136t-171 -89t-158 -60q-6 -113 45.5 -170t124.5 -57
q121 0 219 107q27 31 43 30h35zM649 854q0 106 -55 107q-78 0 -146.5 -139.5t-91.5 -342.5q293 99 293 375z" />
    <glyph glyph-name="edieresis" unicode="&#xeb;" horiz-adv-x="942" 
d="M421.5 1147q-61.5 0 -102 42t-40.5 103.5t40.5 101.5t102.5 40q63 0 102 -40t39 -101.5t-40 -103.5t-101.5 -42zM860.5 1147q-61.5 0 -102.5 42t-41 103.5t41 101.5t102 40q63 0 102 -40t39 -101.5t-39.5 -103.5t-101 -42zM821 311q53 0 4 -84q-170 -242 -417 -241
q-147 0 -249 92t-102 284q0 248 184.5 464t428.5 216q117 0 170 -52t53 -134q0 -90 -57.5 -170t-152.5 -136t-171 -89t-158 -60q-6 -113 45.5 -170t124.5 -57q121 0 219 107q27 31 43 30h35zM649 854q0 106 -55 107q-78 0 -146.5 -139.5t-91.5 -342.5q293 99 293 375z" />
    <glyph glyph-name="igrave" unicode="&#xec;" horiz-adv-x="751" 
d="M696 1204l-37 -55l-340 119q-63 23 -85.5 78t8.5 98q33 43 81 42t99 -44zM666 246q23 -23 -2 -51q-178 -209 -373 -209q-72 0 -106.5 42t-20.5 117l127 668q6 45 -35 45q-43 0 -125 -82q-25 -27 -51 0q-18 18 10 53q188 215 385 215q150 0 117 -176l-123 -639
q-6 -27 6 -39t33 -12q49 0 115 66q20 20 43 2z" />
    <glyph glyph-name="iacute" unicode="&#xed;" horiz-adv-x="751" 
d="M268 1204l299 238q53 41 103 41q35 0 58.5 -23.5t23.5 -62.5q0 -47 -33 -75t-92 -52l-326 -119zM666 246q23 -23 -2 -51q-178 -209 -373 -209q-72 0 -106.5 42t-20.5 117l127 668q6 45 -35 45q-43 0 -125 -82q-25 -27 -51 0q-18 18 10 53q188 215 385 215q150 0 117 -176
l-123 -639q-6 -27 6 -39t33 -12q49 0 115 66q20 20 43 2z" />
    <glyph glyph-name="icircumflex" unicode="&#xee;" horiz-adv-x="751" 
d="M541 1470l264 -364l-60 -45l-251 225l-320 -225l-47 45l367 364h47zM666 246q23 -23 -2 -51q-178 -209 -373 -209q-72 0 -106.5 42t-20.5 117l127 668q6 45 -35 45q-43 0 -125 -82q-25 -27 -51 0q-18 18 10 53q188 215 385 215q150 0 117 -176l-123 -639q-6 -27 6 -39
t33 -12q49 0 115 66q20 20 43 2z" />
    <glyph glyph-name="idieresis" unicode="&#xef;" horiz-adv-x="751" 
d="M270.5 1147q-61.5 0 -102.5 42t-41 103.5t41 101.5t102 40q63 0 102.5 -40t39.5 -101.5t-40 -103.5t-101.5 -42zM708.5 1147q-61.5 0 -102.5 42t-41 103.5t41 101.5t103 40q63 0 102 -40t39 -101.5t-40 -103.5t-101.5 -42zM666 246q23 -23 -2 -51q-178 -209 -373 -209
q-72 0 -106.5 42t-20.5 117l127 668q6 45 -35 45q-43 0 -125 -82q-25 -27 -51 0q-18 18 10 53q188 215 385 215q150 0 117 -176l-123 -639q-6 -27 6 -39t33 -12q49 0 115 66q20 20 43 2z" />
    <glyph glyph-name="eth" unicode="&#xf0;" horiz-adv-x="1208" 
d="M1262 1348l-11 -91l-153 -40q31 -92 8 -271l-90 -657q-10 -55 20.5 -70.5t87.5 2.5l-4 -112q-92 -25 -181 -62t-139 -59.5t-69 -22.5q-39 0 -56.5 30t-4.5 77l20 57q-61 -80 -118.5 -122t-137.5 -42q-166 0 -285.5 147.5t-87.5 393.5q20 135 74.5 242.5t126.5 169
t143.5 93t137 31.5t117 -24.5t75 -51t49.5 -67.5l25 150q8 53 2 90l-256 -68l10 90l187 49q-39 14 -172 2v95q223 45 266 45q154 0 209 -60zM709 336l67 469q-35 61 -87 96t-105 35q-131 0 -189 -447q-33 -186 -17.5 -308t97.5 -122q61 0 132 81t102 196z" />
    <glyph glyph-name="ntilde" unicode="&#xf1;" horiz-adv-x="1406" 
d="M1143 1425q-16 -133 -90 -194.5t-170 -61.5q-84 0 -147.5 25t-104.5 49.5t-72 24.5q-33 0 -50 -24.5t-15 -43.5l-86 14q23 244 243 244q109 0 202 -38t138 -38q29 0 49.5 22.5t14.5 37.5zM1321 246q25 -23 -2 -51q-176 -209 -373 -209q-72 0 -108.5 41t-22.5 118l98 525
q23 104 11.5 170.5t-66.5 66.5q-109 0 -230.5 -244.5t-181.5 -662.5h-270l117 813q8 45 -37 45q-43 0 -125 -82q-25 -27 -51 0q-18 18 10 53q186 213 383 213q150 0 119 -174l-62 -286q33 94 70 165.5t91 144.5t131 111.5t169 38.5q127 0 194.5 -85t26.5 -287l-86 -441
q-6 -25 6.5 -38t30.5 -13q51 0 117 66q23 22 41 2z" />
    <glyph glyph-name="ograve" unicode="&#xf2;" horiz-adv-x="1110" 
d="M897 1204l-37 -55l-340 119q-63 23 -85.5 78t7.5 98q33 43 81 42t100 -44zM637 1042q178 0 300 -100t122 -313q0 -258 -174 -450.5t-404 -192.5q-164 0 -289.5 108.5t-125.5 317.5q0 258 173 444t398 186zM750 764q0 201 -115 201q-117 0 -192.5 -216.5t-75.5 -482.5
q0 -201 112.5 -200.5t191.5 213.5t79 485z" />
    <glyph glyph-name="oacute" unicode="&#xf3;" horiz-adv-x="1110" 
d="M469 1204l299 238q53 41 102 41q35 0 58.5 -23.5t23.5 -62.5q0 -47 -32.5 -75t-92.5 -52l-325 -119zM637 1042q178 0 300 -100t122 -313q0 -258 -174 -450.5t-404 -192.5q-164 0 -289.5 108.5t-125.5 317.5q0 258 173 444t398 186zM750 764q0 201 -115 201
q-117 0 -192.5 -216.5t-75.5 -482.5q0 -201 112.5 -200.5t191.5 213.5t79 485z" />
    <glyph glyph-name="ocircumflex" unicode="&#xf4;" horiz-adv-x="1110" 
d="M741 1470l265 -364l-60 -45l-252 225l-319 -225l-47 45l366 364h47zM637 1042q178 0 300 -100t122 -313q0 -258 -174 -450.5t-404 -192.5q-164 0 -289.5 108.5t-125.5 317.5q0 258 173 444t398 186zM750 764q0 201 -115 201q-117 0 -192.5 -216.5t-75.5 -482.5
q0 -201 112.5 -200.5t191.5 213.5t79 485z" />
    <glyph glyph-name="otilde" unicode="&#xf5;" horiz-adv-x="1110" 
d="M1112 1425q-16 -133 -90 -194.5t-170 -61.5q-84 0 -147.5 25t-104.5 49.5t-72 24.5q-33 0 -50 -24.5t-15 -43.5l-86 14q23 244 244 244q109 0 201.5 -38t138.5 -38q29 0 49 22.5t14 37.5zM637 1042q178 0 300 -100t122 -313q0 -258 -174 -450.5t-404 -192.5
q-164 0 -289.5 108.5t-125.5 317.5q0 258 173 444t398 186zM750 764q0 201 -115 201q-117 0 -192.5 -216.5t-75.5 -482.5q0 -201 112.5 -200.5t191.5 213.5t79 485z" />
    <glyph glyph-name="odieresis" unicode="&#xf6;" horiz-adv-x="1110" 
d="M471 1147q-61 0 -102 42t-41 103.5t41 101.5t102 40q63 0 102 -40t39 -101.5t-40 -103.5t-101 -42zM909.5 1147q-61.5 0 -102.5 42t-41 103.5t41 101.5t102 40q63 0 102.5 -40t39.5 -101.5t-40 -103.5t-101.5 -42zM637 1042q178 0 300 -100t122 -313q0 -258 -174 -450.5
t-404 -192.5q-164 0 -289.5 108.5t-125.5 317.5q0 258 173 444t398 186zM750 764q0 201 -115 201q-117 0 -192.5 -216.5t-75.5 -482.5q0 -201 112.5 -200.5t191.5 213.5t79 485z" />
    <glyph glyph-name="divide" unicode="&#xf7;" horiz-adv-x="937" 
d="M489 692q-55 0 -88.5 45t-25.5 111q8 49 47 83t92 34q55 0 89 -45.5t26 -108.5q-8 -49 -48.5 -84t-91.5 -35zM143 590h674l-16 -119h-674zM401 66q-55 0 -88.5 45t-25.5 110q8 49 47 83t92 34q55 0 89 -45t26 -109q-8 -49 -48.5 -83.5t-91.5 -34.5z" />
    <glyph glyph-name="oslash" unicode="&#xf8;" horiz-adv-x="1110" 
d="M954 924q104 -109 105 -295q0 -258 -174 -450.5t-404 -192.5q-111 0 -202 47l-41 -53l-88 65l38 51q-123 119 -122 316q0 258 173 444t398 186q131 0 229 -53l33 43l88 -65zM635 965q-111 0 -183.5 -190.5t-82.5 -442.5l376 497q-18 136 -110 136zM479 66q100 0 174 171
t92 412l-368 -485q26 -98 102 -98z" />
    <glyph glyph-name="ugrave" unicode="&#xf9;" horiz-adv-x="1400" 
d="M1008 1204l-37 -55l-340 119q-63 23 -86 78t8 98q33 43 81 42t99 -44zM86 780q-25 23 2 51q178 209 373 209q74 0 110.5 -41t20.5 -118l-100 -525q-45 -238 55 -237q106 0 228 245.5t179 661.5h273l-117 -813q-8 -45 35 -45t125 82q25 25 51 0q18 -18 -8 -53
q-188 -213 -383 -213q-154 0 -119 174l59 286q-33 -94 -69.5 -165.5t-91 -144.5t-130 -111.5t-167.5 -38.5q-125 0 -193.5 85t-28.5 287l93 441q6 27 -6.5 39t-32.5 12q-47 0 -117 -66q-18 -20 -41 -2z" />
    <glyph glyph-name="uacute" unicode="&#xfa;" horiz-adv-x="1400" 
d="M580 1204l299 238q53 41 102 41q35 0 58.5 -23.5t23.5 -62.5q0 -47 -33 -75t-92 -52l-326 -119zM86 780q-25 23 2 51q178 209 373 209q74 0 110.5 -41t20.5 -118l-100 -525q-45 -238 55 -237q106 0 228 245.5t179 661.5h273l-117 -813q-8 -45 35 -45t125 82q25 25 51 0
q18 -18 -8 -53q-188 -213 -383 -213q-154 0 -119 174l59 286q-33 -94 -69.5 -165.5t-91 -144.5t-130 -111.5t-167.5 -38.5q-125 0 -193.5 85t-28.5 287l93 441q6 27 -6.5 39t-32.5 12q-47 0 -117 -66q-18 -20 -41 -2z" />
    <glyph glyph-name="ucircumflex" unicode="&#xfb;" horiz-adv-x="1400" 
d="M852 1470l264 -364l-59 -45l-252 225l-320 -225l-47 45l367 364h47zM86 780q-25 23 2 51q178 209 373 209q74 0 110.5 -41t20.5 -118l-100 -525q-45 -238 55 -237q106 0 228 245.5t179 661.5h273l-117 -813q-8 -45 35 -45t125 82q25 25 51 0q18 -18 -8 -53
q-188 -213 -383 -213q-154 0 -119 174l59 286q-33 -94 -69.5 -165.5t-91 -144.5t-130 -111.5t-167.5 -38.5q-125 0 -193.5 85t-28.5 287l93 441q6 27 -6.5 39t-32.5 12q-47 0 -117 -66q-18 -20 -41 -2z" />
    <glyph glyph-name="udieresis" unicode="&#xfc;" horiz-adv-x="1400" 
d="M581.5 1147q-61.5 0 -102.5 42t-41 103.5t41 101.5t103 40q63 0 102 -40t39 -101.5t-40 -103.5t-101.5 -42zM1019.5 1147q-61.5 0 -102 42t-40.5 103.5t40.5 101.5t102.5 40q63 0 102 -40t39 -101.5t-40 -103.5t-101.5 -42zM86 780q-25 23 2 51q178 209 373 209
q74 0 110.5 -41t20.5 -118l-100 -525q-45 -238 55 -237q106 0 228 245.5t179 661.5h273l-117 -813q-8 -45 35 -45t125 82q25 25 51 0q18 -18 -8 -53q-188 -213 -383 -213q-154 0 -119 174l59 286q-33 -94 -69.5 -165.5t-91 -144.5t-130 -111.5t-167.5 -38.5
q-125 0 -193.5 85t-28.5 287l93 441q6 27 -6.5 39t-32.5 12q-47 0 -117 -66q-18 -20 -41 -2z" />
    <glyph glyph-name="yacute" unicode="&#xfd;" horiz-adv-x="1093" 
d="M799 1270l-326 -119l-33 53l299 238q53 41 103 41q35 0 58.5 -23.5t23.5 -62.5q0 -47 -33 -74.5t-92 -52.5zM868 1047q84 0 137.5 -61.5t53.5 -176.5q0 -123 -67.5 -333t-207.5 -458q-115 -201 -197.5 -307t-133 -134t-109.5 -28q-82 0 -140.5 51.5t-58.5 135.5
q0 72 42 115t104 43q37 0 65.5 -19.5t42 -43.5t30.5 -43t36 -19q43 0 113 96l-326 850q-25 66 -70 65q-43 0 -84 -24q-31 -18 -45 16q-10 25 10 35q76 43 151 103.5t118 97t63 36.5q33 0 50.5 -25.5t48.5 -103.5l272 -718q178 356 178 548q0 16 -4 18.5t-14 -3.5
q-35 -14 -70 -15q-61 0 -104 44.5t-43 105.5q0 63 45.5 107.5t113.5 44.5z" />
    <glyph glyph-name="thorn" unicode="&#xfe;" horiz-adv-x="1204" 
d="M786 1042q131 0 245 -127t114 -346q0 -233 -164 -418.5t-379 -185.5q-119 0 -194 103l-27 -185q-6 -63 28.5 -72.5t98.5 3.5l-6 -105q-133 -29 -292 -91t-190 -62q-49 0 -49 51q0 20 11.5 35.5t26 29t30.5 58.5t27 118l161 1176q10 59 -23.5 71.5t-80.5 0.5l2 100
q98 23 185 61.5t137.5 66.5t70.5 28q61 0 55 -90l-43 -314q102 94 256 94zM608 59q53 0 94 57.5t63.5 148.5t34 190.5t11.5 197.5q0 283 -121 283q-76 0 -176 -107l-76 -538q2 -106 52 -169t118 -63z" />
    <glyph glyph-name="ydieresis" unicode="&#xff;" horiz-adv-x="1093" 
d="M442.5 1147q-61.5 0 -102.5 42t-41 103.5t41 101.5t102 40q63 0 102.5 -40t39.5 -101.5t-40 -103.5t-101.5 -42zM880.5 1147q-61.5 0 -102.5 42t-41 103.5t41 101.5t103 40q63 0 102 -40t39 -101.5t-40 -103.5t-101.5 -42zM868 1047q84 0 137.5 -61.5t53.5 -176.5
q0 -123 -67.5 -333t-207.5 -458q-115 -201 -197.5 -307t-133 -134t-109.5 -28q-82 0 -140.5 51.5t-58.5 135.5q0 72 42 115t104 43q37 0 65.5 -19.5t42 -43.5t30.5 -43t36 -19q43 0 113 96l-326 850q-25 66 -70 65q-43 0 -84 -24q-31 -18 -45 16q-10 25 10 35
q76 43 151 103.5t118 97t63 36.5q33 0 50.5 -25.5t48.5 -103.5l272 -718q178 356 178 548q0 16 -4 18.5t-14 -3.5q-35 -14 -70 -15q-61 0 -104 44.5t-43 105.5q0 63 45.5 107.5t113.5 44.5z" />
    <glyph glyph-name="Amacron" unicode="&#x100;" horiz-adv-x="1368" 
d="M539 1436q-41 0 -33 39l10 100q6 37 41 37h586q41 0 31 -37l-9 -100q-8 -39 -41 -39h-585zM1100 301q29 -121 64.5 -161t125.5 -46l-4 -94q-324 8 -657 0l4 94q57 4 91 12.5t60.5 31t18.5 61.5l-53 235h-318l-106 -241q-27 -59 14 -76t162 -23h12v-94q-272 10 -547 0
l4 94q106 6 162.5 39t93.5 105l480 1044h186zM475 530h254l-86 381z" />
    <glyph glyph-name="amacron" unicode="&#x101;" horiz-adv-x="1230" 
d="M397 1329q6 37 41 37h586q41 0 31 -37l-8 -100q-8 -39 -41 -39h-586q-41 0 -33 39zM1145 246q23 -23 -2 -51q-178 -209 -371 -209q-74 0 -111.5 41t-23.5 118l27 121q-55 -141 -135 -210.5t-207 -69.5q-123 0 -205 69.5t-82 231.5q0 178 101.5 354t274.5 291t359 115
q129 0 295 -66l-119 -752q-8 -51 39 -51q51 0 117 66q20 20 43 2zM422 109q195 0 315 647l31 174q-14 33 -72 33q-92 0 -166.5 -74t-115.5 -183.5t-63.5 -218t-22.5 -192.5q0 -186 94 -186z" />
    <glyph glyph-name="Abreve" unicode="&#x102;" horiz-adv-x="1368" 
d="M827 1413q-127 0 -200.5 71.5t-65.5 215.5h135q4 -43 46 -70.5t104 -27.5q66 0 114 27.5t62 70.5h139q-25 -143 -118 -215t-216 -72zM1100 301q29 -121 64.5 -161t125.5 -46l-4 -94q-324 8 -657 0l4 94q57 4 91 12.5t60.5 31t18.5 61.5l-53 235h-318l-106 -241
q-27 -59 14 -76t162 -23h12v-94q-272 10 -547 0l4 94q106 6 162.5 39t93.5 105l480 1044h186zM475 530h254l-86 381z" />
    <glyph glyph-name="abreve" unicode="&#x103;" horiz-adv-x="1230" 
d="M709 1167q-127 0 -201 72t-66 215h136q4 -43 46 -70.5t103 -27.5q66 0 114 27.5t62 70.5h139q-25 -143 -116.5 -215t-216.5 -72zM1145 246q23 -23 -2 -51q-178 -209 -371 -209q-74 0 -111.5 41t-23.5 118l27 121q-55 -141 -135 -210.5t-207 -69.5q-123 0 -205 69.5
t-82 231.5q0 178 101.5 354t274.5 291t359 115q129 0 295 -66l-119 -752q-8 -51 39 -51q51 0 117 66q20 20 43 2zM422 109q195 0 315 647l31 174q-14 33 -72 33q-92 0 -166.5 -74t-115.5 -183.5t-63.5 -218t-22.5 -192.5q0 -186 94 -186z" />
    <glyph glyph-name="Aogonek" unicode="&#x104;" horiz-adv-x="1363" 
d="M1106 309q25 -123 61.5 -166t126.5 -49l-16 -94q-100 14 -193 14q-172 0 -283.5 -54t-111.5 -161q0 -76 86 -75q51 0 76 12t49 49l62 -47q-39 -59 -122 -105.5t-198 -46.5q-84 0 -146.5 36t-62.5 120q0 78 58.5 136.5t166.5 127.5q20 14 54.5 30.5t48.5 26t26.5 28
t12.5 44.5q0 31 -6 55l-54 244h-317l-105 -233q-8 -16 -9 -30.5t6.5 -25t17.5 -18.5t28.5 -13t34 -8.5t40 -6.5t41 -4t40.5 -1l-12 -94q-76 4 -271.5 4t-275.5 -4l16 94q106 6 162 36t86 99l482 1053h190zM467 530h254l-82 381z" />
    <glyph glyph-name="aogonek" unicode="&#x105;" horiz-adv-x="1230" 
d="M1145 246q25 -23 -2 -51q-43 -51 -130 -109.5t-160 -100.5t-130 -94.5t-57 -97.5q0 -70 88 -69q84 0 123 63l67 -66q-94 -135 -326 -135q-78 0 -139 39t-61 121q0 156 258 268q-57 43 -37 131l27 121q-57 -141 -136 -210.5t-208 -69.5q-121 0 -203 68.5t-82 232.5
q0 184 95 360t259 288t346 112q150 0 314 -66l-103 -752q-8 -51 39 -51q51 0 117 66q23 22 41 2zM430 109q72 0 139.5 112.5t109.5 256t60 278.5l23 174q-57 33 -105 33q-88 0 -155.5 -71t-102 -178.5t-52 -211t-17.5 -189.5q0 -111 23.5 -157.5t76.5 -46.5z" />
    <glyph glyph-name="Cacute" unicode="&#x106;" horiz-adv-x="1251" 
d="M530 1450l299 238q53 41 103 41q35 0 58.5 -24t23.5 -63q0 -47 -33 -74.5t-92 -51.5l-326 -119zM1065 348h121q-63 -166 -200.5 -274.5t-356.5 -108.5q-260 0 -407.5 148.5t-147.5 410.5q0 330 198.5 555.5t487.5 225.5q92 0 188 -26t144 -26q45 0 114 9
q-16 -193 35 -353h-170q-94 289 -305 289q-117 0 -200 -109.5t-116.5 -262t-35.5 -324.5q0 -193 69.5 -309.5t212.5 -116.5q100 0 200.5 65.5t168.5 206.5z" />
    <glyph glyph-name="cacute" unicode="&#x107;" horiz-adv-x="925" 
d="M451 1204l299 238q53 41 102 41q35 0 58.5 -23.5t23.5 -62.5q0 -47 -33 -75t-92 -52l-326 -119zM631 1042q123 0 207 -70.5t84 -166.5q0 -68 -40 -117t-106 -49q-55 0 -81.5 30.5t-26.5 82.5q0 33 6 72.5t9 62t1 43t-18.5 29t-51.5 8.5q-94 0 -160.5 -87t-94 -197
t-27.5 -218q0 -135 49 -213t143 -78q113 0 217 111q27 27 41 26h33q29 -4 28 -23.5t-22 -47.5q-158 -254 -426 -254q-150 0 -249 92t-99 287q0 260 174 468.5t410 208.5z" />
    <glyph glyph-name="Ccaron" unicode="&#x10c;" horiz-adv-x="1251" 
d="M627 1307l-265 364l60 45l252 -225l319 225l47 -45l-366 -364h-47zM1065 348h121q-63 -166 -200.5 -274.5t-356.5 -108.5q-260 0 -407.5 148.5t-147.5 410.5q0 330 198.5 555.5t487.5 225.5q92 0 188 -26t144 -26q45 0 114 9q-16 -193 35 -353h-170q-94 289 -305 289
q-117 0 -200 -109.5t-116.5 -262t-35.5 -324.5q0 -193 69.5 -309.5t212.5 -116.5q100 0 200.5 65.5t168.5 206.5z" />
    <glyph glyph-name="ccaron" unicode="&#x10d;" horiz-adv-x="925" 
d="M627 1061l-265 364l60 45l252 -225l319 225l47 -45l-366 -364h-47zM631 1042q123 0 207 -70.5t84 -166.5q0 -68 -40 -117t-106 -49q-55 0 -81.5 30.5t-26.5 82.5q0 33 6 72.5t9 62t1 43t-18.5 29t-51.5 8.5q-94 0 -160.5 -87t-94 -197t-27.5 -218q0 -135 49 -213t143 -78
q113 0 217 111q27 27 41 26h33q29 -4 28 -23.5t-22 -47.5q-158 -254 -426 -254q-150 0 -249 92t-99 287q0 260 174 468.5t410 208.5z" />
    <glyph glyph-name="Dcaron" unicode="&#x10e;" horiz-adv-x="1329" 
d="M758 1307l-264 364l59 45l252 -225l319 225l47 -45l-366 -364h-47zM709 1272q573 0 573 -504q0 -336 -176 -550t-496 -214q-35 0 -151.5 16.5t-173.5 16.5q-109 0 -297 -37l4 96q8 0 26 2q51 4 72 7.5t37 14.5t20 36l134 962q4 29 -16.5 41t-94.5 19l2 94q127 -4 188 -4
q59 0 175.5 2t173.5 2zM602 92q102 -2 179 124t111 291t34 324q0 344 -246 345q-29 0 -57 -5l-150 -1028q-4 -16 -3 -25t1 -11.5t8 -4.5l8 -4q23 0 49.5 -2t44 -3t21.5 -1z" />
    <glyph glyph-name="dcaron" unicode="&#x10f;" horiz-adv-x="1409" 
d="M1149 246q23 -23 -2 -51q-178 -209 -371 -209q-74 0 -111.5 41t-23.5 118l27 121q-55 -141 -135 -210.5t-207 -69.5q-123 0 -207 68.5t-84 234.5q0 182 96 357t263 288t351 113h33l15 90q8 57 -24 78.5t-107 15.5l12 94q98 14 185 33.5t130 31t60 11.5q66 0 55 -86
l-152 -1086q-8 -51 37 -51q51 0 117 66q20 20 43 2zM1311 848q-27 -25 -45 0l-17 22q90 100 105 191q4 25 -2 26q-20 -4 -41 -4q-63 0 -97 40t-34 94q0 72 52 128t132 56q68 0 104.5 -45t36.5 -121q0 -98 -55 -202.5t-139 -184.5zM743 756l21 174q-33 33 -100 33
q-90 0 -159 -71t-106 -179.5t-54 -213t-17 -194.5q0 -197 96 -196q76 0 146.5 112.5t112.5 255t60 279.5z" />
    <glyph glyph-name="Dcroat" unicode="&#x110;" horiz-adv-x="1329" 
d="M709 1272q573 0 573 -504q0 -336 -176 -550t-496 -214q-35 0 -151.5 16.5t-173.5 16.5q-109 0 -297 -37l4 96q8 0 26 2q51 4 72 7.5t37 14.5t20 36l56 397h-135l22 166h135l56 399q4 29 -16.5 41t-94.5 19l2 94q127 -4 188 -4q59 0 175.5 2t173.5 2zM602 92
q102 -2 179 124t111 291t34 324q0 344 -246 345q-29 0 -57 -5l-66 -452h150l-25 -166h-150l-59 -410q-4 -16 -3 -25t1 -11.5t8 -4.5l8 -4q23 0 49.5 -2t44 -3t21.5 -1z" />
    <glyph glyph-name="dcroat" unicode="&#x111;" horiz-adv-x="1234" 
d="M1065 1038l-113 -809q-8 -51 37 -51q51 0 117 66q20 20 43 2q23 -23 -2 -51q-178 -209 -371 -209q-74 0 -111.5 41t-23.5 118l27 121q-55 -141 -135 -210.5t-207 -69.5q-123 0 -207 68.5t-84 234.5q0 262 191.5 491.5t449.5 261.5l10 68h102l5 27q8 57 -24 78.5
t-107 15.5l12 94q98 14 185 33.5t130 31t60 11.5q66 0 55 -86l-29 -205h160l-10 -72h-160zM743 756l21 174q-33 33 -100 33q-90 0 -159 -71t-106 -179.5t-54 -213t-17 -194.5q0 -197 96 -196q76 0 146.5 112.5t112.5 255t60 279.5z" />
    <glyph glyph-name="Emacron" unicode="&#x112;" horiz-adv-x="1095" 
d="M391 1436q-41 0 -33 39l11 100q6 37 41 37h585q41 0 31 -37l-8 -100q-8 -39 -41 -39h-586zM829 248l78 133l109 -8q-106 -231 -117 -373q-375 23 -909 0l2 88q80 6 115.5 25.5t42.5 58.5l131 940q8 37 -16.5 48t-110.5 18l10 94h866q39 0 33 -45l2 -252h-98l-19 51
q-41 88 -70.5 114.5t-111.5 26.5h-107q-18 0 -33.5 -14t-17.5 -31l-57 -411h160q72 0 110.5 29.5t59.5 97.5l75 -17q-39 -162 -47 -348l-80 16q-2 68 -25.5 92.5t-96.5 24.5h-172l-66 -469q-2 -31 31 -31h37q121 0 183 29t109 113z" />
    <glyph glyph-name="emacron" unicode="&#x113;" horiz-adv-x="942" 
d="M328 1329q6 37 41 37h585q41 0 31 -37l-8 -100q-8 -39 -41 -39h-586q-41 0 -33 39zM821 311q53 0 4 -84q-170 -242 -417 -241q-147 0 -249 92t-102 284q0 248 184.5 464t428.5 216q117 0 170 -52t53 -134q0 -90 -57.5 -170t-152.5 -136t-171 -89t-158 -60
q-6 -113 45.5 -170t124.5 -57q121 0 219 107q27 31 43 30h35zM649 854q0 106 -55 107q-78 0 -146.5 -139.5t-91.5 -342.5q293 99 293 375z" />
    <glyph glyph-name="Edotaccent" unicode="&#x116;" horiz-adv-x="1095" 
d="M686 1364q-72 0 -123 51t-51 123q0 70 51 120t123 50q70 0 119 -49t49 -121t-49 -123t-119 -51zM829 248l78 133l109 -8q-106 -231 -117 -373q-375 23 -909 0l2 88q80 6 115.5 25.5t42.5 58.5l131 940q8 37 -16.5 48t-110.5 18l10 94h866q39 0 33 -45l2 -252h-98l-19 51
q-41 88 -70.5 114.5t-111.5 26.5h-107q-18 0 -33.5 -14t-17.5 -31l-57 -411h160q72 0 110.5 29.5t59.5 97.5l75 -17q-39 -162 -47 -348l-80 16q-2 68 -25.5 92.5t-96.5 24.5h-172l-66 -469q-2 -31 31 -31h37q121 0 183 29t109 113z" />
    <glyph glyph-name="edotaccent" unicode="&#x117;" horiz-adv-x="942" 
d="M645 1118q-72 0 -123 51.5t-51 122.5q0 70 51 120t123 50q70 0 119 -49t49 -120.5t-49 -123t-119 -51.5zM821 311q53 0 4 -84q-170 -242 -417 -241q-147 0 -249 92t-102 284q0 248 184.5 464t428.5 216q117 0 170 -52t53 -134q0 -90 -57.5 -170t-152.5 -136t-171 -89
t-158 -60q-6 -113 45.5 -170t124.5 -57q121 0 219 107q27 31 43 30h35zM649 854q0 106 -55 107q-78 0 -146.5 -139.5t-91.5 -342.5q293 99 293 375z" />
    <glyph glyph-name="Eogonek" unicode="&#x118;" horiz-adv-x="1095" 
d="M829 248l78 133l109 -8q-106 -231 -117 -373q-375 23 -909 0l2 88q80 6 115.5 25.5t42.5 58.5l131 940q8 37 -16.5 48t-110.5 18l10 94h866q39 0 33 -45l2 -252h-98l-19 51q-41 88 -70.5 114.5t-111.5 26.5h-107q-18 0 -33.5 -14t-17.5 -31l-57 -411h160q72 0 110.5 29.5
t59.5 97.5l75 -17q-39 -162 -47 -348l-80 16q-2 68 -25.5 92.5t-96.5 24.5h-172l-66 -469q-2 -31 31 -31h37q121 0 183 29t109 113zM643 -272q80 0 119 57l63 -51q-104 -143 -327 -144q-80 0 -140.5 34t-60.5 112q0 96 81 174t191 94h189q-209 -92 -209 -205q0 -71 94 -71z
" />
    <glyph glyph-name="eogonek" unicode="&#x119;" horiz-adv-x="931" 
d="M821 311q53 0 4 -84q-135 -190 -321 -231q-197 -80 -197 -199q0 -74 94 -73q86 0 123 57l60 -51q-39 -59 -123 -101.5t-203 -42.5q-80 0 -139.5 34t-59.5 112q0 84 64.5 158.5t173.5 109.5q-106 31 -173 120t-67 242q0 248 184.5 464t428.5 216q117 0 170 -52t53 -134
q0 -90 -57.5 -170t-152.5 -136t-171 -89t-158 -60q-6 -113 45.5 -170t124.5 -57q121 0 219 107q27 31 43 30h35zM594 961q-78 0 -146.5 -139.5t-91.5 -342.5q293 98 293 375q0 107 -55 107z" />
    <glyph glyph-name="Ecaron" unicode="&#x11a;" horiz-adv-x="1095" 
d="M684 1307h-47l-264 364l59 45l252 -225l320 225l47 -45zM829 248l78 133l109 -8q-106 -231 -117 -373q-375 23 -909 0l2 88q80 6 115.5 25.5t42.5 58.5l131 940q8 37 -16.5 48t-110.5 18l10 94h866q39 0 33 -45l2 -252h-98l-19 51q-41 88 -70.5 114.5t-111.5 26.5h-107
q-18 0 -33.5 -14t-17.5 -31l-57 -411h160q72 0 110.5 29.5t59.5 97.5l75 -17q-39 -162 -47 -348l-80 16q-2 68 -25.5 92.5t-96.5 24.5h-172l-66 -469q-2 -31 31 -31h37q121 0 183 29t109 113z" />
    <glyph glyph-name="ecaron" unicode="&#x11b;" horiz-adv-x="942" 
d="M596 1061l-264 364l59 45l252 -225l320 225l47 -45l-367 -364h-47zM821 311q53 0 4 -84q-170 -242 -417 -241q-147 0 -249 92t-102 284q0 248 184.5 464t428.5 216q117 0 170 -52t53 -134q0 -90 -57.5 -170t-152.5 -136t-171 -89t-158 -60q-6 -113 45.5 -170t124.5 -57
q121 0 219 107q27 31 43 30h35zM649 854q0 106 -55 107q-78 0 -146.5 -139.5t-91.5 -342.5q293 99 293 375z" />
    <glyph glyph-name="uni0122" unicode="&#x122;" horiz-adv-x="1316" 
d="M715 610q309 -10 561 -2l-10 -94l-31 -4q-61 -8 -80 -96q-31 -141 -41 -291l19 -6q49 -12 43 -45l-9 -54q-86 4 -127 5q-125 0 -260 -29t-233 -29q-109 0 -202 44t-161.5 128t-97.5 221.5t-4 309.5q43 291 233.5 464t421.5 173q78 0 170 -26t141.5 -26t116.5 9
q-16 -193 31 -361l-170 14q-43 129 -123 207t-178 78q-111 0 -188.5 -141t-106.5 -361q-33 -240 4 -434t154 -194q109 0 162 47t69 153l25 170q6 68 -64 72l-75 2zM506 -676q-27 -25 -45 0l-17 23q90 100 105 190q4 25 -2 27q-20 -4 -41 -4q-63 0 -97 40t-34 93q0 72 52 128
t132 56q68 0 104.5 -45t36.5 -121q0 -98 -55 -202.5t-139 -184.5z" />
    <glyph glyph-name="uni0123" unicode="&#x123;" horiz-adv-x="1189" 
d="M1077 1040q55 0 92 -30.5t37 -83.5q0 -49 -29.5 -82t-72.5 -33q-20 0 -44 11.5t-34 11.5q-29 0 -29 -39q0 -4 7.5 -40t7.5 -73q0 -178 -153.5 -263t-422.5 -108q-113 -10 -139.5 -14t-26.5 -14q0 -14 78 -27q20 -4 33 -6l274 -47q176 -29 268.5 -91.5t92.5 -177.5
q0 -117 -101.5 -205.5t-248 -130.5t-304.5 -42q-193 0 -310.5 68.5t-117.5 187.5q0 86 49.5 139t129.5 53q51 0 84.5 -24.5t33.5 -73.5q0 -33 -19 -76t-19 -76q0 -45 54 -82t177 -37q139 0 234.5 55.5t95.5 149.5q0 53 -33 84t-113 47l-366 74q-193 37 -193 168
q0 72 54.5 101.5t172.5 52.5q-66 25 -119 103.5t-53 182.5q0 162 132.5 269.5t326.5 117.5q-74 41 -74 152q0 98 55.5 202.5t139.5 184.5q27 25 45 0l16 -23q-90 -100 -104 -190q-4 -25 2 -27q20 4 41 4q63 0 97 -39.5t34 -93.5q0 -57 -33.5 -106t-91.5 -68
q152 -25 244 -127q37 131 143 131zM522 385q94 0 147.5 120t53.5 263q0 201 -117 201q-92 0 -152.5 -117t-60.5 -258q0 -209 129 -209z" />
    <glyph glyph-name="Hbar" unicode="&#x126;" horiz-adv-x="1409" 
d="M827 1272q309 -10 627 0v-94q-154 -8 -166 -84l-131 -932q-4 -37 21.5 -50.5t109.5 -17.5l-2 -94q-309 10 -627 0l5 94q158 8 170 84l57 412h-352l-60 -428q-6 -37 22.5 -50.5t112.5 -17.5v-94q-313 10 -626 0l4 94q147 8 162 84l131 932q6 37 -21.5 50.5t-111.5 17.5
l4 94q315 -10 622 0v-94q-162 -8 -170 -84l-24 -172h354l27 188q2 37 -26 50.5t-112 17.5v94zM551 686h354l19 139h-353z" />
    <glyph glyph-name="hbar" unicode="&#x127;" horiz-adv-x="1206" 
d="M893 1042q268 0 268 -344q0 -170 -61.5 -331.5t-182 -272t-270.5 -110.5q-86 0 -135 35.5t-49 97.5q0 55 33.5 85.5t81.5 30.5q49 0 74.5 -26.5t28.5 -59t9 -59.5t25 -27q45 0 86 251t41 407q0 193 -88 192q-111 0 -217.5 -227t-165.5 -629q-14 -74 -156 -73
q-66 0 -102.5 20.5t-28.5 65.5l152 911h-140l17 90h137l10 64q8 63 -19.5 83.5t-95.5 14.5l13 94q94 14 178 33.5t127 31t59 11.5q72 0 56 -86l-48 -246h152l-12 -90h-156l-72 -383q27 84 64 156.5t90 141.5t130 108.5t167 39.5z" />
    <glyph glyph-name="Imacron" unicode="&#x12a;" horiz-adv-x="724" 
d="M184 1575q6 37 41 37h586q41 0 31 -37l-8 -100q-8 -39 -41 -39h-586q-41 0 -33 39zM477 162q-6 -37 24.5 -50.5t116.5 -17.5l-16 -94q-311 10 -622 0l16 94q141 8 156 84l131 932q6 37 -23 50.5t-113 17.5l17 94q309 -10 614 0l-12 -94q-152 -8 -160 -84z" />
    <glyph glyph-name="imacron" unicode="&#x12b;" horiz-adv-x="751" 
d="M176 1329q6 37 41 37h586q41 0 31 -37l-9 -100q-8 -39 -41 -39h-585q-41 0 -33 39zM666 246q23 -23 -2 -51q-178 -209 -373 -209q-72 0 -106.5 42t-20.5 117l127 668q6 45 -35 45q-43 0 -125 -82q-25 -27 -51 0q-18 18 10 53q188 215 385 215q150 0 117 -176l-123 -639
q-6 -27 6 -39t33 -12q49 0 115 66q20 20 43 2z" />
    <glyph glyph-name="Iogonek" unicode="&#x12e;" horiz-adv-x="724" 
d="M164 1272q309 -10 614 0l-12 -94q-152 -8 -160 -84l-129 -932q-6 -37 24.5 -50.5t116.5 -17.5l-16 -94q-27 0 -80 2t-80 2q-207 -90 -206 -205q0 -72 94 -71q80 0 119 57l63 -51q-104 -143 -328 -144q-80 0 -140 34t-60 112q0 96 80.5 174t191.5 94h139q-186 2 -415 -4
l16 94q141 8 156 84l131 932q6 37 -23 50.5t-113 17.5z" />
    <glyph glyph-name="iogonek" unicode="&#x12f;" horiz-adv-x="788" 
d="M494 1118q-72 0 -123.5 51.5t-51.5 122.5q0 70 51.5 120t123.5 50q70 0 119 -49t49 -120.5t-49 -123t-119 -51.5zM666 246q23 -23 -2 -51q-131 -152 -275 -195q-193 -84 -192 -197q0 -72 94 -71q80 0 119 57l63 -51q-104 -143 -328 -144q-80 0 -140 34t-60 112
q0 94 76.5 172t185.5 94q-61 39 -43 139l127 668q6 45 -35 45q-43 0 -125 -82q-25 -27 -51 0q-18 18 10 53q188 215 385 215q150 0 117 -176l-123 -639q-6 -27 6 -39t33 -12q49 0 115 66q20 20 43 2z" />
    <glyph glyph-name="dotlessi" unicode="&#x131;" horiz-adv-x="751" 
d="M666 246q23 -23 -2 -51q-178 -209 -373 -209q-72 0 -106.5 42t-20.5 117l127 668q6 45 -35 45q-43 0 -125 -82q-25 -27 -51 0q-18 18 10 53q188 215 385 215q150 0 117 -176l-123 -639q-6 -27 6 -39t33 -12q49 0 115 66q20 20 43 2z" />
    <glyph glyph-name="IJ" unicode="&#x132;" horiz-adv-x="1466" 
d="M477 162q-6 -37 24.5 -50.5t116.5 -17.5l-16 -94q-311 10 -622 0l16 94q141 8 156 84l131 932q6 37 -23 50.5t-113 17.5l17 94q309 -10 614 0l-12 -94q-152 -8 -160 -84zM893 1272q309 -10 620 0l-4 -94q-152 -8 -163 -84l-113 -803q-49 -356 -213 -504.5t-457 -148.5
l4 96q68 0 111 12t87 51t72.5 123t47.5 217l135 973q8 37 -18.5 50.5t-112.5 17.5z" />
    <glyph glyph-name="ij" unicode="&#x133;" horiz-adv-x="1357" 
d="M497.5 1137q-69.5 0 -115.5 47t-46 114q0 70 46 117t115.5 47t115.5 -47t46 -117q0 -68 -46 -114.5t-115.5 -46.5zM1161.5 1137q-69.5 0 -116 47t-46.5 114q0 70 46.5 117t116 47t115.5 -47t46 -117q0 -68 -46 -114.5t-115.5 -46.5zM666 246q23 -23 -2 -51
q-178 -209 -373 -209q-72 0 -106.5 42t-20.5 117l127 668q6 45 -35 45q-43 0 -125 -82q-27 -29 -51 0q-18 18 10 53q170 215 385 215q150 0 117 -176l-123 -639q-6 -27 6 -39t33 -12q49 0 115 66q20 20 43 2zM1167 1044q150 0 117 -176l-94 -561q-31 -184 -85 -324.5
t-115.5 -220t-136.5 -130t-138.5 -66t-130.5 -15.5q-129 0 -204 39t-75 111q0 53 38 90t89 37q39 0 74 -28.5t57.5 -62.5t54 -62.5t64.5 -28.5q27 0 46.5 8t42 31.5t39.5 78t30 136.5l143 913q8 45 -33 45q-47 0 -125 -82q-27 -27 -51 0q-18 18 8 53q190 215 385 215z" />
    <glyph glyph-name="uni0136" unicode="&#x136;" horiz-adv-x="1392" 
d="M1378 1178q-131 -10 -225 -111l-367 -360q217 -365 336 -503t187 -147l-86 -94q-158 0 -313.5 125t-327.5 418l-64 -62l-39 -282q-6 -37 20.5 -50.5t110.5 -17.5l-4 -94q-305 10 -618 0l4 94q156 8 162 84l131 932q8 37 -18.5 50.5t-112.5 17.5l4 94q307 -10 618 0
l-4 -94q-147 -8 -162 -84l-67 -478l475 474q35 33 -23 61q-39 20 -104 27l4 94q242 -8 487 0zM653 -123q68 0 105 -45t37 -121q0 -98 -55.5 -202.5t-139.5 -184.5q-27 -25 -45 0l-16 23q90 100 104 190q4 25 -2 27q-20 -4 -41 -4q-63 0 -97 40t-34 93q0 72 52 128t132 56z
" />
    <glyph glyph-name="uni0137" unicode="&#x137;" horiz-adv-x="1165" 
d="M664 610q156 -289 272.5 -416.5t185.5 -136.5l-86 -94q-309 0 -612 492l-74 -455h-284l182 1137q8 57 -19.5 78.5t-95.5 15.5l12 94q94 14 178.5 33.5t127.5 31t59 11.5q72 0 55 -86l-125 -764q236 152 295 250q49 82 -71 78h-7l17 102q117 41 206 48t130 -10.5t41 -49.5
q0 -51 -72.5 -120t-314.5 -239zM483 -123q68 0 105 -45t37 -121q0 -98 -55.5 -202.5t-139.5 -184.5q-27 -25 -45 0l-16 23q90 100 104 190q4 25 -2 27q-20 -4 -41 -4q-63 0 -97 40t-34 93q0 72 52 128t132 56z" />
    <glyph glyph-name="Lacute" unicode="&#x139;" horiz-adv-x="1093" 
d="M492 1450l299 238q53 41 102 41q35 0 58.5 -24t23.5 -63q0 -47 -33 -74.5t-92 -51.5l-326 -119zM932 383l110 -8q-104 -205 -118 -383q-414 18 -930 8l2 88q152 12 158 86l131 936q8 37 -18.5 50.5t-112.5 17.5l4 94q307 -10 618 0l-4 -94q-147 -8 -162 -84l-137 -959
q-2 -31 31 -31h55q119 0 182.5 30t112.5 116z" />
    <glyph glyph-name="lacute" unicode="&#x13a;" horiz-adv-x="677" 
d="M250 1450l299 238q53 41 102 41q35 0 58.5 -24t23.5 -63q0 -47 -32.5 -74.5t-92.5 -51.5l-325 -119zM258 1137q8 55 -22.5 77.5t-102.5 16.5l12 94q98 14 185.5 33.5t130.5 31t59 11.5q72 0 55 -86l-182 -1086q-8 -51 41 -51q47 0 117 66q18 20 41 2q23 -23 -2 -51
q-178 -209 -373 -209q-70 0 -104.5 41t-22.5 118z" />
    <glyph glyph-name="uni013B" unicode="&#x13b;" horiz-adv-x="1093" 
d="M932 383l110 -8q-104 -205 -118 -383q-414 18 -930 8l2 88q152 12 158 86l131 936q8 37 -18.5 50.5t-112.5 17.5l4 94q307 -10 618 0l-4 -94q-147 -8 -162 -84l-137 -959q-2 -31 31 -31h55q119 0 182.5 30t112.5 116zM373 -676q-27 -25 -45 0l-17 23q90 100 105 190
q4 25 -2 27q-20 -4 -41 -4q-63 0 -97 40t-34 93q0 72 52 128t132 56q68 0 104.5 -45t36.5 -121q0 -98 -55 -202.5t-139 -184.5z" />
    <glyph glyph-name="uni013C" unicode="&#x13c;" horiz-adv-x="677" 
d="M258 1137q8 55 -22.5 77.5t-102.5 16.5l12 94q98 14 185.5 33.5t130.5 31t59 11.5q72 0 55 -86l-182 -1086q-8 -51 41 -51q47 0 117 66q18 20 41 2q23 -23 -2 -51q-178 -209 -373 -209q-70 0 -104.5 41t-22.5 118zM193 -676q-27 -25 -46 0l-16 23q90 100 105 190
q4 25 -3 27q-20 -4 -40 -4q-63 0 -97.5 40t-34.5 93q0 72 52.5 128t132.5 56q68 0 104.5 -45t36.5 -121q0 -98 -55 -202.5t-139 -184.5z" />
    <glyph glyph-name="Lcaron" unicode="&#x13d;" horiz-adv-x="1093" 
d="M944 723q-27 -25 -45 0l-16 22q90 100 104 191q4 25 -2 27q-20 -4 -41 -5q-63 0 -97 40t-34 94q0 72 52.5 128t131.5 56q68 0 105 -45t37 -121q0 -98 -55.5 -202.5t-139.5 -184.5zM932 383l110 -8q-104 -205 -118 -383q-414 18 -930 8l2 88q152 12 158 86l131 936
q8 37 -18.5 50.5t-112.5 17.5l4 94q307 -10 618 0l-4 -94q-147 -8 -162 -84l-137 -959q-2 -31 31 -31h55q119 0 182.5 30t112.5 116z" />
    <glyph glyph-name="lcaron" unicode="&#x13e;" horiz-adv-x="847" 
d="M258 1137q8 55 -22.5 77.5t-102.5 16.5l12 94q98 14 185.5 33.5t130.5 31t59 11.5q72 0 55 -86l-182 -1086q-8 -51 41 -51q47 0 117 66q18 20 41 2q23 -23 -2 -51q-178 -209 -373 -209q-70 0 -104.5 41t-22.5 118zM745 797q-27 -25 -45 0l-16 22q90 100 104 191
q4 25 -2 26q-20 -4 -41 -4q-63 0 -97 40t-34 93q0 72 52.5 128.5t132.5 56.5q68 0 104.5 -45t36.5 -121q0 -98 -55.5 -202.5t-139.5 -184.5z" />
    <glyph glyph-name="Ldot" unicode="&#x13f;" horiz-adv-x="1093" 
d="M932 383l110 -8q-104 -205 -118 -383q-414 18 -930 8l2 88q152 12 158 86l131 936q8 37 -18.5 50.5t-112.5 17.5l4 94q307 -10 618 0l-4 -94q-147 -8 -162 -84l-137 -959q-2 -31 31 -31h55q119 0 182.5 30t112.5 116zM770 653q-53 0 -90 40t-37 98q0 70 53.5 124
t120.5 54q53 0 90 -40t37 -98q0 -70 -53 -124t-121 -54z" />
    <glyph glyph-name="ldot" unicode="&#x140;" horiz-adv-x="817" 
d="M258 1137q8 55 -22.5 77.5t-102.5 16.5l12 94q98 14 185.5 33.5t130.5 31t59 11.5q72 0 55 -86l-182 -1086q-8 -51 41 -51q47 0 117 66q18 20 41 2q23 -23 -2 -51q-178 -209 -373 -209q-70 0 -104.5 41t-22.5 118zM686 649q-53 0 -90 40t-37 97q0 70 53.5 124.5
t120.5 54.5q53 0 90 -40t37 -98q0 -70 -53 -124t-121 -54z" />
    <glyph glyph-name="Lslash" unicode="&#x141;" horiz-adv-x="1136" 
d="M975 383l110 -8q-104 -205 -118 -383q-414 18 -930 8l2 88q152 12 158 86l47 330l-213 -64v101l227 69l70 500q8 37 -18.5 50.5t-112.5 17.5l4 94q307 -10 618 0l-4 -94q-147 -8 -162 -84l-55 -381l258 78v-101l-272 -82l-68 -473q-2 -31 31 -31h55q119 0 182.5 30
t112.5 116z" />
    <glyph glyph-name="lslash" unicode="&#x142;" horiz-adv-x="641" 
d="M440 633l-67 -404q-8 -51 41 -51q47 0 116 66q18 20 41 2q23 -23 -2 -51q-178 -209 -372 -209q-70 0 -105 41t-22 118l67 396l-117 -35v100l134 41l84 490q8 55 -23 77.5t-102 16.5l12 94q98 14 185 33.5t130 31t60 11.5q72 0 55 -86l-96 -578l162 49v-100z" />
    <glyph glyph-name="Nacute" unicode="&#x143;" horiz-adv-x="1445" 
d="M639 1450l299 238q53 41 102 41q35 0 58.5 -24t23.5 -63q0 -47 -32.5 -74.5t-92.5 -51.5l-325 -119zM920 1272q287 -8 573 0l-4 -94q-242 -14 -252 -84l-154 -1094h-100l-518 973l-117 -811q-4 -35 48.5 -47.5t170.5 -20.5l-4 -94q-285 10 -567 0l4 94q238 14 248 84
l125 895q4 35 -42 68t-122 37v94q236 -8 477 0l369 -701l82 539q4 35 -49.5 47t-167.5 21v94z" />
    <glyph glyph-name="nacute" unicode="&#x144;" horiz-adv-x="1406" 
d="M500 1204l299 238q53 41 102 41q35 0 58.5 -23.5t23.5 -62.5q0 -47 -32.5 -75t-92.5 -52l-326 -119zM1321 246q25 -23 -2 -51q-176 -209 -373 -209q-72 0 -108.5 41t-22.5 118l98 525q23 104 11.5 170.5t-66.5 66.5q-109 0 -230.5 -244.5t-181.5 -662.5h-270l117 813
q8 45 -37 45q-43 0 -125 -82q-25 -27 -51 0q-18 18 10 53q186 213 383 213q150 0 119 -174l-62 -286q33 94 70 165.5t91 144.5t131 111.5t169 38.5q127 0 194.5 -85t26.5 -287l-86 -441q-6 -25 6.5 -38t30.5 -13q51 0 117 66q23 22 41 2z" />
    <glyph glyph-name="uni0145" unicode="&#x145;" horiz-adv-x="1445" 
d="M920 1272q287 -8 573 0l-4 -94q-242 -14 -252 -84l-154 -1094h-100l-518 973l-117 -811q-4 -35 48.5 -47.5t170.5 -20.5l-4 -94q-285 10 -567 0l4 94q238 14 248 84l125 895q4 35 -42 68t-122 37v94q236 -8 477 0l369 -701l82 539q4 35 -49.5 47t-167.5 21v94zM571 -676
q-27 -25 -45 0l-16 23q90 100 104 190q4 25 -2 27q-20 -4 -41 -4q-63 0 -97 40t-34 93q0 72 52.5 128t132.5 56q68 0 104.5 -45t36.5 -121q0 -98 -55.5 -202.5t-139.5 -184.5z" />
    <glyph glyph-name="uni0146" unicode="&#x146;" horiz-adv-x="1406" 
d="M1321 246q25 -23 -2 -51q-176 -209 -373 -209q-72 0 -108.5 41t-22.5 118l98 525q23 104 11.5 170.5t-66.5 66.5q-109 0 -230.5 -244.5t-181.5 -662.5h-270l117 813q8 45 -37 45q-43 0 -125 -82q-25 -27 -51 0q-18 18 10 53q186 213 383 213q150 0 119 -174l-62 -286
q33 94 70 165.5t91 144.5t131 111.5t169 38.5q127 0 194.5 -85t26.5 -287l-86 -441q-6 -25 6.5 -38t30.5 -13q51 0 117 66q23 22 41 2zM569 -676q-27 -25 -45 0l-16 23q90 100 104 190q4 25 -2 27q-20 -4 -41 -4q-63 0 -97 40t-34 93q0 72 52.5 128t132.5 56q68 0 104.5 -45
t36.5 -121q0 -98 -55.5 -202.5t-139.5 -184.5z" />
    <glyph glyph-name="Ncaron" unicode="&#x147;" horiz-adv-x="1445" 
d="M815 1307l-264 364l59 45l252 -225l320 225l47 -45l-367 -364h-47zM920 1272q287 -8 573 0l-4 -94q-242 -14 -252 -84l-154 -1094h-100l-518 973l-117 -811q-4 -35 48.5 -47.5t170.5 -20.5l-4 -94q-285 10 -567 0l4 94q238 14 248 84l125 895q4 35 -42 68t-122 37v94
q236 -8 477 0l369 -701l82 539q4 35 -49.5 47t-167.5 21v94z" />
    <glyph glyph-name="ncaron" unicode="&#x148;" horiz-adv-x="1406" 
d="M676 1061l-264 364l59 45l252 -225l319 225l48 -45l-367 -364h-47zM1321 246q25 -23 -2 -51q-176 -209 -373 -209q-72 0 -108.5 41t-22.5 118l98 525q23 104 11.5 170.5t-66.5 66.5q-109 0 -230.5 -244.5t-181.5 -662.5h-270l117 813q8 45 -37 45q-43 0 -125 -82
q-25 -27 -51 0q-18 18 10 53q186 213 383 213q150 0 119 -174l-62 -286q33 94 70 165.5t91 144.5t131 111.5t169 38.5q127 0 194.5 -85t26.5 -287l-86 -441q-6 -25 6.5 -38t30.5 -13q51 0 117 66q23 22 41 2z" />
    <glyph glyph-name="Eng" unicode="&#x14a;" horiz-adv-x="1445" 
d="M920 1272q287 -8 573 0l-4 -94q-242 -14 -252 -84l-154 -1094h-8q-33 -195 -127 -275.5t-241 -80.5q-139 0 -216 54t-63 165q20 111 107 137q-268 10 -539 0l4 94q238 14 248 84l125 895q4 35 -42 68t-122 37v94q236 -8 477 0l369 -701l82 539q4 35 -49.5 47t-167.5 21
v94zM791 -207q76 0 121.5 63.5t64.5 155.5l-512 961l-117 -811q-4 -35 48.5 -47.5t170.5 -20.5l-4 -88q8 2 23 2q115 0 94 -131q-4 -84 111 -84z" />
    <glyph glyph-name="eng" unicode="&#x14b;" horiz-adv-x="1312" 
d="M985 1042q297 0 227 -372l-67 -363q-35 -186 -91.5 -325.5t-118 -219t-136 -130t-136 -66t-128.5 -15.5q-129 0 -204 39t-75 111q0 55 37 91t90 36q49 0 90 -45t79 -91t79 -46q27 0 46 8t42.5 31.5t41 78t30.5 136.5l122 770q23 104 10.5 170.5t-71.5 66.5
q-104 0 -225 -245.5t-181 -661.5h-270l117 813q8 45 -37 45q-43 0 -125 -82q-25 -27 -51 0q-18 18 10 53q186 213 383 213q150 0 119 -174l-62 -286q27 74 53.5 132t67.5 122.5t87 107.5t109.5 70.5t137.5 27.5z" />
    <glyph glyph-name="Omacron" unicode="&#x14c;" horiz-adv-x="1290" 
d="M457 1575q6 37 41 37h585q39 0 31 -37l-8 -100q-8 -39 -41 -39h-586q-41 0 -33 39zM573 -35q-227 0 -364 148.5t-137 408.5q0 326 194.5 554.5t485.5 228.5q219 0 359 -159t140 -409q0 -313 -201 -542.5t-477 -229.5zM600 72q82 0 146.5 75.5t99.5 195.5t52 245t17 246
q0 365 -180 364q-86 0 -151.5 -68.5t-101.5 -181t-53 -234.5t-17 -247q0 -182 48 -288.5t140 -106.5z" />
    <glyph glyph-name="omacron" unicode="&#x14d;" horiz-adv-x="1110" 
d="M377 1329q6 37 41 37h586q41 0 30 -37l-8 -100q-8 -39 -41 -39h-586q-41 0 -32 39zM637 1042q178 0 300 -100t122 -313q0 -258 -174 -450.5t-404 -192.5q-164 0 -289.5 108.5t-125.5 317.5q0 258 173 444t398 186zM750 764q0 201 -115 201q-117 0 -192.5 -216.5
t-75.5 -482.5q0 -201 112.5 -200.5t191.5 213.5t79 485z" />
    <glyph glyph-name="Ohungarumlaut" unicode="&#x150;" horiz-adv-x="1290" 
d="M401 1450l254 238q45 43 87 44t71 -42t9.5 -98.5t-79.5 -78.5l-309 -118zM772 1450l252 238q47 43 89 44t70.5 -42t9.5 -98.5t-79 -78.5l-309 -118zM573 -35q-227 0 -364 148.5t-137 408.5q0 326 194.5 554.5t485.5 228.5q219 0 359 -159t140 -409q0 -313 -201 -542.5
t-477 -229.5zM600 72q82 0 146.5 75.5t99.5 195.5t52 245t17 246q0 365 -180 364q-86 0 -151.5 -68.5t-101.5 -181t-53 -234.5t-17 -247q0 -182 48 -288.5t140 -106.5z" />
    <glyph glyph-name="ohungarumlaut" unicode="&#x151;" horiz-adv-x="1110" 
d="M322 1204l253 238q45 43 87.5 44t71 -42t9 -98.5t-78.5 -77.5l-310 -119zM692 1204l252 238q47 43 89 44t71 -42t9.5 -98.5t-79.5 -77.5l-309 -119zM637 1042q178 0 300 -100t122 -313q0 -258 -174 -450.5t-404 -192.5q-164 0 -289.5 108.5t-125.5 317.5q0 258 173 444
t398 186zM750 764q0 201 -115 201q-117 0 -192.5 -216.5t-75.5 -482.5q0 -201 112.5 -200.5t191.5 213.5t79 485z" />
    <glyph glyph-name="OE" unicode="&#x152;" horiz-adv-x="1808" 
d="M1540 248l78 133l108 -8q-106 -231 -116 -373q-352 18 -748 6q-104 -41 -233 -41q-260 0 -407.5 148.5t-147.5 410.5q0 330 198.5 555.5t487.5 225.5q94 0 215 -33h766q39 0 33 -45l2 -252h-99l-18 51q-41 88 -70.5 114.5t-111.5 26.5h-107q-18 0 -33.5 -14t-17.5 -31
l-57 -411h159q72 0 111 29.5t59 97.5l76 -17q-39 -162 -47 -348l-80 16q-2 68 -25.5 92.5t-97.5 24.5h-172l-65 -469q-2 -31 30 -31h37q121 0 183.5 29t109.5 113zM414 502q0 -193 69.5 -309.5t212.5 -116.5h6v12q80 6 116 25.5t42 58.5l127 909q-51 66 -117 97h-6v2
q-45 18 -98 18q-117 0 -200 -109.5t-116.5 -262t-35.5 -324.5z" />
    <glyph glyph-name="oe" unicode="&#x153;" horiz-adv-x="1628" 
d="M1518 311q53 0 4 -84q-170 -242 -418 -241q-186 0 -283 131q-154 -131 -340 -131q-164 0 -289.5 108.5t-125.5 317.5q0 258 173 444t398 186q244 0 352 -161q172 162 377 161q117 0 170 -52t53 -134q0 -90 -57 -170t-152.5 -136t-171 -89t-157.5 -60q-6 -113 45 -170
t125 -57q121 0 219 107q27 31 43 30h35zM479.5 66q112.5 0 191.5 213t79 485q0 201 -115 201q-117 0 -192.5 -216.5t-75.5 -482.5q0 -200 112.5 -200zM1290 961q-78 0 -146.5 -139.5t-90.5 -342.5q293 98 293 375q-1 107 -56 107z" />
    <glyph glyph-name="Racute" unicode="&#x154;" horiz-adv-x="1308" 
d="M932 1516l-326 -119l-33 53l299 238q53 41 103 41q35 0 58.5 -24t23.5 -63q0 -47 -33 -74t-92 -52zM817 537q262 -463 408 -480l-86 -94q-317 0 -619 506h-4l-45 -309q-2 -37 22.5 -48.5t106.5 -17.5l-4 -94q-86 4 -303 4t-305 -4l4 94q80 6 115.5 24.5t42.5 57.5
l131 942q4 29 -16.5 41t-94.5 19l2 94q63 -4 148.5 -4t191.5 2t156 2q293 0 421 -78t128 -236q0 -178 -107 -273t-293 -148zM623 1176l-93 -607l23 6q174 23 270.5 131.5t96.5 290.5q0 180 -175 181q-91 0 -122 -2z" />
    <glyph glyph-name="racute" unicode="&#x155;" horiz-adv-x="1028" 
d="M475 1204l299 238q53 41 103 41q35 0 58 -23.5t23 -62.5q0 -47 -32.5 -75t-91.5 -52l-326 -119zM891 1044q72 0 115 -43t43 -114q0 -66 -38 -104t-91 -38q-37 0 -61.5 17.5t-34 39t-29 39t-45.5 17.5q-55 0 -101.5 -64.5t-83.5 -191.5t-64.5 -266t-56.5 -336h-278
l127 813q8 45 -37 45q-43 0 -125 -82q-25 -27 -51 0q-18 18 10 53q186 213 375 213q158 0 119 -174l-29 -151q39 121 130 224t206 103z" />
    <glyph glyph-name="uni0156" unicode="&#x156;" horiz-adv-x="1308" 
d="M817 537q262 -463 408 -480l-86 -94q-317 0 -619 506h-4l-45 -309q-2 -37 22.5 -48.5t106.5 -17.5l-4 -94q-86 4 -303 4t-305 -4l4 94q80 6 115.5 24.5t42.5 57.5l131 942q4 29 -16.5 41t-94.5 19l2 94q63 -4 148.5 -4t191.5 2t156 2q293 0 421 -78t128 -236
q0 -178 -107 -273t-293 -148zM623 1176l-93 -607l23 6q174 23 270.5 131.5t96.5 290.5q0 180 -175 181q-91 0 -122 -2zM557 -123q68 0 104.5 -45t36.5 -121q0 -98 -55 -202.5t-139 -184.5q-27 -25 -45 0l-17 23q90 100 105 190q4 25 -2 27q-20 -4 -41 -4q-63 0 -97 40
t-34 93q0 72 52 128t132 56z" />
    <glyph glyph-name="uni0157" unicode="&#x157;" horiz-adv-x="1028" 
d="M891 1044q72 0 115 -43t43 -114q0 -66 -38 -104t-91 -38q-37 0 -61.5 17.5t-34 39t-29 39t-45.5 17.5q-55 0 -101.5 -64.5t-83.5 -191.5t-64.5 -266t-56.5 -336h-278l127 813q8 45 -37 45q-43 0 -125 -82q-25 -27 -51 0q-18 18 10 53q186 213 375 213q158 0 119 -174
l-29 -151q39 121 130 224t206 103zM242 -676q-27 -25 -45 0l-17 23q90 100 105 190q4 25 -2 27q-20 -4 -41 -4q-63 0 -97 40t-34 93q0 72 52 128t132 56q68 0 104.5 -45t36.5 -121q0 -98 -55 -202.5t-139 -184.5z" />
    <glyph glyph-name="Rcaron" unicode="&#x158;" horiz-adv-x="1308" 
d="M797 1307h-47l-265 364l60 45l252 -225l319 225l47 -45zM817 537q262 -463 408 -480l-86 -94q-317 0 -619 506h-4l-45 -309q-2 -37 22.5 -48.5t106.5 -17.5l-4 -94q-86 4 -303 4t-305 -4l4 94q80 6 115.5 24.5t42.5 57.5l131 942q4 29 -16.5 41t-94.5 19l2 94
q63 -4 148.5 -4t191.5 2t156 2q293 0 421 -78t128 -236q0 -178 -107 -273t-293 -148zM623 1176l-93 -607l23 6q174 23 270.5 131.5t96.5 290.5q0 180 -175 181q-91 0 -122 -2z" />
    <glyph glyph-name="rcaron" unicode="&#x159;" horiz-adv-x="1028" 
d="M651 1061l-264 364l59 45l252 -225l320 225l47 -45l-367 -364h-47zM891 1044q72 0 115 -43t43 -114q0 -66 -38 -104t-91 -38q-37 0 -61.5 17.5t-34 39t-29 39t-45.5 17.5q-55 0 -101.5 -64.5t-83.5 -191.5t-64.5 -266t-56.5 -336h-278l127 813q8 45 -37 45
q-43 0 -125 -82q-25 -27 -51 0q-18 18 10 53q186 213 375 213q158 0 119 -174l-29 -151q39 121 130 224t206 103z" />
    <glyph glyph-name="Sacute" unicode="&#x15a;" horiz-adv-x="1021" 
d="M422 1450l299 238q53 41 102 41q35 0 58.5 -24t23.5 -63q0 -47 -32.5 -74.5t-92.5 -51.5l-325 -119zM598 813q166 -88 229 -149q123 -117 123 -281q0 -174 -134 -295t-335 -121q-100 0 -194 42t-117 42q-61 0 -76 -51h-96l27 326h67q53 0 62 -58q12 -92 81.5 -141
t159.5 -49q100 0 160.5 65.5t60.5 149.5q0 70 -38.5 120t-141.5 103q-147 76 -232 169t-85 230q0 178 133 284t321 106q74 0 148 -24t88 -24q41 0 45 39h92l-28 -325h-52q-51 0 -69 67q-53 164 -197 164q-80 0 -134 -47t-54 -129q0 -117 186 -213z" />
    <glyph glyph-name="sacute" unicode="&#x15b;" horiz-adv-x="813" 
d="M367 1204l299 238q53 41 102 41q35 0 58.5 -23.5t23.5 -62.5q0 -47 -33 -75t-92 -52l-326 -119zM731 258q0 -127 -103.5 -201.5t-269.5 -74.5q-145 0 -241.5 61t-96.5 145q0 45 28 76t79 31t85 -38t50.5 -83t51 -83t85.5 -38q88 0 88 84q0 23 -7 45.5t-27.5 53t-36 51
t-54 70t-61.5 77.5q-8 10 -38 47t-38 49.5t-30.5 43t-30.5 48t-20.5 45t-16.5 53t-4 52.5q0 123 101.5 196.5t258.5 73.5q113 0 205 -56t92 -140q0 -43 -24.5 -70.5t-71.5 -27.5q-51 0 -89 34.5t-56.5 75.5t-50 76t-70.5 35q-29 0 -51.5 -16.5t-22.5 -47.5q0 -18 10.5 -40.5
t32 -53.5t43 -57.5t58 -71.5t63.5 -80q10 -14 41 -53t44 -56.5t35.5 -52t33 -59.5t18.5 -57.5t8 -65.5z" />
    <glyph glyph-name="Scedilla" unicode="&#x15e;" horiz-adv-x="1021" 
d="M481 -33h-10l-16 -28q213 -78 213 -191q0 -76 -86 -117t-189 -41q-94 0 -154.5 33t-60.5 101q0 35 21.5 58t60.5 23q41 0 54.5 -24.5t9 -54t10 -54t57.5 -24.5q100 0 101 98q0 41 -27 65.5t-86 47.5q-51 16 -47 57q0 6 47 61q-51 12 -116.5 43t-92.5 31q-61 0 -76 -51
h-96l27 326h67q53 0 62 -58q12 -92 81.5 -141t159.5 -49q100 0 160.5 65.5t60.5 149.5q0 70 -38.5 120t-141.5 103q-147 76 -232 169t-85 230q0 178 133 284t321 106q74 0 148 -24t88 -24q41 0 45 39h92l-28 -325h-52q-51 0 -69 67q-53 164 -197 164q-80 0 -134 -47
t-54 -129q0 -117 186 -213q166 -88 229 -149q123 -117 123 -281q0 -174 -134 -295t-335 -121z" />
    <glyph glyph-name="scedilla" unicode="&#x15f;" horiz-adv-x="813" 
d="M418 969q-29 0 -51.5 -16.5t-22.5 -47.5q0 -18 10.5 -40.5t32 -53.5t43 -57.5t58 -71.5t63.5 -80q10 -14 41 -53t44 -56.5t35.5 -52t33 -59.5t18.5 -57.5t8 -65.5q0 -106 -72.5 -176t-197.5 -92l-29 -51q213 -78 213 -191q0 -76 -86 -117t-188 -41q-94 0 -154.5 33
t-60.5 101q0 35 21.5 58t60.5 23q41 0 54 -24.5t9 -54t10.5 -54t57.5 -24.5q100 0 100 98q0 41 -26.5 65.5t-86.5 47.5q-51 16 -47 57q0 6 49 66q-145 0 -241.5 61t-96.5 145q0 45 28 76t79 31t85 -38t50.5 -83t51 -83t85.5 -38q88 0 88 84q0 23 -7 45.5t-27.5 53t-36 51
t-54 70t-61.5 77.5q-8 10 -38 47t-38 49.5t-30.5 43t-30.5 48t-20.5 45t-16.5 53t-4 52.5q0 123 101.5 196.5t258.5 73.5q113 0 205 -56t92 -140q0 -43 -24.5 -70.5t-71.5 -27.5q-51 0 -89 34.5t-56.5 75.5t-50 76t-70.5 35z" />
    <glyph glyph-name="Scaron" unicode="&#x160;" horiz-adv-x="1021" 
d="M598 1307l-264 364l59 45l252 -225l320 225l47 -45l-367 -364h-47zM598 813q166 -88 229 -149q123 -117 123 -281q0 -174 -134 -295t-335 -121q-100 0 -194 42t-117 42q-61 0 -76 -51h-96l27 326h67q53 0 62 -58q12 -92 81.5 -141t159.5 -49q100 0 160.5 65.5t60.5 149.5
q0 70 -38.5 120t-141.5 103q-147 76 -232 169t-85 230q0 178 133 284t321 106q74 0 148 -24t88 -24q41 0 45 39h92l-28 -325h-52q-51 0 -69 67q-53 164 -197 164q-80 0 -134 -47t-54 -129q0 -117 186 -213z" />
    <glyph glyph-name="scaron" unicode="&#x161;" horiz-adv-x="813" 
d="M543 1061l-264 364l59 45l252 -225l319 225l47 -45l-366 -364h-47zM731 258q0 -127 -103.5 -201.5t-269.5 -74.5q-145 0 -241.5 61t-96.5 145q0 45 28 76t79 31t85 -38t50.5 -83t51 -83t85.5 -38q88 0 88 84q0 23 -7 45.5t-27.5 53t-36 51t-54 70t-61.5 77.5
q-8 10 -38 47t-38 49.5t-30.5 43t-30.5 48t-20.5 45t-16.5 53t-4 52.5q0 123 101.5 196.5t258.5 73.5q113 0 205 -56t92 -140q0 -43 -24.5 -70.5t-71.5 -27.5q-51 0 -89 34.5t-56.5 75.5t-50 76t-70.5 35q-29 0 -51.5 -16.5t-22.5 -47.5q0 -18 10.5 -40.5t32 -53.5t43 -57.5
t58 -71.5t63.5 -80q10 -14 41 -53t44 -56.5t35.5 -52t33 -59.5t18.5 -57.5t8 -65.5z" />
    <glyph glyph-name="uni0162" unicode="&#x162;" horiz-adv-x="1198" 
d="M1143 1284l112 -2l-112 -321h-109q57 205 -55 204h-127l-143 -1003q-6 -37 19.5 -50.5t109.5 -17.5v-94q-309 10 -621 0l4 94q150 8 164 84l135 987h-123q-39 0 -68.5 -36.5t-84.5 -135.5q-12 -20 -19 -32h-110l104 321l100 -2q43 -8 230 -8h364q169 0 230 12zM541 -61
q213 -78 213 -191q0 -76 -86 -117t-189 -41q-94 0 -154.5 33t-60.5 101q0 35 21.5 58t60.5 23q41 0 54.5 -24.5t9.5 -54t10 -54t57 -24.5q100 0 101 98q0 41 -27 65.5t-86 47.5q-51 16 -47 57q0 8 6 14.5t22.5 26.5t34.5 43h94z" />
    <glyph glyph-name="uni0163" unicode="&#x163;" horiz-adv-x="727" 
d="M696 1024q20 0 17 -18l-8 -64q-4 -14 -17 -14h-147l-107 -699q-8 -51 39 -51q51 0 117 66q20 20 41 2q25 -23 -2 -51q-131 -158 -289 -199l-33 -57q213 -78 213 -191q0 -76 -86 -117t-188 -41q-94 0 -154.5 33t-60.5 101q0 35 21.5 58t60.5 23q41 0 54 -24.5t9 -54
t10.5 -54t57.5 -24.5q100 0 100 98q0 41 -26.5 65.5t-86.5 47.5q-51 16 -47 57q0 6 5.5 12t19.5 22.5t29 35.5q-61 6 -89 47t-18 112l117 783h-139q-20 0 -17 20l10 62q4 14 17 14h143l41 281h295l-43 -281h141z" />
    <glyph glyph-name="Tcaron" unicode="&#x164;" horiz-adv-x="1198" 
d="M731 1307h-47l-264 364l59 45l252 -225l320 225l47 -45zM1143 1284l112 -2l-112 -321h-109q57 205 -55 204h-127l-143 -1003q-6 -37 19.5 -50.5t109.5 -17.5v-94q-309 10 -621 0l4 94q150 8 164 84l135 987h-123q-39 0 -68.5 -36.5t-84.5 -135.5q-12 -20 -19 -32h-110
l104 321l100 -2q43 -8 230 -8h364q169 0 230 12z" />
    <glyph glyph-name="tcaron" unicode="&#x165;" horiz-adv-x="970" 
d="M899 1317q68 0 104.5 -45t36.5 -121q0 -98 -55 -202.5t-139 -184.5q-27 -25 -45 0l-17 22q90 100 105 191q4 25 -2 27q-20 -4 -41 -5q-63 0 -97 40t-34 94q0 72 52 128t132 56zM696 1024q20 0 17 -18l-8 -64q-4 -14 -17 -14h-147l-107 -699q-8 -51 39 -51q51 0 117 66
q20 20 41 2q25 -23 -2 -51q-176 -209 -373 -209q-70 0 -103.5 41t-21.5 118l117 783h-139q-20 0 -17 20l10 62q4 14 17 14h143l41 281h295l-43 -281h141z" />
    <glyph glyph-name="Tbar" unicode="&#x166;" horiz-adv-x="1198" 
d="M1143 1284l112 -2l-112 -321h-109q57 205 -55 204h-127l-61 -428h106q39 0 33 -35l-21 -137q-2 -35 -43 -35h-104l-53 -368q-6 -37 19.5 -50.5t109.5 -17.5v-94q-309 10 -621 0l4 94q150 8 164 84l49 352h-112q-39 0 -33 35l20 137q2 35 43 35h109l59 428h-123
q-39 0 -68.5 -36.5t-84.5 -135.5q-12 -20 -19 -32h-110l104 321l100 -2q43 -8 230 -8h364q169 0 230 12z" />
    <glyph glyph-name="tbar" unicode="&#x167;" horiz-adv-x="727" 
d="M696 1024q20 0 17 -18l-8 -64q-4 -14 -17 -14h-147l-29 -183h143q20 0 17 -18l-8 -63q-4 -14 -17 -15h-149l-64 -420q-8 -51 39 -51q51 0 117 66q20 20 41 2q25 -23 -2 -51q-176 -209 -373 -209q-70 0 -103.5 41t-21.5 118l76 504h-139q-20 0 -17 21l10 61q4 14 17 14
h141l29 183h-139q-20 0 -17 20l10 62q4 14 17 14h143l41 281h295l-43 -281h141z" />
    <glyph glyph-name="Umacron" unicode="&#x16a;" horiz-adv-x="1474" 
d="M602 1436q-41 0 -33 39l11 100q6 37 41 37h585q39 0 31 -37l-8 -100q-8 -39 -41 -39h-586zM903 1272q311 -6 621 0l-4 -94q-152 -8 -164 -84l-129 -932q-4 -37 21.5 -50.5t107.5 -17.5l-4 -94q-84 4 -255 4t-243 -4l6 98q33 18 39 80l4 25q-150 -223 -379 -223
q-180 0 -273 91t-93 246q0 18 110 793q2 37 -23.5 50.5t-107.5 17.5v94q309 -6 621 0l-4 -94q-152 -8 -164 -84q-109 -780 -109 -858q0 -80 17.5 -116t74.5 -36q178 0 353 283l108 743q2 37 -22.5 50.5t-108.5 17.5v94z" />
    <glyph glyph-name="umacron" unicode="&#x16b;" horiz-adv-x="1400" 
d="M487 1329q6 37 41 37h586q41 0 31 -37l-8 -100q-8 -39 -41 -39h-586q-41 0 -33 39zM86 780q-25 23 2 51q178 209 373 209q74 0 110.5 -41t20.5 -118l-100 -525q-45 -238 55 -237q106 0 228 245.5t179 661.5h273l-117 -813q-8 -45 35 -45t125 82q25 25 51 0q18 -18 -8 -53
q-188 -213 -383 -213q-154 0 -119 174l59 286q-33 -94 -69.5 -165.5t-91 -144.5t-130 -111.5t-167.5 -38.5q-125 0 -193.5 85t-28.5 287l93 441q6 27 -6.5 39t-32.5 12q-47 0 -117 -66q-18 -20 -41 -2z" />
    <glyph glyph-name="ubreve" unicode="&#x16d;" horiz-adv-x="1400" 
d="M799 1167q-127 0 -201 72t-66 215h136q4 -43 46 -70.5t103 -27.5q66 0 114 27.5t62 70.5h140q-25 -143 -118 -215t-216 -72zM86 780q-25 23 2 51q178 209 373 209q74 0 110.5 -41t20.5 -118l-100 -525q-45 -238 55 -237q106 0 228 245.5t179 661.5h273l-117 -813
q-8 -45 35 -45t125 82q25 25 51 0q18 -18 -8 -53q-188 -213 -383 -213q-154 0 -119 174l59 286q-33 -94 -69.5 -165.5t-91 -144.5t-130 -111.5t-167.5 -38.5q-125 0 -193.5 85t-28.5 287l93 441q6 27 -6.5 39t-32.5 12q-47 0 -117 -66q-18 -20 -41 -2z" />
    <glyph glyph-name="Uring" unicode="&#x16e;" horiz-adv-x="1474" 
d="M884.5 1376q-69.5 0 -111.5 48.5t-33.5 116t60.5 114.5t121.5 47t111.5 -47t34 -114.5t-60.5 -116t-122 -48.5zM831 1540q-2 -29 16.5 -51.5t45.5 -22.5q29 0 53.5 23.5t28.5 50.5q2 27 -16.5 49.5t-45.5 22.5q-29 0 -54.5 -22.5t-27.5 -49.5zM903 1272q311 -6 621 0
l-4 -94q-152 -8 -164 -84l-129 -932q-4 -37 21.5 -50.5t107.5 -17.5l-4 -94q-84 4 -255 4t-243 -4l6 98q33 18 39 80l4 25q-150 -223 -379 -223q-180 0 -273 91t-93 246q0 18 110 793q2 37 -23.5 50.5t-107.5 17.5v94q309 -6 621 0l-4 -94q-152 -8 -164 -84
q-109 -780 -109 -858q0 -80 17.5 -116t74.5 -36q178 0 353 283l108 743q2 37 -22.5 50.5t-108.5 17.5v94z" />
    <glyph glyph-name="uring" unicode="&#x16f;" horiz-adv-x="1400" 
d="M792.5 1130q-69.5 0 -111.5 48.5t-34 116t60.5 114.5t122 47t111.5 -47t34 -114.5t-60.5 -116t-122 -48.5zM800.5 1221q26.5 0 52.5 22.5t30 50.5q2 27 -16.5 49.5t-45.5 22.5q-29 0 -54.5 -22.5t-27.5 -49.5q-2 -29 16.5 -51t45 -22zM86 780q-25 23 2 51
q178 209 373 209q74 0 110.5 -41t20.5 -118l-100 -525q-45 -238 55 -237q106 0 228 245.5t179 661.5h273l-117 -813q-8 -45 35 -45t125 82q25 25 51 0q18 -18 -8 -53q-188 -213 -383 -213q-154 0 -119 174l59 286q-33 -94 -69.5 -165.5t-91 -144.5t-130 -111.5t-167.5 -38.5
q-125 0 -193.5 85t-28.5 287l93 441q6 27 -6.5 39t-32.5 12q-47 0 -117 -66q-18 -20 -41 -2z" />
    <glyph glyph-name="Uhungarumlaut" unicode="&#x170;" horiz-adv-x="1474" 
d="M866 1513l-309 -118l-33 55l254 238q45 43 87 44t71 -42t9 -98.5t-79 -78.5zM928 1395l-33 55l252 238q47 43 89 44t70.5 -42t9 -98.5t-78.5 -78.5zM903 1272q311 -6 621 0l-4 -94q-152 -8 -164 -84l-129 -932q-4 -37 21.5 -50.5t107.5 -17.5l-4 -94q-84 4 -255 4
t-243 -4l6 98q33 18 39 80l4 25q-150 -223 -379 -223q-180 0 -273 91t-93 246q0 18 110 793q2 37 -23.5 50.5t-107.5 17.5v94q309 -6 621 0l-4 -94q-152 -8 -164 -84q-109 -780 -109 -858q0 -80 17.5 -116t74.5 -36q178 0 353 283l108 743q2 37 -22.5 50.5t-108.5 17.5v94z
" />
    <glyph glyph-name="uhungarumlaut" unicode="&#x171;" horiz-adv-x="1400" 
d="M432 1204l254 238q45 43 87 44t70.5 -42t9.5 -98.5t-79 -77.5l-309 -119zM803 1204l252 238q47 43 89 44t70.5 -42t9 -98.5t-78.5 -77.5l-309 -119zM86 780q-25 23 2 51q178 209 373 209q74 0 110.5 -41t20.5 -118l-100 -525q-45 -238 55 -237q106 0 228 245.5t179 661.5
h273l-117 -813q-8 -45 35 -45t125 82q25 25 51 0q18 -18 -8 -53q-188 -213 -383 -213q-154 0 -119 174l59 286q-33 -94 -69.5 -165.5t-91 -144.5t-130 -111.5t-167.5 -38.5q-125 0 -193.5 85t-28.5 287l93 441q6 27 -6.5 39t-32.5 12q-47 0 -117 -66q-18 -20 -41 -2z" />
    <glyph glyph-name="Uogonek" unicode="&#x172;" horiz-adv-x="1474" 
d="M903 1272q311 -6 621 0l-4 -94q-152 -8 -164 -84l-129 -932q-4 -37 21.5 -50.5t107.5 -17.5l-4 -94q-84 4 -255 4t-243 -4l6 98q33 18 39 80l4 25q-104 -156 -254 -203q-188 -84 -188 -188q0 -88 110 -88q86 0 119 57l74 -51q-35 -59 -117 -101.5t-209 -42.5
q-92 0 -163.5 40t-71.5 130q0 80 55 143.5t145 92.5q-123 29 -184 113.5t-61 211.5q0 18 110 793q2 37 -23.5 50.5t-107.5 17.5v94q309 -6 621 0l-4 -94q-152 -8 -164 -84q-109 -780 -109 -858q0 -80 17.5 -116t74.5 -36q178 0 353 283l108 743q2 37 -22.5 50.5t-108.5 17.5
v94z" />
    <glyph glyph-name="uogonek" unicode="&#x173;" horiz-adv-x="1400" 
d="M1321 250q18 -18 -8 -53q-92 -102 -193 -162h6q-131 -70 -172 -118t-41 -99q0 -45 30 -69.5t81 -24.5q80 0 121 57l74 -51q-33 -57 -109 -100.5t-176 -43.5q-115 0 -196 44t-81 151q0 129 179 231q-47 43 -25 146l59 286q-33 -94 -69.5 -165.5t-91 -144.5t-130 -111.5
t-167.5 -38.5q-125 0 -193.5 85t-28.5 287l93 441q6 27 -6.5 39t-32.5 12q-47 0 -117 -66q-18 -20 -41 -2q-25 23 2 51q178 209 373 209q74 0 110.5 -41t20.5 -118l-100 -525q-45 -238 55 -237q106 0 228 245.5t179 661.5h273l-117 -813q-8 -45 35 -45t125 82q24 25 51 0z
" />
    <glyph glyph-name="Wcircumflex" unicode="&#x174;" horiz-adv-x="1968" 
d="M1126 1532l-319 -225l-47 45l366 364h48l264 -364l-60 -45zM1583 1272q225 -8 451 0l-2 -94q-150 -8 -185 -82l-495 -1114h-113l-199 936l-411 -936h-117l-233 1130q-6 37 -31 49.5t-103 16.5l2 94q307 -10 617 0l-2 -94q-84 -4 -128 -26t-34 -56l125 -699l283 680l-9 35
q-6 37 -29.5 49.5t-103.5 16.5l4 94q305 -10 619 0l-4 -94q-84 -4 -128 -26t-36 -56l127 -699l291 715q2 12 4 21.5t-10.5 16.5t-23.5 11t-33.5 8.5t-42 5.5t-50.5 3v94z" />
    <glyph glyph-name="wcircumflex" unicode="&#x175;" horiz-adv-x="1699" 
d="M1022 1470l264 -364l-59 -45l-252 225l-320 -225l-47 45l367 364h47zM1501 1036q160 0 160 -239q0 -311 -180.5 -563t-403.5 -252q-152 0 -248 120q-121 -121 -294 -120q-135 0 -227.5 71.5t-92.5 210.5q0 229 309 557h-327q-23 0 -23 -26q0 -25 26.5 -43.5t53.5 -45
t27 -71.5q0 -39 -25 -65.5t-72 -26.5q-57 0 -92 36.5t-35 110.5q0 117 103.5 226.5t273.5 109.5h334q-16 -27 -79.5 -128t-105.5 -173t-80 -173t-38 -179q0 -86 51 -139.5t137 -53.5q82 0 115 43q-39 92 -39 215q0 213 120 407.5t263 194.5q68 0 110 -52t42 -150
q0 -156 -76 -322t-174 -264q68 -72 157 -72q150 0 235 116t85 279q0 88 -28.5 146.5t-56.5 100.5t-28 89t36 86t87 39zM1098 956q-72 0 -120 -120.5t-48 -294.5q0 -102 45 -213q78 78 139.5 217t61.5 264q0 66 -20.5 106.5t-57.5 40.5z" />
    <glyph glyph-name="Ycircumflex" unicode="&#x176;" horiz-adv-x="1296" 
d="M836 1716l264 -364l-60 -45l-252 225l-319 -225l-47 45l366 364h48zM979 1272q190 -12 385 0l-4 -94q-109 -14 -191 -142l-354 -547l-51 -327q-4 -37 21.5 -50.5t109.5 -21.5v-90q-307 10 -621 0l5 94q150 8 163 84l43 303l-229 623q-8 29 -13 37t-30 20.5t-76 16.5v94
q305 -12 619 0l-4 -94q-78 -8 -107 -32t-14 -56l160 -449l266 412q29 39 18.5 65.5t-35 39.5t-61.5 20v94z" />
    <glyph glyph-name="ycircumflex" unicode="&#x177;" horiz-adv-x="1093" 
d="M666 1286l-320 -225l-47 45l367 364h47l264 -364l-59 -45zM868 1047q84 0 137.5 -61.5t53.5 -176.5q0 -123 -67.5 -333t-207.5 -458q-115 -201 -197.5 -307t-133 -134t-109.5 -28q-82 0 -140.5 51.5t-58.5 135.5q0 72 42 115t104 43q37 0 65.5 -19.5t42 -43.5t30.5 -43
t36 -19q43 0 113 96l-326 850q-25 66 -70 65q-43 0 -84 -24q-31 -18 -45 16q-10 25 10 35q76 43 151 103.5t118 97t63 36.5q33 0 50.5 -25.5t48.5 -103.5l272 -718q178 356 178 548q0 16 -4 18.5t-14 -3.5q-35 -14 -70 -15q-61 0 -104 44.5t-43 105.5q0 63 45.5 107.5
t113.5 44.5z" />
    <glyph glyph-name="Ydieresis" unicode="&#x178;" horiz-adv-x="1296" 
d="M565.5 1393q-61.5 0 -102.5 42t-41 103t41 101t102 40q63 0 102.5 -40t39.5 -101t-40 -103t-101.5 -42zM1003.5 1393q-61.5 0 -102.5 42t-41 103t41 101t103 40q63 0 102 -40t39 -101t-40 -103t-101.5 -42zM979 1272q190 -12 385 0l-4 -94q-109 -14 -191 -142l-354 -547
l-51 -327q-4 -37 21.5 -50.5t109.5 -21.5v-90q-307 10 -621 0l5 94q150 8 163 84l43 303l-229 623q-8 29 -13 37t-30 20.5t-76 16.5v94q305 -12 619 0l-4 -94q-78 -8 -107 -32t-14 -56l160 -449l266 412q29 39 18.5 65.5t-35 39.5t-61.5 20v94z" />
    <glyph glyph-name="Zacute" unicode="&#x179;" horiz-adv-x="1189" 
d="M870 1516l-325 -119l-33 53l299 238q53 41 102 41q35 0 58.5 -24t23.5 -63q0 -47 -33 -74t-92 -52zM952 385l168 -8q-78 -92 -188 -275l47 -10q45 -10 41 -45l-6 -47h-1034l815 1178h-303q-12 0 -23.5 -2t-21 -5.5t-20.5 -11.5t-17.5 -12t-17.5 -17.5t-16 -20.5
t-16.5 -25.5t-16.5 -26.5t-19.5 -30.5t-20.5 -33.5l-127 8l105 281l106 -2q39 -8 227 -8h619l-819 -1180h114q76 0 127.5 20.5t70.5 39t71 77.5z" />
    <glyph glyph-name="zacute" unicode="&#x17a;" horiz-adv-x="978" 
d="M385 1204l299 238q53 41 102 41q35 0 58.5 -23.5t23.5 -62.5q0 -47 -32.5 -75t-92.5 -52l-325 -119zM758 436q72 0 119 -62.5t47 -148.5q0 -98 -65.5 -179t-186.5 -81q-90 0 -191.5 41t-150.5 41q-45 0 -73 -4t-67.5 -24.5t-78.5 -59.5l-78 80l635 733q-4 -2 -12.5 -10
t-15.5 -12.5t-23.5 -8.5t-38.5 -4q-100 0 -217 58.5t-160 58.5q-27 0 -27 -20q0 -16 42 -32t83 -44.5t41 -79.5q0 -43 -25.5 -71.5t-76.5 -28.5q-74 0 -120 61t-46 149q0 98 65.5 179.5t186.5 81.5q90 0 194.5 -39t159.5 -39q106 0 192 88l78 -80l-635 -733q51 35 111 35
q82 0 152.5 -30t124 -59.5t94.5 -29.5q27 0 26 20q0 14 -42 32.5t-83 50.5t-41 81q0 39 26 64.5t77 25.5z" />
    <glyph glyph-name="Zdotaccent" unicode="&#x17b;" horiz-adv-x="1189" 
d="M737 1364q-72 0 -123 51t-51 123q0 70 51.5 120t122.5 50q70 0 119 -49t49 -121t-49 -123t-119 -51zM952 385l168 -8q-78 -92 -188 -275l47 -10q45 -10 41 -45l-6 -47h-1034l815 1178h-303q-12 0 -23.5 -2t-21 -5.5t-20.5 -11.5t-17.5 -12t-17.5 -17.5t-16 -20.5
t-16.5 -25.5t-16.5 -26.5t-19.5 -30.5t-20.5 -33.5l-127 8l105 281l106 -2q39 -8 227 -8h619l-819 -1180h114q76 0 127.5 20.5t70.5 39t71 77.5z" />
    <glyph glyph-name="zdotaccent" unicode="&#x17c;" horiz-adv-x="978" 
d="M610 1118q-72 0 -123 51.5t-51 122.5q0 70 51.5 120t122.5 50q70 0 119 -49t49 -120.5t-49 -123t-119 -51.5zM758 436q72 0 119 -62.5t47 -148.5q0 -98 -65.5 -179t-186.5 -81q-90 0 -191.5 41t-150.5 41q-45 0 -73 -4t-67.5 -24.5t-78.5 -59.5l-78 80l635 733
q-4 -2 -12.5 -10t-15.5 -12.5t-23.5 -8.5t-38.5 -4q-100 0 -217 58.5t-160 58.5q-27 0 -27 -20q0 -16 42 -32t83 -44.5t41 -79.5q0 -43 -25.5 -71.5t-76.5 -28.5q-74 0 -120 61t-46 149q0 98 65.5 179.5t186.5 81.5q90 0 194.5 -39t159.5 -39q106 0 192 88l78 -80l-635 -733
q51 35 111 35q82 0 152.5 -30t124 -59.5t94.5 -29.5q27 0 26 20q0 14 -42 32.5t-83 50.5t-41 81q0 39 26 64.5t77 25.5z" />
    <glyph glyph-name="Zcaron" unicode="&#x17d;" horiz-adv-x="1189" 
d="M735 1307h-47l-264 364l59 45l252 -225l320 225l47 -45zM952 385l168 -8q-78 -92 -188 -275l47 -10q45 -10 41 -45l-6 -47h-1034l815 1178h-303q-12 0 -23.5 -2t-21 -5.5t-20.5 -11.5t-17.5 -12t-17.5 -17.5t-16 -20.5t-16.5 -25.5t-16.5 -26.5t-19.5 -30.5t-20.5 -33.5
l-127 8l105 281l106 -2q39 -8 227 -8h619l-819 -1180h114q76 0 127.5 20.5t70.5 39t71 77.5z" />
    <glyph glyph-name="zcaron" unicode="&#x17e;" horiz-adv-x="978" 
d="M561 1061l-264 364l59 45l252 -225l320 225l47 -45l-367 -364h-47zM758 436q72 0 119 -62.5t47 -148.5q0 -98 -65.5 -179t-186.5 -81q-90 0 -191.5 41t-150.5 41q-45 0 -73 -4t-67.5 -24.5t-78.5 -59.5l-78 80l635 733q-4 -2 -12.5 -10t-15.5 -12.5t-23.5 -8.5t-38.5 -4
q-100 0 -217 58.5t-160 58.5q-27 0 -27 -20q0 -16 42 -32t83 -44.5t41 -79.5q0 -43 -25.5 -71.5t-76.5 -28.5q-74 0 -120 61t-46 149q0 98 65.5 179.5t186.5 81.5q90 0 194.5 -39t159.5 -39q106 0 192 88l78 -80l-635 -733q51 35 111 35q82 0 152.5 -30t124 -59.5
t94.5 -29.5q27 0 26 20q0 14 -42 32.5t-83 50.5t-41 81q0 39 26 64.5t77 25.5z" />
    <glyph glyph-name="florin" unicode="&#x192;" horiz-adv-x="595" 
d="M901 1225q18 -25 11 -62t-40 -57q-35 -20 -66.5 -13t-41.5 33q-2 4 -7 20.5t-7 22t-7.5 20.5t-9.5 20t-11 17.5t-13.5 17.5t-16.5 13.5t-20 11.5t-24.5 6t-29.5 3q-43 0 -73.5 -14.5t-47 -30.5t-29.5 -60.5t-17.5 -69t-14.5 -87.5l-10 -80h276q10 0 17.5 -5t3.5 -13
l-10 -23q-10 -18 -14.5 -25.5t-12.5 -17.5t-17.5 -13t-23.5 -3h-233l-123 -871q-27 -180 -122 -279.5t-237 -99.5q-92 0 -162.5 44t-97.5 106q-16 25 -6 61.5t45 52.5q37 18 67.5 8t39.5 -38q2 -4 6 -21.5t5 -23.5t5 -21.5t8 -21.5t10.5 -18.5t12.5 -17.5t15 -11.5
t20.5 -8.5t23.5 -2q86 0 125 68t57 199l125 895h-106q-23 0 -19 20l11 80h129l8 55q53 375 379 375q190 0 270 -141z" />
    <glyph glyph-name="uni01CD" unicode="&#x1cd;" horiz-adv-x="1368" 
d="M831 1307h-47l-264 364l60 45l251 -225l320 225l47 -45zM1100 301q29 -121 64.5 -161t125.5 -46l-4 -94q-324 8 -657 0l4 94q57 4 91 12.5t60.5 31t18.5 61.5l-53 235h-318l-106 -241q-27 -59 14 -76t162 -23h12v-94q-272 10 -547 0l4 94q106 6 162.5 39t93.5 105
l480 1044h186zM475 530h254l-86 381z" />
    <glyph glyph-name="uni01CE" unicode="&#x1ce;" horiz-adv-x="1230" 
d="M666 1061l-265 364l60 45l252 -225l319 225l47 -45l-366 -364h-47zM1145 246q23 -23 -2 -51q-178 -209 -371 -209q-74 0 -111.5 41t-23.5 118l27 121q-55 -141 -135 -210.5t-207 -69.5q-123 0 -205 69.5t-82 231.5q0 178 101.5 354t274.5 291t359 115q129 0 295 -66
l-119 -752q-8 -51 39 -51q51 0 117 66q20 20 43 2zM422 109q195 0 315 647l31 174q-14 33 -72 33q-92 0 -166.5 -74t-115.5 -183.5t-63.5 -218t-22.5 -192.5q0 -186 94 -186z" />
    <glyph glyph-name="uni0218" unicode="&#x218;" horiz-adv-x="1021" 
d="M598 813q166 -88 229 -149q123 -117 123 -281q0 -174 -134 -295t-335 -121q-100 0 -194 42t-117 42q-61 0 -76 -51h-96l27 326h67q53 0 62 -58q12 -92 81.5 -141t159.5 -49q100 0 160.5 65.5t60.5 149.5q0 70 -38.5 120t-141.5 103q-147 76 -232 169t-85 230
q0 178 133 284t321 106q74 0 148 -24t88 -24q41 0 45 39h92l-28 -325h-52q-51 0 -69 67q-53 164 -197 164q-80 0 -134 -47t-54 -129q0 -117 186 -213zM354 -676q-27 -25 -45 0l-16 23q90 100 104 190q4 25 -2 27q-20 -4 -41 -4q-63 0 -97 40t-34 93q0 72 52.5 128t132.5 56
q68 0 104.5 -45t36.5 -121q0 -98 -55.5 -202.5t-139.5 -184.5z" />
    <glyph glyph-name="uni0219" unicode="&#x219;" horiz-adv-x="813" 
d="M731 258q0 -127 -103.5 -201.5t-269.5 -74.5q-145 0 -241.5 61t-96.5 145q0 45 28 76t79 31t85 -38t50.5 -83t51 -83t85.5 -38q88 0 88 84q0 23 -7 45.5t-27.5 53t-36 51t-54 70t-61.5 77.5q-8 10 -38 47t-38 49.5t-30.5 43t-30.5 48t-20.5 45t-16.5 53t-4 52.5
q0 123 101.5 196.5t258.5 73.5q113 0 205 -56t92 -140q0 -43 -24.5 -70.5t-71.5 -27.5q-51 0 -89 34.5t-56.5 75.5t-50 76t-70.5 35q-29 0 -51.5 -16.5t-22.5 -47.5q0 -18 10.5 -40.5t32 -53.5t43 -57.5t58 -71.5t63.5 -80q10 -14 41 -53t44 -56.5t35.5 -52t33 -59.5
t18.5 -57.5t8 -65.5zM332 -676q-27 -25 -45 0l-17 23q90 100 105 190q4 25 -2 27q-20 -4 -41 -4q-63 0 -97 40t-34 93q0 72 52 128t132 56q68 0 104.5 -45t36.5 -121q0 -98 -55 -202.5t-139 -184.5z" />
    <glyph glyph-name="uni021A" unicode="&#x21a;" horiz-adv-x="1198" 
d="M1143 1284l112 -2l-112 -321h-109q57 205 -55 204h-127l-143 -1003q-6 -37 19.5 -50.5t109.5 -17.5v-94q-309 10 -621 0l4 94q150 8 164 84l135 987h-123q-39 0 -68.5 -36.5t-84.5 -135.5q-12 -20 -19 -32h-110l104 321l100 -2q43 -8 230 -8h364q169 0 230 12zM494 -123
q68 0 104.5 -45t36.5 -121q0 -98 -55.5 -202.5t-139.5 -184.5q-27 -25 -45 0l-16 23q90 100 104 190q4 25 -2 27q-20 -4 -41 -4q-63 0 -97 40t-34 93q0 72 52.5 128t132.5 56z" />
    <glyph glyph-name="uni021B" unicode="&#x21b;" horiz-adv-x="727" 
d="M696 1024q20 0 17 -18l-8 -64q-4 -14 -17 -14h-147l-107 -699q-8 -51 39 -51q51 0 117 66q20 20 41 2q25 -23 -2 -51q-176 -209 -373 -209q-70 0 -103.5 41t-21.5 118l117 783h-139q-20 0 -17 20l10 62q4 14 17 14h143l41 281h295l-43 -281h141zM260 -123q68 0 104.5 -45
t36.5 -121q0 -98 -55 -202.5t-139 -184.5q-27 -25 -45 0l-17 23q90 100 105 190q4 25 -2 27q-20 -4 -41 -4q-63 0 -97 40t-34 93q0 72 52 128t132 56z" />
    <glyph glyph-name="uni0237" unicode="&#x237;" horiz-adv-x="696" 
d="M506 1044q150 0 117 -176l-95 -561q-31 -184 -85 -324.5t-115.5 -220t-136 -130t-138 -66t-131.5 -15.5q-129 0 -203.5 39t-74.5 111q0 53 37.5 90t89.5 37q39 0 73.5 -28.5t57 -62.5t54.5 -62.5t64 -28.5q27 0 46.5 8t42 31.5t40 78t29.5 136.5l144 913q8 45 -33 45
q-47 0 -125 -82q-27 -27 -51 0q-18 18 8 53q190 215 385 215z" />
    <glyph glyph-name="circumflex" unicode="&#x2c6;" horiz-adv-x="980" 
d="M496 1470l264 -364l-60 -45l-251 225l-320 -225l-47 45l367 364h47z" />
    <glyph glyph-name="caron" unicode="&#x2c7;" horiz-adv-x="980" 
d="M393 1061l-264 364l59 45l252 -225l320 225l47 -45l-367 -364h-47z" />
    <glyph glyph-name="breve" unicode="&#x2d8;" horiz-adv-x="839" 
d="M502 1167q-127 0 -201 72t-65 215h135q4 -43 46 -70.5t103 -27.5q66 0 114 27.5t62 70.5h140q-25 -143 -117 -215t-217 -72z" />
    <glyph glyph-name="dotaccent" unicode="&#x2d9;" horiz-adv-x="587" 
d="M387 1118q-72 0 -123 51.5t-51 122.5q0 70 51 120t123 50q70 0 119 -49t49 -120.5t-49 -123t-119 -51.5z" />
    <glyph glyph-name="ring" unicode="&#x2da;" horiz-adv-x="688" 
d="M358.5 1130q-69.5 0 -111.5 48.5t-34 116t60.5 114.5t122 47t111.5 -47t33.5 -114.5t-60.5 -116t-121.5 -48.5zM366.5 1221q26.5 0 52 22.5t30.5 50.5q2 27 -16.5 49.5t-45.5 22.5q-29 0 -54.5 -22.5t-27.5 -49.5q-2 -29 16.5 -51t45 -22z" />
    <glyph glyph-name="ogonek" unicode="&#x2db;" horiz-adv-x="851" 
d="M522 -270q-104 -143 -327 -144q-80 0 -140.5 34t-60.5 112q0 96 81 174t191 94h189q-209 -92 -209 -205q0 -72 94 -71q80 0 119 57z" />
    <glyph glyph-name="tilde" unicode="&#x2dc;" horiz-adv-x="1036" 
d="M936 1425q-16 -133 -90 -194.5t-170 -61.5q-84 0 -147.5 25t-104.5 49.5t-72 24.5q-33 0 -50 -24.5t-15 -43.5l-86 14q23 244 243 244q109 0 202 -38t138 -38q29 0 49.5 22.5t14.5 37.5z" />
    <glyph glyph-name="hungarumlaut" unicode="&#x2dd;" horiz-adv-x="1228" 
d="M98 1204l254 238q45 43 87 44t71 -42t9.5 -98.5t-79.5 -77.5l-309 -119zM469 1204l252 238q47 43 89 44t70.5 -42t9 -98.5t-78.5 -77.5l-309 -119z" />
    <glyph glyph-name="gravecomb" unicode="&#x300;" 
d="M-4 1204l-37 -55l-340 119q-63 23 -85.5 78t7.5 98q33 43 81 42t99 -44z" />
    <glyph glyph-name="acutecomb" unicode="&#x301;" 
d="M-465 1204l299 238q53 41 103 41q35 0 58 -23.5t23 -62.5q0 -47 -32.5 -75t-91.5 -52l-326 -119z" />
    <glyph glyph-name="uni0302" unicode="&#x302;" 
d="M-182 1470l264 -364l-59 -45l-252 225l-320 -225l-47 45l367 364h47z" />
    <glyph glyph-name="tildecomb" unicode="&#x303;" 
d="M25 1425q-16 -133 -90 -194.5t-171 -61.5q-84 0 -147 25t-104 49.5t-72 24.5q-33 0 -50.5 -24.5t-15.5 -43.5l-86 14q23 244 244 244q109 0 202 -38t138 -38q29 0 49.5 22.5t14.5 37.5z" />
    <glyph glyph-name="uni0304" unicode="&#x304;" 
d="M-649 1329q6 37 41 37h585q39 0 31 -37l-8 -100q-8 -39 -41 -39h-586q-41 0 -32 39z" />
    <glyph glyph-name="uni0306" unicode="&#x306;" 
d="M-303 1167q-127 0 -201 72t-65 215h135q4 -43 46 -70.5t103 -27.5q66 0 114 27.5t62 70.5h140q-25 -143 -118 -215t-216 -72z" />
    <glyph glyph-name="uni0307" unicode="&#x307;" 
d="M-166 1118q-72 0 -123 51.5t-51 122.5q0 70 51 120t123 50q70 0 119 -49t49 -120.5t-49 -123t-119 -51.5z" />
    <glyph glyph-name="uni0308" unicode="&#x308;" 
d="M-581.5 1147q-61.5 0 -102.5 42t-41 103.5t41 101.5t102 40q63 0 102.5 -40t39.5 -101.5t-40 -103.5t-101.5 -42zM-143.5 1147q-61.5 0 -102.5 42t-41 103.5t41 101.5t103 40q63 0 102 -40t39 -101.5t-40 -103.5t-101.5 -42z" />
    <glyph glyph-name="uni030A" unicode="&#x30a;" 
d="M-174 1130q-70 0 -112 48.5t-33.5 116t60.5 114.5t121.5 47t111.5 -47t34 -114.5t-60 -116t-122 -48.5zM-166 1221q27 0 53.5 22.5t28.5 50.5q2 27 -16.5 49.5t-44.5 22.5q-29 0 -54.5 -22.5t-27.5 -49.5q-2 -29 16 -51t45 -22z" />
    <glyph glyph-name="uni030B" unicode="&#x30b;" 
d="M-903 1204l254 238q45 43 87 44t70.5 -42t9 -98.5t-78.5 -77.5l-309 -119zM-532 1204l251 238q47 43 89 44t71 -42t9.5 -98.5t-78.5 -77.5l-310 -119z" />
    <glyph glyph-name="uni030C" unicode="&#x30c;" 
d="M-285 1061l-264 364l60 45l251 -225l320 225l47 -45l-367 -364h-47z" />
    <glyph glyph-name="uni0326" unicode="&#x326;" 
d="M-412 -676q-27 -25 -45 0l-16 23q90 100 104 190q4 25 -2 27q-20 -4 -41 -4q-63 0 -97 40t-34 93q0 72 52.5 128t132.5 56q68 0 104.5 -45t36.5 -121q0 -98 -55.5 -202.5t-139.5 -184.5z" />
    <glyph glyph-name="uni0327" unicode="&#x327;" 
d="M-487 -352q100 0 100 98q0 41 -26.5 65.5t-86.5 47.5q-51 16 -47 57q0 8 6 14.5t22.5 26.5t35.5 43h94l-35 -61q213 -78 213 -191q0 -76 -86 -117t-188 -41q-94 0 -154.5 33t-60.5 101q0 35 21.5 58t60.5 23q41 0 54 -24.5t9 -54t10.5 -54t57.5 -24.5z" />
    <glyph glyph-name="uni0328" unicode="&#x328;" 
d="M-213 -270q-104 -143 -328 -144q-80 0 -140 34t-60 112q0 96 80.5 174t191.5 94h188q-209 -92 -208 -205q0 -72 94 -71q80 0 119 57z" />
    <glyph glyph-name="uni0335" unicode="&#x335;" 
d="M-705 621q2 35 43 34h545q39 0 33 -34l-20 -138q-2 -35 -43 -34h-545q-39 0 -33 34z" />
    <glyph glyph-name="uni0394" unicode="&#x394;" horiz-adv-x="1363" 
d="M1221 0h-1221l760 1298zM252 231h659l-249 664z" />
    <glyph glyph-name="uni03A9" unicode="&#x3a9;" horiz-adv-x="1574" 
d="M1460 684q-23 -168 -142.5 -304t-295.5 -206l88 6q8 0 27.5 1t29 2t23.5 6.5t25.5 14.5t21.5 25l41 47h172l-111 -237q-18 -39 -61 -39h-455l47 365q109 10 188 110t101 266q55 395 -278 396q-164 0 -268.5 -112t-133.5 -320q-20 -152 26 -241t152 -99l-47 -365h-444
q-37 0 -51 55l-54 221h164l25 -63q8 -20 21.5 -28.5t25.5 -7.5t36.5 3t43.5 0l84 -6q31 0 39 6q-174 51 -265.5 193.5t-60.5 347.5q31 236 231.5 410t489.5 174t444.5 -185.5t120.5 -435.5zM991 164q0 -4 6 2q-2 0 -6 -2z" />
    <glyph glyph-name="uni03BC" unicode="&#x3bc;" horiz-adv-x="1400" 
d="M1321 250q18 -18 -8 -53q-188 -213 -383 -213q-154 0 -119 174l59 286q-33 -94 -69.5 -165.5t-91 -144.5t-130 -111.5t-167.5 -38.5q-47 0 -78 10q0 -70 18.5 -123t38 -75.5t32.5 -45t7 -41.5q-25 -80 -125 -110q-100 -31 -151 20q-33 33 -25 92l61 414q-29 90 0 231
l93 441q6 27 -6.5 39t-32.5 12q-47 0 -117 -66q-18 -20 -41 -2q-25 23 2 51q178 209 373 209q74 0 110.5 -41t20.5 -118l-100 -525q-45 -238 55 -237q106 0 228 245.5t179 661.5h273l-117 -813q-8 -45 35 -45t125 82q24 25 51 0z" />
    <glyph glyph-name="pi" unicode="&#x3c0;" horiz-adv-x="1742" 
d="M1655 924l-10 -93h-152q-55 0 -95 -35.5t-50 -101.5l-70 -475q-6 -41 -3 -89t28 -48q27 0 44 31.5t25 68.5t35 69t68 32q61 0 91.5 -35t22.5 -101q-14 -98 -89 -132.5t-210 -34.5q-190 0 -271 74.5t-63 219.5l80 557h-143l-76 -550q-23 -141 -138.5 -217t-261 -76
t-200.5 26l-16 142q260 -82 295 176l69 499h-51q-43 0 -68.5 -59t-24.5 -131t23 -109l-274 50q-68 135 -10.5 238.5t182.5 103.5h1313z" />
    <glyph glyph-name="uni0401" unicode="&#x401;" horiz-adv-x="1095" 
d="M462.5 1393q-61.5 0 -102.5 42t-41 103t41 101t103 40q63 0 102 -40t39 -101t-40 -103t-101.5 -42zM901.5 1393q-61.5 0 -102.5 42t-41 103t41 101t102 40q63 0 102 -40t39 -101t-39.5 -103t-101 -42zM829 248l78 133l109 -8q-106 -231 -117 -373q-375 23 -909 0l2 88
q80 6 115.5 25.5t42.5 58.5l131 940q8 37 -16.5 48t-110.5 18l10 94h866q39 0 33 -45l2 -252h-98l-19 51q-41 88 -70.5 114.5t-111.5 26.5h-107q-18 0 -33.5 -14t-17.5 -31l-57 -411h160q72 0 110.5 29.5t59.5 97.5l75 -17q-39 -162 -47 -348l-80 16q-2 68 -25.5 92.5
t-96.5 24.5h-172l-66 -469q-2 -31 31 -31h37q121 0 183 29t109 113z" />
    <glyph glyph-name="uni0403" unicode="&#x403;" horiz-adv-x="1150" 
d="M487 1450l299 238q53 41 103 41q35 0 58.5 -24t23.5 -63q0 -47 -33 -74.5t-92 -51.5l-326 -119zM1161 1227l4 -252h-104l-23 51q-37 86 -70.5 112.5t-121.5 26.5h-195l-139 -1003q-8 -37 19.5 -50.5t117.5 -17.5v-94q-330 10 -657 0v94q162 8 174 84l131 932
q2 37 -25.5 50.5t-113.5 17.5l6 94h964q33 0 33 -45z" />
    <glyph glyph-name="uni0404" unicode="&#x404;" horiz-adv-x="1304" 
d="M715 76q106 0 211.5 65.5t179.5 206.5h123q-66 -166 -210.5 -274.5t-373.5 -108.5q-305 0 -457.5 185.5t-105.5 506.5q37 281 237.5 464.5t464.5 183.5q96 0 197.5 -26t148.5 -26q51 0 121 9q-10 -207 39 -353h-178q-104 289 -324 289q-270 0 -342 -500h484l-15 -102
h-481q-18 -233 48.5 -376.5t232.5 -143.5z" />
    <glyph glyph-name="uni0407" unicode="&#x407;" horiz-adv-x="724" 
d="M278.5 1393q-61.5 0 -102.5 42t-41 103t41 101t103 40q63 0 102 -40t39 -101t-40 -103t-101.5 -42zM716.5 1393q-61.5 0 -102.5 42t-41 103t41 101t103 40q63 0 102 -40t39 -101t-40 -103t-101.5 -42zM477 162q-6 -37 24.5 -50.5t116.5 -17.5l-16 -94q-311 10 -622 0
l16 94q141 8 156 84l131 932q6 37 -23 50.5t-113 17.5l17 94q309 -10 614 0l-12 -94q-152 -8 -160 -84z" />
    <glyph glyph-name="uni040C" unicode="&#x40c;" horiz-adv-x="1511" 
d="M668 1450l299 238q53 41 102 41q35 0 58.5 -24t23.5 -63q0 -47 -33 -74.5t-92 -51.5l-326 -119zM1145 295q49 -82 77.5 -122t76 -75t108.5 -41l-86 -94q-139 0 -249.5 39t-180.5 162l-256 405l-74 -77l-49 -330q-8 -37 19.5 -50.5t117.5 -17.5v-94q-100 4 -336.5 4
t-320.5 -4v94q162 8 174 84l131 932q2 37 -25.5 50.5t-113.5 17.5v94q326 -6 657 0v-94q-166 -8 -174 -84l-61 -424l366 362q80 78 100.5 97.5t75 64.5t82 55.5t73.5 22.5t99 12q84 0 129 -38t45 -99q0 -63 -38.5 -93t-88.5 -30q-47 0 -71.5 19.5t-28.5 43t-15.5 43
t-31.5 19.5q-33 0 -107 -68l-305 -288z" />
    <glyph glyph-name="uni040E" unicode="&#x40e;" horiz-adv-x="1359" 
d="M809 1413q-127 0 -200.5 71.5t-65.5 215.5h135q4 -43 46 -70.5t103 -27.5q66 0 114 27.5t63 70.5h139q-25 -143 -118 -215t-216 -72zM1018 1272q197 -12 405 0v-94q-68 -8 -112.5 -34t-81.5 -81l-717 -1083q-18 -25 -32.5 -31t-59.5 -6q-84 0 -49 53l217 309l-324 795
q-12 33 -15 39t-31 20.5t-81 18.5v94q322 -12 658 0v-94q-84 -8 -117 -33t-19 -60l175 -428l272 422q14 23 16 39.5t-4 25.5t-26.5 17t-32.5 10.5t-41 6.5v94z" />
    <glyph glyph-name="uni0410" unicode="&#x410;" horiz-adv-x="1368" 
d="M1100 301q29 -121 64.5 -161t125.5 -46l-4 -94q-324 8 -657 0l4 94q57 4 91 12.5t60.5 31t18.5 61.5l-53 235h-318l-106 -241q-27 -59 14 -76t162 -23h12v-94q-272 10 -547 0l4 94q106 6 162.5 39t93.5 105l480 1044h186zM475 530h254l-86 381z" />
    <glyph glyph-name="uni0411" unicode="&#x411;" horiz-adv-x="1310" 
d="M664 795q317 -12 460.5 -127t112.5 -303q-23 -166 -173.5 -265.5t-418.5 -99.5q-330 10 -657 0l4 94q158 8 172 82l131 932q2 37 -25.5 51.5t-115.5 18.5l8 94h987q33 0 33 -43l2 -254h-107l-20 49q-45 88 -77 114.5t-118 26.5h-211l-53 -368zM922 397q41 293 -275 303
l-61 2l-76 -538q-8 -37 19.5 -53.5t99.5 -16.5q125 0 200 84t93 219z" />
    <glyph glyph-name="uni0412" unicode="&#x412;" horiz-adv-x="1288" 
d="M915 682q301 -68 302 -293q0 -203 -166 -296t-445 -93h-624l10 94q80 6 115.5 24.5t42.5 57.5l131 942q4 29 -16.5 41t-94.5 19l2 94q127 -4 188 -4q70 0 167.5 2t119.5 2q528 0 529 -293q0 -90 -61 -170t-200 -127zM623 1176l-72 -480l63 17q264 45 265 301
q0 164 -166 164q-65 0 -90 -2zM610 104q141 0 213 91.5t72 240.5q0 92 -55.5 136t-186.5 44l-118 -22l-60 -424q-6 -49 9 -57.5t126 -8.5z" />
    <glyph glyph-name="uni0413" unicode="&#x413;" horiz-adv-x="1150" 
d="M1161 1227l4 -252h-104l-23 51q-37 86 -70.5 112.5t-121.5 26.5h-195l-139 -1003q-8 -37 19.5 -50.5t117.5 -17.5v-94q-330 10 -657 0v94q162 8 174 84l131 932q2 37 -25.5 50.5t-113.5 17.5l6 94h964q33 0 33 -45z" />
    <glyph glyph-name="uni0414" unicode="&#x414;" horiz-adv-x="1462" 
d="M1505 1178q-166 -8 -174 -84l-129 -932q-8 -37 20.5 -49.5t116.5 -16.5l-45 -372l-84 8v93t-11 74.5t-35.5 54t-74 34t-122.5 12.5h-576q-92 0 -152.5 -18.5t-95 -63.5t-51 -86t-37.5 -117l-82 9l45 372q127 0 200 78t97 256l99 680q2 37 -25 50.5t-115 17.5l7 94h1230z
M408 92l327 4q53 0 85 23.5t36 58.5l131 932q4 39 -24.5 53.5t-114.5 14.5h-51q-164 0 -174 -84l-76 -543q-27 -197 -55.5 -299.5t-83.5 -159.5z" />
    <glyph glyph-name="uni0415" unicode="&#x415;" horiz-adv-x="1095" 
d="M829 248l78 133l109 -8q-106 -231 -117 -373q-375 23 -909 0l2 88q80 6 115.5 25.5t42.5 58.5l131 940q8 37 -16.5 48t-110.5 18l10 94h866q39 0 33 -45l2 -252h-98l-19 51q-41 88 -70.5 114.5t-111.5 26.5h-107q-18 0 -33.5 -14t-17.5 -31l-57 -411h160q72 0 110.5 29.5
t59.5 97.5l75 -17q-39 -162 -47 -348l-80 16q-2 68 -25.5 92.5t-96.5 24.5h-172l-66 -469q-2 -31 31 -31h37q121 0 183 29t109 113z" />
    <glyph glyph-name="uni0416" unicode="&#x416;" horiz-adv-x="2258" 
d="M1892 295q49 -82 78 -122t76 -75t108 -41l-86 -94q-63 0 -112 6t-111.5 24.5t-116 61.5t-90.5 109l-256 405l-73 -77l-49 -330q-8 -37 19.5 -50.5t117.5 -17.5v-94q-328 10 -658 0v94q162 8 174 84l48 314l-60 77l-366 -422q-55 -66 -119 -105.5t-134.5 -55t-115.5 -19.5
t-117 -4l-72 94q84 10 158 71.5t172 182.5l424 482l-215 299q-45 57 -84 57q-23 0 -38 -19.5t-26.5 -43t-41 -43t-76.5 -19.5q-45 0 -80 35t-27 98q10 55 61.5 91t143.5 36q61 0 106.5 -13.5t86.5 -50t67.5 -69.5t79.5 -107q12 -18 21 -28l270 -346l65 440q2 37 -25.5 50.5
t-113.5 17.5v94q326 -10 658 0v-94q-166 -8 -172 -84l-64 -424l367 362q80 78 100.5 97.5t74.5 64.5t81.5 55.5t74 22.5t99.5 12q92 0 138 -46t34 -116q-6 -51 -43 -74.5t-82 -23.5q-47 0 -71.5 19.5t-29 43t-15.5 43t-32 19.5q-33 0 -106 -68l-305 -288z" />
    <glyph glyph-name="uni0417" unicode="&#x417;" horiz-adv-x="1267" 
d="M784 715q41 8 88 8q135 0 222.5 -80t87.5 -203q0 -217 -202 -346t-468 -129q-117 0 -205 34t-140 92.5t-81 124t-37 140.5l117 -16q31 -150 115 -207t219 -57q156 0 258 109.5t102 263.5q0 82 -38 131t-111 49q-25 0 -48.5 -6.5t-60.5 -20.5t-57 -20l-25 96l78 37
q254 109 254 325q0 158 -154 158q-182 0 -370 -297l-187 14q106 186 133 363q55 -25 97 -25q55 0 165.5 26t211.5 26q166 0 272 -80t106 -205q0 -109 -97.5 -189.5t-244.5 -115.5z" />
    <glyph glyph-name="uni0418" unicode="&#x418;" horiz-adv-x="1501" 
d="M879 1272q330 -10 665 0v-94q-166 -8 -174 -84l-129 -932q-8 -37 19.5 -50.5t117.5 -17.5v-94q-332 10 -665 0v94q170 8 182 84l90 637l-455 -516l-18 -137q-8 -37 22.5 -50.5t120.5 -17.5v-94q-332 10 -663 0v94q162 8 174 84l131 932q2 37 -25.5 50.5t-113.5 17.5v94
q330 -10 665 0l-2 -94q-172 -8 -180 -84l-88 -641l453 512l20 145q2 37 -27.5 50.5t-119.5 17.5v94z" />
    <glyph glyph-name="uni0419" unicode="&#x419;" horiz-adv-x="1501" 
d="M883 1413q-127 0 -201 71.5t-66 215.5h136q4 -43 46 -70.5t103 -27.5q66 0 114 27.5t62 70.5h140q-25 -143 -118 -215t-216 -72zM879 1272q330 -10 665 0v-94q-166 -8 -174 -84l-129 -932q-8 -37 19.5 -50.5t117.5 -17.5v-94q-332 10 -665 0v94q170 8 182 84l90 637
l-455 -516l-18 -137q-8 -37 22.5 -50.5t120.5 -17.5v-94q-332 10 -663 0v94q162 8 174 84l131 932q2 37 -25.5 50.5t-113.5 17.5v94q330 -10 665 0l-2 -94q-172 -8 -180 -84l-88 -641l453 512l20 145q2 37 -27.5 50.5t-119.5 17.5v94z" />
    <glyph glyph-name="uni041A" unicode="&#x41a;" horiz-adv-x="1511" 
d="M1145 295q49 -82 77.5 -122t76 -75t108.5 -41l-86 -94q-139 0 -249.5 39t-180.5 162l-256 405l-74 -77l-49 -330q-8 -37 19.5 -50.5t117.5 -17.5v-94q-100 4 -336.5 4t-320.5 -4v94q162 8 174 84l131 932q2 37 -25.5 50.5t-113.5 17.5v94q326 -6 657 0v-94
q-166 -8 -174 -84l-61 -424l366 362q80 78 100.5 97.5t75 64.5t82 55.5t73.5 22.5t99 12q84 0 129 -38t45 -99q0 -63 -38.5 -93t-88.5 -30q-47 0 -71.5 19.5t-28.5 43t-15.5 43t-31.5 19.5q-33 0 -107 -68l-305 -288z" />
    <glyph glyph-name="uni041B" unicode="&#x41b;" horiz-adv-x="1492" 
d="M1538 1178q-168 -8 -174 -84l-129 -932q-8 -37 19.5 -50.5t117.5 -17.5l-2 -94q-330 10 -657 0l2 94q162 8 174 84l129 932q4 39 -24.5 53.5t-112.5 14.5h-72q-168 0 -174 -84l-76 -539q-27 -188 -62.5 -295.5t-107.5 -173.5t-169 -86t-263 -20l4 96q127 0 198.5 77.5
t96.5 256.5l100 700q2 37 -24.5 50.5t-114.5 17.5l6 94h1321z" />
    <glyph glyph-name="uni041C" unicode="&#x41c;" horiz-adv-x="1669" 
d="M1417 162q-4 -37 21.5 -50.5t109.5 -17.5l-2 -94q-305 10 -618 0l4 94q150 8 162 84l112 795l-454 -973l-283 973l-119 -811q-2 -18 11.5 -30.5t49 -20t67.5 -10.5t91 -7l-2 -94q-281 10 -569 0l2 94q240 16 248 84l127 893q4 41 -40 72t-122 35l2 94q229 -10 469 0
l209 -721l334 721q244 -8 489 0v-96q-86 -4 -124 -22.5t-42 -57.5z" />
    <glyph glyph-name="uni041D" unicode="&#x41d;" horiz-adv-x="1409" 
d="M827 1272q309 -10 627 0v-94q-154 -8 -166 -84l-131 -932q-4 -37 21.5 -50.5t109.5 -17.5l-2 -94q-309 10 -627 0l5 94q158 8 170 84l57 412h-352l-60 -428q-6 -37 22.5 -50.5t112.5 -17.5v-94q-313 10 -626 0l4 94q147 8 162 84l131 932q6 37 -21.5 50.5t-111.5 17.5
l4 94q315 -10 622 0v-94q-162 -8 -170 -84l-57 -408h354l60 424q2 37 -26 50.5t-112 17.5v94z" />
    <glyph glyph-name="uni041E" unicode="&#x41e;" horiz-adv-x="1290" 
d="M573 -35q-227 0 -364 148.5t-137 408.5q0 326 194.5 554.5t485.5 228.5q219 0 359 -159t140 -409q0 -313 -201 -542.5t-477 -229.5zM600 72q82 0 146.5 75.5t99.5 195.5t52 245t17 246q0 365 -180 364q-86 0 -151.5 -68.5t-101.5 -181t-53 -234.5t-17 -247
q0 -182 48 -288.5t140 -106.5z" />
    <glyph glyph-name="uni041F" unicode="&#x41f;" horiz-adv-x="1501" 
d="M1544 1178q-166 -8 -174 -84l-129 -932q-8 -37 19.5 -50.5t117.5 -17.5v-94q-332 10 -665 0v94q170 8 182 84l131 932q4 39 -25.5 53.5t-113.5 14.5h-72q-164 0 -174 -84l-129 -932q-8 -37 22.5 -50.5t120.5 -17.5v-94q-332 10 -663 0v94q162 8 174 84l131 932
q2 37 -25.5 50.5t-113.5 17.5l6 94h1386z" />
    <glyph glyph-name="uni0420" unicode="&#x420;" horiz-adv-x="1230" 
d="M516 469l-45 -309q-2 -37 22.5 -48.5t106.5 -17.5l-4 -94q-303 8 -608 0l4 94q80 6 114.5 24.5t43.5 57.5l131 942q6 33 -18.5 44.5t-92.5 15.5l2 94q88 -4 185.5 -4t191.5 2t119 2q326 0 449.5 -98.5t92.5 -294.5q-20 -147 -171.5 -239.5t-481.5 -166.5zM530 571l23 9
q156 27 251 116.5t111 221.5q41 260 -170 260q-92 0 -122 -2z" />
    <glyph glyph-name="uni0421" unicode="&#x421;" horiz-adv-x="1261" 
d="M1065 348h121q-63 -166 -200.5 -274.5t-356.5 -108.5q-260 0 -407.5 148.5t-147.5 410.5q0 330 198.5 555.5t487.5 225.5q92 0 188 -26t144 -26q45 0 114 9q-16 -193 35 -353h-170q-94 289 -305 289q-117 0 -200 -109.5t-116.5 -262t-35.5 -324.5q0 -193 69.5 -309.5
t212.5 -116.5q100 0 200.5 65.5t168.5 206.5z" />
    <glyph glyph-name="uni0422" unicode="&#x422;" horiz-adv-x="1198" 
d="M1143 1284l112 -2l-112 -321h-109q57 205 -55 204h-127l-143 -1003q-6 -37 19.5 -50.5t109.5 -17.5v-94q-309 10 -621 0l4 94q150 8 164 84l135 987h-123q-39 0 -68.5 -36.5t-84.5 -135.5q-12 -20 -19 -32h-110l104 321l100 -2q43 -8 230 -8h364q169 0 230 12z" />
    <glyph glyph-name="uni0423" unicode="&#x423;" horiz-adv-x="1359" 
d="M1018 1272q197 -12 405 0v-94q-68 -8 -112.5 -34t-81.5 -81l-717 -1083q-18 -25 -32.5 -31t-59.5 -6q-84 0 -49 53l217 309l-324 795q-12 33 -15 39t-31 20.5t-81 18.5v94q322 -12 658 0v-94q-84 -8 -117 -33t-19 -60l175 -428l272 422q14 23 16 39.5t-4 25.5t-26.5 17
t-32.5 10.5t-41 6.5v94z" />
    <glyph glyph-name="uni0424" unicode="&#x424;" horiz-adv-x="1771" 
d="M1147 1104q301 -6 456.5 -132t122.5 -354q-29 -213 -216 -328.5t-492 -119.5l-2 -8q-8 -37 19.5 -50.5t117.5 -17.5v-94q-330 10 -659 0l2 94q154 8 172 76q-307 4 -464 131t-124 354q31 217 218 332t501 117v6q4 37 -23.5 50.5t-113.5 17.5v94q326 -10 657 0v-94
q-158 -8 -172 -74zM1343 655q23 145 -27 244.5t-183 108.5l-103 -738q131 12 213 120.5t100 264.5zM463 618q-20 -152 31 -250t188 -100l102 740q-135 -8 -216.5 -118t-104.5 -272z" />
    <glyph glyph-name="uni0425" unicode="&#x425;" horiz-adv-x="1345" 
d="M1331 1178q-135 -16 -219 -117l-303 -344l258 -527q25 -51 57.5 -70.5t98.5 -25.5v-94q-289 10 -570 0l4 94q51 8 85 26.5t20 47.5l-156 319l-276 -315q-25 -31 -3.5 -51.5t76.5 -26.5l-2 -94q-197 10 -395 0v94q113 10 205 127l340 379l-238 487q-25 47 -58.5 64.5
t-104.5 26.5l4 94q281 -10 565 0l-4 -98q-47 -8 -77 -23.5t-24 -36.5l140 -287l254 283q35 37 -56 59q-23 4 -51 9v94q217 -10 434 0z" />
    <glyph glyph-name="uni0426" unicode="&#x426;" horiz-adv-x="1501" 
d="M1544 1178q-166 -8 -174 -84l-129 -932q-8 -37 19.5 -50.5t117.5 -17.5l-45 -370l-84 8v93t-11 74.5t-35.5 54t-74 34t-122.5 12.5h-1020l6 94q162 8 174 84l131 932q2 37 -25.5 50.5t-113.5 17.5v94q330 -10 665 0l-2 -94q-172 -8 -180 -84l-129 -932q-8 -39 20.5 -53.5
t116.5 -14.5h72q160 0 174 84l131 932q2 37 -27.5 50.5t-119.5 17.5v94q330 -10 665 0v-94z" />
    <glyph glyph-name="uni0427" unicode="&#x427;" horiz-adv-x="1503" 
d="M1548 1178q-168 -8 -174 -84l-129 -932q-8 -37 19.5 -50.5t117.5 -17.5l-2 -94q-328 10 -657 0v94q164 8 176 84l33 264l41 127q-47 -57 -85 -93t-125 -73.5t-196 -37.5q-57 0 -110.5 13t-112.5 48t-88 115t-12 196l53 373q2 37 -25.5 50.5t-113.5 17.5v94q330 -10 667 0
v-94q-176 -10 -184 -84l-49 -355q-35 -219 98 -219q94 0 172 72t109 135l57 383q2 37 -30.5 50.5t-123.5 17.5l3 94q332 -10 671 0v-94z" />
    <glyph glyph-name="uni0428" unicode="&#x428;" horiz-adv-x="2168" 
d="M2214 1178q-166 -8 -174 -84l-129 -932q-8 -37 19.5 -50.5t117.5 -17.5l-6 -94h-2056l6 94q162 8 174 84l131 932q2 37 -25.5 50.5t-113.5 17.5v94q326 -10 657 0v-94q-166 -8 -174 -84l-129 -932q-8 -39 20.5 -53.5t116.5 -14.5h41q160 0 174 84l131 932
q2 37 -24.5 50.5t-114.5 17.5v94q328 -10 657 0v-94q-166 -8 -172 -84l-131 -932q-8 -39 22 -53.5t116 -14.5h43q160 0 174 84l129 932q4 37 -24 50.5t-114 17.5v94q326 -10 658 0v-94z" />
    <glyph glyph-name="uni0429" unicode="&#x429;" horiz-adv-x="2168" 
d="M2214 1178q-166 -8 -174 -84l-129 -932q-8 -37 19.5 -50.5t117.5 -17.5l-45 -370l-84 8v93t-11.5 74.5t-36 54t-73.5 34t-123 12.5h-1689l6 94q162 8 174 84l131 932q2 37 -25.5 50.5t-113.5 17.5v94q326 -10 657 0v-94q-166 -8 -174 -84l-129 -932q-8 -39 20.5 -53.5
t116.5 -14.5h41q160 0 174 84l131 932q2 37 -24.5 50.5t-114.5 17.5v94q328 -10 657 0v-94q-166 -8 -172 -84l-131 -932q-8 -39 22 -53.5t116 -14.5h43q160 0 174 84l129 932q4 37 -24 50.5t-114 17.5v94q326 -10 658 0v-94z" />
    <glyph glyph-name="uni042A" unicode="&#x42a;" horiz-adv-x="1568" 
d="M909 795q317 -12 460.5 -127t115.5 -306q-23 -166 -172.5 -264t-417.5 -98q-332 10 -659 0l2 94q162 8 174 84l137 987h-78q-86 0 -131 -32.5t-115 -122.5l-26 -35h-113l74 268q6 23 10 26t25 3h872l-6 -94q-168 -8 -174 -84l-41 -297zM1169 401q41 289 -272 299l-63 2
l-76 -540q-6 -35 19.5 -51.5t96.5 -16.5q127 0 202 86t93 221z" />
    <glyph glyph-name="uni042B" unicode="&#x42b;" horiz-adv-x="2007" 
d="M664 795q317 -12 460.5 -127t114.5 -306q-23 -166 -172 -264t-418 -98q-330 10 -657 0v94q162 8 174 84l131 932q2 37 -25.5 50.5t-113.5 17.5v94q326 -10 657 0v-94q-166 -8 -174 -84l-43 -297zM1757 162q-6 -37 24.5 -50.5t116.5 -17.5l-16 -94q-311 10 -622 0l16 94
q141 8 156 84l131 932q6 37 -23 50.5t-113 17.5l17 94q309 -10 614 0l-12 -94q-152 -8 -160 -84zM629 94q127 0 201.5 86t93.5 221q41 289 -273 299l-63 2l-76 -540q-6 -35 19.5 -51.5t97.5 -16.5z" />
    <glyph glyph-name="uni042C" unicode="&#x42c;" horiz-adv-x="1323" 
d="M664 795q317 -12 460.5 -127t114.5 -306q-23 -166 -172 -264t-418 -98q-330 10 -657 0v94q162 8 174 84l131 932q2 37 -25.5 50.5t-113.5 17.5v94q326 -10 657 0v-94q-166 -8 -174 -84l-43 -297zM629 94q127 0 201.5 86t93.5 221q41 289 -273 299l-63 2l-76 -540
q-6 -35 19.5 -51.5t97.5 -16.5z" />
    <glyph glyph-name="uni042D" unicode="&#x42d;" horiz-adv-x="1314" 
d="M737 1305q266 0 419 -195t114 -487q-45 -307 -245 -482.5t-503 -175.5q-227 0 -346 115t-137 278l117 -22q55 -260 307 -260q164 0 275.5 144.5t160.5 375.5h-477l14 102h482q0 2 1 8.5t1 8.5q35 238 -8.5 360.5t-184.5 122.5q-225 0 -410 -301l-186 23q106 180 133 358
q55 -25 115 -25q49 0 156.5 26t201.5 26z" />
    <glyph glyph-name="uni042E" unicode="&#x42e;" horiz-adv-x="1953" 
d="M1417 1305q219 0 359.5 -159t140.5 -409q0 -313 -200.5 -542.5t-477.5 -229.5q-227 0 -364.5 148.5t-137.5 408.5q0 31 2 45h-207l-55 -405q-6 -37 24.5 -50.5t116.5 -17.5l-16 -94q-311 10 -622 0l16 94q141 8 156 84l131 932q6 37 -23 50.5t-113 17.5l17 94
q309 -10 614 0l-12 -94q-152 -8 -160 -84l-57 -420h201q45 272 229 451.5t438 179.5zM1266 72q82 0 146.5 75.5t99 195.5t52 245t17.5 246q0 365 -180 364q-86 0 -151.5 -68.5t-101.5 -181t-53.5 -234.5t-17.5 -247q0 -182 48.5 -288.5t140.5 -106.5z" />
    <glyph glyph-name="uni042F" unicode="&#x42f;" horiz-adv-x="1386" 
d="M1204 1268q61 0 209 4l-2 -94q-139 -8 -151 -76l-130 -942q-8 -37 16.5 -48.5t117.5 -17.5v-94q-100 4 -333 4t-319 -4l2 94q86 6 125 24.5t41 57.5l43 299l-35 6l-217 -264q-70 -84 -141.5 -135t-148 -70.5t-119.5 -23.5t-117 -4h-25l-51 94q152 12 340 266l168 213
q-268 106 -268 309q0 406 672 406q29 0 139 -2t184 -2zM838 578l90 600h-107q-131 0 -214 -97.5t-83 -242.5q0 -215 281 -260h33z" />
    <glyph glyph-name="uni0430" unicode="&#x430;" horiz-adv-x="1230" 
d="M1145 246q23 -23 -2 -51q-178 -209 -371 -209q-74 0 -111.5 41t-23.5 118l27 121q-55 -141 -135 -210.5t-207 -69.5q-123 0 -205 69.5t-82 231.5q0 178 101.5 354t274.5 291t359 115q129 0 295 -66l-119 -752q-8 -51 39 -51q51 0 117 66q20 20 43 2zM422 109
q195 0 315 647l31 174q-14 33 -72 33q-92 0 -166.5 -74t-115.5 -183.5t-63.5 -218t-22.5 -192.5q0 -186 94 -186z" />
    <glyph glyph-name="uni0431" unicode="&#x431;" horiz-adv-x="1124" 
d="M655 1042q197 0 307.5 -113.5t110.5 -297.5q0 -270 -178 -457.5t-397 -187.5q-182 0 -297 121.5t-115 388.5q0 170 35 319.5t104.5 273t189.5 195.5t277 72h303q66 0 98.5 9t75.5 44l39 -12q-4 -27 -24.5 -68t-58.5 -89t-103.5 -81t-142.5 -33h-281q-129 0 -201.5 -63.5
t-126.5 -188.5q207 168 385 168zM498 66q109 0 187.5 220t78.5 459q0 219 -117 220q-74 0 -137.5 -106.5t-98 -263.5t-34.5 -310q0 -76 30 -147.5t91 -71.5z" />
    <glyph glyph-name="uni0432" unicode="&#x432;" horiz-adv-x="1030" 
d="M680 545q106 10 189 -50.5t83 -164.5q0 -109 -84 -191t-192.5 -117.5t-212.5 -35.5q-406 0 -406 376q0 160 81 317t222.5 260t301.5 103q123 0 188 -53t65 -135q1 -172 -235 -309zM598 961q-86 0 -156.5 -137.5t-93.5 -344.5q156 53 249 147.5t93 227.5q0 47 -29.5 77
t-62.5 30zM496 66q104 0 154 85t50 173t-54 132t-140 3l2 2q-55 -23 -164 -60q-16 -335 152 -335z" />
    <glyph glyph-name="uni0433" unicode="&#x433;" horiz-adv-x="874" 
d="M715 133q-166 -156 -371 -156q-127 0 -218 77t-91 194q0 49 16.5 93t56 85t66.5 66.5t91.5 61.5t83 45t85.5 42q14 6 21 10q76 33 114.5 55.5t70.5 60.5t32 85q0 113 -125 113q-66 0 -147 -37t-140 -103l-61 54q150 164 370 163q133 0 212 -67.5t79 -171.5
q0 -72 -28.5 -133.5t-85 -108.5t-107.5 -78.5t-129 -70.5q-174 -80 -221 -121q-61 -53 -62 -123q0 -49 33 -80t96 -31q168 0 299 142z" />
    <glyph glyph-name="uni0434" unicode="&#x434;" horiz-adv-x="1103" 
d="M1059 686q0 -291 -171 -495.5t-413 -204.5q-158 0 -283.5 107.5t-125.5 312.5q0 262 172 449t395 187q80 0 145 -14q-20 104 -101 166.5t-194 62.5q-123 0 -204 -55l-43 74q117 78 299 78q125 0 220 -38t151.5 -98.5t92 -150.5t48 -180t12.5 -201zM367 260
q0 -195 116 -194q111 -2 189 213t78 493q0 92 -30 142.5t-81 50.5q-80 0 -144.5 -106.5t-96 -265.5t-31.5 -333z" />
    <glyph glyph-name="uni0435" unicode="&#x435;" horiz-adv-x="942" 
d="M821 311q53 0 4 -84q-170 -242 -417 -241q-147 0 -249 92t-102 284q0 248 184.5 464t428.5 216q117 0 170 -52t53 -134q0 -90 -57.5 -170t-152.5 -136t-171 -89t-158 -60q-6 -113 45.5 -170t124.5 -57q121 0 219 107q27 31 43 30h35zM649 854q0 106 -55 107
q-78 0 -146.5 -139.5t-91.5 -342.5q293 99 293 375z" />
    <glyph glyph-name="uni0436" unicode="&#x436;" horiz-adv-x="2260" 
d="M2111 639q-55 0 -81.5 30.5t-26.5 82.5q0 33 6 72.5t9 62t1 43t-18 29t-51 8.5q-94 0 -161 -87t-94.5 -197t-27.5 -218q0 -135 49 -213t144 -78q113 0 217 111q27 27 41 26h32q29 -4 28 -23.5t-21 -47.5q-158 -254 -426 -254q-150 0 -249.5 92t-99.5 287q0 29 4 81h-114
l-84 -446h-289l84 446h-121q-63 -197 -214.5 -328.5t-334.5 -131.5q-123 0 -206.5 70.5t-83.5 166.5q0 68 39.5 117t105.5 49q55 0 81.5 -30.5t26.5 -82.5q0 -33 -6 -72.5t-9 -62t-1 -43t18.5 -29t51.5 -8.5q94 0 160.5 87.5t94 197t27.5 217.5q0 135 -49 213t-143 78
q-113 0 -217 -111q-27 -27 -41 -26h-33q-29 4 -28 23.5t22 47.5q158 254 426 254q150 0 249 -92t99 -286q0 -53 -10 -119h114l91 481h288l-90 -481h117q55 209 211 353t348 144q123 0 207 -70.5t84 -166.5q0 -68 -40 -117t-106 -49z" />
    <glyph glyph-name="uni0437" unicode="&#x437;" horiz-adv-x="1054" 
d="M748 590q96 -6 158.5 -67.5t62.5 -155.5q0 -164 -158 -275.5t-383 -111.5q-160 0 -266.5 83.5t-122.5 229.5h125q14 -104 74.5 -160.5t154.5 -56.5q119 0 191.5 85t72.5 216q0 115 -90 115q-33 0 -139 -39l-33 98l82 33q180 68 180 241q0 119 -104 119q-131 0 -252 -217
h-188q90 164 104 303q59 -29 96 -29q39 0 119 20.5t168 20.5q156 0 242 -64.5t86 -162.5q0 -129 -180 -225z" />
    <glyph glyph-name="uni0438" unicode="&#x438;" horiz-adv-x="1400" 
d="M86 780q-25 23 2 51q178 209 373 209q74 0 110.5 -41t20.5 -118l-100 -525q-45 -238 55 -237q106 0 228 245.5t179 661.5h273l-117 -813q-8 -45 35 -45t125 82q25 25 51 0q18 -18 -8 -53q-188 -213 -383 -213q-154 0 -119 174l59 286q-33 -94 -69.5 -165.5t-91 -144.5
t-130 -111.5t-167.5 -38.5q-125 0 -193.5 85t-28.5 287l93 441q6 27 -6.5 39t-32.5 12q-47 0 -117 -66q-18 -20 -41 -2z" />
    <glyph glyph-name="uni0439" unicode="&#x439;" horiz-adv-x="1400" 
d="M801 1167q-127 0 -201 72t-65 215h135q4 -43 46 -70.5t103 -27.5q66 0 114 27.5t62 70.5h140q-25 -143 -117 -215t-217 -72zM86 780q-25 23 2 51q178 209 373 209q74 0 110.5 -41t20.5 -118l-100 -525q-45 -238 55 -237q106 0 228 245.5t179 661.5h273l-117 -813
q-8 -45 35 -45t125 82q25 25 51 0q18 -18 -8 -53q-188 -213 -383 -213q-154 0 -119 174l59 286q-33 -94 -69.5 -165.5t-91 -144.5t-130 -111.5t-167.5 -38.5q-125 0 -193.5 85t-28.5 287l93 441q6 27 -6.5 39t-32.5 12q-47 0 -117 -66q-18 -20 -41 -2z" />
    <glyph glyph-name="uni043A" unicode="&#x43a;" horiz-adv-x="1320" 
d="M1006 905q-29 0 -99 -67l-110 -113l184 -401q104 -238 260 -256l-86 -95q-72 0 -113 4.5t-102 20.5t-105 58t-75 110l-164 356l-66 -65l-61 -457h-293l117 813q8 45 -37 45q-43 0 -125 -82q-25 -27 -51 0q-18 18 10 53q186 213 383 213q143 0 115 -174l-35 -250l168 168
q150 154 221.5 204t169.5 50q86 0 132 -38.5t46 -100.5q0 -66 -36.5 -94.5t-86.5 -28.5q-43 0 -68.5 19.5t-32.5 44t-22 44t-38 19.5z" />
    <glyph glyph-name="uni043B" unicode="&#x43b;" horiz-adv-x="1329" 
d="M1243 246q25 -23 -2 -51q-176 -209 -373 -209q-72 0 -106.5 42t-18.5 117l113 617q8 35 -15.5 57.5t-66.5 22.5q-88 0 -144.5 -47t-92.5 -195q-8 -33 -28 -129t-32 -144t-41.5 -125t-62.5 -117t-88.5 -70.5t-124.5 -30.5q-76 0 -128 46t-52 115q0 63 36.5 104.5
t94.5 41.5q37 0 59.5 -17.5t31.5 -37t24.5 -37t35.5 -17.5q14 0 26.5 10.5t24 34t20.5 48t20.5 69.5t19.5 81t23.5 99.5t25.5 108.5q98 412 467 411q154 0 223.5 -59t38.5 -209l-104 -547q-6 -25 6 -38t32 -13q47 0 117 66q21 20 41 2z" />
    <glyph glyph-name="uni043C" unicode="&#x43c;" horiz-adv-x="1726" 
d="M1647 250q18 -18 -11 -53q-186 -213 -383 -213q-152 0 -116 174l98 594l-477 -752l-252 709l-8 10q-55 -389 -88 -498q-59 -201 -189 -231q-29 -6 -61 -6q-76 0 -128 46t-52 115q0 63 36.5 104.5t94.5 41.5q37 0 59.5 -17.5t31.5 -37t24.5 -37t36 -17.5t42 54.5
t37.5 143.5t30.5 186.5t28.5 197.5q6 43 9 63v2q6 45 -36 71t-130 24l16 94q186 -4 432 16l219 -563l357 555h282l-116 -813q-8 -45 36 -45q37 0 125 82q27 25 52 0z" />
    <glyph glyph-name="uni043D" unicode="&#x43d;" horiz-adv-x="1368" 
d="M1282 246q25 -23 -2 -51q-178 -209 -373 -209q-70 0 -103.5 41t-19.5 118l50 301h-320l-74 -446h-290l133 797q8 51 -39 51t-117 -66q-18 -20 -41 -2q-25 23 2 51q178 209 373 209q70 0 103.5 -41t21.5 -118l-56 -336h320l78 481h291l-134 -797q-8 -51 39 -51t117 66
q21 20 41 2z" />
    <glyph glyph-name="uni043E" unicode="&#x43e;" horiz-adv-x="1110" 
d="M637 1042q178 0 300 -100t122 -313q0 -258 -174 -450.5t-404 -192.5q-164 0 -289.5 108.5t-125.5 317.5q0 258 173 444t398 186zM750 764q0 201 -115 201q-117 0 -192.5 -216.5t-75.5 -482.5q0 -201 112.5 -200.5t191.5 213.5t79 485z" />
    <glyph glyph-name="uni043F" unicode="&#x43f;" horiz-adv-x="1406" 
d="M1321 246q25 -23 -2 -51q-176 -209 -373 -209q-72 0 -108.5 41t-22.5 118l98 525q23 104 11.5 170.5t-66.5 66.5q-109 0 -230.5 -244.5t-181.5 -662.5h-270l117 813q8 45 -37 45q-43 0 -125 -82q-25 -27 -51 0q-18 18 10 53q186 213 383 213q150 0 119 -174l-62 -286
q33 94 70 165.5t91 144.5t131 111.5t169 38.5q127 0 194.5 -85t26.5 -287l-86 -441q-6 -25 6.5 -38t30.5 -13q51 0 117 66q23 22 41 2z" />
    <glyph glyph-name="uni0440" unicode="&#x440;" horiz-adv-x="1175" 
d="M868 1042q106 0 188.5 -79.5t82.5 -239.5q0 -113 -46 -241t-126 -239.5t-200 -185t-253 -73.5q-74 0 -129 12l-18 -105q-10 -57 21.5 -73.5t105.5 -3.5l-11 -103q-137 -27 -285.5 -91t-177.5 -64q-53 0 -47 47q2 20 20.5 38.5t39 64.5t33.5 134l110 889q8 55 -24.5 70.5
t-94.5 -0.5l17 102q98 23 180 61.5t125 66.5t55 28q63 0 53 -90l-43 -342q174 417 424 417zM510 66q94 0 164.5 78.5t106.5 197.5t52.5 230.5t16.5 203.5q0 160 -68 160q-57 0 -117.5 -75t-107.5 -181.5t-81 -217t-46 -190.5q-18 -109 -3 -157.5t83 -48.5z" />
    <glyph glyph-name="uni0441" unicode="&#x441;" horiz-adv-x="925" 
d="M631 1042q123 0 207 -70.5t84 -166.5q0 -68 -40 -117t-106 -49q-55 0 -81.5 30.5t-26.5 82.5q0 33 6 72.5t9 62t1 43t-18.5 29t-51.5 8.5q-94 0 -160.5 -87t-94 -197t-27.5 -218q0 -135 49 -213t143 -78q113 0 217 111q27 27 41 26h33q29 -4 28 -23.5t-22 -47.5
q-158 -254 -426 -254q-150 0 -249 92t-99 287q0 260 174 468.5t410 208.5z" />
    <glyph glyph-name="uni0442" unicode="&#x442;" horiz-adv-x="2054" 
d="M1968 246q23 -23 -2 -51q-178 -209 -375 -209q-70 0 -106.5 41t-24.5 118l94 525q23 104 11.5 170.5t-70.5 66.5q-104 0 -226 -245.5t-182 -661.5h-270l96 670q20 104 9 170.5t-70 66.5q-104 0 -225 -245.5t-181 -661.5h-270l117 813q8 45 -37 45q-43 0 -125 -82
q-25 -27 -51 0q-18 18 10 53q186 213 375 213q158 0 127 -174l-62 -286q33 94 70 165.5t91 144.5t129 111.5t167 38.5q127 0 191.5 -85t17.5 -287l-22 -88q33 94 69.5 165.5t91 144.5t129 111.5t166.5 38.5q295 0 223 -372l-81 -441q-8 -51 38 -51q49 0 115 66q20 20 43 2z
" />
    <glyph glyph-name="uni0443" unicode="&#x443;" horiz-adv-x="1093" 
d="M868 1047q84 0 137.5 -61.5t53.5 -176.5q0 -123 -67.5 -333t-207.5 -458q-115 -201 -197.5 -307t-133 -134t-109.5 -28q-82 0 -140.5 51.5t-58.5 135.5q0 72 42 115t104 43q37 0 65.5 -19.5t42 -43.5t30.5 -43t36 -19q43 0 113 96l-326 850q-25 66 -70 65q-43 0 -84 -24
q-31 -18 -45 16q-10 25 10 35q76 43 151 103.5t118 97t63 36.5q33 0 50.5 -25.5t48.5 -103.5l272 -718q178 356 178 548q0 16 -4 18.5t-14 -3.5q-35 -14 -70 -15q-61 0 -104 44.5t-43 105.5q0 63 45.5 107.5t113.5 44.5z" />
    <glyph glyph-name="uni0444" unicode="&#x444;" horiz-adv-x="1755" 
d="M1354 1042q154 0 263 -142t79 -384q-18 -139 -71.5 -246.5t-126.5 -168t-148.5 -91t-149.5 -30.5q-188 0 -221 163h-12q-158 -592 -586 -592q-119 0 -193.5 47.5t-74.5 118.5q0 53 35.5 88t84.5 35q47 0 84 -30.5t57.5 -66.5t50.5 -66.5t60 -30.5q25 0 43.5 8t44 35.5
t48 96.5t36.5 175l23 145q-74 -127 -246 -126q-74 0 -143.5 33.5t-125.5 99t-82 179.5t-5 259q31 227 176 359t297 132q164 0 244 -147l12 78q41 279 165 393.5t328 114.5q145 0 232.5 -77t87.5 -159q0 -43 -30.5 -70.5t-86.5 -27.5q-57 0 -95 40t-52.5 88t-38 88t-55.5 40
q-61 0 -92 -88t-56 -256l-20 -139q94 122 260 122zM506 80q63 0 117.5 61.5t83.5 147.5l73 497l2 21q-25 55 -71.5 94t-104.5 39q-150 0 -205 -424q-27 -178 3 -307t102 -129zM1374 551q29 186 12.5 287.5t-90.5 101.5q-57 0 -119.5 -46t-101.5 -103l-76 -510
q2 -88 34 -144.5t93 -56.5q76 0 147.5 138t100.5 333z" />
    <glyph glyph-name="uni0445" unicode="&#x445;" horiz-adv-x="1130" 
d="M825 864q-53 0 -92 -71.5t-76 -204.5l136 -363q18 -61 71 -61q59 0 140 80q20 20 43 2q23 -23 -3 -51q-164 -209 -374 -209q-70 0 -97.5 34.5t-62.5 137.5l-53 139q-117 -315 -320 -315q-72 0 -111.5 36.5t-39.5 94.5q0 55 34.5 90t85.5 35q49 0 86 -36t74 -36
q88 0 156 225l-123 324q-25 66 -70 65q-43 0 -84 -24q-29 -18 -45 16q-8 23 13 35q76 43 150.5 103.5t116.5 97t62 36.5q23 0 38.5 -15t24.5 -35.5t30 -78.5l83 -225q127 358 338 359q72 0 112 -38t40 -93.5t-35 -90t-88 -34.5q-51 0 -86 35.5t-74 35.5z" />
    <glyph glyph-name="uni0446" unicode="&#x446;" horiz-adv-x="1404" 
d="M1333 217q-23 -27 -62.5 -70t-56 -61t-37 -47t-27.5 -51.5t-7 -48.5q0 -45 43 -95.5t43 -97.5q0 -86 -195 -154l-22 50q39 25 51 38t12 35q0 16 -31.5 54t-31.5 88q0 74 55 155q-63 -29 -137 -28q-154 0 -119 174l59 286q-33 -94 -69.5 -165.5t-91 -144.5t-130 -111.5
t-167.5 -38.5q-125 0 -193.5 85t-28.5 287l93 441q6 27 -6.5 39t-32.5 12q-47 0 -117 -66q-18 -20 -41 -2q-25 23 2 51q178 209 373 209q74 0 110.5 -41t20.5 -118l-100 -525q-45 -238 55 -237q106 0 228 245.5t179 661.5h273l-117 -813q-8 -45 35 -45t125 82q25 25 51 0
q16 -16 4 -35z" />
    <glyph glyph-name="uni0447" unicode="&#x447;" horiz-adv-x="1421" 
d="M86 780q-25 23 2 51q178 209 373 209q72 0 108.5 -41t22.5 -118l-57 -361q-18 -59 -4 -113.5t83 -54.5q264 0 361 674h272l-119 -813q-8 -45 37 -45q39 0 125 82q25 25 51 0q18 -18 -10 -53q-186 -213 -383 -213q-152 0 -117 174l74 364q-49 -164 -168 -234.5t-250 -70.5
q-313 0 -256 303l52 277q8 51 -39 51t-117 -66q-18 -20 -41 -2z" />
    <glyph glyph-name="uni0448" unicode="&#x448;" horiz-adv-x="2080" 
d="M1999 250q18 -18 -8 -53q-188 -213 -383 -213q-150 0 -119 174l59 286q-27 -74 -53.5 -132t-67.5 -122.5t-87 -107.5t-109.5 -70.5t-136.5 -27.5q-131 0 -200 84t-26 288l17 88q-33 -92 -70 -164.5t-92 -144.5t-131 -111.5t-166 -39.5q-299 0 -227 372l84 441
q8 51 -39 51t-117 -66q-18 -20 -41 -2q-25 23 2 51q178 209 373 209q72 0 108.5 -41t22.5 -118l-92 -525q-23 -104 -11.5 -170.5t70.5 -66.5q104 0 226 245.5t180 661.5h305l-103 -670q-20 -104 -9 -170.5t69 -66.5q104 0 226 245.5t181 661.5h271l-117 -813q-8 -45 37 -45
q41 0 123 82q26 27 51 0z" />
    <glyph glyph-name="uni0449" unicode="&#x449;" horiz-adv-x="2080" 
d="M1999 250q18 -18 -8 -53q-39 -45 -82 -82q-51 -57 -74 -94t-23 -82t43 -95.5t43 -97.5q0 -86 -194 -154l-23 50q39 23 51.5 37t12.5 36q0 16 -32 54t-32 88q0 74 54 149q-68 -23 -127 -22q-150 0 -119 174l59 286q-27 -74 -53.5 -132t-67.5 -122.5t-87 -107.5
t-109.5 -70.5t-136.5 -27.5q-131 0 -200 84t-26 288l17 88q-33 -92 -70 -164.5t-92 -144.5t-131 -111.5t-166 -39.5q-299 0 -227 372l84 441q8 51 -39 51t-117 -66q-18 -20 -41 -2q-25 23 2 51q178 209 373 209q72 0 108.5 -41t22.5 -118l-92 -525q-23 -104 -11.5 -170.5
t70.5 -66.5q104 0 226 245.5t180 661.5h305l-103 -670q-20 -104 -9 -170.5t69 -66.5q104 0 226 245.5t181 661.5h271l-117 -813q-8 -45 37 -45q41 0 123 82q26 27 51 0z" />
    <glyph glyph-name="uni044A" unicode="&#x44a;" horiz-adv-x="1517" 
d="M862 717q289 -14 429.5 -106.5t140.5 -241.5q0 -102 -63.5 -180t-161 -121t-199 -63.5t-193.5 -20.5q-217 0 -297 85t-41 287l90 475l-45 -4q-39 0 -122 16.5t-111 16.5q-88 0 -158 -69q-23 -23 -45 -3q-27 20 8 62q86 111 149.5 150.5t162.5 39.5q27 0 122 -23.5
t181 -23.5q113 0 184 33l-53 -309h22zM848 80q115 0 192.5 88t77.5 238q0 205 -260 208h-35l-47 -258q-10 -66 -14 -102.5t-2 -83.5t24.5 -68.5t63.5 -21.5z" />
    <glyph glyph-name="uni044B" unicode="&#x44b;" horiz-adv-x="1873" 
d="M586 717q287 -14 428 -106.5t141 -241.5q0 -102 -63.5 -180t-160.5 -121t-198.5 -63.5t-193.5 -20.5q-217 0 -298 85t-42 287l84 441q6 27 -1.5 39t-37.5 12q-47 0 -117 -66q-18 -18 -41 -2q-27 25 8 64q170 197 367 196q76 0 109.5 -45t21.5 -114l-29 -164h23z
M1731 1026l-140 -797q-8 -51 39 -51t117 66q18 20 41 2q25 -23 -2 -51q-178 -209 -373 -209q-70 0 -104.5 41t-22.5 118l152 881h293zM840 406q0 205 -258 208h-37l-45 -258q-10 -66 -14.5 -102.5t-2.5 -83.5t23.5 -68.5t62.5 -21.5q115 0 193 88t78 238z" />
    <glyph glyph-name="uni044C" unicode="&#x44c;" horiz-adv-x="1220" 
d="M586 717q287 -14 428 -106.5t141 -241.5q0 -102 -63.5 -180t-160.5 -121t-198.5 -63.5t-193.5 -20.5q-217 0 -298 85t-42 287l84 441q6 27 -1.5 39t-37.5 12q-47 0 -117 -66q-18 -18 -41 -2q-27 25 8 64q170 197 367 196q76 0 109.5 -45t21.5 -114l-29 -164h23zM840 406
q0 205 -258 208h-37l-45 -258q-10 -66 -14.5 -102.5t-2.5 -83.5t23.5 -68.5t62.5 -21.5q115 0 193 88t78 238z" />
    <glyph glyph-name="uni044D" unicode="&#x44d;" horiz-adv-x="944" 
d="M551 1042q150 0 249 -92t99 -286q0 -260 -174 -469t-410 -209q-123 0 -206.5 70.5t-83.5 166.5q0 68 39.5 117t105.5 49q55 0 82 -30.5t27 -82.5q0 -33 -6.5 -72.5t-9.5 -62t-1 -43t18.5 -29t51.5 -8.5q113 0 182.5 113t91.5 268h-244v111h252v10q0 135 -49 213t-143 78
q-113 0 -217 -111q-27 -27 -41 -26h-33q-29 4 -28 23.5t22 47.5q158 254 426 254z" />
    <glyph glyph-name="uni044E" unicode="&#x44e;" horiz-adv-x="1699" 
d="M1227 1042q178 0 300 -100t122 -313q0 -258 -174.5 -450.5t-403.5 -192.5q-164 0 -290 108.5t-126 317.5q0 29 2 43h-153l-88 -455h-293l160 797q6 27 -6.5 39t-32.5 12q-47 0 -117 -66q-18 -20 -41 -2q-25 23 2 51q178 209 373 209q72 0 106.5 -42t20.5 -117l-64 -328
h146q47 211 207 350t350 139zM1069 66q113 0 191.5 213t78.5 485q0 201 -114 201q-117 0 -193 -216.5t-76 -482.5q0 -200 113 -200z" />
    <glyph glyph-name="uni044F" unicode="&#x44f;" horiz-adv-x="1271" 
d="M1081 856l-92 -627q-8 -51 39 -51q49 0 115 66q20 20 43 2q23 -23 -2 -51q-178 -209 -373 -209q-70 0 -103.5 41t-23.5 118l25 164h-19l-94 6l-70 -98q-35 -47 -73.5 -85t-71.5 -62.5t-75 -42t-67.5 -26.5t-67.5 -13t-57.5 -5t-54.5 0t-43 1l-47 94q184 18 342 266l21 33
q-242 102 -209 319q20 162 160.5 246t435.5 84q45 0 140 -2t187.5 -2t186.5 4v-94q-140 -8 -152 -76zM721 412l80 518q-35 2 -129 2t-153.5 -70.5t-78.5 -189.5q-20 -129 43.5 -191.5t206.5 -68.5h31z" />
    <glyph glyph-name="uni0451" unicode="&#x451;" horiz-adv-x="942" 
d="M421.5 1147q-61.5 0 -102 42t-40.5 103.5t40.5 101.5t102.5 40q63 0 102 -40t39 -101.5t-40 -103.5t-101.5 -42zM860.5 1147q-61.5 0 -102.5 42t-41 103.5t41 101.5t102 40q63 0 102 -40t39 -101.5t-39.5 -103.5t-101 -42zM821 311q53 0 4 -84q-170 -242 -417 -241
q-147 0 -249 92t-102 284q0 248 184.5 464t428.5 216q117 0 170 -52t53 -134q0 -90 -57.5 -170t-152.5 -136t-171 -89t-158 -60q-6 -113 45.5 -170t124.5 -57q121 0 219 107q27 31 43 30h35zM649 854q0 106 -55 107q-78 0 -146.5 -139.5t-91.5 -342.5q293 99 293 375z" />
    <glyph glyph-name="uni0453" unicode="&#x453;" horiz-adv-x="874" 
d="M315 1204l299 238q53 41 103 41q35 0 58.5 -23.5t23.5 -62.5q0 -47 -33 -75t-92 -52l-326 -119zM715 133q-166 -156 -371 -156q-127 0 -218 77t-91 194q0 49 16.5 93t56 85t66.5 66.5t91.5 61.5t83 45t85.5 42q14 6 21 10q76 33 114.5 55.5t70.5 60.5t32 85
q0 113 -125 113q-66 0 -147 -37t-140 -103l-61 54q150 164 370 163q133 0 212 -67.5t79 -171.5q0 -72 -28.5 -133.5t-85 -108.5t-107.5 -78.5t-129 -70.5q-174 -80 -221 -121q-61 -53 -62 -123q0 -49 33 -80t96 -31q168 0 299 142z" />
    <glyph glyph-name="uni0454" unicode="&#x454;" horiz-adv-x="933" 
d="M784 639q-55 0 -81.5 30.5t-26.5 82.5q0 33 6 72.5t9 62t1 43t-18.5 29t-50.5 8.5q-113 0 -182.5 -113t-92.5 -268h244v-111h-252v-10q0 -135 49 -213t143 -78q113 0 218 111q27 27 41 26h32q29 -4 28 -23.5t-22 -47.5q-158 -254 -426 -254q-150 0 -249 92t-99 287
q0 260 174 468.5t410 208.5q123 0 207 -70.5t84 -166.5q0 -68 -40 -117t-106 -49z" />
    <glyph glyph-name="uni0457" unicode="&#x457;" horiz-adv-x="751" 
d="M270.5 1147q-61.5 0 -102.5 42t-41 103.5t41 101.5t102 40q63 0 102.5 -40t39.5 -101.5t-40 -103.5t-101.5 -42zM708.5 1147q-61.5 0 -102.5 42t-41 103.5t41 101.5t103 40q63 0 102 -40t39 -101.5t-40 -103.5t-101.5 -42zM666 246q23 -23 -2 -51q-178 -209 -373 -209
q-72 0 -106.5 42t-20.5 117l127 668q6 45 -35 45q-43 0 -125 -82q-25 -27 -51 0q-18 18 10 53q188 215 385 215q150 0 117 -176l-123 -639q-6 -27 6 -39t33 -12q49 0 115 66q20 20 43 2z" />
    <glyph glyph-name="uni045C" unicode="&#x45c;" horiz-adv-x="1320" 
d="M897 1270l-326 -119l-32 53l299 238q53 41 102 41q35 0 58.5 -23.5t23.5 -62.5q0 -47 -33 -74.5t-92 -52.5zM1006 905q-29 0 -99 -67l-110 -113l184 -401q104 -238 260 -256l-86 -95q-72 0 -113 4.5t-102 20.5t-105 58t-75 110l-164 356l-66 -65l-61 -457h-293l117 813
q8 45 -37 45q-43 0 -125 -82q-25 -27 -51 0q-18 18 10 53q186 213 383 213q143 0 115 -174l-35 -250l168 168q150 154 221.5 204t169.5 50q86 0 132 -38.5t46 -100.5q0 -66 -36.5 -94.5t-86.5 -28.5q-43 0 -68.5 19.5t-32.5 44t-22 44t-38 19.5z" />
    <glyph glyph-name="uni045E" unicode="&#x45e;" horiz-adv-x="1093" 
d="M645 1167q-127 0 -200.5 72t-65.5 215h135q4 -43 46 -70.5t104 -27.5q66 0 113.5 27.5t62.5 70.5h139q-25 -143 -117 -215t-217 -72zM868 1047q84 0 137.5 -61.5t53.5 -176.5q0 -123 -67.5 -333t-207.5 -458q-115 -201 -197.5 -307t-133 -134t-109.5 -28
q-82 0 -140.5 51.5t-58.5 135.5q0 72 42 115t104 43q37 0 65.5 -19.5t42 -43.5t30.5 -43t36 -19q43 0 113 96l-326 850q-25 66 -70 65q-43 0 -84 -24q-31 -18 -45 16q-10 25 10 35q76 43 151 103.5t118 97t63 36.5q33 0 50.5 -25.5t48.5 -103.5l272 -718q178 356 178 548
q0 16 -4 18.5t-14 -3.5q-35 -14 -70 -15q-61 0 -104 44.5t-43 105.5q0 63 45.5 107.5t113.5 44.5z" />
    <glyph glyph-name="uni0490" unicode="&#x490;" horiz-adv-x="1150" 
d="M1120 1462h113l-76 -266q-4 -18 -6 -22.5t-7 -6.5t-20 -2h-493l-139 -1003q-8 -37 19.5 -50.5t117.5 -17.5v-94q-328 10 -658 0v94q162 8 174 84l131 932q2 37 -25.5 50.5t-113.5 17.5l6 94h705q84 0 129 31.5t115 123.5z" />
    <glyph glyph-name="uni0491" unicode="&#x491;" horiz-adv-x="1007" 
d="M952 1217h113l-76 -267q-6 -23 -10 -26.5t-25 -3.5h-417l-134 -691q-6 -27 6.5 -39t32.5 -12q49 0 115 66q20 20 43 2q23 -23 -2 -51q-178 -209 -375 -209q-70 0 -104.5 42t-20.5 117l138 717q4 37 -25 51.5t-117 18.5l8 94h580q59 0 101 20.5t61.5 42t79.5 91.5z" />
    <glyph glyph-name="uni1E0C" unicode="&#x1e0c;" horiz-adv-x="1329" 
d="M709 1272q573 0 573 -504q0 -336 -176 -550t-496 -214q-35 0 -151.5 16.5t-173.5 16.5q-109 0 -297 -37l4 96q8 0 26 2q51 4 72 7.5t37 14.5t20 36l134 962q4 29 -16.5 41t-94.5 19l2 94q127 -4 188 -4q59 0 175.5 2t173.5 2zM602 92q102 -2 179 124t111 291t34 324
q0 344 -246 345q-29 0 -57 -5l-150 -1028q-4 -16 -3 -25t1 -11.5t8 -4.5l8 -4q23 0 49.5 -2t44 -3t21.5 -1zM502 -442q-72 0 -123 51t-51 123q0 70 51 120t123 50q70 0 119 -49.5t49 -121t-49 -122.5t-119 -51z" />
    <glyph glyph-name="uni1E0D" unicode="&#x1e0d;" horiz-adv-x="1234" 
d="M1149 246q23 -23 -2 -51q-178 -209 -371 -209q-74 0 -111.5 41t-23.5 118l27 121q-55 -141 -135 -210.5t-207 -69.5q-123 0 -207 68.5t-84 234.5q0 182 96 357t263 288t351 113h33l15 90q8 57 -24 78.5t-107 15.5l12 94q98 14 185 33.5t130 31t60 11.5q66 0 55 -86
l-152 -1086q-8 -51 37 -51q51 0 117 66q20 20 43 2zM743 756l21 174q-33 33 -100 33q-90 0 -159 -71t-106 -179.5t-54 -213t-17 -194.5q0 -197 96 -196q76 0 146.5 112.5t112.5 255t60 279.5zM561 -442q-72 0 -123 51t-51 123q0 70 51 120t123 50q70 0 119 -49.5t49 -121
t-49 -122.5t-119 -51z" />
    <glyph glyph-name="uni1E24" unicode="&#x1e24;" horiz-adv-x="1409" 
d="M827 1272q309 -10 627 0v-94q-154 -8 -166 -84l-131 -932q-4 -37 21.5 -50.5t109.5 -17.5l-2 -94q-309 10 -627 0l5 94q158 8 170 84l57 412h-352l-60 -428q-6 -37 22.5 -50.5t112.5 -17.5v-94q-313 10 -626 0l4 94q147 8 162 84l131 932q6 37 -21.5 50.5t-111.5 17.5
l4 94q315 -10 622 0v-94q-162 -8 -170 -84l-57 -408h354l60 424q2 37 -26 50.5t-112 17.5v94zM625 -98q70 0 119 -49.5t49 -121t-49.5 -122.5t-118.5 -51q-72 0 -123 51t-51 123q0 70 51 120t123 50z" />
    <glyph glyph-name="uni1E25" unicode="&#x1e25;" horiz-adv-x="1196" 
d="M881 1042q268 0 268 -344q0 -170 -61.5 -331.5t-182.5 -272t-270 -110.5q-86 0 -135 35.5t-49 97.5q0 55 33.5 85.5t80.5 30.5q49 0 75 -26.5t29 -59t9 -59.5t24 -27q45 0 86 251t41 407q0 193 -88 192q-111 0 -217 -227t-166 -629q-14 -74 -155 -73q-66 0 -103 20.5
t-28 65.5l176 1065q8 63 -19.5 83.5t-95.5 14.5l12 94q94 14 178.5 33.5t127.5 31t59 11.5q72 0 55 -86l-135 -719q27 84 63.5 156.5t90 141.5t130.5 108.5t167 39.5zM440 -442q-72 0 -123 51t-51 123q0 70 51.5 120t122.5 50q70 0 119 -49.5t49 -121t-49 -122.5t-119 -51z
" />
    <glyph glyph-name="uni1E62" unicode="&#x1e62;" horiz-adv-x="1011" 
d="M598 813q166 -88 229 -149q123 -117 123 -281q0 -174 -134 -295t-335 -121q-100 0 -194 42t-117 42q-61 0 -76 -51h-96l27 326h67q53 0 62 -58q12 -92 81.5 -141t159.5 -49q100 0 160.5 65.5t60.5 149.5q0 70 -38.5 120t-141.5 103q-147 76 -232 169t-85 230
q0 178 133 284t321 106q74 0 148 -24t88 -24q41 0 45 39h92l-28 -325h-52q-51 0 -69 67q-53 164 -197 164q-80 0 -134 -47t-54 -129q0 -117 186 -213zM422 -442q-72 0 -123 51t-51 123q0 70 51 120t123 50q70 0 119 -49.5t49 -121t-49 -122.5t-119 -51z" />
    <glyph glyph-name="uni1E63" unicode="&#x1e63;" horiz-adv-x="813" 
d="M731 258q0 -127 -103.5 -201.5t-269.5 -74.5q-145 0 -241.5 61t-96.5 145q0 45 28 76t79 31t85 -38t50.5 -83t51 -83t85.5 -38q88 0 88 84q0 23 -7 45.5t-27.5 53t-36 51t-54 70t-61.5 77.5q-8 10 -38 47t-38 49.5t-30.5 43t-30.5 48t-20.5 45t-16.5 53t-4 52.5
q0 123 101.5 196.5t258.5 73.5q113 0 205 -56t92 -140q0 -43 -24.5 -70.5t-71.5 -27.5q-51 0 -89 34.5t-56.5 75.5t-50 76t-70.5 35q-29 0 -51.5 -16.5t-22.5 -47.5q0 -18 10.5 -40.5t32 -53.5t43 -57.5t58 -71.5t63.5 -80q10 -14 41 -53t44 -56.5t35.5 -52t33 -59.5
t18.5 -57.5t8 -65.5zM330 -442q-72 0 -123 51t-51 123q0 70 51 120t123 50q70 0 119 -49.5t49 -121t-49 -122.5t-119 -51z" />
    <glyph glyph-name="uni1E6C" unicode="&#x1e6c;" horiz-adv-x="1198" 
d="M1143 1284l112 -2l-112 -321h-109q57 205 -55 204h-127l-143 -1003q-6 -37 19.5 -50.5t109.5 -17.5v-94q-309 10 -621 0l4 94q150 8 164 84l135 987h-123q-39 0 -68.5 -36.5t-84.5 -135.5q-12 -20 -19 -32h-110l104 321l100 -2q43 -8 230 -8h364q169 0 230 12zM514 -98
q70 0 119 -49.5t49 -121t-49 -122.5t-119 -51q-72 0 -123 51t-51 123q0 70 51 120t123 50z" />
    <glyph glyph-name="uni1E6D" unicode="&#x1e6d;" horiz-adv-x="727" 
d="M696 1024q20 0 17 -18l-8 -64q-4 -14 -17 -14h-147l-107 -699q-8 -51 39 -51q51 0 117 66q20 20 41 2q25 -23 -2 -51q-176 -209 -373 -209q-70 0 -103.5 41t-21.5 118l117 783h-139q-20 0 -17 20l10 62q4 14 17 14h143l41 281h295l-43 -281h141zM299 -98q70 0 119 -49.5
t49 -121t-49 -122.5t-119 -51q-72 0 -123 51t-51 123q0 70 51 120t123 50z" />
    <glyph glyph-name="Wgrave" unicode="&#x1e80;" horiz-adv-x="1968" 
d="M952 1513q-63 23 -85.5 78.5t7.5 98.5q33 43 81.5 42t99.5 -44l274 -238l-37 -55zM1583 1272q225 -8 451 0l-2 -94q-150 -8 -185 -82l-495 -1114h-113l-199 936l-411 -936h-117l-233 1130q-6 37 -31 49.5t-103 16.5l2 94q307 -10 617 0l-2 -94q-84 -4 -128 -26t-34 -56
l125 -699l283 680l-9 35q-6 37 -29.5 49.5t-103.5 16.5l4 94q305 -10 619 0l-4 -94q-84 -4 -128 -26t-36 -56l127 -699l291 715q2 12 4 21.5t-10.5 16.5t-23.5 11t-33.5 8.5t-42 5.5t-50.5 3v94z" />
    <glyph glyph-name="wgrave" unicode="&#x1e81;" horiz-adv-x="1699" 
d="M1178 1204l-37 -55l-340 119q-63 23 -86 78t8 98q33 43 81 42t99 -44zM1501 1036q160 0 160 -239q0 -311 -180.5 -563t-403.5 -252q-152 0 -248 120q-121 -121 -294 -120q-135 0 -227.5 71.5t-92.5 210.5q0 229 309 557h-327q-23 0 -23 -26q0 -25 26.5 -43.5t53.5 -45
t27 -71.5q0 -39 -25 -65.5t-72 -26.5q-57 0 -92 36.5t-35 110.5q0 117 103.5 226.5t273.5 109.5h334q-16 -27 -79.5 -128t-105.5 -173t-80 -173t-38 -179q0 -86 51 -139.5t137 -53.5q82 0 115 43q-39 92 -39 215q0 213 120 407.5t263 194.5q68 0 110 -52t42 -150
q0 -156 -76 -322t-174 -264q68 -72 157 -72q150 0 235 116t85 279q0 88 -28.5 146.5t-56.5 100.5t-28 89t36 86t87 39zM1098 956q-72 0 -120 -120.5t-48 -294.5q0 -102 45 -213q78 78 139.5 217t61.5 264q0 66 -20.5 106.5t-57.5 40.5z" />
    <glyph glyph-name="Wacute" unicode="&#x1e82;" horiz-adv-x="1968" 
d="M1260 1516l-326 -119l-33 53l299 238q53 41 103 41q35 0 58 -24t23 -63q0 -47 -32.5 -74t-91.5 -52zM1583 1272q225 -8 451 0l-2 -94q-150 -8 -185 -82l-495 -1114h-113l-199 936l-411 -936h-117l-233 1130q-6 37 -31 49.5t-103 16.5l2 94q307 -10 617 0l-2 -94
q-84 -4 -128 -26t-34 -56l125 -699l283 680l-9 35q-6 37 -29.5 49.5t-103.5 16.5l4 94q305 -10 619 0l-4 -94q-84 -4 -128 -26t-36 -56l127 -699l291 715q2 12 4 21.5t-10.5 16.5t-23.5 11t-33.5 8.5t-42 5.5t-50.5 3v94z" />
    <glyph glyph-name="wacute" unicode="&#x1e83;" horiz-adv-x="1699" 
d="M750 1204l299 238q53 41 102 41q35 0 58.5 -23.5t23.5 -62.5q0 -47 -33 -75t-92 -52l-326 -119zM1501 1036q160 0 160 -239q0 -311 -180.5 -563t-403.5 -252q-152 0 -248 120q-121 -121 -294 -120q-135 0 -227.5 71.5t-92.5 210.5q0 229 309 557h-327q-23 0 -23 -26
q0 -25 26.5 -43.5t53.5 -45t27 -71.5q0 -39 -25 -65.5t-72 -26.5q-57 0 -92 36.5t-35 110.5q0 117 103.5 226.5t273.5 109.5h334q-16 -27 -79.5 -128t-105.5 -173t-80 -173t-38 -179q0 -86 51 -139.5t137 -53.5q82 0 115 43q-39 92 -39 215q0 213 120 407.5t263 194.5
q68 0 110 -52t42 -150q0 -156 -76 -322t-174 -264q68 -72 157 -72q150 0 235 116t85 279q0 88 -28.5 146.5t-56.5 100.5t-28 89t36 86t87 39zM1098 956q-72 0 -120 -120.5t-48 -294.5q0 -102 45 -213q78 78 139.5 217t61.5 264q0 66 -20.5 106.5t-57.5 40.5z" />
    <glyph glyph-name="Wdieresis" unicode="&#x1e84;" horiz-adv-x="1968" 
d="M903.5 1393q-61.5 0 -102.5 42t-41 103t41 101t102 40q63 0 102 -40t39 -101t-39.5 -103t-101 -42zM1341.5 1393q-61.5 0 -102.5 42t-41 103t41 101t102 40q63 0 102.5 -40t39.5 -101t-40 -103t-101.5 -42zM1583 1272q225 -8 451 0l-2 -94q-150 -8 -185 -82l-495 -1114
h-113l-199 936l-411 -936h-117l-233 1130q-6 37 -31 49.5t-103 16.5l2 94q307 -10 617 0l-2 -94q-84 -4 -128 -26t-34 -56l125 -699l283 680l-9 35q-6 37 -29.5 49.5t-103.5 16.5l4 94q305 -10 619 0l-4 -94q-84 -4 -128 -26t-36 -56l127 -699l291 715q2 12 4 21.5
t-10.5 16.5t-23.5 11t-33.5 8.5t-42 5.5t-50.5 3v94z" />
    <glyph glyph-name="wdieresis" unicode="&#x1e85;" horiz-adv-x="1699" 
d="M751.5 1147q-61.5 0 -102.5 42t-41 103.5t41 101.5t103 40q63 0 102 -40t39 -101.5t-40 -103.5t-101.5 -42zM1189.5 1147q-61.5 0 -102 42t-40.5 103.5t40.5 101.5t102.5 40q63 0 102 -40t39 -101.5t-40 -103.5t-101.5 -42zM1501 1036q160 0 160 -239q0 -311 -180.5 -563
t-403.5 -252q-152 0 -248 120q-121 -121 -294 -120q-135 0 -227.5 71.5t-92.5 210.5q0 229 309 557h-327q-23 0 -23 -26q0 -25 26.5 -43.5t53.5 -45t27 -71.5q0 -39 -25 -65.5t-72 -26.5q-57 0 -92 36.5t-35 110.5q0 117 103.5 226.5t273.5 109.5h334q-16 -27 -79.5 -128
t-105.5 -173t-80 -173t-38 -179q0 -86 51 -139.5t137 -53.5q82 0 115 43q-39 92 -39 215q0 213 120 407.5t263 194.5q68 0 110 -52t42 -150q0 -156 -76 -322t-174 -264q68 -72 157 -72q150 0 235 116t85 279q0 88 -28.5 146.5t-56.5 100.5t-28 89t36 86t87 39zM1098 956
q-72 0 -120 -120.5t-48 -294.5q0 -102 45 -213q78 78 139.5 217t61.5 264q0 66 -20.5 106.5t-57.5 40.5z" />
    <glyph glyph-name="uni1E92" unicode="&#x1e92;" horiz-adv-x="1189" 
d="M952 385l168 -8q-78 -92 -188 -275l47 -10q45 -10 41 -45l-6 -47h-1034l815 1178h-303q-12 0 -23.5 -2t-21 -5.5t-20.5 -11.5t-17.5 -12t-17.5 -17.5t-16 -20.5t-16.5 -25.5t-16.5 -26.5t-19.5 -30.5t-20.5 -33.5l-127 8l105 281l106 -2q39 -8 227 -8h619l-819 -1180h114
q76 0 127.5 20.5t70.5 39t71 77.5zM457 -98q70 0 119 -49.5t49 -121t-49.5 -122.5t-118.5 -51q-72 0 -123 51t-51 123q0 70 51 120t123 50z" />
    <glyph glyph-name="uni1E93" unicode="&#x1e93;" horiz-adv-x="978" 
d="M758 436q72 0 119 -62.5t47 -148.5q0 -98 -65.5 -179t-186.5 -81q-90 0 -191.5 41t-150.5 41q-45 0 -73 -4t-67.5 -24.5t-78.5 -59.5l-78 80l635 733q-4 -2 -12.5 -10t-15.5 -12.5t-23.5 -8.5t-38.5 -4q-100 0 -217 58.5t-160 58.5q-27 0 -27 -20q0 -16 42 -32t83 -44.5
t41 -79.5q0 -43 -25.5 -71.5t-76.5 -28.5q-74 0 -120 61t-46 149q0 98 65.5 179.5t186.5 81.5q90 0 194.5 -39t159.5 -39q106 0 192 88l78 -80l-635 -733q51 35 111 35q82 0 152.5 -30t124 -59.5t94.5 -29.5q27 0 26 20q0 14 -42 32.5t-83 50.5t-41 81q0 39 26 64.5t77 25.5
zM418 -442q-72 0 -123 51t-51 123q0 70 51 120t123 50q70 0 119 -49.5t49 -121t-49 -122.5t-119 -51z" />
    <glyph glyph-name="Ygrave" unicode="&#x1ef2;" horiz-adv-x="1296" 
d="M991 1450l-37 -55l-340 118q-63 23 -85.5 78.5t8.5 98.5q33 43 81 42t99 -44zM979 1272q190 -12 385 0l-4 -94q-109 -14 -191 -142l-354 -547l-51 -327q-4 -37 21.5 -50.5t109.5 -21.5v-90q-307 10 -621 0l5 94q150 8 163 84l43 303l-229 623q-8 29 -13 37t-30 20.5
t-76 16.5v94q305 -12 619 0l-4 -94q-78 -8 -107 -32t-14 -56l160 -449l266 412q29 39 18.5 65.5t-35 39.5t-61.5 20v94z" />
    <glyph glyph-name="ygrave" unicode="&#x1ef3;" horiz-adv-x="1093" 
d="M492 1268q-63 23 -86 78t8 98q33 43 81 42t99 -44l274 -238l-37 -55zM868 1047q84 0 137.5 -61.5t53.5 -176.5q0 -123 -67.5 -333t-207.5 -458q-115 -201 -197.5 -307t-133 -134t-109.5 -28q-82 0 -140.5 51.5t-58.5 135.5q0 72 42 115t104 43q37 0 65.5 -19.5t42 -43.5
t30.5 -43t36 -19q43 0 113 96l-326 850q-25 66 -70 65q-43 0 -84 -24q-31 -18 -45 16q-10 25 10 35q76 43 151 103.5t118 97t63 36.5q33 0 50.5 -25.5t48.5 -103.5l272 -718q178 356 178 548q0 16 -4 18.5t-14 -3.5q-35 -14 -70 -15q-61 0 -104 44.5t-43 105.5
q0 63 45.5 107.5t113.5 44.5z" />
    <glyph glyph-name="endash" unicode="&#x2013;" horiz-adv-x="1331" 
d="M74 596h1192v-115h-1192v115z" />
    <glyph glyph-name="emdash" unicode="&#x2014;" horiz-adv-x="1818" 
d="M74 596h1679v-115h-1679v115z" />
    <glyph glyph-name="uni2015" unicode="&#x2015;" horiz-adv-x="1818" 
d="M74 596h1679v-115h-1679v115z" />
    <glyph glyph-name="quoteleft" unicode="&#x2018;" horiz-adv-x="440" 
d="M311 1348q27 25 45 0l17 -23q-90 -100 -105 -190q-4 -25 2 -27q20 4 41 4q63 0 97 -40t34 -93q0 -72 -52 -128t-132 -56q-68 0 -104.5 45t-36.5 121q0 98 55 202.5t139 184.5z" />
    <glyph glyph-name="quoteright" unicode="&#x2019;" horiz-adv-x="430" 
d="M283 846q-27 -25 -45 0l-17 22q90 100 105 191q4 25 -2 26q-20 -4 -41 -4q-63 0 -97 40t-34 93q0 72 52 128.5t132 56.5q68 0 104.5 -45t36.5 -121q0 -98 -55 -202.5t-139 -184.5z" />
    <glyph glyph-name="quotesinglbase" unicode="&#x201a;" horiz-adv-x="450" 
d="M127 -260q-27 -25 -45 0l-16 22q90 100 104 191q4 25 -2 27q-20 -4 -41 -5q-63 0 -97 40t-34 94q0 72 52 128t132 56q68 0 105 -45t37 -121q0 -98 -55.5 -202.5t-139.5 -184.5z" />
    <glyph glyph-name="quotedblleft" unicode="&#x201c;" horiz-adv-x="854" 
d="M317 1384q27 25 45 0l17 -22q-90 -100 -105 -191q-4 -25 2 -26q20 4 41 4q63 0 97.5 -40t34.5 -93q0 -72 -52.5 -128.5t-132.5 -56.5q-68 0 -104.5 45.5t-36.5 120.5q0 98 55 202.5t139 184.5zM727 1384q27 25 45 0l16 -22q-90 -100 -104 -191q-4 -25 2 -26q20 4 41 4
q63 0 97 -40t34 -93q0 -72 -52 -128.5t-132 -56.5q-68 0 -105 45.5t-37 120.5q0 98 55.5 202.5t139.5 184.5z" />
    <glyph glyph-name="quotedblright" unicode="&#x201d;" horiz-adv-x="839" 
d="M283 846q-27 -25 -45 0l-17 22q90 100 105 191q4 25 -2 26q-20 -4 -41 -4q-63 0 -97 40t-34 93q0 72 52 128.5t132 56.5q68 0 104.5 -45t36.5 -121q0 -98 -55 -202.5t-139 -184.5zM692 846q-27 -25 -45 0l-16 22q90 100 104 191q4 25 -2 26q-20 -4 -41 -4q-63 0 -97 40
t-34 93q0 72 52.5 128.5t131.5 56.5q68 0 105 -45t37 -121q0 -98 -55.5 -202.5t-139.5 -184.5z" />
    <glyph glyph-name="quotedblbase" unicode="&#x201e;" horiz-adv-x="860" 
d="M127 -260q-27 -25 -45 0l-16 22q90 100 104 191q4 25 -2 27q-20 -4 -41 -5q-63 0 -97 40t-34 94q0 72 52 128t132 56q68 0 105 -45t37 -121q0 -98 -55.5 -202.5t-139.5 -184.5zM537 -260q-27 -25 -45 0l-17 22q90 100 105 191q4 25 -2 27q-20 -4 -41 -5q-63 0 -97 40
t-34 94q0 72 52 128t132 56q68 0 104.5 -45t36.5 -121q0 -98 -55 -202.5t-139 -184.5z" />
    <glyph glyph-name="dagger" unicode="&#x2020;" horiz-adv-x="927" 
d="M793 1063q63 0 96 -40t24.5 -99.5t-53.5 -99.5t-108 -40q-37 0 -92.5 36t-75.5 42l-6 -57l81 -98l-194 -457h-82l-61 457l110 98l8 57q-23 -6 -88 -42t-104 -36q-61 0 -95 40t-24 99.5t54 99.5t106 40q37 0 93 -36t83 -44q0 41 -25.5 106.5t-21.5 98.5q8 59 53 99t107 40
q63 0 96 -40t24 -99q-4 -31 -48 -96.5t-54 -108.5q27 6 93.5 43t103.5 37z" />
    <glyph glyph-name="daggerdbl" unicode="&#x2021;" horiz-adv-x="929" 
d="M711 449q61 0 95 -40t25 -100q-10 -59 -54 -99t-107 -40q-37 0 -93.5 38t-84.5 46q0 -45 27.5 -111.5t23.5 -97.5q-10 -59 -55.5 -99t-104.5 -40q-61 0 -96 40t-29 99q6 31 52 97.5t59 111.5q-31 -8 -98.5 -46t-102.5 -38q-61 0 -96 40t-29 99q10 59 55 99.5t105 40.5
q37 0 95 -38t85 -46l6 49l-78 204l138 201l4 49q-29 -8 -96.5 -46t-104.5 -38q-61 0 -95 40t-24 99.5t53 99.5t107 40q37 0 93 -38t83 -46q0 45 -25.5 111.5t-21.5 97.5q8 59 52 99t108 40q61 0 95 -40t23 -99q-4 -33 -49 -99.5t-59 -109.5q29 8 98.5 46t106.5 38
q61 0 95 -40t23 -99q-8 -59 -52 -99.5t-107 -40.5q-37 0 -93.5 38t-84.5 46l-7 -49l80 -203l-139 -202l-6 -49q29 8 98.5 46t106.5 38z" />
    <glyph glyph-name="bullet" unicode="&#x2022;" horiz-adv-x="804" 
d="M371 279q-113 0 -185.5 76.5t-72.5 193.5q0 150 104.5 258t243.5 108q111 0 183.5 -77.5t72.5 -194.5q0 -150 -104.5 -257t-241.5 -107z" />
    <glyph glyph-name="ellipsis" unicode="&#x2026;" horiz-adv-x="1282" 
d="M123 -20q-53 0 -90 39.5t-37 97.5q0 70 53 124t121 54q53 0 90 -40t37 -97q0 -70 -53 -124t-121 -54zM555 -20q-53 0 -90 39.5t-37 97.5q0 70 53.5 124t120.5 54q53 0 90 -40t37 -97q0 -70 -53 -124t-121 -54zM985 -20q-53 0 -90 39.5t-37 97.5q0 70 53.5 124t120.5 54
q53 0 90 -40t37 -97q0 -70 -53 -124t-121 -54z" />
    <glyph glyph-name="perthousand" unicode="&#x2030;" horiz-adv-x="1986" 
d="M666 1024q-18 -117 -99.5 -200t-191.5 -83q-113 0 -170.5 83t-40.5 200q18 117 97 199t190 82q115 0 173 -82t42 -199zM1124 1303h164l-981 -1313h-168zM387 829q80 0 109 195q31 193 -56 193q-80 0 -106 -193q-29 -195 53 -195zM1228.5 260q-16.5 -117 -97 -200
t-193.5 -83q-111 0 -167 83t-39.5 200t96 199t192.5 82q111 0 168 -82t40.5 -199zM1860 260q-18 -117 -98.5 -200t-193 -83t-171 83t-41.5 200q18 117 99 199t192 82q115 0 172 -82t41 -199zM952 66q78 0 111 194q25 193 -55 193q-86 0 -111 -193q-25 -194 55 -194zM1581 66
q80 0 109 194q31 193 -58 193q-80 0 -104 -193q-25 -194 53 -194z" />
    <glyph glyph-name="guilsinglleft" unicode="&#x2039;" horiz-adv-x="573" 
d="M70 551l446 344l43 -59l-295 -314l207 -313l-55 -59l-359 344z" />
    <glyph glyph-name="guilsinglright" unicode="&#x203a;" horiz-adv-x="577" 
d="M510 494l-447 -344l-45 59l295 313l-204 314l55 59l356 -344z" />
    <glyph glyph-name="fraction" unicode="&#x2044;" horiz-adv-x="401" 
d="M567 1303h193l-885 -1313h-192z" />
    <glyph glyph-name="Euro" unicode="&#x20ac;" horiz-adv-x="1431" 
d="M866 76q100 0 200.5 65.5t168.5 206.5h121q-63 -166 -200.5 -274.5t-356.5 -108.5q-221 0 -362.5 108.5t-180.5 307.5h-213l35 174h166q2 66 16 143h-162l35 174h180q84 197 249 315t368 118q92 0 188 -26t144 -26q45 0 114 9q-16 -193 35 -353h-170q-94 289 -305 289
q-109 0 -184.5 -89t-118.5 -237h340l-35 -174h-340q-8 -70 -12 -143h332l-35 -174h-291q41 -305 274 -305z" />
    <glyph glyph-name="trademark" unicode="&#x2122;" horiz-adv-x="1239" 
d="M575 1272q10 0 18.5 -8.5t6.5 -18.5l-8 -98h-41l-12 33q-6 16 -23 16h-86l-45 -317q-2 -10 13.5 -15.5t33.5 -5.5l-6 -51h-215l8 51q49 0 51 21l43 317h-84q-18 0 -26 -16l-21 -33h-43l21 98q4 27 33 27h382zM1278 1223q-23 -8 -29 -14.5t-8 -24.5l-43 -297
q-2 -16 4 -20.5t33 -12.5l-6 -47h-191l9 47q29 8 37 13t10 20l30 225l-184 -256q-14 -23 -30.5 -22.5t-24.5 22.5l-129 258l-33 -227q-2 -14 5 -19.5t34 -13.5l-8 -47h-158l6 47q31 8 38 13t9 20l43 297q2 18 -5 24t-32 13l7 51h147l135 -283l213 283h129z" />
    <glyph glyph-name="oneeighth" unicode="&#x215b;" horiz-adv-x="1458" 
d="M385 924q0 -33 59 -37v-84h-264v84q59 4 60 37v260l-64 -21v97l115 51q20 8 41.5 5t38 -14.5t14.5 -21.5v-356zM1022 1303h192l-884 -1313h-193zM1214 272q47 -8 82 -48t35 -93q0 -68 -58.5 -111t-170.5 -43q-221 0 -221 164q0 49 32.5 91t75.5 36q-80 20 -80 103
q0 51 52.5 90t140.5 39q84 0 139 -38t55 -89q0 -39 -24.5 -66t-57.5 -35zM1096 322l39 -7q16 -2 28.5 18.5t12.5 37.5q0 55 -72 55q-33 0 -47.5 -17.5t-14.5 -35.5q1 -45 54 -51zM1178 133q0 59 -70 70l-64 12q-33 6 -32 -76q0 -31 24.5 -58.5t65.5 -27.5q37 0 56.5 22.5
t19.5 57.5z" />
    <glyph glyph-name="threeeighths" unicode="&#x215c;" horiz-adv-x="1492" 
d="M489 1102q111 -31 111 -135q0 -80 -62.5 -131.5t-170.5 -51.5q-98 0 -155.5 48.5t-57.5 113.5q0 23 15 38t44 15q31 0 43 -11t16 -40.5t7 -36.5q6 -20 31.5 -35.5t51.5 -15.5q45 0 74 33t25 59q2 57 -37 68.5t-92 -16.5l-37 69l49 23q68 25 68 90q0 51 -66 51
q-29 0 -40 -35t-1 -74l-115 13q-25 10 -24 28q-2 63 49 104.5t145 41.5q96 0 148.5 -39t52.5 -86q0 -61 -72 -88zM1130 1303h193l-885 -1313h-192zM1249 272q47 -8 82 -48t35 -93q0 -68 -58.5 -111t-170.5 -43q-221 0 -222 164q0 49 33 91t76 36q-80 20 -80 103
q0 51 52.5 90t140.5 39q84 0 139 -38t55 -89q0 -39 -24.5 -66t-57.5 -35zM1130 322l39 -7q16 -2 28.5 18.5t12.5 37.5q0 55 -71 55q-33 0 -47.5 -17.5t-14.5 -35.5q0 -45 53 -51zM1212 133q0 59 -69 70l-64 12q-33 6 -32 -76q0 -31 24.5 -58.5t65.5 -27.5q37 0 56 22.5
t19 57.5z" />
    <glyph glyph-name="fiveeighths" unicode="&#x215d;" horiz-adv-x="1505" 
d="M592 985q0 -86 -63.5 -137t-168.5 -51q-215 0 -225 159q-2 25 16.5 45.5t55.5 20.5q39 0 54 -13.5t21.5 -47t8.5 -37.5q18 -53 69 -54q25 0 49.5 32t24.5 85q0 31 -29.5 62.5t-56.5 31.5q-23 0 -42 -4t-38.5 -10t-25.5 -8h-78l20 256h275l14 10h59l-6 -98l-24 -21h-217
l-6 -69q41 39 118 39q66 0 130.5 -54.5t64.5 -136.5zM1143 1303h192l-884 -1313h-193zM1262 272q47 -8 81.5 -48t34.5 -93q0 -68 -58 -111t-171 -43q-221 0 -221 164q0 49 32.5 91t75.5 36q-80 20 -80 103q0 51 52.5 90t140.5 39q84 0 139 -38t55 -89q0 -39 -24 -66t-57 -35
zM1143 322l39 -7q16 -2 28.5 18.5t12.5 37.5q0 55 -72 55q-33 0 -47 -17.5t-14 -35.5q0 -45 53 -51zM1225 133q0 59 -70 70l-63 12q-33 6 -33 -76q0 -31 24.5 -58.5t65.5 -27.5q37 0 56.5 22.5t19.5 57.5z" />
    <glyph glyph-name="seveneighths" unicode="&#x215e;" horiz-adv-x="1433" 
d="M414 1202h-160l-12 -35h-101l27 115q6 29 43 29h369l-256 -512h-54q-27 0 -42 20.5t1 52.5zM1092 1303h192l-885 -1313h-192zM1210 272q47 -8 82 -48t35 -93q0 -68 -58.5 -111t-170.5 -43q-221 0 -221 164q0 49 32.5 91t75.5 36q-80 20 -80 103q0 51 52.5 90t140.5 39
q84 0 139 -38t55 -89q0 -39 -24.5 -66t-57.5 -35zM1092 322l38 -7q16 -2 28.5 18.5t12.5 37.5q0 55 -71 55q-33 0 -47.5 -17.5t-14.5 -35.5q1 -45 54 -51zM1174 133q0 59 -70 70l-64 12q-33 6 -32 -76q0 -31 24.5 -58.5t65.5 -27.5q37 0 56.5 22.5t19.5 57.5z" />
    <glyph glyph-name="partialdiff" unicode="&#x2202;" horiz-adv-x="1134" 
d="M295 1227q98 76 280 76q274 0 408.5 -197t91.5 -508q-43 -285 -199.5 -458t-388.5 -173q-201 0 -327.5 126t-102.5 319q27 195 169.5 307t305.5 112q176 0 230 -135q12 135 16 248t-45 186.5t-158 73.5q-123 0 -223 -82zM739 553q4 16 -9 55t-57 80t-110 41
q-72 0 -121 -96t-67 -227q-6 -39 -8 -66t-4.5 -72t5 -74.5t21.5 -61.5t44 -47t71 -15q51 0 92 42t68.5 118.5t44 150.5t30.5 172z" />
    <glyph glyph-name="emptyset" unicode="&#x2205;" horiz-adv-x="1120" 
d="M868 989q190 -102 190.5 -360t-173.5 -450.5t-404 -192.5q-143 0 -258 82l-53 -68l-100 74l67 84q-72 104 -71 254q0 258 173 444t398 186q92 0 172 -26l8 10zM635 965q-94 0 -161.5 -143.5t-94.5 -354.5l344 440q-31 58 -88 58zM479 66q111 0 188.5 201.5t82.5 467.5
l-383 -485q6 -184 112 -184z" />
    <glyph glyph-name="product" unicode="&#x220f;" horiz-adv-x="1277" 
d="M1303 1638l-289 -2048h-183l261 1854h-643l-261 -1854h-184l289 2048h1010z" />
    <glyph glyph-name="summation" unicode="&#x2211;" horiz-adv-x="1054" 
d="M1100 1638l-27 -194h-592l428 -832l-659 -827h590l-27 -195h-829l28 195l674 829l-440 830l26 194h828z" />
    <glyph glyph-name="minus" unicode="&#x2212;" horiz-adv-x="937" 
d="M143 590h674l-16 -119h-674z" />
    <glyph glyph-name="radical" unicode="&#x221a;" horiz-adv-x="1673" 
d="M428 -410q-43 0 -55 50l-154 557q-33 125 -108 157l-39 17l20 143q174 -10 359 -4l176 -600l858 1730h295l-19 -143l-55 -16q-78 -23 -152 -162l-895 -1729h-231z" />
    <glyph glyph-name="infinity" unicode="&#x221e;" horiz-adv-x="1341" 
d="M1008 956q131 0 201.5 -121.5t39.5 -324.5q-27 -201 -130 -318.5t-234 -117.5q-84 0 -149.5 55t-98.5 152q-115 -207 -285 -207q-131 0 -210 118.5t-50 317.5q29 203 139.5 324.5t243.5 121.5q84 0 143.5 -55t86.5 -156q53 98 135 154.5t168 56.5zM391 358q215 0 236 152
q12 80 -37 120t-156 40q-111 0 -181.5 -40t-78.5 -120q-12 -76 46 -114t171 -38zM926 358q205 0 231 152q10 82 -36 121t-152 39q-111 0 -180.5 -41t-77.5 -119q-12 -76 45 -114t170 -38z" />
    <glyph glyph-name="integral" unicode="&#x222b;" horiz-adv-x="495" 
d="M850 1487q10 -43 -13.5 -90t-68.5 -62q-66 -20 -92 41q-2 0 -8 24.5t-26.5 50.5t-57.5 26q-31 0 -49.5 -19.5t-22.5 -40t-10 -59.5l-199 -1399q-25 -188 -126 -293.5t-232 -105.5q-205 0 -277 151q-20 39 0.5 80t65.5 59q76 33 108 -28q4 0 10.5 -25.5t25 -50.5t52.5 -25
q33 0 51.5 19.5t23.5 40t11 59.5l195 1399q29 188 131 293.5t233 105.5q117 0 189 -44t86 -107z" />
    <glyph glyph-name="approxequal" unicode="&#x2248;" horiz-adv-x="1003" 
d="M995 827q-33 -123 -135 -207.5t-201 -84.5q-61 0 -115.5 23.5t-85 52t-64.5 52t-60 23.5q-23 0 -40.5 -27.5t-44 -56.5t-71.5 -29h-121q45 117 142.5 199t206.5 82q80 0 137 -33t97 -65.5t81 -32.5q27 0 74 52t84 52h116zM946 479q-33 -123 -135 -208t-201 -85
q-61 0 -115.5 23.5t-85 52.5t-64.5 52.5t-60 23.5q-23 0 -40.5 -27.5t-44 -56.5t-71.5 -29h-121q45 117 142.5 199t205.5 82q80 0 137.5 -33t97.5 -65.5t81 -32.5q27 0 74 52t83 52h117z" />
    <glyph glyph-name="notequal" unicode="&#x2260;" horiz-adv-x="858" 
d="M784 655h-178l-135 -249h279l-17 -119h-325l-154 -287h-191l154 287h-158l17 119h203l133 249h-301l16 119h348l129 242h195l-129 -242h131z" />
    <glyph glyph-name="lessequal" unicode="&#x2264;" horiz-adv-x="856" 
d="M129 778q397 170 705 350l-21 -161q-59 -33 -165.5 -97.5t-193.5 -108.5t-186 -79q92 -35 166 -78t171 -113.5t136 -95.5l-18 -162q-240 166 -621 351zM39 137h674l-17 -119h-673z" />
    </font>
</defs>
</svg>
