<?xml version="1.0" standalone="no"?>
<!DOCTYPE svg PUBLIC "-//W3C//DTD SVG 1.1//EN" "http://www.w3.org/Graphics/SVG/1.1/DTD/svg11.dtd" >
<svg xmlns="http://www.w3.org/2000/svg" xmlns:xlink="http://www.w3.org/1999/xlink" version="1.1">
<metadata>
Created by FontForge 20201107 at Fri Sep  7 16:43:17 2018
 By 
Copyright 2018 Bai Jamjuree (https://github.com/cadsondemak/Bai-Jamjuree)
</metadata>
<defs>
<font id="BaiJamjuree-Bold" horiz-adv-x="0" >
  <font-face 
    font-family="Bai Jamjuree"
    font-weight="700"
    font-stretch="normal"
    units-per-em="1000"
    panose-1="0 0 8 0 0 0 0 0 0 0"
    ascent="800"
    descent="-200"
    x-height="499"
    cap-height="700"
    bbox="-692 -561 1446 1225"
    underline-thickness="50"
    underline-position="-100"
    unicode-range="U+000D-FB02"
  />
<missing-glyph horiz-adv-x="509" 
d="M50 712h409v-712h-409v712zM392 66v580h-274v-580h274z" />
    <glyph glyph-name="fi" unicode="fi" horiz-adv-x="594" 
d="M536 0h-136v383h-160v-383h-136v383h-86v116h86v33q0 81 51.5 126.5t143.5 45.5h154v-116h-152q-32 0 -46.5 -14t-14.5 -44v-31h296v-499z" />
    <glyph glyph-name="fl" unicode="fl" horiz-adv-x="649" 
d="M647 116v-116h-64q-89 0 -130.5 37.5t-41.5 116.5v229h-171v-383h-136v383h-86v116h86v33q0 81 51.5 126.5t143.5 45.5h62v-116h-60q-32 0 -46.5 -14t-14.5 -44v-33h171v203h136v-538q0 -24 11 -35t35 -11h54z" />
    <glyph glyph-name="uni0E240E45" unicode="&#xe24;&#xe45;" horiz-adv-x="968" 
d="M853.5 508q52.5 -50 52.5 -132v-576h-136v576q0 28 -15 46t-39 18h-75q-29 0 -47 -24.5t-18 -65.5v-550h-136v570q0 32 -18.5 51t-49.5 19h-107q-26 0 -51 -20t-40 -52q31 -16 49.5 -49t18.5 -70v-28q50 -1 80.5 -32t30.5 -81q0 -53 -34 -85.5t-90 -32.5t-89.5 32.5
t-33.5 85.5v141q0 32 -21 54.5t-57 28.5q11 67 44.5 118.5t83.5 79.5t109 28h125q37 0 70.5 -15.5t54.5 -41.5q21 26 55.5 41.5t72.5 15.5h73q85 0 137.5 -50zM196.5 140q-12.5 -12 -12.5 -32t12.5 -32.5t32.5 -12.5t32.5 12.5t12.5 32.5t-12.5 32t-32.5 12t-32.5 -12z" />
    <glyph glyph-name="uni0E260E45" unicode="&#xe26;&#xe45;" horiz-adv-x="980" 
d="M865.5 508q52.5 -50 52.5 -132v-576h-136v576q0 28 -15 46t-39 18h-75q-29 0 -47 -24.5t-18 -65.5v-550h-136v570q0 32 -18.5 51t-49.5 19h-92q-26 0 -51 -20t-40 -52q80 -39 80 -109v-152q0 -53 -34.5 -85t-91.5 -32q-55 0 -89 32t-34 85q0 50 31 81t82 31v40
q0 58 -90 73q11 67 44.5 118.5t83.5 79.5t109 28h110q37 0 70.5 -15.5t54.5 -41.5q21 26 55 41.5t73 15.5h73q85 0 137.5 -50zM187.5 74.5q12.5 12.5 12.5 32.5t-12.5 32t-32.5 12t-32.5 -12t-12.5 -32t12.5 -32.5t32.5 -12.5t32.5 12.5z" />
    <glyph glyph-name=".notdef" horiz-adv-x="509" 
d="M50 712h409v-712h-409v712zM392 66v580h-274v-580h274z" />
    <glyph glyph-name=".null" 
 />
    <glyph glyph-name="nonmarkingreturn" unicode="&#xd;" horiz-adv-x="288" 
 />
    <glyph glyph-name="NULL" 
 />
    <glyph glyph-name="NULL" 
 />
    <glyph glyph-name="space" unicode=" " horiz-adv-x="288" 
 />
    <glyph glyph-name="exclam" unicode="!" horiz-adv-x="292" 
d="M77 700h138v-495h-138v495zM86.5 12.5q-22.5 22.5 -22.5 59.5t22.5 59.5t59.5 22.5t59.5 -22.5t22.5 -59.5t-22.5 -59.5t-59.5 -22.5t-59.5 22.5z" />
    <glyph glyph-name="quotedbl" unicode="&#x22;" horiz-adv-x="406" 
d="M38 700h136v-243h-136v243zM232 700h136v-243h-136v243z" />
    <glyph glyph-name="numbersign" unicode="#" horiz-adv-x="709" 
d="M150 157h-112v110h112v163h-112v110h112v160h128v-160h153v160h128v-160h112v-110h-112v-163h112v-110h-112v-157h-128v157h-153v-157h-128v157zM431 265v167h-153v-167h153z" />
    <glyph glyph-name="dollar" unicode="$" horiz-adv-x="656" 
d="M574 342.5q48 -40.5 48 -104.5v-66q0 -78 -60 -127t-160 -53v-94h-136v94q-107 1 -167.5 63t-60.5 170h136q0 -52 26.5 -81.5t73.5 -29.5h111q44 0 71.5 18.5t27.5 49.5v34q0 49 -72 61l-184 31q-90 15 -136.5 57.5t-46.5 108.5v56q0 51 27.5 91t77.5 63t116 24v94h136
v-94q94 -5 150.5 -63t56.5 -152h-136q0 42 -23 67.5t-61 25.5h-113q-42 0 -67.5 -18t-25.5 -48v-27q0 -50 69 -62l183 -32q91 -16 139 -56.5z" />
    <glyph glyph-name="percent" unicode="%" horiz-adv-x="1051" 
d="M652 722h142l-396 -747h-142zM84 305.5q-46 45.5 -46 119.5v118q0 74 46 119.5t122 45.5h56q76 0 122 -45.5t46 -119.5v-118q0 -74 -46 -119.5t-122 -45.5h-56q-76 0 -122 45.5zM259 369q21 0 33.5 17.5t12.5 46.5v102q0 29 -12.5 46.5t-33.5 17.5h-50q-21 0 -33.5 -17.5
t-12.5 -46.5v-102q0 -29 12.5 -46.5t33.5 -17.5h50zM667 37.5q-46 45.5 -46 119.5v118q0 74 46 119.5t122 45.5h56q76 0 122 -45.5t46 -119.5v-118q0 -74 -46 -119.5t-122 -45.5h-56q-76 0 -122 45.5zM842 101q21 0 33.5 17.5t12.5 46.5v102q0 29 -12.5 46.5t-33.5 17.5h-50
q-21 0 -33.5 -17.5t-12.5 -46.5v-102q0 -29 12.5 -46.5t33.5 -17.5h50z" />
    <glyph glyph-name="ampersand" unicode="&#x26;" horiz-adv-x="696" 
d="M544 0l-57 62q-39 -34 -86.5 -52t-99.5 -18h-40q-105 0 -164 47t-59 130v36q0 47 19 79.5t46 52.5t85 55l-10 12q-52 62 -52 121v22q0 73 52 117t137 44h38q80 0 128.5 -43.5t48.5 -114.5v-20q0 -31 -14 -55.5t-44.5 -49t-87.5 -59.5l-18 -11l108 -118q21 49 25 102h116
q-6 -105 -57 -193l134 -146h-148zM252 525q0 -31 33 -70l19 -23l16 11q54 38 69 52t15 35v20q0 23 -15 36.5t-40 13.5h-35q-27 0 -44.5 -15t-17.5 -40v-20zM410 146l-148 162q-54 -31 -72 -50.5t-18 -50.5v-34q0 -30 24 -48.5t63 -18.5h44q61 0 107 40z" />
    <glyph glyph-name="quotesingle" unicode="'" horiz-adv-x="212" 
d="M38 700h136v-243h-136v243z" />
    <glyph glyph-name="parenleft" unicode="(" horiz-adv-x="342" 
d="M73 9.5q-35 107.5 -35 229.5v20q0 127 35 234t109 207h142q-77 -103 -113.5 -210.5t-36.5 -230.5v-20q0 -113 36.5 -220.5t113.5 -220.5h-142q-74 104 -109 211.5z" />
    <glyph glyph-name="parenright" unicode=")" horiz-adv-x="342" 
d="M131.5 18.5q36.5 107.5 36.5 220.5v20q0 123 -36.5 230.5t-113.5 210.5h142q74 -100 109 -207t35 -234v-20q0 -122 -35 -229.5t-109 -211.5h-142q77 113 113.5 220.5z" />
    <glyph glyph-name="asterisk" unicode="*" horiz-adv-x="452" 
d="M174 496l-91 -61l-45 84l104 54l-104 53l45 84l91 -60v100h104v-100l91 60l45 -84l-104 -53l104 -54l-45 -84l-91 61v-101h-104v101z" />
    <glyph glyph-name="plus" unicode="+" horiz-adv-x="576" 
d="M220 265h-182v118h182v182h136v-182h182v-118h-182v-182h-136v182z" />
    <glyph glyph-name="comma" unicode="," horiz-adv-x="252" 
d="M-6 -88l30 27q52 47 52 114v66h136v-66q0 -67 -24.5 -121t-71.5 -91l-34 -27z" />
    <glyph glyph-name="hyphen" unicode="-" horiz-adv-x="405" 
d="M38 316h329v-118h-329v118z" />
    <glyph glyph-name="period" unicode="." horiz-adv-x="240" 
d="M60.5 12.5q-22.5 22.5 -22.5 59.5t22.5 59.5t59.5 22.5t59.5 -22.5t22.5 -59.5t-22.5 -59.5t-59.5 -22.5t-59.5 22.5z" />
    <glyph glyph-name="slash" unicode="/" horiz-adv-x="550" 
d="M394 722h138l-376 -747h-138z" />
    <glyph glyph-name="zero" unicode="0" horiz-adv-x="674" 
d="M162 22.5q-54 30.5 -84 86.5t-30 129v224q0 73 29.5 129t83.5 86.5t125 30.5h106q69 0 122 -30.5t82.5 -86.5t29.5 -129v-224q0 -73 -29 -129t-82 -86.5t-123 -30.5h-106q-70 0 -124 30.5zM390 114q44 0 70.5 33.5t26.5 88.5v228q0 55 -26.5 88.5t-70.5 33.5h-102
q-46 0 -74 -33.5t-28 -88.5v-228q0 -55 28 -88.5t74 -33.5h102z" />
    <glyph glyph-name="one" unicode="1" horiz-adv-x="385" 
d="M179 550l-161 -81v128l194 103h105v-700h-138v550z" />
    <glyph glyph-name="two" unicode="2" horiz-adv-x="583" 
d="M33 100q0 60 22 104t75 76l248 148q18 10 28.5 28t10.5 36v32q0 28 -20.5 45t-53.5 17h-92q-39 0 -61 -28.5t-22 -80.5h-138q0 109 58 170t161 61h94q63 0 111 -23t74.5 -65t26.5 -96v-32q0 -54 -22.5 -92.5t-70.5 -66.5l-241 -140q-24 -14 -36.5 -31t-12.5 -42h387v-120
h-526v100z" />
    <glyph glyph-name="three" unicode="3" horiz-adv-x="617" 
d="M562.5 302q22.5 -35 22.5 -73v-40q0 -58 -29 -103t-81.5 -69.5t-121.5 -24.5h-97q-107 0 -167.5 61t-60.5 170h136q0 -52 24 -80.5t68 -28.5h97q42 0 68 20.5t26 54.5v40q0 31 -27 50t-70 19h-128v120h128q38 0 61 18.5t23 48.5v40q0 28 -22 44.5t-57 16.5h-97
q-41 0 -63.5 -28.5t-22.5 -80.5h-139q0 109 59.5 170t165.5 61h97q64 0 113.5 -23t76.5 -64.5t27 -95.5v-40q0 -37 -19 -69t-54 -55q41 -24 63.5 -59z" />
    <glyph glyph-name="four" unicode="4" horiz-adv-x="621" 
d="M381 134h-285q-42 0 -65 18t-23 52v28l372 468h139v-444h88v-122h-88v-134h-138v134zM385 250v277h-1l-219 -277h220z" />
    <glyph glyph-name="five" unicode="5" horiz-adv-x="625" 
d="M96 51q-58 59 -58 164h136q0 -47 22 -74t62 -27h96q44 0 70.5 24t26.5 64v54q0 35 -27.5 57t-72.5 22h-289v365h501v-122h-363v-121h151q71 0 125 -25t83.5 -70.5t29.5 -105.5v-54q0 -62 -29.5 -110t-82.5 -74t-123 -26h-96q-104 0 -162 59z" />
    <glyph glyph-name="six" unicode="6" horiz-adv-x="634" 
d="M164.5 21.5q-55.5 29.5 -86 83.5t-30.5 124v246q0 69 30 122t85 82t127 29h86q63 0 111.5 -25.5t75.5 -72t27 -107.5h-136q0 37 -21.5 60t-56.5 23h-86q-47 0 -75.5 -30.5t-28.5 -80.5v-78q26 25 62.5 40t70.5 15h66q67 0 118 -25t79 -71t28 -106v-41q0 -65 -30.5 -114
t-86 -76t-127.5 -27h-73q-73 0 -128.5 29.5zM366 108q48 0 77 27.5t29 73.5v41q0 39 -24.5 62.5t-64.5 23.5h-66q-48 0 -83.5 -27.5t-45.5 -72.5v-34q0 -42 29.5 -68t77.5 -26h71z" />
    <glyph glyph-name="seven" unicode="7" horiz-adv-x="520" 
d="M139 48q0 47 11.5 97.5t32.5 92.5l174 340h-355v122h516v-79l-199 -405q-20 -41 -31 -86t-11 -82v-48h-138v48z" />
    <glyph glyph-name="eight" unicode="8" horiz-adv-x="648" 
d="M144 15.5q-55 23.5 -85.5 66t-30.5 97.5v47q0 38 29 75t76 59v1q-37 22 -59.5 56t-22.5 68v44q0 53 28.5 93.5t81 63t120.5 22.5h86q68 0 120.5 -22.5t81 -63t28.5 -93.5v-44q0 -33 -22.5 -67.5t-59.5 -56.5v-1q47 -22 76 -59t29 -75v-47q0 -55 -30.5 -97.5t-85.5 -66
t-127 -23.5h-106q-72 0 -127 23.5zM367 416q41 0 66.5 19t25.5 50v42q0 28 -25.5 45t-66.5 17h-86q-41 0 -66.5 -17t-25.5 -45v-42q0 -31 25.5 -50t66.5 -19h86zM377 111q47 0 76 20.5t29 54.5v37q0 35 -31.5 56t-83.5 21h-86q-52 0 -83.5 -21t-31.5 -56v-37q0 -34 29 -54.5
t76 -20.5h106z" />
    <glyph glyph-name="nine" unicode="9" horiz-adv-x="638" 
d="M155 17q-50 25 -77.5 70.5t-27.5 104.5h137q0 -35 23 -56.5t61 -21.5h86q43 0 69 26.5t26 70.5v81q-25 -22 -60 -36t-67 -14h-67q-68 0 -119.5 26.5t-80 74.5t-28.5 111v40q0 63 31 111.5t88 75.5t131 27h70q71 0 125.5 -27t84.5 -76t30 -113v-281q0 -65 -29 -114.5
t-82 -77t-122 -27.5h-86q-66 0 -116 25zM327 358q45 0 79.5 26t45.5 68v48q0 41 -28 66.5t-74 25.5h-70q-50 0 -81 -27t-31 -71v-40q0 -43 24.5 -69.5t64.5 -26.5h70z" />
    <glyph glyph-name="colon" unicode=":" horiz-adv-x="240" 
d="M60.5 357.5q-22.5 22.5 -22.5 59.5t22.5 59.5t59.5 22.5t59.5 -22.5t22.5 -59.5t-22.5 -59.5t-59.5 -22.5t-59.5 22.5zM60.5 30.5q-22.5 22.5 -22.5 59.5t22.5 59.5t59.5 22.5t59.5 -22.5t22.5 -59.5t-22.5 -59.5t-59.5 -22.5t-59.5 22.5z" />
    <glyph glyph-name="semicolon" unicode=";" horiz-adv-x="259" 
d="M79.5 357.5q-22.5 22.5 -22.5 59.5t22.5 59.5t59.5 22.5t59.5 -22.5t22.5 -59.5t-22.5 -59.5t-59.5 -22.5t-59.5 22.5zM-6 -88l30 27q52 47 52 114v66h136v-66q0 -67 -24.5 -121t-71.5 -91l-34 -27z" />
    <glyph glyph-name="less" unicode="&#x3c;" horiz-adv-x="568" 
d="M18 273v86l512 263v-134l-350 -172l350 -172v-134z" />
    <glyph glyph-name="equal" unicode="=" horiz-adv-x="533" 
d="M38 459h457v-116h-457v116zM38 275h457v-116h-457v116z" />
    <glyph glyph-name="greater" unicode="&#x3e;" horiz-adv-x="568" 
d="M38 144l350 172l-350 172v134l512 -263v-86l-512 -263v134z" />
    <glyph glyph-name="question" unicode="?" horiz-adv-x="591" 
d="M221 226q0 44 16.5 74.5t39.5 49.5t59 41q41 25 60 44.5t19 48.5v36q0 31 -22 49.5t-59 18.5h-86q-40 0 -64 -26.5t-24 -70.5h-138q0 64 28 113.5t79.5 76.5t118.5 27h86q65 0 114.5 -23.5t77 -66t27.5 -98.5v-36q0 -45 -15.5 -75t-37 -47t-57.5 -39q-42 -24 -63 -45.5
t-21 -59.5v-14h-138v22zM230.5 12.5q-22.5 22.5 -22.5 59.5t22.5 59.5t59.5 22.5t59.5 -22.5t22.5 -59.5t-22.5 -59.5t-59.5 -22.5t-59.5 22.5z" />
    <glyph glyph-name="at" unicode="@" horiz-adv-x="900" 
d="M116.5 31q-78.5 71 -78.5 197v200q0 140 87.5 219t243.5 79h198q139 0 217 -66t78 -184v-149q0 -85 -40.5 -132.5t-113.5 -47.5h-32q-30 0 -55.5 14t-40.5 38h-1q-21 -29 -52 -45.5t-65 -16.5h-52q-79 0 -123 44t-44 122v67q0 82 45 128t125 46h46q24 0 45 -9.5t35 -26.5
v30h110v-249q0 -18 8.5 -28.5t24.5 -10.5h20q17 0 26.5 16.5t9.5 46.5v163q0 66 -45.5 103t-125.5 37h-198q-96 0 -149.5 -49.5t-53.5 -138.5v-200q0 -74 45 -116t124 -42h176q54 0 100.5 11.5t75.5 32.5l59 -89q-35 -31 -98 -48t-140 -17h-173q-140 0 -218.5 71zM464 241
q27 0 44 20.5t21 57.5v63q-3 27 -18 42.5t-39 15.5h-47q-29 0 -45.5 -19.5t-16.5 -54.5v-59q0 -31 14.5 -48.5t39.5 -17.5h47z" />
    <glyph glyph-name="A" unicode="A" horiz-adv-x="681" 
d="M472 163h-262l-62 -163h-144l274 700h62q65 0 88 -60l249 -640h-144zM247 279h188l-93 252h-1z" />
    <glyph glyph-name="B" unicode="B" horiz-adv-x="690" 
d="M89 26q-27 26 -27 68v606h348q95 0 152.5 -45t57.5 -121v-50q0 -33 -16.5 -63t-46.5 -49v-1q48 -17 77.5 -55t29.5 -85v-52q0 -82 -59.5 -130.5t-160.5 -48.5h-285q-43 0 -70 26zM410 410q32 0 52 20.5t20 54.5v34q0 28 -21 44.5t-56 16.5h-205v-170h210zM434 120
q44 0 68 17.5t24 49.5v44q0 29 -21 47t-56 18h-249v-176h234z" />
    <glyph glyph-name="C" unicode="C" horiz-adv-x="688" 
d="M164.5 25q-58.5 33 -90.5 93.5t-32 139.5v184q0 79 32.5 139.5t92 93.5t137.5 33h106q75 0 132 -32t88.5 -89.5t31.5 -133.5h-136q0 60 -32 96.5t-84 36.5h-106q-56 0 -90 -41.5t-34 -108.5v-172q0 -67 33 -108.5t87 -41.5h108q53 0 86.5 41t33.5 108h136
q0 -81 -32 -142.5t-90 -95t-134 -33.5h-108q-77 0 -135.5 33z" />
    <glyph glyph-name="D" unicode="D" horiz-adv-x="702" 
d="M89 26q-27 26 -27 68v606h334q80 0 140.5 -30t94 -85t33.5 -127v-196q0 -129 -67 -195.5t-197 -66.5h-241q-43 0 -70 26zM396 122q64 0 97 37t33 109v184q0 57 -37 91.5t-97 34.5h-192v-456h196z" />
    <glyph glyph-name="E" unicode="E" horiz-adv-x="628" 
d="M89 26q-27 26 -27 68v606h534v-120h-396v-162h366v-120h-366v-178h396v-120h-437q-43 0 -70 26z" />
    <glyph glyph-name="F" unicode="F" horiz-adv-x="604" 
d="M62 700h524v-120h-386v-188h349v-120h-349v-272h-138v700z" />
    <glyph glyph-name="G" unicode="G" horiz-adv-x="712" 
d="M166 25q-59 33 -91.5 93.5t-32.5 139.5v184q0 79 32.5 139.5t92 93.5t137.5 33h112q75 0 132 -30t88.5 -85t31.5 -127h-136q0 54 -32 87t-84 33h-112q-56 0 -90 -41.5t-34 -108.5v-172q0 -67 33.5 -108.5t88.5 -41.5h118q51 0 84.5 37t33.5 92v22h-194v120h330v-142
q0 -73 -32 -130t-90 -89t-132 -32h-118q-77 0 -136 33z" />
    <glyph glyph-name="H" unicode="H" horiz-adv-x="726" 
d="M62 700h138v-289h326v289h138v-700h-138v291h-326v-291h-138v700z" />
    <glyph glyph-name="I" unicode="I" horiz-adv-x="282" 
d="M72 700h138v-700h-138v700z" />
    <glyph glyph-name="J" unicode="J" horiz-adv-x="605" 
d="M124.5 23.5q-51.5 31.5 -80 89t-28.5 132.5h136q0 -59 25.5 -95t66.5 -36h77q41 0 66.5 37.5t25.5 98.5v450h138v-456q0 -75 -28 -132t-79 -88.5t-117 -31.5h-83q-68 0 -119.5 31.5z" />
    <glyph glyph-name="K" unicode="K" horiz-adv-x="674" 
d="M498 0l-231 294l-67 -72v-222h-138v700h138v-302l278 302h170l-288 -307l306 -393h-168z" />
    <glyph glyph-name="L" unicode="L" horiz-adv-x="588" 
d="M88.5 25.5q-26.5 25.5 -26.5 67.5v607h138v-580h380v-120h-421q-44 0 -70.5 25.5z" />
    <glyph glyph-name="M" unicode="M" horiz-adv-x="823" 
d="M62 700h123l229 -416l224 416h123v-700h-135v443l-147 -266q-15 -27 -30.5 -38.5t-35.5 -11.5h-38l-178 316v-443h-135v700z" />
    <glyph glyph-name="N" unicode="N" horiz-adv-x="718" 
d="M62 700h123l336 -476v476h135v-700h-123l-336 476v-476h-135v700z" />
    <glyph glyph-name="O" unicode="O" horiz-adv-x="724" 
d="M169.5 25.5q-60.5 33.5 -94 94t-33.5 140.5v180q0 80 33.5 140.5t94 94t139.5 33.5h106q79 0 139.5 -33.5t94 -94t33.5 -140.5v-180q0 -80 -33.5 -140.5t-94 -94t-139.5 -33.5h-106q-79 0 -139.5 33.5zM415 114q58 0 93.5 42t35.5 110v168q0 68 -35.5 110t-93.5 42h-106
q-58 0 -93.5 -42t-35.5 -110v-168q0 -68 35.5 -110t93.5 -42h106z" />
    <glyph glyph-name="P" unicode="P" horiz-adv-x="652" 
d="M62 700h369q61 0 108 -23.5t73 -67t26 -99.5v-93q0 -58 -27 -102.5t-75.5 -69t-112.5 -24.5h-223v-221h-138v700zM421 341q35 0 57 22.5t22 59.5v81q0 35 -19.5 55.5t-51.5 20.5h-229v-239h221z" />
    <glyph glyph-name="Q" unicode="Q" horiz-adv-x="728" 
d="M627 -49l-81 80q-62 -39 -131 -39h-106q-79 0 -139.5 33.5t-94 94t-33.5 140.5v180q0 80 33.5 140.5t94 94t139.5 33.5h106q79 0 139.5 -33.5t94 -94t33.5 -140.5v-172q0 -78 -46 -148l78 -77zM453 122l-91 90l87 92l87 -86q8 26 8 50v166q0 68 -35.5 110t-93.5 42h-106
q-58 0 -93.5 -42t-35.5 -110v-168q0 -68 35.5 -110t93.5 -42h106q19 0 38 8z" />
    <glyph glyph-name="R" unicode="R" horiz-adv-x="678" 
d="M62 700h372q91 0 146.5 -49t55.5 -129v-70q0 -52 -29.5 -90.5t-85.5 -58.5v-2q32 -21 48.5 -48t32.5 -75l56 -178h-143l-53 166q-13 43 -36 64t-57 21h-169v-251h-138v700zM408 370q42 0 66 22.5t24 58.5v65q0 29 -18 46.5t-48 17.5h-232v-210h208z" />
    <glyph glyph-name="S" unicode="S" horiz-adv-x="656" 
d="M100 53.5q-62 61.5 -62 171.5h136q0 -52 26.5 -81.5t73.5 -29.5h111q44 0 71.5 18.5t27.5 49.5v34q0 49 -72 61l-184 31q-90 15 -136.5 57.5t-46.5 108.5v56q0 53 28.5 93.5t81 62.5t121.5 22h113q65 0 115 -27t77.5 -75.5t27.5 -112.5h-136q0 42 -23 67.5t-61 25.5h-113
q-42 0 -67.5 -18t-25.5 -48v-27q0 -50 69 -62l183 -32q91 -16 139 -56.5t48 -104.5v-66q0 -53 -29.5 -94t-82.5 -63.5t-123 -22.5h-115q-110 0 -172 61.5z" />
    <glyph glyph-name="T" unicode="T" horiz-adv-x="606" 
d="M234 580h-222v120h582v-120h-222v-580h-138v580z" />
    <glyph glyph-name="U" unicode="U" horiz-adv-x="720" 
d="M176 23.5q-56 31.5 -87 88.5t-31 132v456h138v-452q0 -60 30.5 -97t79.5 -37h106q50 0 81 37t31 97v452h138v-456q0 -75 -31 -132t-88 -88.5t-131 -31.5h-106q-74 0 -130 31.5z" />
    <glyph glyph-name="V" unicode="V" horiz-adv-x="666" 
d="M245 64l-241 636h144l184 -525h2l185 525h143l-269 -700h-65q-58 0 -83 64z" />
    <glyph glyph-name="W" unicode="W" horiz-adv-x="877" 
d="M172 17q-23 17 -32 61l-124 622h140l86 -497h2l145 460h50q25 0 43.5 -13t28.5 -47l122 -399h2l86 496h140l-125 -622q-8 -40 -29.5 -59t-58.5 -19h-58l-149 480h-2l-152 -480h-58q-34 0 -57 17z" />
    <glyph glyph-name="X" unicode="X" horiz-adv-x="641" 
d="M242 357l-234 343h157l156 -230l156 230h156l-234 -343l244 -357h-157l-165 244l-166 -244h-157z" />
    <glyph glyph-name="Y" unicode="Y" horiz-adv-x="652" 
d="M257 272l-259 428h150l178 -301l178 301h150l-259 -428v-272h-138v272z" />
    <glyph glyph-name="Z" unicode="Z" horiz-adv-x="606" 
d="M22 68l371 514h-353v118h544v-68l-373 -514h363v-118h-552v68z" />
    <glyph glyph-name="bracketleft" unicode="[" horiz-adv-x="347" 
d="M116 -156.5q-54 50.5 -54 140.5v560q0 90 54 140.5t151 50.5h56v-118h-56q-32 0 -50.5 -19t-18.5 -53v-562q0 -34 18.5 -52.5t50.5 -18.5h56v-119h-56q-97 0 -151 50.5z" />
    <glyph glyph-name="backslash" unicode="\" horiz-adv-x="550" 
d="M18 722h138l376 -747h-138z" />
    <glyph glyph-name="bracketright" unicode="]" horiz-adv-x="347" 
d="M24 -88h56q32 0 50.5 18.5t18.5 52.5v562q0 34 -18.5 53t-50.5 19h-56v118h56q97 0 151 -50.5t54 -140.5v-560q0 -90 -54 -140.5t-151 -50.5h-56v119z" />
    <glyph glyph-name="asciicircum" unicode="^" horiz-adv-x="609" 
d="M247 700h116l208 -363h-142l-124 223l-125 -223h-142z" />
    <glyph glyph-name="underscore" unicode="_" horiz-adv-x="594" 
d="M0 -10h594v-118h-594v118z" />
    <glyph glyph-name="grave" unicode="`" horiz-adv-x="312" 
d="M32 748h150l98 -180h-130z" />
    <glyph glyph-name="a" unicode="a" horiz-adv-x="584" 
d="M90 31q-48 39 -48 103v37q0 63 50 101.5t132 38.5h61q26 0 56 -7t55 -19v52q0 25 -16.5 40.5t-43.5 15.5h-86q-28 0 -45 -13t-17 -35h-132q0 73 53.5 117.5t140.5 44.5h86q88 0 142 -46.5t54 -123.5v-337h-126v60q-24 -31 -59 -49.5t-69 -18.5h-62q-78 0 -126 39zM288 96
q37 0 66 19t42 51v17q-16 12 -44.5 19t-60.5 7h-63q-24 0 -39 -12t-15 -32v-26q0 -19 16.5 -31t43.5 -12h54z" />
    <glyph glyph-name="b" unicode="b" horiz-adv-x="604" 
d="M236 12q-32 20 -52 52v-64h-126v700h136v-240q20 21 49.5 34t56.5 13h70q58 0 102.5 -24.5t69 -69.5t24.5 -104v-114q0 -60 -25 -106t-70 -71.5t-103 -25.5h-69q-31 0 -63 20zM352 111q35 0 56.5 26t21.5 68v94q0 40 -21 64.5t-55 24.5h-62q-40 0 -67 -28t-31 -74v-86
q7 -40 32.5 -64.5t60.5 -24.5h65z" />
    <glyph glyph-name="c" unicode="c" horiz-adv-x="560" 
d="M139.5 17q-48.5 25 -75 70t-26.5 104v117q0 59 26.5 104t74.5 70t111 25h79q60 0 106 -24t71 -67.5t25 -100.5h-135q0 34 -18.5 54.5t-48.5 20.5h-77q-35 0 -56.5 -25.5t-21.5 -66.5v-97q0 -41 22 -66.5t57 -25.5h77q32 0 51.5 23t19.5 61h135q0 -91 -56.5 -146
t-149.5 -55h-79q-63 0 -111.5 25z" />
    <glyph glyph-name="d" unicode="d" horiz-adv-x="604" 
d="M92.5 46q-54.5 54 -54.5 142v114q0 61 26 107.5t73 72t109 25.5h55q29 0 59 -12.5t50 -33.5v239h136v-700h-126v66q-20 -33 -54 -53.5t-71 -20.5h-59q-89 0 -143.5 54zM310 109q41 0 68.5 29.5t31.5 78.5v87q-7 39 -30.5 62.5t-55.5 23.5h-61q-40 0 -64.5 -27t-24.5 -71
v-94q0 -40 22 -64.5t57 -24.5h57z" />
    <glyph glyph-name="e" unicode="e" horiz-adv-x="578" 
d="M140.5 15.5q-48.5 23.5 -75.5 66t-27 97.5v129q0 59 27 104t75.5 70t111.5 25h80q96 0 154 -54t58 -144v-106h-370v-24q0 -33 21 -53t57 -20h78q35 0 56.5 15.5t21.5 40.5h134q0 -50 -27 -89t-75.5 -60t-111.5 -21h-76q-63 0 -111.5 23.5zM410 301v8q0 39 -21 62.5
t-56 23.5h-81q-36 0 -58 -25t-22 -66v-3h238z" />
    <glyph glyph-name="f" unicode="f" horiz-adv-x="379" 
d="M104 383h-86v116h86v33q0 81 51.5 126.5t143.5 45.5h72v-116h-70q-32 0 -46.5 -14t-14.5 -44v-31h120v-116h-120v-383h-136v383z" />
    <glyph glyph-name="g" unicode="g" horiz-adv-x="606" 
d="M119 -157.5q-53 45.5 -59 119.5h134q2 -22 18 -35.5t40 -13.5h90q31 0 50.5 25.5t19.5 66.5v47q-20 -22 -48.5 -35t-54.5 -13h-69q-91 0 -146.5 54t-55.5 142v102q0 61 26 107.5t73 72t108 25.5h58q34 0 66.5 -16t52.5 -42v50h126v-494q0 -62 -25.5 -109t-72.5 -73
t-108 -26h-90q-80 0 -133 45.5zM318 119q38 0 64 31.5t30 82.5v69q-4 40 -27 64t-58 24h-70q-37 0 -60 -27t-23 -71v-82q0 -41 21 -66t54 -25h69z" />
    <glyph glyph-name="h" unicode="h" horiz-adv-x="602" 
d="M58 700h136v-251q22 26 54.5 42t62.5 16h62q80 0 128.5 -50t48.5 -132v-325h-136v320q0 31 -16.5 50t-42.5 19h-62q-35 0 -62.5 -25.5t-36.5 -66.5v-297h-136v700z" />
    <glyph glyph-name="i" unicode="i" horiz-adv-x="288" 
d="M81.5 568.5q-23.5 22.5 -23.5 59.5t23.5 59.5t62.5 22.5t62.5 -22.5t23.5 -59.5t-23.5 -59.5t-62.5 -22.5t-62.5 22.5zM76 499h136v-499h-136v499z" />
    <glyph glyph-name="j" unicode="j" horiz-adv-x="300" 
d="M93.5 568.5q-23.5 22.5 -23.5 59.5t23.5 59.5t62.5 22.5t62.5 -22.5t23.5 -59.5t-23.5 -59.5t-62.5 -22.5t-62.5 22.5zM-44 -83h62q36 0 53 23.5t17 72.5v486h136v-481q0 -112 -50 -164.5t-156 -52.5h-62v116z" />
    <glyph glyph-name="k" unicode="k" horiz-adv-x="555" 
d="M403 0l-156 200l-53 -53v-147h-136v700h136v-400l197 199h158l-214 -212l222 -287h-154z" />
    <glyph glyph-name="l" unicode="l" horiz-adv-x="296" 
d="M99.5 37.5q-41.5 37.5 -41.5 116.5v546h136v-538q0 -24 11 -35t35 -11h54v-116h-64q-89 0 -130.5 37.5z" />
    <glyph glyph-name="m" unicode="m" horiz-adv-x="848" 
d="M750 457.5q46 -49.5 46 -129.5v-328h-136v328q0 28 -13 44.5t-34 16.5h-43q-28 0 -49 -20.5t-26 -54.5v-314h-136v327q0 28 -13 45t-34 17h-39q-29 0 -51 -26t-28 -68v-295h-136v499h126v-58q18 30 46.5 48t57.5 18h56q36 0 65.5 -19t46.5 -53q22 34 52.5 53t64.5 19h55
q76 0 122 -49.5z" />
    <glyph glyph-name="n" unicode="n" horiz-adv-x="600" 
d="M58 499h126v-60q22 31 57 49.5t70 18.5h60q80 0 128.5 -50t48.5 -132v-325h-136v320q0 31 -16.5 50t-42.5 19h-60q-35 0 -62.5 -25.5t-36.5 -66.5v-297h-136v499z" />
    <glyph glyph-name="o" unicode="o" horiz-adv-x="594" 
d="M139.5 16.5q-48.5 24.5 -75 69.5t-26.5 104v117q0 59 27 104.5t75.5 70.5t111.5 25h90q63 0 111.5 -25t75.5 -70.5t27 -104.5v-117q0 -59 -27 -104t-75.5 -69.5t-112.5 -24.5h-90q-63 0 -111.5 24.5zM339 109q37 0 59 25.5t22 66.5v97q0 41 -22 66.5t-58 25.5h-86
q-36 0 -58 -25.5t-22 -66.5v-97q0 -41 22 -66.5t57 -25.5h86z" />
    <glyph glyph-name="p" unicode="p" horiz-adv-x="604" 
d="M58 499h126v-54q21 28 53.5 45t63.5 17h63q60 0 106 -24.5t71 -68.5t25 -101v-112q0 -62 -25 -109.5t-70 -73.5t-104 -26h-65q-28 0 -57.5 13t-50.5 35v-240h-136v699zM349 109q37 0 59 28t22 74v92q0 39 -22.5 63t-59.5 24h-61q-29 0 -55 -23.5t-38 -60.5v-99
q5 -44 30.5 -71t62.5 -27h62z" />
    <glyph glyph-name="q" unicode="q" horiz-adv-x="604" 
d="M410 42q-19 -22 -46.5 -36t-53.5 -14h-71q-91 0 -146 54.5t-55 143.5v112q0 61 25.5 107.5t72.5 72t108 25.5h67q30 0 59.5 -16t49.5 -42v50h126v-699h-136v242zM316 109q38 0 64 31.5t30 82.5v79q-4 40 -27 64t-58 24h-69q-37 0 -59.5 -27t-22.5 -71v-92q0 -41 20.5 -66
t53.5 -25h68z" />
    <glyph glyph-name="r" unicode="r" horiz-adv-x="383" 
d="M58 499h126v-64q19 29 54.5 47.5t74.5 18.5h68v-118h-68q-53 0 -86 -32t-33 -82v-269h-136v499z" />
    <glyph glyph-name="s" unicode="s" horiz-adv-x="549" 
d="M89 40q-55 48 -55 126h134q0 -27 18.5 -43.5t48.5 -16.5h90q60 0 60 33v17q0 10 -10 18.5t-27 11.5l-173 30q-61 10 -96.5 43.5t-35.5 78.5v33q0 64 52.5 100t146.5 36h78q84 0 135.5 -44.5t51.5 -117.5h-134q0 22 -14.5 35t-38.5 13h-76q-65 0 -65 -30v-16
q0 -11 8.5 -18.5t24.5 -10.5l182 -33q57 -10 92 -42.5t35 -73.5v-36q0 -65 -53.5 -103t-142.5 -38h-90q-91 0 -146 48z" />
    <glyph glyph-name="t" unicode="t" horiz-adv-x="410" 
d="M147 40q-41 40 -41 124v219h-88v116h92v151h132v-151h130v-116h-130v-213q0 -28 10.5 -41t33.5 -13h86v-116h-96q-88 0 -129 40z" />
    <glyph glyph-name="u" unicode="u" horiz-adv-x="598" 
d="M100 45.5q-48 53.5 -48 140.5v313h136v-315q0 -33 16.5 -53.5t43.5 -20.5h58q33 0 60 27.5t38 72.5v289h136v-499h-126v64q-23 -32 -56.5 -52t-64.5 -20h-66q-79 0 -127 53.5z" />
    <glyph glyph-name="v" unicode="v" horiz-adv-x="521" 
d="M203.5 15.5q-19.5 15.5 -33.5 49.5l-172 434h143l118 -343h2l119 343h143l-201 -499h-70q-29 0 -48.5 15.5z" />
    <glyph glyph-name="w" unicode="w" horiz-adv-x="749" 
d="M115 78l-101 421h141l61 -317h2l109 305h53q23 0 37 -10t22 -31l93 -264h2l60 317h141l-99 -421q-18 -78 -86 -78h-62l-111 316l-115 -316h-61q-67 0 -86 78z" />
    <glyph glyph-name="x" unicode="x" horiz-adv-x="532" 
d="M187 253l-183 246h152l110 -148l110 148h152l-183 -246l189 -253h-152l-116 156l-116 -156h-152z" />
    <glyph glyph-name="y" unicode="y" horiz-adv-x="598" 
d="M118.5 -157.5q-52.5 45.5 -58.5 119.5h134q2 -22 18 -35.5t40 -13.5h82q31 0 50.5 25.5t19.5 66.5v65q-23 -31 -52.5 -48.5t-58.5 -17.5h-66q-79 0 -127 52.5t-48 139.5v303h136v-305q0 -33 16.5 -53.5t43.5 -20.5h58q33 0 60 27.5t38 72.5v279h136v-494
q0 -62 -25.5 -109t-72.5 -73t-108 -26h-82q-81 0 -133.5 45.5z" />
    <glyph glyph-name="z" unicode="z" horiz-adv-x="500" 
d="M18 68l270 316h-258v115h452v-68l-270 -316h265v-115h-459v68z" />
    <glyph glyph-name="braceleft" unicode="{" horiz-adv-x="398" 
d="M171.5 -181.5q-50.5 49.5 -50.5 137.5v165q0 37 -22 58t-61 21v104q39 0 61 21t22 58v165q0 88 50.5 137.5t140.5 49.5h68v-118h-61q-29 0 -45.5 -19.5t-16.5 -53.5v-161q0 -39 -17.5 -73t-50.5 -58q33 -24 50.5 -58t17.5 -73v-161q0 -34 16.5 -53.5t45.5 -19.5h61v-118
h-68q-90 0 -140.5 49.5z" />
    <glyph glyph-name="bar" unicode="|" horiz-adv-x="272" 
d="M68 847h136v-994h-136v994z" />
    <glyph glyph-name="braceright" unicode="}" horiz-adv-x="398" 
d="M18 -113h61q29 0 45.5 19.5t16.5 53.5v161q0 39 17.5 73t50.5 58q-33 24 -50.5 58t-17.5 73v161q0 34 -16.5 53.5t-45.5 19.5h-61v118h68q90 0 140.5 -49.5t50.5 -137.5v-165q0 -37 22 -58t61 -21v-104q-39 0 -61 -21t-22 -58v-165q0 -88 -50.5 -137.5t-140.5 -49.5h-68
v118z" />
    <glyph glyph-name="asciitilde" unicode="~" horiz-adv-x="627" 
d="M330 230q-31 19 -66 53q-18 17 -27 24t-18 7h-12q-21 0 -33 -23.5t-14 -65.5h-122q1 97 46 152t123 55h12q44 0 72 -17.5t57 -48.5q20 -20 31.5 -28.5t26.5 -8.5h12q22 0 34.5 24t14.5 67h122q-2 -98 -47 -153.5t-124 -55.5h-12q-45 0 -76 19z" />
    <glyph glyph-name="uni00A0" unicode="&#xa0;" horiz-adv-x="288" 
 />
    <glyph glyph-name="exclamdown" unicode="&#xa1;" horiz-adv-x="292" 
d="M205.5 484.5q22.5 -22.5 22.5 -59.5t-22.5 -59.5t-59.5 -22.5t-59.5 22.5t-22.5 59.5t22.5 59.5t59.5 22.5t59.5 -22.5zM215 292v-495h-138v495h138z" />
    <glyph glyph-name="cent" unicode="&#xa2;" horiz-adv-x="560" 
d="M487.5 55q-48.5 -54 -130.5 -62v-103h-136v104q-83 8 -133 61.5t-50 135.5v117q0 82 49.5 135.5t133.5 62.5v101h136v-101q79 -8 126.5 -60t47.5 -131h-135q0 34 -18.5 54.5t-48.5 20.5h-77q-35 0 -56.5 -25.5t-21.5 -66.5v-97q0 -41 22 -66.5t57 -25.5h77q32 0 51.5 23
t19.5 61h135q0 -84 -48.5 -138z" />
    <glyph glyph-name="sterling" unicode="&#xa3;" horiz-adv-x="679" 
d="M266 120h379v-120h-607v120h90v141h-90v118h90v115q0 63 27.5 111.5t77.5 75.5t115 27h86q64 0 112.5 -27t75.5 -75.5t27 -111.5h-136q0 42 -22 68t-57 26h-86q-37 0 -59.5 -26t-22.5 -68v-115h216v-118h-216v-141z" />
    <glyph glyph-name="currency" unicode="&#xa4;" horiz-adv-x="678" 
d="M38 122l65 64q-21 31 -32.5 71.5t-11.5 81.5q0 42 11.5 82.5t32.5 71.5l-64 64l79 83l70 -69q31 17 70 26.5t79 9.5t80 -9.5t72 -27.5l71 70l79 -84l-65 -64q20 -31 31 -71t11 -82q0 -40 -11 -80.5t-31 -71.5l66 -65l-81 -80l-69 67q-33 -17 -73 -27t-80 -10t-80 10
t-70 27l-68 -67zM442.5 231.5q37.5 38.5 37.5 107.5q0 70 -38 109t-105 39t-104.5 -39t-37.5 -109q0 -69 37.5 -107.5t104.5 -38.5q68 0 105.5 38.5z" />
    <glyph glyph-name="yen" unicode="&#xa5;" horiz-adv-x="652" 
d="M446 357h119v-106h-170v-54h170v-106h-170v-91h-138v91h-170v106h170v54h-170v106h119l-208 343h150l178 -301l178 301h150z" />
    <glyph glyph-name="brokenbar" unicode="&#xa6;" horiz-adv-x="272" 
d="M68 847h136v-412h-136v412zM68 265h136v-412h-136v412z" />
    <glyph glyph-name="section" unicode="&#xa7;" horiz-adv-x="586" 
d="M527 257.5q-21 -26.5 -55 -39.5q25 -10 40.5 -30.5t15.5 -45.5v-41q0 -64 -51.5 -99t-145.5 -35h-82q-84 0 -134.5 44.5t-50.5 117.5h134q0 -22 13.5 -35t37.5 -13h88q30 0 42.5 9t12.5 25v16q0 11 -8.5 19t-24.5 12l-194 51q-60 16 -93.5 46.5t-33.5 69.5v42
q0 35 21 59.5t55 36.5q-22 11 -36.5 32t-14.5 44v41q0 64 52 99t146 35h81q84 0 134.5 -44.5t50.5 -117.5h-134q0 22 -13.5 35t-37.5 13h-89q-30 0 -42 -8.5t-12 -24.5v-16q0 -11 8.5 -20t24.5 -13l189 -51q60 -16 93.5 -46.5t33.5 -69.5v-36q0 -35 -21 -61.5zM412 336
q0 10 -10 20.5t-27 15.5l-157 43q-21 -4 -32.5 -14.5t-11.5 -25.5v-27q0 -11 10 -21.5t27 -14.5l152 -40q24 2 36.5 12t12.5 25v27z" />
    <glyph glyph-name="dieresis" unicode="&#xa8;" horiz-adv-x="456" 
d="M52 589.5q-20 19.5 -20 51.5t20 51.5t52 19.5q31 0 51 -19.5t20 -51.5q0 -31 -20 -51t-51 -20q-32 0 -52 19.5zM301 590q-20 20 -20 51q0 32 20 51.5t51 19.5q32 0 52 -19.5t20 -51.5t-20 -51.5t-52 -19.5q-31 0 -51 20z" />
    <glyph glyph-name="copyright" unicode="&#xa9;" horiz-adv-x="720" 
d="M191 60q-73 41 -113 116t-40 173t40 173t113 116t169 41t169 -41t113 -116t40 -173t-40 -173t-113 -116t-169 -41t-169 41zM485 131q54 31 83.5 87.5t29.5 130.5t-29.5 130.5t-83.5 87.5t-125 31t-125 -31t-83.5 -87.5t-29.5 -130.5t29.5 -130.5t83.5 -87.5t125 -31
t125 31zM238.5 208q-36.5 37 -36.5 98v92q0 61 36.5 98t96.5 37h54q58 0 93 -36.5t35 -96.5h-100q0 21 -9.5 34t-24.5 13h-41q-17 0 -27.5 -14.5t-10.5 -37.5v-86q0 -23 10 -37.5t26 -14.5h42q16 0 26 15t10 39h100q0 -63 -35.5 -101.5t-94.5 -38.5h-54q-59 0 -95.5 37z" />
    <glyph glyph-name="ordfeminine" unicode="&#xaa;" horiz-adv-x="441" 
d="M81.5 370q-33.5 27 -33.5 71v28q0 44 35 71t93 27h42q37 0 63 -17v36q0 14 -10 22t-26 8h-42q-15 0 -24 -6.5t-9 -17.5h-112q0 51 37.5 82.5t98.5 31.5h61q62 0 100 -33t38 -87v-237h-104v36q-16 -19 -37 -30.5t-40 -11.5h-42q-55 0 -88.5 27zM221 425q20 0 36.5 11
t23.5 30v11q-9 5 -25 8.5t-33 3.5h-27q-16 0 -26 -6t-10 -17v-18q0 -10 10 -16.5t27 -6.5h24z" />
    <glyph glyph-name="guillemotleft" unicode="&#xab;" horiz-adv-x="680" 
d="M18 268l338 266v-142l-164 -124l164 -126v-140zM304 268l338 266v-142l-164 -124l164 -126v-140z" />
    <glyph glyph-name="logicalnot" unicode="&#xac;" horiz-adv-x="667" 
d="M493 335h-455v118h591v-322h-136v204z" />
    <glyph glyph-name="uni00AD" unicode="&#xad;" horiz-adv-x="405" 
d="M38 316h329v-118h-329v118z" />
    <glyph glyph-name="registered" unicode="&#xae;" horiz-adv-x="720" 
d="M191 60q-73 41 -113 116t-40 173t40 173t113 116t169 41t169 -41t113 -116t40 -173t-40 -173t-113 -116t-169 -41t-169 41zM485 131q54 31 83.5 87.5t29.5 130.5t-29.5 130.5t-83.5 87.5t-125 31t-125 -31t-83.5 -87.5t-29.5 -130.5t29.5 -130.5t83.5 -87.5t125 -31
t125 31zM219 527h188q46 0 74 -25t28 -65v-37q0 -55 -59 -74v-1q17 -11 26 -24.5t17 -37.5l28 -86h-103l-25 80q-6 20 -17 26t-30 6h-29v-112h-98v350zM373 369q38 0 38 31v18q0 27 -32 27h-62v-76h56z" />
    <glyph glyph-name="macron" unicode="&#xaf;" horiz-adv-x="384" 
d="M32 689h320v-106h-320v106z" />
    <glyph glyph-name="degree" unicode="&#xb0;" horiz-adv-x="372" 
d="M78.5 456q-40.5 40 -40.5 106t40.5 106t107.5 40t107.5 -40t40.5 -106t-40.5 -106t-107.5 -40t-107.5 40zM232 516.5q17 17.5 17 45.5q0 29 -17 46t-46 17q-28 0 -45.5 -17t-17.5 -46q0 -28 17.5 -45.5t45.5 -17.5q29 0 46 17.5z" />
    <glyph glyph-name="plusminus" unicode="&#xb1;" horiz-adv-x="576" 
d="M220 330h-182v118h182v168h136v-168h182v-118h-182v-162h-136v162zM38 118h500v-118h-500v118z" />
    <glyph glyph-name="uni00B2" unicode="&#xb2;" horiz-adv-x="369" 
d="M32 358q0 37 15 65t42 44l119 71q25 14 25 35v18q0 11 -8.5 17.5t-21.5 6.5h-29q-18 0 -28 -12t-10 -33h-106q0 61 35.5 98t93.5 37h55q56 0 90.5 -30t34.5 -79v-21q0 -62 -55 -94l-116 -67q-16 -9 -23 -18t-7 -20h199v-87h-305v69z" />
    <glyph glyph-name="uni00B3" unicode="&#xb3;" horiz-adv-x="388" 
d="M341.5 469.5q14.5 -19.5 14.5 -44.5v-16q0 -56 -37.5 -90.5t-98.5 -34.5h-58q-60 0 -97 36t-37 96h105q0 -21 11 -32.5t31 -11.5h34q19 0 30 10.5t11 27.5v14q0 15 -12 24.5t-33 9.5h-63v82h70q13 0 21.5 9.5t8.5 24.5v14q0 13 -9 21t-23 8h-38q-17 0 -26.5 -11.5
t-9.5 -32.5h-105q0 60 36.5 96t95.5 36h58q57 0 92 -31.5t35 -83.5v-16q0 -24 -12.5 -43.5t-37.5 -30.5q29 -11 43.5 -30.5z" />
    <glyph glyph-name="acute" unicode="&#xb4;" horiz-adv-x="312" 
d="M130 748h150l-118 -180h-130z" />
    <glyph glyph-name="paragraph" unicode="&#xb6;" horiz-adv-x="606" 
d="M538 700v-700h-124v289h-56v-289h-124v289h-1q-54 0 -96 22.5t-65.5 63t-23.5 92.5v55q0 52 23.5 92.5t65.5 63t96 22.5h305z" />
    <glyph glyph-name="periodcentered" unicode="&#xb7;" horiz-adv-x="240" 
d="M60.5 194.5q-22.5 22.5 -22.5 59.5t22.5 59.5t59.5 22.5t59.5 -22.5t22.5 -59.5t-22.5 -59.5t-59.5 -22.5t-59.5 22.5z" />
    <glyph glyph-name="cedilla" unicode="&#xb8;" horiz-adv-x="292" 
d="M32 -168h86q18 0 29 6.5t11 16.5v15q0 9 -9 14.5t-24 5.5h-66v52l38 90h100l-35 -78h10q40 0 64 -23t24 -60v-20q0 -46 -36 -73.5t-95 -27.5h-97v82z" />
    <glyph glyph-name="uni00B9" unicode="&#xb9;" horiz-adv-x="259" 
d="M107 590l-95 -48v97l114 61h89v-411h-108v301z" />
    <glyph glyph-name="ordmasculine" unicode="&#xba;" horiz-adv-x="453" 
d="M85.5 381.5q-41.5 38.5 -41.5 101.5v82q0 64 41.5 102.5t109.5 38.5h63q68 0 109.5 -38.5t41.5 -102.5v-82q0 -63 -42 -101.5t-110 -38.5h-63q-67 0 -108.5 38.5zM251 437q20 0 32 14t12 37v72q0 23 -12 37.5t-31 14.5h-51q-19 0 -31 -14.5t-12 -37.5v-72q0 -23 11.5 -37
t30.5 -14h51z" />
    <glyph glyph-name="guillemotright" unicode="&#xbb;" horiz-adv-x="680" 
d="M38 142l164 126l-164 124v142l338 -266l-338 -266v140zM324 142l164 126l-164 124v142l338 -266l-338 -266v140z" />
    <glyph glyph-name="onequarter" unicode="&#xbc;" horiz-adv-x="821" 
d="M133 590l-95 -48v97l114 61h89v-411h-108v301zM522 722h132l-382 -747h-132zM628 78h-145q-25 0 -38.5 10.5t-13.5 30.5v46l193 246h110v-241h49v-92h-47v-78h-108v78zM634 162v139h-1l-109 -139h110z" />
    <glyph glyph-name="onehalf" unicode="&#xbd;" horiz-adv-x="848" 
d="M133 590l-95 -48v97l114 61h89v-411h-108v301zM503 69q0 37 15 65t42 44l119 71q25 14 25 35v18q0 11 -8.5 17.5t-21.5 6.5h-29q-18 0 -28 -12t-10 -33h-106q0 61 35.5 98t93.5 37h55q56 0 90.5 -30t34.5 -79v-21q0 -62 -55 -94l-116 -67q-16 -9 -23 -18t-7 -20h199v-87
h-305v69zM518 722h132l-382 -747h-132z" />
    <glyph glyph-name="threequarters" unicode="&#xbe;" horiz-adv-x="909" 
d="M351.5 469.5q14.5 -19.5 14.5 -44.5v-16q0 -56 -37.5 -90.5t-98.5 -34.5h-58q-60 0 -97 36t-37 96h105q0 -21 11 -32.5t31 -11.5h34q19 0 30 10.5t11 27.5v14q0 15 -12 24.5t-33 9.5h-63v82h70q13 0 21.5 9.5t8.5 24.5v14q0 13 -9 21t-23 8h-38q-17 0 -26.5 -11.5
t-9.5 -32.5h-105q0 60 36.5 96t95.5 36h58q57 0 92 -31.5t35 -83.5v-16q0 -24 -12.5 -43.5t-37.5 -30.5q29 -11 43.5 -30.5zM716 78h-145q-25 0 -38.5 10.5t-13.5 30.5v46l193 246h110v-241h49v-92h-47v-78h-108v78zM722 162v139h-1l-109 -139h110zM605 722h132l-382 -747
h-132z" />
    <glyph glyph-name="questiondown" unicode="&#xbf;" horiz-adv-x="591" 
d="M360.5 484.5q22.5 -22.5 22.5 -59.5t-22.5 -59.5t-59.5 -22.5t-59.5 22.5t-22.5 59.5t22.5 59.5t59.5 22.5t59.5 -22.5zM370 271q0 -44 -16.5 -74.5t-39.5 -49.5t-59 -41q-41 -25 -60 -44t-19 -49v-36q0 -31 22 -49.5t59 -18.5h86q40 0 64 26.5t24 70.5h138
q0 -64 -28 -113.5t-79.5 -76.5t-118.5 -27h-86q-65 0 -114.5 23.5t-77 66t-27.5 98.5v36q0 45 15.5 75t37 47t57.5 39q42 24 63 45.5t21 59.5v14h138v-22z" />
    <glyph glyph-name="Agrave" unicode="&#xc0;" horiz-adv-x="681" 
d="M472 163h-262l-62 -163h-144l274 700h62q65 0 88 -60l249 -640h-144zM247 279h188l-93 252h-1zM157 949h150l98 -180h-130z" />
    <glyph glyph-name="Aacute" unicode="&#xc1;" horiz-adv-x="681" 
d="M472 163h-262l-62 -163h-144l274 700h62q65 0 88 -60l249 -640h-144zM247 279h188l-93 252h-1zM372 949h150l-118 -180h-130z" />
    <glyph glyph-name="Acircumflex" unicode="&#xc2;" horiz-adv-x="681" 
d="M472 163h-262l-62 -163h-144l274 700h62q65 0 88 -60l249 -640h-144zM247 279h188l-93 252h-1zM296 955h89l151 -186h-121l-74 97l-75 -97h-120z" />
    <glyph glyph-name="Atilde" unicode="&#xc3;" horiz-adv-x="681" 
d="M472 163h-262l-62 -163h-144l274 700h62q65 0 88 -60l249 -640h-144zM247 279h188l-93 252h-1zM364 771q-18 10 -39 28q-25 23 -39 23h-6q-13 0 -21 -14.5t-8 -38.5h-99q-1 67 32 108t89 41h6q24 0 42 -10.5t42 -29.5q23 -21 34 -21h6q12 0 19.5 14.5t7.5 38.5h99
q0 -67 -32 -108t-86 -41h-6q-23 0 -41 10z" />
    <glyph glyph-name="Adieresis" unicode="&#xc4;" horiz-adv-x="681" 
d="M472 163h-262l-62 -163h-144l274 700h62q65 0 88 -60l249 -640h-144zM247 279h188l-93 252h-1zM165 790.5q-20 19.5 -20 51.5t20 51.5t52 19.5q31 0 51 -19.5t20 -51.5q0 -31 -20 -51t-51 -20q-32 0 -52 19.5zM414 791q-20 20 -20 51q0 32 20 51.5t51 19.5q32 0 52 -19.5
t20 -51.5t-20 -51.5t-52 -19.5q-31 0 -51 20z" />
    <glyph glyph-name="Aring" unicode="&#xc5;" horiz-adv-x="681" 
d="M472 163h-262l-62 -163h-144l274 700h62q65 0 88 -60l249 -640h-144zM247 279h188l-93 252h-1zM252 781q-34 33 -34 87t34 87t89 33t89 -33t34 -87t-34 -87t-89 -33t-89 33zM373 836.5q12 12.5 12 31.5q0 20 -12 32t-32 12t-32 -12t-12 -32q0 -19 12 -31.5t32 -12.5
t32 12.5z" />
    <glyph glyph-name="AE" unicode="&#xc6;" horiz-adv-x="961" 
d="M543 580v-162h346v-120h-346v-178h386v-120h-421q-44 0 -70.5 25.5t-26.5 68.5v72h-189l-91 -166h-141l386 700h553v-120h-386zM423 284v270l-143 -270h143z" />
    <glyph glyph-name="Ccedilla" unicode="&#xc7;" horiz-adv-x="688" 
d="M401 -8l-17 -38h10q40 0 64 -23t24 -60v-20q0 -46 -36 -73.5t-95 -27.5h-97v82h86q18 0 29 6.5t11 16.5v15q0 9 -9 14.5t-24 5.5h-66v52l21 50h-2q-77 0 -135.5 33t-90.5 93.5t-32 139.5v184q0 79 32.5 139.5t92 93.5t137.5 33h106q75 0 132 -32t88.5 -89.5t31.5 -133.5
h-136q0 60 -32 96.5t-84 36.5h-106q-56 0 -90 -41.5t-34 -108.5v-172q0 -67 33 -108.5t87 -41.5h108q53 0 86.5 41t33.5 108h136q0 -81 -32 -142.5t-90 -95t-134 -33.5h-7z" />
    <glyph glyph-name="Egrave" unicode="&#xc8;" horiz-adv-x="628" 
d="M89 26q-27 26 -27 68v606h534v-120h-396v-162h366v-120h-366v-178h396v-120h-437q-43 0 -70 26zM149 949h150l98 -180h-130z" />
    <glyph glyph-name="Eacute" unicode="&#xc9;" horiz-adv-x="628" 
d="M89 26q-27 26 -27 68v606h534v-120h-396v-162h366v-120h-366v-178h396v-120h-437q-43 0 -70 26zM364 949h150l-118 -180h-130z" />
    <glyph glyph-name="Ecircumflex" unicode="&#xca;" horiz-adv-x="628" 
d="M89 26q-27 26 -27 68v606h534v-120h-396v-162h366v-120h-366v-178h396v-120h-437q-43 0 -70 26zM288 955h89l151 -186h-121l-74 97l-75 -97h-120z" />
    <glyph glyph-name="Edieresis" unicode="&#xcb;" horiz-adv-x="628" 
d="M89 26q-27 26 -27 68v606h534v-120h-396v-162h366v-120h-366v-178h396v-120h-437q-43 0 -70 26zM157 790.5q-20 19.5 -20 51.5t20 51.5t52 19.5q31 0 51 -19.5t20 -51.5q0 -31 -20 -51t-51 -20q-32 0 -52 19.5zM406 791q-20 20 -20 51q0 32 20 51.5t51 19.5
q32 0 52 -19.5t20 -51.5t-20 -51.5t-52 -19.5q-31 0 -51 20z" />
    <glyph glyph-name="Igrave" unicode="&#xcc;" horiz-adv-x="282" 
d="M72 700h138v-700h-138v700zM-43 949h150l98 -180h-130z" />
    <glyph glyph-name="Iacute" unicode="&#xcd;" horiz-adv-x="282" 
d="M72 700h138v-700h-138v700zM172 949h150l-118 -180h-130z" />
    <glyph glyph-name="Icircumflex" unicode="&#xce;" horiz-adv-x="282" 
d="M72 700h138v-700h-138v700zM96 955h89l151 -186h-121l-74 97l-75 -97h-120z" />
    <glyph glyph-name="Idieresis" unicode="&#xcf;" horiz-adv-x="282" 
d="M72 700h138v-700h-138v700zM-35 790.5q-20 19.5 -20 51.5t20 51.5t52 19.5q31 0 51 -19.5t20 -51.5q0 -31 -20 -51t-51 -20q-32 0 -52 19.5zM214 791q-20 20 -20 51q0 32 20 51.5t51 19.5q32 0 52 -19.5t20 -51.5t-20 -51.5t-52 -19.5q-31 0 -51 20z" />
    <glyph glyph-name="Eth" unicode="&#xd0;" horiz-adv-x="753" 
d="M587.5 670q60.5 -30 94 -85t33.5 -127v-196q0 -129 -67 -195.5t-197 -66.5h-241q-43 0 -70 26t-27 68v198h-91v120h91v288h334q80 0 140.5 -30zM577 452q0 57 -37 91.5t-97 34.5h-192v-166h216v-120h-216v-170h196q64 0 97 37t33 109v184z" />
    <glyph glyph-name="Ntilde" unicode="&#xd1;" horiz-adv-x="718" 
d="M62 700h123l336 -476v476h135v-700h-123l-336 476v-476h-135v700zM382 771q-18 10 -39 28q-25 23 -39 23h-6q-13 0 -21 -14.5t-8 -38.5h-99q-1 67 32 108t89 41h6q24 0 42 -10.5t42 -29.5q23 -21 34 -21h6q12 0 19.5 14.5t7.5 38.5h99q0 -67 -32 -108t-86 -41h-6
q-23 0 -41 10z" />
    <glyph glyph-name="Ograve" unicode="&#xd2;" horiz-adv-x="724" 
d="M169.5 25.5q-60.5 33.5 -94 94t-33.5 140.5v180q0 80 33.5 140.5t94 94t139.5 33.5h106q79 0 139.5 -33.5t94 -94t33.5 -140.5v-180q0 -80 -33.5 -140.5t-94 -94t-139.5 -33.5h-106q-79 0 -139.5 33.5zM415 114q58 0 93.5 42t35.5 110v168q0 68 -35.5 110t-93.5 42h-106
q-58 0 -93.5 -42t-35.5 -110v-168q0 -68 35.5 -110t93.5 -42h106zM178 949h150l98 -180h-130z" />
    <glyph glyph-name="Oacute" unicode="&#xd3;" horiz-adv-x="724" 
d="M169.5 25.5q-60.5 33.5 -94 94t-33.5 140.5v180q0 80 33.5 140.5t94 94t139.5 33.5h106q79 0 139.5 -33.5t94 -94t33.5 -140.5v-180q0 -80 -33.5 -140.5t-94 -94t-139.5 -33.5h-106q-79 0 -139.5 33.5zM415 114q58 0 93.5 42t35.5 110v168q0 68 -35.5 110t-93.5 42h-106
q-58 0 -93.5 -42t-35.5 -110v-168q0 -68 35.5 -110t93.5 -42h106zM393 949h150l-118 -180h-130z" />
    <glyph glyph-name="Ocircumflex" unicode="&#xd4;" horiz-adv-x="724" 
d="M169.5 25.5q-60.5 33.5 -94 94t-33.5 140.5v180q0 80 33.5 140.5t94 94t139.5 33.5h106q79 0 139.5 -33.5t94 -94t33.5 -140.5v-180q0 -80 -33.5 -140.5t-94 -94t-139.5 -33.5h-106q-79 0 -139.5 33.5zM415 114q58 0 93.5 42t35.5 110v168q0 68 -35.5 110t-93.5 42h-106
q-58 0 -93.5 -42t-35.5 -110v-168q0 -68 35.5 -110t93.5 -42h106zM317 955h89l151 -186h-121l-74 97l-75 -97h-120z" />
    <glyph glyph-name="Otilde" unicode="&#xd5;" horiz-adv-x="724" 
d="M169.5 25.5q-60.5 33.5 -94 94t-33.5 140.5v180q0 80 33.5 140.5t94 94t139.5 33.5h106q79 0 139.5 -33.5t94 -94t33.5 -140.5v-180q0 -80 -33.5 -140.5t-94 -94t-139.5 -33.5h-106q-79 0 -139.5 33.5zM415 114q58 0 93.5 42t35.5 110v168q0 68 -35.5 110t-93.5 42h-106
q-58 0 -93.5 -42t-35.5 -110v-168q0 -68 35.5 -110t93.5 -42h106zM385 771q-18 10 -39 28q-25 23 -39 23h-6q-13 0 -21 -14.5t-8 -38.5h-99q-1 67 32 108t89 41h6q24 0 42 -10.5t42 -29.5q23 -21 34 -21h6q12 0 19.5 14.5t7.5 38.5h99q0 -67 -32 -108t-86 -41h-6
q-23 0 -41 10z" />
    <glyph glyph-name="Odieresis" unicode="&#xd6;" horiz-adv-x="724" 
d="M169.5 25.5q-60.5 33.5 -94 94t-33.5 140.5v180q0 80 33.5 140.5t94 94t139.5 33.5h106q79 0 139.5 -33.5t94 -94t33.5 -140.5v-180q0 -80 -33.5 -140.5t-94 -94t-139.5 -33.5h-106q-79 0 -139.5 33.5zM415 114q58 0 93.5 42t35.5 110v168q0 68 -35.5 110t-93.5 42h-106
q-58 0 -93.5 -42t-35.5 -110v-168q0 -68 35.5 -110t93.5 -42h106zM186 790.5q-20 19.5 -20 51.5t20 51.5t52 19.5q31 0 51 -19.5t20 -51.5q0 -31 -20 -51t-51 -20q-32 0 -52 19.5zM435 791q-20 20 -20 51q0 32 20 51.5t51 19.5q32 0 52 -19.5t20 -51.5t-20 -51.5t-52 -19.5
q-31 0 -51 20z" />
    <glyph glyph-name="multiply" unicode="&#xd7;" horiz-adv-x="528" 
d="M39 173l141 141l-142 145l84 84l143 -145l142 145l83 -85l-142 -145l142 -140l-83 -85l-142 143l-143 -143z" />
    <glyph glyph-name="Oslash" unicode="&#xd8;" horiz-adv-x="724" 
d="M609 633q35 -35 54 -84t19 -109v-180q0 -80 -33.5 -140.5t-94 -94t-139.5 -33.5h-106q-63 0 -114 21l-47 -71h-111l81 121q-37 36 -56.5 86t-19.5 111v180q0 80 33.5 140.5t94 94t139.5 33.5h106q64 0 118 -23l44 66h111zM198 183l263 395q-22 8 -46 8h-106
q-58 0 -93.5 -42t-35.5 -110v-168q0 -48 18 -83zM528 512l-261 -391q18 -7 42 -7h106q58 0 93.5 42t35.5 110v168q0 46 -16 78z" />
    <glyph glyph-name="Ugrave" unicode="&#xd9;" horiz-adv-x="720" 
d="M176 23.5q-56 31.5 -87 88.5t-31 132v456h138v-452q0 -60 30.5 -97t79.5 -37h106q50 0 81 37t31 97v452h138v-456q0 -75 -31 -132t-88 -88.5t-131 -31.5h-106q-74 0 -130 31.5zM176 949h150l98 -180h-130z" />
    <glyph glyph-name="Uacute" unicode="&#xda;" horiz-adv-x="720" 
d="M176 23.5q-56 31.5 -87 88.5t-31 132v456h138v-452q0 -60 30.5 -97t79.5 -37h106q50 0 81 37t31 97v452h138v-456q0 -75 -31 -132t-88 -88.5t-131 -31.5h-106q-74 0 -130 31.5zM391 949h150l-118 -180h-130z" />
    <glyph glyph-name="Ucircumflex" unicode="&#xdb;" horiz-adv-x="720" 
d="M176 23.5q-56 31.5 -87 88.5t-31 132v456h138v-452q0 -60 30.5 -97t79.5 -37h106q50 0 81 37t31 97v452h138v-456q0 -75 -31 -132t-88 -88.5t-131 -31.5h-106q-74 0 -130 31.5zM315 955h89l151 -186h-121l-74 97l-75 -97h-120z" />
    <glyph glyph-name="Udieresis" unicode="&#xdc;" horiz-adv-x="720" 
d="M176 23.5q-56 31.5 -87 88.5t-31 132v456h138v-452q0 -60 30.5 -97t79.5 -37h106q50 0 81 37t31 97v452h138v-456q0 -75 -31 -132t-88 -88.5t-131 -31.5h-106q-74 0 -130 31.5zM184 790.5q-20 19.5 -20 51.5t20 51.5t52 19.5q31 0 51 -19.5t20 -51.5q0 -31 -20 -51
t-51 -20q-32 0 -52 19.5zM433 791q-20 20 -20 51q0 32 20 51.5t51 19.5q32 0 52 -19.5t20 -51.5t-20 -51.5t-52 -19.5q-31 0 -51 20z" />
    <glyph glyph-name="Yacute" unicode="&#xdd;" horiz-adv-x="652" 
d="M257 272l-259 428h150l178 -301l178 301h150l-259 -428v-272h-138v272zM357 949h150l-118 -180h-130z" />
    <glyph glyph-name="Thorn" unicode="&#xde;" horiz-adv-x="666" 
d="M539 568.5q47 -23.5 73 -67t26 -99.5v-93q0 -58 -27 -102.5t-75.5 -69t-112.5 -24.5h-223v-113h-138v700h138v-108h231q61 0 108 -23.5zM500 396q0 35 -19.5 55.5t-51.5 20.5h-229v-239h221q35 0 57 22.5t22 59.5v81z" />
    <glyph glyph-name="germandbls" unicode="&#xdf;" horiz-adv-x="707" 
d="M323.5 36.5q-48.5 44.5 -48.5 125.5h124q0 -27 15.5 -40.5t41.5 -13.5h45q24 0 39 13.5t15 34.5v19q0 25 -19 42.5t-59 41.5q-47 29 -71 52.5t-24 60.5v21q0 40 30.5 69.5t83.5 40.5q0 38 -24.5 61.5t-65.5 23.5h-73q-50 0 -80.5 -29t-30.5 -77v-482h-136v356h-86v116h86
v10q0 66 31 116.5t87 78t129 27.5h73q66 0 117 -25t79 -71t28 -107v-78h-28q-44 0 -65 -8.5t-21 -26.5v-12q0 -10 12 -19.5t39 -25.5q36 -21 60.5 -40t43 -48t18.5 -68v-19q0 -76 -50 -120t-138 -44h-45q-84 0 -132.5 44.5z" />
    <glyph glyph-name="agrave" unicode="&#xe0;" horiz-adv-x="584" 
d="M90 31q-48 39 -48 103v37q0 63 50 101.5t132 38.5h61q26 0 56 -7t55 -19v52q0 25 -16.5 40.5t-43.5 15.5h-86q-28 0 -45 -13t-17 -35h-132q0 73 53.5 117.5t140.5 44.5h86q88 0 142 -46.5t54 -123.5v-337h-126v60q-24 -31 -59 -49.5t-69 -18.5h-62q-78 0 -126 39zM288 96
q37 0 66 19t42 51v17q-16 12 -44.5 19t-60.5 7h-63q-24 0 -39 -12t-15 -32v-26q0 -19 16.5 -31t43.5 -12h54zM114 748h150l98 -180h-130z" />
    <glyph glyph-name="aacute" unicode="&#xe1;" horiz-adv-x="584" 
d="M90 31q-48 39 -48 103v37q0 63 50 101.5t132 38.5h61q26 0 56 -7t55 -19v52q0 25 -16.5 40.5t-43.5 15.5h-86q-28 0 -45 -13t-17 -35h-132q0 73 53.5 117.5t140.5 44.5h86q88 0 142 -46.5t54 -123.5v-337h-126v60q-24 -31 -59 -49.5t-69 -18.5h-62q-78 0 -126 39zM288 96
q37 0 66 19t42 51v17q-16 12 -44.5 19t-60.5 7h-63q-24 0 -39 -12t-15 -32v-26q0 -19 16.5 -31t43.5 -12h54zM329 748h150l-118 -180h-130z" />
    <glyph glyph-name="acircumflex" unicode="&#xe2;" horiz-adv-x="584" 
d="M90 31q-48 39 -48 103v37q0 63 50 101.5t132 38.5h61q26 0 56 -7t55 -19v52q0 25 -16.5 40.5t-43.5 15.5h-86q-28 0 -45 -13t-17 -35h-132q0 73 53.5 117.5t140.5 44.5h86q88 0 142 -46.5t54 -123.5v-337h-126v60q-24 -31 -59 -49.5t-69 -18.5h-62q-78 0 -126 39zM288 96
q37 0 66 19t42 51v17q-16 12 -44.5 19t-60.5 7h-63q-24 0 -39 -12t-15 -32v-26q0 -19 16.5 -31t43.5 -12h54zM253 754h89l151 -186h-121l-74 97l-75 -97h-120z" />
    <glyph glyph-name="atilde" unicode="&#xe3;" horiz-adv-x="584" 
d="M90 31q-48 39 -48 103v37q0 63 50 101.5t132 38.5h61q26 0 56 -7t55 -19v52q0 25 -16.5 40.5t-43.5 15.5h-86q-28 0 -45 -13t-17 -35h-132q0 73 53.5 117.5t140.5 44.5h86q88 0 142 -46.5t54 -123.5v-337h-126v60q-24 -31 -59 -49.5t-69 -18.5h-62q-78 0 -126 39zM288 96
q37 0 66 19t42 51v17q-16 12 -44.5 19t-60.5 7h-63q-24 0 -39 -12t-15 -32v-26q0 -19 16.5 -31t43.5 -12h54zM321 570q-18 10 -39 28q-25 23 -39 23h-6q-13 0 -21 -14.5t-8 -38.5h-99q-1 67 32 108t89 41h6q24 0 42 -10.5t42 -29.5q23 -21 34 -21h6q12 0 19.5 14.5t7.5 38.5
h99q0 -67 -32 -108t-86 -41h-6q-23 0 -41 10z" />
    <glyph glyph-name="adieresis" unicode="&#xe4;" horiz-adv-x="584" 
d="M90 31q-48 39 -48 103v37q0 63 50 101.5t132 38.5h61q26 0 56 -7t55 -19v52q0 25 -16.5 40.5t-43.5 15.5h-86q-28 0 -45 -13t-17 -35h-132q0 73 53.5 117.5t140.5 44.5h86q88 0 142 -46.5t54 -123.5v-337h-126v60q-24 -31 -59 -49.5t-69 -18.5h-62q-78 0 -126 39zM288 96
q37 0 66 19t42 51v17q-16 12 -44.5 19t-60.5 7h-63q-24 0 -39 -12t-15 -32v-26q0 -19 16.5 -31t43.5 -12h54zM122 589.5q-20 19.5 -20 51.5t20 51.5t52 19.5q31 0 51 -19.5t20 -51.5q0 -31 -20 -51t-51 -20q-32 0 -52 19.5zM371 590q-20 20 -20 51q0 32 20 51.5t51 19.5
q32 0 52 -19.5t20 -51.5t-20 -51.5t-52 -19.5q-31 0 -51 20z" />
    <glyph glyph-name="aring" unicode="&#xe5;" horiz-adv-x="584" 
d="M90 31q-48 39 -48 103v37q0 63 50 101.5t132 38.5h61q26 0 56 -7t55 -19v52q0 25 -16.5 40.5t-43.5 15.5h-86q-28 0 -45 -13t-17 -35h-132q0 73 53.5 117.5t140.5 44.5h86q88 0 142 -46.5t54 -123.5v-337h-126v60q-24 -31 -59 -49.5t-69 -18.5h-62q-78 0 -126 39zM288 96
q37 0 66 19t42 51v17q-16 12 -44.5 19t-60.5 7h-63q-24 0 -39 -12t-15 -32v-26q0 -19 16.5 -31t43.5 -12h54zM209 580q-34 33 -34 87t34 87t89 33t89 -33t34 -87t-34 -87t-89 -33t-89 33zM330 635.5q12 12.5 12 31.5q0 20 -12 32t-32 12t-32 -12t-12 -32q0 -19 12 -31.5
t32 -12.5t32 12.5z" />
    <glyph glyph-name="ae" unicode="&#xe6;" horiz-adv-x="930" 
d="M91.5 31q-49.5 39 -49.5 102v38q0 63 50 101.5t132 38.5h61q25 0 55.5 -7t55.5 -19v52q0 25 -16.5 40.5t-43.5 15.5h-86q-28 0 -45 -13t-17 -35h-132q0 73 53.5 117.5t140.5 44.5h86q40 0 76.5 -15t57.5 -41h1q21 26 59.5 41t80.5 15h72q63 0 111.5 -25t75 -71t26.5 -106
v-102h-364v-14q0 -38 22 -60.5t59 -22.5h68q35 0 57 15.5t22 40.5h134q0 -50 -27 -89t-75.5 -60t-112.5 -21h-66q-47 0 -88.5 19.5t-63.5 50.5h-1q-26 -32 -67 -51t-81 -19h-92q-79 0 -128.5 39zM761 301v6q0 39 -21.5 62.5t-56.5 23.5h-72q-35 0 -57 -25t-22 -65v-2h229z
M288 96q37 0 66 19t42 51v17q-16 12 -44.5 19t-60.5 7h-61q-26 0 -41 -11.5t-15 -32.5v-26q0 -19 16.5 -31t43.5 -12h54z" />
    <glyph glyph-name="ccedilla" unicode="&#xe7;" horiz-adv-x="560" 
d="M480.5 48q-55.5 -55 -147.5 -56l-17 -38h10q40 0 64 -23t24 -60v-20q0 -46 -36 -73.5t-95 -27.5h-97v82h86q18 0 29 6.5t11 16.5v15q0 9 -9 14.5t-24 5.5h-66v52l21 50q-89 5 -142.5 59.5t-53.5 139.5v117q0 59 26.5 104t74.5 70t111 25h79q60 0 106 -24t71 -67.5
t25 -100.5h-135q0 34 -18.5 54.5t-48.5 20.5h-77q-35 0 -56.5 -25.5t-21.5 -66.5v-97q0 -41 22 -66.5t57 -25.5h77q32 0 51.5 23t19.5 61h135q0 -90 -55.5 -145z" />
    <glyph glyph-name="egrave" unicode="&#xe8;" horiz-adv-x="578" 
d="M140.5 15.5q-48.5 23.5 -75.5 66t-27 97.5v129q0 59 27 104t75.5 70t111.5 25h80q96 0 154 -54t58 -144v-106h-370v-24q0 -33 21 -53t57 -20h78q35 0 56.5 15.5t21.5 40.5h134q0 -50 -27 -89t-75.5 -60t-111.5 -21h-76q-63 0 -111.5 23.5zM410 301v8q0 39 -21 62.5
t-56 23.5h-81q-36 0 -58 -25t-22 -66v-3h238zM106 748h150l98 -180h-130z" />
    <glyph glyph-name="eacute" unicode="&#xe9;" horiz-adv-x="578" 
d="M140.5 15.5q-48.5 23.5 -75.5 66t-27 97.5v129q0 59 27 104t75.5 70t111.5 25h80q96 0 154 -54t58 -144v-106h-370v-24q0 -33 21 -53t57 -20h78q35 0 56.5 15.5t21.5 40.5h134q0 -50 -27 -89t-75.5 -60t-111.5 -21h-76q-63 0 -111.5 23.5zM410 301v8q0 39 -21 62.5
t-56 23.5h-81q-36 0 -58 -25t-22 -66v-3h238zM321 748h150l-118 -180h-130z" />
    <glyph glyph-name="ecircumflex" unicode="&#xea;" horiz-adv-x="578" 
d="M140.5 15.5q-48.5 23.5 -75.5 66t-27 97.5v129q0 59 27 104t75.5 70t111.5 25h80q96 0 154 -54t58 -144v-106h-370v-24q0 -33 21 -53t57 -20h78q35 0 56.5 15.5t21.5 40.5h134q0 -50 -27 -89t-75.5 -60t-111.5 -21h-76q-63 0 -111.5 23.5zM410 301v8q0 39 -21 62.5
t-56 23.5h-81q-36 0 -58 -25t-22 -66v-3h238zM245 754h89l151 -186h-121l-74 97l-75 -97h-120z" />
    <glyph glyph-name="edieresis" unicode="&#xeb;" horiz-adv-x="578" 
d="M140.5 15.5q-48.5 23.5 -75.5 66t-27 97.5v129q0 59 27 104t75.5 70t111.5 25h80q96 0 154 -54t58 -144v-106h-370v-24q0 -33 21 -53t57 -20h78q35 0 56.5 15.5t21.5 40.5h134q0 -50 -27 -89t-75.5 -60t-111.5 -21h-76q-63 0 -111.5 23.5zM410 301v8q0 39 -21 62.5
t-56 23.5h-81q-36 0 -58 -25t-22 -66v-3h238zM114 589.5q-20 19.5 -20 51.5t20 51.5t52 19.5q31 0 51 -19.5t20 -51.5q0 -31 -20 -51t-51 -20q-32 0 -52 19.5zM363 590q-20 20 -20 51q0 32 20 51.5t51 19.5q32 0 52 -19.5t20 -51.5t-20 -51.5t-52 -19.5q-31 0 -51 20z" />
    <glyph glyph-name="igrave" unicode="&#xec;" horiz-adv-x="264" 
d="M64 499h136v-499h-136v499zM-52 748h150l98 -180h-130z" />
    <glyph glyph-name="iacute" unicode="&#xed;" horiz-adv-x="264" 
d="M64 499h136v-499h-136v499zM163 748h150l-118 -180h-130z" />
    <glyph glyph-name="icircumflex" unicode="&#xee;" horiz-adv-x="264" 
d="M64 499h136v-499h-136v499zM87 754h89l151 -186h-121l-74 97l-75 -97h-120z" />
    <glyph glyph-name="idieresis" unicode="&#xef;" horiz-adv-x="264" 
d="M64 499h136v-499h-136v499zM-44 589.5q-20 19.5 -20 51.5t20 51.5t52 19.5q31 0 51 -19.5t20 -51.5q0 -31 -20 -51t-51 -20q-32 0 -52 19.5zM205 590q-20 20 -20 51q0 32 20 51.5t51 19.5q32 0 52 -19.5t20 -51.5t-20 -51.5t-52 -19.5q-31 0 -51 20z" />
    <glyph glyph-name="eth" unicode="&#xf0;" horiz-adv-x="615" 
d="M548 568q35 -82 35 -191v-152q0 -69 -30.5 -122t-86 -82t-127.5 -29h-72q-70 0 -123 25.5t-82.5 72t-29.5 107.5v104q0 63 29 111.5t81.5 75.5t121.5 27h63q33 0 63 -11.5t49 -30.5h1q-3 39 -20.5 72.5t-48.5 58.5l-34 -44h-134l70 89q-31 7 -69 7h-54v114h54
q83 0 146 -22l41 53h134l-79 -101q67 -50 102 -132zM447 277q0 55 -31.5 88t-83.5 33h-66q-44 0 -71 -29.5t-27 -77.5v-84q0 -44 27.5 -71t73.5 -27h68q50 0 80 32t30 84v52z" />
    <glyph glyph-name="ntilde" unicode="&#xf1;" horiz-adv-x="600" 
d="M58 499h126v-60q22 31 57 49.5t70 18.5h60q80 0 128.5 -50t48.5 -132v-325h-136v320q0 31 -16.5 50t-42.5 19h-60q-35 0 -62.5 -25.5t-36.5 -66.5v-297h-136v499zM330 570q-18 10 -39 28q-25 23 -39 23h-6q-13 0 -21 -14.5t-8 -38.5h-99q-1 67 32 108t89 41h6
q24 0 42 -10.5t42 -29.5q23 -21 34 -21h6q12 0 19.5 14.5t7.5 38.5h99q0 -67 -32 -108t-86 -41h-6q-23 0 -41 10z" />
    <glyph glyph-name="ograve" unicode="&#xf2;" horiz-adv-x="594" 
d="M139.5 16.5q-48.5 24.5 -75 69.5t-26.5 104v117q0 59 27 104.5t75.5 70.5t111.5 25h90q63 0 111.5 -25t75.5 -70.5t27 -104.5v-117q0 -59 -27 -104t-75.5 -69.5t-112.5 -24.5h-90q-63 0 -111.5 24.5zM339 109q37 0 59 25.5t22 66.5v97q0 41 -22 66.5t-58 25.5h-86
q-36 0 -58 -25.5t-22 -66.5v-97q0 -41 22 -66.5t57 -25.5h86zM113 748h150l98 -180h-130z" />
    <glyph glyph-name="oacute" unicode="&#xf3;" horiz-adv-x="594" 
d="M139.5 16.5q-48.5 24.5 -75 69.5t-26.5 104v117q0 59 27 104.5t75.5 70.5t111.5 25h90q63 0 111.5 -25t75.5 -70.5t27 -104.5v-117q0 -59 -27 -104t-75.5 -69.5t-112.5 -24.5h-90q-63 0 -111.5 24.5zM339 109q37 0 59 25.5t22 66.5v97q0 41 -22 66.5t-58 25.5h-86
q-36 0 -58 -25.5t-22 -66.5v-97q0 -41 22 -66.5t57 -25.5h86zM328 748h150l-118 -180h-130z" />
    <glyph glyph-name="ocircumflex" unicode="&#xf4;" horiz-adv-x="594" 
d="M139.5 16.5q-48.5 24.5 -75 69.5t-26.5 104v117q0 59 27 104.5t75.5 70.5t111.5 25h90q63 0 111.5 -25t75.5 -70.5t27 -104.5v-117q0 -59 -27 -104t-75.5 -69.5t-112.5 -24.5h-90q-63 0 -111.5 24.5zM339 109q37 0 59 25.5t22 66.5v97q0 41 -22 66.5t-58 25.5h-86
q-36 0 -58 -25.5t-22 -66.5v-97q0 -41 22 -66.5t57 -25.5h86zM252 754h89l151 -186h-121l-74 97l-75 -97h-120z" />
    <glyph glyph-name="otilde" unicode="&#xf5;" horiz-adv-x="594" 
d="M139.5 16.5q-48.5 24.5 -75 69.5t-26.5 104v117q0 59 27 104.5t75.5 70.5t111.5 25h90q63 0 111.5 -25t75.5 -70.5t27 -104.5v-117q0 -59 -27 -104t-75.5 -69.5t-112.5 -24.5h-90q-63 0 -111.5 24.5zM339 109q37 0 59 25.5t22 66.5v97q0 41 -22 66.5t-58 25.5h-86
q-36 0 -58 -25.5t-22 -66.5v-97q0 -41 22 -66.5t57 -25.5h86zM320 570q-18 10 -39 28q-25 23 -39 23h-6q-13 0 -21 -14.5t-8 -38.5h-99q-1 67 32 108t89 41h6q24 0 42 -10.5t42 -29.5q23 -21 34 -21h6q12 0 19.5 14.5t7.5 38.5h99q0 -67 -32 -108t-86 -41h-6q-23 0 -41 10z
" />
    <glyph glyph-name="odieresis" unicode="&#xf6;" horiz-adv-x="594" 
d="M139.5 16.5q-48.5 24.5 -75 69.5t-26.5 104v117q0 59 27 104.5t75.5 70.5t111.5 25h90q63 0 111.5 -25t75.5 -70.5t27 -104.5v-117q0 -59 -27 -104t-75.5 -69.5t-112.5 -24.5h-90q-63 0 -111.5 24.5zM339 109q37 0 59 25.5t22 66.5v97q0 41 -22 66.5t-58 25.5h-86
q-36 0 -58 -25.5t-22 -66.5v-97q0 -41 22 -66.5t57 -25.5h86zM121 589.5q-20 19.5 -20 51.5t20 51.5t52 19.5q31 0 51 -19.5t20 -51.5q0 -31 -20 -51t-51 -20q-32 0 -52 19.5zM370 590q-20 20 -20 51q0 32 20 51.5t51 19.5q32 0 52 -19.5t20 -51.5t-20 -51.5t-52 -19.5
q-31 0 -51 20z" />
    <glyph glyph-name="divide" unicode="&#xf7;" horiz-adv-x="576" 
d="M233 447q-21 21 -21 55q0 35 21 55.5t55 20.5q35 0 55.5 -20.5t20.5 -55.5q0 -34 -20.5 -55t-55.5 -21q-34 0 -55 21zM38 383h500v-118h-500v118zM233 91q-21 21 -21 55q0 35 21 55.5t55 20.5q35 0 55.5 -20.5t20.5 -55.5q0 -34 -20.5 -55t-55.5 -21q-34 0 -55 21z" />
    <glyph glyph-name="oslash" unicode="&#xf8;" horiz-adv-x="594" 
d="M539.5 390.5q16.5 -37.5 16.5 -83.5v-117q0 -59 -27 -104t-75.5 -69.5t-112.5 -24.5h-90q-43 0 -74 10l-33 -47h-106l62 88q-30 26 -46 63.5t-16 83.5v117q0 59 27 104.5t75.5 70.5t111.5 25h90q43 0 74 -10l34 48h106l-63 -90q30 -27 46.5 -64.5zM181 160l161 230h-2
h-86q-36 0 -58 -25.5t-22 -66.5v-97q0 -24 7 -41zM420 298q0 21 -7 42l-161 -231h1h86q37 0 59 25.5t22 66.5v97z" />
    <glyph glyph-name="ugrave" unicode="&#xf9;" horiz-adv-x="598" 
d="M100 45.5q-48 53.5 -48 140.5v313h136v-315q0 -33 16.5 -53.5t43.5 -20.5h58q33 0 60 27.5t38 72.5v289h136v-499h-126v64q-23 -32 -56.5 -52t-64.5 -20h-66q-79 0 -127 53.5zM115 748h150l98 -180h-130z" />
    <glyph glyph-name="uacute" unicode="&#xfa;" horiz-adv-x="598" 
d="M100 45.5q-48 53.5 -48 140.5v313h136v-315q0 -33 16.5 -53.5t43.5 -20.5h58q33 0 60 27.5t38 72.5v289h136v-499h-126v64q-23 -32 -56.5 -52t-64.5 -20h-66q-79 0 -127 53.5zM330 748h150l-118 -180h-130z" />
    <glyph glyph-name="ucircumflex" unicode="&#xfb;" horiz-adv-x="598" 
d="M100 45.5q-48 53.5 -48 140.5v313h136v-315q0 -33 16.5 -53.5t43.5 -20.5h58q33 0 60 27.5t38 72.5v289h136v-499h-126v64q-23 -32 -56.5 -52t-64.5 -20h-66q-79 0 -127 53.5zM254 754h89l151 -186h-121l-74 97l-75 -97h-120z" />
    <glyph glyph-name="udieresis" unicode="&#xfc;" horiz-adv-x="598" 
d="M100 45.5q-48 53.5 -48 140.5v313h136v-315q0 -33 16.5 -53.5t43.5 -20.5h58q33 0 60 27.5t38 72.5v289h136v-499h-126v64q-23 -32 -56.5 -52t-64.5 -20h-66q-79 0 -127 53.5zM123 589.5q-20 19.5 -20 51.5t20 51.5t52 19.5q31 0 51 -19.5t20 -51.5q0 -31 -20 -51
t-51 -20q-32 0 -52 19.5zM372 590q-20 20 -20 51q0 32 20 51.5t51 19.5q32 0 52 -19.5t20 -51.5t-20 -51.5t-52 -19.5q-31 0 -51 20z" />
    <glyph glyph-name="yacute" unicode="&#xfd;" horiz-adv-x="598" 
d="M118.5 -157.5q-52.5 45.5 -58.5 119.5h134q2 -22 18 -35.5t40 -13.5h82q31 0 50.5 25.5t19.5 66.5v65q-23 -31 -52.5 -48.5t-58.5 -17.5h-66q-79 0 -127 52.5t-48 139.5v303h136v-305q0 -33 16.5 -53.5t43.5 -20.5h58q33 0 60 27.5t38 72.5v279h136v-494
q0 -62 -25.5 -109t-72.5 -73t-108 -26h-82q-81 0 -133.5 45.5zM330 748h150l-118 -180h-130z" />
    <glyph glyph-name="thorn" unicode="&#xfe;" horiz-adv-x="604" 
d="M58 700h136v-245q20 23 49.5 37.5t57.5 14.5h63q60 0 106 -24.5t71 -68.5t25 -101v-112q0 -62 -25 -109.5t-70 -73.5t-104 -26h-65q-28 0 -57.5 13t-50.5 35v-240h-136v900zM349 109q37 0 59 28t22 74v92q0 39 -22.5 63t-59.5 24h-61q-30 0 -55.5 -23t-37.5 -61v-99
q5 -44 30.5 -71t62.5 -27h62z" />
    <glyph glyph-name="ydieresis" unicode="&#xff;" horiz-adv-x="598" 
d="M118.5 -157.5q-52.5 45.5 -58.5 119.5h134q2 -22 18 -35.5t40 -13.5h82q31 0 50.5 25.5t19.5 66.5v65q-23 -31 -52.5 -48.5t-58.5 -17.5h-66q-79 0 -127 52.5t-48 139.5v303h136v-305q0 -33 16.5 -53.5t43.5 -20.5h58q33 0 60 27.5t38 72.5v279h136v-494
q0 -62 -25.5 -109t-72.5 -73t-108 -26h-82q-81 0 -133.5 45.5zM123 589.5q-20 19.5 -20 51.5t20 51.5t52 19.5q31 0 51 -19.5t20 -51.5q0 -31 -20 -51t-51 -20q-32 0 -52 19.5zM372 590q-20 20 -20 51q0 32 20 51.5t51 19.5q32 0 52 -19.5t20 -51.5t-20 -51.5t-52 -19.5
q-31 0 -51 20z" />
    <glyph glyph-name="Amacron" unicode="&#x100;" horiz-adv-x="681" 
d="M472 163h-262l-62 -163h-144l274 700h62q65 0 88 -60l249 -640h-144zM247 279h188l-93 252h-1zM181 890h320v-106h-320v106z" />
    <glyph glyph-name="amacron" unicode="&#x101;" horiz-adv-x="584" 
d="M90 31q-48 39 -48 103v37q0 63 50 101.5t132 38.5h61q26 0 56 -7t55 -19v52q0 25 -16.5 40.5t-43.5 15.5h-86q-28 0 -45 -13t-17 -35h-132q0 73 53.5 117.5t140.5 44.5h86q88 0 142 -46.5t54 -123.5v-337h-126v60q-24 -31 -59 -49.5t-69 -18.5h-62q-78 0 -126 39zM288 96
q37 0 66 19t42 51v17q-16 12 -44.5 19t-60.5 7h-63q-24 0 -39 -12t-15 -32v-26q0 -19 16.5 -31t43.5 -12h54zM138 689h320v-106h-320v106z" />
    <glyph glyph-name="Abreve" unicode="&#x102;" horiz-adv-x="681" 
d="M472 163h-262l-62 -163h-144l274 700h62q65 0 88 -60l249 -640h-144zM247 279h188l-93 252h-1zM211 802.5q-47 41.5 -47 109.5v20h106v-20q0 -28 18 -44.5t47 -16.5h12q29 0 47 16.5t18 44.5v20h106v-20q0 -68 -47 -109.5t-124 -41.5h-12q-77 0 -124 41.5z" />
    <glyph glyph-name="abreve" unicode="&#x103;" horiz-adv-x="584" 
d="M90 31q-48 39 -48 103v37q0 63 50 101.5t132 38.5h61q26 0 56 -7t55 -19v52q0 25 -16.5 40.5t-43.5 15.5h-86q-28 0 -45 -13t-17 -35h-132q0 73 53.5 117.5t140.5 44.5h86q88 0 142 -46.5t54 -123.5v-337h-126v60q-24 -31 -59 -49.5t-69 -18.5h-62q-78 0 -126 39zM288 96
q37 0 66 19t42 51v17q-16 12 -44.5 19t-60.5 7h-63q-24 0 -39 -12t-15 -32v-26q0 -19 16.5 -31t43.5 -12h54zM168 601.5q-47 41.5 -47 109.5v20h106v-20q0 -28 18 -44.5t47 -16.5h12q29 0 47 16.5t18 44.5v20h106v-20q0 -68 -47 -109.5t-124 -41.5h-12q-77 0 -124 41.5z" />
    <glyph glyph-name="Aogonek" unicode="&#x104;" horiz-adv-x="681" 
d="M472 163h-262l-62 -163h-144l274 700h62q65 0 88 -60l249 -640h-144zM247 279h188l-93 252h-1zM533 -203q-36 28 -36 75v14q0 33 19 64t51 50h110q-32 -18 -51 -44t-19 -51v-14q0 -15 12.5 -24.5t32.5 -9.5h15q17 0 34.5 5.5t29.5 14.5v-84q-14 -11 -38.5 -17.5
t-49.5 -6.5h-15q-59 0 -95 28z" />
    <glyph glyph-name="aogonek" unicode="&#x105;" horiz-adv-x="584" 
d="M556.5 -137.5q17.5 5.5 29.5 14.5v-84q-14 -11 -38.5 -17.5t-49.5 -6.5h-15q-59 0 -95 28t-36 75v14q0 33 19 64t51 50h-16v60q-24 -31 -59 -49.5t-69 -18.5h-62q-78 0 -126 39t-48 103v37q0 63 50 101.5t132 38.5h61q26 0 56 -7t55 -19v52q0 25 -16.5 40.5t-43.5 15.5
h-86q-28 0 -45 -13t-17 -35h-132q0 73 53.5 117.5t140.5 44.5h86q88 0 142 -46.5t54 -123.5v-337q-32 -18 -51 -44t-19 -51v-14q0 -15 12.5 -24.5t32.5 -9.5h15q17 0 34.5 5.5zM396 183q-16 12 -44.5 19t-60.5 7h-63q-24 0 -39 -12t-15 -32v-26q0 -19 16.5 -31t43.5 -12h54
q37 0 66 19t42 51v17z" />
    <glyph glyph-name="Cacute" unicode="&#x106;" horiz-adv-x="688" 
d="M164.5 25q-58.5 33 -90.5 93.5t-32 139.5v184q0 79 32.5 139.5t92 93.5t137.5 33h106q75 0 132 -32t88.5 -89.5t31.5 -133.5h-136q0 60 -32 96.5t-84 36.5h-106q-56 0 -90 -41.5t-34 -108.5v-172q0 -67 33 -108.5t87 -41.5h108q53 0 86.5 41t33.5 108h136
q0 -81 -32 -142.5t-90 -95t-134 -33.5h-108q-77 0 -135.5 33zM382 949h150l-118 -180h-130z" />
    <glyph glyph-name="cacute" unicode="&#x107;" horiz-adv-x="560" 
d="M139.5 17q-48.5 25 -75 70t-26.5 104v117q0 59 26.5 104t74.5 70t111 25h79q60 0 106 -24t71 -67.5t25 -100.5h-135q0 34 -18.5 54.5t-48.5 20.5h-77q-35 0 -56.5 -25.5t-21.5 -66.5v-97q0 -41 22 -66.5t57 -25.5h77q32 0 51.5 23t19.5 61h135q0 -91 -56.5 -146
t-149.5 -55h-79q-63 0 -111.5 25zM316 748h150l-118 -180h-130z" />
    <glyph glyph-name="Ccircumflex" unicode="&#x108;" horiz-adv-x="688" 
d="M164.5 25q-58.5 33 -90.5 93.5t-32 139.5v184q0 79 32.5 139.5t92 93.5t137.5 33h106q75 0 132 -32t88.5 -89.5t31.5 -133.5h-136q0 60 -32 96.5t-84 36.5h-106q-56 0 -90 -41.5t-34 -108.5v-172q0 -67 33 -108.5t87 -41.5h108q53 0 86.5 41t33.5 108h136
q0 -81 -32 -142.5t-90 -95t-134 -33.5h-108q-77 0 -135.5 33zM306 955h89l151 -186h-121l-74 97l-75 -97h-120z" />
    <glyph glyph-name="ccircumflex" unicode="&#x109;" horiz-adv-x="560" 
d="M139.5 17q-48.5 25 -75 70t-26.5 104v117q0 59 26.5 104t74.5 70t111 25h79q60 0 106 -24t71 -67.5t25 -100.5h-135q0 34 -18.5 54.5t-48.5 20.5h-77q-35 0 -56.5 -25.5t-21.5 -66.5v-97q0 -41 22 -66.5t57 -25.5h77q32 0 51.5 23t19.5 61h135q0 -91 -56.5 -146
t-149.5 -55h-79q-63 0 -111.5 25zM240 754h89l151 -186h-121l-74 97l-75 -97h-120z" />
    <glyph glyph-name="Cdotaccent" unicode="&#x10a;" horiz-adv-x="688" 
d="M164.5 25q-58.5 33 -90.5 93.5t-32 139.5v184q0 79 32.5 139.5t92 93.5t137.5 33h106q75 0 132 -32t88.5 -89.5t31.5 -133.5h-136q0 60 -32 96.5t-84 36.5h-106q-56 0 -90 -41.5t-34 -108.5v-172q0 -67 33 -108.5t87 -41.5h108q53 0 86.5 41t33.5 108h136
q0 -81 -32 -142.5t-90 -95t-134 -33.5h-108q-77 0 -135.5 33zM291 783.5q-23 22.5 -23 59.5q0 38 22.5 60.5t60.5 22.5t60.5 -22.5t22.5 -60.5q0 -37 -23 -59.5t-60 -22.5t-60 22.5z" />
    <glyph glyph-name="cdotaccent" unicode="&#x10b;" horiz-adv-x="560" 
d="M139.5 17q-48.5 25 -75 70t-26.5 104v117q0 59 26.5 104t74.5 70t111 25h79q60 0 106 -24t71 -67.5t25 -100.5h-135q0 34 -18.5 54.5t-48.5 20.5h-77q-35 0 -56.5 -25.5t-21.5 -66.5v-97q0 -41 22 -66.5t57 -25.5h77q32 0 51.5 23t19.5 61h135q0 -91 -56.5 -146
t-149.5 -55h-79q-63 0 -111.5 25zM225 582.5q-23 22.5 -23 59.5q0 38 22.5 60.5t60.5 22.5t60.5 -22.5t22.5 -60.5q0 -37 -23 -59.5t-60 -22.5t-60 22.5z" />
    <glyph glyph-name="Ccaron" unicode="&#x10c;" horiz-adv-x="688" 
d="M164.5 25q-58.5 33 -90.5 93.5t-32 139.5v184q0 79 32.5 139.5t92 93.5t137.5 33h106q75 0 132 -32t88.5 -89.5t31.5 -133.5h-136q0 60 -32 96.5t-84 36.5h-106q-56 0 -90 -41.5t-34 -108.5v-172q0 -67 33 -108.5t87 -41.5h108q53 0 86.5 41t33.5 108h136
q0 -81 -32 -142.5t-90 -95t-134 -33.5h-108q-77 0 -135.5 33zM156 955h120l75 -97l74 97h121l-151 -186h-89z" />
    <glyph glyph-name="ccaron" unicode="&#x10d;" horiz-adv-x="560" 
d="M139.5 17q-48.5 25 -75 70t-26.5 104v117q0 59 26.5 104t74.5 70t111 25h79q60 0 106 -24t71 -67.5t25 -100.5h-135q0 34 -18.5 54.5t-48.5 20.5h-77q-35 0 -56.5 -25.5t-21.5 -66.5v-97q0 -41 22 -66.5t57 -25.5h77q32 0 51.5 23t19.5 61h135q0 -91 -56.5 -146
t-149.5 -55h-79q-63 0 -111.5 25zM90 754h120l75 -97l74 97h121l-151 -186h-89z" />
    <glyph glyph-name="Dcaron" unicode="&#x10e;" horiz-adv-x="702" 
d="M89 26q-27 26 -27 68v606h334q80 0 140.5 -30t94 -85t33.5 -127v-196q0 -129 -67 -195.5t-197 -66.5h-241q-43 0 -70 26zM396 122q64 0 97 37t33 109v184q0 57 -37 91.5t-97 34.5h-192v-456h196zM161 955h120l75 -97l74 97h121l-151 -186h-89z" />
    <glyph glyph-name="dcaron" unicode="&#x10f;" horiz-adv-x="807" 
d="M92.5 46q-54.5 54 -54.5 142v114q0 61 26 107.5t73 72t109 25.5h55q29 0 59 -12.5t50 -33.5v239h136v-700h-126v66q-20 -33 -54 -53.5t-71 -20.5h-59q-89 0 -143.5 54zM310 109q41 0 68.5 29.5t31.5 78.5v87q-7 39 -30.5 62.5t-55.5 23.5h-61q-40 0 -64.5 -27t-24.5 -71
v-94q0 -40 22 -64.5t57 -24.5h57zM590 512l30 27q53 47 53 112v49h136v-49q0 -69 -23.5 -120t-72.5 -91l-34 -27z" />
    <glyph glyph-name="Dcroat" unicode="&#x110;" horiz-adv-x="753" 
d="M587.5 670q60.5 -30 94 -85t33.5 -127v-196q0 -129 -67 -195.5t-197 -66.5h-241q-43 0 -70 26t-27 68v198h-91v120h91v288h334q80 0 140.5 -30zM577 452q0 57 -37 91.5t-97 34.5h-192v-166h216v-120h-216v-170h196q64 0 97 37t33 109v184z" />
    <glyph glyph-name="dcroat" unicode="&#x111;" horiz-adv-x="623" 
d="M623 553h-77v-553h-126v66q-20 -33 -54 -53.5t-71 -20.5h-59q-89 0 -143.5 54t-54.5 142v114q0 61 26 107.5t73 72t109 25.5h55q29 0 59 -12.5t50 -33.5v92h-139v92h139v55h136v-55h77v-92zM410 304q-7 39 -30.5 62.5t-55.5 23.5h-61q-40 0 -64.5 -27t-24.5 -71v-94
q0 -40 22 -64.5t57 -24.5h57q41 0 68.5 29.5t31.5 78.5v87z" />
    <glyph glyph-name="Emacron" unicode="&#x112;" horiz-adv-x="628" 
d="M89 26q-27 26 -27 68v606h534v-120h-396v-162h366v-120h-366v-178h396v-120h-437q-43 0 -70 26zM173 890h320v-106h-320v106z" />
    <glyph glyph-name="emacron" unicode="&#x113;" horiz-adv-x="578" 
d="M140.5 15.5q-48.5 23.5 -75.5 66t-27 97.5v129q0 59 27 104t75.5 70t111.5 25h80q96 0 154 -54t58 -144v-106h-370v-24q0 -33 21 -53t57 -20h78q35 0 56.5 15.5t21.5 40.5h134q0 -50 -27 -89t-75.5 -60t-111.5 -21h-76q-63 0 -111.5 23.5zM410 301v8q0 39 -21 62.5
t-56 23.5h-81q-36 0 -58 -25t-22 -66v-3h238zM130 689h320v-106h-320v106z" />
    <glyph glyph-name="Ebreve" unicode="&#x114;" horiz-adv-x="628" 
d="M89 26q-27 26 -27 68v606h534v-120h-396v-162h366v-120h-366v-178h396v-120h-437q-43 0 -70 26zM203 802.5q-47 41.5 -47 109.5v20h106v-20q0 -28 18 -44.5t47 -16.5h12q29 0 47 16.5t18 44.5v20h106v-20q0 -68 -47 -109.5t-124 -41.5h-12q-77 0 -124 41.5z" />
    <glyph glyph-name="ebreve" unicode="&#x115;" horiz-adv-x="578" 
d="M140.5 15.5q-48.5 23.5 -75.5 66t-27 97.5v129q0 59 27 104t75.5 70t111.5 25h80q96 0 154 -54t58 -144v-106h-370v-24q0 -33 21 -53t57 -20h78q35 0 56.5 15.5t21.5 40.5h134q0 -50 -27 -89t-75.5 -60t-111.5 -21h-76q-63 0 -111.5 23.5zM410 301v8q0 39 -21 62.5
t-56 23.5h-81q-36 0 -58 -25t-22 -66v-3h238zM160 601.5q-47 41.5 -47 109.5v20h106v-20q0 -28 18 -44.5t47 -16.5h12q29 0 47 16.5t18 44.5v20h106v-20q0 -68 -47 -109.5t-124 -41.5h-12q-77 0 -124 41.5z" />
    <glyph glyph-name="Edotaccent" unicode="&#x116;" horiz-adv-x="628" 
d="M89 26q-27 26 -27 68v606h534v-120h-396v-162h366v-120h-366v-178h396v-120h-437q-43 0 -70 26zM273 783.5q-23 22.5 -23 59.5q0 38 22.5 60.5t60.5 22.5t60.5 -22.5t22.5 -60.5q0 -37 -23 -59.5t-60 -22.5t-60 22.5z" />
    <glyph glyph-name="edotaccent" unicode="&#x117;" horiz-adv-x="578" 
d="M140.5 15.5q-48.5 23.5 -75.5 66t-27 97.5v129q0 59 27 104t75.5 70t111.5 25h80q96 0 154 -54t58 -144v-106h-370v-24q0 -33 21 -53t57 -20h78q35 0 56.5 15.5t21.5 40.5h134q0 -50 -27 -89t-75.5 -60t-111.5 -21h-76q-63 0 -111.5 23.5zM410 301v8q0 39 -21 62.5
t-56 23.5h-81q-36 0 -58 -25t-22 -66v-3h238zM230 582.5q-23 22.5 -23 59.5q0 38 22.5 60.5t60.5 22.5t60.5 -22.5t22.5 -60.5q0 -37 -23 -59.5t-60 -22.5t-60 22.5z" />
    <glyph glyph-name="Eogonek" unicode="&#x118;" horiz-adv-x="628" 
d="M89 26q-27 26 -27 68v606h534v-120h-396v-162h366v-120h-366v-178h396v-120h-437q-43 0 -70 26zM452 -203q-36 28 -36 75v14q0 33 19 64t51 50h110q-32 -18 -51 -44t-19 -51v-14q0 -15 12.5 -24.5t32.5 -9.5h15q17 0 34.5 5.5t29.5 14.5v-84q-14 -11 -38.5 -17.5
t-49.5 -6.5h-15q-59 0 -95 28z" />
    <glyph glyph-name="eogonek" unicode="&#x119;" horiz-adv-x="578" 
d="M174 203v-24q0 -33 21 -53t57 -20h78q35 0 56.5 15.5t21.5 40.5h134q0 -61 -38.5 -104t-105.5 -58q-31 -18 -50 -44t-19 -51v-14q0 -15 12.5 -24.5t32.5 -9.5h15q17 0 34.5 5.5t29.5 14.5v-84q-14 -11 -38.5 -17.5t-49.5 -6.5h-15q-59 0 -95 28t-36 75v14q0 30 15.5 58
t42.5 48h-25q-63 0 -111.5 23.5t-75.5 66t-27 97.5v129q0 59 27 104t75.5 70t111.5 25h80q96 0 154 -54t58 -144v-106h-370zM410 301v8q0 39 -21 62.5t-56 23.5h-81q-36 0 -58 -25t-22 -66v-3h238z" />
    <glyph glyph-name="Ecaron" unicode="&#x11a;" horiz-adv-x="628" 
d="M89 26q-27 26 -27 68v606h534v-120h-396v-162h366v-120h-366v-178h396v-120h-437q-43 0 -70 26zM138 955h120l75 -97l74 97h121l-151 -186h-89z" />
    <glyph glyph-name="ecaron" unicode="&#x11b;" horiz-adv-x="578" 
d="M140.5 15.5q-48.5 23.5 -75.5 66t-27 97.5v129q0 59 27 104t75.5 70t111.5 25h80q96 0 154 -54t58 -144v-106h-370v-24q0 -33 21 -53t57 -20h78q35 0 56.5 15.5t21.5 40.5h134q0 -50 -27 -89t-75.5 -60t-111.5 -21h-76q-63 0 -111.5 23.5zM410 301v8q0 39 -21 62.5
t-56 23.5h-81q-36 0 -58 -25t-22 -66v-3h238zM95 754h120l75 -97l74 97h121l-151 -186h-89z" />
    <glyph glyph-name="Gcircumflex" unicode="&#x11c;" horiz-adv-x="712" 
d="M166 25q-59 33 -91.5 93.5t-32.5 139.5v184q0 79 32.5 139.5t92 93.5t137.5 33h112q75 0 132 -30t88.5 -85t31.5 -127h-136q0 54 -32 87t-84 33h-112q-56 0 -90 -41.5t-34 -108.5v-172q0 -67 33.5 -108.5t88.5 -41.5h118q51 0 84.5 37t33.5 92v22h-194v120h330v-142
q0 -73 -32 -130t-90 -89t-132 -32h-118q-77 0 -136 33zM312 955h89l151 -186h-121l-74 97l-75 -97h-120z" />
    <glyph glyph-name="gcircumflex" unicode="&#x11d;" horiz-adv-x="606" 
d="M119 -157.5q-53 45.5 -59 119.5h134q2 -22 18 -35.5t40 -13.5h90q31 0 50.5 25.5t19.5 66.5v47q-20 -22 -48.5 -35t-54.5 -13h-69q-91 0 -146.5 54t-55.5 142v102q0 61 26 107.5t73 72t108 25.5h58q34 0 66.5 -16t52.5 -42v50h126v-494q0 -62 -25.5 -109t-72.5 -73
t-108 -26h-90q-80 0 -133 45.5zM318 119q38 0 64 31.5t30 82.5v69q-4 40 -27 64t-58 24h-70q-37 0 -60 -27t-23 -71v-82q0 -41 21 -66t54 -25h69zM251 754h89l151 -186h-121l-74 97l-75 -97h-120z" />
    <glyph glyph-name="Gbreve" unicode="&#x11e;" horiz-adv-x="712" 
d="M166 25q-59 33 -91.5 93.5t-32.5 139.5v184q0 79 32.5 139.5t92 93.5t137.5 33h112q75 0 132 -30t88.5 -85t31.5 -127h-136q0 54 -32 87t-84 33h-112q-56 0 -90 -41.5t-34 -108.5v-172q0 -67 33.5 -108.5t88.5 -41.5h118q51 0 84.5 37t33.5 92v22h-194v120h330v-142
q0 -73 -32 -130t-90 -89t-132 -32h-118q-77 0 -136 33zM227 802.5q-47 41.5 -47 109.5v20h106v-20q0 -28 18 -44.5t47 -16.5h12q29 0 47 16.5t18 44.5v20h106v-20q0 -68 -47 -109.5t-124 -41.5h-12q-77 0 -124 41.5z" />
    <glyph glyph-name="gbreve" unicode="&#x11f;" horiz-adv-x="606" 
d="M119 -157.5q-53 45.5 -59 119.5h134q2 -22 18 -35.5t40 -13.5h90q31 0 50.5 25.5t19.5 66.5v47q-20 -22 -48.5 -35t-54.5 -13h-69q-91 0 -146.5 54t-55.5 142v102q0 61 26 107.5t73 72t108 25.5h58q34 0 66.5 -16t52.5 -42v50h126v-494q0 -62 -25.5 -109t-72.5 -73
t-108 -26h-90q-80 0 -133 45.5zM318 119q38 0 64 31.5t30 82.5v69q-4 40 -27 64t-58 24h-70q-37 0 -60 -27t-23 -71v-82q0 -41 21 -66t54 -25h69zM166 601.5q-47 41.5 -47 109.5v20h106v-20q0 -28 18 -44.5t47 -16.5h12q29 0 47 16.5t18 44.5v20h106v-20q0 -68 -47 -109.5
t-124 -41.5h-12q-77 0 -124 41.5z" />
    <glyph glyph-name="Gdotaccent" unicode="&#x120;" horiz-adv-x="712" 
d="M166 25q-59 33 -91.5 93.5t-32.5 139.5v184q0 79 32.5 139.5t92 93.5t137.5 33h112q75 0 132 -30t88.5 -85t31.5 -127h-136q0 54 -32 87t-84 33h-112q-56 0 -90 -41.5t-34 -108.5v-172q0 -67 33.5 -108.5t88.5 -41.5h118q51 0 84.5 37t33.5 92v22h-194v120h330v-142
q0 -73 -32 -130t-90 -89t-132 -32h-118q-77 0 -136 33zM297 783.5q-23 22.5 -23 59.5q0 38 22.5 60.5t60.5 22.5t60.5 -22.5t22.5 -60.5q0 -37 -23 -59.5t-60 -22.5t-60 22.5z" />
    <glyph glyph-name="gdotaccent" unicode="&#x121;" horiz-adv-x="606" 
d="M119 -157.5q-53 45.5 -59 119.5h134q2 -22 18 -35.5t40 -13.5h90q31 0 50.5 25.5t19.5 66.5v47q-20 -22 -48.5 -35t-54.5 -13h-69q-91 0 -146.5 54t-55.5 142v102q0 61 26 107.5t73 72t108 25.5h58q34 0 66.5 -16t52.5 -42v50h126v-494q0 -62 -25.5 -109t-72.5 -73
t-108 -26h-90q-80 0 -133 45.5zM318 119q38 0 64 31.5t30 82.5v69q-4 40 -27 64t-58 24h-70q-37 0 -60 -27t-23 -71v-82q0 -41 21 -66t54 -25h69zM236 582.5q-23 22.5 -23 59.5q0 38 22.5 60.5t60.5 22.5t60.5 -22.5t22.5 -60.5q0 -37 -23 -59.5t-60 -22.5t-60 22.5z" />
    <glyph glyph-name="uni0122" unicode="&#x122;" horiz-adv-x="712" 
d="M166 25q-59 33 -91.5 93.5t-32.5 139.5v184q0 79 32.5 139.5t92 93.5t137.5 33h112q75 0 132 -30t88.5 -85t31.5 -127h-136q0 54 -32 87t-84 33h-112q-56 0 -90 -41.5t-34 -108.5v-172q0 -67 33.5 -108.5t88.5 -41.5h118q51 0 84.5 37t33.5 92v22h-194v120h330v-142
q0 -73 -32 -130t-90 -89t-132 -32h-118q-77 0 -136 33zM208 -240l30 27q53 47 53 112v39h136v-39q0 -69 -23.5 -120t-72.5 -91l-34 -27z" />
    <glyph glyph-name="uni0123" unicode="&#x123;" horiz-adv-x="606" 
d="M119 -157.5q-53 45.5 -59 119.5h134q2 -22 18 -35.5t40 -13.5h90q31 0 50.5 25.5t19.5 66.5v47q-20 -22 -48.5 -35t-54.5 -13h-69q-91 0 -146.5 54t-55.5 142v102q0 61 26 107.5t73 72t108 25.5h58q34 0 66.5 -16t52.5 -42v50h126v-494q0 -62 -25.5 -109t-72.5 -73
t-108 -26h-90q-80 0 -133 45.5zM318 119q38 0 64 31.5t30 82.5v69q-4 40 -27 64t-58 24h-70q-37 0 -60 -27t-23 -71v-82q0 -41 21 -66t54 -25h69zM229 618q0 69 23.5 120t72.5 91l34 27l89 -99l-30 -27q-53 -47 -53 -112v-49h-136v49z" />
    <glyph glyph-name="Hcircumflex" unicode="&#x124;" horiz-adv-x="726" 
d="M62 700h138v-289h326v289h138v-700h-138v291h-326v-291h-138v700zM314 955h89l151 -186h-121l-74 97l-75 -97h-120z" />
    <glyph glyph-name="hcircumflex" unicode="&#x125;" horiz-adv-x="602" 
d="M58 700h136v-251q22 26 54.5 42t62.5 16h62q80 0 128.5 -50t48.5 -132v-325h-136v320q0 31 -16.5 50t-42.5 19h-62q-35 0 -62.5 -25.5t-36.5 -66.5v-297h-136v700zM259 955h89l151 -186h-121l-74 97l-75 -97h-120z" />
    <glyph glyph-name="Hbar" unicode="&#x126;" horiz-adv-x="778" 
d="M770 506h-80v-506h-138v291h-326v-291h-138v506h-80v92h80v102h138v-102h326v102h138v-102h80v-92zM552 506h-326v-95h326v95z" />
    <glyph glyph-name="hbar" unicode="&#x127;" horiz-adv-x="627" 
d="M526.5 457q48.5 -50 48.5 -132v-325h-136v320q0 31 -16.5 50t-42.5 19h-62q-35 0 -62.5 -25.5t-36.5 -66.5v-297h-136v553h-75v92h75v55h136v-55h140v-92h-140v-104q22 26 54.5 42t62.5 16h62q80 0 128.5 -50z" />
    <glyph glyph-name="Itilde" unicode="&#x128;" horiz-adv-x="282" 
d="M72 700h138v-700h-138v700zM164 771q-18 10 -39 28q-25 23 -39 23h-6q-13 0 -21 -14.5t-8 -38.5h-99q-1 67 32 108t89 41h6q24 0 42 -10.5t42 -29.5q23 -21 34 -21h6q12 0 19.5 14.5t7.5 38.5h99q0 -67 -32 -108t-86 -41h-6q-23 0 -41 10z" />
    <glyph glyph-name="itilde" unicode="&#x129;" horiz-adv-x="264" 
d="M64 499h136v-499h-136v499zM155 570q-18 10 -39 28q-25 23 -39 23h-6q-13 0 -21 -14.5t-8 -38.5h-99q-1 67 32 108t89 41h6q24 0 42 -10.5t42 -29.5q23 -21 34 -21h6q12 0 19.5 14.5t7.5 38.5h99q0 -67 -32 -108t-86 -41h-6q-23 0 -41 10z" />
    <glyph glyph-name="Imacron" unicode="&#x12a;" horiz-adv-x="282" 
d="M72 700h138v-700h-138v700zM-19 890h320v-106h-320v106z" />
    <glyph glyph-name="imacron" unicode="&#x12b;" horiz-adv-x="264" 
d="M64 499h136v-499h-136v499zM-28 689h320v-106h-320v106z" />
    <glyph glyph-name="Ibreve" unicode="&#x12c;" horiz-adv-x="282" 
d="M72 700h138v-700h-138v700zM11 802.5q-47 41.5 -47 109.5v20h106v-20q0 -28 18 -44.5t47 -16.5h12q29 0 47 16.5t18 44.5v20h106v-20q0 -68 -47 -109.5t-124 -41.5h-12q-77 0 -124 41.5z" />
    <glyph glyph-name="ibreve" unicode="&#x12d;" horiz-adv-x="264" 
d="M64 499h136v-499h-136v499zM2 601.5q-47 41.5 -47 109.5v20h106v-20q0 -28 18 -44.5t47 -16.5h12q29 0 47 16.5t18 44.5v20h106v-20q0 -68 -47 -109.5t-124 -41.5h-12q-77 0 -124 41.5z" />
    <glyph glyph-name="Iogonek" unicode="&#x12e;" horiz-adv-x="282" 
d="M72 700h138v-700h-138v700zM66 -203q-36 28 -36 75v14q0 33 19 64t51 50h110q-32 -18 -51 -44t-19 -51v-14q0 -15 12.5 -24.5t32.5 -9.5h15q17 0 34.5 5.5t29.5 14.5v-84q-14 -11 -38.5 -17.5t-49.5 -6.5h-15q-59 0 -95 28z" />
    <glyph glyph-name="iogonek" unicode="&#x12f;" horiz-adv-x="288" 
d="M81.5 568.5q-23.5 22.5 -23.5 59.5t23.5 59.5t62.5 22.5t62.5 -22.5t23.5 -59.5t-23.5 -59.5t-62.5 -22.5t-62.5 22.5zM76 499h136v-499h-136v499zM68 -203q-36 28 -36 75v14q0 33 19 64t51 50h110q-32 -18 -51 -44t-19 -51v-14q0 -15 12.5 -24.5t32.5 -9.5h15
q17 0 34.5 5.5t29.5 14.5v-84q-14 -11 -38.5 -17.5t-49.5 -6.5h-15q-59 0 -95 28z" />
    <glyph glyph-name="Idotaccent" unicode="&#x130;" horiz-adv-x="282" 
d="M72 700h138v-700h-138v700zM81 783.5q-23 22.5 -23 59.5q0 38 22.5 60.5t60.5 22.5t60.5 -22.5t22.5 -60.5q0 -37 -23 -59.5t-60 -22.5t-60 22.5z" />
    <glyph glyph-name="dotlessi" unicode="&#x131;" horiz-adv-x="264" 
d="M64 499h136v-499h-136v499z" />
    <glyph glyph-name="IJ" unicode="&#x132;" horiz-adv-x="887" 
d="M72 700h138v-700h-138v700zM406.5 23.5q-51.5 31.5 -80 89t-28.5 132.5h136q0 -59 25.5 -95t66.5 -36h77q41 0 66.5 37.5t25.5 98.5v450h138v-456q0 -75 -28 -132t-79 -88.5t-117 -31.5h-83q-68 0 -119.5 31.5z" />
    <glyph glyph-name="ij" unicode="&#x133;" horiz-adv-x="588" 
d="M81.5 568.5q-23.5 22.5 -23.5 59.5t23.5 59.5t62.5 22.5t62.5 -22.5t23.5 -59.5t-23.5 -59.5t-62.5 -22.5t-62.5 22.5zM76 499h136v-499h-136v499zM381.5 568.5q-23.5 22.5 -23.5 59.5t23.5 59.5t62.5 22.5t62.5 -22.5t23.5 -59.5t-23.5 -59.5t-62.5 -22.5t-62.5 22.5z
M244 -83h62q36 0 53 23.5t17 72.5v486h136v-481q0 -112 -50 -164.5t-156 -52.5h-62v116z" />
    <glyph glyph-name="Jcircumflex" unicode="&#x134;" horiz-adv-x="605" 
d="M124.5 23.5q-51.5 31.5 -80 89t-28.5 132.5h136q0 -59 25.5 -95t66.5 -36h77q41 0 66.5 37.5t25.5 98.5v450h138v-456q0 -75 -28 -132t-79 -88.5t-117 -31.5h-83q-68 0 -119.5 31.5zM435 955h89l151 -186h-121l-74 97l-75 -97h-120z" />
    <glyph glyph-name="jcircumflex" unicode="&#x135;" horiz-adv-x="288" 
d="M-44 -83h67q35 0 50 22t15 74v488h136v-483q0 -116 -46.5 -166.5t-154.5 -50.5h-67v116zM111 754h89l151 -186h-121l-74 97l-75 -97h-120z" />
    <glyph glyph-name="uni0136" unicode="&#x136;" horiz-adv-x="674" 
d="M498 0l-231 294l-67 -72v-222h-138v700h138v-302l278 302h170l-288 -307l306 -393h-168zM188 -240l30 27q53 47 53 112v39h136v-39q0 -69 -23.5 -120t-72.5 -91l-34 -27z" />
    <glyph glyph-name="uni0137" unicode="&#x137;" horiz-adv-x="555" 
d="M403 0l-156 200l-53 -53v-147h-136v700h136v-400l197 199h158l-214 -212l222 -287h-154zM140 -240l30 27q53 47 53 112v39h136v-39q0 -69 -23.5 -120t-72.5 -91l-34 -27z" />
    <glyph glyph-name="kgreenlandic" unicode="&#x138;" horiz-adv-x="577" 
d="M418 0l-163 195l-61 -59v-136h-136v499h136v-210l217 210h158l-225 -218l235 -281h-161z" />
    <glyph glyph-name="Lacute" unicode="&#x139;" horiz-adv-x="588" 
d="M88.5 25.5q-26.5 25.5 -26.5 67.5v607h138v-580h380v-120h-421q-44 0 -70.5 25.5zM162 949h150l-118 -180h-130z" />
    <glyph glyph-name="lacute" unicode="&#x13a;" horiz-adv-x="296" 
d="M99.5 37.5q-41.5 37.5 -41.5 116.5v546h136v-538q0 -24 11 -35t35 -11h54v-116h-64q-89 0 -130.5 37.5zM157 949h150l-118 -180h-130z" />
    <glyph glyph-name="uni013B" unicode="&#x13b;" horiz-adv-x="588" 
d="M88.5 25.5q-26.5 25.5 -26.5 67.5v607h138v-580h380v-120h-421q-44 0 -70.5 25.5zM177 -240l30 27q53 47 53 112v39h136v-39q0 -69 -23.5 -120t-72.5 -91l-34 -27z" />
    <glyph glyph-name="uni013C" unicode="&#x13c;" horiz-adv-x="296" 
d="M99.5 37.5q-41.5 37.5 -41.5 116.5v546h136v-538q0 -24 11 -35t35 -11h54v-116h-64q-89 0 -130.5 37.5zM22 -240l30 27q53 47 53 112v39h136v-39q0 -69 -23.5 -120t-72.5 -91l-34 -27z" />
    <glyph glyph-name="Lcaron" unicode="&#x13d;" horiz-adv-x="605" 
d="M88.5 25.5q-26.5 25.5 -26.5 67.5v607h138v-580h380v-120h-421q-44 0 -70.5 25.5zM380 512l30 27q53 47 53 112v49h136v-49q0 -69 -23.5 -120t-72.5 -91l-34 -27z" />
    <glyph glyph-name="lcaron" unicode="&#x13e;" horiz-adv-x="482" 
d="M99.5 37.5q-41.5 37.5 -41.5 116.5v546h136v-538q0 -24 11 -35t35 -11h54v-116h-64q-89 0 -130.5 37.5zM265 512l30 27q53 47 53 112v49h136v-49q0 -69 -23.5 -120t-72.5 -91l-34 -27z" />
    <glyph glyph-name="Ldot" unicode="&#x13f;" horiz-adv-x="588" 
d="M88.5 25.5q-26.5 25.5 -26.5 67.5v607h138v-580h380v-120h-421q-44 0 -70.5 25.5zM375.5 254.5q-22.5 22.5 -22.5 59.5t22.5 59.5t59.5 22.5t59.5 -22.5t22.5 -59.5t-22.5 -59.5t-59.5 -22.5t-59.5 22.5z" />
    <glyph glyph-name="ldot" unicode="&#x140;" horiz-adv-x="427" 
d="M99.5 37.5q-41.5 37.5 -41.5 116.5v546h136v-538q0 -24 11 -35t35 -11h54v-116h-64q-89 0 -130.5 37.5zM293.5 224.5q-22.5 22.5 -22.5 59.5t22.5 59.5t59.5 22.5t59.5 -22.5t22.5 -59.5t-22.5 -59.5t-59.5 -22.5t-59.5 22.5z" />
    <glyph glyph-name="Lslash" unicode="&#x141;" horiz-adv-x="608" 
d="M600 120v-120h-421q-44 0 -70.5 25.5t-26.5 67.5v120l-74 -43v136l74 43v351h138v-270l132 77v-136l-132 -77v-174h380z" />
    <glyph glyph-name="lslash" unicode="&#x142;" horiz-adv-x="332" 
d="M330 116v-116h-64q-89 0 -130.5 37.5t-41.5 116.5v79l-90 -53v132l90 53v335h136v-256l98 57v-132l-98 -57v-150q0 -24 11 -35t35 -11h54z" />
    <glyph glyph-name="Nacute" unicode="&#x143;" horiz-adv-x="718" 
d="M62 700h123l336 -476v476h135v-700h-123l-336 476v-476h-135v700zM390 949h150l-118 -180h-130z" />
    <glyph glyph-name="nacute" unicode="&#x144;" horiz-adv-x="600" 
d="M58 499h126v-60q22 31 57 49.5t70 18.5h60q80 0 128.5 -50t48.5 -132v-325h-136v320q0 31 -16.5 50t-42.5 19h-60q-35 0 -62.5 -25.5t-36.5 -66.5v-297h-136v499zM338 748h150l-118 -180h-130z" />
    <glyph glyph-name="uni0145" unicode="&#x145;" horiz-adv-x="718" 
d="M62 700h123l336 -476v476h135v-700h-123l-336 476v-476h-135v700zM210 -240l30 27q53 47 53 112v39h136v-39q0 -69 -23.5 -120t-72.5 -91l-34 -27z" />
    <glyph glyph-name="uni0146" unicode="&#x146;" horiz-adv-x="600" 
d="M58 499h126v-60q22 31 57 49.5t70 18.5h60q80 0 128.5 -50t48.5 -132v-325h-136v320q0 31 -16.5 50t-42.5 19h-60q-35 0 -62.5 -25.5t-36.5 -66.5v-297h-136v499zM154 -240l30 27q53 47 53 112v39h136v-39q0 -69 -23.5 -120t-72.5 -91l-34 -27z" />
    <glyph glyph-name="Ncaron" unicode="&#x147;" horiz-adv-x="718" 
d="M62 700h123l336 -476v476h135v-700h-123l-336 476v-476h-135v700zM164 955h120l75 -97l74 97h121l-151 -186h-89z" />
    <glyph glyph-name="ncaron" unicode="&#x148;" horiz-adv-x="600" 
d="M58 499h126v-60q22 31 57 49.5t70 18.5h60q80 0 128.5 -50t48.5 -132v-325h-136v320q0 31 -16.5 50t-42.5 19h-60q-35 0 -62.5 -25.5t-36.5 -66.5v-297h-136v499zM112 754h120l75 -97l74 97h121l-151 -186h-89z" />
    <glyph glyph-name="napostrophe" unicode="&#x149;" horiz-adv-x="786" 
d="M244 499h126v-60q22 31 57 49.5t70 18.5h60q80 0 128.5 -50t48.5 -132v-325h-136v320q0 31 -16.5 50t-42.5 19h-60q-35 0 -62.5 -25.5t-36.5 -66.5v-297h-136v499zM-2 512l30 27q53 47 53 112v49h136v-49q0 -69 -23.5 -120t-72.5 -91l-34 -27z" />
    <glyph glyph-name="Eng" unicode="&#x14a;" horiz-adv-x="721" 
d="M391 -93h67q34 0 49.5 21t15.5 68v4l-323 470v-470h-138v700h120l339 -498v498h138v-700q0 -112 -46.5 -160.5t-154.5 -48.5h-67v116z" />
    <glyph glyph-name="eng" unicode="&#x14b;" horiz-adv-x="600" 
d="M280 -83h67q35 0 50 22t15 74v307q0 31 -16.5 50t-42.5 19h-60q-35 0 -62.5 -25.5t-36.5 -66.5v-297h-136v499h126v-60q22 31 57 49.5t70 18.5h60q80 0 128.5 -50t48.5 -132v-317q0 -107 -49 -157t-152 -50h-67v116z" />
    <glyph glyph-name="Omacron" unicode="&#x14c;" horiz-adv-x="724" 
d="M169.5 25.5q-60.5 33.5 -94 94t-33.5 140.5v180q0 80 33.5 140.5t94 94t139.5 33.5h106q79 0 139.5 -33.5t94 -94t33.5 -140.5v-180q0 -80 -33.5 -140.5t-94 -94t-139.5 -33.5h-106q-79 0 -139.5 33.5zM415 114q58 0 93.5 42t35.5 110v168q0 68 -35.5 110t-93.5 42h-106
q-58 0 -93.5 -42t-35.5 -110v-168q0 -68 35.5 -110t93.5 -42h106zM202 890h320v-106h-320v106z" />
    <glyph glyph-name="omacron" unicode="&#x14d;" horiz-adv-x="594" 
d="M139.5 16.5q-48.5 24.5 -75 69.5t-26.5 104v117q0 59 27 104.5t75.5 70.5t111.5 25h90q63 0 111.5 -25t75.5 -70.5t27 -104.5v-117q0 -59 -27 -104t-75.5 -69.5t-112.5 -24.5h-90q-63 0 -111.5 24.5zM339 109q37 0 59 25.5t22 66.5v97q0 41 -22 66.5t-58 25.5h-86
q-36 0 -58 -25.5t-22 -66.5v-97q0 -41 22 -66.5t57 -25.5h86zM137 689h320v-106h-320v106z" />
    <glyph glyph-name="Obreve" unicode="&#x14e;" horiz-adv-x="724" 
d="M169.5 25.5q-60.5 33.5 -94 94t-33.5 140.5v180q0 80 33.5 140.5t94 94t139.5 33.5h106q79 0 139.5 -33.5t94 -94t33.5 -140.5v-180q0 -80 -33.5 -140.5t-94 -94t-139.5 -33.5h-106q-79 0 -139.5 33.5zM415 114q58 0 93.5 42t35.5 110v168q0 68 -35.5 110t-93.5 42h-106
q-58 0 -93.5 -42t-35.5 -110v-168q0 -68 35.5 -110t93.5 -42h106zM232 802.5q-47 41.5 -47 109.5v20h106v-20q0 -28 18 -44.5t47 -16.5h12q29 0 47 16.5t18 44.5v20h106v-20q0 -68 -47 -109.5t-124 -41.5h-12q-77 0 -124 41.5z" />
    <glyph glyph-name="obreve" unicode="&#x14f;" horiz-adv-x="594" 
d="M139.5 16.5q-48.5 24.5 -75 69.5t-26.5 104v117q0 59 27 104.5t75.5 70.5t111.5 25h90q63 0 111.5 -25t75.5 -70.5t27 -104.5v-117q0 -59 -27 -104t-75.5 -69.5t-112.5 -24.5h-90q-63 0 -111.5 24.5zM339 109q37 0 59 25.5t22 66.5v97q0 41 -22 66.5t-58 25.5h-86
q-36 0 -58 -25.5t-22 -66.5v-97q0 -41 22 -66.5t57 -25.5h86zM167 601.5q-47 41.5 -47 109.5v20h106v-20q0 -28 18 -44.5t47 -16.5h12q29 0 47 16.5t18 44.5v20h106v-20q0 -68 -47 -109.5t-124 -41.5h-12q-77 0 -124 41.5z" />
    <glyph glyph-name="Ohungarumlaut" unicode="&#x150;" horiz-adv-x="724" 
d="M169.5 25.5q-60.5 33.5 -94 94t-33.5 140.5v180q0 80 33.5 140.5t94 94t139.5 33.5h106q79 0 139.5 -33.5t94 -94t33.5 -140.5v-180q0 -80 -33.5 -140.5t-94 -94t-139.5 -33.5h-106q-79 0 -139.5 33.5zM415 114q58 0 93.5 42t35.5 110v168q0 68 -35.5 110t-93.5 42h-106
q-58 0 -93.5 -42t-35.5 -110v-168q0 -68 35.5 -110t93.5 -42h106zM292 949h144l-118 -180h-124zM486 949h144l-118 -180h-124z" />
    <glyph glyph-name="ohungarumlaut" unicode="&#x151;" horiz-adv-x="594" 
d="M139.5 16.5q-48.5 24.5 -75 69.5t-26.5 104v117q0 59 27 104.5t75.5 70.5t111.5 25h90q63 0 111.5 -25t75.5 -70.5t27 -104.5v-117q0 -59 -27 -104t-75.5 -69.5t-112.5 -24.5h-90q-63 0 -111.5 24.5zM339 109q37 0 59 25.5t22 66.5v97q0 41 -22 66.5t-58 25.5h-86
q-36 0 -58 -25.5t-22 -66.5v-97q0 -41 22 -66.5t57 -25.5h86zM227 748h144l-118 -180h-124zM421 748h144l-118 -180h-124z" />
    <glyph glyph-name="OE" unicode="&#x152;" horiz-adv-x="1098" 
d="M169.5 25.5q-60.5 33.5 -94 94t-33.5 140.5v180q0 80 33.5 140.5t94 94t139.5 33.5h104q49 0 92.5 -17.5t71.5 -48.5v58h489v-120h-384v-162h354v-120h-354v-178h384v-120h-395q-32 0 -55.5 15.5t-34.5 44.5l-2 6q-28 -37 -72.5 -55.5t-97.5 -18.5h-100
q-79 0 -139.5 33.5zM415 114q58 0 93.5 42t35.5 110v168q0 68 -35.5 110t-93.5 42h-106q-58 0 -93.5 -42t-35.5 -110v-168q0 -68 35.5 -110t93.5 -42h106z" />
    <glyph glyph-name="oe" unicode="&#x153;" horiz-adv-x="960" 
d="M556 203v-14q0 -38 22 -60.5t59 -22.5h74q35 0 57 15.5t22 40.5h134q0 -50 -27 -89t-75.5 -60t-112.5 -21h-72q-97 0 -151 60q-53 -60 -146 -60h-88q-63 0 -111.5 25t-75.5 70t-27 104v117q0 59 27 104t75.5 70t111.5 25h90q94 0 146 -61q51 61 147 61h78q63 0 111.5 -25
t75 -71t26.5 -106v-102h-370zM556 301h235v6q0 39 -21.5 62.5t-56.5 23.5h-78q-35 0 -57 -25t-22 -65v-2zM420 298q0 41 -22.5 66.5t-57.5 25.5h-86q-35 0 -57.5 -25.5t-22.5 -66.5v-97q0 -41 22.5 -66.5t57.5 -25.5h84q36 0 59 25.5t23 66.5v97z" />
    <glyph glyph-name="Racute" unicode="&#x154;" horiz-adv-x="678" 
d="M62 700h372q91 0 146.5 -49t55.5 -129v-70q0 -52 -29.5 -90.5t-85.5 -58.5v-2q32 -21 48.5 -48t32.5 -75l56 -178h-143l-53 166q-13 43 -36 64t-57 21h-169v-251h-138v700zM408 370q42 0 66 22.5t24 58.5v65q0 29 -18 46.5t-48 17.5h-232v-210h208zM365 949h150
l-118 -180h-130z" />
    <glyph glyph-name="racute" unicode="&#x155;" horiz-adv-x="383" 
d="M58 499h126v-64q19 29 54.5 47.5t74.5 18.5h68v-118h-68q-53 0 -86 -32t-33 -82v-269h-136v499zM247 748h150l-118 -180h-130z" />
    <glyph glyph-name="uni0156" unicode="&#x156;" horiz-adv-x="678" 
d="M62 700h372q91 0 146.5 -49t55.5 -129v-70q0 -52 -29.5 -90.5t-85.5 -58.5v-2q32 -21 48.5 -48t32.5 -75l56 -178h-143l-53 166q-13 43 -36 64t-57 21h-169v-251h-138v700zM408 370q42 0 66 22.5t24 58.5v65q0 29 -18 46.5t-48 17.5h-232v-210h208zM200 -240l30 27
q53 47 53 112v39h136v-39q0 -69 -23.5 -120t-72.5 -91l-34 -27z" />
    <glyph glyph-name="uni0157" unicode="&#x157;" horiz-adv-x="383" 
d="M58 499h126v-64q19 29 54.5 47.5t74.5 18.5h68v-118h-68q-53 0 -86 -32t-33 -82v-269h-136v499zM-23 -240l30 27q53 47 53 112v39h136v-39q0 -69 -23.5 -120t-72.5 -91l-34 -27z" />
    <glyph glyph-name="Rcaron" unicode="&#x158;" horiz-adv-x="678" 
d="M62 700h372q91 0 146.5 -49t55.5 -129v-70q0 -52 -29.5 -90.5t-85.5 -58.5v-2q32 -21 48.5 -48t32.5 -75l56 -178h-143l-53 166q-13 43 -36 64t-57 21h-169v-251h-138v700zM408 370q42 0 66 22.5t24 58.5v65q0 29 -18 46.5t-48 17.5h-232v-210h208zM139 955h120l75 -97
l74 97h121l-151 -186h-89z" />
    <glyph glyph-name="rcaron" unicode="&#x159;" horiz-adv-x="383" 
d="M58 499h126v-64q19 29 54.5 47.5t74.5 18.5h68v-118h-68q-53 0 -86 -32t-33 -82v-269h-136v499zM21 754h120l75 -97l74 97h121l-151 -186h-89z" />
    <glyph glyph-name="Sacute" unicode="&#x15a;" horiz-adv-x="656" 
d="M100 53.5q-62 61.5 -62 171.5h136q0 -52 26.5 -81.5t73.5 -29.5h111q44 0 71.5 18.5t27.5 49.5v34q0 49 -72 61l-184 31q-90 15 -136.5 57.5t-46.5 108.5v56q0 53 28.5 93.5t81 62.5t121.5 22h113q65 0 115 -27t77.5 -75.5t27.5 -112.5h-136q0 42 -23 67.5t-61 25.5h-113
q-42 0 -67.5 -18t-25.5 -48v-27q0 -50 69 -62l183 -32q91 -16 139 -56.5t48 -104.5v-66q0 -53 -29.5 -94t-82.5 -63.5t-123 -22.5h-115q-110 0 -172 61.5zM359 949h150l-118 -180h-130z" />
    <glyph glyph-name="sacute" unicode="&#x15b;" horiz-adv-x="549" 
d="M89 40q-55 48 -55 126h134q0 -27 18.5 -43.5t48.5 -16.5h90q60 0 60 33v17q0 10 -10 18.5t-27 11.5l-173 30q-61 10 -96.5 43.5t-35.5 78.5v33q0 64 52.5 100t146.5 36h78q84 0 135.5 -44.5t51.5 -117.5h-134q0 22 -14.5 35t-38.5 13h-76q-65 0 -65 -30v-16
q0 -11 8.5 -18.5t24.5 -10.5l182 -33q57 -10 92 -42.5t35 -73.5v-36q0 -65 -53.5 -103t-142.5 -38h-90q-91 0 -146 48zM306 748h150l-118 -180h-130z" />
    <glyph glyph-name="Scircumflex" unicode="&#x15c;" horiz-adv-x="656" 
d="M100 53.5q-62 61.5 -62 171.5h136q0 -52 26.5 -81.5t73.5 -29.5h111q44 0 71.5 18.5t27.5 49.5v34q0 49 -72 61l-184 31q-90 15 -136.5 57.5t-46.5 108.5v56q0 53 28.5 93.5t81 62.5t121.5 22h113q65 0 115 -27t77.5 -75.5t27.5 -112.5h-136q0 42 -23 67.5t-61 25.5h-113
q-42 0 -67.5 -18t-25.5 -48v-27q0 -50 69 -62l183 -32q91 -16 139 -56.5t48 -104.5v-66q0 -53 -29.5 -94t-82.5 -63.5t-123 -22.5h-115q-110 0 -172 61.5zM283 955h89l151 -186h-121l-74 97l-75 -97h-120z" />
    <glyph glyph-name="scircumflex" unicode="&#x15d;" horiz-adv-x="549" 
d="M89 40q-55 48 -55 126h134q0 -27 18.5 -43.5t48.5 -16.5h90q60 0 60 33v17q0 10 -10 18.5t-27 11.5l-173 30q-61 10 -96.5 43.5t-35.5 78.5v33q0 64 52.5 100t146.5 36h78q84 0 135.5 -44.5t51.5 -117.5h-134q0 22 -14.5 35t-38.5 13h-76q-65 0 -65 -30v-16
q0 -11 8.5 -18.5t24.5 -10.5l182 -33q57 -10 92 -42.5t35 -73.5v-36q0 -65 -53.5 -103t-142.5 -38h-90q-91 0 -146 48zM230 754h89l151 -186h-121l-74 97l-75 -97h-120z" />
    <glyph glyph-name="Scedilla" unicode="&#x15e;" horiz-adv-x="656" 
d="M574 342.5q48 -40.5 48 -104.5v-66q0 -53 -29.5 -94t-82.5 -63.5t-123 -22.5h-7l-17 -38h10q40 0 64 -23t24 -60v-20q0 -46 -36 -73.5t-95 -27.5h-97v82h86q18 0 29 6.5t11 16.5v15q0 9 -9 14.5t-24 5.5h-66v52l21 50h-9q-110 0 -172 61.5t-62 171.5h136
q0 -52 26.5 -81.5t73.5 -29.5h111q44 0 71.5 18.5t27.5 49.5v34q0 49 -72 61l-184 31q-90 15 -136.5 57.5t-46.5 108.5v56q0 53 28.5 93.5t81 62.5t121.5 22h113q65 0 115 -27t77.5 -75.5t27.5 -112.5h-136q0 42 -23 67.5t-61 25.5h-113q-42 0 -67.5 -18t-25.5 -48v-27
q0 -50 69 -62l183 -32q91 -16 139 -56.5z" />
    <glyph glyph-name="scedilla" unicode="&#x15f;" horiz-adv-x="549" 
d="M486 242.5q35 -32.5 35 -73.5v-36q0 -64 -52.5 -102t-139.5 -39l-17 -38h10q40 0 64 -23t24 -60v-20q0 -46 -36 -73.5t-95 -27.5h-97v82h86q18 0 29 6.5t11 16.5v15q0 9 -9 14.5t-24 5.5h-66v52l21 50q-89 2 -142.5 49.5t-53.5 124.5h134q0 -27 18.5 -43.5t48.5 -16.5h90
q60 0 60 33v17q0 10 -10 18.5t-27 11.5l-173 30q-61 10 -96.5 43.5t-35.5 78.5v33q0 64 52.5 100t146.5 36h78q84 0 135.5 -44.5t51.5 -117.5h-134q0 22 -14.5 35t-38.5 13h-76q-65 0 -65 -30v-16q0 -11 8.5 -18.5t24.5 -10.5l182 -33q57 -10 92 -42.5z" />
    <glyph glyph-name="Scaron" unicode="&#x160;" horiz-adv-x="656" 
d="M100 53.5q-62 61.5 -62 171.5h136q0 -52 26.5 -81.5t73.5 -29.5h111q44 0 71.5 18.5t27.5 49.5v34q0 49 -72 61l-184 31q-90 15 -136.5 57.5t-46.5 108.5v56q0 53 28.5 93.5t81 62.5t121.5 22h113q65 0 115 -27t77.5 -75.5t27.5 -112.5h-136q0 42 -23 67.5t-61 25.5h-113
q-42 0 -67.5 -18t-25.5 -48v-27q0 -50 69 -62l183 -32q91 -16 139 -56.5t48 -104.5v-66q0 -53 -29.5 -94t-82.5 -63.5t-123 -22.5h-115q-110 0 -172 61.5zM133 955h120l75 -97l74 97h121l-151 -186h-89z" />
    <glyph glyph-name="scaron" unicode="&#x161;" horiz-adv-x="549" 
d="M89 40q-55 48 -55 126h134q0 -27 18.5 -43.5t48.5 -16.5h90q60 0 60 33v17q0 10 -10 18.5t-27 11.5l-173 30q-61 10 -96.5 43.5t-35.5 78.5v33q0 64 52.5 100t146.5 36h78q84 0 135.5 -44.5t51.5 -117.5h-134q0 22 -14.5 35t-38.5 13h-76q-65 0 -65 -30v-16
q0 -11 8.5 -18.5t24.5 -10.5l182 -33q57 -10 92 -42.5t35 -73.5v-36q0 -65 -53.5 -103t-142.5 -38h-90q-91 0 -146 48zM80 754h120l75 -97l74 97h121l-151 -186h-89z" />
    <glyph glyph-name="uni0162" unicode="&#x162;" horiz-adv-x="606" 
d="M342 0l-21 -46h10q40 0 64 -23t24 -60v-20q0 -46 -36 -73.5t-95 -27.5h-97v82h86q18 0 29 6.5t11 16.5v15q0 9 -9 14.5t-24 5.5h-66v52l24 58h-8v580h-222v120h582v-120h-222v-580h-30z" />
    <glyph glyph-name="uni0163" unicode="&#x163;" horiz-adv-x="410" 
d="M242 383v-213q0 -28 10.5 -41t33.5 -13h86v-116h-89l-21 -46h10q40 0 64 -23t24 -60v-20q0 -46 -36 -73.5t-95 -27.5h-97v82h86q18 0 29 6.5t11 16.5v15q0 9 -9 14.5t-24 5.5h-66v52l30 72q-42 16 -62.5 53t-20.5 97v219h-88v116h92v151h132v-151h130v-116h-130z" />
    <glyph glyph-name="Tcaron" unicode="&#x164;" horiz-adv-x="606" 
d="M234 580h-222v120h582v-120h-222v-580h-138v580zM104 955h120l75 -97l74 97h121l-151 -186h-89z" />
    <glyph glyph-name="tcaron" unicode="&#x165;" horiz-adv-x="625" 
d="M147 40q-41 40 -41 124v219h-88v116h92v151h132v-151h130v-116h-130v-213q0 -28 10.5 -41t33.5 -13h86v-116h-96q-88 0 -129 40zM408 512l30 27q53 47 53 112v49h136v-49q0 -69 -23.5 -120t-72.5 -91l-34 -27z" />
    <glyph glyph-name="Tbar" unicode="&#x166;" horiz-adv-x="606" 
d="M372 580v-217h145v-106h-145v-257h-138v257h-145v106h145v217h-222v120h582v-120h-222z" />
    <glyph glyph-name="tbar" unicode="&#x167;" horiz-adv-x="396" 
d="M242 383v-82h130v-92h-130v-39q0 -28 10.5 -41t33.5 -13h86v-116h-96q-88 0 -129 40t-41 124v45h-88v92h88v82h-88v116h92v151h132v-151h130v-116h-130z" />
    <glyph glyph-name="Utilde" unicode="&#x168;" horiz-adv-x="720" 
d="M176 23.5q-56 31.5 -87 88.5t-31 132v456h138v-452q0 -60 30.5 -97t79.5 -37h106q50 0 81 37t31 97v452h138v-456q0 -75 -31 -132t-88 -88.5t-131 -31.5h-106q-74 0 -130 31.5zM383 771q-18 10 -39 28q-25 23 -39 23h-6q-13 0 -21 -14.5t-8 -38.5h-99q-1 67 32 108t89 41
h6q24 0 42 -10.5t42 -29.5q23 -21 34 -21h6q12 0 19.5 14.5t7.5 38.5h99q0 -67 -32 -108t-86 -41h-6q-23 0 -41 10z" />
    <glyph glyph-name="utilde" unicode="&#x169;" horiz-adv-x="598" 
d="M100 45.5q-48 53.5 -48 140.5v313h136v-315q0 -33 16.5 -53.5t43.5 -20.5h58q33 0 60 27.5t38 72.5v289h136v-499h-126v64q-23 -32 -56.5 -52t-64.5 -20h-66q-79 0 -127 53.5zM322 570q-18 10 -39 28q-25 23 -39 23h-6q-13 0 -21 -14.5t-8 -38.5h-99q-1 67 32 108t89 41
h6q24 0 42 -10.5t42 -29.5q23 -21 34 -21h6q12 0 19.5 14.5t7.5 38.5h99q0 -67 -32 -108t-86 -41h-6q-23 0 -41 10z" />
    <glyph glyph-name="Umacron" unicode="&#x16a;" horiz-adv-x="720" 
d="M176 23.5q-56 31.5 -87 88.5t-31 132v456h138v-452q0 -60 30.5 -97t79.5 -37h106q50 0 81 37t31 97v452h138v-456q0 -75 -31 -132t-88 -88.5t-131 -31.5h-106q-74 0 -130 31.5zM200 890h320v-106h-320v106z" />
    <glyph glyph-name="umacron" unicode="&#x16b;" horiz-adv-x="598" 
d="M100 45.5q-48 53.5 -48 140.5v313h136v-315q0 -33 16.5 -53.5t43.5 -20.5h58q33 0 60 27.5t38 72.5v289h136v-499h-126v64q-23 -32 -56.5 -52t-64.5 -20h-66q-79 0 -127 53.5zM139 689h320v-106h-320v106z" />
    <glyph glyph-name="Ubreve" unicode="&#x16c;" horiz-adv-x="720" 
d="M176 23.5q-56 31.5 -87 88.5t-31 132v456h138v-452q0 -60 30.5 -97t79.5 -37h106q50 0 81 37t31 97v452h138v-456q0 -75 -31 -132t-88 -88.5t-131 -31.5h-106q-74 0 -130 31.5zM230 802.5q-47 41.5 -47 109.5v20h106v-20q0 -28 18 -44.5t47 -16.5h12q29 0 47 16.5
t18 44.5v20h106v-20q0 -68 -47 -109.5t-124 -41.5h-12q-77 0 -124 41.5z" />
    <glyph glyph-name="ubreve" unicode="&#x16d;" horiz-adv-x="598" 
d="M100 45.5q-48 53.5 -48 140.5v313h136v-315q0 -33 16.5 -53.5t43.5 -20.5h58q33 0 60 27.5t38 72.5v289h136v-499h-126v64q-23 -32 -56.5 -52t-64.5 -20h-66q-79 0 -127 53.5zM169 601.5q-47 41.5 -47 109.5v20h106v-20q0 -28 18 -44.5t47 -16.5h12q29 0 47 16.5t18 44.5
v20h106v-20q0 -68 -47 -109.5t-124 -41.5h-12q-77 0 -124 41.5z" />
    <glyph glyph-name="Uring" unicode="&#x16e;" horiz-adv-x="720" 
d="M176 23.5q-56 31.5 -87 88.5t-31 132v456h138v-452q0 -60 30.5 -97t79.5 -37h106q50 0 81 37t31 97v452h138v-456q0 -75 -31 -132t-88 -88.5t-131 -31.5h-106q-74 0 -130 31.5zM271 781q-34 33 -34 87t34 87t89 33t89 -33t34 -87t-34 -87t-89 -33t-89 33zM392 836.5
q12 12.5 12 31.5q0 20 -12 32t-32 12t-32 -12t-12 -32q0 -19 12 -31.5t32 -12.5t32 12.5z" />
    <glyph glyph-name="uring" unicode="&#x16f;" horiz-adv-x="598" 
d="M100 45.5q-48 53.5 -48 140.5v313h136v-315q0 -33 16.5 -53.5t43.5 -20.5h58q33 0 60 27.5t38 72.5v289h136v-499h-126v64q-23 -32 -56.5 -52t-64.5 -20h-66q-79 0 -127 53.5zM210 580q-34 33 -34 87t34 87t89 33t89 -33t34 -87t-34 -87t-89 -33t-89 33zM331 635.5
q12 12.5 12 31.5q0 20 -12 32t-32 12t-32 -12t-12 -32q0 -19 12 -31.5t32 -12.5t32 12.5z" />
    <glyph glyph-name="Uhungarumlaut" unicode="&#x170;" horiz-adv-x="720" 
d="M176 23.5q-56 31.5 -87 88.5t-31 132v456h138v-452q0 -60 30.5 -97t79.5 -37h106q50 0 81 37t31 97v452h138v-456q0 -75 -31 -132t-88 -88.5t-131 -31.5h-106q-74 0 -130 31.5zM290 949h144l-118 -180h-124zM484 949h144l-118 -180h-124z" />
    <glyph glyph-name="uhungarumlaut" unicode="&#x171;" horiz-adv-x="598" 
d="M100 45.5q-48 53.5 -48 140.5v313h136v-315q0 -33 16.5 -53.5t43.5 -20.5h58q33 0 60 27.5t38 72.5v289h136v-499h-126v64q-23 -32 -56.5 -52t-64.5 -20h-66q-79 0 -127 53.5zM229 748h144l-118 -180h-124zM423 748h144l-118 -180h-124z" />
    <glyph glyph-name="Uogonek" unicode="&#x172;" horiz-adv-x="720" 
d="M662 700v-456q0 -97 -51.5 -163t-139.5 -83q-30 -18 -48 -43.5t-18 -49.5v-14q0 -15 12.5 -24.5t32.5 -9.5h15q17 0 34.5 5.5t29.5 14.5v-84q-14 -11 -38.5 -17.5t-49.5 -6.5h-15q-59 0 -95 28t-36 75v14q0 30 15.5 58t42.5 48h-47q-74 0 -130 31.5t-87 88.5t-31 132v456
h138v-452q0 -60 30.5 -97t79.5 -37h106q50 0 81 37t31 97v452h138z" />
    <glyph glyph-name="uogonek" unicode="&#x173;" horiz-adv-x="598" 
d="M564.5 -137.5q17.5 5.5 29.5 14.5v-84q-14 -11 -38.5 -17.5t-49.5 -6.5h-15q-59 0 -95 28t-36 75v14q0 33 19 64t51 50h-16v64q-23 -32 -56.5 -52t-64.5 -20h-66q-79 0 -127 53.5t-48 140.5v313h136v-315q0 -33 16.5 -53.5t43.5 -20.5h58q33 0 60 27.5t38 72.5v289h136
v-499q-31 -18 -50.5 -44t-19.5 -51v-14q0 -15 12.5 -24.5t32.5 -9.5h15q17 0 34.5 5.5z" />
    <glyph glyph-name="Wcircumflex" unicode="&#x174;" horiz-adv-x="877" 
d="M172 17q-23 17 -32 61l-124 622h140l86 -497h2l145 460h50q25 0 43.5 -13t28.5 -47l122 -399h2l86 496h140l-125 -622q-8 -40 -29.5 -59t-58.5 -19h-58l-149 480h-2l-152 -480h-58q-34 0 -57 17zM395 955h89l151 -186h-121l-74 97l-75 -97h-120z" />
    <glyph glyph-name="wcircumflex" unicode="&#x175;" horiz-adv-x="749" 
d="M115 78l-101 421h141l61 -317h2l109 305h53q23 0 37 -10t22 -31l93 -264h2l60 317h141l-99 -421q-18 -78 -86 -78h-62l-111 316l-115 -316h-61q-67 0 -86 78zM332 754h89l151 -186h-121l-74 97l-75 -97h-120z" />
    <glyph glyph-name="Ycircumflex" unicode="&#x176;" horiz-adv-x="652" 
d="M257 272l-259 428h150l178 -301l178 301h150l-259 -428v-272h-138v272zM281 955h89l151 -186h-121l-74 97l-75 -97h-120z" />
    <glyph glyph-name="ycircumflex" unicode="&#x177;" horiz-adv-x="598" 
d="M118.5 -157.5q-52.5 45.5 -58.5 119.5h134q2 -22 18 -35.5t40 -13.5h82q31 0 50.5 25.5t19.5 66.5v65q-23 -31 -52.5 -48.5t-58.5 -17.5h-66q-79 0 -127 52.5t-48 139.5v303h136v-305q0 -33 16.5 -53.5t43.5 -20.5h58q33 0 60 27.5t38 72.5v279h136v-494
q0 -62 -25.5 -109t-72.5 -73t-108 -26h-82q-81 0 -133.5 45.5zM254 754h89l151 -186h-121l-74 97l-75 -97h-120z" />
    <glyph glyph-name="Ydieresis" unicode="&#x178;" horiz-adv-x="652" 
d="M257 272l-259 428h150l178 -301l178 301h150l-259 -428v-272h-138v272zM150 790.5q-20 19.5 -20 51.5t20 51.5t52 19.5q31 0 51 -19.5t20 -51.5q0 -31 -20 -51t-51 -20q-32 0 -52 19.5zM399 791q-20 20 -20 51q0 32 20 51.5t51 19.5q32 0 52 -19.5t20 -51.5t-20 -51.5
t-52 -19.5q-31 0 -51 20z" />
    <glyph glyph-name="Zacute" unicode="&#x179;" horiz-adv-x="606" 
d="M22 68l371 514h-353v118h544v-68l-373 -514h363v-118h-552v68zM334 949h150l-118 -180h-130z" />
    <glyph glyph-name="zacute" unicode="&#x17a;" horiz-adv-x="500" 
d="M18 68l270 316h-258v115h452v-68l-270 -316h265v-115h-459v68zM287 748h150l-118 -180h-130z" />
    <glyph glyph-name="Zdotaccent" unicode="&#x17b;" horiz-adv-x="606" 
d="M22 68l371 514h-353v118h544v-68l-373 -514h363v-118h-552v68zM243 783.5q-23 22.5 -23 59.5q0 38 22.5 60.5t60.5 22.5t60.5 -22.5t22.5 -60.5q0 -37 -23 -59.5t-60 -22.5t-60 22.5z" />
    <glyph glyph-name="zdotaccent" unicode="&#x17c;" horiz-adv-x="500" 
d="M18 68l270 316h-258v115h452v-68l-270 -316h265v-115h-459v68zM196 582.5q-23 22.5 -23 59.5q0 38 22.5 60.5t60.5 22.5t60.5 -22.5t22.5 -60.5q0 -37 -23 -59.5t-60 -22.5t-60 22.5z" />
    <glyph glyph-name="Zcaron" unicode="&#x17d;" horiz-adv-x="606" 
d="M22 68l371 514h-353v118h544v-68l-373 -514h363v-118h-552v68zM108 955h120l75 -97l74 97h121l-151 -186h-89z" />
    <glyph glyph-name="zcaron" unicode="&#x17e;" horiz-adv-x="500" 
d="M18 68l270 316h-258v115h452v-68l-270 -316h265v-115h-459v68zM61 754h120l75 -97l74 97h121l-151 -186h-89z" />
    <glyph glyph-name="uni018F" unicode="&#x18f;" horiz-adv-x="736" 
d="M562.5 677q62.5 -31 97 -87.5t34.5 -130.5v-204q0 -78 -34.5 -137.5t-97 -92.5t-144.5 -33h-114q-78 0 -137.5 32t-92 90t-32.5 134v140h514v71q0 58 -38 93.5t-100 35.5h-106q-58 0 -94 -34.5t-36 -90.5h-136q0 73 33 128.5t93.5 86t139.5 30.5h106q82 0 144.5 -31z
M518 151q38 39 38 104v13h-376v-20q0 -61 34 -98.5t90 -37.5h114q62 0 100 39z" />
    <glyph glyph-name="florin" unicode="&#x192;" horiz-adv-x="615" 
d="M38 -50h60q34 0 53.5 19.5t30.5 65.5l86 348h-86l-1 116h115l5 18q28 101 77.5 144t138.5 43h60v-116h-60q-32 0 -50.5 -17.5t-29.5 -57.5l-4 -14h102l1 -116h-130l-90 -362q-25 -100 -74.5 -143.5t-138.5 -43.5h-65v116z" />
    <glyph glyph-name="Ohorn" unicode="&#x1a0;" horiz-adv-x="833" 
d="M855 707v-48q0 -93 -45.5 -146.5t-127.5 -54.5v-18v-180q0 -80 -33.5 -140.5t-94 -94t-139.5 -33.5h-106q-79 0 -139.5 33.5t-94 94t-33.5 140.5v180q0 80 33.5 140.5t94 94t139.5 33.5h106q83 0 145 -36.5t94 -101.5h13q28 0 44.5 23.5t16.5 65.5v48h127zM544 434
q0 68 -35.5 110t-93.5 42h-106q-58 0 -93.5 -42t-35.5 -110v-168q0 -68 35.5 -110t93.5 -42h106q58 0 93.5 42t35.5 110v168z" />
    <glyph glyph-name="ohorn" unicode="&#x1a1;" horiz-adv-x="725" 
d="M716 507v-48q0 -89 -42 -142t-118 -58v-69q0 -59 -27 -104t-75.5 -69.5t-112.5 -24.5h-90q-63 0 -111.5 24.5t-75 69.5t-26.5 104v117q0 59 27 104.5t75.5 70.5t111.5 25h90q77 0 130.5 -36t73.5 -98q20 7 31.5 29.5t11.5 56.5v48h127zM420 298q0 41 -22 66.5t-58 25.5
h-86q-36 0 -58 -25.5t-22 -66.5v-97q0 -41 22 -66.5t57 -25.5h86q37 0 59 25.5t22 66.5v97z" />
    <glyph glyph-name="Uhorn" unicode="&#x1af;" horiz-adv-x="843" 
d="M865 700v-48q0 -95 -47 -148t-131 -53h-25v-207q0 -75 -31 -132t-88 -88.5t-131 -31.5h-106q-74 0 -130 31.5t-87 88.5t-31 132v456h138v-452q0 -60 30.5 -97t79.5 -37h106q50 0 81 37t31 97v452h138v-137h15q28 0 44.5 23.5t16.5 65.5v48h127z" />
    <glyph glyph-name="uhorn" unicode="&#x1b0;" horiz-adv-x="726" 
d="M741 498v-48q0 -95 -47 -148t-131 -53h-23v-249h-126v64q-23 -32 -56.5 -52t-64.5 -20h-66q-79 0 -127 53.5t-48 140.5v313h136v-315q0 -33 16.5 -53.5t43.5 -20.5h58q33 0 60 27.5t38 72.5v289h136v-138h13q28 0 44.5 23.5t16.5 65.5v48h127z" />
    <glyph glyph-name="uni01CD" unicode="&#x1cd;" horiz-adv-x="681" 
d="M472 163h-262l-62 -163h-144l274 700h62q65 0 88 -60l249 -640h-144zM247 279h188l-93 252h-1zM146 955h120l75 -97l74 97h121l-151 -186h-89z" />
    <glyph glyph-name="uni01CE" unicode="&#x1ce;" horiz-adv-x="584" 
d="M90 31q-48 39 -48 103v37q0 63 50 101.5t132 38.5h61q26 0 56 -7t55 -19v52q0 25 -16.5 40.5t-43.5 15.5h-86q-28 0 -45 -13t-17 -35h-132q0 73 53.5 117.5t140.5 44.5h86q88 0 142 -46.5t54 -123.5v-337h-126v60q-24 -31 -59 -49.5t-69 -18.5h-62q-78 0 -126 39zM288 96
q37 0 66 19t42 51v17q-16 12 -44.5 19t-60.5 7h-63q-24 0 -39 -12t-15 -32v-26q0 -19 16.5 -31t43.5 -12h54zM103 754h120l75 -97l74 97h121l-151 -186h-89z" />
    <glyph glyph-name="uni01CF" unicode="&#x1cf;" horiz-adv-x="282" 
d="M72 700h138v-700h-138v700zM-54 955h120l75 -97l74 97h121l-151 -186h-89z" />
    <glyph glyph-name="uni01D0" unicode="&#x1d0;" horiz-adv-x="264" 
d="M64 499h136v-499h-136v499zM-63 754h120l75 -97l74 97h121l-151 -186h-89z" />
    <glyph glyph-name="uni01D1" unicode="&#x1d1;" horiz-adv-x="724" 
d="M169.5 25.5q-60.5 33.5 -94 94t-33.5 140.5v180q0 80 33.5 140.5t94 94t139.5 33.5h106q79 0 139.5 -33.5t94 -94t33.5 -140.5v-180q0 -80 -33.5 -140.5t-94 -94t-139.5 -33.5h-106q-79 0 -139.5 33.5zM415 114q58 0 93.5 42t35.5 110v168q0 68 -35.5 110t-93.5 42h-106
q-58 0 -93.5 -42t-35.5 -110v-168q0 -68 35.5 -110t93.5 -42h106zM167 955h120l75 -97l74 97h121l-151 -186h-89z" />
    <glyph glyph-name="uni01D2" unicode="&#x1d2;" horiz-adv-x="594" 
d="M139.5 16.5q-48.5 24.5 -75 69.5t-26.5 104v117q0 59 27 104.5t75.5 70.5t111.5 25h90q63 0 111.5 -25t75.5 -70.5t27 -104.5v-117q0 -59 -27 -104t-75.5 -69.5t-112.5 -24.5h-90q-63 0 -111.5 24.5zM339 109q37 0 59 25.5t22 66.5v97q0 41 -22 66.5t-58 25.5h-86
q-36 0 -58 -25.5t-22 -66.5v-97q0 -41 22 -66.5t57 -25.5h86zM102 754h120l75 -97l74 97h121l-151 -186h-89z" />
    <glyph glyph-name="uni01D3" unicode="&#x1d3;" horiz-adv-x="720" 
d="M176 23.5q-56 31.5 -87 88.5t-31 132v456h138v-452q0 -60 30.5 -97t79.5 -37h106q50 0 81 37t31 97v452h138v-456q0 -75 -31 -132t-88 -88.5t-131 -31.5h-106q-74 0 -130 31.5zM165 955h120l75 -97l74 97h121l-151 -186h-89z" />
    <glyph glyph-name="uni01D4" unicode="&#x1d4;" horiz-adv-x="598" 
d="M100 45.5q-48 53.5 -48 140.5v313h136v-315q0 -33 16.5 -53.5t43.5 -20.5h58q33 0 60 27.5t38 72.5v289h136v-499h-126v64q-23 -32 -56.5 -52t-64.5 -20h-66q-79 0 -127 53.5zM104 754h120l75 -97l74 97h121l-151 -186h-89z" />
    <glyph glyph-name="uni01D5" unicode="&#x1d5;" horiz-adv-x="720" 
d="M176 23.5q-56 31.5 -87 88.5t-31 132v456h138v-452q0 -60 30.5 -97t79.5 -37h106q50 0 81 37t31 97v452h138v-456q0 -75 -31 -132t-88 -88.5t-131 -31.5h-106q-74 0 -130 31.5zM200 1079h320v-100h-320v100zM184 790.5q-20 19.5 -20 51.5t20 51.5t52 19.5q31 0 51 -19.5
t20 -51.5q0 -31 -20 -51t-51 -20q-32 0 -52 19.5zM433 791q-20 20 -20 51q0 32 20 51.5t51 19.5q32 0 52 -19.5t20 -51.5t-20 -51.5t-52 -19.5q-31 0 -51 20z" />
    <glyph glyph-name="uni01D6" unicode="&#x1d6;" horiz-adv-x="598" 
d="M100 45.5q-48 53.5 -48 140.5v313h136v-315q0 -33 16.5 -53.5t43.5 -20.5h58q33 0 60 27.5t38 72.5v289h136v-499h-126v64q-23 -32 -56.5 -52t-64.5 -20h-66q-79 0 -127 53.5zM139 878h320v-100h-320v100zM123 589.5q-20 19.5 -20 51.5t20 51.5t52 19.5q31 0 51 -19.5
t20 -51.5q0 -31 -20 -51t-51 -20q-32 0 -52 19.5zM372 590q-20 20 -20 51q0 32 20 51.5t51 19.5q32 0 52 -19.5t20 -51.5t-20 -51.5t-52 -19.5q-31 0 -51 20z" />
    <glyph glyph-name="uni01D7" unicode="&#x1d7;" horiz-adv-x="720" 
d="M176 23.5q-56 31.5 -87 88.5t-31 132v456h138v-452q0 -60 30.5 -97t79.5 -37h106q50 0 81 37t31 97v452h138v-456q0 -75 -31 -132t-88 -88.5t-131 -31.5h-106q-74 0 -130 31.5zM387 1107h126l-100 -150h-108zM184 790.5q-20 19.5 -20 51.5t20 51.5t52 19.5q31 0 51 -19.5
t20 -51.5q0 -31 -20 -51t-51 -20q-32 0 -52 19.5zM433 791q-20 20 -20 51q0 32 20 51.5t51 19.5q32 0 52 -19.5t20 -51.5t-20 -51.5t-52 -19.5q-31 0 -51 20z" />
    <glyph glyph-name="uni01D8" unicode="&#x1d8;" horiz-adv-x="598" 
d="M100 45.5q-48 53.5 -48 140.5v313h136v-315q0 -33 16.5 -53.5t43.5 -20.5h58q33 0 60 27.5t38 72.5v289h136v-499h-126v64q-23 -32 -56.5 -52t-64.5 -20h-66q-79 0 -127 53.5zM326 906h126l-100 -150h-108zM123 589.5q-20 19.5 -20 51.5t20 51.5t52 19.5q31 0 51 -19.5
t20 -51.5q0 -31 -20 -51t-51 -20q-32 0 -52 19.5zM372 590q-20 20 -20 51q0 32 20 51.5t51 19.5q32 0 52 -19.5t20 -51.5t-20 -51.5t-52 -19.5q-31 0 -51 20z" />
    <glyph glyph-name="uni01D9" unicode="&#x1d9;" horiz-adv-x="720" 
d="M176 23.5q-56 31.5 -87 88.5t-31 132v456h138v-452q0 -60 30.5 -97t79.5 -37h106q50 0 81 37t31 97v452h138v-456q0 -75 -31 -132t-88 -88.5t-131 -31.5h-106q-74 0 -130 31.5zM193 1115h103l64 -88l63 88h104l-127 -168h-81zM184 790.5q-20 19.5 -20 51.5t20 51.5
t52 19.5q31 0 51 -19.5t20 -51.5q0 -31 -20 -51t-51 -20q-32 0 -52 19.5zM433 791q-20 20 -20 51q0 32 20 51.5t51 19.5q32 0 52 -19.5t20 -51.5t-20 -51.5t-52 -19.5q-31 0 -51 20z" />
    <glyph glyph-name="uni01DA" unicode="&#x1da;" horiz-adv-x="598" 
d="M100 45.5q-48 53.5 -48 140.5v313h136v-315q0 -33 16.5 -53.5t43.5 -20.5h58q33 0 60 27.5t38 72.5v289h136v-499h-126v64q-23 -32 -56.5 -52t-64.5 -20h-66q-79 0 -127 53.5zM132 914h103l64 -88l63 88h104l-127 -168h-81zM123 589.5q-20 19.5 -20 51.5t20 51.5t52 19.5
q31 0 51 -19.5t20 -51.5q0 -31 -20 -51t-51 -20q-32 0 -52 19.5zM372 590q-20 20 -20 51q0 32 20 51.5t51 19.5q32 0 52 -19.5t20 -51.5t-20 -51.5t-52 -19.5q-31 0 -51 20z" />
    <glyph glyph-name="uni01DB" unicode="&#x1db;" horiz-adv-x="720" 
d="M176 23.5q-56 31.5 -87 88.5t-31 132v456h138v-452q0 -60 30.5 -97t79.5 -37h106q50 0 81 37t31 97v452h138v-456q0 -75 -31 -132t-88 -88.5t-131 -31.5h-106q-74 0 -130 31.5zM210 1107h126l82 -150h-108zM184 790.5q-20 19.5 -20 51.5t20 51.5t52 19.5q31 0 51 -19.5
t20 -51.5q0 -31 -20 -51t-51 -20q-32 0 -52 19.5zM433 791q-20 20 -20 51q0 32 20 51.5t51 19.5q32 0 52 -19.5t20 -51.5t-20 -51.5t-52 -19.5q-31 0 -51 20z" />
    <glyph glyph-name="uni01DC" unicode="&#x1dc;" horiz-adv-x="598" 
d="M100 45.5q-48 53.5 -48 140.5v313h136v-315q0 -33 16.5 -53.5t43.5 -20.5h58q33 0 60 27.5t38 72.5v289h136v-499h-126v64q-23 -32 -56.5 -52t-64.5 -20h-66q-79 0 -127 53.5zM149 906h126l82 -150h-108zM123 589.5q-20 19.5 -20 51.5t20 51.5t52 19.5q31 0 51 -19.5
t20 -51.5q0 -31 -20 -51t-51 -20q-32 0 -52 19.5zM372 590q-20 20 -20 51q0 32 20 51.5t51 19.5q32 0 52 -19.5t20 -51.5t-20 -51.5t-52 -19.5q-31 0 -51 20z" />
    <glyph glyph-name="Gcaron" unicode="&#x1e6;" horiz-adv-x="712" 
d="M166 25q-59 33 -91.5 93.5t-32.5 139.5v184q0 79 32.5 139.5t92 93.5t137.5 33h112q75 0 132 -30t88.5 -85t31.5 -127h-136q0 54 -32 87t-84 33h-112q-56 0 -90 -41.5t-34 -108.5v-172q0 -67 33.5 -108.5t88.5 -41.5h118q51 0 84.5 37t33.5 92v22h-194v120h330v-142
q0 -73 -32 -130t-90 -89t-132 -32h-118q-77 0 -136 33zM162 955h120l75 -97l74 97h121l-151 -186h-89z" />
    <glyph glyph-name="gcaron" unicode="&#x1e7;" horiz-adv-x="606" 
d="M119 -157.5q-53 45.5 -59 119.5h134q2 -22 18 -35.5t40 -13.5h90q31 0 50.5 25.5t19.5 66.5v47q-20 -22 -48.5 -35t-54.5 -13h-69q-91 0 -146.5 54t-55.5 142v102q0 61 26 107.5t73 72t108 25.5h58q34 0 66.5 -16t52.5 -42v50h126v-494q0 -62 -25.5 -109t-72.5 -73
t-108 -26h-90q-80 0 -133 45.5zM318 119q38 0 64 31.5t30 82.5v69q-4 40 -27 64t-58 24h-70q-37 0 -60 -27t-23 -71v-82q0 -41 21 -66t54 -25h69zM101 754h120l75 -97l74 97h121l-151 -186h-89z" />
    <glyph glyph-name="Aringacute" unicode="&#x1fa;" horiz-adv-x="681" 
d="M472 163h-262l-62 -163h-144l274 700h62q65 0 88 -60l249 -640h-144zM247 279h188l-93 252h-1zM252 781q-34 33 -34 87t34 87t89 33t89 -33t34 -87t-34 -87t-89 -33t-89 33zM373 836.5q12 12.5 12 31.5q0 20 -12 32t-32 12t-32 -12t-12 -32q0 -19 12 -31.5t32 -12.5
t32 12.5zM372 1223h150l-118 -180h-130z" />
    <glyph glyph-name="aringacute" unicode="&#x1fb;" horiz-adv-x="584" 
d="M90 31q-48 39 -48 103v37q0 63 50 101.5t132 38.5h61q26 0 56 -7t55 -19v52q0 25 -16.5 40.5t-43.5 15.5h-86q-28 0 -45 -13t-17 -35h-132q0 73 53.5 117.5t140.5 44.5h86q88 0 142 -46.5t54 -123.5v-337h-126v60q-24 -31 -59 -49.5t-69 -18.5h-62q-78 0 -126 39zM288 96
q37 0 66 19t42 51v17q-16 12 -44.5 19t-60.5 7h-63q-24 0 -39 -12t-15 -32v-26q0 -19 16.5 -31t43.5 -12h54zM209 580q-34 33 -34 87t34 87t89 33t89 -33t34 -87t-34 -87t-89 -33t-89 33zM330 635.5q12 12.5 12 31.5q0 20 -12 32t-32 12t-32 -12t-12 -32q0 -19 12 -31.5
t32 -12.5t32 12.5zM329 1022h150l-118 -180h-130z" />
    <glyph glyph-name="AEacute" unicode="&#x1fc;" horiz-adv-x="961" 
d="M543 580v-162h346v-120h-346v-178h386v-120h-421q-44 0 -70.5 25.5t-26.5 68.5v72h-189l-91 -166h-141l386 700h553v-120h-386zM423 284v270l-143 -270h143zM550 949h150l-118 -180h-130z" />
    <glyph glyph-name="aeacute" unicode="&#x1fd;" horiz-adv-x="930" 
d="M91.5 31q-49.5 39 -49.5 102v38q0 63 50 101.5t132 38.5h61q25 0 55.5 -7t55.5 -19v52q0 25 -16.5 40.5t-43.5 15.5h-86q-28 0 -45 -13t-17 -35h-132q0 73 53.5 117.5t140.5 44.5h86q40 0 76.5 -15t57.5 -41h1q21 26 59.5 41t80.5 15h72q63 0 111.5 -25t75 -71t26.5 -106
v-102h-364v-14q0 -38 22 -60.5t59 -22.5h68q35 0 57 15.5t22 40.5h134q0 -50 -27 -89t-75.5 -60t-112.5 -21h-66q-47 0 -88.5 19.5t-63.5 50.5h-1q-26 -32 -67 -51t-81 -19h-92q-79 0 -128.5 39zM761 301v6q0 39 -21.5 62.5t-56.5 23.5h-72q-35 0 -57 -25t-22 -65v-2h229z
M288 96q37 0 66 19t42 51v17q-16 12 -44.5 19t-60.5 7h-61q-26 0 -41 -11.5t-15 -32.5v-26q0 -19 16.5 -31t43.5 -12h54zM502 748h150l-118 -180h-130z" />
    <glyph glyph-name="Oslashacute" unicode="&#x1fe;" horiz-adv-x="724" 
d="M609 633q35 -35 54 -84t19 -109v-180q0 -80 -33.5 -140.5t-94 -94t-139.5 -33.5h-106q-63 0 -114 21l-47 -71h-111l81 121q-37 36 -56.5 86t-19.5 111v180q0 80 33.5 140.5t94 94t139.5 33.5h106q64 0 118 -23l44 66h111zM198 183l263 395q-22 8 -46 8h-106
q-58 0 -93.5 -42t-35.5 -110v-168q0 -48 18 -83zM528 512l-261 -391q18 -7 42 -7h106q58 0 93.5 42t35.5 110v168q0 46 -16 78zM395 949h150l-118 -180h-130z" />
    <glyph glyph-name="oslashacute" unicode="&#x1ff;" horiz-adv-x="594" 
d="M539.5 390.5q16.5 -37.5 16.5 -83.5v-117q0 -59 -27 -104t-75.5 -69.5t-112.5 -24.5h-90q-43 0 -74 10l-33 -47h-106l62 88q-30 26 -46 63.5t-16 83.5v117q0 59 27 104.5t75.5 70.5t111.5 25h90q43 0 74 -10l34 48h106l-63 -90q30 -27 46.5 -64.5zM181 160l161 230h-2
h-86q-36 0 -58 -25.5t-22 -66.5v-97q0 -24 7 -41zM420 298q0 21 -7 42l-161 -231h1h86q37 0 59 25.5t22 66.5v97zM328 748h150l-118 -180h-130z" />
    <glyph glyph-name="uni0218" unicode="&#x218;" horiz-adv-x="656" 
d="M100 53.5q-62 61.5 -62 171.5h136q0 -52 26.5 -81.5t73.5 -29.5h111q44 0 71.5 18.5t27.5 49.5v34q0 49 -72 61l-184 31q-90 15 -136.5 57.5t-46.5 108.5v56q0 53 28.5 93.5t81 62.5t121.5 22h113q65 0 115 -27t77.5 -75.5t27.5 -112.5h-136q0 42 -23 67.5t-61 25.5h-113
q-42 0 -67.5 -18t-25.5 -48v-27q0 -50 69 -62l183 -32q91 -16 139 -56.5t48 -104.5v-66q0 -53 -29.5 -94t-82.5 -63.5t-123 -22.5h-115q-110 0 -172 61.5zM192 -240l30 27q53 47 53 112v39h136v-39q0 -69 -23.5 -120t-72.5 -91l-34 -27z" />
    <glyph glyph-name="uni0219" unicode="&#x219;" horiz-adv-x="549" 
d="M89 40q-55 48 -55 126h134q0 -27 18.5 -43.5t48.5 -16.5h90q60 0 60 33v17q0 10 -10 18.5t-27 11.5l-173 30q-61 10 -96.5 43.5t-35.5 78.5v33q0 64 52.5 100t146.5 36h78q84 0 135.5 -44.5t51.5 -117.5h-134q0 22 -14.5 35t-38.5 13h-76q-65 0 -65 -30v-16
q0 -11 8.5 -18.5t24.5 -10.5l182 -33q57 -10 92 -42.5t35 -73.5v-36q0 -65 -53.5 -103t-142.5 -38h-90q-91 0 -146 48zM141 -240l30 27q53 47 53 112v39h136v-39q0 -69 -23.5 -120t-72.5 -91l-34 -27z" />
    <glyph glyph-name="uni021A" unicode="&#x21a;" horiz-adv-x="606" 
d="M234 580h-222v120h582v-120h-222v-580h-138v580zM150 -240l30 27q53 47 53 112v39h136v-39q0 -69 -23.5 -120t-72.5 -91l-34 -27z" />
    <glyph glyph-name="uni021B" unicode="&#x21b;" horiz-adv-x="410" 
d="M147 40q-41 40 -41 124v219h-88v116h92v151h132v-151h130v-116h-130v-213q0 -28 10.5 -41t33.5 -13h86v-116h-96q-88 0 -129 40zM91 -240l30 27q53 47 53 112v39h136v-39q0 -69 -23.5 -120t-72.5 -91l-34 -27z" />
    <glyph glyph-name="uni0237" unicode="&#x237;" horiz-adv-x="288" 
d="M-44 -83h67q35 0 50 22t15 74v488h136v-483q0 -116 -46.5 -166.5t-154.5 -50.5h-67v116z" />
    <glyph glyph-name="uni0251" unicode="&#x251;" horiz-adv-x="614" 
d="M92 46q-54 54 -54 142v114q0 61 26 107.5t73 72t108 25.5h58q34 0 66.5 -16t52.5 -42v50h126v-337q0 -23 9 -33.5t31 -10.5h26v-118h-52q-41 0 -71 16t-43 44h-1q-20 -28 -54.5 -48t-72.5 -20h-85q-89 0 -143 54zM318 109q38 0 64 31t30 81v81q-4 40 -27 64t-58 24h-70
q-37 0 -60 -27t-23 -71v-94q0 -40 20.5 -64.5t54.5 -24.5h69z" />
    <glyph glyph-name="uni0259" unicode="&#x259;" horiz-adv-x="578" 
d="M135 17q-48 25 -74.5 71t-26.5 106v102h371v14q0 37 -22.5 60t-58.5 23h-76q-35 0 -56.5 -15.5t-21.5 -40.5h-134q0 50 27 89t75.5 60t111.5 21h74q64 0 113 -23.5t76 -66t27 -97.5v-129q0 -59 -27 -104t-75.5 -70t-111.5 -25h-80q-63 0 -111 25zM326 106q35 0 57 25
t22 65v2h-236v-6q0 -39 21 -62.5t56 -23.5h80z" />
    <glyph glyph-name="uni02BB" unicode="&#x2bb;" horiz-adv-x="241" 
d="M12 549q0 69 23.5 120t72.5 91l34 27l89 -99l-30 -27q-53 -47 -53 -112v-49h-136v49z" />
    <glyph glyph-name="uni02BC" unicode="&#x2bc;" horiz-adv-x="241" 
d="M11 581l30 27q53 47 53 112v49h136v-49q0 -69 -23.5 -120t-72.5 -91l-34 -27z" />
    <glyph glyph-name="uni02BE" unicode="&#x2be;" 
d="M0 593q20 0 32 12.5t12 31.5q0 20 -12 32t-32 12v76q56 0 90 -33t34 -87t-34 -87t-90 -33v76z" />
    <glyph glyph-name="uni02BF" unicode="&#x2bf;" 
d="M-90 550q-34 33 -34 87t34 87t90 33v-76q-20 0 -32 -12t-12 -32q0 -19 12 -31.5t32 -12.5v-76q-56 0 -90 33z" />
    <glyph glyph-name="circumflex" unicode="&#x2c6;" horiz-adv-x="454" 
d="M271 754l151 -186h-121l-74 97l-75 -97h-120l150 186h89z" />
    <glyph glyph-name="caron" unicode="&#x2c7;" horiz-adv-x="454" 
d="M32 754h120l75 -97l74 97h121l-151 -186h-89z" />
    <glyph glyph-name="uni02C8" unicode="&#x2c8;" 
d="M-68 727h136v-213h-136v213z" />
    <glyph glyph-name="uni02C9" unicode="&#x2c9;" horiz-adv-x="492" 
d="M42 688h408v-108h-408v108z" />
    <glyph glyph-name="uni02CA" unicode="&#x2ca;" 
d="M-118 583l145 170l91 -85l-164 -151z" />
    <glyph glyph-name="uni02CB" unicode="&#x2cb;" 
d="M-118 668l91 85l145 -170l-72 -66z" />
    <glyph glyph-name="uni02CC" unicode="&#x2cc;" 
d="M-68 -40h136v-213h-136v213z" />
    <glyph glyph-name="breve" unicode="&#x2d8;" horiz-adv-x="418" 
d="M79 601.5q-47 41.5 -47 109.5v20h106v-20q0 -28 18 -44.5t47 -16.5h12q29 0 47 16.5t18 44.5v20h106v-20q0 -68 -47 -109.5t-124 -41.5h-12q-77 0 -124 41.5z" />
    <glyph glyph-name="dotaccent" unicode="&#x2d9;" horiz-adv-x="230" 
d="M55 582.5q-23 22.5 -23 59.5q0 38 22.5 60.5t60.5 22.5t60.5 -22.5t22.5 -60.5q0 -37 -23 -59.5t-60 -22.5t-60 22.5z" />
    <glyph glyph-name="ring" unicode="&#x2da;" horiz-adv-x="310" 
d="M66 580q-34 33 -34 87t34 87t89 33t89 -33t34 -87t-34 -87t-89 -33t-89 33zM187 635.5q12 12.5 12 31.5q0 20 -12 32t-32 12t-32 -12t-12 -32q0 -19 12 -31.5t32 -12.5t32 12.5z" />
    <glyph glyph-name="ogonek" unicode="&#x2db;" horiz-adv-x="298" 
d="M68 -203q-36 28 -36 75v14q0 33 19 64t51 50h110q-32 -18 -51 -44t-19 -51v-14q0 -15 12.5 -24.5t32.5 -9.5h15q17 0 34.5 5.5t29.5 14.5v-84q-14 -11 -38.5 -17.5t-49.5 -6.5h-15q-59 0 -95 28z" />
    <glyph glyph-name="tilde" unicode="&#x2dc;" horiz-adv-x="441" 
d="M244 570q-18 10 -39 28q-25 23 -39 23h-6q-13 0 -21 -14.5t-8 -38.5h-99q-1 67 32 108t89 41h6q24 0 42 -10.5t42 -29.5q23 -21 34 -21h6q12 0 19.5 14.5t7.5 38.5h99q0 -67 -32 -108t-86 -41h-6q-23 0 -41 10z" />
    <glyph glyph-name="hungarumlaut" unicode="&#x2dd;" horiz-adv-x="500" 
d="M130 748h144l-118 -180h-124zM324 748h144l-118 -180h-124z" />
    <glyph glyph-name="gravecomb" unicode="&#x300;" 
d="M-184 748h150l98 -180h-130z" />
    <glyph glyph-name="acutecomb" unicode="&#x301;" 
d="M31 748h150l-118 -180h-130z" />
    <glyph glyph-name="uni0302" unicode="&#x302;" 
d="M-45 754h89l151 -186h-121l-74 97l-75 -97h-120z" />
    <glyph glyph-name="tildecomb" unicode="&#x303;" 
d="M23 570q-18 10 -39 28q-25 23 -39 23h-6q-13 0 -21 -14.5t-8 -38.5h-99q-1 67 32 108t89 41h6q24 0 42 -10.5t42 -29.5q23 -21 34 -21h6q12 0 19.5 14.5t7.5 38.5h99q0 -67 -32 -108t-86 -41h-6q-23 0 -41 10z" />
    <glyph glyph-name="uni0304" unicode="&#x304;" 
d="M-160 689h320v-106h-320v106z" />
    <glyph glyph-name="uni0306" unicode="&#x306;" 
d="M-130 601.5q-47 41.5 -47 109.5v20h106v-20q0 -28 18 -44.5t47 -16.5h12q29 0 47 16.5t18 44.5v20h106v-20q0 -68 -47 -109.5t-124 -41.5h-12q-77 0 -124 41.5z" />
    <glyph glyph-name="uni0307" unicode="&#x307;" 
d="M-60 582.5q-23 22.5 -23 59.5q0 38 22.5 60.5t60.5 22.5t60.5 -22.5t22.5 -60.5q0 -37 -23 -59.5t-60 -22.5t-60 22.5z" />
    <glyph glyph-name="uni0308" unicode="&#x308;" 
d="M-176 589.5q-20 19.5 -20 51.5t20 51.5t52 19.5q31 0 51 -19.5t20 -51.5q0 -31 -20 -51t-51 -20q-32 0 -52 19.5zM73 590q-20 20 -20 51q0 32 20 51.5t51 19.5q32 0 52 -19.5t20 -51.5t-20 -51.5t-52 -19.5q-31 0 -51 20z" />
    <glyph glyph-name="hookabovecomb" unicode="&#x309;" 
d="M-57 580q0 21 13.5 33.5t40.5 26.5q22 13 33 22.5t11 23.5v12q0 29 -32 29h-19q-37 0 -37 -39h-92q0 123 129 123h19q63 0 95.5 -28.5t32.5 -84.5v-12q0 -30 -14.5 -46.5t-41.5 -33.5q-16 -11 -24 -18.5t-8 -17.5v-12h-106v22z" />
    <glyph glyph-name="uni030A" unicode="&#x30a;" 
d="M-89 580q-34 33 -34 87t34 87t89 33t89 -33t34 -87t-34 -87t-89 -33t-89 33zM32 635.5q12 12.5 12 31.5q0 20 -12 32t-32 12t-32 -12t-12 -32q0 -19 12 -31.5t32 -12.5t32 12.5z" />
    <glyph glyph-name="uni030B" unicode="&#x30b;" 
d="M-70 748h144l-118 -180h-124zM124 748h144l-118 -180h-124z" />
    <glyph glyph-name="uni030C" unicode="&#x30c;" 
d="M-195 754h120l75 -97l74 97h121l-151 -186h-89z" />
    <glyph glyph-name="uni031B" unicode="&#x31b;" 
d="M-114 486h40q28 0 44.5 23.5t16.5 65.5v48h127v-48q0 -95 -47 -148t-131 -53h-50v112z" />
    <glyph glyph-name="dotbelowcomb" unicode="&#x323;" 
d="M-60 -204.5q-23 22.5 -23 59.5t22.5 60t60.5 23t60.5 -23t22.5 -60t-23 -59.5t-60 -22.5t-60 22.5z" />
    <glyph glyph-name="uni0324" unicode="&#x324;" 
d="M-176 -184.5q-20 19.5 -20 51.5t20 51.5t52 19.5q31 0 51 -20t20 -51q0 -32 -20 -51.5t-51 -19.5q-32 0 -52 19.5zM73 -184.5q-20 19.5 -20 51.5q0 31 20 51t51 20q32 0 52 -19.5t20 -51.5t-20 -51.5t-52 -19.5q-31 0 -51 19.5z" />
    <glyph glyph-name="uni0326" unicode="&#x326;" 
d="M-358 -240l30 27q53 47 53 112v39h136v-39q0 -69 -23.5 -120t-72.5 -91l-34 -27z" />
    <glyph glyph-name="uni0327" unicode="&#x327;" 
d="M-108 -168h86q18 0 29 6.5t11 16.5v15q0 9 -9 14.5t-24 5.5h-66v52l38 90h100l-35 -78h10q40 0 64 -23t24 -60v-20q0 -46 -36 -73.5t-95 -27.5h-97v82z" />
    <glyph glyph-name="uni0328" unicode="&#x328;" 
d="M-81 -203q-36 28 -36 75v14q0 33 19 64t51 50h110q-32 -18 -51 -44t-19 -51v-14q0 -15 12.5 -24.5t32.5 -9.5h15q17 0 34.5 5.5t29.5 14.5v-84q-14 -11 -38.5 -17.5t-49.5 -6.5h-15q-59 0 -95 28z" />
    <glyph glyph-name="uni032E" unicode="&#x32e;" 
d="M-130 -193.5q-47 41.5 -47 109.5v20h106v-20q0 -28 18 -44.5t47 -16.5h12q29 0 47 16.5t18 44.5v20h106v-20q0 -68 -47 -109.5t-124 -41.5h-12q-77 0 -124 41.5z" />
    <glyph glyph-name="uni0331" unicode="&#x331;" 
d="M-160 -82h320v-108h-320v108z" />
    <glyph glyph-name="uni0394" unicode="&#x394;" horiz-adv-x="733" 
d="M38 97l280 603h104l273 -603v-97h-657v97zM549 118l-179 409l-186 -409h365z" />
    <glyph glyph-name="uni03A9" unicode="&#x3a9;" horiz-adv-x="792" 
d="M38 118h189v47q-74 15 -115.5 69t-41.5 136v100q0 112 71 175t197 63h114q125 0 195.5 -65.5t70.5 -182.5v-90q0 -82 -40.5 -136.5t-112.5 -69.5v-46h189v-118h-323v265h45q49 0 76.5 28.5t27.5 80.5v86q0 60 -34 94t-94 34h-114q-61 0 -95.5 -31t-34.5 -87v-96
q0 -52 28.5 -80.5t79.5 -28.5h45v-265h-323v118z" />
    <glyph glyph-name="uni03BC" unicode="&#x3bc;" horiz-adv-x="598" 
d="M540 499v-499h-126v64q-23 -32 -55.5 -52t-62.5 -20h-46q-36 0 -64 22v-197h-134v682h136v-315q0 -33 16.5 -53.5t43.5 -20.5h58q33 0 60 27.5t38 72.5v289h136z" />
    <glyph glyph-name="pi" unicode="&#x3c0;" horiz-adv-x="749" 
d="M591 383v-213q0 -28 10.5 -41t33.5 -13h76v-116h-86q-88 0 -129 40t-41 124v219h-166v-383h-136v383h-115v116h673v-116h-120z" />
    <glyph glyph-name="uni0E01" unicode="&#xe01;" horiz-adv-x="636" 
d="M108 249q0 31 -22 54t-58 29q11 67 44.5 118.5t83.5 79.5t109 28h125q83 0 133.5 -49.5t50.5 -130.5v-378h-136v370q0 32 -18.5 51t-49.5 19h-105q-26 0 -51 -20t-40 -52q31 -16 50.5 -49t19.5 -70v-249h-136v249z" />
    <glyph glyph-name="uni0E02" unicode="&#xe02;" horiz-adv-x="618" 
d="M214 24q-25 24 -25 64v124q0 13 7.5 23.5t23.5 26.5q28 28 43.5 54t15.5 70v19q0 34 -20 55t-53 21h-16q-19 0 -35 -5.5t-24 -14.5v-1q12 2 23 2q40 0 64 -25.5t24 -66.5q0 -47 -30.5 -75.5t-80.5 -28.5q-49 0 -79 31t-30 81v26q0 73 45 113.5t124 40.5h34
q71 0 114.5 -40.5t43.5 -107.5v-26q0 -42 -11 -69.5t-30 -53.5q-10 -13 -14.5 -22t-4.5 -19v-108h62q35 0 35 47v391h136v-398q0 -72 -40.5 -112t-113.5 -40h-121q-42 0 -67 24zM161 341q11 11 11 30q0 18 -11 29t-30 11t-30 -11t-11 -29q0 -19 11 -30t30 -11t30 11z" />
    <glyph glyph-name="uni0E03" unicode="&#xe03;" horiz-adv-x="630" 
d="M226.5 24q-25.5 24 -25.5 64v116q0 17 9.5 34t29.5 42q28 37 42 64.5t14 61.5v20q0 52 -19 52h-8l-48 -44l-51 46h-8q-32 0 -40 -39v-2l20 2q41 0 66 -25t25 -66q0 -45 -29.5 -72.5t-77.5 -27.5t-77 29t-29 77v48q0 73 35 113.5t98 40.5h26l44 -42l41 42h29q53 0 78 -32
t25 -100v-20q0 -42 -9.5 -69t-27.5 -56q-12 -20 -18 -34.5t-6 -32.5v-102h62q35 0 35 47v391h136v-398q0 -72 -40.5 -112t-113.5 -40h-121q-41 0 -66.5 24zM155 321q11 11 11 29q0 17 -11 28t-29 11t-29 -11t-11 -28q0 -18 11 -29t29 -11t29 11z" />
    <glyph glyph-name="uni0E04" unicode="&#xe04;" horiz-adv-x="654" 
d="M492.5 533q47.5 -25 73.5 -70.5t26 -104.5v-358h-134v358q0 37 -20.5 59.5t-54.5 22.5h-112q-37 0 -60 -22.5t-23 -59.5v-169h2l35 83q32 74 100 74q51 0 81.5 -29.5t30.5 -77.5t-29.5 -77.5t-78.5 -29.5q-19 0 -36 5.5t-28 15.5l-71 -153h-132v358q0 59 26 104.5
t73.5 70.5t109.5 25h112q62 0 109.5 -25zM296 270.5q-12 -11.5 -12 -31.5q0 -19 12 -31t31 -12q20 0 31.5 12t11.5 31q0 20 -11.5 31.5t-31.5 11.5q-19 0 -31 -11.5z" />
    <glyph glyph-name="uni0E05" unicode="&#xe05;" horiz-adv-x="660" 
d="M551 510q47 -48 47 -134v-376h-134v374q0 31 -13 48.5t-35 17.5h-10l-77 -54l-77 54h-10q-24 0 -39 -18.5t-15 -50.5v-182h2l35 83q32 74 101 74q51 0 82 -29.5t31 -77.5t-29.5 -77.5t-78.5 -29.5q-40 0 -64 21l-73 -153h-132v373q0 87 46.5 136t129.5 49h22l69 -53
l69 53h22q84 0 131 -48zM298 270.5q-12 -11.5 -12 -31.5q0 -19 12 -31t31 -12q20 0 31.5 12t11.5 31q0 20 -11.5 31.5t-31.5 11.5q-19 0 -31 -11.5z" />
    <glyph glyph-name="uni0E06" unicode="&#xe06;" horiz-adv-x="675" 
d="M118 23.5q-38 33.5 -38 89.5q0 62 47 99.5t126 37.5v1q0 12 5.5 25t16.5 31q15 27 23.5 49.5t8.5 49.5v18q0 28 -3 41t-17 13h-9l-46 -44l-52 46h-8q-17 0 -28.5 -10t-15.5 -29v-2l20 2q41 0 66 -25t25 -66q0 -45 -29.5 -72.5t-77.5 -27.5t-77 29t-29 77v48q0 72 37 113
t100 41h26l43 -42l42 42h29q56 0 85 -33.5t29 -98.5v-20q0 -35 -7.5 -60t-21.5 -53q-10 -20 -14.5 -34t-4.5 -30v-10q53 -20 110 -72v403h134v-550h-122q-33 46 -74.5 82t-79.5 49v-100q-17 -19 -48 -30t-70 -11q-63 0 -101 33.5zM161 321q11 11 11 29q0 17 -11 28t-29 11
t-29 -11t-11 -28q0 -18 11 -29t29 -11t29 11zM234 71v99h-8q-28 0 -44 -15t-16 -42q0 -23 11 -35t31 -12q18 0 26 5z" />
    <glyph glyph-name="uni0E07" unicode="&#xe07;" horiz-adv-x="542" 
d="M444.5 526q35.5 -34 35.5 -89v-311q0 -59 -32 -92.5t-90 -33.5h-78q-60 0 -89 52l-177 318h144l141 -256h30q8 0 11.5 5.5t3.5 17.5v180h-1q-55 0 -88 33t-33 87q0 55 35.5 89t93.5 34t93.5 -34zM384.5 404.5q12.5 12.5 12.5 32.5q0 21 -12.5 33.5t-33.5 12.5
t-33.5 -12.5t-12.5 -33.5q0 -20 12.5 -32.5t33.5 -12.5t33.5 12.5z" />
    <glyph glyph-name="uni0E08" unicode="&#xe08;" horiz-adv-x="607" 
d="M492.5 507.5q52.5 -50.5 52.5 -133.5v-222q0 -72 -40.5 -112t-113.5 -40h-108q-42 0 -68 24.5t-26 63.5v41q-51 0 -82.5 31t-31.5 81q0 52 34 83.5t89 31.5t88 -31.5t33 -83.5v-129h57q19 0 27 12.5t8 41.5v210q0 29 -15.5 46.5t-40.5 17.5h-125q-33 0 -53.5 -17
t-20.5 -45h-134q0 53 26 94t73 63.5t109 22.5h125q85 0 137.5 -50.5zM165.5 209q12.5 -12 32.5 -12t32.5 12t12.5 32t-12 32.5t-33 12.5q-20 0 -32.5 -12.5t-12.5 -32.5t12.5 -32z" />
    <glyph glyph-name="uni0E09" unicode="&#xe09;" horiz-adv-x="634" 
d="M584 175q16 -27 16 -63q0 -55 -35 -88.5t-92 -33.5q-44 0 -75.5 21t-43.5 58l-104 -69h-114v123q-49 1 -78.5 32t-29.5 80q0 52 32.5 83.5t85.5 31.5t85.5 -31.5t32.5 -83.5v-118l168 105v154q0 28 -15 46t-39 18h-133q-33 0 -53.5 -17.5t-20.5 -46.5h-134q0 54 26 95.5
t73 64t109 22.5h133q85 0 136.5 -50.5t51.5 -133.5v-137l-28 -20q30 -15 46 -42zM114.5 203q12.5 -12 32.5 -12t32.5 12t12.5 32t-12.5 32.5t-32.5 12.5t-32.5 -12.5t-12.5 -32.5t12.5 -32zM505.5 79.5q12.5 12.5 12.5 32.5q0 21 -12.5 33.5t-32.5 12.5t-32.5 -12.5
t-12.5 -33.5q0 -20 12.5 -32.5t32.5 -12.5t32.5 12.5z" />
    <glyph glyph-name="uni0E0A" unicode="&#xe0a;" horiz-adv-x="619" 
d="M555.5 453.5q-21.5 -39.5 -66.5 -64.5q31 -14 49 -38.5t18 -52.5v-146q0 -72 -40.5 -112t-113.5 -40h-121q-42 0 -67 24t-25 64v124q0 13 7.5 23.5t23.5 26.5q28 28 43.5 54t15.5 70v19q0 34 -20 55t-53 21h-16q-19 0 -35 -5.5t-24 -14.5v-1q12 2 23 2q40 0 64 -25.5
t24 -66.5q0 -47 -30.5 -75.5t-80.5 -28.5q-49 0 -79 31t-30 81v26q0 73 45 113.5t124 40.5h34q66 0 108 -35.5t47 -95.5q36 6 54 36.5t32 104.5l4 22h121l-3 -22q-11 -75 -32.5 -114.5zM161 400q-11 11 -30 11t-30 -11t-11 -29q0 -19 11 -30t30 -11t30 11t11 30q0 18 -11 29
zM428 301q0 47 -48 56q-4 -31 -14 -53t-25 -43q-9 -14 -13.5 -23t-4.5 -18v-108h70q35 0 35 47v142z" />
    <glyph glyph-name="uni0E0B" unicode="&#xe0b;" horiz-adv-x="631" 
d="M568 454.5q-22 -39.5 -67 -65.5q31 -14 49 -38.5t18 -52.5v-146q0 -72 -40.5 -112t-113.5 -40h-121q-41 0 -66.5 24t-25.5 64v116q0 17 9.5 34t29.5 42q28 37 42 64.5t14 61.5v20q0 52 -19 52h-8l-48 -44l-51 46h-8q-32 0 -40 -39v-2l20 2q41 0 66 -25t25 -66
q0 -45 -29.5 -72.5t-77.5 -27.5t-77 29t-29 77v48q0 73 35 113.5t98 40.5h26l44 -42l41 42h29q51 0 75 -32t24 -99q36 6 54 36.5t32 104.5l4 22h121l-3 -22q-10 -74 -32 -113.5zM97 378q-11 -11 -11 -28q0 -18 11 -29t29 -11t29 11t11 29q0 17 -11 28t-29 11t-29 -11z
M440 301q0 48 -52 56q-4 -22 -11 -37.5t-19 -38.5q-12 -21 -17.5 -35t-5.5 -32v-102h70q35 0 35 47v142z" />
    <glyph glyph-name="uni0E0C" unicode="&#xe0c;" horiz-adv-x="933" 
d="M871 550v-550h-122q-29 41 -69 75.5t-76 50.5v-100q-38 -36 -105 -36q-57 0 -91.5 35t-34.5 95q0 42 20 75.5t56 49.5v125q0 32 -21.5 51t-56.5 19h-106q-26 0 -51 -20t-40 -52q31 -16 49.5 -49t18.5 -70v-28q50 -1 80 -32t30 -81q0 -53 -33.5 -85.5t-89.5 -32.5
t-89.5 32.5t-33.5 85.5v141q0 32 -21 54.5t-57 28.5q11 67 44.5 118.5t83.5 79.5t109 28h124q87 0 140.5 -49.5t53.5 -130.5v-133q40 -13 80.5 -36.5t71.5 -49.5v391h136zM523 177h-10q-26 0 -41 -16.5t-15 -41.5q0 -50 41 -50q17 0 25 5v103zM196.5 140
q-12.5 -12 -12.5 -32t12.5 -32.5t32.5 -12.5t32.5 12.5t12.5 32.5t-12.5 32t-32.5 12t-32.5 -12z" />
    <glyph glyph-name="uni0E0D" unicode="&#xe0d;" horiz-adv-x="936" 
d="M874 550v-394q0 -73 -41 -114.5t-115 -41.5h-196q-41 0 -66.5 24t-25.5 64v282q0 32 -18.5 51t-49.5 19h-97q-26 0 -51 -20t-40 -52q31 -16 49.5 -49t18.5 -70v-28q50 -1 80.5 -32t30.5 -81q0 -53 -34 -85.5t-90 -32.5t-89.5 32.5t-33.5 85.5v141q0 32 -21 54.5t-57 28.5
q11 67 44.5 118.5t83.5 79.5t109 28h117q82 0 132 -49.5t50 -130.5v-260h135q19 0 29 11.5t10 32.5v388h136zM196.5 140q-12.5 -12 -12.5 -32t12.5 -32.5t32.5 -12.5t32.5 12.5t12.5 32.5t-12.5 32t-32.5 12t-32.5 -12zM710.5 -136q28.5 30 37.5 84h126q-13 -101 -82 -158
t-180 -57q-94 0 -146.5 34.5t-52.5 96.5q0 47 32 76t84 29q50 0 81 -28.5t31 -74.5q0 -15 -5 -32h3q43 0 71.5 30zM559.5 -166.5q11.5 11.5 11.5 30.5t-11.5 30t-30.5 11t-30.5 -11t-11.5 -30t11.5 -30.5t30.5 -11.5t30.5 11.5z" />
    <glyph glyph-name="uni0E0E" unicode="&#xe0e;" horiz-adv-x="650" 
d="M537.5 508.5q50.5 -49.5 50.5 -130.5v-451q0 -75 -39.5 -124t-109.5 -61l-118 72q-10 -34 -40 -54.5t-68 -20.5q-53 0 -85 30.5t-32 80.5q0 49 32 79.5t85 30.5q25 0 48.5 -9t56.5 -29l102 -60q15 7 23.5 24t8.5 41v443q0 32 -18.5 51t-49.5 19h-92q-26 0 -51 -20
t-40 -52q80 -39 80 -109v-152q0 -53 -34.5 -85t-91.5 -32q-55 0 -89 32t-34 85q0 50 31 81t82 31v40q0 58 -90 73q11 67 44.5 118.5t83.5 79.5t109 28h112q83 0 133.5 -49.5zM187.5 74.5q12.5 12.5 12.5 32.5t-12.5 32t-32.5 12t-32.5 -12t-12.5 -32t12.5 -32.5t32.5 -12.5
t32.5 12.5zM245.5 -182.5q12.5 12.5 12.5 32.5t-12.5 32t-32.5 12t-32.5 -12t-12.5 -32t12.5 -32.5t32.5 -12.5t32.5 12.5z" />
    <glyph glyph-name="uni0E0F" unicode="&#xe0f;" horiz-adv-x="650" 
d="M537.5 508.5q50.5 -49.5 50.5 -130.5v-462q0 -74 -39 -121t-105 -52l-71 67l-46 -67l-65 61q-12 -29 -39 -47t-60 -18q-50 0 -80.5 30t-30.5 79t30.5 78.5t80.5 29.5q28 0 51 -10.5t45 -30.5l67 -62l41 62l62 -56q14 10 18.5 26t4.5 54v431q0 32 -18.5 51t-49.5 19h-92
q-26 0 -51 -20t-40 -52q80 -39 80 -109v-152q0 -53 -34.5 -85t-91.5 -32q-55 0 -89 32t-34 85q0 50 31 81t82 31v40q0 58 -90 73q11 67 44.5 118.5t83.5 79.5t109 28h112q83 0 133.5 -49.5zM187.5 74.5q12.5 12.5 12.5 32.5t-12.5 32t-32.5 12t-32.5 -12t-12.5 -32
t12.5 -32.5t32.5 -12.5t32.5 12.5zM195.5 -184.5q12.5 12.5 12.5 32.5t-12.5 32t-32.5 12t-32.5 -12t-12.5 -32t12.5 -32.5t32.5 -12.5t32.5 12.5z" />
    <glyph glyph-name="uni0E10" unicode="&#xe10;" horiz-adv-x="567" 
d="M368 292q-50 20 -144 37.5t-194 26.5q0 97 50.5 150.5t145.5 53.5q32 0 55 -5t55 -14q47 -15 79 -15q34 0 64 9t48 25v-97q-15 -15 -45.5 -24.5t-62.5 -9.5q-22 0 -43 4t-52 12q-23 6 -46.5 11t-43.5 5q-64 0 -71 -33q90 -13 189.5 -39t147.5 -52v-185q0 -72 -40.5 -112
t-113.5 -40h-101q-40 0 -64 23t-24 61v12q-47 2 -75.5 31t-28.5 74q0 49 31.5 79.5t82.5 30.5t82.5 -30.5t31.5 -79.5v-95h52q19 0 27 12.5t8 41.5v132zM136 170.5q12 -11.5 31 -11.5t31 11.5t12 30.5q0 20 -11.5 31.5t-31.5 11.5q-19 0 -31 -11.5t-12 -31.5q0 -19 12 -30.5
zM521 -25q22 -21 22 -55v-77q0 -52 -35.5 -86t-93.5 -39l-64 67l-47 -67l-59 62q-12 -29 -39 -47t-59 -18q-50 0 -80 29.5t-30 78.5q0 48 30.5 77.5t79.5 29.5q52 0 90 -41l64 -68l43 62l82 -81q12 2 20 12.5t8 22.5v9q-33 2 -53 22t-20 52q0 34 22.5 55t59.5 21t59 -21z
M440.5 -102q8.5 -8 21.5 -8q14 0 22 8t8 22q0 13 -8 21.5t-22 8.5q-13 0 -21.5 -8.5t-8.5 -21.5q0 -14 8.5 -22zM178 -209q12 12 12 32q0 19 -12 31t-32 12t-32 -12t-12 -31q0 -20 12.5 -32t31.5 -12q20 0 32 12z" />
    <glyph glyph-name="uni0E11" unicode="&#xe11;" horiz-adv-x="683" 
d="M177 139q0 32 12 60.5t35 61.5q33 52 47.5 82t14.5 67v16q0 52 -19 52h-8l-46 -44l-51 46h-8q-32 0 -40 -39v-2l20 2q41 0 66 -25t25 -66q0 -45 -29.5 -72.5t-77.5 -27.5t-77 29t-29 77v48q0 73 35 113.5t98 40.5h26l44 -42l40 42h30q47 0 67 -31t20 -67v-4l-1 -21h2
l22 34l59 89h14q76 0 114.5 -41.5t38.5 -122.5v-394h-136v396q0 36 -17 36h-5l-78 -117q-45 -68 -58.5 -100.5t-13.5 -65.5v-149h-136v139zM147 321q11 11 11 29q0 17 -11 28t-29 11t-29 -11t-11 -28q0 -18 11 -29t29 -11t29 11z" />
    <glyph glyph-name="uni0E12" unicode="&#xe12;" horiz-adv-x="948" 
d="M886 550v-550h-120q-29 42 -64 75t-69 49v-98q-38 -36 -101 -36q-54 0 -87 33.5t-33 89.5q0 39 19 72.5t49 47.5v141q0 31 -13.5 48.5t-36.5 17.5h-10l-83 -54l-85 54h-10q-24 0 -40 -19t-16 -50v-281h5q31 3 61 18t46 39q-42 3 -68 30.5t-26 70.5q0 47 29 75.5t78 28.5
t78.5 -28.5t29.5 -75.5q0 -96 -64 -161.5t-179 -86.5h-114v373q0 87 46.5 136t129.5 49h22l77 -53l75 53h22q84 0 131 -48t47 -134v-133q36 -13 74 -36t64 -48v391h136zM280.5 218q11.5 -11 30.5 -11t30.5 11t11.5 30t-11.5 30.5t-30.5 11.5t-30.5 -11.5t-11.5 -30.5
t11.5 -30zM558 171h-10q-26 0 -41 -15.5t-15 -40.5t10.5 -38.5t30.5 -13.5q17 0 25 5v103z" />
    <glyph glyph-name="uni0E13" unicode="&#xe13;" horiz-adv-x="927" 
d="M894 172.5q15 -26.5 15 -60.5q0 -55 -35 -88.5t-92 -33.5q-56 0 -90 33t-35 88q-63 -47 -114 -111h-114v370q0 32 -18.5 51t-49.5 19h-96q-26 0 -51 -20t-40 -52q31 -16 49.5 -49t18.5 -70v-28q50 -1 80.5 -32t30.5 -81q0 -53 -34 -85.5t-90 -32.5t-89.5 32.5t-33.5 85.5
v141q0 32 -21 54.5t-57 28.5q11 67 44.5 118.5t83.5 79.5t109 28h114q83 0 133.5 -49.5t50.5 -130.5v-229q32 29 74 53.5t79 35.5v312h136v-336q27 -15 42 -41.5zM814.5 79.5q12.5 12.5 12.5 32.5q0 21 -12.5 33.5t-32.5 12.5t-32.5 -12.5t-12.5 -33.5q0 -20 12.5 -32.5
t32.5 -12.5t32.5 12.5zM196.5 140q-12.5 -12 -12.5 -32t12.5 -32.5t32.5 -12.5t32.5 12.5t12.5 32.5t-12.5 32t-32.5 12t-32.5 -12z" />
    <glyph glyph-name="uni0E14" unicode="&#xe14;" horiz-adv-x="658" 
d="M495 533q48 -25 74.5 -70.5t26.5 -104.5v-358h-134v358q0 37 -21 59.5t-55 22.5h-111q-38 0 -60.5 -23.5t-22.5 -62.5v-258h5q34 0 63 12t50 33q-44 3 -70 31t-26 72q0 49 31 79t82 30t82 -30t31 -79q0 -68 -33 -121.5t-92.5 -86t-138.5 -36.5h-114v354q0 60 26.5 106.5
t75 72t111.5 25.5h109q63 0 111 -25zM296 213q12 -12 31 -12q20 0 31.5 12t11.5 31q0 20 -11.5 31.5t-31.5 11.5q-19 0 -31 -11.5t-12 -31.5q0 -19 12 -31z" />
    <glyph glyph-name="uni0E15" unicode="&#xe15;" horiz-adv-x="662" 
d="M554 510q46 -48 46 -134v-376h-134v374q0 31 -13 48.5t-35 17.5h-10l-78 -54l-78 54h-10q-23 0 -36.5 -18.5t-13.5 -50.5v-275h5q33 0 63 12t50 33q-44 3 -70 31t-26 72q0 49 31 79t82 30t82 -30t31 -79q0 -68 -32.5 -122t-92.5 -86t-139 -36h-114v373q0 87 45.5 136
t126.5 49h26l70 -53l70 53h26q82 0 128 -48zM296 213q12 -12 31 -12q20 0 31.5 12t11.5 31q0 20 -11.5 31.5t-31.5 11.5q-19 0 -31 -11.5t-12 -31.5q0 -19 12 -31z" />
    <glyph glyph-name="uni0E16" unicode="&#xe16;" horiz-adv-x="636" 
d="M523.5 508.5q50.5 -49.5 50.5 -130.5v-378h-136v370q0 32 -18.5 51t-49.5 19h-105q-26 0 -51 -20t-40 -52q31 -16 49.5 -49t18.5 -70v-28q50 -1 80.5 -32t30.5 -81q0 -53 -34 -85.5t-90 -32.5t-89.5 32.5t-33.5 85.5v141q0 32 -21 54.5t-57 28.5q11 67 44.5 118.5
t83.5 79.5t109 28h125q83 0 133.5 -49.5zM196.5 140q-12.5 -12 -12.5 -32t12.5 -32.5t32.5 -12.5t32.5 12.5t12.5 32.5t-12.5 32t-32.5 12t-32.5 -12z" />
    <glyph glyph-name="uni0E17" unicode="&#xe17;" horiz-adv-x="680" 
d="M575 516.5q43 -41.5 43 -122.5v-394h-136v398q0 19 -4 27.5t-13 8.5h-4l-151 -434h-167v317q-55 0 -89 33t-34 87q0 55 35.5 89t93.5 34q57 0 91.5 -33.5t34.5 -89.5v-259h1l131 380h42q83 0 126 -41.5zM114.5 404.5q12.5 -12.5 33.5 -12.5t33.5 12.5t12.5 32.5
q0 21 -12.5 33.5t-33.5 12.5t-33.5 -12.5t-12.5 -33.5q0 -20 12.5 -32.5z" />
    <glyph glyph-name="uni0E18" unicode="&#xe18;" horiz-adv-x="591" 
d="M112.5 24q-25.5 24 -25.5 64v162h132v-138h143q19 0 29 11t10 31v102q-34 13 -133.5 30.5t-229.5 32.5q0 119 52.5 180t154.5 61q28 0 50 -5t53 -14q25 -8 44 -12.5t40 -4.5q34 0 63 9.5t48 26.5v-105q-14 -17 -43 -27t-66 -10t-99 18q-31 8 -50 12t-38 4q-32 0 -50 -14
t-23 -43q117 -16 216.5 -39.5t144.5 -46.5v-157q0 -72 -40.5 -112t-113.5 -40h-202q-41 0 -66.5 24z" />
    <glyph glyph-name="uni0E19" unicode="&#xe19;" horiz-adv-x="663" 
d="M630 172.5q15 -26.5 15 -60.5q0 -55 -35 -88.5t-92 -33.5q-56 0 -90.5 33.5t-34.5 88.5v3q-76 -47 -135 -115h-116v317h-1q-55 0 -88 33t-33 87q0 55 35.5 89t93.5 34t93.5 -34t35.5 -89v-288q36 32 84 58.5t90 38.5v304h136v-336q27 -15 42 -41.5zM182.5 404.5
q12.5 12.5 12.5 32.5q0 21 -12.5 33.5t-33.5 12.5t-33.5 -12.5t-12.5 -33.5q0 -20 12.5 -32.5t33.5 -12.5t33.5 12.5zM550.5 79.5q12.5 12.5 12.5 32.5q0 21 -12.5 33.5t-32.5 12.5t-32.5 -12.5t-12.5 -33.5q0 -20 12.5 -32.5t32.5 -12.5t32.5 12.5z" />
    <glyph glyph-name="uni0E1A" unicode="&#xe1a;" horiz-adv-x="675" 
d="M613 550v-394q0 -73 -41 -114.5t-115 -41.5h-223q-41 0 -66.5 24t-25.5 64v229q-55 0 -88.5 33t-33.5 87q0 55 35.5 89t93.5 34t93.5 -34t35.5 -89v-319h160q19 0 29 11.5t10 32.5v388h136zM115.5 404.5q12.5 -12.5 33.5 -12.5t33.5 12.5t12.5 32.5q0 21 -12.5 33.5
t-33.5 12.5t-33.5 -12.5t-12.5 -33.5q0 -20 12.5 -32.5z" />
    <glyph glyph-name="uni0E1B" unicode="&#xe1b;" horiz-adv-x="677" 
d="M615 762v-606q0 -73 -41 -114.5t-115 -41.5h-225q-41 0 -66.5 24t-25.5 64v229q-55 0 -88.5 33t-33.5 87q0 55 35.5 89t93.5 34t93.5 -34t35.5 -89v-319h162q19 0 29 11.5t10 32.5v600h136zM115.5 404.5q12.5 -12.5 33.5 -12.5t33.5 12.5t12.5 32.5q0 21 -12.5 33.5
t-33.5 12.5t-33.5 -12.5t-12.5 -33.5q0 -20 12.5 -32.5z" />
    <glyph glyph-name="uni0E1C" unicode="&#xe1c;" horiz-adv-x="649" 
d="M587 550v-462q0 -40 -24.5 -64t-65.5 -24h-55l-116 179l-121 -179h-53q-41 0 -65.5 24t-24.5 64v354q0 53 34.5 85.5t90.5 32.5q55 0 89 -33t34 -86q0 -51 -32 -82.5t-84 -31.5h-2v-186l107 152h23q18 0 30 -7.5t24 -24.5l79 -120v409h132zM152.5 474.5
q-12.5 -12.5 -12.5 -33.5q0 -20 12.5 -32.5t33.5 -12.5t33.5 12.5t12.5 32.5q0 21 -12.5 33.5t-33.5 12.5t-33.5 -12.5z" />
    <glyph glyph-name="uni0E1D" unicode="&#xe1d;" horiz-adv-x="651" 
d="M589 762v-674q0 -40 -24.5 -64t-65.5 -24h-55l-117 179l-122 -179h-53q-41 0 -65.5 24t-24.5 64v354q0 53 34.5 85.5t90.5 32.5q55 0 89 -33t34 -86q0 -51 -32 -82.5t-84 -31.5h-2v-186l108 152h23q18 0 30 -7.5t24 -24.5l80 -120v621h132zM152.5 474.5
q-12.5 -12.5 -12.5 -33.5q0 -20 12.5 -32.5t33.5 -12.5t33.5 12.5t12.5 32.5q0 21 -12.5 33.5t-33.5 12.5t-33.5 -12.5z" />
    <glyph glyph-name="uni0E1E" unicode="&#xe1e;" horiz-adv-x="733" 
d="M671 550v-454q0 -43 -26 -69.5t-70 -26.5h-69l-96 334l-98 -334h-65q-44 0 -71.5 26.5t-27.5 69.5v221h-7q-55 0 -88 33t-33 87q0 55 35 89t92 34q56 0 90.5 -34t34.5 -89v-288h2l105 349h31q15 0 27 -11t17 -29l91 -308h2v400h124zM113.5 404.5q12.5 -12.5 33.5 -12.5
t33.5 12.5t12.5 32.5q0 21 -12.5 33.5t-33.5 12.5t-33.5 -12.5t-12.5 -33.5q0 -20 12.5 -32.5z" />
    <glyph glyph-name="uni0E1F" unicode="&#xe1f;" horiz-adv-x="735" 
d="M673 762v-666q0 -43 -26 -69.5t-70 -26.5h-69l-97 334l-99 -334h-65q-44 0 -71.5 26.5t-27.5 69.5v221h-7q-55 0 -88 33t-33 87q0 55 35 89t92 34q56 0 90.5 -34t34.5 -89v-288h2l106 349h31q15 0 27 -11t17 -29l92 -308h2v612h124zM113.5 404.5q12.5 -12.5 33.5 -12.5
t33.5 12.5t12.5 32.5q0 21 -12.5 33.5t-33.5 12.5t-33.5 -12.5t-12.5 -33.5q0 -20 12.5 -32.5z" />
    <glyph glyph-name="uni0E20" unicode="&#xe20;" horiz-adv-x="648" 
d="M535.5 508.5q50.5 -49.5 50.5 -130.5v-378h-136v370q0 32 -18.5 51t-49.5 19h-90q-26 0 -51 -20t-40 -52q80 -39 80 -109v-152q0 -53 -34.5 -85t-91.5 -32q-55 0 -89 32t-34 85q0 50 31 81t82 31v40q0 58 -90 73q11 67 44.5 118.5t83.5 79.5t109 28h110q83 0 133.5 -49.5
zM187.5 74.5q12.5 12.5 12.5 32.5t-12.5 32t-32.5 12t-32.5 -12t-12.5 -32t12.5 -32.5t32.5 -12.5t32.5 12.5z" />
    <glyph glyph-name="uni0E21" unicode="&#xe21;" horiz-adv-x="645" 
d="M583 550v-550h-122q-29 42 -77 78t-96 53v-107q-20 -16 -53 -25t-72 -9q-58 0 -93.5 35.5t-35.5 93.5q0 55 33.5 93t88.5 43v62h-1q-55 0 -89 33t-34 87q0 55 35.5 89t93.5 34t93.5 -34t35.5 -89v-192q41 -13 84 -37t73 -49v391h136zM127.5 404.5q12.5 -12.5 33.5 -12.5
t33.5 12.5t12.5 32.5q0 21 -12.5 33.5t-33.5 12.5t-33.5 -12.5t-12.5 -33.5q0 -20 12.5 -32.5zM188 176h-10q-26 0 -42 -16t-16 -41q0 -23 11 -36t30 -13q17 0 27 5v101z" />
    <glyph glyph-name="uni0E22" unicode="&#xe22;" horiz-adv-x="623" 
d="M561 550v-394q0 -73 -41 -114.5t-115 -41.5h-253q-42 0 -67 24t-25 64v55q0 34 17.5 64t46.5 44v1q-35 20 -54.5 55t-19.5 80q0 78 43 125.5t114 47.5q56 0 89.5 -31t33.5 -82q0 -49 -30 -78.5t-79 -29.5q-27 0 -47 10q4 -56 94 -56h47v-94h-47q-72 0 -72 -53v-30h190
q19 0 29 11.5t10 32.5v390h136zM173 480.5q-13 -12.5 -13 -33.5q0 -20 12.5 -32.5t33.5 -12.5t33.5 12.5t12.5 32.5q0 21 -12.5 33.5t-32.5 12.5q-21 0 -34 -12.5z" />
    <glyph glyph-name="uni0E23" unicode="&#xe23;" horiz-adv-x="529" 
d="M158 394q194 -31 292 -84v-197q0 -55 -35.5 -89t-93.5 -34t-93.5 33.5t-35.5 89.5q0 53 33.5 85t88.5 33v32q-93 35 -292 60q0 117 52 177t153 60q28 0 49.5 -5t49.5 -14q23 -8 40 -12.5t38 -4.5q64 0 103 36v-110q-18 -18 -42 -26t-59 -8q-22 0 -43 4t-49 12
q-53 15 -85 15q-63 0 -71 -53zM354.5 79.5q12.5 12.5 12.5 33.5q0 20 -12.5 32.5t-33.5 12.5t-33.5 -12.5t-12.5 -32.5q0 -21 12.5 -33.5t33.5 -12.5t33.5 12.5z" />
    <glyph glyph-name="uni0E24" unicode="&#xe24;" horiz-adv-x="638" 
d="M525.5 508.5q50.5 -49.5 50.5 -130.5v-578h-136v570q0 32 -18.5 51t-49.5 19h-107q-26 0 -51 -20t-40 -52q31 -16 49.5 -49t18.5 -70v-28q50 -1 80.5 -32t30.5 -81q0 -53 -34 -85.5t-90 -32.5t-89.5 32.5t-33.5 85.5v141q0 32 -21 54.5t-57 28.5q11 67 44.5 118.5
t83.5 79.5t109 28h127q83 0 133.5 -49.5zM196.5 140q-12.5 -12 -12.5 -32t12.5 -32.5t32.5 -12.5t32.5 12.5t12.5 32.5t-12.5 32t-32.5 12t-32.5 -12z" />
    <glyph glyph-name="uni0E25" unicode="&#xe25;" horiz-adv-x="611" 
d="M496.5 507.5q52.5 -50.5 52.5 -133.5v-374h-136v74q-4 74 -43.5 119.5t-101.5 45.5q-53 0 -70 -28q47 -2 76 -31t29 -75q0 -52 -33.5 -83.5t-88.5 -31.5t-88.5 31.5t-33.5 83.5v72q0 82 53.5 128t149.5 46q49 0 88.5 -17t64.5 -49v91q0 29 -15.5 46.5t-40.5 17.5h-111
q-33 0 -53.5 -16.5t-20.5 -42.5h-134q0 52 26 92.5t73 62.5t109 22h111q85 0 137.5 -50.5zM212.5 136.5q-12.5 12.5 -32.5 12.5t-32.5 -12.5t-12.5 -32.5t12.5 -32t32.5 -12t32.5 12t12.5 32t-12.5 32.5z" />
    <glyph glyph-name="uni0E26" unicode="&#xe26;" horiz-adv-x="650" 
d="M537.5 508.5q50.5 -49.5 50.5 -130.5v-578h-136v570q0 32 -18.5 51t-49.5 19h-92q-26 0 -51 -20t-40 -52q80 -39 80 -109v-152q0 -53 -34.5 -85t-91.5 -32q-55 0 -89 32t-34 85q0 50 31 81t82 31v40q0 58 -90 73q11 67 44.5 118.5t83.5 79.5t109 28h112q83 0 133.5 -49.5
zM187.5 74.5q12.5 12.5 12.5 32.5t-12.5 32t-32.5 12t-32.5 -12t-12.5 -32t12.5 -32.5t32.5 -12.5t32.5 12.5z" />
    <glyph glyph-name="uni0E27" unicode="&#xe27;" horiz-adv-x="558" 
d="M443.5 508q52.5 -50 52.5 -132v-263q0 -55 -35.5 -89t-93.5 -34t-93.5 33.5t-35.5 89.5q0 53 33.5 85t88.5 33v145q0 28 -15 46t-39 18h-89q-29 0 -46.5 -24t-17.5 -64h-135q0 61 25 108t70 72.5t104 25.5h89q85 0 137.5 -50zM400.5 79.5q12.5 12.5 12.5 33.5
q0 20 -12.5 32.5t-33.5 12.5t-33.5 -12.5t-12.5 -32.5q0 -21 12.5 -33.5t33.5 -12.5t33.5 12.5z" />
    <glyph glyph-name="uni0E28" unicode="&#xe28;" horiz-adv-x="657" 
d="M576 535q-17 -24 -45 -40q63 -46 63 -137v-358h-134v358q0 37 -20.5 59.5t-54.5 22.5h-114q-37 0 -60 -22.5t-23 -59.5v-169h2l35 83q32 74 101 74q51 0 82 -29.5t31 -77.5t-29.5 -77.5t-78.5 -29.5q-40 0 -64 21l-73 -153h-132v358q0 59 26 104.5t73.5 70.5t109.5 25
h114q40 0 56 8t25 32l4 10h135l-3 -13q-9 -36 -26 -60zM297 270q-12 -12 -12 -31t12 -31t32 -12t32 12t12 31t-12 31t-32 12t-32 -12z" />
    <glyph glyph-name="uni0E29" unicode="&#xe29;" horiz-adv-x="730" 
d="M736 386l-3 -20q-19 -128 -109 -161v-49q0 -70 -42.5 -113t-113.5 -43h-234q-41 0 -66.5 24t-25.5 64v229q-55 0 -88.5 33t-33.5 87q0 55 35.5 89t93.5 34t93 -34t35 -89v-319h182q17 0 27 12.5t10 33.5v30h-107q-44 0 -71 27t-27 71t27 70.5t71 26.5q42 0 68 -25.5
t26 -66.5v-8h13v261h128v-241q17 18 24 57l4 20h84zM115.5 404.5q12.5 -12.5 33.5 -12.5t33.5 12.5t12.5 32.5q0 21 -12.5 33.5t-33.5 12.5t-33.5 -12.5t-12.5 -33.5q0 -20 12.5 -32.5zM417 264q11 11 11 28t-11 28t-28 11t-28 -11t-11 -28t11 -28t28 -11t28 11z" />
    <glyph glyph-name="uni0E2A" unicode="&#xe2a;" horiz-adv-x="611" 
d="M494 492q26 -20 40.5 -49t14.5 -63v-380h-136v74q-4 74 -43.5 119.5t-101.5 45.5q-53 0 -70 -28q47 -2 76 -31t29 -75q0 -52 -33.5 -83.5t-88.5 -31.5t-88.5 31.5t-33.5 83.5v72q0 82 53.5 128t149.5 46q49 0 88.5 -17t64.5 -49v91q0 29 -15.5 46.5t-40.5 17.5h-111
q-33 0 -53.5 -16.5t-20.5 -42.5h-134q0 52 26 92.5t73 62.5t109 22h115q32 0 47.5 9t24.5 31l4 10h136l-3 -13q-16 -73 -78 -103zM212.5 136.5q-12.5 12.5 -32.5 12.5t-32.5 -12.5t-12.5 -32.5t12.5 -32t32.5 -12t32.5 12t12.5 32t-12.5 32.5z" />
    <glyph glyph-name="uni0E2B" unicode="&#xe2b;" horiz-adv-x="668" 
d="M598 311.5q8 -19.5 8 -40.5v-271h-136v257q0 15 -9 15l-193 -272h-126v317h-1q-55 0 -88 33t-33 87q0 55 35.5 89t93.5 34t93.5 -34t35.5 -89v-258l129 179q-16 16 -24.5 37.5t-8.5 45.5q0 53 34.5 86t91.5 33t91.5 -33t34.5 -86q0 -29 -13.5 -55t-36.5 -42
q14 -13 22 -32.5zM533.5 407.5q12.5 12.5 12.5 33.5t-12.5 33.5t-33.5 12.5t-33.5 -12.5t-12.5 -33.5t12.5 -33.5t33.5 -12.5t33.5 12.5zM182.5 404.5q12.5 12.5 12.5 32.5q0 21 -12.5 33.5t-33.5 12.5t-33.5 -12.5t-12.5 -33.5q0 -20 12.5 -32.5t33.5 -12.5t33.5 12.5z" />
    <glyph glyph-name="uni0E2C" unicode="&#xe2c;" horiz-adv-x="736" 
d="M766 752l-4 -23q-8 -48 -31.5 -87t-57.5 -63v-483q0 -43 -26 -69.5t-70 -26.5h-69l-97 334l-99 -334h-65q-44 0 -71.5 26.5t-27.5 69.5v221h-7q-55 0 -88 33t-33 87q0 55 35 89t92 34q56 0 90.5 -34t34.5 -89v-288h2l106 349h31q15 0 27 -11t17 -29l92 -308h2v394
q-55 4 -88 34.5t-33 79.5q0 51 33 82.5t86 31.5q44 0 73.5 -24.5t37.5 -66.5q13 21 19 49l5 22h84zM516.5 627.5q11.5 -11.5 30.5 -11.5t30.5 11.5t11.5 30.5t-11.5 30.5t-30.5 11.5t-30.5 -11.5t-11.5 -30.5t11.5 -30.5zM113.5 404.5q12.5 -12.5 33.5 -12.5t33.5 12.5
t12.5 32.5q0 21 -12.5 33.5t-33.5 12.5t-33.5 -12.5t-12.5 -33.5q0 -20 12.5 -32.5z" />
    <glyph glyph-name="uni0E2D" unicode="&#xe2d;" horiz-adv-x="620" 
d="M506.5 507.5q51.5 -50.5 51.5 -133.5v-218q0 -73 -41 -114.5t-115 -41.5h-239q-41 0 -66.5 24t-25.5 64v155q0 51 33.5 82.5t88.5 31.5t88.5 -31.5t33.5 -82.5q0 -47 -31 -76t-82 -29h-1v-28h180q20 0 31.5 12.5t11.5 35.5v218q0 28 -15 46t-39 18h-130
q-33 0 -53.5 -16.5t-20.5 -42.5h-134q0 82 55 129.5t153 47.5h130q85 0 136.5 -50.5zM161.5 275q-12.5 -12 -12.5 -32q0 -19 12 -31t32 -12t32 12t12 31q0 20 -12 32t-32 12q-19 0 -31.5 -12z" />
    <glyph glyph-name="uni0E2E" unicode="&#xe2e;" horiz-adv-x="617" 
d="M555 381v-225q0 -73 -41 -114.5t-115 -41.5h-234q-41 0 -66.5 24t-25.5 64v147q0 38 19.5 65.5t53.5 38.5q-50 9 -77 36.5t-27 70.5q0 53 40 82.5t112 29.5h191h16l3 20l3 25h118l-3 -31q-3 -36 -9 -66q42 -50 42 -125zM169.5 471.5q-11.5 -8.5 -11.5 -23.5t10.5 -23.5
t29.5 -8.5h103q41 0 65 11.5t29 47.5q-12 5 -24 5h-169q-21 0 -32.5 -8.5zM425 353q0 11 -1 16h-2q-48 -33 -121 -33h-52q30 -13 47 -39.5t17 -61.5q0 -46 -30 -74.5t-80 -28.5v-24h179q20 0 31.5 12.5t11.5 35.5v197zM225 204q12 12 12 31q0 20 -12 32t-32 12
q-19 0 -31.5 -12t-12.5 -32q0 -19 12 -31t32 -12t32 12z" />
    <glyph glyph-name="uni0E2F" unicode="&#xe2f;" horiz-adv-x="574" 
d="M512 550v-356q0 -100 -48.5 -147t-151.5 -47h-56v118h56q33 0 48.5 18.5t15.5 57.5v117q-22 -23 -61 -36.5t-86 -13.5q-64 0 -113.5 21.5t-76.5 60t-27 89.5q0 57 35 91.5t93 34.5q56 0 90 -33t34 -88q0 -46 -29 -73q5 -1 15 -1q63 0 101.5 51.5t38.5 135.5h122z
M104.5 470.5q-12.5 -12.5 -12.5 -33.5q0 -20 12.5 -32.5t33.5 -12.5t33.5 12.5t12.5 32.5q0 21 -12.5 33.5t-33.5 12.5t-33.5 -12.5z" />
    <glyph glyph-name="uni0E30" unicode="&#xe30;" horiz-adv-x="517" 
d="M87.5 331.5q-55.5 37.5 -55.5 107.5q0 52 33 83.5t88 31.5q54 0 87 -31.5t33 -83.5q0 -27 -11 -47q47 1 77 41.5t32 113.5h120q-1 -121 -66.5 -187t-179.5 -66q-102 0 -157.5 37.5zM122 470.5q-12 -11.5 -12 -31.5q0 -19 12 -31t31 -12q20 0 32 12t12 31t-12 31t-32 12
q-19 0 -31 -11.5zM339 143.5q30 40.5 32 113.5h120q-1 -121 -66.5 -187t-179.5 -66q-102 0 -157.5 37.5t-55.5 107.5q0 52 33 83.5t88 31.5q54 0 87 -31.5t33 -83.5q0 -27 -11 -47q47 1 77 41.5zM185 118q12 12 12 31t-12 31t-32 12q-19 0 -31 -11.5t-12 -31.5q0 -19 12 -31
t31 -12q20 0 32 12z" />
    <glyph glyph-name="uni0E31" unicode="&#xe31;" 
d="M-331.5 658q-59.5 38 -59.5 105q0 49 31 77.5t82 28.5q50 0 80.5 -28.5t30.5 -77.5q0 -28 -18 -48l1 -1q9 -2 25 -2q57 0 86.5 38.5t29.5 112.5h114q0 -115 -63 -179t-175 -64q-105 0 -164.5 38zM-247.5 732.5q11.5 11.5 11.5 30.5t-11.5 30.5t-30.5 11.5t-30.5 -11.5
t-11.5 -30.5t11.5 -30.5t30.5 -11.5t30.5 11.5z" />
    <glyph glyph-name="uni0E32" unicode="&#xe32;" horiz-adv-x="544" 
d="M346 376q0 28 -15 46t-39 18h-75q-29 0 -47 -24.5t-18 -65.5h-134q0 62 25 109t70 73t104 26h75q85 0 137.5 -50t52.5 -132v-376h-136v376z" />
    <glyph glyph-name="uni0E33" unicode="&#xe33;" horiz-adv-x="544" 
d="M-232.5 654q-35.5 34 -35.5 90t35.5 90t93.5 34t93.5 -34t35.5 -90t-35.5 -90t-93.5 -34t-93.5 34zM-103.5 709q13.5 13 13.5 35t-13.5 35t-35.5 13t-35.5 -13t-13.5 -35t13.5 -35t35.5 -13t35.5 13zM346 376q0 28 -15 46t-39 18h-75q-29 0 -47 -24.5t-18 -65.5h-134
q0 62 25 109t70 73t104 26h75q85 0 137.5 -50t52.5 -132v-376h-136v376z" />
    <glyph glyph-name="uni0E34" unicode="&#xe34;" 
d="M-278.5 655.5q-97.5 10.5 -235.5 10.5h-32q13 95 80.5 153t164.5 58q112 0 175.5 -69.5t63.5 -193.5q-119 31 -216.5 41.5zM-305 797q-83 0 -117 -60l34 1q122 0 214 -25q-21 84 -131 84z" />
    <glyph glyph-name="uni0E35" unicode="&#xe35;" 
d="M-62 908v-294q-119 31 -216.5 41.5t-235.5 10.5h-32q11 95 75.5 153t159.5 58q39 0 73 -12.5t56 -35.5v79h120zM-388 738q122 0 214 -25q-21 84 -131 84q-83 0 -117 -60z" />
    <glyph glyph-name="uni0E36" unicode="&#xe36;" 
d="M-40 765.5q-17 -23.5 -46 -33.5q27 -51 24 -118q-120 31 -216 41.5t-232 10.5h-32q11 95 75 153t160 58q54 0 87 -19q11 28 35.5 44t58.5 16q46 0 74.5 -26.5t28.5 -70.5q0 -32 -17 -55.5zM-154 793.5q11 -10.5 28 -10.5t28 10.5t11 27.5t-11 27.5t-28 10.5t-28 -10.5
t-11 -27.5t11 -27.5zM-388 738q120 0 212 -25q-10 40 -44.5 62t-84.5 22q-83 0 -117 -60z" />
    <glyph glyph-name="uni0E37" unicode="&#xe37;" 
d="M-62 908v-292q-119 30 -215.5 40t-236.5 10h-32q12 94 70 147.5t151 54.5v40h104v-56q32 -14 49 -34v90h110zM-388 738q122 0 214 -25q-21 84 -131 84q-83 0 -117 -60z" />
    <glyph glyph-name="uni0E38" unicode="&#xe38;" 
d="M-96 -84.5q34 -31.5 34 -83.5v-189h-132v77q-52 1 -84.5 31.5t-32.5 80.5q0 52 34.5 83.5t90.5 31.5t90 -31.5zM-218 -199q12 -12 32 -12t32 12t12 31t-12.5 31.5t-31.5 12.5q-20 0 -32 -12.5t-12 -31.5t12 -31z" />
    <glyph glyph-name="uni0E39" unicode="&#xe39;" 
d="M-62 -57v-209q0 -41 -25.5 -65.5t-67.5 -24.5h-168q-19 0 -30 10t-11 27v49q-52 1 -83 29.5t-31 75.5q0 50 32 81t84 31t84 -31t32 -81v-103h52q5 0 8.5 4t3.5 10v197h120zM-394 -196q12 -12 32 -12t32 12t12 31t-12.5 31.5t-31.5 12.5q-20 0 -32 -12.5t-12 -31.5t12 -31
z" />
    <glyph glyph-name="uni0E3A" unicode="&#xe3a;" 
d="M-189 -191q-22 22 -22 58t22 58t59 22q36 0 58 -21.5t22 -56.5q0 -37 -22 -59.5t-58 -22.5q-37 0 -59 22z" />
    <glyph glyph-name="uni0E3F" unicode="&#xe3f;" horiz-adv-x="690" 
d="M634.5 316q29.5 -38 29.5 -85v-52q0 -82 -59.5 -130.5t-160.5 -48.5h-31v-102h-136v102h-118q-43 0 -70 26t-27 68v606h215v102h136v-102q93 -1 150 -46t57 -120v-50q0 -33 -16.5 -63t-46.5 -49v-1q48 -17 77.5 -55zM200 410h210q32 0 52 20.5t20 54.5v34q0 28 -21 44.5
t-56 16.5h-205v-170zM526 231q0 29 -21 47t-56 18h-249v-176h234q44 0 68 17.5t24 49.5v44z" />
    <glyph glyph-name="uni0E40" unicode="&#xe40;" horiz-adv-x="340" 
d="M286.5 200q33.5 -32 33.5 -85q0 -56 -35.5 -89.5t-93.5 -33.5t-93.5 34t-35.5 89v435h136v-317q55 -1 88.5 -33zM224.5 81.5q12.5 12.5 12.5 33.5q0 20 -12.5 32.5t-33.5 12.5t-33.5 -12.5t-12.5 -32.5q0 -21 12.5 -33.5t33.5 -12.5t33.5 12.5z" />
    <glyph glyph-name="uni0E41" unicode="&#xe41;" horiz-adv-x="640" 
d="M286.5 200q33.5 -32 33.5 -85q0 -56 -35.5 -89.5t-93.5 -33.5t-93.5 34t-35.5 89v437h136v-319q55 -1 88.5 -33zM586.5 200q33.5 -32 33.5 -85q0 -56 -35.5 -89.5t-93.5 -33.5t-93.5 34t-35.5 89v437h136v-319q55 -1 88.5 -33zM224.5 81.5q12.5 12.5 12.5 33.5
q0 20 -12.5 32.5t-33.5 12.5t-33.5 -12.5t-12.5 -32.5q0 -21 12.5 -33.5t33.5 -12.5t33.5 12.5zM524.5 81.5q12.5 12.5 12.5 33.5q0 20 -12.5 32.5t-33.5 12.5t-33.5 -12.5t-12.5 -32.5q0 -21 12.5 -33.5t33.5 -12.5t33.5 12.5z" />
    <glyph glyph-name="uni0E42" unicode="&#xe42;" horiz-adv-x="425" 
d="M421 946v-113q-15 -17 -41 -28t-58 -11q-23 0 -42.5 5.5t-47.5 16.5q-28 10 -44 14.5t-34 4.5q-24 0 -39.5 -13t-16.5 -35q63 -23 113 -50.5t72 -52.5v-451q55 -1 88.5 -33t33.5 -85q0 -56 -35.5 -89.5t-93.5 -33.5t-93.5 34t-35.5 89v522q-31 23 -78.5 45t-104.5 38
q0 112 48.5 170t141.5 58q27 0 47.5 -6t51.5 -18q23 -10 38.5 -14.5t32.5 -4.5q58 0 97 41zM309.5 147.5q-12.5 12.5 -33.5 12.5t-33.5 -12.5t-12.5 -32.5q0 -21 12.5 -33.5t33.5 -12.5t33.5 12.5t12.5 33.5q0 20 -12.5 32.5z" />
    <glyph glyph-name="uni0E43" unicode="&#xe43;" horiz-adv-x="441" 
d="M387.5 200q33.5 -32 33.5 -85q0 -56 -35.5 -89.5t-93.5 -33.5t-93.5 34t-35.5 89v415q0 25 11 44.5t33 46.5q29 36 44 66t15 74v23q0 37 -22 59.5t-57 22.5h-23q-49 0 -73 -31l1 -1q10 2 16 2q42 0 69 -27.5t27 -72.5q0 -49 -32 -79.5t-85 -30.5q-52 0 -84.5 32.5
t-32.5 84.5v37q0 80 53 129t139 49h38q84 0 135 -48.5t51 -127.5v-23q0 -45 -13 -77t-38 -70q-18 -27 -27 -46t-9 -41v-292q55 -1 88.5 -33zM117 764q-11 11 -30 11t-30 -11t-11 -29q0 -19 11 -30t30 -11t30 11t11 30q0 18 -11 29zM325.5 81.5q12.5 12.5 12.5 33.5
q0 20 -12.5 32.5t-33.5 12.5t-33.5 -12.5t-12.5 -32.5q0 -21 12.5 -33.5t33.5 -12.5t33.5 12.5z" />
    <glyph glyph-name="uni0E44" unicode="&#xe44;" horiz-adv-x="456" 
d="M402.5 200q33.5 -32 33.5 -85q0 -56 -35.5 -89.5t-93.5 -33.5t-93.5 34t-35.5 89v673l-76 -96h-28q-18 0 -30.5 8t-22.5 25l-125 219h119l69 -125l103 129h27q47 0 73.5 -25.5t26.5 -70.5v-619q55 -1 88.5 -33zM340.5 81.5q12.5 12.5 12.5 33.5q0 20 -12.5 32.5
t-33.5 12.5t-33.5 -12.5t-12.5 -32.5q0 -21 12.5 -33.5t33.5 -12.5t33.5 12.5z" />
    <glyph glyph-name="uni0E45" unicode="&#xe45;" horiz-adv-x="544" 
d="M346 376q0 28 -15 46t-39 18h-75q-29 0 -47 -24.5t-18 -65.5h-134q0 62 25 109t70 73t104 26h75q85 0 137.5 -50t52.5 -132v-576h-136v576z" />
    <glyph glyph-name="uni0E46" unicode="&#xe46;" horiz-adv-x="576" 
d="M477.5 517q36.5 -41 36.5 -121v-450q0 -100 -46 -147t-144 -47h-56v118h56q28 0 41 18.5t13 57.5v456q0 44 -15 44h-8l-72 -68l-79 70h-11q-16 0 -27 -14t-15 -40q4 1 13 1q52 0 83.5 -31.5t31.5 -83.5q0 -53 -33.5 -85.5t-89.5 -32.5t-90 35t-34 92v39q0 109 45.5 169.5
t127.5 60.5h17l61 -62l61 62h27q70 0 106.5 -41zM188.5 312.5q-12.5 12.5 -33.5 12.5t-33.5 -12.5t-12.5 -32.5q0 -21 12.5 -33.5t33.5 -12.5t33.5 12.5t12.5 33.5q0 20 -12.5 32.5z" />
    <glyph glyph-name="uni0E47" unicode="&#xe47;" 
d="M-98.5 770.5q25.5 -23.5 25.5 -62.5t-27.5 -63t-73.5 -24q-95 0 -149 52l-24 -47h-26q-68 0 -105.5 34.5t-37.5 95.5q0 66 43.5 100t128.5 34h111q26 0 39 12.5t13 49.5h108q0 -80 -36 -112t-114 -32h-121q-35 0 -51.5 -13t-16.5 -42q0 -21 10 -34t24 -13h4l33 64h45
q4 -26 12.5 -40t26.5 -20q0 38 25.5 61t66.5 23t66.5 -23.5zM-140.5 683q9.5 9 9.5 25t-9.5 25t-25.5 9t-25.5 -9t-9.5 -25t9.5 -25t25.5 -9t25.5 9z" />
    <glyph glyph-name="uni0E48" unicode="&#xe48;" 
d="M-198 842h136v-216h-136v216z" />
    <glyph glyph-name="uni0E49" unicode="&#xe49;" 
d="M25 874q-6 -125 -77 -189.5t-203 -64.5q-87 0 -136 10v58q92 0 119 23q-12 -3 -23 -3q-43 0 -69.5 24t-26.5 63q0 43 28.5 69t75.5 26q46 0 74.5 -26t28.5 -69q0 -21 -5 -45t-14 -43v-1q54 10 84 52.5t36 115.5h108zM-313.5 769q9.5 -10 26.5 -10t27 10t10 26t-10 25.5
t-27 9.5q-16 0 -26 -9.5t-10 -25.5t9.5 -26z" />
    <glyph glyph-name="uni0E4A" unicode="&#xe4a;" 
d="M4 858q0 -122 -36.5 -177t-124.5 -55h-60l-18 38q29 43 29 89q0 24 -4.5 38.5t-12.5 14.5h-4l-51 -52l-57 56h-9q-37 0 -58 -16h2q40 0 65 -23t25 -61q0 -41 -26.5 -65.5t-69.5 -24.5t-69.5 28t-26.5 74q0 72 47 116t124 44h14l41 -47l44 47h12q46 0 73.5 -34.5
t27.5 -91.5q0 -31 -11 -53l1 -1q28 7 38.5 46t10.5 110h84zM-380 736q-10 10 -27 10t-27 -10t-10 -26t10 -26t27 -10t27 10t10 26t-10 26z" />
    <glyph glyph-name="uni0E4B" unicode="&#xe4b;" 
d="M-188 705h-106v96h106v79h118v-79h106v-96h-106v-79h-118v79z" />
    <glyph glyph-name="uni0E4C" unicode="&#xe4c;" 
d="M-9 910q-4 -78 -40.5 -121.5t-96.5 -43.5h-19q2 -10 2 -17q0 -49 -31.5 -78.5t-83.5 -29.5t-84 30t-32 80t31.5 80.5t84.5 30.5h103q50 0 58 69h108zM-247 699.5q12 11.5 12 30.5q0 20 -12 31.5t-31 11.5q-20 0 -31.5 -11.5t-11.5 -31.5q0 -19 12 -30.5t31 -11.5t31 11.5
z" />
    <glyph glyph-name="uni0E4D" unicode="&#xe4d;" 
d="M-232.5 654q-35.5 34 -35.5 90t35.5 90t93.5 34t93.5 -34t35.5 -90t-35.5 -90t-93.5 -34t-93.5 34zM-103.5 709q13.5 13 13.5 35t-13.5 35t-35.5 13t-35.5 -13t-13.5 -35t13.5 -35t35.5 -13t35.5 13z" />
    <glyph glyph-name="uni0E4E" unicode="&#xe4e;" 
d="M-197 870q0 -17 21 -27t66 -15v-66q-52 12 -110 12q-31 0 -45 -8.5t-14 -26.5q0 -19 15.5 -27.5t48.5 -8.5q46 0 84 16v-74q-15 -11 -44.5 -18t-63.5 -7q-70 0 -109 29t-39 81q0 43 27 69t79 33q-22 20 -22 50q0 49 38.5 74t112.5 25q63 0 111 -20v-79q-57 16 -98 16
q-58 0 -58 -28z" />
    <glyph glyph-name="uni0E4F" unicode="&#xe4f;" horiz-adv-x="645" 
d="M173.5 27.5q-64.5 35.5 -100 99.5t-35.5 148q0 85 35.5 150t100 100.5t149.5 35.5q84 0 148.5 -35.5t100 -100.5t35.5 -150q0 -84 -35.5 -148t-100 -99.5t-148.5 -35.5q-85 0 -149.5 35.5zM462 135q53 53 53 140q0 88 -53 142t-139 54q-87 0 -140 -54t-53 -142
q0 -87 53 -140t140 -53q86 0 139 53zM220 173q-39 39 -39 102t39 102t103 39t103.5 -39t39.5 -102t-39.5 -102t-103.5 -39t-103 39zM368.5 230q17.5 17 17.5 45t-17.5 45t-45.5 17t-45 -17t-17 -45t17 -45t45 -17t45.5 17z" />
    <glyph glyph-name="uni0E50" unicode="&#xe50;" horiz-adv-x="658" 
d="M169.5 21.5q-60.5 29.5 -94 83.5t-33.5 125v40q0 70 33.5 124t94 83.5t139.5 29.5h40q79 0 139.5 -29.5t94 -83.5t33.5 -124v-40q0 -71 -33.5 -125t-94 -83.5t-139.5 -29.5h-40q-79 0 -139.5 29.5zM348 108q59 0 95.5 33.5t36.5 88.5v40q0 55 -36.5 88t-95.5 33h-38
q-59 0 -95.5 -33t-36.5 -88v-40q0 -55 36.5 -88.5t95.5 -33.5h38z" />
    <glyph glyph-name="uni0E51" unicode="&#xe51;" horiz-adv-x="654" 
d="M268 40h52q74 0 116 46.5t42 128.5v50q0 64 -35.5 95t-98.5 31h-38q-66 0 -105 -25t-39 -81v-28q0 -26 10 -42.5t29 -20.5l1 1q-5 12 -5 29q0 45 31.5 72.5t82.5 27.5q55 0 88.5 -31.5t33.5 -82.5q0 -59 -42 -92t-118 -33q-111 0 -173 45.5t-62 126.5v28q0 108 72.5 165
t194.5 57h40q122 0 194.5 -63t72.5 -179v-50q0 -135 -77 -211t-215 -76h-52v112zM343 177q12 12 12 31q0 20 -12 32t-32 12q-19 0 -31.5 -12t-12.5 -32q0 -19 12 -31t32 -12t32 12z" />
    <glyph glyph-name="uni0E52" unicode="&#xe52;" horiz-adv-x="759" 
d="M672.5 461q34.5 -43 34.5 -125v-137q0 -94 -61 -146.5t-170 -52.5h-189q-105 0 -163.5 52t-58.5 144v238q0 64 -24.5 107t-76.5 71l85 98q77 -47 113.5 -113.5t36.5 -162.5v-227q0 -44 23.5 -68.5t64.5 -24.5h188q48 0 75 25t27 69v128q0 30 -2.5 42.5t-12.5 12.5h-4
l-37 -71h-38q-8 38 -25 59.5t-39 21.5h-12q-22 0 -33.5 -11.5t-12.5 -28.5q50 0 80 -29t30 -76q0 -49 -32 -79t-84 -30q-51 0 -82.5 30t-31.5 79v70q0 86 36.5 133.5t101.5 47.5h24q31 0 58 -17.5t44 -49.5l36 64h30q67 0 101.5 -43zM387 287q-12 12 -32 12t-32 -12t-12 -31
t12 -31t32 -12t32 12t12 31t-12 31z" />
    <glyph glyph-name="uni0E53" unicode="&#xe53;" horiz-adv-x="682" 
d="M137.5 20q-45.5 30 -70.5 84t-25 124v21q0 77 23.5 135.5t66 90.5t97.5 32h30l86 -75l84 75h30q78 0 121.5 -47t43.5 -132v-328h-136v336q0 24 -8.5 37.5t-22.5 13.5h-8l-104 -87l-111 87h-8q-24 0 -39 -38t-15 -100v-21q0 -23 6 -41h1q11 16 31.5 25.5t44.5 9.5
q54 0 87 -31.5t33 -84.5q0 -52 -36.5 -84t-95.5 -32q-60 0 -105.5 30zM285 74.5q12 12.5 12 31.5q0 20 -12 32t-32 12q-19 0 -31.5 -12t-12.5 -32q0 -19 12.5 -31.5t31.5 -12.5q20 0 32 12.5z" />
    <glyph glyph-name="uni0E54" unicode="&#xe54;" horiz-adv-x="654" 
d="M560 118.5q38 -9.5 94 -20.5l-27 -105q-48 16 -74.5 20t-62.5 4q-29 0 -91 -12q-5 -1 -39 -7t-67 -6q-124 0 -187.5 60.5t-63.5 178.5v30q0 118 68 178t201 60h92q61 0 89.5 49t28.5 152h128q0 -162 -59.5 -238.5t-186.5 -76.5h-92q-135 0 -135 -124v-30
q0 -62 29.5 -94.5t87.5 -32.5q30 0 70 6q30 4 41 4v1q-45 30 -63.5 61t-18.5 68q0 52 33 84.5t86 32.5q55 0 88 -31t33 -82q0 -38 -20 -64t-56 -37q36 -19 74 -28.5zM410 279q-12 -12 -12 -31t12 -31t32 -12t32 12t12 31t-12 31t-32 12t-32 -12z" />
    <glyph glyph-name="uni0E55" unicode="&#xe55;" horiz-adv-x="654" 
d="M560 118.5q38 -9.5 94 -20.5l-27 -105q-48 16 -74.5 20t-62.5 4q-29 0 -91 -12q-5 -1 -39 -7t-67 -6q-124 0 -187.5 60.5t-63.5 178.5v30q0 167 135 217q-23 28 -23 71q0 56 37.5 91t96.5 35t96.5 -35t37.5 -91q0 -27 -10 -50q56 4 82.5 52.5t26.5 148.5h128
q0 -162 -59.5 -238.5t-186.5 -76.5h-92q-135 0 -135 -124v-30q0 -62 29.5 -94.5t87.5 -32.5q30 0 70 6q30 4 41 4v1q-45 30 -63.5 61t-18.5 68q0 52 33 84.5t86 32.5q55 0 88 -31t33 -82q0 -38 -20 -64t-56 -37q36 -19 74 -28.5zM256.5 581q-12.5 -12 -12.5 -32
q0 -19 12 -31t32 -12t32 12t12 31q0 20 -12 32t-32 12q-19 0 -31.5 -12zM410 279q-12 -12 -12 -31t12 -31t32 -12t32 12t12 31t-12 31t-32 12t-32 -12z" />
    <glyph glyph-name="uni0E56" unicode="&#xe56;" horiz-adv-x="672" 
d="M560 444.5q70 -62.5 70 -174.5v-39q0 -117 -72.5 -178t-196.5 -61h-40q-75 0 -132.5 22t-89 61.5t-31.5 91.5q0 54 33 87t88 33t88 -32t33 -84q0 -36 -23 -61q20 -2 34 -2h40q64 0 98.5 29t34.5 95v38q0 57 -34 89t-94 32h-40q-90 0 -142 -57h-83q-10 95 -41 161
t-100 135l98 80q54 -52 89.5 -110t56.5 -129q58 36 132 36h30q124 0 194 -62.5zM158 141q12 -12 32 -12t32 12t12 31t-12 31t-32 12t-32 -12t-12 -31t12 -31z" />
    <glyph glyph-name="uni0E57" unicode="&#xe57;" horiz-adv-x="855" 
d="M137.5 20q-45.5 30 -70.5 84t-25 124v21q0 77 23.5 135.5t66 90.5t97.5 32h30l74 -75l72 75h30q76 0 118.5 -47t42.5 -132v-211h35q15 0 23.5 13.5t8.5 36.5v533h134v-532q0 -79 -43 -123.5t-120 -44.5h-170v336q0 24 -8.5 37.5t-22.5 13.5h-8l-92 -87l-99 87h-8
q-24 0 -39 -38t-15 -100v-21q0 -23 6 -41h1q11 16 31.5 25.5t44.5 9.5q54 0 87 -31.5t33 -84.5q0 -52 -36.5 -84t-95.5 -32q-60 0 -105.5 30zM285 74.5q12 12.5 12 31.5q0 20 -12 32t-32 12q-19 0 -31.5 -12t-12.5 -32q0 -19 12.5 -31.5t31.5 -12.5q20 0 32 12.5z" />
    <glyph glyph-name="uni0E58" unicode="&#xe58;" horiz-adv-x="710" 
d="M634.5 314q33.5 -34 33.5 -89v-20q0 -65 -24 -113t-67.5 -74t-100.5 -26h-18q-48 0 -89 25.5t-65 71.5l-54 -99q-95 6 -151.5 72t-56.5 170v30q0 71 32.5 124.5t91 83t135.5 29.5h122q43 0 67 19.5t35 62.5t11 119h128q0 -120 -23 -189t-74.5 -99.5t-141.5 -30.5h-124
q-57 0 -91 -32t-34 -87v-40q0 -70 41 -102l76 147h47q9 -80 39.5 -121.5t80.5 -41.5h18q42 0 60 24q-49 1 -79.5 30.5t-30.5 76.5q0 51 32.5 82t85.5 31q55 0 88.5 -34zM516 204q12 -12 32 -12t32 12t12 31t-12 31t-32 12t-32 -12t-12 -31t12 -31z" />
    <glyph glyph-name="uni0E59" unicode="&#xe59;" horiz-adv-x="764" 
d="M764 700v-110q0 -103 -9 -169.5t-35 -105t-76 -38.5h-10q-41 0 -66.5 23.5t-52.5 65.5q-15 25 -25 36t-21 11h-8q-9 0 -16 -7t-9 -17q8 -67 64.5 -134t139.5 -111l-71 -101q-90 46 -156.5 126t-93.5 167q-7 25 -18 35t-30 10h-20q-67 0 -67 -118v-26q0 -25 6 -45
q25 28 69 28q55 0 88.5 -31t33.5 -84q0 -52 -36.5 -83.5t-95.5 -31.5q-58 0 -103 30.5t-69.5 86.5t-24.5 129v27q0 111 50 173.5t139 62.5h32q50 0 82 -26q14 25 37 40.5t49 15.5h17q46 0 71.5 -24.5t49.5 -66.5q11 -20 18.5 -29.5t16.5 -9.5h4q14 0 18 34.5t4 111.5v45v110
h124zM227 136q-12 -12 -12 -31t12 -31t32 -12t32 12t12 31t-12 31t-32 12t-32 -12z" />
    <glyph glyph-name="uni0E5A" unicode="&#xe5a;" horiz-adv-x="800" 
d="M738 550v-550h-134v331q-37 -33 -92 -44v-93q0 -100 -48.5 -147t-151.5 -47h-56v118h56q33 0 48.5 18.5t15.5 57.5v117q-22 -23 -61 -36.5t-86 -13.5q-64 0 -113.5 21.5t-76.5 60t-27 89.5q0 57 35 91.5t93 34.5q56 0 90 -33t34 -88q0 -46 -29 -73q5 -1 15 -1
q63 0 101.5 51.5t38.5 135.5h122v-150q47 11 73.5 51t26.5 99h126zM104.5 470.5q-12.5 -12.5 -12.5 -33.5q0 -20 12.5 -32.5t33.5 -12.5t33.5 12.5t12.5 32.5q0 21 -12.5 33.5t-33.5 12.5t-33.5 -12.5z" />
    <glyph glyph-name="uni0E5B" unicode="&#xe5b;" horiz-adv-x="1230" 
d="M1218 351v-86q-10 -9 -28.5 -14.5t-38.5 -5.5q-36 0 -62 16q-10 -25 -25 -48t-30 -36h-46q-1 28 -6 55t-11 39q-7 -37 -19.5 -75t-24.5 -57h-60q1 37 -4 78t-14 64q-6 -45 -21 -98.5t-31 -88.5h-75q1 57 -5 108.5t-16 78.5q-16 -136 -106.5 -212.5t-236.5 -76.5
q-97 0 -171 39t-114.5 110t-40.5 164q0 87 35 153t99 102.5t148 36.5q76 0 134.5 -30.5t90.5 -86.5t32 -129q0 -89 -54 -144t-142 -55q-79 0 -127 41t-48 108q0 55 33.5 88t88.5 33q54 0 87 -33t33 -87q0 -44 -30 -71q32 4 51.5 34.5t19.5 79.5q0 70 -43 109t-120 39
q-83 0 -129.5 -49.5t-46.5 -138.5q0 -98 56.5 -153.5t157.5 -55.5q122 0 190 67.5t68 188.5q0 36 -8.5 75t-22.5 73h86q35 -37 66.5 -98.5t41.5 -116.5q6 26 6 77q0 44 -5 94h47q30 -30 54 -76.5t28 -84.5q5 17 8 56.5t2 76.5h40q20 -25 39.5 -59.5t29.5 -65.5q6 11 9.5 32
t3.5 43v10h56q4 -28 19 -41.5t41 -13.5q37 0 61 18zM288.5 269q12.5 -12 33.5 -12t33.5 12.5t12.5 32.5q0 21 -12.5 34t-33.5 13t-33.5 -13t-12.5 -35q0 -20 12.5 -32z" />
    <glyph glyph-name="uni1E0C" unicode="&#x1e0c;" horiz-adv-x="702" 
d="M89 26q-27 26 -27 68v606h334q80 0 140.5 -30t94 -85t33.5 -127v-196q0 -129 -67 -195.5t-197 -66.5h-241q-43 0 -70 26zM396 122q64 0 97 37t33 109v184q0 57 -37 91.5t-97 34.5h-192v-456h196zM301 -204.5q-23 22.5 -23 59.5t22.5 60t60.5 23t60.5 -23t22.5 -60
t-23 -59.5t-60 -22.5t-60 22.5z" />
    <glyph glyph-name="uni1E0D" unicode="&#x1e0d;" horiz-adv-x="604" 
d="M92.5 46q-54.5 54 -54.5 142v114q0 61 26 107.5t73 72t109 25.5h55q29 0 59 -12.5t50 -33.5v239h136v-700h-126v66q-20 -33 -54 -53.5t-71 -20.5h-59q-89 0 -143.5 54zM310 109q41 0 68.5 29.5t31.5 78.5v87q-7 39 -30.5 62.5t-55.5 23.5h-61q-40 0 -64.5 -27t-24.5 -71
v-94q0 -40 22 -64.5t57 -24.5h57zM238 -204.5q-23 22.5 -23 59.5t22.5 60t60.5 23t60.5 -23t22.5 -60t-23 -59.5t-60 -22.5t-60 22.5z" />
    <glyph glyph-name="uni1E0E" unicode="&#x1e0e;" horiz-adv-x="702" 
d="M89 26q-27 26 -27 68v606h334q80 0 140.5 -30t94 -85t33.5 -127v-196q0 -129 -67 -195.5t-197 -66.5h-241q-43 0 -70 26zM396 122q64 0 97 37t33 109v184q0 57 -37 91.5t-97 34.5h-192v-456h196zM201 -82h320v-108h-320v108z" />
    <glyph glyph-name="uni1E0F" unicode="&#x1e0f;" horiz-adv-x="604" 
d="M92.5 46q-54.5 54 -54.5 142v114q0 61 26 107.5t73 72t109 25.5h55q29 0 59 -12.5t50 -33.5v239h136v-700h-126v66q-20 -33 -54 -53.5t-71 -20.5h-59q-89 0 -143.5 54zM310 109q41 0 68.5 29.5t31.5 78.5v87q-7 39 -30.5 62.5t-55.5 23.5h-61q-40 0 -64.5 -27t-24.5 -71
v-94q0 -40 22 -64.5t57 -24.5h57zM138 -82h320v-108h-320v108z" />
    <glyph glyph-name="uni1E20" unicode="&#x1e20;" horiz-adv-x="712" 
d="M166 25q-59 33 -91.5 93.5t-32.5 139.5v184q0 79 32.5 139.5t92 93.5t137.5 33h112q75 0 132 -30t88.5 -85t31.5 -127h-136q0 54 -32 87t-84 33h-112q-56 0 -90 -41.5t-34 -108.5v-172q0 -67 33.5 -108.5t88.5 -41.5h118q51 0 84.5 37t33.5 92v22h-194v120h330v-142
q0 -73 -32 -130t-90 -89t-132 -32h-118q-77 0 -136 33zM197 890h320v-106h-320v106z" />
    <glyph glyph-name="uni1E21" unicode="&#x1e21;" horiz-adv-x="606" 
d="M119 -157.5q-53 45.5 -59 119.5h134q2 -22 18 -35.5t40 -13.5h90q31 0 50.5 25.5t19.5 66.5v47q-20 -22 -48.5 -35t-54.5 -13h-69q-91 0 -146.5 54t-55.5 142v102q0 61 26 107.5t73 72t108 25.5h58q34 0 66.5 -16t52.5 -42v50h126v-494q0 -62 -25.5 -109t-72.5 -73
t-108 -26h-90q-80 0 -133 45.5zM318 119q38 0 64 31.5t30 82.5v69q-4 40 -27 64t-58 24h-70q-37 0 -60 -27t-23 -71v-82q0 -41 21 -66t54 -25h69zM136 689h320v-106h-320v106z" />
    <glyph glyph-name="uni1E24" unicode="&#x1e24;" horiz-adv-x="726" 
d="M62 700h138v-289h326v289h138v-700h-138v291h-326v-291h-138v700zM299 -204.5q-23 22.5 -23 59.5t22.5 60t60.5 23t60.5 -23t22.5 -60t-23 -59.5t-60 -22.5t-60 22.5z" />
    <glyph glyph-name="uni1E25" unicode="&#x1e25;" horiz-adv-x="602" 
d="M58 700h136v-251q22 26 54.5 42t62.5 16h62q80 0 128.5 -50t48.5 -132v-325h-136v320q0 31 -16.5 50t-42.5 19h-62q-35 0 -62.5 -25.5t-36.5 -66.5v-297h-136v700zM244 -204.5q-23 22.5 -23 59.5t22.5 60t60.5 23t60.5 -23t22.5 -60t-23 -59.5t-60 -22.5t-60 22.5z" />
    <glyph glyph-name="uni1E2A" unicode="&#x1e2a;" horiz-adv-x="726" 
d="M62 700h138v-289h326v289h138v-700h-138v291h-326v-291h-138v700zM229 -193.5q-47 41.5 -47 109.5v20h106v-20q0 -28 18 -44.5t47 -16.5h12q29 0 47 16.5t18 44.5v20h106v-20q0 -68 -47 -109.5t-124 -41.5h-12q-77 0 -124 41.5z" />
    <glyph glyph-name="uni1E2B" unicode="&#x1e2b;" horiz-adv-x="602" 
d="M58 700h136v-251q22 26 54.5 42t62.5 16h62q80 0 128.5 -50t48.5 -132v-325h-136v320q0 31 -16.5 50t-42.5 19h-62q-35 0 -62.5 -25.5t-36.5 -66.5v-297h-136v700zM174 -193.5q-47 41.5 -47 109.5v20h106v-20q0 -28 18 -44.5t47 -16.5h12q29 0 47 16.5t18 44.5v20h106
v-20q0 -68 -47 -109.5t-124 -41.5h-12q-77 0 -124 41.5z" />
    <glyph glyph-name="uni1E36" unicode="&#x1e36;" horiz-adv-x="588" 
d="M88.5 25.5q-26.5 25.5 -26.5 67.5v607h138v-580h380v-120h-421q-44 0 -70.5 25.5zM266 -204.5q-23 22.5 -23 59.5t22.5 60t60.5 23t60.5 -23t22.5 -60t-23 -59.5t-60 -22.5t-60 22.5z" />
    <glyph glyph-name="uni1E37" unicode="&#x1e37;" horiz-adv-x="296" 
d="M99.5 37.5q-41.5 37.5 -41.5 116.5v546h136v-538q0 -24 11 -35t35 -11h54v-116h-64q-89 0 -130.5 37.5zM111 -204.5q-23 22.5 -23 59.5t22.5 60t60.5 23t60.5 -23t22.5 -60t-23 -59.5t-60 -22.5t-60 22.5z" />
    <glyph glyph-name="uni1E38" unicode="&#x1e38;" horiz-adv-x="588" 
d="M88.5 25.5q-26.5 25.5 -26.5 67.5v607h138v-580h380v-120h-421q-44 0 -70.5 25.5zM266 -204.5q-23 22.5 -23 59.5t22.5 60t60.5 23t60.5 -23t22.5 -60t-23 -59.5t-60 -22.5t-60 22.5zM-29 890h320v-106h-320v106z" />
    <glyph glyph-name="uni1E39" unicode="&#x1e39;" horiz-adv-x="296" 
d="M99.5 37.5q-41.5 37.5 -41.5 116.5v546h136v-538q0 -24 11 -35t35 -11h54v-116h-64q-89 0 -130.5 37.5zM111 -204.5q-23 22.5 -23 59.5t22.5 60t60.5 23t60.5 -23t22.5 -60t-23 -59.5t-60 -22.5t-60 22.5zM-34 890h320v-106h-320v106z" />
    <glyph glyph-name="uni1E3A" unicode="&#x1e3a;" horiz-adv-x="588" 
d="M88.5 25.5q-26.5 25.5 -26.5 67.5v607h138v-580h380v-120h-421q-44 0 -70.5 25.5zM166 -82h320v-108h-320v108z" />
    <glyph glyph-name="uni1E3B" unicode="&#x1e3b;" horiz-adv-x="296" 
d="M99.5 37.5q-41.5 37.5 -41.5 116.5v546h136v-538q0 -24 11 -35t35 -11h54v-116h-64q-89 0 -130.5 37.5zM11 -82h320v-108h-320v108z" />
    <glyph glyph-name="uni1E42" unicode="&#x1e42;" horiz-adv-x="823" 
d="M62 700h123l229 -416l224 416h123v-700h-135v443l-147 -266q-15 -27 -30.5 -38.5t-35.5 -11.5h-38l-178 316v-443h-135v700zM353 -204.5q-23 22.5 -23 59.5t22.5 60t60.5 23t60.5 -23t22.5 -60t-23 -59.5t-60 -22.5t-60 22.5z" />
    <glyph glyph-name="uni1E43" unicode="&#x1e43;" horiz-adv-x="848" 
d="M750 457.5q46 -49.5 46 -129.5v-328h-136v328q0 28 -13 44.5t-34 16.5h-43q-28 0 -49 -20.5t-26 -54.5v-314h-136v327q0 28 -13 45t-34 17h-39q-29 0 -51 -26t-28 -68v-295h-136v499h126v-58q18 30 46.5 48t57.5 18h56q36 0 65.5 -19t46.5 -53q22 34 52.5 53t64.5 19h55
q76 0 122 -49.5zM367 -204.5q-23 22.5 -23 59.5t22.5 60t60.5 23t60.5 -23t22.5 -60t-23 -59.5t-60 -22.5t-60 22.5z" />
    <glyph glyph-name="uni1E44" unicode="&#x1e44;" horiz-adv-x="718" 
d="M62 700h123l336 -476v476h135v-700h-123l-336 476v-476h-135v700zM299 783.5q-23 22.5 -23 59.5q0 38 22.5 60.5t60.5 22.5t60.5 -22.5t22.5 -60.5q0 -37 -23 -59.5t-60 -22.5t-60 22.5z" />
    <glyph glyph-name="uni1E45" unicode="&#x1e45;" horiz-adv-x="600" 
d="M58 499h126v-60q22 31 57 49.5t70 18.5h60q80 0 128.5 -50t48.5 -132v-325h-136v320q0 31 -16.5 50t-42.5 19h-60q-35 0 -62.5 -25.5t-36.5 -66.5v-297h-136v499zM247 582.5q-23 22.5 -23 59.5q0 38 22.5 60.5t60.5 22.5t60.5 -22.5t22.5 -60.5q0 -37 -23 -59.5
t-60 -22.5t-60 22.5z" />
    <glyph glyph-name="uni1E46" unicode="&#x1e46;" horiz-adv-x="718" 
d="M62 700h123l336 -476v476h135v-700h-123l-336 476v-476h-135v700zM299 -204.5q-23 22.5 -23 59.5t22.5 60t60.5 23t60.5 -23t22.5 -60t-23 -59.5t-60 -22.5t-60 22.5z" />
    <glyph glyph-name="uni1E47" unicode="&#x1e47;" horiz-adv-x="600" 
d="M58 499h126v-60q22 31 57 49.5t70 18.5h60q80 0 128.5 -50t48.5 -132v-325h-136v320q0 31 -16.5 50t-42.5 19h-60q-35 0 -62.5 -25.5t-36.5 -66.5v-297h-136v499zM243 -204.5q-23 22.5 -23 59.5t22.5 60t60.5 23t60.5 -23t22.5 -60t-23 -59.5t-60 -22.5t-60 22.5z" />
    <glyph glyph-name="uni1E48" unicode="&#x1e48;" horiz-adv-x="718" 
d="M62 700h123l336 -476v476h135v-700h-123l-336 476v-476h-135v700zM199 -82h320v-108h-320v108z" />
    <glyph glyph-name="uni1E49" unicode="&#x1e49;" horiz-adv-x="600" 
d="M58 499h126v-60q22 31 57 49.5t70 18.5h60q80 0 128.5 -50t48.5 -132v-325h-136v320q0 31 -16.5 50t-42.5 19h-60q-35 0 -62.5 -25.5t-36.5 -66.5v-297h-136v499zM143 -82h320v-108h-320v108z" />
    <glyph glyph-name="uni1E5A" unicode="&#x1e5a;" horiz-adv-x="678" 
d="M62 700h372q91 0 146.5 -49t55.5 -129v-70q0 -52 -29.5 -90.5t-85.5 -58.5v-2q32 -21 48.5 -48t32.5 -75l56 -178h-143l-53 166q-13 43 -36 64t-57 21h-169v-251h-138v700zM408 370q42 0 66 22.5t24 58.5v65q0 29 -18 46.5t-48 17.5h-232v-210h208zM289 -204.5
q-23 22.5 -23 59.5t22.5 60t60.5 23t60.5 -23t22.5 -60t-23 -59.5t-60 -22.5t-60 22.5z" />
    <glyph glyph-name="uni1E5B" unicode="&#x1e5b;" horiz-adv-x="383" 
d="M58 499h126v-64q19 29 54.5 47.5t74.5 18.5h68v-118h-68q-53 0 -86 -32t-33 -82v-269h-136v499zM66 -204.5q-23 22.5 -23 59.5t22.5 60t60.5 23t60.5 -23t22.5 -60t-23 -59.5t-60 -22.5t-60 22.5z" />
    <glyph glyph-name="uni1E5C" unicode="&#x1e5c;" horiz-adv-x="678" 
d="M62 700h372q91 0 146.5 -49t55.5 -129v-70q0 -52 -29.5 -90.5t-85.5 -58.5v-2q32 -21 48.5 -48t32.5 -75l56 -178h-143l-53 166q-13 43 -36 64t-57 21h-169v-251h-138v700zM408 370q42 0 66 22.5t24 58.5v65q0 29 -18 46.5t-48 17.5h-232v-210h208zM289 -204.5
q-23 22.5 -23 59.5t22.5 60t60.5 23t60.5 -23t22.5 -60t-23 -59.5t-60 -22.5t-60 22.5zM174 890h320v-106h-320v106z" />
    <glyph glyph-name="uni1E5D" unicode="&#x1e5d;" horiz-adv-x="383" 
d="M58 499h126v-64q19 29 54.5 47.5t74.5 18.5h68v-118h-68q-53 0 -86 -32t-33 -82v-269h-136v499zM66 -204.5q-23 22.5 -23 59.5t22.5 60t60.5 23t60.5 -23t22.5 -60t-23 -59.5t-60 -22.5t-60 22.5zM56 689h320v-106h-320v106z" />
    <glyph glyph-name="uni1E5E" unicode="&#x1e5e;" horiz-adv-x="678" 
d="M62 700h372q91 0 146.5 -49t55.5 -129v-70q0 -52 -29.5 -90.5t-85.5 -58.5v-2q32 -21 48.5 -48t32.5 -75l56 -178h-143l-53 166q-13 43 -36 64t-57 21h-169v-251h-138v700zM408 370q42 0 66 22.5t24 58.5v65q0 29 -18 46.5t-48 17.5h-232v-210h208zM189 -82h320v-108
h-320v108z" />
    <glyph glyph-name="uni1E5F" unicode="&#x1e5f;" horiz-adv-x="383" 
d="M58 499h126v-64q19 29 54.5 47.5t74.5 18.5h68v-118h-68q-53 0 -86 -32t-33 -82v-269h-136v499zM-34 -82h320v-108h-320v108z" />
    <glyph glyph-name="uni1E60" unicode="&#x1e60;" horiz-adv-x="656" 
d="M100 53.5q-62 61.5 -62 171.5h136q0 -52 26.5 -81.5t73.5 -29.5h111q44 0 71.5 18.5t27.5 49.5v34q0 49 -72 61l-184 31q-90 15 -136.5 57.5t-46.5 108.5v56q0 53 28.5 93.5t81 62.5t121.5 22h113q65 0 115 -27t77.5 -75.5t27.5 -112.5h-136q0 42 -23 67.5t-61 25.5h-113
q-42 0 -67.5 -18t-25.5 -48v-27q0 -50 69 -62l183 -32q91 -16 139 -56.5t48 -104.5v-66q0 -53 -29.5 -94t-82.5 -63.5t-123 -22.5h-115q-110 0 -172 61.5zM268 783.5q-23 22.5 -23 59.5q0 38 22.5 60.5t60.5 22.5t60.5 -22.5t22.5 -60.5q0 -37 -23 -59.5t-60 -22.5t-60 22.5
z" />
    <glyph glyph-name="uni1E61" unicode="&#x1e61;" horiz-adv-x="549" 
d="M89 40q-55 48 -55 126h134q0 -27 18.5 -43.5t48.5 -16.5h90q60 0 60 33v17q0 10 -10 18.5t-27 11.5l-173 30q-61 10 -96.5 43.5t-35.5 78.5v33q0 64 52.5 100t146.5 36h78q84 0 135.5 -44.5t51.5 -117.5h-134q0 22 -14.5 35t-38.5 13h-76q-65 0 -65 -30v-16
q0 -11 8.5 -18.5t24.5 -10.5l182 -33q57 -10 92 -42.5t35 -73.5v-36q0 -65 -53.5 -103t-142.5 -38h-90q-91 0 -146 48zM215 582.5q-23 22.5 -23 59.5q0 38 22.5 60.5t60.5 22.5t60.5 -22.5t22.5 -60.5q0 -37 -23 -59.5t-60 -22.5t-60 22.5z" />
    <glyph glyph-name="uni1E62" unicode="&#x1e62;" horiz-adv-x="656" 
d="M100 53.5q-62 61.5 -62 171.5h136q0 -52 26.5 -81.5t73.5 -29.5h111q44 0 71.5 18.5t27.5 49.5v34q0 49 -72 61l-184 31q-90 15 -136.5 57.5t-46.5 108.5v56q0 53 28.5 93.5t81 62.5t121.5 22h113q65 0 115 -27t77.5 -75.5t27.5 -112.5h-136q0 42 -23 67.5t-61 25.5h-113
q-42 0 -67.5 -18t-25.5 -48v-27q0 -50 69 -62l183 -32q91 -16 139 -56.5t48 -104.5v-66q0 -53 -29.5 -94t-82.5 -63.5t-123 -22.5h-115q-110 0 -172 61.5zM281 -204.5q-23 22.5 -23 59.5t22.5 60t60.5 23t60.5 -23t22.5 -60t-23 -59.5t-60 -22.5t-60 22.5z" />
    <glyph glyph-name="uni1E63" unicode="&#x1e63;" horiz-adv-x="549" 
d="M89 40q-55 48 -55 126h134q0 -27 18.5 -43.5t48.5 -16.5h90q60 0 60 33v17q0 10 -10 18.5t-27 11.5l-173 30q-61 10 -96.5 43.5t-35.5 78.5v33q0 64 52.5 100t146.5 36h78q84 0 135.5 -44.5t51.5 -117.5h-134q0 22 -14.5 35t-38.5 13h-76q-65 0 -65 -30v-16
q0 -11 8.5 -18.5t24.5 -10.5l182 -33q57 -10 92 -42.5t35 -73.5v-36q0 -65 -53.5 -103t-142.5 -38h-90q-91 0 -146 48zM230 -204.5q-23 22.5 -23 59.5t22.5 60t60.5 23t60.5 -23t22.5 -60t-23 -59.5t-60 -22.5t-60 22.5z" />
    <glyph glyph-name="uni1E6C" unicode="&#x1e6c;" horiz-adv-x="606" 
d="M234 580h-222v120h582v-120h-222v-580h-138v580zM239 -204.5q-23 22.5 -23 59.5t22.5 60t60.5 23t60.5 -23t22.5 -60t-23 -59.5t-60 -22.5t-60 22.5z" />
    <glyph glyph-name="uni1E6D" unicode="&#x1e6d;" horiz-adv-x="410" 
d="M147 40q-41 40 -41 124v219h-88v116h92v151h132v-151h130v-116h-130v-213q0 -28 10.5 -41t33.5 -13h86v-116h-96q-88 0 -129 40zM180 -204.5q-23 22.5 -23 59.5t22.5 60t60.5 23t60.5 -23t22.5 -60t-23 -59.5t-60 -22.5t-60 22.5z" />
    <glyph glyph-name="uni1E6E" unicode="&#x1e6e;" horiz-adv-x="606" 
d="M234 580h-222v120h582v-120h-222v-580h-138v580zM139 -82h320v-108h-320v108z" />
    <glyph glyph-name="uni1E6F" unicode="&#x1e6f;" horiz-adv-x="410" 
d="M147 40q-41 40 -41 124v219h-88v116h92v151h132v-151h130v-116h-130v-213q0 -28 10.5 -41t33.5 -13h86v-116h-96q-88 0 -129 40zM80 -82h320v-108h-320v108z" />
    <glyph glyph-name="Wgrave" unicode="&#x1e80;" horiz-adv-x="877" 
d="M172 17q-23 17 -32 61l-124 622h140l86 -497h2l145 460h50q25 0 43.5 -13t28.5 -47l122 -399h2l86 496h140l-125 -622q-8 -40 -29.5 -59t-58.5 -19h-58l-149 480h-2l-152 -480h-58q-34 0 -57 17zM256 949h150l98 -180h-130z" />
    <glyph glyph-name="wgrave" unicode="&#x1e81;" horiz-adv-x="749" 
d="M115 78l-101 421h141l61 -317h2l109 305h53q23 0 37 -10t22 -31l93 -264h2l60 317h141l-99 -421q-18 -78 -86 -78h-62l-111 316l-115 -316h-61q-67 0 -86 78zM193 748h150l98 -180h-130z" />
    <glyph glyph-name="Wacute" unicode="&#x1e82;" horiz-adv-x="877" 
d="M172 17q-23 17 -32 61l-124 622h140l86 -497h2l145 460h50q25 0 43.5 -13t28.5 -47l122 -399h2l86 496h140l-125 -622q-8 -40 -29.5 -59t-58.5 -19h-58l-149 480h-2l-152 -480h-58q-34 0 -57 17zM471 949h150l-118 -180h-130z" />
    <glyph glyph-name="wacute" unicode="&#x1e83;" horiz-adv-x="749" 
d="M115 78l-101 421h141l61 -317h2l109 305h53q23 0 37 -10t22 -31l93 -264h2l60 317h141l-99 -421q-18 -78 -86 -78h-62l-111 316l-115 -316h-61q-67 0 -86 78zM408 748h150l-118 -180h-130z" />
    <glyph glyph-name="Wdieresis" unicode="&#x1e84;" horiz-adv-x="877" 
d="M172 17q-23 17 -32 61l-124 622h140l86 -497h2l145 460h50q25 0 43.5 -13t28.5 -47l122 -399h2l86 496h140l-125 -622q-8 -40 -29.5 -59t-58.5 -19h-58l-149 480h-2l-152 -480h-58q-34 0 -57 17zM264 790.5q-20 19.5 -20 51.5t20 51.5t52 19.5q31 0 51 -19.5t20 -51.5
q0 -31 -20 -51t-51 -20q-32 0 -52 19.5zM513 791q-20 20 -20 51q0 32 20 51.5t51 19.5q32 0 52 -19.5t20 -51.5t-20 -51.5t-52 -19.5q-31 0 -51 20z" />
    <glyph glyph-name="wdieresis" unicode="&#x1e85;" horiz-adv-x="749" 
d="M115 78l-101 421h141l61 -317h2l109 305h53q23 0 37 -10t22 -31l93 -264h2l60 317h141l-99 -421q-18 -78 -86 -78h-62l-111 316l-115 -316h-61q-67 0 -86 78zM201 589.5q-20 19.5 -20 51.5t20 51.5t52 19.5q31 0 51 -19.5t20 -51.5q0 -31 -20 -51t-51 -20q-32 0 -52 19.5
zM450 590q-20 20 -20 51q0 32 20 51.5t51 19.5q32 0 52 -19.5t20 -51.5t-20 -51.5t-52 -19.5q-31 0 -51 20z" />
    <glyph glyph-name="uni1E8E" unicode="&#x1e8e;" horiz-adv-x="652" 
d="M257 272l-259 428h150l178 -301l178 301h150l-259 -428v-272h-138v272zM266 783.5q-23 22.5 -23 59.5q0 38 22.5 60.5t60.5 22.5t60.5 -22.5t22.5 -60.5q0 -37 -23 -59.5t-60 -22.5t-60 22.5z" />
    <glyph glyph-name="uni1E8F" unicode="&#x1e8f;" horiz-adv-x="598" 
d="M118.5 -157.5q-52.5 45.5 -58.5 119.5h134q2 -22 18 -35.5t40 -13.5h82q31 0 50.5 25.5t19.5 66.5v65q-23 -31 -52.5 -48.5t-58.5 -17.5h-66q-79 0 -127 52.5t-48 139.5v303h136v-305q0 -33 16.5 -53.5t43.5 -20.5h58q33 0 60 27.5t38 72.5v279h136v-494
q0 -62 -25.5 -109t-72.5 -73t-108 -26h-82q-81 0 -133.5 45.5zM239 582.5q-23 22.5 -23 59.5q0 38 22.5 60.5t60.5 22.5t60.5 -22.5t22.5 -60.5q0 -37 -23 -59.5t-60 -22.5t-60 22.5z" />
    <glyph glyph-name="uni1E92" unicode="&#x1e92;" horiz-adv-x="606" 
d="M22 68l371 514h-353v118h544v-68l-373 -514h363v-118h-552v68zM243 -204.5q-23 22.5 -23 59.5t22.5 60t60.5 23t60.5 -23t22.5 -60t-23 -59.5t-60 -22.5t-60 22.5z" />
    <glyph glyph-name="uni1E93" unicode="&#x1e93;" horiz-adv-x="500" 
d="M18 68l270 316h-258v115h452v-68l-270 -316h265v-115h-459v68zM189 -204.5q-23 22.5 -23 59.5t22.5 60t60.5 23t60.5 -23t22.5 -60t-23 -59.5t-60 -22.5t-60 22.5z" />
    <glyph glyph-name="uni1E97" unicode="&#x1e97;" horiz-adv-x="410" 
d="M147 40q-41 40 -41 124v219h-88v116h92v151h132v-151h130v-116h-130v-213q0 -28 10.5 -41t33.5 -13h86v-116h-96q-88 0 -129 40zM12 740.5q-20 19.5 -20 51.5t20 51.5t52 19.5q31 0 51 -19.5t20 -51.5q0 -31 -20 -51t-51 -20q-32 0 -52 19.5zM261 741q-20 20 -20 51
q0 32 20 51.5t51 19.5q32 0 52 -19.5t20 -51.5t-20 -51.5t-52 -19.5q-31 0 -51 20z" />
    <glyph glyph-name="uni1E9E" unicode="&#x1e9e;" horiz-adv-x="681" 
d="M292 39q-48 47 -48 123h124q0 -24 14 -39t36 -15h53q23 0 37.5 18.5t14.5 49.5v32q0 30 -13.5 47.5t-43.5 28.5l-147 54v74l118 170h-136q-50 0 -80.5 -29t-30.5 -77v-476h-136v476q0 66 31 117t87 79t129 28h297v-94l-133 -196l63 -26q69 -28 99 -69.5t30 -106.5v-32
q0 -84 -51 -134t-135 -50h-53q-78 0 -126 47z" />
    <glyph glyph-name="uni1EA0" unicode="&#x1ea0;" horiz-adv-x="681" 
d="M472 163h-262l-62 -163h-144l274 700h62q65 0 88 -60l249 -640h-144zM247 279h188l-93 252h-1zM281 -204.5q-23 22.5 -23 59.5t22.5 60t60.5 23t60.5 -23t22.5 -60t-23 -59.5t-60 -22.5t-60 22.5z" />
    <glyph glyph-name="uni1EA1" unicode="&#x1ea1;" horiz-adv-x="584" 
d="M90 31q-48 39 -48 103v37q0 63 50 101.5t132 38.5h61q26 0 56 -7t55 -19v52q0 25 -16.5 40.5t-43.5 15.5h-86q-28 0 -45 -13t-17 -35h-132q0 73 53.5 117.5t140.5 44.5h86q88 0 142 -46.5t54 -123.5v-337h-126v60q-24 -31 -59 -49.5t-69 -18.5h-62q-78 0 -126 39zM288 96
q37 0 66 19t42 51v17q-16 12 -44.5 19t-60.5 7h-63q-24 0 -39 -12t-15 -32v-26q0 -19 16.5 -31t43.5 -12h54zM244 -204.5q-23 22.5 -23 59.5t22.5 60t60.5 23t60.5 -23t22.5 -60t-23 -59.5t-60 -22.5t-60 22.5z" />
    <glyph glyph-name="uni1EA2" unicode="&#x1ea2;" horiz-adv-x="681" 
d="M472 163h-262l-62 -163h-144l274 700h62q65 0 88 -60l249 -640h-144zM247 279h188l-93 252h-1zM284 781q0 21 13.5 33.5t40.5 26.5q22 13 33 22.5t11 23.5v12q0 29 -32 29h-19q-37 0 -37 -39h-92q0 123 129 123h19q63 0 95.5 -28.5t32.5 -84.5v-12q0 -30 -14.5 -46.5
t-41.5 -33.5q-16 -11 -24 -18.5t-8 -17.5v-12h-106v22z" />
    <glyph glyph-name="uni1EA3" unicode="&#x1ea3;" horiz-adv-x="584" 
d="M90 31q-48 39 -48 103v37q0 63 50 101.5t132 38.5h61q26 0 56 -7t55 -19v52q0 25 -16.5 40.5t-43.5 15.5h-86q-28 0 -45 -13t-17 -35h-132q0 73 53.5 117.5t140.5 44.5h86q88 0 142 -46.5t54 -123.5v-337h-126v60q-24 -31 -59 -49.5t-69 -18.5h-62q-78 0 -126 39zM288 96
q37 0 66 19t42 51v17q-16 12 -44.5 19t-60.5 7h-63q-24 0 -39 -12t-15 -32v-26q0 -19 16.5 -31t43.5 -12h54zM241 580q0 21 13.5 33.5t40.5 26.5q22 13 33 22.5t11 23.5v12q0 29 -32 29h-19q-37 0 -37 -39h-92q0 123 129 123h19q63 0 95.5 -28.5t32.5 -84.5v-12
q0 -30 -14.5 -46.5t-41.5 -33.5q-16 -11 -24 -18.5t-8 -17.5v-12h-106v22z" />
    <glyph glyph-name="uni1EA4" unicode="&#x1ea4;" horiz-adv-x="681" 
d="M472 163h-262l-62 -163h-144l274 700h62q65 0 88 -60l249 -640h-144zM247 279h188l-93 252h-1zM533 1087h126l-100 -150h-108zM296 955h89l151 -186h-121l-74 97l-75 -97h-120z" />
    <glyph glyph-name="uni1EA5" unicode="&#x1ea5;" horiz-adv-x="584" 
d="M90 31q-48 39 -48 103v37q0 63 50 101.5t132 38.5h61q26 0 56 -7t55 -19v52q0 25 -16.5 40.5t-43.5 15.5h-86q-28 0 -45 -13t-17 -35h-132q0 73 53.5 117.5t140.5 44.5h86q88 0 142 -46.5t54 -123.5v-337h-126v60q-24 -31 -59 -49.5t-69 -18.5h-62q-78 0 -126 39zM288 96
q37 0 66 19t42 51v17q-16 12 -44.5 19t-60.5 7h-63q-24 0 -39 -12t-15 -32v-26q0 -19 16.5 -31t43.5 -12h54zM490 886h126l-100 -150h-108zM253 754h89l151 -186h-121l-74 97l-75 -97h-120z" />
    <glyph glyph-name="uni1EA6" unicode="&#x1ea6;" horiz-adv-x="681" 
d="M472 163h-262l-62 -163h-144l274 700h62q65 0 88 -60l249 -640h-144zM247 279h188l-93 252h-1zM395 1087h126l82 -150h-108zM296 955h89l151 -186h-121l-74 97l-75 -97h-120z" />
    <glyph glyph-name="uni1EA7" unicode="&#x1ea7;" horiz-adv-x="584" 
d="M90 31q-48 39 -48 103v37q0 63 50 101.5t132 38.5h61q26 0 56 -7t55 -19v52q0 25 -16.5 40.5t-43.5 15.5h-86q-28 0 -45 -13t-17 -35h-132q0 73 53.5 117.5t140.5 44.5h86q88 0 142 -46.5t54 -123.5v-337h-126v60q-24 -31 -59 -49.5t-69 -18.5h-62q-78 0 -126 39zM288 96
q37 0 66 19t42 51v17q-16 12 -44.5 19t-60.5 7h-63q-24 0 -39 -12t-15 -32v-26q0 -19 16.5 -31t43.5 -12h54zM352 886h126l82 -150h-108zM253 754h89l151 -186h-121l-74 97l-75 -97h-120z" />
    <glyph glyph-name="uni1EA8" unicode="&#x1ea8;" horiz-adv-x="681" 
d="M472 163h-262l-62 -163h-144l274 700h62q65 0 88 -60l249 -640h-144zM247 279h188l-93 252h-1zM480 925q0 18 11.5 28t34.5 23q19 11 28.5 19t9.5 20v13q0 23 -25 23h-17q-28 0 -28 -31h-84q0 53 28.5 80t83.5 27h17q56 0 84.5 -25t28.5 -74v-13q0 -26 -13 -40.5
t-37 -29.5q-14 -9 -21 -15t-7 -15v-10h-94v20zM296 955h89l151 -186h-121l-74 97l-75 -97h-120z" />
    <glyph glyph-name="uni1EA9" unicode="&#x1ea9;" horiz-adv-x="584" 
d="M90 31q-48 39 -48 103v37q0 63 50 101.5t132 38.5h61q26 0 56 -7t55 -19v52q0 25 -16.5 40.5t-43.5 15.5h-86q-28 0 -45 -13t-17 -35h-132q0 73 53.5 117.5t140.5 44.5h86q88 0 142 -46.5t54 -123.5v-337h-126v60q-24 -31 -59 -49.5t-69 -18.5h-62q-78 0 -126 39zM288 96
q37 0 66 19t42 51v17q-16 12 -44.5 19t-60.5 7h-63q-24 0 -39 -12t-15 -32v-26q0 -19 16.5 -31t43.5 -12h54zM437 724q0 18 11.5 28t34.5 23q19 11 28.5 19t9.5 20v13q0 23 -25 23h-17q-28 0 -28 -31h-84q0 53 28.5 80t83.5 27h17q56 0 84.5 -25t28.5 -74v-13
q0 -26 -13 -40.5t-37 -29.5q-14 -9 -21 -15t-7 -15v-10h-94v20zM253 754h89l151 -186h-121l-74 97l-75 -97h-120z" />
    <glyph glyph-name="uni1EAA" unicode="&#x1eaa;" horiz-adv-x="681" 
d="M472 163h-262l-62 -163h-144l274 700h62q65 0 88 -60l249 -640h-144zM247 279h188l-93 252h-1zM367 995q-17 8 -35 21q-3 2 -16.5 10t-23.5 8h-5q-13 0 -21 -11t-8 -29h-90q0 57 30.5 90.5t81.5 33.5h6q20 0 36.5 -8t38.5 -22q10 -7 19.5 -12t16.5 -5h5q12 0 19 10.5
t7 29.5h90q0 -57 -29.5 -90.5t-78.5 -33.5h-6q-20 0 -37 8zM296 955h89l151 -186h-121l-74 97l-75 -97h-120z" />
    <glyph glyph-name="uni1EAB" unicode="&#x1eab;" horiz-adv-x="584" 
d="M90 31q-48 39 -48 103v37q0 63 50 101.5t132 38.5h61q26 0 56 -7t55 -19v52q0 25 -16.5 40.5t-43.5 15.5h-86q-28 0 -45 -13t-17 -35h-132q0 73 53.5 117.5t140.5 44.5h86q88 0 142 -46.5t54 -123.5v-337h-126v60q-24 -31 -59 -49.5t-69 -18.5h-62q-78 0 -126 39zM288 96
q37 0 66 19t42 51v17q-16 12 -44.5 19t-60.5 7h-63q-24 0 -39 -12t-15 -32v-26q0 -19 16.5 -31t43.5 -12h54zM324 794q-17 8 -35 21q-3 2 -16.5 10t-23.5 8h-5q-13 0 -21 -11t-8 -29h-90q0 57 30.5 90.5t81.5 33.5h6q20 0 36.5 -8t38.5 -22q10 -7 19.5 -12t16.5 -5h5
q12 0 19 10.5t7 29.5h90q0 -57 -29.5 -90.5t-78.5 -33.5h-6q-20 0 -37 8zM253 754h89l151 -186h-121l-74 97l-75 -97h-120z" />
    <glyph glyph-name="uni1EAC" unicode="&#x1eac;" horiz-adv-x="681" 
d="M472 163h-262l-62 -163h-144l274 700h62q65 0 88 -60l249 -640h-144zM247 279h188l-93 252h-1zM281 -204.5q-23 22.5 -23 59.5t22.5 60t60.5 23t60.5 -23t22.5 -60t-23 -59.5t-60 -22.5t-60 22.5zM296 955h89l151 -186h-121l-74 97l-75 -97h-120z" />
    <glyph glyph-name="uni1EAD" unicode="&#x1ead;" horiz-adv-x="584" 
d="M90 31q-48 39 -48 103v37q0 63 50 101.5t132 38.5h61q26 0 56 -7t55 -19v52q0 25 -16.5 40.5t-43.5 15.5h-86q-28 0 -45 -13t-17 -35h-132q0 73 53.5 117.5t140.5 44.5h86q88 0 142 -46.5t54 -123.5v-337h-126v60q-24 -31 -59 -49.5t-69 -18.5h-62q-78 0 -126 39zM288 96
q37 0 66 19t42 51v17q-16 12 -44.5 19t-60.5 7h-63q-24 0 -39 -12t-15 -32v-26q0 -19 16.5 -31t43.5 -12h54zM244 -204.5q-23 22.5 -23 59.5t22.5 60t60.5 23t60.5 -23t22.5 -60t-23 -59.5t-60 -22.5t-60 22.5zM253 754h89l151 -186h-121l-74 97l-75 -97h-120z" />
    <glyph glyph-name="uni1EAE" unicode="&#x1eae;" horiz-adv-x="681" 
d="M472 163h-262l-62 -163h-144l274 700h62q65 0 88 -60l249 -640h-144zM247 279h188l-93 252h-1zM368 1129h126l-100 -150h-108zM211 802.5q-47 41.5 -47 109.5v20h106v-20q0 -28 18 -44.5t47 -16.5h12q29 0 47 16.5t18 44.5v20h106v-20q0 -68 -47 -109.5t-124 -41.5h-12
q-77 0 -124 41.5z" />
    <glyph glyph-name="uni1EAF" unicode="&#x1eaf;" horiz-adv-x="584" 
d="M90 31q-48 39 -48 103v37q0 63 50 101.5t132 38.5h61q26 0 56 -7t55 -19v52q0 25 -16.5 40.5t-43.5 15.5h-86q-28 0 -45 -13t-17 -35h-132q0 73 53.5 117.5t140.5 44.5h86q88 0 142 -46.5t54 -123.5v-337h-126v60q-24 -31 -59 -49.5t-69 -18.5h-62q-78 0 -126 39zM288 96
q37 0 66 19t42 51v17q-16 12 -44.5 19t-60.5 7h-63q-24 0 -39 -12t-15 -32v-26q0 -19 16.5 -31t43.5 -12h54zM325 928h126l-100 -150h-108zM168 601.5q-47 41.5 -47 109.5v20h106v-20q0 -28 18 -44.5t47 -16.5h12q29 0 47 16.5t18 44.5v20h106v-20q0 -68 -47 -109.5
t-124 -41.5h-12q-77 0 -124 41.5z" />
    <glyph glyph-name="uni1EB0" unicode="&#x1eb0;" horiz-adv-x="681" 
d="M472 163h-262l-62 -163h-144l274 700h62q65 0 88 -60l249 -640h-144zM247 279h188l-93 252h-1zM191 1129h126l82 -150h-108zM211 802.5q-47 41.5 -47 109.5v20h106v-20q0 -28 18 -44.5t47 -16.5h12q29 0 47 16.5t18 44.5v20h106v-20q0 -68 -47 -109.5t-124 -41.5h-12
q-77 0 -124 41.5z" />
    <glyph glyph-name="uni1EB1" unicode="&#x1eb1;" horiz-adv-x="584" 
d="M90 31q-48 39 -48 103v37q0 63 50 101.5t132 38.5h61q26 0 56 -7t55 -19v52q0 25 -16.5 40.5t-43.5 15.5h-86q-28 0 -45 -13t-17 -35h-132q0 73 53.5 117.5t140.5 44.5h86q88 0 142 -46.5t54 -123.5v-337h-126v60q-24 -31 -59 -49.5t-69 -18.5h-62q-78 0 -126 39zM288 96
q37 0 66 19t42 51v17q-16 12 -44.5 19t-60.5 7h-63q-24 0 -39 -12t-15 -32v-26q0 -19 16.5 -31t43.5 -12h54zM148 928h126l82 -150h-108zM168 601.5q-47 41.5 -47 109.5v20h106v-20q0 -28 18 -44.5t47 -16.5h12q29 0 47 16.5t18 44.5v20h106v-20q0 -68 -47 -109.5
t-124 -41.5h-12q-77 0 -124 41.5z" />
    <glyph glyph-name="uni1EB2" unicode="&#x1eb2;" horiz-adv-x="681" 
d="M472 163h-262l-62 -163h-144l274 700h62q65 0 88 -60l249 -640h-144zM247 279h188l-93 252h-1zM293 987q0 18 11.5 28t34.5 23q19 11 28.5 19t9.5 20v13q0 23 -25 23h-17q-28 0 -28 -31h-84q0 53 28.5 80t83.5 27h17q56 0 84.5 -25t28.5 -74v-13q0 -26 -13 -40.5
t-37 -29.5q-14 -9 -21 -15t-7 -15v-10h-94v20zM211 802.5q-47 41.5 -47 109.5v20h106v-20q0 -28 18 -44.5t47 -16.5h12q29 0 47 16.5t18 44.5v20h106v-20q0 -68 -47 -109.5t-124 -41.5h-12q-77 0 -124 41.5z" />
    <glyph glyph-name="uni1EB3" unicode="&#x1eb3;" horiz-adv-x="584" 
d="M90 31q-48 39 -48 103v37q0 63 50 101.5t132 38.5h61q26 0 56 -7t55 -19v52q0 25 -16.5 40.5t-43.5 15.5h-86q-28 0 -45 -13t-17 -35h-132q0 73 53.5 117.5t140.5 44.5h86q88 0 142 -46.5t54 -123.5v-337h-126v60q-24 -31 -59 -49.5t-69 -18.5h-62q-78 0 -126 39zM288 96
q37 0 66 19t42 51v17q-16 12 -44.5 19t-60.5 7h-63q-24 0 -39 -12t-15 -32v-26q0 -19 16.5 -31t43.5 -12h54zM250 786q0 18 11.5 28t34.5 23q19 11 28.5 19t9.5 20v13q0 23 -25 23h-17q-28 0 -28 -31h-84q0 53 28.5 80t83.5 27h17q56 0 84.5 -25t28.5 -74v-13
q0 -26 -13 -40.5t-37 -29.5q-14 -9 -21 -15t-7 -15v-10h-94v20zM168 601.5q-47 41.5 -47 109.5v20h106v-20q0 -28 18 -44.5t47 -16.5h12q29 0 47 16.5t18 44.5v20h106v-20q0 -68 -47 -109.5t-124 -41.5h-12q-77 0 -124 41.5z" />
    <glyph glyph-name="uni1EB4" unicode="&#x1eb4;" horiz-adv-x="681" 
d="M472 163h-262l-62 -163h-144l274 700h62q65 0 88 -60l249 -640h-144zM247 279h188l-93 252h-1zM371 1005q-16 8 -36 23q-14 10 -23 15t-17 5h-5q-13 0 -21 -11.5t-8 -30.5h-90q0 57 31 91.5t81 34.5h6q20 0 35 -7.5t40 -24.5q10 -7 19.5 -13t16.5 -6h5q12 0 19 11.5
t7 30.5h90q0 -57 -29.5 -91.5t-78.5 -34.5h-6q-20 0 -36 8zM211 802.5q-47 41.5 -47 109.5v20h106v-20q0 -28 18 -44.5t47 -16.5h12q29 0 47 16.5t18 44.5v20h106v-20q0 -68 -47 -109.5t-124 -41.5h-12q-77 0 -124 41.5z" />
    <glyph glyph-name="uni1EB5" unicode="&#x1eb5;" horiz-adv-x="584" 
d="M90 31q-48 39 -48 103v37q0 63 50 101.5t132 38.5h61q26 0 56 -7t55 -19v52q0 25 -16.5 40.5t-43.5 15.5h-86q-28 0 -45 -13t-17 -35h-132q0 73 53.5 117.5t140.5 44.5h86q88 0 142 -46.5t54 -123.5v-337h-126v60q-24 -31 -59 -49.5t-69 -18.5h-62q-78 0 -126 39zM288 96
q37 0 66 19t42 51v17q-16 12 -44.5 19t-60.5 7h-63q-24 0 -39 -12t-15 -32v-26q0 -19 16.5 -31t43.5 -12h54zM328 804q-16 8 -36 23q-14 10 -23 15t-17 5h-5q-13 0 -21 -11.5t-8 -30.5h-90q0 57 31 91.5t81 34.5h6q20 0 35 -7.5t40 -24.5q10 -7 19.5 -13t16.5 -6h5
q12 0 19 11.5t7 30.5h90q0 -57 -29.5 -91.5t-78.5 -34.5h-6q-20 0 -36 8zM168 601.5q-47 41.5 -47 109.5v20h106v-20q0 -28 18 -44.5t47 -16.5h12q29 0 47 16.5t18 44.5v20h106v-20q0 -68 -47 -109.5t-124 -41.5h-12q-77 0 -124 41.5z" />
    <glyph glyph-name="uni1EB6" unicode="&#x1eb6;" horiz-adv-x="681" 
d="M472 163h-262l-62 -163h-144l274 700h62q65 0 88 -60l249 -640h-144zM247 279h188l-93 252h-1zM281 -204.5q-23 22.5 -23 59.5t22.5 60t60.5 23t60.5 -23t22.5 -60t-23 -59.5t-60 -22.5t-60 22.5zM211 802.5q-47 41.5 -47 109.5v20h106v-20q0 -28 18 -44.5t47 -16.5h12
q29 0 47 16.5t18 44.5v20h106v-20q0 -68 -47 -109.5t-124 -41.5h-12q-77 0 -124 41.5z" />
    <glyph glyph-name="uni1EB7" unicode="&#x1eb7;" horiz-adv-x="584" 
d="M90 31q-48 39 -48 103v37q0 63 50 101.5t132 38.5h61q26 0 56 -7t55 -19v52q0 25 -16.5 40.5t-43.5 15.5h-86q-28 0 -45 -13t-17 -35h-132q0 73 53.5 117.5t140.5 44.5h86q88 0 142 -46.5t54 -123.5v-337h-126v60q-24 -31 -59 -49.5t-69 -18.5h-62q-78 0 -126 39zM288 96
q37 0 66 19t42 51v17q-16 12 -44.5 19t-60.5 7h-63q-24 0 -39 -12t-15 -32v-26q0 -19 16.5 -31t43.5 -12h54zM244 -204.5q-23 22.5 -23 59.5t22.5 60t60.5 23t60.5 -23t22.5 -60t-23 -59.5t-60 -22.5t-60 22.5zM168 601.5q-47 41.5 -47 109.5v20h106v-20q0 -28 18 -44.5
t47 -16.5h12q29 0 47 16.5t18 44.5v20h106v-20q0 -68 -47 -109.5t-124 -41.5h-12q-77 0 -124 41.5z" />
    <glyph glyph-name="uni1EB8" unicode="&#x1eb8;" horiz-adv-x="628" 
d="M89 26q-27 26 -27 68v606h534v-120h-396v-162h366v-120h-366v-178h396v-120h-437q-43 0 -70 26zM277 -204.5q-23 22.5 -23 59.5t22.5 60t60.5 23t60.5 -23t22.5 -60t-23 -59.5t-60 -22.5t-60 22.5z" />
    <glyph glyph-name="uni1EB9" unicode="&#x1eb9;" horiz-adv-x="578" 
d="M140.5 15.5q-48.5 23.5 -75.5 66t-27 97.5v129q0 59 27 104t75.5 70t111.5 25h80q96 0 154 -54t58 -144v-106h-370v-24q0 -33 21 -53t57 -20h78q35 0 56.5 15.5t21.5 40.5h134q0 -50 -27 -89t-75.5 -60t-111.5 -21h-76q-63 0 -111.5 23.5zM410 301v8q0 39 -21 62.5
t-56 23.5h-81q-36 0 -58 -25t-22 -66v-3h238zM232 -204.5q-23 22.5 -23 59.5t22.5 60t60.5 23t60.5 -23t22.5 -60t-23 -59.5t-60 -22.5t-60 22.5z" />
    <glyph glyph-name="uni1EBA" unicode="&#x1eba;" horiz-adv-x="628" 
d="M89 26q-27 26 -27 68v606h534v-120h-396v-162h366v-120h-366v-178h396v-120h-437q-43 0 -70 26zM276 781q0 21 13.5 33.5t40.5 26.5q22 13 33 22.5t11 23.5v12q0 29 -32 29h-19q-37 0 -37 -39h-92q0 123 129 123h19q63 0 95.5 -28.5t32.5 -84.5v-12q0 -30 -14.5 -46.5
t-41.5 -33.5q-16 -11 -24 -18.5t-8 -17.5v-12h-106v22z" />
    <glyph glyph-name="uni1EBB" unicode="&#x1ebb;" horiz-adv-x="578" 
d="M140.5 15.5q-48.5 23.5 -75.5 66t-27 97.5v129q0 59 27 104t75.5 70t111.5 25h80q96 0 154 -54t58 -144v-106h-370v-24q0 -33 21 -53t57 -20h78q35 0 56.5 15.5t21.5 40.5h134q0 -50 -27 -89t-75.5 -60t-111.5 -21h-76q-63 0 -111.5 23.5zM410 301v8q0 39 -21 62.5
t-56 23.5h-81q-36 0 -58 -25t-22 -66v-3h238zM233 580q0 21 13.5 33.5t40.5 26.5q22 13 33 22.5t11 23.5v12q0 29 -32 29h-19q-37 0 -37 -39h-92q0 123 129 123h19q63 0 95.5 -28.5t32.5 -84.5v-12q0 -30 -14.5 -46.5t-41.5 -33.5q-16 -11 -24 -18.5t-8 -17.5v-12h-106v22z
" />
    <glyph glyph-name="uni1EBC" unicode="&#x1ebc;" horiz-adv-x="628" 
d="M89 26q-27 26 -27 68v606h534v-120h-396v-162h366v-120h-366v-178h396v-120h-437q-43 0 -70 26zM356 771q-18 10 -39 28q-25 23 -39 23h-6q-13 0 -21 -14.5t-8 -38.5h-99q-1 67 32 108t89 41h6q24 0 42 -10.5t42 -29.5q23 -21 34 -21h6q12 0 19.5 14.5t7.5 38.5h99
q0 -67 -32 -108t-86 -41h-6q-23 0 -41 10z" />
    <glyph glyph-name="uni1EBD" unicode="&#x1ebd;" horiz-adv-x="578" 
d="M140.5 15.5q-48.5 23.5 -75.5 66t-27 97.5v129q0 59 27 104t75.5 70t111.5 25h80q96 0 154 -54t58 -144v-106h-370v-24q0 -33 21 -53t57 -20h78q35 0 56.5 15.5t21.5 40.5h134q0 -50 -27 -89t-75.5 -60t-111.5 -21h-76q-63 0 -111.5 23.5zM410 301v8q0 39 -21 62.5
t-56 23.5h-81q-36 0 -58 -25t-22 -66v-3h238zM313 570q-18 10 -39 28q-25 23 -39 23h-6q-13 0 -21 -14.5t-8 -38.5h-99q-1 67 32 108t89 41h6q24 0 42 -10.5t42 -29.5q23 -21 34 -21h6q12 0 19.5 14.5t7.5 38.5h99q0 -67 -32 -108t-86 -41h-6q-23 0 -41 10z" />
    <glyph glyph-name="uni1EBE" unicode="&#x1ebe;" horiz-adv-x="628" 
d="M89 26q-27 26 -27 68v606h534v-120h-396v-162h366v-120h-366v-178h396v-120h-437q-43 0 -70 26zM525 1087h126l-100 -150h-108zM288 955h89l151 -186h-121l-74 97l-75 -97h-120z" />
    <glyph glyph-name="uni1EBF" unicode="&#x1ebf;" horiz-adv-x="578" 
d="M140.5 15.5q-48.5 23.5 -75.5 66t-27 97.5v129q0 59 27 104t75.5 70t111.5 25h80q96 0 154 -54t58 -144v-106h-370v-24q0 -33 21 -53t57 -20h78q35 0 56.5 15.5t21.5 40.5h134q0 -50 -27 -89t-75.5 -60t-111.5 -21h-76q-63 0 -111.5 23.5zM410 301v8q0 39 -21 62.5
t-56 23.5h-81q-36 0 -58 -25t-22 -66v-3h238zM482 886h126l-100 -150h-108zM245 754h89l151 -186h-121l-74 97l-75 -97h-120z" />
    <glyph glyph-name="uni1EC0" unicode="&#x1ec0;" horiz-adv-x="628" 
d="M89 26q-27 26 -27 68v606h534v-120h-396v-162h366v-120h-366v-178h396v-120h-437q-43 0 -70 26zM387 1087h126l82 -150h-108zM288 955h89l151 -186h-121l-74 97l-75 -97h-120z" />
    <glyph glyph-name="uni1EC1" unicode="&#x1ec1;" horiz-adv-x="578" 
d="M140.5 15.5q-48.5 23.5 -75.5 66t-27 97.5v129q0 59 27 104t75.5 70t111.5 25h80q96 0 154 -54t58 -144v-106h-370v-24q0 -33 21 -53t57 -20h78q35 0 56.5 15.5t21.5 40.5h134q0 -50 -27 -89t-75.5 -60t-111.5 -21h-76q-63 0 -111.5 23.5zM410 301v8q0 39 -21 62.5
t-56 23.5h-81q-36 0 -58 -25t-22 -66v-3h238zM344 886h126l82 -150h-108zM245 754h89l151 -186h-121l-74 97l-75 -97h-120z" />
    <glyph glyph-name="uni1EC2" unicode="&#x1ec2;" horiz-adv-x="628" 
d="M89 26q-27 26 -27 68v606h534v-120h-396v-162h366v-120h-366v-178h396v-120h-437q-43 0 -70 26zM472 925q0 18 11.5 28t34.5 23q19 11 28.5 19t9.5 20v13q0 23 -25 23h-17q-28 0 -28 -31h-84q0 53 28.5 80t83.5 27h17q56 0 84.5 -25t28.5 -74v-13q0 -26 -13 -40.5
t-37 -29.5q-14 -9 -21 -15t-7 -15v-10h-94v20zM288 955h89l151 -186h-121l-74 97l-75 -97h-120z" />
    <glyph glyph-name="uni1EC3" unicode="&#x1ec3;" horiz-adv-x="578" 
d="M140.5 15.5q-48.5 23.5 -75.5 66t-27 97.5v129q0 59 27 104t75.5 70t111.5 25h80q96 0 154 -54t58 -144v-106h-370v-24q0 -33 21 -53t57 -20h78q35 0 56.5 15.5t21.5 40.5h134q0 -50 -27 -89t-75.5 -60t-111.5 -21h-76q-63 0 -111.5 23.5zM410 301v8q0 39 -21 62.5
t-56 23.5h-81q-36 0 -58 -25t-22 -66v-3h238zM429 724q0 18 11.5 28t34.5 23q19 11 28.5 19t9.5 20v13q0 23 -25 23h-17q-28 0 -28 -31h-84q0 53 28.5 80t83.5 27h17q56 0 84.5 -25t28.5 -74v-13q0 -26 -13 -40.5t-37 -29.5q-14 -9 -21 -15t-7 -15v-10h-94v20zM245 754h89
l151 -186h-121l-74 97l-75 -97h-120z" />
    <glyph glyph-name="uni1EC4" unicode="&#x1ec4;" horiz-adv-x="628" 
d="M89 26q-27 26 -27 68v606h534v-120h-396v-162h366v-120h-366v-178h396v-120h-437q-43 0 -70 26zM359 995q-17 8 -35 21q-3 2 -16.5 10t-23.5 8h-5q-13 0 -21 -11t-8 -29h-90q0 57 30.5 90.5t81.5 33.5h6q20 0 36.5 -8t38.5 -22q10 -7 19.5 -12t16.5 -5h5q12 0 19 10.5
t7 29.5h90q0 -57 -29.5 -90.5t-78.5 -33.5h-6q-20 0 -37 8zM288 955h89l151 -186h-121l-74 97l-75 -97h-120z" />
    <glyph glyph-name="uni1EC5" unicode="&#x1ec5;" horiz-adv-x="578" 
d="M140.5 15.5q-48.5 23.5 -75.5 66t-27 97.5v129q0 59 27 104t75.5 70t111.5 25h80q96 0 154 -54t58 -144v-106h-370v-24q0 -33 21 -53t57 -20h78q35 0 56.5 15.5t21.5 40.5h134q0 -50 -27 -89t-75.5 -60t-111.5 -21h-76q-63 0 -111.5 23.5zM410 301v8q0 39 -21 62.5
t-56 23.5h-81q-36 0 -58 -25t-22 -66v-3h238zM316 794q-17 8 -35 21q-3 2 -16.5 10t-23.5 8h-5q-13 0 -21 -11t-8 -29h-90q0 57 30.5 90.5t81.5 33.5h6q20 0 36.5 -8t38.5 -22q10 -7 19.5 -12t16.5 -5h5q12 0 19 10.5t7 29.5h90q0 -57 -29.5 -90.5t-78.5 -33.5h-6
q-20 0 -37 8zM245 754h89l151 -186h-121l-74 97l-75 -97h-120z" />
    <glyph glyph-name="uni1EC6" unicode="&#x1ec6;" horiz-adv-x="628" 
d="M89 26q-27 26 -27 68v606h534v-120h-396v-162h366v-120h-366v-178h396v-120h-437q-43 0 -70 26zM277 -204.5q-23 22.5 -23 59.5t22.5 60t60.5 23t60.5 -23t22.5 -60t-23 -59.5t-60 -22.5t-60 22.5zM288 955h89l151 -186h-121l-74 97l-75 -97h-120z" />
    </font>
</defs>
</svg>
