<?xml version="1.0" standalone="no"?>
<!DOCTYPE svg PUBLIC "-//W3C//DTD SVG 1.1//EN" "http://www.w3.org/Graphics/SVG/1.1/DTD/svg11.dtd" >
<svg xmlns="http://www.w3.org/2000/svg" xmlns:xlink="http://www.w3.org/1999/xlink" version="1.1">
<metadata>
Created by FontForge 20201107 at Mon Jul 18 17:12:33 2016
 By 
Copyright (c) 2016 by Daniel Hernandez. All rights reserved.
</metadata>
<defs>
<font id="BasicSans-Bold" horiz-adv-x="0" >
  <font-face 
    font-family="BasicSans-Bold"
    font-weight="400"
    font-stretch="normal"
    units-per-em="1000"
    panose-1="0 0 8 0 0 0 0 0 0 0"
    ascent="773"
    descent="-227"
    x-height="472"
    cap-height="660"
    bbox="-542 -293 1351 938"
    underline-thickness="50"
    underline-position="-100"
    unicode-range="U+0020-FB02"
  />
<missing-glyph horiz-adv-x="414" 
 />
    <glyph glyph-name="fi" unicode="fi" horiz-adv-x="643" 
d="M234 472h200l137 4v-476h-137v368h-200v-368h-136v368h-70v104h70v35q0 95 56 150t145 55q47 0 107 -24l-40 -110l-6 4q-5 4 -10 7t-14.5 5.5t-19.5 2.5q-38 0 -60 -24t-22 -64v-37zM503 538q-37 0 -62.5 24t-25.5 61q0 36 25.5 60.5t62.5 24.5t63 -24.5t26 -60.5
q0 -37 -26 -61t-63 -24z" />
    <glyph glyph-name="fl" unicode="fl" horiz-adv-x="641" 
d="M316 597q-38 0 -60 -24t-22 -64v-37h148v-104h-148v-368h-136v368h-70v104h70v35q0 95 56 150t145 55q64 0 112 -24l-40 -110q-32 19 -55 19zM448 706h137v-706h-137v706z" />
    <glyph glyph-name=".notdef" horiz-adv-x="414" 
 />
    <glyph glyph-name=".null" 
 />
    <glyph glyph-name="nonmarkingreturn" horiz-adv-x="333" 
 />
    <glyph glyph-name="space" unicode=" " horiz-adv-x="203" 
 />
    <glyph glyph-name="exclam" unicode="!" horiz-adv-x="260" 
d="M205 670l-19 -459l-113 -4l-15 463h147zM78 93q11 21 33 28.5t44 -3.5q21 -11 28 -33.5t-4 -43.5t-33.5 -28t-43.5 4q-21 10 -28 32.5t4 43.5z" />
    <glyph glyph-name="quotedbl" unicode="&#x22;" horiz-adv-x="323" 
d="M52 494l-4 212h90l-5 -212h-81zM190 494l-4 212h90l-5 -212h-81z" />
    <glyph glyph-name="numbersign" unicode="#" horiz-adv-x="643" 
d="M598 292h-116l-20 -97h117l-18 -76h-116l-25 -119h-100l25 119h-97l-25 -119h-100l25 119h-120l17 76h120l20 97h-120l17 76h120l26 124h99l-26 -124h98l26 124h100l-26 -124h117zM362 195l20 97h-97l-21 -97h98z" />
    <glyph glyph-name="dollar" unicode="$" horiz-adv-x="578" 
d="M542 177q0 -72 -51.5 -121t-148.5 -60v-100h-95v99q-131 13 -222 90l83 102q87 -79 187 -79q106 0 106 66q0 31 -25.5 52t-63.5 31.5t-83 26.5t-83 34.5t-63.5 57t-25.5 93.5q0 75 52 128.5t138 66.5v101h95v-101q49 -6 86 -24t58.5 -44t33.5 -50.5t18 -51.5l-127 -31
q-3 32 -33 59.5t-82 27.5q-45 0 -71 -19.5t-26 -53.5q0 -24 19 -41t49 -28t66.5 -21t73.5 -25.5t67 -37t49 -59.5t19 -88z" />
    <glyph glyph-name="percent" unicode="%" horiz-adv-x="916" 
d="M250 0l304 667h110l-303 -667h-111zM208 290q-81 0 -131 51t-50 134q0 85 50 137t131 52q82 0 132.5 -52t50.5 -137q0 -83 -50.5 -134t-132.5 -51zM208 388q33 0 53 24t20 63q0 41 -20 65.5t-53 24.5q-32 0 -52 -25t-20 -65q0 -39 20 -63t52 -24zM707 -4q-82 0 -131.5 51
t-49.5 134q0 85 49.5 137t131.5 52t132.5 -52t50.5 -137q0 -83 -50.5 -134t-132.5 -51zM707 94q33 0 53 24t20 63q0 41 -20 65.5t-53 24.5q-32 0 -52 -25t-20 -65q0 -39 20 -63t52 -24z" />
    <glyph glyph-name="ampersand" unicode="&#x26;" horiz-adv-x="611" 
d="M588 293q0 -115 -66 -194l55 -65l-85 -64l-54 62q-70 -36 -161 -36q-110 0 -177 50.5t-67 133.5q0 121 129 173q-54 69 -54 139q0 76 51.5 123t132.5 47q82 0 132.5 -44t50.5 -114q0 -118 -145 -181l117 -137q32 50 32 133zM293 562q-30 0 -48.5 -20t-18.5 -52
q0 -47 46 -99q48 19 67.5 43.5t19.5 59.5q0 31 -18.5 49.5t-47.5 18.5zM282 105q47 0 82 13l-140 163q-57 -30 -57 -86q0 -40 31.5 -65t83.5 -25z" />
    <glyph glyph-name="quotesingle" unicode="'" horiz-adv-x="185" 
d="M52 494l-4 212h90l-5 -212h-81z" />
    <glyph glyph-name="parenleft" unicode="(" horiz-adv-x="310" 
d="M186 -244q-6 7 -16 20.5t-36 59.5t-45.5 98t-35.5 135.5t-16 171.5t15.5 170.5t37.5 137t43.5 96.5t36.5 61l16 20l112 -49q-5 -6 -14 -18t-31.5 -53.5t-40 -88t-31.5 -121.5t-14 -155t13.5 -154t32.5 -123t38.5 -86.5t32.5 -55.5l14 -17z" />
    <glyph glyph-name="parenright" unicode=")" horiz-adv-x="310" 
d="M273 241q0 -88 -15.5 -170.5t-37.5 -137t-43.5 -96.5t-36.5 -61l-16 -20l-112 49q5 6 14 18t31.5 53.5t40 88t31.5 121.5t14 155t-13.5 154t-32.5 123t-38.5 86.5t-32.5 55.5l-14 17l112 49q6 -7 16 -20.5t36 -59.5t45.5 -98t35.5 -135.5t16 -171.5z" />
    <glyph glyph-name="asterisk" unicode="*" horiz-adv-x="431" 
d="M251 332l-44 127l-75 -107l-57 41l95 102l-136 11l7 70l134 -33l-57 123l63 28l43 -131l78 114l56 -42l-93 -103l134 -11l-8 -70l-135 30l58 -122z" />
    <glyph glyph-name="plus" unicode="+" horiz-adv-x="461" 
d="M428 285v-89h-150v-164h-95v164h-150v89h150v149h95v-149h150z" />
    <glyph glyph-name="comma" unicode="," horiz-adv-x="250" 
d="M39 69q0 33 22 54.5t58 21.5q38 0 64.5 -26t26.5 -75q0 -43 -12.5 -81t-30.5 -61t-36 -40t-31 -24l-12 -7l-47 59q3 2 8.5 5.5t19 14t24 22t19 28.5t8.5 34q-35 0 -58 21t-23 54z" />
    <glyph glyph-name="hyphen" unicode="-" horiz-adv-x="386" 
d="M52 276v94h283v-94h-283z" />
    <glyph glyph-name="period" unicode="." horiz-adv-x="234" 
d="M39 72q0 32 22.5 55t55.5 23q32 0 55 -23t23 -55t-23 -55t-55 -23q-33 0 -55.5 23t-22.5 55z" />
    <glyph glyph-name="slash" unicode="/" horiz-adv-x="447" 
d="M21 -204l276 910h129l-275 -910h-130z" />
    <glyph glyph-name="zero" unicode="0" horiz-adv-x="648" 
d="M323 -7q-135 0 -208.5 88t-73.5 245q0 159 73.5 250t208.5 91q136 0 210.5 -91t74.5 -250q0 -157 -74 -245t-211 -88zM323 116q68 0 106 54t38 156q0 104 -38.5 161t-105.5 57q-66 0 -103.5 -57t-37.5 -161q0 -102 37 -156t104 -54z" />
    <glyph glyph-name="one" unicode="1" horiz-adv-x="395" 
d="M187 0v516l-168 -44v128l284 60h22v-660h-138z" />
    <glyph glyph-name="two" unicode="2" horiz-adv-x="572" 
d="M259 112q12 2 51 2h223v-114h-489v95q28 21 77.5 57t79 57t67 53.5t58 58t35.5 57.5t15 64q0 46 -27 74t-74 28q-43 0 -69 -22t-26 -59q0 -15 3 -23l-136 -25q-8 21 -8 54q0 88 66 143t174 55q109 0 175 -61t66 -160q0 -156 -217 -303q-21 -16 -46 -27z" />
    <glyph glyph-name="three" unicode="3" horiz-adv-x="579" 
d="M282 667q108 0 172 -54t64 -142q0 -60 -38 -99.5t-93 -39.5v-2q59 0 106.5 -43t47.5 -110q0 -82 -68.5 -133t-187.5 -51q-58 0 -106 13.5t-75.5 33t-46.5 39.5t-26 33l-7 14l105 69q2 -3 6 -8.5t18.5 -19.5t30.5 -24.5t42 -19t54 -8.5q55 0 86 21.5t31 58.5
q1 36 -28 56.5t-88 22.5l-69 1v102l47 1q55 2 85.5 22t30.5 56q0 39 -27 63.5t-70 24.5q-42 0 -66 -18.5t-24 -47.5q0 -14 3 -22l-137 -22l-2 8q-1 7 -2.5 19.5t-1.5 25.5q0 79 64.5 129.5t169.5 50.5z" />
    <glyph glyph-name="four" unicode="4" horiz-adv-x="612" 
d="M490 660v-407h94v-112h-93v-141h-139v141h-332v112l292 407h178zM359 253v217q0 53 2 61l-4 2q-6 -14 -35 -55l-126 -170q-39 -52 -40 -53l3 -3q10 1 56 1h144z" />
    <glyph glyph-name="five" unicode="5" horiz-adv-x="577" 
d="M96 660h402v-116h-290l-12 -140l3 -2q43 36 118 36q103 0 166 -60t63 -157q0 -102 -73.5 -165t-192.5 -63q-51 0 -96.5 13t-73.5 31.5t-49 37t-29 31.5l-9 13l107 78q2 -3 6.5 -8.5t19 -19.5t30.5 -24.5t41.5 -19.5t52.5 -9q54 0 88 29t34 77q0 46 -30.5 75.5t-80.5 29.5
q-28 0 -50.5 -9.5t-31.5 -18.5t-11 -14h-130z" />
    <glyph glyph-name="six" unicode="6" horiz-adv-x="593" 
d="M344 419q93 0 152.5 -58t59.5 -151q0 -97 -66.5 -157t-173.5 -60q-125 0 -200.5 88.5t-75.5 241.5q0 155 80 249.5t210 94.5q139 0 212 -93l-90 -83q-14 19 -44 36t-72 17q-73 0 -117 -57.5t-44 -153.5v-8l4 -1q12 36 53.5 65.5t111.5 29.5zM314 114q49 0 80 28.5
t31 73.5q0 43 -30.5 69.5t-80.5 26.5q-55 0 -88.5 -29.5t-34.5 -79.5q30 -89 123 -89z" />
    <glyph glyph-name="seven" unicode="7" horiz-adv-x="525" 
d="M28 660h478v-111l-244 -549h-156l235 497q19 42 26 49l-2 3q-14 -2 -46 -2h-166v-88h-126v185h1v16z" />
    <glyph glyph-name="eight" unicode="8" horiz-adv-x="603" 
d="M458 346q49 -20 78.5 -60.5t29.5 -96.5q0 -88 -72 -142t-192 -54t-192.5 54t-72.5 142q0 56 29.5 96.5t78.5 60.5v3q-35 16 -56.5 51t-21.5 81q0 84 64.5 135t170.5 51t170.5 -51t64.5 -135q0 -46 -22 -81t-57 -51v-3zM302 563q-45 0 -72 -22t-27 -60q0 -35 27.5 -58.5
t71.5 -23.5t71 23.5t27 58.5q0 38 -26.5 60t-71.5 22zM302 104q58 0 93 26.5t35 70.5q0 41 -35 66t-93 25t-93.5 -25t-35.5 -66q0 -44 35.5 -70.5t93.5 -26.5z" />
    <glyph glyph-name="nine" unicode="9" horiz-adv-x="588" 
d="M279 667q126 0 197.5 -87.5t71.5 -248.5q0 -154 -77.5 -246t-206.5 -92q-149 0 -216 88l93 83q45 -50 116 -50q70 0 115 56.5t46 148.5l-4 1q-12 -33 -51 -60t-110 -27q-94 0 -154.5 57t-60.5 150q0 100 67.5 163.5t173.5 63.5zM280 347q55 0 88 30t34 79q-30 89 -123 89
q-49 0 -79.5 -28.5t-30.5 -73.5q0 -43 31 -69.5t80 -26.5z" />
    <glyph glyph-name="colon" unicode=":" horiz-adv-x="255" 
d="M49 401q0 32 22.5 55t55.5 23q32 0 55 -23t23 -55t-23 -55t-55 -23q-33 0 -55.5 23t-22.5 55zM49 71q0 32 22.5 55t55.5 23q32 0 55 -23t23 -55t-23 -55t-55 -23q-33 0 -55.5 23t-22.5 55z" />
    <glyph glyph-name="semicolon" unicode=";" horiz-adv-x="270" 
d="M56 401q0 32 22.5 55t55.5 23q32 0 55 -23t23 -55t-23 -55t-55 -23q-33 0 -55.5 23t-22.5 55zM51 68q0 33 22 54.5t58 21.5q38 0 64.5 -26t26.5 -75q0 -43 -12.5 -81t-30.5 -61t-36 -40t-31 -24l-12 -7l-47 59q3 2 8.5 5.5t19 14t24 22t19 28.5t8.5 34q-35 0 -58 21
t-23 54z" />
    <glyph glyph-name="less" unicode="&#x3c;" horiz-adv-x="427" 
d="M28 221v103l347 197v-114l-232 -135l232 -134v-113z" />
    <glyph glyph-name="equal" unicode="=" horiz-adv-x="508" 
d="M55 295v89h398v-89h-398zM55 93v88h398v-88h-398z" />
    <glyph glyph-name="greater" unicode="&#x3e;" horiz-adv-x="427" 
d="M52 25v113l232 134l-232 135v114l347 -197v-103z" />
    <glyph glyph-name="question" unicode="?" horiz-adv-x="478" 
d="M233 693q107 0 163 -55t56 -131q0 -42 -19 -75.5t-46 -55t-53.5 -41.5t-45.5 -47t-19 -60v-15l-118 -5v37q0 42 16.5 76t40.5 55t48 39t41 38.5t17 44.5q0 32 -21.5 53t-59.5 21q-35 0 -56 -18.5t-21 -49.5q0 -11 4 -25l-126 -20q-6 31 -6 57q0 78 56.5 127.5t148.5 49.5
zM213 144q32 0 54.5 -22.5t22.5 -54.5q0 -31 -22.5 -53.5t-54.5 -22.5q-31 0 -53.5 22.5t-22.5 53.5q0 32 22 54.5t54 22.5z" />
    <glyph glyph-name="at" unicode="@" horiz-adv-x="848" 
d="M490 442h127v-283q0 -23 11.5 -36.5t32.5 -13.5q41 0 69 50t28 130q0 135 -89 218.5t-235 83.5q-151 0 -249.5 -98.5t-98.5 -252.5q0 -149 97.5 -243.5t248.5 -94.5q161 0 266 98l30 -33q-41 -41 -114.5 -75t-180.5 -34q-174 0 -285.5 106.5t-111.5 275.5q0 175 113 286
t285 110q168 0 271 -96.5t103 -250.5q0 -115 -54 -183t-137 -68q-47 0 -78.5 24t-37.5 65q-33 -86 -130 -86q-77 0 -124 56.5t-47 143.5q0 97 51 152t127 55t112 -50v44zM408 148q35 0 58.5 24t23.5 57v30q0 32 -23 57t-60 25q-35 0 -56 -27t-21 -73q0 -41 21.5 -67
t56.5 -26z" />
    <glyph glyph-name="A" unicode="A" horiz-adv-x="627" 
d="M479 0l-46 141h-239l-46 -141h-145l234 660h153l233 -660h-144zM229 248h170l-64 196q-13 38 -20 75h-3q-4 -26 -20 -76z" />
    <glyph glyph-name="B" unicode="B" horiz-adv-x="618" 
d="M448 343q46 -7 90 -48.5t44 -115.5q0 -86 -59 -132.5t-168 -46.5h-285v660h261q106 0 165.5 -47t59.5 -132q0 -66 -34 -97.5t-74 -37.5v-3zM413 468q0 85 -112 85h-92v-167h100q50 0 77 22t27 60zM330 107q50 0 79.5 22t29.5 66t-32.5 68t-84.5 24h-113v-180h121z" />
    <glyph glyph-name="C" unicode="C" horiz-adv-x="649" 
d="M349 667q71 0 125 -23t84 -60.5t45 -79t15 -83.5l-131 -20q0 54 -34 98.5t-102 44.5q-73 0 -121.5 -58t-48.5 -156q0 -107 54 -160.5t135 -53.5q102 0 169 94l84 -88q-13 -19 -32.5 -38.5t-50.5 -41.5t-76.5 -35.5t-97.5 -13.5q-148 0 -238 91t-90 246q0 153 87 245
t224 92z" />
    <glyph glyph-name="D" unicode="D" horiz-adv-x="670" 
d="M300 660q159 0 245.5 -88.5t86.5 -240.5q0 -161 -78.5 -246t-222.5 -85h-261v660h230zM314 113q174 0 174 218q0 108 -52.5 162t-152.5 54h-71v-434h102z" />
    <glyph glyph-name="E" unicode="E" horiz-adv-x="552" 
d="M507 543h-295v-152h256v-111h-256v-163h295v-117h-437v660h437v-117z" />
    <glyph glyph-name="F" unicode="F" horiz-adv-x="523" 
d="M497 543h-285v-162h246v-115h-246v-266h-142v660h427v-117z" />
    <glyph glyph-name="G" unicode="G" horiz-adv-x="673" 
d="M626 322v-322h-96q-6 21 -10 73q-60 -80 -184 -80q-134 0 -216 92t-82 245t87 245t224 92q71 0 125 -22.5t84 -58.5t45 -75.5t15 -79.5l-130 -20q0 53 -34.5 93t-102.5 40q-73 0 -121 -58t-48 -156q0 -99 48 -159t130 -60q69 0 106.5 32.5t39.5 88.5h-173v90h293z" />
    <glyph glyph-name="H" unicode="H" horiz-adv-x="710" 
d="M498 660h142v-660h-142v277h-286v-277h-142v660h142v-266h286v266z" />
    <glyph glyph-name="I" unicode="I" horiz-adv-x="279" 
d="M70 0v660h139v-660h-139z" />
    <glyph glyph-name="J" unicode="J" horiz-adv-x="473" 
d="M80 163q39 -46 93 -46q47 0 70 22.5t23 74.5v446h142v-444q0 -108 -62 -165t-171 -57q-101 0 -179 70z" />
    <glyph glyph-name="K" unicode="K" horiz-adv-x="611" 
d="M460 0l-178 259h-70v-259h-142v660h142v-288h61l187 288h147l-228 -338l230 -322h-149z" />
    <glyph glyph-name="L" unicode="L" horiz-adv-x="521" 
d="M212 117h298v-117h-440v660h142v-543z" />
    <glyph glyph-name="M" unicode="M" horiz-adv-x="855" 
d="M785 660v-660h-140l1 348q0 55 4 79l-4 1q-9 -37 -21 -62l-159 -370h-76l-163 374q-14 34 -19 58l-5 -1q5 -15 5 -79l1 -348h-139v660h151l161 -350q37 -81 46 -116h4q5 24 46 117l159 349h148z" />
    <glyph glyph-name="N" unicode="N" horiz-adv-x="701" 
d="M631 660v-660h-135l-213 318l-76 123l-6 -3q5 -19 5 -119l1 -319h-137v660h126l223 -334q36 -54 75 -125l6 3q-6 36 -6 123l-1 333h138z" />
    <glyph glyph-name="O" unicode="O" horiz-adv-x="717" 
d="M359 667q143 0 232 -91.5t89 -244.5q0 -154 -89 -246t-232 -92t-232.5 92t-89.5 246q0 153 89.5 244.5t232.5 91.5zM359 117q79 0 128 57.5t49 156.5t-49 156t-128 57t-128.5 -57t-49.5 -156t49.5 -156.5t128.5 -57.5z" />
    <glyph glyph-name="P" unicode="P" horiz-adv-x="607" 
d="M307 660q132 0 204.5 -59.5t72.5 -174.5q0 -113 -71 -173.5t-187 -60.5h-114v-192h-142v660h237zM299 304q68 0 104.5 31.5t36.5 90.5q0 57 -37.5 89.5t-109.5 32.5h-81v-244h87z" />
    <glyph glyph-name="Q" unicode="Q" horiz-adv-x="717" 
d="M680 331q0 -116 -51.5 -198t-141.5 -117q97 -21 179 -25l-29 -109q-100 15 -166 39t-154 74q-126 14 -203 104t-77 232q0 153 89.5 244.5t232.5 91.5t232 -91.5t89 -244.5zM181 331q0 -99 49.5 -156.5t128.5 -57.5t128 57.5t49 156.5t-49 156t-128 57t-128.5 -57
t-49.5 -156z" />
    <glyph glyph-name="R" unicode="R" horiz-adv-x="626" 
d="M601 109l9 -109q-26 -7 -73 -7q-56 0 -93 24t-55.5 58.5t-35 68.5t-43.5 58t-68 24h-30v-226h-142v660h224q264 0 264 -223q0 -135 -133 -186q23 -11 42.5 -36.5t31 -48.5t33 -41t49.5 -18zM212 326h63q65 0 104 29t39 81q0 55 -34 83.5t-98 28.5h-74v-222z" />
    <glyph glyph-name="S" unicode="S" horiz-adv-x="574" 
d="M406 463q-3 32 -33 59.5t-82 27.5q-45 0 -71 -19.5t-26 -53.5q0 -24 19 -41t49 -28t67 -21t73.5 -25.5t66.5 -37t49 -59.5t19 -88q0 -81 -65 -132.5t-186 -51.5q-90 0 -158 29t-108 63l83 102q87 -79 187 -79q106 0 106 66q0 31 -25.5 52t-63.5 31.5t-83 26.5t-83 34.5
t-63.5 57t-25.5 93.5q0 85 65.5 141.5t170.5 56.5q62 0 109.5 -16.5t74 -44t41 -54.5t20.5 -58z" />
    <glyph glyph-name="T" unicode="T" horiz-adv-x="567" 
d="M212 0v543h-201v117h544v-117h-201v-543h-142z" />
    <glyph glyph-name="U" unicode="U" horiz-adv-x="678" 
d="M473 660h142v-400q0 -122 -75.5 -194.5t-199.5 -72.5q-125 0 -201 72.5t-76 194.5v400h142v-399q0 -68 37 -106.5t98 -38.5q60 0 96.5 38.5t36.5 105.5v400z" />
    <glyph glyph-name="V" unicode="V" horiz-adv-x="619" 
d="M151 660l138 -443q16 -50 20 -76h3q7 33 20 75l139 444h144l-229 -660h-153l-228 660h146z" />
    <glyph glyph-name="W" unicode="W" horiz-adv-x="924" 
d="M774 660h144l-184 -660h-161l-88 340q-10 39 -20 111h-3q-8 -57 -21 -111l-91 -340h-162l-181 660h145l103 -443l17 -81h3q15 73 17 80l109 444h125l108 -444q9 -34 18 -80h3l17 81z" />
    <glyph glyph-name="X" unicode="X" horiz-adv-x="619" 
d="M409 324l208 -324h-160l-114 189q-23 39 -32 62h-3q-12 -32 -32 -62l-120 -189h-147l198 321l-202 339h166l108 -202q25 -45 30 -59h3q5 14 30 59l119 202h149z" />
    <glyph glyph-name="Y" unicode="Y" horiz-adv-x="596" 
d="M592 660l-223 -421v-239h-142v237l-224 423h153l111 -222q25 -50 32 -82h3q8 36 31 82l110 222h149z" />
    <glyph glyph-name="Z" unicode="Z" horiz-adv-x="583" 
d="M32 0v113l293 365q12 14 57 65l-2 3q-39 -3 -89 -3h-249v117h507v-113l-290 -365q-22 -27 -60 -65l2 -3q18 3 89 3h255v-117h-513z" />
    <glyph glyph-name="bracketleft" unicode="[" horiz-adv-x="366" 
d="M65 -204v910h276v-108h-145v-694h145v-108h-276z" />
    <glyph glyph-name="backslash" unicode="\" horiz-adv-x="447" 
d="M426 -204h-130l-275 910h129z" />
    <glyph glyph-name="bracketright" unicode="]" horiz-adv-x="366" 
d="M25 -204v108h145v694h-145v108h277v-910h-277z" />
    <glyph glyph-name="asciicircum" unicode="^" horiz-adv-x="395" 
d="M33 508l93 224h143l93 -224h-114l-51 128l-50 -128h-114z" />
    <glyph glyph-name="underscore" unicode="_" horiz-adv-x="398" 
d="M0 -149v94h398v-94h-398z" />
    <glyph glyph-name="grave" unicode="`" horiz-adv-x="299" 
d="M136 535l-103 169h168l58 -163z" />
    <glyph glyph-name="a" unicode="a" horiz-adv-x="543" 
d="M514 107l6 -104q-29 -9 -67 -9q-95 0 -109 75q-39 -75 -152 -75q-76 0 -118 35t-42 95q0 43 21 72t63 45.5t93 23.5t122 9h6v21q0 37 -22 58.5t-64 21.5q-39 0 -60 -14.5t-21 -40.5q0 -11 4 -18l-120 -20q-6 20 -6 46q0 68 56 109t153 41q103 0 158.5 -49.5t55.5 -139.5
v-154q0 -31 26 -31q10 0 17 3zM231 95q48 0 77 21t29 51v38h-6q-87 -2 -126.5 -16.5t-39.5 -46.5q0 -47 66 -47z" />
    <glyph glyph-name="b" unicode="b" horiz-adv-x="582" 
d="M339 478q92 0 151 -64.5t59 -177.5q0 -110 -60.5 -176t-156.5 -66q-111 0 -157 95h-2q0 -39 -12 -89h-105v706h137v-303q46 75 146 75zM305 109q48 0 76.5 34.5t28.5 92.5q0 59 -28.5 93t-79.5 34q-49 0 -79 -34.5t-30 -77.5v-31q0 -45 30.5 -78t81.5 -33z" />
    <glyph glyph-name="c" unicode="c" horiz-adv-x="510" 
d="M276 478q91 0 144.5 -47.5t53.5 -118.5l-3 -35l-121 -7q2 4 2 21q0 32 -20.5 53.5t-57.5 21.5q-47 0 -75.5 -35t-28.5 -92q0 -62 31.5 -97.5t90.5 -35.5q84 0 129 55l67 -86q-26 -33 -79 -57t-126 -24q-117 0 -184.5 66.5t-67.5 173.5q0 109 68 176.5t177 67.5z" />
    <glyph glyph-name="d" unicode="d" horiz-adv-x="582" 
d="M389 706h137v-706l-111 -4q-15 63 -13 93h-3q-44 -95 -157 -95q-95 0 -152 67t-57 173q0 113 61.5 178.5t154.5 65.5q95 0 140 -64v292zM280 109q48 0 78.5 34t30.5 77v32q0 43 -30.5 77t-81.5 34q-48 0 -76.5 -35t-28.5 -94q0 -56 29.5 -90.5t78.5 -34.5z" />
    <glyph glyph-name="e" unicode="e" horiz-adv-x="524" 
d="M302 98q73 0 122 54l65 -75q-27 -35 -79.5 -59t-123.5 -24q-117 0 -185.5 67t-68.5 175q0 107 66 174.5t175 67.5q101 0 159 -62t58 -161l-4 -50h-318q9 -49 43 -78t91 -29zM273 374q-41 0 -69.5 -25.5t-35.5 -72.5h197q-1 43 -25.5 70.5t-66.5 27.5z" />
    <glyph glyph-name="f" unicode="f" horiz-adv-x="392" 
d="M234 509v-37h148v-104h-148v-368h-136v368h-70v104h70v35q0 95 56 150t145 55q64 0 112 -24l-40 -110q-32 19 -55 19q-38 0 -60 -24t-22 -64z" />
    <glyph glyph-name="g" unicode="g" horiz-adv-x="529" 
d="M325 83q90 0 142.5 -35t52.5 -105q0 -66 -59 -109.5t-199 -43.5q-125 0 -188 33t-63 90q0 69 79 95q-54 33 -54 89q0 64 68 88q-51 46 -51 119q0 78 57.5 126t151.5 48q71 0 124 -28q45 25 45 113l103 -27q0 -51 -30.5 -85t-67.5 -42q38 -43 38 -105q0 -77 -58 -125
t-153 -48q-49 0 -87 13q-33 -8 -33 -29q0 -18 17 -25t59 -7h106zM181 306q-1 -34 21 -54.5t60 -21.5q39 0 62 20t24 53t-22 54t-61 22q-38 0 -61 -20t-23 -53zM262 -115q72 0 102 12.5t30 39.5q0 24 -19.5 33.5t-62.5 9.5h-89q-91 0 -91 -45q0 -50 130 -50z" />
    <glyph glyph-name="h" unicode="h" horiz-adv-x="565" 
d="M337 478q85 0 131 -52t46 -136v-290h-138v266q0 43 -21 68.5t-62 25.5q-49 0 -74.5 -34.5t-25.5 -81.5v-244h-137v706h134l1 -311h3q42 83 143 83z" />
    <glyph glyph-name="i" unicode="i" horiz-adv-x="250" 
d="M214 623q0 -37 -26 -61t-63 -24t-62.5 24t-25.5 61q0 36 25.5 60.5t62.5 24.5t63 -24.5t26 -60.5zM56 0v472l137 4v-476h-137z" />
    <glyph glyph-name="j" unicode="j" horiz-adv-x="257" 
d="M225 628q0 -36 -25.5 -60t-63.5 -24q-37 0 -62.5 24t-25.5 60q0 37 25.5 61.5t62.5 24.5q38 0 63.5 -24.5t25.5 -61.5zM-52 -82q16 -12 44 -12q72 0 72 90v476l137 4v-477q0 -98 -47 -153t-143 -55q-32 0 -57.5 7.5t-35.5 15.5l-9 8z" />
    <glyph glyph-name="k" unicode="k" horiz-adv-x="541" 
d="M384 0l-148 197h-43v-197h-137v706h137v-405h55l126 171h156l-178 -226l198 -246h-166z" />
    <glyph glyph-name="l" unicode="l" horiz-adv-x="249" 
d="M56 0v706h137v-706h-137z" />
    <glyph glyph-name="m" unicode="m" horiz-adv-x="872" 
d="M645 477q84 0 129.5 -52t45.5 -136v-289h-137v265q0 44 -21 69t-61 25q-47 0 -71 -34.5t-24 -80.5v-244h-137v265q0 44 -21 69t-61 25q-47 0 -70.5 -34.5t-23.5 -80.5v-244h-137v472l107 4q17 -48 17 -99h3q39 100 148 100q122 0 162 -107q37 107 152 107z" />
    <glyph glyph-name="n" unicode="n" horiz-adv-x="565" 
d="M337 478q85 0 130.5 -52t45.5 -136v-290h-137v266q0 43 -21.5 68.5t-61.5 25.5q-49 0 -74.5 -35t-25.5 -81v-244h-137v472l107 4q17 -53 17 -99h4q41 101 153 101z" />
    <glyph glyph-name="o" unicode="o" horiz-adv-x="560" 
d="M280 478q111 0 179.5 -67.5t68.5 -174.5t-68.5 -174.5t-179.5 -67.5q-112 0 -180.5 67.5t-68.5 174.5t68.5 174.5t180.5 67.5zM280 106q50 0 79.5 36t29.5 94t-29.5 94t-79.5 36t-80 -36t-30 -94t30 -94t80 -36z" />
    <glyph glyph-name="p" unicode="p" horiz-adv-x="582" 
d="M340 478q95 0 152 -67.5t57 -174.5q0 -113 -60.5 -177.5t-155.5 -64.5q-94 0 -140 65v-263h-137v676l108 4q7 -20 12 -51t4 -42h3q43 95 157 95zM305 109q48 0 76.5 34.5t28.5 92.5t-29.5 92.5t-78.5 34.5q-48 0 -78.5 -34t-30.5 -77v-32q0 -43 30.5 -77t81.5 -34z" />
    <glyph glyph-name="q" unicode="q" horiz-adv-x="582" 
d="M418 472h108v-676h-137v265q-46 -67 -142 -67q-93 0 -153.5 65t-60.5 177q0 108 57.5 175t153.5 67q113 0 155 -95h3q-1 11 4 40t12 49zM280 109q48 0 78.5 35t30.5 77v31q0 45 -30.5 78t-81.5 33q-48 0 -76.5 -34.5t-28.5 -92.5t29.5 -92.5t78.5 -34.5z" />
    <glyph glyph-name="r" unicode="r" horiz-adv-x="380" 
d="M310 478q37 0 70 -14l-36 -132q-25 17 -54 17q-41 0 -69 -32t-28 -89v-228h-137v472l107 4q17 -53 17 -104h4q32 106 126 106z" />
    <glyph glyph-name="s" unicode="s" horiz-adv-x="482" 
d="M315 307q2 8 2 17q0 29 -20 45.5t-56 16.5q-33 0 -51.5 -13.5t-18.5 -35.5q0 -26 28.5 -39.5t69 -21t81 -18.5t69.5 -42t29 -81q1 -64 -54.5 -102.5t-151.5 -38.5q-136 0 -220 70l64 83q16 -15 61 -36t90 -21q71 0 71 37q0 17 -19.5 29.5t-49 18.5t-63.5 17t-63.5 25
t-49 43t-19.5 69q0 69 55 109t147 40q85 0 139.5 -37t54.5 -95l-4 -32z" />
    <glyph glyph-name="t" unicode="t" horiz-adv-x="424" 
d="M381 135l39 -107q-50 -34 -141 -34q-189 0 -189 201v173h-72v104h78v133l132 5v-138h166v-104h-166v-167q0 -47 18.5 -69t58.5 -22q21 0 40 6.5t27 12.5z" />
    <glyph glyph-name="u" unicode="u" horiz-adv-x="557" 
d="M365 472h137v-472l-111 -4q-15 58 -15 94h-2q-40 -96 -146 -96q-85 0 -131 52.5t-46 135.5v290h138v-266q0 -43 21.5 -68.5t61.5 -25.5q44 0 68.5 35.5t24.5 80.5v244z" />
    <glyph glyph-name="v" unicode="v" horiz-adv-x="532" 
d="M385 472h137l-179 -472h-153l-181 472h147l98 -280q10 -32 15 -62h3q8 42 15 62z" />
    <glyph glyph-name="w" unicode="w" horiz-adv-x="774" 
d="M621 472h139l-136 -472h-157l-68 240q-8 38 -9 53h-3q-3 -29 -9 -53l-70 -240h-156l-140 472h143l68 -280q7 -30 12 -62h3q5 31 14 62l76 280h122l75 -278q11 -43 14 -64h3q6 37 13 64z" />
    <glyph glyph-name="x" unicode="x" horiz-adv-x="509" 
d="M331 233l174 -233h-148l-79 112q-17 23 -22 40h-3q-4 -14 -22 -40l-77 -112h-148l173 240l-171 232h150l70 -103q25 -40 27 -52h3q3 17 25 52l68 103h151z" />
    <glyph glyph-name="y" unicode="y" horiz-adv-x="526" 
d="M317 -63q-56 -147 -192 -147q-24 0 -46 5t-32 9l-10 5l20 105q26 -14 57 -14q56 0 82 56l9 23l-195 493h147l97 -280q10 -32 15 -62h2q7 35 15 62l94 280h138z" />
    <glyph glyph-name="z" unicode="z" horiz-adv-x="474" 
d="M30 0v99l229 244q15 16 25 25l-1 3q-17 -3 -55 -3h-191v104h401v-99l-218 -237q-16 -18 -30 -32l2 -3q14 3 52 3h201v-104h-415z" />
    <glyph glyph-name="braceleft" unicode="{" horiz-adv-x="354" 
d="M325 -212q-45 0 -82.5 9.5t-71 31.5t-52 64t-18.5 100v128q0 33 -19 50t-45 17h-10v106h10q26 0 45 17t19 50v147q0 58 18.5 100t52 64t71 31.5t82.5 9.5v-116q-102 0 -102 -112v-154q0 -43 -15.5 -63.5t-32.5 -25.5q13 -4 30.5 -28.5t17.5 -62.5v-136q0 -112 102 -112
v-115z" />
    <glyph glyph-name="bar" unicode="|" horiz-adv-x="240" 
d="M65 -204v906h111v-906h-111z" />
    <glyph glyph-name="braceright" unicode="}" horiz-adv-x="353" 
d="M28 -96q102 0 102 112v135q0 17 3 31t7 22.5t10.5 16t10.5 10.5t11 7l6 4q-9 2 -18 8.5t-19.5 28t-10.5 52.5v155q0 112 -102 112v115q36 0 67 -5.5t61 -20t50.5 -37t33.5 -59t13 -83.5v-147q0 -33 19 -50t45 -17h10v-106h-10q-26 0 -45 -17t-19 -50v-127
q0 -47 -13 -83.5t-33.5 -59t-50.5 -37t-61 -20t-67 -5.5v115z" />
    <glyph glyph-name="asciitilde" unicode="~" horiz-adv-x="547" 
d="M57 225v91q45 33 110 33q42 0 106.5 -20t107.5 -20q67 0 110 30v-91q-49 -33 -110 -33q-43 0 -107.5 20t-106.5 20q-67 0 -110 -30z" />
    <glyph glyph-name="exclamdown" unicode="&#xa1;" horiz-adv-x="249" 
d="M126 332q-31 0 -52.5 21.5t-21.5 52.5t21.5 52.5t52.5 21.5t53 -21.5t22 -52.5t-22 -52.5t-53 -21.5zM49 -207l19 454l113 4l15 -458h-147z" />
    <glyph glyph-name="cent" unicode="&#xa2;" horiz-adv-x="525" 
d="M298 106q84 0 129 55l67 -86q-53 -67 -166 -79v-98h-95v101q-92 16 -143.5 80t-51.5 157q0 94 51.5 157.5t143.5 79.5v104h95v-101q113 -12 166 -79l-67 -86q-45 55 -129 55q-59 0 -90.5 -35.5t-31.5 -94.5t31.5 -94.5t90.5 -35.5z" />
    <glyph glyph-name="sterling" unicode="&#xa3;" horiz-adv-x="601" 
d="M240 109q10 2 45 2h266v-112h-488v81q4 2 10.5 6t23.5 18t30 29.5t23.5 40t10.5 50.5q0 9 -2 23h-121v79h81q-44 68 -44 126q0 96 70 156t184 60q54 0 98.5 -15t70 -36t43 -42.5t23.5 -36.5l7 -15l-117 -51q-1 3 -3.5 8t-12 17.5t-21.5 22t-34.5 17.5t-48.5 8
q-51 0 -83 -29.5t-32 -75.5q0 -22 7.5 -44.5t14 -33.5t21.5 -36h205v-79h-170q2 -14 2 -23q0 -41 -21.5 -72t-39.5 -40z" />
    <glyph glyph-name="currency" unicode="&#xa4;" horiz-adv-x="595" 
d="M98 349q0 54 26 97l-81 81l65 66l80 -80q49 35 111 35q61 0 110 -35l80 80l66 -66l-81 -80q28 -45 28 -98q0 -54 -28 -99l78 -76l-66 -65l-77 75q-48 -35 -110 -35t-111 35l-82 -81l-66 65l84 83q-26 44 -26 98zM197 349q0 -41 30 -70.5t72 -29.5q43 0 73 29.5t30 70.5
q0 42 -30 71t-73 29q-42 0 -72 -29.5t-30 -70.5z" />
    <glyph glyph-name="yen" unicode="&#xa5;" horiz-adv-x="638" 
d="M613 660l-208 -393h149v-94h-164v-173h-142v173h-165v94h149l-208 393h153l111 -222q25 -50 32 -82h3q8 36 31 82l110 222h149z" />
    <glyph glyph-name="brokenbar" unicode="&#xa6;" horiz-adv-x="240" 
d="M65 312v390h111v-390h-111zM65 -204v390h111v-390h-111z" />
    <glyph glyph-name="section" unicode="&#xa7;" horiz-adv-x="593" 
d="M481 93q66 -47 66 -130q0 -80 -67.5 -127t-183.5 -47q-91 0 -158.5 29t-107.5 63l84 103q30 -29 79 -54t107 -25q105 0 105 64q0 32 -35 52.5t-85 33t-100 29t-85 52t-35 90.5q0 77 77 114q-78 50 -79 141q-1 84 64.5 135t171.5 51q62 0 109.5 -16.5t74.5 -44t41 -54.5
t20 -58l-127 -32q-3 33 -32.5 60.5t-82.5 27.5q-45 0 -71 -19t-26 -51q0 -38 35 -61t85 -36t100 -30t85 -55.5t35 -98.5q0 -75 -64 -106zM188 238q0 -17 10.5 -30.5t33 -23t43 -16t56 -16t56.5 -15.5q30 17 30 54q0 15 -8 28t-18 21t-31 17t-35.5 13.5t-43 13t-43.5 13.5
q-50 -6 -50 -59z" />
    <glyph glyph-name="dieresis" unicode="&#xa8;" horiz-adv-x="389" 
d="M94 550q-29 0 -49.5 20t-20.5 49t20.5 49.5t49.5 20.5q28 0 48.5 -20.5t20.5 -49.5t-20.5 -49t-48.5 -20zM299 550q-29 0 -49 20t-20 49t20.5 49.5t48.5 20.5q29 0 49.5 -20.5t20.5 -49.5t-20.5 -49t-49.5 -20z" />
    <glyph glyph-name="copyright" unicode="&#xa9;" horiz-adv-x="748" 
d="M373 -5q-151 0 -243 92.5t-92 243.5q0 150 92 242t243 92t244 -92t93 -242q0 -151 -92.5 -243.5t-244.5 -92.5zM373 32q133 0 214 82.5t81 216.5t-81 215.5t-214 81.5q-132 0 -213 -82t-81 -215q0 -134 81 -216.5t213 -82.5zM542 184q-2 -3 -6 -7.5t-18.5 -16.5
t-32 -21.5t-47 -17t-62.5 -7.5q-91 0 -147 57.5t-56 152.5q0 100 56 161t148 61q77 0 124 -40.5t47 -106.5l-89 -16q0 3 -0.5 8t-4.5 18t-11.5 23t-24.5 18t-40 8q-46 0 -73.5 -35t-27.5 -93t31 -93.5t81 -35.5q32 0 58 11.5t37 23.5l10 12z" />
    <glyph glyph-name="ordfeminine" unicode="&#xaa;" horiz-adv-x="475" 
d="M435 376l5 -94q-25 -7 -59 -7q-80 0 -95 59h-1q-29 -59 -119 -59q-61 0 -95 28t-34 77q0 69 64 96.5t176 27.5h2v14q0 26 -15.5 41.5t-44.5 15.5q-58 0 -58 -39q0 -8 3 -12l-108 -18q-5 17 -5 39q0 56 46.5 89t126.5 33q86 0 131.5 -40.5t45.5 -115.5v-115q0 -22 20 -22
q10 0 14 2zM204 365q33 0 54 14.5t21 36.5v29h-2q-120 0 -120 -45q0 -35 47 -35z" />
    <glyph glyph-name="guillemotleft" unicode="&#xab;" horiz-adv-x="527" 
d="M36 212v105l160 140l65 -73l-135 -120l135 -119l-65 -73zM265 212v105l160 140l65 -73l-135 -120l135 -119l-65 -73z" />
    <glyph glyph-name="registered" unicode="&#xae;" horiz-adv-x="434" 
d="M217 313q-80 0 -130 48.5t-50 127.5t50 128.5t130 49.5t130 -49.5t50 -128.5t-50 -127.5t-130 -48.5zM217 343q66 0 106.5 40.5t40.5 105.5q0 67 -40.5 108t-106.5 41q-67 0 -107 -40.5t-40 -108.5q0 -65 40.5 -105.5t106.5 -40.5zM309 382q-8 -1 -18 -1q-22 0 -36 17.5
t-27 35t-32 17.5h-14v-69h-44v213h79q32 0 52.5 -18t20.5 -46q0 -22 -10.5 -37.5t-19.5 -20t-15 -4.5q17 -6 29 -27.5t25 -21.5q5 0 7 1zM211 491q17 0 27.5 10t10.5 26q0 13 -9.5 21.5t-25.5 8.5h-32v-66h29z" />
    <glyph glyph-name="macron" unicode="&#xaf;" horiz-adv-x="414" 
d="M51 572v94h311v-94h-311z" />
    <glyph glyph-name="degree" unicode="&#xb0;" horiz-adv-x="334" 
d="M301 533q0 -58 -37.5 -94.5t-97.5 -36.5q-59 0 -96 36.5t-37 94.5q0 60 37 96.5t96 36.5q60 0 97.5 -36.5t37.5 -96.5zM229 533q0 29 -17.5 46t-45.5 17q-27 0 -44 -17.5t-17 -45.5t17 -44.5t44 -16.5q29 0 46 16.5t17 44.5z" />
    <glyph glyph-name="plusminus" unicode="&#xb1;" horiz-adv-x="497" 
d="M297 376h150v-89h-150v-130h-96v130h-150v89h150v123h96v-123zM51 19v89h396v-89h-396z" />
    <glyph glyph-name="acute" unicode="&#xb4;" horiz-adv-x="299" 
d="M162 541l-122 -6l59 169h165z" />
    <glyph glyph-name="paragraph" unicode="&#xb6;" horiz-adv-x="609" 
d="M452 -201v799h-90v-799h-78v476h-40q-99 0 -159.5 52t-60.5 137q0 88 60.5 142t159.5 54h287v-861h-79z" />
    <glyph glyph-name="periodcentered" unicode="&#xb7;" horiz-adv-x="239" 
d="M41 355q0 32 22.5 55t55.5 23q32 0 55 -23t23 -55t-23 -55t-55 -23q-33 0 -55.5 23t-22.5 55z" />
    <glyph glyph-name="cedilla" unicode="&#xb8;" horiz-adv-x="286" 
d="M175 -26q32 -4 55 -25.5t23 -60.5q0 -44 -33 -68.5t-80 -24.5q-30 0 -56 10.5t-38 20.5l-11 11l34 59q27 -29 68 -29q39 0 39 28q0 39 -88 39l35 79h70z" />
    <glyph glyph-name="ordmasculine" unicode="&#xba;" horiz-adv-x="467" 
d="M234 667q91 0 147 -54.5t56 -141.5t-56 -141.5t-147 -54.5q-92 0 -147.5 54.5t-55.5 141.5t55.5 141.5t147.5 54.5zM234 378q35 0 55 25.5t20 67.5q0 43 -20 68.5t-55 25.5q-36 0 -56 -25.5t-20 -68.5t20 -68t56 -25z" />
    <glyph glyph-name="guillemotright" unicode="&#xbb;" horiz-adv-x="527" 
d="M101 72l-65 73l136 119l-136 120l65 73l161 -140v-105zM331 72l-65 73l135 119l-135 120l65 73l160 -140v-105z" />
    <glyph glyph-name="onequarter" unicode="&#xbc;" horiz-adv-x="879" 
d="M203 0l304 667h111l-303 -667h-112zM146 294v249l-120 -24v102l218 39h21v-366h-119zM787 364v-213h65v-87h-65v-64h-116v64h-200v86l191 214h125zM679 151v86q0 20 2 24l-4 2q0 -1 -2.5 -4t-5.5 -6.5t-5 -6.5l-66 -76q-9 -11 -20 -17l2 -3q7 1 32 1h67z" />
    <glyph glyph-name="onehalf" unicode="&#xbd;" horiz-adv-x="875" 
d="M203 0l304 667h111l-303 -667h-112zM146 294v249l-120 -24v102l218 39h21v-366h-119zM680 88q3 1 33 1h130v-89h-346v73q143 77 181 110q35 30 35 56q0 17 -13.5 28t-33.5 11q-23 0 -36 -11t-13 -28q0 -8 2 -10l-119 -22q-6 18 -6 35q0 56 46.5 92t125.5 36
q77 0 122 -35.5t45 -93.5q0 -45 -33.5 -77t-90.5 -61q-17 -10 -30 -12z" />
    <glyph glyph-name="threequarters" unicode="&#xbe;" horiz-adv-x="951" 
d="M287 0l304 667h111l-303 -667h-112zM208 664q77 0 121 -32.5t44 -84.5q0 -32 -22 -51.5t-57 -19.5v-1q39 0 65.5 -22.5t26.5 -57.5q0 -47 -47 -77t-130 -30q-41 0 -75 8t-52.5 19t-31.5 22t-18 19l-4 8l76 59q36 -37 99 -37q62 0 62 26q0 25 -50 25h-60v74h41q57 0 57 30
q0 34 -49 34q-22 0 -35.5 -7.5t-13.5 -19.5q0 -6 2 -8l-113 -19v2q-1 2 -1.5 5t-1.5 7t-1.5 9.5t-0.5 10.5q0 49 46 79t123 30zM860 364v-213h65v-87h-65v-64h-116v64h-200v86l191 214h125zM753 151v86q0 20 1 24l-4 2q-1 -3 -13 -17l-65 -76q-10 -11 -20 -17l2 -3q6 1 32 1
h67z" />
    <glyph glyph-name="questiondown" unicode="&#xbf;" horiz-adv-x="473" 
d="M263 326q-32 0 -54.5 22.5t-22.5 54.5t22.5 54t54.5 22q31 0 53.5 -22.5t22.5 -53.5q0 -32 -22 -54.5t-54 -22.5zM242 -223q-106 0 -162 55t-56 131q0 42 19 75t46 55t53.5 42t45.5 47t19 60v15l117 4v-36q0 -42 -16.5 -76t-40.5 -55t-47.5 -39t-40.5 -38.5t-17 -44.5
q0 -32 21 -53.5t59 -21.5q35 0 56.5 19t21.5 50q0 12 -4 24l125 20q7 -30 7 -57q0 -77 -57 -126.5t-149 -49.5z" />
    <glyph glyph-name="Agrave" unicode="&#xc0;" horiz-adv-x="627" 
d="M383 700l-127 -6l-103 132h171zM479 0l-46 141h-239l-46 -141h-145l234 660h153l233 -660h-144zM229 248h170l-64 196q-13 38 -20 75h-3q-4 -26 -20 -76z" />
    <glyph glyph-name="Aacute" unicode="&#xc1;" horiz-adv-x="627" 
d="M472 826l-102 -126l-128 -6l59 132h171zM479 0l-46 141h-239l-46 -141h-145l234 660h153l233 -660h-144zM229 248h170l-64 196q-13 38 -20 75h-3q-4 -26 -20 -76z" />
    <glyph glyph-name="Acircumflex" unicode="&#xc2;" horiz-adv-x="627" 
d="M317 755l-62 -57l-103 -4l94 142h144l93 -142l-103 4zM479 0l-46 141h-239l-46 -141h-145l234 660h153l233 -660h-144zM229 248h170l-64 196q-13 38 -20 75h-3q-4 -26 -20 -76z" />
    <glyph glyph-name="Atilde" unicode="&#xc3;" horiz-adv-x="627" 
d="M216 687h-91q-5 18 -5 44q0 46 29.5 73t77.5 27q43 0 90.5 -25.5t57.5 -25.5q26 0 26 30l-5 33h90q5 -21 5 -49q0 -44 -28 -73.5t-77 -29.5q-34 0 -81 26.5t-61 26.5t-23.5 -9t-9.5 -24zM479 0l-46 141h-239l-46 -141h-145l234 660h153l233 -660h-144zM229 248h170
l-64 196q-13 38 -20 75h-3q-4 -26 -20 -76z" />
    <glyph glyph-name="Adieresis" unicode="&#xc4;" horiz-adv-x="627" 
d="M217 702q-29 0 -48.5 20t-19.5 48t20 48t48 20t47.5 -20t19.5 -48t-19.5 -48t-47.5 -20zM423 702q-28 0 -48 20t-20 48t20 48t48 20t47.5 -20t19.5 -48t-19.5 -48t-47.5 -20zM479 0l-46 141h-239l-46 -141h-145l234 660h153l233 -660h-144zM229 248h170l-64 196
q-13 38 -20 75h-3q-4 -26 -20 -76z" />
    <glyph glyph-name="Aring" unicode="&#xc5;" horiz-adv-x="627" 
d="M316 681q-39 0 -67.5 26.5t-28.5 65.5t28.5 65.5t67.5 26.5t67.5 -27t28.5 -65t-28.5 -65t-67.5 -27zM316 803q-13 0 -21.5 -8.5t-8.5 -21.5t8.5 -22t21.5 -9t22 9t9 22t-9 21.5t-22 8.5zM479 0l-46 141h-239l-46 -141h-145l234 660h153l233 -660h-144zM229 248h170
l-64 196q-13 38 -20 75h-3q-4 -26 -20 -76z" />
    <glyph glyph-name="AE" unicode="&#xc6;" horiz-adv-x="952" 
d="M907 543h-295v-152h256v-111h-256v-163h295v-117h-437v141h-243l-99 -141h-145l463 660h461v-117zM302 248h168v241z" />
    <glyph glyph-name="Ccedilla" unicode="&#xc7;" horiz-adv-x="649" 
d="M623 122q-30 -44 -87.5 -83t-143.5 -45l-9 -20q32 -4 55 -25.5t23 -60.5q0 -44 -33 -68.5t-80 -24.5q-30 0 -56 10.5t-38 20.5l-11 11l34 59q27 -29 68 -29q39 0 39 28q0 39 -88 39l27 61q-131 14 -208 103t-77 232q0 153 87 245t224 92q71 0 125 -23t84 -60.5t45 -79
t15 -83.5l-131 -20q0 54 -34 98.5t-102 44.5q-73 0 -121.5 -58t-48.5 -156q0 -107 54 -160.5t135 -53.5q102 0 169 94z" />
    <glyph glyph-name="Egrave" unicode="&#xc8;" horiz-adv-x="552" 
d="M365 700l-127 -6l-103 132h171zM507 543h-295v-152h256v-111h-256v-163h295v-117h-437v660h437v-117z" />
    <glyph glyph-name="Eacute" unicode="&#xc9;" horiz-adv-x="552" 
d="M454 826l-102 -126l-128 -6l59 132h171zM507 543h-295v-152h256v-111h-256v-163h295v-117h-437v660h437v-117z" />
    <glyph glyph-name="Ecircumflex" unicode="&#xca;" horiz-adv-x="552" 
d="M299 755l-62 -57l-103 -4l94 142h144l93 -142l-103 4zM507 543h-295v-152h256v-111h-256v-163h295v-117h-437v660h437v-117z" />
    <glyph glyph-name="Edieresis" unicode="&#xcb;" horiz-adv-x="552" 
d="M199 702q-29 0 -48.5 20t-19.5 48t20 48t48 20t47.5 -20t19.5 -48t-19.5 -48t-47.5 -20zM405 702q-28 0 -48 20t-20 48t20 48t48 20t47.5 -20t19.5 -48t-19.5 -48t-47.5 -20zM507 543h-295v-152h256v-111h-256v-163h295v-117h-437v660h437v-117z" />
    <glyph glyph-name="Igrave" unicode="&#xcc;" horiz-adv-x="279" 
d="M80 694l-103 132h171l59 -126zM70 0v660h139v-660h-139z" />
    <glyph glyph-name="Iacute" unicode="&#xcd;" horiz-adv-x="279" 
d="M194 700l-128 -6l59 132h171zM70 0v660h139v-660h-139z" />
    <glyph glyph-name="Icircumflex" unicode="&#xce;" horiz-adv-x="279" 
d="M214 836l93 -142l-103 4l-63 57l-62 -57l-103 -4l94 142h144zM70 0v660h139v-660h-139z" />
    <glyph glyph-name="Idieresis" unicode="&#xcf;" horiz-adv-x="279" 
d="M41 702q-29 0 -48.5 20t-19.5 48t20 48t48 20t47.5 -20t19.5 -48t-19.5 -48t-47.5 -20zM247 702q-28 0 -48 20t-20 48t20 48t48 20t47.5 -20t19.5 -48t-19.5 -48t-47.5 -20zM70 0v660h139v-660h-139z" />
    <glyph glyph-name="Eth" unicode="&#xd0;" horiz-adv-x="670" 
d="M300 660q159 0 245.5 -88.5t86.5 -240.5q0 -161 -78.5 -246t-222.5 -85h-261v286h-92v88h92v286h230zM314 113q174 0 174 218q0 108 -52.5 162t-152.5 54h-71v-173h164v-88h-164v-173h102z" />
    <glyph glyph-name="Ntilde" unicode="&#xd1;" horiz-adv-x="701" 
d="M549 843q5 -21 5 -49q0 -44 -28 -73.5t-77 -29.5q-34 0 -81 26.5t-61 26.5t-23.5 -9t-9.5 -24l5 -24h-91q-5 18 -5 44q0 46 29.5 73t77.5 27q43 0 90.5 -25.5t57.5 -25.5q26 0 26 30l-5 33h90zM631 660v-660h-135l-213 318l-76 123l-6 -3q5 -19 5 -119l1 -319h-137v660
h126l223 -334q36 -54 75 -125l6 3q-6 36 -6 123l-1 333h138z" />
    <glyph glyph-name="Ograve" unicode="&#xd2;" horiz-adv-x="717" 
d="M299 694l-103 132h171l59 -126zM359 667q143 0 232 -91.5t89 -244.5q0 -154 -89 -246t-232 -92t-232.5 92t-89.5 246q0 153 89.5 244.5t232.5 91.5zM359 117q79 0 128 57.5t49 156.5t-49 156t-128 57t-128.5 -57t-49.5 -156t49.5 -156.5t128.5 -57.5z" />
    <glyph glyph-name="Oacute" unicode="&#xd3;" horiz-adv-x="717" 
d="M413 700l-128 -6l59 132h171zM359 667q143 0 232 -91.5t89 -244.5q0 -154 -89 -246t-232 -92t-232.5 92t-89.5 246q0 153 89.5 244.5t232.5 91.5zM359 117q79 0 128 57.5t49 156.5t-49 156t-128 57t-128.5 -57t-49.5 -156t49.5 -156.5t128.5 -57.5z" />
    <glyph glyph-name="Ocircumflex" unicode="&#xd4;" horiz-adv-x="717" 
d="M433 836l93 -142l-103 4l-63 57l-62 -57l-103 -4l94 142h144zM359 667q143 0 232 -91.5t89 -244.5q0 -154 -89 -246t-232 -92t-232.5 92t-89.5 246q0 153 89.5 244.5t232.5 91.5zM359 117q79 0 128 57.5t49 156.5t-49 156t-128 57t-128.5 -57t-49.5 -156t49.5 -156.5
t128.5 -57.5z" />
    <glyph glyph-name="Otilde" unicode="&#xd5;" horiz-adv-x="717" 
d="M529 843q5 -21 5 -49q0 -44 -28 -73.5t-77 -29.5q-34 0 -81 26.5t-61 26.5t-23.5 -9t-9.5 -24l5 -24h-91q-5 18 -5 44q0 46 29.5 73t77.5 27q43 0 90.5 -25.5t57.5 -25.5q26 0 26 30l-5 33h90zM359 667q143 0 232 -91.5t89 -244.5q0 -154 -89 -246t-232 -92t-232.5 92
t-89.5 246q0 153 89.5 244.5t232.5 91.5zM359 117q79 0 128 57.5t49 156.5t-49 156t-128 57t-128.5 -57t-49.5 -156t49.5 -156.5t128.5 -57.5z" />
    <glyph glyph-name="Odieresis" unicode="&#xd6;" horiz-adv-x="717" 
d="M260 702q-28 0 -48 20t-20 48t20 48t48 20t47.5 -20t19.5 -48t-19.5 -48t-47.5 -20zM466 702q-28 0 -48 20t-20 48t20 48t48 20t47.5 -20t19.5 -48t-19.5 -48t-47.5 -20zM359 667q143 0 232 -91.5t89 -244.5q0 -154 -89 -246t-232 -92t-232.5 92t-89.5 246
q0 153 89.5 244.5t232.5 91.5zM359 117q79 0 128 57.5t49 156.5t-49 156t-128 57t-128.5 -57t-49.5 -156t49.5 -156.5t128.5 -57.5z" />
    <glyph glyph-name="multiply" unicode="&#xd7;" horiz-adv-x="444" 
d="M401 349l-115 -115l115 -115l-64 -64l-115 115l-115 -115l-64 64l115 115l-115 115l64 64l115 -115l115 115z" />
    <glyph glyph-name="Oslash" unicode="&#xd8;" horiz-adv-x="717" 
d="M586 581q94 -94 94 -250q0 -154 -89 -246t-232 -92q-77 0 -139 27l-42 -64h-116l77 117q-102 94 -102 258q0 153 89.5 244.5t232.5 91.5q80 0 148 -31l34 52h115zM181 331q0 -83 36 -138l219 334q-36 17 -77 17q-79 0 -128.5 -57t-49.5 -156zM359 117q79 0 128 57.5
t49 156.5q0 74 -30 128l-214 -329q29 -13 67 -13z" />
    <glyph glyph-name="Ugrave" unicode="&#xd9;" horiz-adv-x="678" 
d="M280 694l-103 132h171l59 -126zM473 660h142v-400q0 -122 -75.5 -194.5t-199.5 -72.5q-125 0 -201 72.5t-76 194.5v400h142v-399q0 -68 37 -106.5t98 -38.5q60 0 96.5 38.5t36.5 105.5v400z" />
    <glyph glyph-name="Uacute" unicode="&#xda;" horiz-adv-x="678" 
d="M394 700l-128 -6l59 132h171zM473 660h142v-400q0 -122 -75.5 -194.5t-199.5 -72.5q-125 0 -201 72.5t-76 194.5v400h142v-399q0 -68 37 -106.5t98 -38.5q60 0 96.5 38.5t36.5 105.5v400z" />
    <glyph glyph-name="Ucircumflex" unicode="&#xdb;" horiz-adv-x="678" 
d="M414 836l93 -142l-103 4l-63 57l-62 -57l-103 -4l94 142h144zM473 660h142v-400q0 -122 -75.5 -194.5t-199.5 -72.5q-125 0 -201 72.5t-76 194.5v400h142v-399q0 -68 37 -106.5t98 -38.5q60 0 96.5 38.5t36.5 105.5v400z" />
    <glyph glyph-name="Udieresis" unicode="&#xdc;" horiz-adv-x="678" 
d="M241 702q-29 0 -48.5 20t-19.5 48t20 48t48 20t47.5 -20t19.5 -48t-19.5 -48t-47.5 -20zM447 702q-28 0 -48 20t-20 48t20 48t48 20t47.5 -20t19.5 -48t-19.5 -48t-47.5 -20zM473 660h142v-400q0 -122 -75.5 -194.5t-199.5 -72.5q-125 0 -201 72.5t-76 194.5v400h142
v-399q0 -68 37 -106.5t98 -38.5q60 0 96.5 38.5t36.5 105.5v400z" />
    <glyph glyph-name="Yacute" unicode="&#xdd;" horiz-adv-x="596" 
d="M456 826l-102 -126l-128 -6l59 132h171zM592 660l-223 -421v-239h-142v237l-224 423h153l111 -222q25 -50 32 -82h3q8 36 31 82l110 222h149z" />
    <glyph glyph-name="Thorn" unicode="&#xde;" horiz-adv-x="614" 
d="M310 565q132 0 204.5 -59t72.5 -174q0 -114 -71 -174t-188 -60h-116v-98h-142v660h142v-95h98zM301 210q69 0 105.5 31t36.5 91q0 57 -38 89t-109 32h-84v-243h89z" />
    <glyph glyph-name="germandbls" unicode="&#xdf;" horiz-adv-x="581" 
d="M417 357q67 -20 100.5 -68t33.5 -113q0 -86 -52.5 -134.5t-149.5 -48.5q-30 0 -57 2t-38 5l-12 2l16 111q24 -8 65 -8t65 23t24 67q0 46 -31 72.5t-89 26.5h-36v22h-4v90h12q40 0 65.5 30t25.5 77q0 41 -23.5 65.5t-59.5 24.5q-37 0 -58 -24t-21 -68v-511h-137v514
q0 90 58 144.5t154 54.5q101 0 163.5 -55t62.5 -143q0 -99 -77 -158z" />
    <glyph glyph-name="agrave" unicode="&#xe0;" horiz-adv-x="543" 
d="M321 541l-123 -6l-103 169h168zM514 107l6 -104q-29 -9 -67 -9q-95 0 -109 75q-39 -75 -152 -75q-76 0 -118 35t-42 95q0 43 21 72t63 45.5t93 23.5t122 9h6v21q0 37 -22 58.5t-64 21.5q-39 0 -60 -14.5t-21 -40.5q0 -11 4 -18l-120 -20q-6 20 -6 46q0 68 56 109t153 41
q103 0 158.5 -49.5t55.5 -139.5v-154q0 -31 26 -31q10 0 17 3zM231 95q48 0 77 21t29 51v38h-6q-87 -2 -126.5 -16.5t-39.5 -46.5q0 -47 66 -47z" />
    <glyph glyph-name="aacute" unicode="&#xe1;" horiz-adv-x="543" 
d="M404 704l-102 -163l-122 -6l59 169h165zM514 107l6 -104q-29 -9 -67 -9q-95 0 -109 75q-39 -75 -152 -75q-76 0 -118 35t-42 95q0 43 21 72t63 45.5t93 23.5t122 9h6v21q0 37 -22 58.5t-64 21.5q-39 0 -60 -14.5t-21 -40.5q0 -11 4 -18l-120 -20q-6 20 -6 46q0 68 56 109
t153 41q103 0 158.5 -49.5t55.5 -139.5v-154q0 -31 26 -31q10 0 17 3zM231 95q48 0 77 21t29 51v38h-6q-87 -2 -126.5 -16.5t-39.5 -46.5q0 -47 66 -47z" />
    <glyph glyph-name="acircumflex" unicode="&#xe2;" horiz-adv-x="543" 
d="M257 616l-62 -77l-103 -4l94 167h144l93 -167l-103 4zM514 107l6 -104q-29 -9 -67 -9q-95 0 -109 75q-39 -75 -152 -75q-76 0 -118 35t-42 95q0 43 21 72t63 45.5t93 23.5t122 9h6v21q0 37 -22 58.5t-64 21.5q-39 0 -60 -14.5t-21 -40.5q0 -11 4 -18l-120 -20
q-6 20 -6 46q0 68 56 109t153 41q103 0 158.5 -49.5t55.5 -139.5v-154q0 -31 26 -31q10 0 17 3zM231 95q48 0 77 21t29 51v38h-6q-87 -2 -126.5 -16.5t-39.5 -46.5q0 -47 66 -47z" />
    <glyph glyph-name="atilde" unicode="&#xe3;" horiz-adv-x="543" 
d="M157 533h-91q-5 21 -5 49q0 43 29.5 73t77.5 30q41 0 89.5 -25.5t58.5 -25.5q26 0 26 30l-5 33h90q5 -21 5 -49q0 -44 -28.5 -73.5t-78.5 -29.5q-33 0 -79 26.5t-59 26.5q-15 0 -25 -9.5t-10 -26.5zM514 107l6 -104q-29 -9 -67 -9q-95 0 -109 75q-39 -75 -152 -75
q-76 0 -118 35t-42 95q0 43 21 72t63 45.5t93 23.5t122 9h6v21q0 37 -22 58.5t-64 21.5q-39 0 -60 -14.5t-21 -40.5q0 -11 4 -18l-120 -20q-6 20 -6 46q0 68 56 109t153 41q103 0 158.5 -49.5t55.5 -139.5v-154q0 -31 26 -31q10 0 17 3zM231 95q48 0 77 21t29 51v38h-6
q-87 -2 -126.5 -16.5t-39.5 -46.5q0 -47 66 -47z" />
    <glyph glyph-name="adieresis" unicode="&#xe4;" horiz-adv-x="543" 
d="M158 550q-29 0 -49.5 20t-20.5 49t20.5 49.5t49.5 20.5q28 0 48.5 -20.5t20.5 -49.5t-20.5 -49t-48.5 -20zM363 550q-29 0 -49 20t-20 49t20.5 49.5t48.5 20.5q29 0 49.5 -20.5t20.5 -49.5t-20.5 -49t-49.5 -20zM514 107l6 -104q-29 -9 -67 -9q-95 0 -109 75
q-39 -75 -152 -75q-76 0 -118 35t-42 95q0 43 21 72t63 45.5t93 23.5t122 9h6v21q0 37 -22 58.5t-64 21.5q-39 0 -60 -14.5t-21 -40.5q0 -11 4 -18l-120 -20q-6 20 -6 46q0 68 56 109t153 41q103 0 158.5 -49.5t55.5 -139.5v-154q0 -31 26 -31q10 0 17 3zM231 95q48 0 77 21
t29 51v38h-6q-87 -2 -126.5 -16.5t-39.5 -46.5q0 -47 66 -47z" />
    <glyph glyph-name="aring" unicode="&#xe5;" horiz-adv-x="543" 
d="M257 523q-41 0 -70.5 28t-29.5 67q0 41 29.5 69t70.5 28t70.5 -28t29.5 -69q0 -39 -29.5 -67t-70.5 -28zM257 650q-13 0 -22.5 -9t-9.5 -23q0 -13 9 -22t23 -9t23 9t9 22q0 14 -9.5 23t-22.5 9zM514 107l6 -104q-29 -9 -67 -9q-95 0 -109 75q-39 -75 -152 -75
q-76 0 -118 35t-42 95q0 43 21 72t63 45.5t93 23.5t122 9h6v21q0 37 -22 58.5t-64 21.5q-39 0 -60 -14.5t-21 -40.5q0 -11 4 -18l-120 -20q-6 20 -6 46q0 68 56 109t153 41q103 0 158.5 -49.5t55.5 -139.5v-154q0 -31 26 -31q10 0 17 3zM231 95q48 0 77 21t29 51v38h-6
q-87 -2 -126.5 -16.5t-39.5 -46.5q0 -47 66 -47z" />
    <glyph glyph-name="ae" unicode="&#xe6;" horiz-adv-x="829" 
d="M601 98q79 0 128 54l65 -75q-27 -35 -79 -59t-123 -24q-138 0 -205 94h-5q-7 -14 -19 -27t-33.5 -30t-57.5 -27t-80 -10q-76 0 -118 35t-42 95q0 43 21 72t63 45.5t93 23.5t122 9h6v21q0 37 -22 58.5t-64 21.5q-39 0 -60 -14.5t-21 -40.5q0 -9 4 -19l-119 -20
q-7 20 -7 47q0 68 56 109t153 41q100 0 158 -63q68 63 163 63q101 0 159.5 -62t58.5 -161l-5 -50h-323q9 -49 43 -78t90 -29zM575 374q-43 0 -71.5 -25.5t-35.5 -72.5h202q-1 43 -26 70.5t-69 27.5zM231 95q48 0 77.5 23.5t29.5 55.5v31h-7q-87 -2 -126.5 -16.5t-39.5 -46.5
q0 -47 66 -47z" />
    <glyph glyph-name="ccedilla" unicode="&#xe7;" horiz-adv-x="510" 
d="M488 75q-25 -31 -74 -54.5t-116 -26.5l-9 -20q32 -4 55 -25.5t23 -60.5q0 -44 -33 -68.5t-80 -24.5q-30 0 -56 10.5t-38 20.5l-11 11l34 59q27 -29 68 -29q39 0 39 28q0 39 -88 39l28 64q-94 15 -146.5 78.5t-52.5 157.5q0 109 68 176.5t177 67.5q91 0 144.5 -47.5
t53.5 -118.5l-3 -35l-121 -7q2 4 2 21q0 32 -20.5 53.5t-57.5 21.5q-47 0 -75.5 -35t-28.5 -92q0 -62 31.5 -97.5t90.5 -35.5q84 0 129 55z" />
    <glyph glyph-name="egrave" unicode="&#xe8;" horiz-adv-x="524" 
d="M336 541l-123 -6l-103 169h168zM302 98q73 0 122 54l65 -75q-27 -35 -79.5 -59t-123.5 -24q-117 0 -185.5 67t-68.5 175q0 107 66 174.5t175 67.5q101 0 159 -62t58 -161l-4 -50h-318q9 -49 43 -78t91 -29zM273 374q-41 0 -69.5 -25.5t-35.5 -72.5h197q-1 43 -25.5 70.5
t-66.5 27.5z" />
    <glyph glyph-name="eacute" unicode="&#xe9;" horiz-adv-x="524" 
d="M419 704l-102 -163l-122 -6l59 169h165zM302 98q73 0 122 54l65 -75q-27 -35 -79.5 -59t-123.5 -24q-117 0 -185.5 67t-68.5 175q0 107 66 174.5t175 67.5q101 0 159 -62t58 -161l-4 -50h-318q9 -49 43 -78t91 -29zM273 374q-41 0 -69.5 -25.5t-35.5 -72.5h197
q-1 43 -25.5 70.5t-66.5 27.5z" />
    <glyph glyph-name="ecircumflex" unicode="&#xea;" horiz-adv-x="524" 
d="M272 616l-62 -77l-103 -4l94 167h144l93 -167l-103 4zM302 98q73 0 122 54l65 -75q-27 -35 -79.5 -59t-123.5 -24q-117 0 -185.5 67t-68.5 175q0 107 66 174.5t175 67.5q101 0 159 -62t58 -161l-4 -50h-318q9 -49 43 -78t91 -29zM273 374q-41 0 -69.5 -25.5t-35.5 -72.5
h197q-1 43 -25.5 70.5t-66.5 27.5z" />
    <glyph glyph-name="edieresis" unicode="&#xeb;" horiz-adv-x="524" 
d="M173 550q-29 0 -49.5 20t-20.5 49t20.5 49.5t49.5 20.5q28 0 48.5 -20.5t20.5 -49.5t-20 -49t-49 -20zM378 550q-28 0 -48.5 20t-20.5 49t20.5 49.5t48.5 20.5q29 0 49.5 -20.5t20.5 -49.5t-20.5 -49t-49.5 -20zM302 98q73 0 122 54l65 -75q-27 -35 -79.5 -59t-123.5 -24
q-117 0 -185.5 67t-68.5 175q0 107 66 174.5t175 67.5q101 0 159 -62t58 -161l-4 -50h-318q9 -49 43 -78t91 -29zM273 374q-41 0 -69.5 -25.5t-35.5 -72.5h197q-1 43 -25.5 70.5t-66.5 27.5z" />
    <glyph glyph-name="igrave" unicode="&#xec;" horiz-adv-x="250" 
d="M62 535l-103 169h168l58 -163zM56 0v472l137 4v-476h-137z" />
    <glyph glyph-name="iacute" unicode="&#xed;" horiz-adv-x="250" 
d="M184 541l-122 -6l59 169h165zM56 0v472l137 4v-476h-137z" />
    <glyph glyph-name="icircumflex" unicode="&#xee;" horiz-adv-x="250" 
d="M-46 535l94 167h144l93 -167l-103 4l-63 77l-62 -77zM56 0v472l137 4v-476h-137z" />
    <glyph glyph-name="idieresis" unicode="&#xef;" horiz-adv-x="250" 
d="M20 550q-29 0 -49.5 20t-20.5 49t20.5 49.5t49.5 20.5q28 0 48.5 -20.5t20.5 -49.5t-20.5 -49t-48.5 -20zM225 550q-29 0 -49 20t-20 49t20.5 49.5t48.5 20.5q29 0 49.5 -20.5t20.5 -49.5t-20.5 -49t-49.5 -20zM56 0v472l137 4v-476h-137z" />
    <glyph glyph-name="eth" unicode="&#xf0;" horiz-adv-x="571" 
d="M409 612q124 -118 124 -331q0 -133 -68.5 -210t-195.5 -77q-106 0 -171.5 64t-65.5 160q0 105 62 168.5t160 63.5q52 0 88.5 -19.5t53.5 -45.5q-19 95 -87 157l-96 -67l-45 66l68 47q-45 19 -101 21l67 98q76 -9 140 -44l90 63l47 -65zM281 106q55 0 87.5 33.5t33.5 86.5
q0 51 -34 81t-87 30q-52 0 -85 -32t-33 -84q0 -51 33.5 -83t84.5 -32z" />
    <glyph glyph-name="ntilde" unicode="&#xf1;" horiz-adv-x="565" 
d="M185 533h-91q-5 21 -5 49q0 43 29.5 73t77.5 30q41 0 89.5 -25.5t58.5 -25.5q26 0 26 30l-5 33h90q5 -21 5 -49q0 -44 -28.5 -73.5t-78.5 -29.5q-33 0 -79 26.5t-59 26.5q-15 0 -25 -9.5t-10 -26.5zM337 478q85 0 130.5 -52t45.5 -136v-290h-137v266q0 43 -21.5 68.5
t-61.5 25.5q-49 0 -74.5 -35t-25.5 -81v-244h-137v472l107 4q17 -53 17 -99h4q41 101 153 101z" />
    <glyph glyph-name="ograve" unicode="&#xf2;" horiz-adv-x="560" 
d="M221 535l-103 169h168l58 -163zM280 478q111 0 179.5 -67.5t68.5 -174.5t-68.5 -174.5t-179.5 -67.5q-112 0 -180.5 67.5t-68.5 174.5t68.5 174.5t180.5 67.5zM280 106q50 0 79.5 36t29.5 94t-29.5 94t-79.5 36t-80 -36t-30 -94t30 -94t80 -36z" />
    <glyph glyph-name="oacute" unicode="&#xf3;" horiz-adv-x="560" 
d="M325 541l-122 -6l59 169h165zM280 478q111 0 179.5 -67.5t68.5 -174.5t-68.5 -174.5t-179.5 -67.5q-112 0 -180.5 67.5t-68.5 174.5t68.5 174.5t180.5 67.5zM280 106q50 0 79.5 36t29.5 94t-29.5 94t-79.5 36t-80 -36t-30 -94t30 -94t80 -36z" />
    <glyph glyph-name="ocircumflex" unicode="&#xf4;" horiz-adv-x="560" 
d="M115 535l94 167h144l93 -167l-103 4l-63 77l-62 -77zM280 478q111 0 179.5 -67.5t68.5 -174.5t-68.5 -174.5t-179.5 -67.5q-112 0 -180.5 67.5t-68.5 174.5t68.5 174.5t180.5 67.5zM280 106q50 0 79.5 36t29.5 94t-29.5 94t-79.5 36t-80 -36t-30 -94t30 -94t80 -36z" />
    <glyph glyph-name="otilde" unicode="&#xf5;" horiz-adv-x="560" 
d="M450 697q5 -21 5 -49q0 -44 -28.5 -73.5t-78.5 -29.5q-33 0 -79 26.5t-59 26.5q-15 0 -25 -9.5t-10 -26.5l5 -29h-91q-5 21 -5 49q0 43 29.5 73t77.5 30q41 0 89.5 -25.5t58.5 -25.5q26 0 26 30l-5 33h90zM280 478q111 0 179.5 -67.5t68.5 -174.5t-68.5 -174.5
t-179.5 -67.5q-112 0 -180.5 67.5t-68.5 174.5t68.5 174.5t180.5 67.5zM280 106q50 0 79.5 36t29.5 94t-29.5 94t-79.5 36t-80 -36t-30 -94t30 -94t80 -36z" />
    <glyph glyph-name="odieresis" unicode="&#xf6;" horiz-adv-x="560" 
d="M181 550q-29 0 -49.5 20t-20.5 49t20.5 49.5t49.5 20.5q28 0 48.5 -20.5t20.5 -49.5t-20 -49t-49 -20zM386 550q-28 0 -48.5 20t-20.5 49t20.5 49.5t48.5 20.5q29 0 49.5 -20.5t20.5 -49.5t-20.5 -49t-49.5 -20zM280 478q111 0 179.5 -67.5t68.5 -174.5t-68.5 -174.5
t-179.5 -67.5q-112 0 -180.5 67.5t-68.5 174.5t68.5 174.5t180.5 67.5zM280 106q50 0 79.5 36t29.5 94t-29.5 94t-79.5 36t-80 -36t-30 -94t30 -94t80 -36z" />
    <glyph glyph-name="divide" unicode="&#xf7;" horiz-adv-x="462" 
d="M169 417q0 26 18 44t45 18q26 0 44 -18.5t18 -43.5q0 -26 -18 -44.5t-44 -18.5q-27 0 -45 18.5t-18 44.5zM41 196v89h380v-89h-380zM169 55q0 26 18 44t45 18q26 0 44 -18.5t18 -43.5q0 -26 -18 -44.5t-44 -18.5q-27 0 -45 18.5t-18 44.5z" />
    <glyph glyph-name="oslash" unicode="&#xf8;" horiz-adv-x="560" 
d="M443 425q85 -68 85 -189q0 -107 -68.5 -174.5t-179.5 -67.5q-56 0 -105 19l-27 -42h-81l49 76q-85 68 -85 189q0 107 68.5 174.5t180.5 67.5q56 0 105 -19l24 36h80zM170 236q0 -45 19 -78l131 201q-21 7 -40 7q-50 0 -80 -36t-30 -94zM280 106q50 0 79.5 36t29.5 94
q0 46 -18 77l-131 -200q17 -7 40 -7z" />
    <glyph glyph-name="ugrave" unicode="&#xf9;" horiz-adv-x="557" 
d="M341 541l-123 -6l-103 169h168zM365 472h137v-472l-111 -4q-15 58 -15 94h-2q-40 -96 -146 -96q-85 0 -131 52.5t-46 135.5v290h138v-266q0 -43 21.5 -68.5t61.5 -25.5q44 0 68.5 35.5t24.5 80.5v244z" />
    <glyph glyph-name="uacute" unicode="&#xfa;" horiz-adv-x="557" 
d="M424 704l-102 -163l-122 -6l59 169h165zM365 472h137v-472l-111 -4q-15 58 -15 94h-2q-40 -96 -146 -96q-85 0 -131 52.5t-46 135.5v290h138v-266q0 -43 21.5 -68.5t61.5 -25.5q44 0 68.5 35.5t24.5 80.5v244z" />
    <glyph glyph-name="ucircumflex" unicode="&#xfb;" horiz-adv-x="557" 
d="M277 616l-62 -77l-103 -4l94 167h144l93 -167l-103 4zM365 472h137v-472l-111 -4q-15 58 -15 94h-2q-40 -96 -146 -96q-85 0 -131 52.5t-46 135.5v290h138v-266q0 -43 21.5 -68.5t61.5 -25.5q44 0 68.5 35.5t24.5 80.5v244z" />
    <glyph glyph-name="udieresis" unicode="&#xfc;" horiz-adv-x="557" 
d="M178 550q-29 0 -49.5 20t-20.5 49t20.5 49.5t49.5 20.5q28 0 48.5 -20.5t20.5 -49.5t-20.5 -49t-48.5 -20zM383 550q-29 0 -49 20t-20 49t20.5 49.5t48.5 20.5q29 0 49.5 -20.5t20.5 -49.5t-20.5 -49t-49.5 -20zM365 472h137v-472l-111 -4q-15 58 -15 94h-2
q-40 -96 -146 -96q-85 0 -131 52.5t-46 135.5v290h138v-266q0 -43 21.5 -68.5t61.5 -25.5q44 0 68.5 35.5t24.5 80.5v244z" />
    <glyph glyph-name="yacute" unicode="&#xfd;" horiz-adv-x="526" 
d="M309 541l-122 -6l59 169h165zM317 -63q-56 -147 -192 -147q-24 0 -46 5t-32 9l-10 5l20 105q26 -14 57 -14q56 0 82 56l9 23l-195 493h147l97 -280q10 -32 15 -62h2q7 35 15 62l94 280h138z" />
    <glyph glyph-name="thorn" unicode="&#xfe;" horiz-adv-x="583" 
d="M341 478q95 0 152 -67.5t57 -174.5q0 -113 -60.5 -177.5t-155.5 -64.5q-94 0 -140 65v-263h-137v548h-1v358h134l1 -303h1q45 79 149 79zM306 109q48 0 76.5 34.5t28.5 92.5t-29.5 92.5t-78.5 34.5q-48 0 -78.5 -34t-30.5 -77v-32q0 -43 30.5 -77t81.5 -34z" />
    <glyph glyph-name="ydieresis" unicode="&#xff;" horiz-adv-x="526" 
d="M165 550q-29 0 -49.5 20t-20.5 49t20.5 49.5t49.5 20.5q28 0 48.5 -20.5t20.5 -49.5t-20 -49t-49 -20zM370 550q-28 0 -48.5 20t-20.5 49t20.5 49.5t48.5 20.5q29 0 49.5 -20.5t20.5 -49.5t-20.5 -49t-49.5 -20zM317 -63q-56 -147 -192 -147q-24 0 -46 5t-32 9l-10 5
l20 105q26 -14 57 -14q56 0 82 56l9 23l-195 493h147l97 -280q10 -32 15 -62h2q7 35 15 62l94 280h138z" />
    <glyph glyph-name="Amacron" unicode="&#x100;" horiz-adv-x="627" 
d="M481 804v-94h-323v94h323zM479 0l-46 141h-239l-46 -141h-145l234 660h153l233 -660h-144zM229 248h170l-64 196q-13 38 -20 75h-3q-4 -26 -20 -76z" />
    <glyph glyph-name="amacron" unicode="&#x101;" horiz-adv-x="543" 
d="M414 666v-94h-311v94h311zM514 107l6 -104q-29 -9 -67 -9q-95 0 -109 75q-39 -75 -152 -75q-76 0 -118 35t-42 95q0 43 21 72t63 45.5t93 23.5t122 9h6v21q0 37 -22 58.5t-64 21.5q-39 0 -60 -14.5t-21 -40.5q0 -11 4 -18l-120 -20q-6 20 -6 46q0 68 56 109t153 41
q103 0 158.5 -49.5t55.5 -139.5v-154q0 -31 26 -31q10 0 17 3zM231 95q48 0 77 21t29 51v38h-6q-87 -2 -126.5 -16.5t-39.5 -46.5q0 -47 66 -47z" />
    <glyph glyph-name="Abreve" unicode="&#x102;" horiz-adv-x="627" 
d="M316 692q-67 0 -108.5 40t-41.5 100h99q0 -54 50 -55q51 0 51 55h99q0 -60 -41 -100t-108 -40zM479 0l-46 141h-239l-46 -141h-145l234 660h153l233 -660h-144zM229 248h170l-64 196q-13 38 -20 75h-3q-4 -26 -20 -76z" />
    <glyph glyph-name="abreve" unicode="&#x103;" horiz-adv-x="543" 
d="M257 534q-71 0 -113 44t-42 115h101q0 -72 53 -74q53 0 53 74h102q0 -71 -41.5 -115t-112.5 -44zM514 107l6 -104q-29 -9 -67 -9q-95 0 -109 75q-39 -75 -152 -75q-76 0 -118 35t-42 95q0 43 21 72t63 45.5t93 23.5t122 9h6v21q0 37 -22 58.5t-64 21.5q-39 0 -60 -14.5
t-21 -40.5q0 -11 4 -18l-120 -20q-6 20 -6 46q0 68 56 109t153 41q103 0 158.5 -49.5t55.5 -139.5v-154q0 -31 26 -31q10 0 17 3zM231 95q48 0 77 21t29 51v38h-6q-87 -2 -126.5 -16.5t-39.5 -46.5q0 -47 66 -47z" />
    <glyph glyph-name="Aogonek" unicode="&#x104;" horiz-adv-x="627" 
d="M641 -100l33 -64q-4 -5 -12 -12.5t-34 -19.5t-55 -12q-48 0 -77 26.5t-29 68.5q0 67 60 113h-48l-46 141h-239l-46 -141h-145l234 660h153l233 -660q-3 -1 -8 -3.5t-17.5 -10.5t-22 -17.5t-17.5 -25t-8 -32.5q0 -20 11 -31t29 -11q15 0 28 7.5t18 15.5zM229 248h170
l-64 196q-13 38 -20 75h-3q-4 -26 -20 -76z" />
    <glyph glyph-name="aogonek" unicode="&#x105;" horiz-adv-x="543" 
d="M538 -97l33 -64q-4 -5 -12 -12.5t-34 -19.5t-55 -12q-48 0 -77 26.5t-29 68.5q0 65 53 107q-62 12 -73 72q-39 -75 -152 -75q-76 0 -118 35t-42 95q0 43 21 72t63 45.5t93 23.5t122 9h6v21q0 37 -22 58.5t-64 21.5q-39 0 -60 -14.5t-21 -40.5q0 -11 4 -18l-120 -20
q-6 20 -6 46q0 68 56 109t153 41q103 0 158.5 -49.5t55.5 -139.5v-154q0 -31 26 -31q10 0 17 3l6 -104q-3 -1 -8 -3.5t-17.5 -10.5t-22 -17.5t-17.5 -25t-8 -32.5q0 -20 11 -31t29 -11q15 0 28 8t18 16zM231 95q48 0 77 21t29 51v38h-6q-87 -2 -126.5 -16.5t-39.5 -46.5
q0 -47 66 -47z" />
    <glyph glyph-name="Cacute" unicode="&#x106;" horiz-adv-x="649" 
d="M403 700l-128 -6l59 132h171zM349 667q71 0 125 -23t84 -60.5t45 -79t15 -83.5l-131 -20q0 54 -34 98.5t-102 44.5q-73 0 -121.5 -58t-48.5 -156q0 -107 54 -160.5t135 -53.5q102 0 169 94l84 -88q-13 -19 -32.5 -38.5t-50.5 -41.5t-76.5 -35.5t-97.5 -13.5
q-148 0 -238 91t-90 246q0 153 87 245t224 92z" />
    <glyph glyph-name="cacute" unicode="&#x107;" horiz-adv-x="510" 
d="M321 541l-122 -6l59 169h165zM276 478q91 0 144.5 -47.5t53.5 -118.5l-3 -35l-121 -7q2 4 2 21q0 32 -20.5 53.5t-57.5 21.5q-47 0 -75.5 -35t-28.5 -92q0 -62 31.5 -97.5t90.5 -35.5q84 0 129 55l67 -86q-26 -33 -79 -57t-126 -24q-117 0 -184.5 66.5t-67.5 173.5
q0 109 68 176.5t177 67.5z" />
    <glyph glyph-name="Ccircumflex" unicode="&#x108;" horiz-adv-x="649" 
d="M423 836l93 -142l-103 4l-63 57l-62 -57l-103 -4l94 142h144zM349 667q71 0 125 -23t84 -60.5t45 -79t15 -83.5l-131 -20q0 54 -34 98.5t-102 44.5q-73 0 -121.5 -58t-48.5 -156q0 -107 54 -160.5t135 -53.5q102 0 169 94l84 -88q-13 -19 -32.5 -38.5t-50.5 -41.5
t-76.5 -35.5t-97.5 -13.5q-148 0 -238 91t-90 246q0 153 87 245t224 92z" />
    <glyph glyph-name="ccircumflex" unicode="&#x109;" horiz-adv-x="510" 
d="M111 535l94 167h144l93 -167l-103 4l-63 77l-62 -77zM276 478q91 0 144.5 -47.5t53.5 -118.5l-3 -35l-121 -7q2 4 2 21q0 32 -20.5 53.5t-57.5 21.5q-47 0 -75.5 -35t-28.5 -92q0 -62 31.5 -97.5t90.5 -35.5q84 0 129 55l67 -86q-26 -33 -79 -57t-126 -24
q-117 0 -184.5 66.5t-67.5 173.5q0 109 68 176.5t177 67.5z" />
    <glyph glyph-name="Cdotaccent" unicode="&#x10a;" horiz-adv-x="649" 
d="M348 694q-35 0 -58.5 22.5t-23.5 56.5t23.5 57t58.5 23t59.5 -23t24.5 -57t-24 -56.5t-60 -22.5zM349 667q71 0 125 -23t84 -60.5t45 -79t15 -83.5l-131 -20q0 54 -34 98.5t-102 44.5q-73 0 -121.5 -58t-48.5 -156q0 -107 54 -160.5t135 -53.5q102 0 169 94l84 -88
q-13 -19 -32.5 -38.5t-50.5 -41.5t-76.5 -35.5t-97.5 -13.5q-148 0 -238 91t-90 246q0 153 87 245t224 92z" />
    <glyph glyph-name="cdotaccent" unicode="&#x10b;" horiz-adv-x="510" 
d="M365 623q0 -37 -25.5 -61t-63.5 -24q-37 0 -62.5 24t-25.5 61q0 36 25.5 60.5t62.5 24.5q38 0 63.5 -24t25.5 -61zM276 478q91 0 144.5 -47.5t53.5 -118.5l-3 -35l-121 -7q2 4 2 21q0 32 -20.5 53.5t-57.5 21.5q-47 0 -75.5 -35t-28.5 -92q0 -62 31.5 -97.5t90.5 -35.5
q84 0 129 55l67 -86q-26 -33 -79 -57t-126 -24q-117 0 -184.5 66.5t-67.5 173.5q0 109 68 176.5t177 67.5z" />
    <glyph glyph-name="Ccaron" unicode="&#x10c;" horiz-adv-x="649" 
d="M185 841l103 -4l62 -57l63 57l103 4l-93 -142h-144zM349 667q71 0 125 -23t84 -60.5t45 -79t15 -83.5l-131 -20q0 54 -34 98.5t-102 44.5q-73 0 -121.5 -58t-48.5 -156q0 -107 54 -160.5t135 -53.5q102 0 169 94l84 -88q-13 -19 -32.5 -38.5t-50.5 -41.5t-76.5 -35.5
t-97.5 -13.5q-148 0 -238 91t-90 246q0 153 87 245t224 92z" />
    <glyph glyph-name="ccaron" unicode="&#x10d;" horiz-adv-x="510" 
d="M111 702l103 -4l62 -76l63 76l103 4l-93 -167h-144zM276 478q91 0 144.5 -47.5t53.5 -118.5l-3 -35l-121 -7q2 4 2 21q0 32 -20.5 53.5t-57.5 21.5q-47 0 -75.5 -35t-28.5 -92q0 -62 31.5 -97.5t90.5 -35.5q84 0 129 55l67 -86q-26 -33 -79 -57t-126 -24
q-117 0 -184.5 66.5t-67.5 173.5q0 109 68 176.5t177 67.5z" />
    <glyph glyph-name="Dcaron" unicode="&#x10e;" horiz-adv-x="670" 
d="M359 699h-144l-94 142l103 -4l62 -57l63 57l103 4zM300 660q159 0 245.5 -88.5t86.5 -240.5q0 -161 -78.5 -246t-222.5 -85h-261v660h230zM314 113q174 0 174 218q0 108 -52.5 162t-152.5 54h-71v-434h102z" />
    <glyph glyph-name="dcaron" unicode="&#x10f;" horiz-adv-x="625" 
d="M633 718q30 0 52 -20.5t22 -59.5q0 -58 -23.5 -104t-46.5 -64l-23 -17l-36 51q6 5 15.5 12.5t25.5 29t16 38.5q-29 0 -49 19.5t-20 47.5t19.5 47.5t47.5 19.5zM389 414v292h137v-706l-111 -4q-15 63 -13 93h-3q-44 -95 -157 -95q-95 0 -152 67t-57 173q0 113 61.5 178.5
t154.5 65.5q95 0 140 -64zM280 109q48 0 78.5 34t30.5 77v32q0 43 -30.5 77t-81.5 34q-48 0 -76.5 -35t-28.5 -94q0 -56 29.5 -90.5t78.5 -34.5z" />
    <glyph glyph-name="Dcroat" unicode="&#x110;" horiz-adv-x="670" 
d="M300 660q159 0 245.5 -88.5t86.5 -240.5q0 -161 -78.5 -246t-222.5 -85h-261v286h-92v88h92v286h230zM314 113q174 0 174 218q0 108 -52.5 162t-152.5 54h-71v-173h164v-88h-164v-173h102z" />
    <glyph glyph-name="dcroat" unicode="&#x111;" horiz-adv-x="582" 
d="M589 625v-78h-63v-547l-111 -4q-15 63 -13 93h-3q-44 -95 -157 -95q-95 0 -152 67t-57 173q0 113 61.5 178.5t154.5 65.5q95 0 140 -64v133h-132v78h132v81h137v-81h63zM280 109q48 0 78.5 34t30.5 77v32q0 43 -30.5 77t-81.5 34q-48 0 -76.5 -35t-28.5 -94
q0 -56 29.5 -90.5t78.5 -34.5z" />
    <glyph glyph-name="Emacron" unicode="&#x112;" horiz-adv-x="552" 
d="M463 804v-94h-323v94h323zM507 543h-295v-152h256v-111h-256v-163h295v-117h-437v660h437v-117z" />
    <glyph glyph-name="emacron" unicode="&#x113;" horiz-adv-x="524" 
d="M429 666v-94h-311v94h311zM302 98q73 0 122 54l65 -75q-27 -35 -79.5 -59t-123.5 -24q-117 0 -185.5 67t-68.5 175q0 107 66 174.5t175 67.5q101 0 159 -62t58 -161l-4 -50h-318q9 -49 43 -78t91 -29zM273 374q-41 0 -69.5 -25.5t-35.5 -72.5h197q-1 43 -25.5 70.5
t-66.5 27.5z" />
    <glyph glyph-name="Ebreve" unicode="&#x114;" horiz-adv-x="552" 
d="M298 692q-67 0 -108.5 40t-41.5 100h99q0 -54 50 -55q51 0 51 55h99q0 -60 -41 -100t-108 -40zM507 543h-295v-152h256v-111h-256v-163h295v-117h-437v660h437v-117z" />
    <glyph glyph-name="ebreve" unicode="&#x115;" horiz-adv-x="524" 
d="M272 534q-71 0 -113 44t-42 115h101q0 -72 53 -74q53 0 53 74h102q0 -71 -41.5 -115t-112.5 -44zM302 98q73 0 122 54l65 -75q-27 -35 -79.5 -59t-123.5 -24q-117 0 -185.5 67t-68.5 175q0 107 66 174.5t175 67.5q101 0 159 -62t58 -161l-4 -50h-318q9 -49 43 -78t91 -29
zM273 374q-41 0 -69.5 -25.5t-35.5 -72.5h197q-1 43 -25.5 70.5t-66.5 27.5z" />
    <glyph glyph-name="Edotaccent" unicode="&#x116;" horiz-adv-x="552" 
d="M297 694q-35 0 -58.5 22.5t-23.5 56.5t23.5 57t58.5 23t59.5 -23t24.5 -57t-24 -56.5t-60 -22.5zM507 543h-295v-152h256v-111h-256v-163h295v-117h-437v660h437v-117z" />
    <glyph glyph-name="edotaccent" unicode="&#x117;" horiz-adv-x="524" 
d="M272 538q-37 0 -62.5 24t-25.5 61q0 36 25.5 60.5t62.5 24.5q38 0 63.5 -24t25.5 -61t-25.5 -61t-63.5 -24zM302 98q73 0 122 54l65 -75q-27 -35 -79.5 -59t-123.5 -24q-117 0 -185.5 67t-68.5 175q0 107 66 174.5t175 67.5q101 0 159 -62t58 -161l-4 -50h-318
q9 -49 43 -78t91 -29zM273 374q-41 0 -69.5 -25.5t-35.5 -72.5h197q-1 43 -25.5 70.5t-66.5 27.5z" />
    <glyph glyph-name="Eogonek" unicode="&#x118;" horiz-adv-x="552" 
d="M525 -100l33 -64q-4 -5 -12 -12.5t-34 -19.5t-55 -12q-48 0 -77 26.5t-29 68.5q0 67 60 113h-341v660h437v-117h-295v-152h256v-111h-256v-163h295v-117q-3 -1 -8 -3.5t-17.5 -10.5t-22 -17.5t-17.5 -25t-8 -32.5q0 -20 11 -31t29 -11q15 0 28 7.5t18 15.5z" />
    <glyph glyph-name="eogonek" unicode="&#x119;" horiz-adv-x="524" 
d="M302 98q73 0 122 54l65 -75q-29 -38 -81 -60q-57 -33 -57 -81q0 -20 11 -31t29 -11q15 0 28 8t18 16l5 7l33 -64q-4 -5 -12 -12.5t-34 -19.5t-55 -12q-48 0 -77 26.5t-29 68.5q0 45 28 82h-10q-117 0 -185.5 67t-68.5 175q0 107 66 174.5t175 67.5q101 0 159 -62t58 -161
l-4 -50h-318q9 -49 43 -78t91 -29zM273 374q-41 0 -69.5 -25.5t-35.5 -72.5h197q-1 43 -25.5 70.5t-66.5 27.5z" />
    <glyph glyph-name="Ecaron" unicode="&#x11a;" horiz-adv-x="552" 
d="M372 699h-144l-94 142l103 -4l62 -57l63 57l103 4zM507 543h-295v-152h256v-111h-256v-163h295v-117h-437v660h437v-117z" />
    <glyph glyph-name="ecaron" unicode="&#x11b;" horiz-adv-x="524" 
d="M345 535h-144l-94 167l103 -4l62 -76l63 76l103 4zM302 98q73 0 122 54l65 -75q-27 -35 -79.5 -59t-123.5 -24q-117 0 -185.5 67t-68.5 175q0 107 66 174.5t175 67.5q101 0 159 -62t58 -161l-4 -50h-318q9 -49 43 -78t91 -29zM273 374q-41 0 -69.5 -25.5t-35.5 -72.5h197
q-1 43 -25.5 70.5t-66.5 27.5z" />
    <glyph glyph-name="Gcircumflex" unicode="&#x11c;" horiz-adv-x="673" 
d="M349 755l-62 -57l-103 -4l94 142h144l93 -142l-103 4zM626 322v-322h-96q-6 21 -10 73q-60 -80 -184 -80q-134 0 -216 92t-82 245t87 245t224 92q71 0 125 -22.5t84 -58.5t45 -75.5t15 -79.5l-130 -20q0 53 -34.5 93t-102.5 40q-73 0 -121 -58t-48 -156q0 -99 48 -159
t130 -60q69 0 106.5 32.5t39.5 88.5h-173v90h293z" />
    <glyph glyph-name="gcircumflex" unicode="&#x11d;" horiz-adv-x="529" 
d="M270 616l-62 -77l-103 -4l94 167h144l93 -167l-103 4zM325 83q90 0 142.5 -35t52.5 -105q0 -66 -59 -109.5t-199 -43.5q-125 0 -188 33t-63 90q0 69 79 95q-54 33 -54 89q0 64 68 88q-51 46 -51 119q0 78 57.5 126t151.5 48q77 0 132 -33q37 26 37 86l97 -18
q0 -49 -25 -78t-58 -36q29 -41 29 -95q0 -77 -58 -125t-153 -48q-49 0 -87 13q-33 -8 -33 -29q0 -18 17 -25t59 -7h106zM181 306q-1 -34 21 -54.5t60 -21.5q39 0 62 20t24 53t-22 54t-61 22q-38 0 -61 -20t-23 -53zM262 -115q72 0 102 12.5t30 39.5q0 24 -19.5 33.5
t-62.5 9.5h-89q-91 0 -91 -45q0 -50 130 -50z" />
    <glyph glyph-name="Gbreve" unicode="&#x11e;" horiz-adv-x="673" 
d="M348 692q-67 0 -108.5 40t-41.5 100h99q0 -54 50 -55q51 0 51 55h99q0 -60 -41 -100t-108 -40zM626 322v-322h-96q-6 21 -10 73q-60 -80 -184 -80q-134 0 -216 92t-82 245t87 245t224 92q71 0 125 -22.5t84 -58.5t45 -75.5t15 -79.5l-130 -20q0 53 -34.5 93t-102.5 40
q-73 0 -121 -58t-48 -156q0 -99 48 -159t130 -60q69 0 106.5 32.5t39.5 88.5h-173v90h293z" />
    <glyph glyph-name="gbreve" unicode="&#x11f;" horiz-adv-x="529" 
d="M270 534q-71 0 -113 44t-42 115h101q0 -72 53 -74q53 0 53 74h102q0 -71 -41.5 -115t-112.5 -44zM325 83q90 0 142.5 -35t52.5 -105q0 -66 -59 -109.5t-199 -43.5q-125 0 -188 33t-63 90q0 69 79 95q-54 33 -54 89q0 64 68 88q-51 46 -51 119q0 78 57.5 126t151.5 48
q71 0 124 -28q45 25 45 113l103 -27q0 -51 -30.5 -85t-67.5 -42q38 -43 38 -105q0 -77 -58 -125t-153 -48q-49 0 -87 13q-33 -8 -33 -29q0 -18 17 -25t59 -7h106zM181 306q-1 -34 21 -54.5t60 -21.5q39 0 62 20t24 53t-22 54t-61 22q-38 0 -61 -20t-23 -53zM262 -115
q72 0 102 12.5t30 39.5q0 24 -19.5 33.5t-62.5 9.5h-89q-91 0 -91 -45q0 -50 130 -50z" />
    <glyph glyph-name="Gdotaccent" unicode="&#x120;" horiz-adv-x="673" 
d="M347 694q-35 0 -58.5 22.5t-23.5 56.5t23.5 57t58.5 23t59.5 -23t24.5 -57t-24 -56.5t-60 -22.5zM626 322v-322h-96q-6 21 -10 73q-60 -80 -184 -80q-134 0 -216 92t-82 245t87 245t224 92q71 0 125 -22.5t84 -58.5t45 -75.5t15 -79.5l-130 -20q0 53 -34.5 93t-102.5 40
q-73 0 -121 -58t-48 -156q0 -99 48 -159t130 -60q69 0 106.5 32.5t39.5 88.5h-173v90h293z" />
    <glyph glyph-name="gdotaccent" unicode="&#x121;" horiz-adv-x="529" 
d="M270 538q-37 0 -62.5 24t-25.5 61q0 36 25.5 60.5t62.5 24.5q38 0 63.5 -24t25.5 -61t-25.5 -61t-63.5 -24zM325 83q90 0 142.5 -35t52.5 -105q0 -66 -59 -109.5t-199 -43.5q-125 0 -188 33t-63 90q0 69 79 95q-54 33 -54 89q0 64 68 88q-51 46 -51 119q0 78 57.5 126
t151.5 48q71 0 124 -28q45 25 45 113l103 -27q0 -51 -30.5 -85t-67.5 -42q38 -43 38 -105q0 -77 -58 -125t-153 -48q-49 0 -87 13q-33 -8 -33 -29q0 -18 17 -25t59 -7h106zM181 306q-1 -34 21 -54.5t60 -21.5q39 0 62 20t24 53t-22 54t-61 22q-38 0 -61 -20t-23 -53z
M262 -115q72 0 102 12.5t30 39.5q0 24 -19.5 33.5t-62.5 9.5h-89q-91 0 -91 -45q0 -50 130 -50z" />
    <glyph glyph-name="Gcommaaccent" unicode="&#x122;" horiz-adv-x="673" 
d="M626 322v-322h-96q-6 21 -10 73q-60 -80 -184 -80q-134 0 -216 92t-82 245t87 245t224 92q71 0 125 -22.5t84 -58.5t45 -75.5t15 -79.5l-130 -20q0 53 -34.5 93t-102.5 40q-73 0 -121 -58t-48 -156q0 -99 48 -159t130 -60q69 0 106.5 32.5t39.5 88.5h-173v90h293z
M343 -40q32 0 54.5 -21t22.5 -60q0 -36 -11 -67.5t-26.5 -49.5t-31 -31.5t-26.5 -18.5l-11 -5l-32 52q7 3 17 9t27 22t17 28q-29 0 -50 20.5t-21 50.5t20.5 50.5t50.5 20.5z" />
    <glyph glyph-name="gcommaaccent" unicode="&#x123;" horiz-adv-x="529" 
d="M272 512q-32 0 -54.5 21t-22.5 60q0 36 11 67.5t26.5 49.5t31 31.5t26.5 18.5l11 5l32 -52q-7 -3 -17 -9t-27 -22t-17 -28q29 0 50 -20.5t21 -50.5t-20.5 -50.5t-50.5 -20.5zM325 83q90 0 142.5 -35t52.5 -105q0 -66 -59 -109.5t-199 -43.5q-125 0 -188 33t-63 90
q0 69 79 95q-54 33 -54 89q0 64 68 88q-51 46 -51 119q0 78 57.5 126t151.5 48q71 0 124 -28q45 25 45 113l103 -27q0 -51 -30.5 -85t-67.5 -42q38 -43 38 -105q0 -77 -58 -125t-153 -48q-49 0 -87 13q-33 -8 -33 -29q0 -18 17 -25t59 -7h106zM181 306q-1 -34 21 -54.5
t60 -21.5q39 0 62 20t24 53t-22 54t-61 22q-38 0 -61 -20t-23 -53zM262 -115q72 0 102 12.5t30 39.5q0 24 -19.5 33.5t-62.5 9.5h-89q-91 0 -91 -45q0 -50 130 -50z" />
    <glyph glyph-name="Hcircumflex" unicode="&#x124;" horiz-adv-x="710" 
d="M362 755l-62 -57l-103 -4l94 142h144l93 -142l-103 4zM498 660h142v-660h-142v277h-286v-277h-142v660h142v-266h286v266z" />
    <glyph glyph-name="Hbar" unicode="&#x126;" horiz-adv-x="710" 
d="M692 587v-88h-52v-499h-142v277h-286v-277h-142v499h-52v88h52v73h142v-73h286v73h142v-73h52zM498 394v105h-286v-105h286z" />
    <glyph glyph-name="hbar" unicode="&#x127;" horiz-adv-x="565" 
d="M337 478q85 0 131 -52t46 -136v-290h-138v266q0 43 -21 68.5t-62 25.5q-49 0 -74.5 -34.5t-25.5 -81.5v-244h-137v547h-66v78h66v81h134v-81h132v-78h-131v-152h3q42 83 143 83z" />
    <glyph glyph-name="Itilde" unicode="&#x128;" horiz-adv-x="279" 
d="M310 843q5 -21 5 -49q0 -44 -28 -73.5t-77 -29.5q-34 0 -81 26.5t-61 26.5t-23.5 -9t-9.5 -24l5 -24h-91q-5 18 -5 44q0 46 29.5 73t77.5 27q43 0 90.5 -25.5t57.5 -25.5q26 0 26 30l-5 33h90zM70 0v660h139v-660h-139z" />
    <glyph glyph-name="itilde" unicode="&#x129;" horiz-adv-x="250" 
d="M289 697q5 -21 5 -49q0 -44 -28.5 -73.5t-78.5 -29.5q-33 0 -79 26.5t-59 26.5q-15 0 -25 -9.5t-10 -26.5l5 -29h-91q-5 21 -5 49q0 43 29.5 73t77.5 30q41 0 89.5 -25.5t58.5 -25.5q26 0 26 30l-5 33h90zM56 0v472l137 4v-476h-137z" />
    <glyph glyph-name="Imacron" unicode="&#x12a;" horiz-adv-x="279" 
d="M-18 710v94h323v-94h-323zM70 0v660h139v-660h-139z" />
    <glyph glyph-name="imacron" unicode="&#x12b;" horiz-adv-x="250" 
d="M-35 572v94h311v-94h-311zM56 0v472l137 4v-476h-137z" />
    <glyph glyph-name="Ibreve" unicode="&#x12c;" horiz-adv-x="279" 
d="M289 832q0 -60 -41 -100t-108 -40t-108.5 40t-41.5 100h99q0 -54 50 -55q51 0 51 55h99zM70 0v660h139v-660h-139z" />
    <glyph glyph-name="ibreve" unicode="&#x12d;" horiz-adv-x="250" 
d="M273 693q0 -71 -41.5 -115t-112.5 -44t-113 44t-42 115h101q0 -72 53 -74q53 0 53 74h102zM56 0v472l137 4v-476h-137z" />
    <glyph glyph-name="Iogonek" unicode="&#x12e;" horiz-adv-x="279" 
d="M227 -100l33 -64q-4 -5 -12 -12.5t-34 -19.5t-55 -12q-48 0 -77 26.5t-29 68.5q0 67 60 113h-43v660h139v-660q-3 -1 -8 -3.5t-17.5 -10.5t-22 -17.5t-17.5 -25t-8 -32.5q0 -20 11 -31t29 -11q15 0 28 7.5t18 15.5z" />
    <glyph glyph-name="iogonek" unicode="&#x12f;" horiz-adv-x="250" 
d="M125 538q-37 0 -62.5 24t-25.5 61q0 36 25.5 60.5t62.5 24.5t63 -24.5t26 -60.5q0 -37 -26 -61t-63 -24zM211 -100l33 -64q-4 -5 -12 -12.5t-34 -19.5t-55 -12q-48 0 -77 26.5t-29 68.5q0 67 60 113h-41v472l137 4v-476q-3 -1 -8 -3.5t-17.5 -10.5t-22 -17.5t-17.5 -25
t-8 -32.5q0 -20 11 -31t29 -11q15 0 28 7.5t18 15.5z" />
    <glyph glyph-name="Idotaccent" unicode="&#x130;" horiz-adv-x="279" 
d="M139 694q-35 0 -58.5 22.5t-23.5 56.5t23.5 57t58.5 23t59.5 -23t24.5 -57t-24 -56.5t-60 -22.5zM70 0v660h139v-660h-139z" />
    <glyph glyph-name="dotlessi" unicode="&#x131;" horiz-adv-x="250" 
d="M56 0v472l137 4v-476h-137z" />
    <glyph glyph-name="IJ" unicode="&#x132;" horiz-adv-x="752" 
d="M70 0v660h139v-660h-139zM359 163q39 -46 93 -46q48 0 70.5 22.5t22.5 74.5v446h142v-444q0 -108 -62 -165t-171 -57q-101 0 -179 70z" />
    <glyph glyph-name="ij" unicode="&#x133;" horiz-adv-x="508" 
d="M121 707q37 0 63 -24.5t26 -60.5q0 -37 -26 -61t-63 -24q-38 0 -63 24t-25 61t25 61t63 24zM385 707q38 0 63.5 -24t25.5 -61t-25.5 -61t-63.5 -24q-37 0 -62.5 24t-25.5 61q0 36 25.5 60.5t62.5 24.5zM56 0v472l137 4v-476h-137zM199 -82q16 -12 44 -12q72 0 72 90v476
l137 4v-477q0 -98 -47 -153t-143 -55q-32 0 -57.5 7.5t-34.5 15.5l-10 8z" />
    <glyph glyph-name="Jcircumflex" unicode="&#x134;" horiz-adv-x="473" 
d="M411 836l93 -142l-103 4l-63 57l-62 -57l-103 -4l94 142h144zM80 163q39 -46 93 -46q47 0 70 22.5t23 74.5v446h142v-444q0 -108 -62 -165t-171 -57q-101 0 -179 70z" />
    <glyph glyph-name="jcircumflex" unicode="&#x135;" horiz-adv-x="257" 
d="M-30 545l94 167h144l94 -167l-104 4l-62 77l-62 -77zM-52 -82q16 -12 44 -12q72 0 72 90v476l137 4v-477q0 -98 -47 -153t-143 -55q-32 0 -57.5 7.5t-35.5 15.5l-9 8z" />
    <glyph glyph-name="Kcommaaccent" unicode="&#x136;" horiz-adv-x="611" 
d="M379 322l230 -322h-149l-178 259h-70v-259h-142v660h142v-288h61l187 288h147zM320 -40q32 0 54.5 -21t22.5 -60q0 -36 -11 -67.5t-26.5 -49.5t-31 -31.5t-26.5 -18.5l-11 -5l-32 52q7 3 17 9t27 22t17 28q-29 0 -50 20.5t-21 50.5t20.5 50.5t50.5 20.5z" />
    <glyph glyph-name="kcommaaccent" unicode="&#x137;" horiz-adv-x="541" 
d="M352 246l198 -246h-166l-148 197h-43v-197h-137v706h137v-405h55l126 171h156zM275 -40q32 0 54.5 -21t22.5 -60q0 -36 -11 -67.5t-26.5 -49.5t-31 -31.5t-26.5 -18.5l-11 -5l-32 52q7 3 17 9t27 22t17 28q-29 0 -50 20.5t-21 50.5t20.5 50.5t50.5 20.5z" />
    <glyph glyph-name="kgreenlandic" unicode="&#x138;" horiz-adv-x="541" 
d="M384 0l-144 177h-47v-177h-137v472h137v-191h51l130 191h156l-179 -245l199 -227h-166z" />
    <glyph glyph-name="Lacute" unicode="&#x139;" horiz-adv-x="521" 
d="M299 826l-102 -126l-128 -6l59 132h171zM212 117h298v-117h-440v660h142v-543z" />
    <glyph glyph-name="lacute" unicode="&#x13a;" horiz-adv-x="249" 
d="M183 775l-122 -6l59 169h165zM56 0v706h137v-706h-137z" />
    <glyph glyph-name="Lcommaaccent" unicode="&#x13b;" horiz-adv-x="521" 
d="M212 117h298v-117h-440v660h142v-543zM302 -40q32 0 54.5 -21t22.5 -60q0 -36 -11 -67.5t-26.5 -49.5t-31 -31.5t-26.5 -18.5l-11 -5l-32 52q7 3 17 9t27 22t17 28q-29 0 -50 20.5t-21 50.5t20.5 50.5t50.5 20.5z" />
    <glyph glyph-name="lcommaaccent" unicode="&#x13c;" horiz-adv-x="249" 
d="M56 0v706h137v-706h-137zM52 -111q0 30 20.5 50.5t50.5 20.5q32 0 54.5 -21t22.5 -60q0 -36 -11 -67.5t-26.5 -49.5t-31 -31.5t-26.5 -18.5l-11 -5l-32 52q7 3 17 9t27 22t17 28q-29 0 -50 20.5t-21 50.5z" />
    <glyph glyph-name="Lcaron" unicode="&#x13d;" horiz-adv-x="521" 
d="M405 563q-29 0 -49 19.5t-20 47.5t19.5 48t47.5 20q30 0 52 -21t22 -59q0 -58 -23.5 -104t-46.5 -64l-23 -17l-36 51q6 5 15.5 12.5t25.5 28.5t16 38zM212 117h298v-117h-440v660h142v-543z" />
    <glyph glyph-name="lcaron" unicode="&#x13e;" horiz-adv-x="293" 
d="M232 651q0 28 19.5 47.5t47.5 19.5q31 0 52.5 -20.5t21.5 -59.5q0 -36 -9.5 -68.5t-23 -53t-27 -35.5t-23.5 -21l-9 -7l-37 51q6 5 15.5 12.5t25.5 29t16 38.5q-29 0 -49 19.5t-20 47.5zM56 0v706h137v-706h-137z" />
    <glyph glyph-name="Ldot" unicode="&#x13f;" horiz-adv-x="521" 
d="M212 117h298v-117h-440v660h142v-543zM363 244q-33 0 -55.5 23t-22.5 55t22.5 55t55.5 23q32 0 55 -23t23 -55t-23 -55t-55 -23z" />
    <glyph glyph-name="ldot" unicode="&#x140;" horiz-adv-x="405" 
d="M56 0v706h137v-706h-137zM416 353q0 -37 -26 -61t-64 -24q-37 0 -62.5 24t-25.5 61q0 36 25.5 60.5t62.5 24.5q38 0 64 -24.5t26 -60.5z" />
    <glyph glyph-name="Lslash" unicode="&#x141;" horiz-adv-x="521" 
d="M212 117h298v-117h-440v200l-58 -33l-46 79l104 59v355h142v-275l130 74l46 -78l-176 -100v-164z" />
    <glyph glyph-name="lslash" unicode="&#x142;" horiz-adv-x="346" 
d="M346 422l-103 -59v-363h-137v285l-61 -35l-39 69l100 57v330h137v-252l64 36z" />
    <glyph glyph-name="Nacute" unicode="&#x143;" horiz-adv-x="701" 
d="M400 700l-128 -6l59 132h171zM631 660v-660h-135l-213 318l-76 123l-6 -3q5 -19 5 -119l1 -319h-137v660h126l223 -334q36 -54 75 -125l6 3q-6 36 -6 123l-1 333h138z" />
    <glyph glyph-name="nacute" unicode="&#x144;" horiz-adv-x="565" 
d="M432 704l-102 -163l-122 -6l59 169h165zM337 478q85 0 130.5 -52t45.5 -136v-290h-137v266q0 43 -21.5 68.5t-61.5 25.5q-49 0 -74.5 -35t-25.5 -81v-244h-137v472l107 4q17 -53 17 -99h4q41 101 153 101z" />
    <glyph glyph-name="Ncommaaccent" unicode="&#x145;" horiz-adv-x="701" 
d="M631 660v-660h-135l-213 318l-76 123l-6 -3q5 -19 5 -119l1 -319h-137v660h126l223 -334q36 -54 75 -125l6 3q-6 36 -6 123l-1 333h138zM276 -111q0 30 20.5 50.5t50.5 20.5q32 0 54.5 -21t22.5 -60q0 -36 -11 -67.5t-26.5 -49.5t-31 -31.5t-26.5 -18.5l-11 -5l-32 52
q7 3 17 9t27 22t17 28q-29 0 -50 20.5t-21 50.5z" />
    <glyph glyph-name="ncommaaccent" unicode="&#x146;" horiz-adv-x="565" 
d="M337 478q85 0 130.5 -52t45.5 -136v-290h-137v266q0 43 -21.5 68.5t-61.5 25.5q-49 0 -74.5 -35t-25.5 -81v-244h-137v472l107 4q17 -53 17 -99h4q41 101 153 101zM283 -40q32 0 54.5 -21t22.5 -60q0 -36 -11 -67.5t-26.5 -49.5t-31 -31.5t-26.5 -18.5l-11 -5l-32 52
q7 3 17 9t27 22t17 28q-29 0 -50 20.5t-21 50.5t20.5 50.5t50.5 20.5z" />
    <glyph glyph-name="Ncaron" unicode="&#x147;" horiz-adv-x="701" 
d="M182 841l103 -4l62 -57l63 57l103 4l-93 -142h-144zM631 660v-660h-135l-213 318l-76 123l-6 -3q5 -19 5 -119l1 -319h-137v660h126l223 -334q36 -54 75 -125l6 3q-6 36 -6 123l-1 333h138z" />
    <glyph glyph-name="ncaron" unicode="&#x148;" horiz-adv-x="565" 
d="M358 535h-144l-94 167l103 -4l62 -76l63 76l103 4zM337 478q85 0 130.5 -52t45.5 -136v-290h-137v266q0 43 -21.5 68.5t-61.5 25.5q-49 0 -74.5 -35t-25.5 -81v-244h-137v472l107 4q17 -53 17 -99h4q41 101 153 101z" />
    <glyph glyph-name="napostrophe" unicode="&#x149;" horiz-adv-x="565" 
d="M-5 720q30 0 52 -21t22 -59q0 -36 -9.5 -68.5t-23 -53t-27.5 -35.5t-23 -21l-10 -7l-36 51q6 5 15.5 12.5t25.5 28.5t16 38q-29 0 -49 19.5t-20 47.5t19.5 48t47.5 20zM337 478q85 0 130.5 -52t45.5 -136v-290h-137v266q0 43 -21.5 68.5t-61.5 25.5q-49 0 -74.5 -35
t-25.5 -81v-244h-137v472l107 4q17 -53 17 -99h4q41 101 153 101z" />
    <glyph glyph-name="Eng" unicode="&#x14a;" horiz-adv-x="701" 
d="M493 660h138v-676q0 -117 -67.5 -180t-170.5 -63q-53 0 -97.5 18.5t-62.5 36.5l-18 18l85 98q0 -2 11 -12t34 -21.5t48 -11.5q47 0 73 29t26 84v26l-209 312l-76 123l-6 -3q5 -19 5 -119l1 -319h-137v660h126l223 -334q36 -54 75 -125l6 3q-6 36 -6 123z" />
    <glyph glyph-name="eng" unicode="&#x14b;" horiz-adv-x="565" 
d="M337 478q85 0 130.5 -52t45.5 -136v-291q0 -98 -47 -153t-143 -55q-32 0 -57.5 7.5t-35.5 15.5l-9 8l39 96q17 -12 44 -12q72 0 72 90v270q0 43 -21.5 68.5t-61.5 25.5q-49 0 -74.5 -35t-25.5 -81v-244h-137v472l107 4q17 -53 17 -99h4q41 101 153 101z" />
    <glyph glyph-name="Omacron" unicode="&#x14c;" horiz-adv-x="717" 
d="M201 710v94h323v-94h-323zM359 667q143 0 232 -91.5t89 -244.5q0 -154 -89 -246t-232 -92t-232.5 92t-89.5 246q0 153 89.5 244.5t232.5 91.5zM359 117q79 0 128 57.5t49 156.5t-49 156t-128 57t-128.5 -57t-49.5 -156t49.5 -156.5t128.5 -57.5z" />
    <glyph glyph-name="omacron" unicode="&#x14d;" horiz-adv-x="560" 
d="M126 572v94h311v-94h-311zM280 478q111 0 179.5 -67.5t68.5 -174.5t-68.5 -174.5t-179.5 -67.5q-112 0 -180.5 67.5t-68.5 174.5t68.5 174.5t180.5 67.5zM280 106q50 0 79.5 36t29.5 94t-29.5 94t-79.5 36t-80 -36t-30 -94t30 -94t80 -36z" />
    <glyph glyph-name="Obreve" unicode="&#x14e;" horiz-adv-x="717" 
d="M508 832q0 -60 -41 -100t-108 -40t-108.5 40t-41.5 100h99q0 -54 50 -55q51 0 51 55h99zM359 667q143 0 232 -91.5t89 -244.5q0 -154 -89 -246t-232 -92t-232.5 92t-89.5 246q0 153 89.5 244.5t232.5 91.5zM359 117q79 0 128 57.5t49 156.5t-49 156t-128 57t-128.5 -57
t-49.5 -156t49.5 -156.5t128.5 -57.5z" />
    <glyph glyph-name="obreve" unicode="&#x14f;" horiz-adv-x="560" 
d="M434 693q0 -71 -41.5 -115t-112.5 -44t-113 44t-42 115h101q0 -72 53 -74q53 0 53 74h102zM280 478q111 0 179.5 -67.5t68.5 -174.5t-68.5 -174.5t-179.5 -67.5q-112 0 -180.5 67.5t-68.5 174.5t68.5 174.5t180.5 67.5zM280 106q50 0 79.5 36t29.5 94t-29.5 94t-79.5 36
t-80 -36t-30 -94t30 -94t80 -36z" />
    <glyph glyph-name="Ohungarumlaut" unicode="&#x150;" horiz-adv-x="717" 
d="M294 700l-111 -6l59 132h155zM494 700l-112 -6l59 132h155zM359 667q143 0 232 -91.5t89 -244.5q0 -154 -89 -246t-232 -92t-232.5 92t-89.5 246q0 153 89.5 244.5t232.5 91.5zM359 117q79 0 128 57.5t49 156.5t-49 156t-128 57t-128.5 -57t-49.5 -156t49.5 -156.5
t128.5 -57.5z" />
    <glyph glyph-name="ohungarumlaut" unicode="&#x151;" horiz-adv-x="560" 
d="M224 541l-128 -6l59 170h171zM433 541l-127 -6l58 170h172zM280 478q111 0 179.5 -67.5t68.5 -174.5t-68.5 -174.5t-179.5 -67.5q-112 0 -180.5 67.5t-68.5 174.5t68.5 174.5t180.5 67.5zM280 106q50 0 79.5 36t29.5 94t-29.5 94t-79.5 36t-80 -36t-30 -94t30 -94t80 -36
z" />
    <glyph glyph-name="OE" unicode="&#x152;" horiz-adv-x="1024" 
d="M979 543h-295v-152h256v-111h-256v-163h295v-117h-437v44q-79 -51 -183 -51q-143 0 -232.5 92t-89.5 246q0 153 89.5 244.5t232.5 91.5q104 0 183 -51v44h437v-117zM359 117q79 0 128 57.5t49 156.5t-49 156t-128 57t-128.5 -57t-49.5 -156t49.5 -156.5t128.5 -57.5z" />
    <glyph glyph-name="oe" unicode="&#x153;" horiz-adv-x="883" 
d="M661 98q73 0 122 54l65 -75q-27 -35 -79.5 -59t-123.5 -24q-116 0 -186 67q-69 -67 -179 -67q-112 0 -180.5 67.5t-68.5 174.5t68.5 174.5t180.5 67.5q110 0 178 -66q68 66 174 66q101 0 159 -62t58 -161l-4 -50h-318q9 -49 43 -78t91 -29zM632 374q-41 0 -69.5 -25.5
t-35.5 -72.5h197q-1 43 -25.5 70.5t-66.5 27.5zM280 106q50 0 79.5 36t29.5 94t-29.5 94t-79.5 36t-80 -36t-30 -94t30 -94t80 -36z" />
    <glyph glyph-name="Racute" unicode="&#x154;" horiz-adv-x="626" 
d="M450 826l-102 -126l-128 -6l59 132h171zM601 109l9 -109q-26 -7 -73 -7q-56 0 -93 24t-55.5 58.5t-35 68.5t-43.5 58t-68 24h-30v-226h-142v660h224q264 0 264 -223q0 -135 -133 -186q23 -11 42.5 -36.5t31 -48.5t33 -41t49.5 -18zM212 326h63q65 0 104 29t39 81
q0 55 -34 83.5t-98 28.5h-74v-222z" />
    <glyph glyph-name="racute" unicode="&#x155;" horiz-adv-x="380" 
d="M356 704l-102 -163l-122 -6l59 169h165zM310 478q37 0 70 -14l-36 -132q-25 17 -54 17q-41 0 -69 -32t-28 -89v-228h-137v472l107 4q17 -53 17 -104h4q32 106 126 106z" />
    <glyph glyph-name="Rcommaaccent" unicode="&#x156;" horiz-adv-x="626" 
d="M601 109l9 -109q-26 -7 -73 -7q-56 0 -93 24t-55.5 58.5t-35 68.5t-43.5 58t-68 24h-30v-226h-142v660h224q264 0 264 -223q0 -135 -133 -186q23 -11 42.5 -36.5t31 -48.5t33 -41t49.5 -18zM212 326h63q65 0 104 29t39 81q0 55 -34 83.5t-98 28.5h-74v-222zM328 -40
q32 0 54.5 -21t22.5 -60q0 -36 -11 -67.5t-26.5 -49.5t-31 -31.5t-26.5 -18.5l-11 -5l-32 52q7 3 17 9t27 22t17 28q-29 0 -50 20.5t-21 50.5t20.5 50.5t50.5 20.5z" />
    <glyph glyph-name="rcommaaccent" unicode="&#x157;" horiz-adv-x="380" 
d="M310 478q37 0 70 -14l-36 -132q-25 17 -54 17q-41 0 -69 -32t-28 -89v-228h-137v472l107 4q17 -53 17 -104h4q32 106 126 106zM127 -40q32 0 54.5 -21t22.5 -60q0 -36 -11 -67.5t-26.5 -49.5t-31 -31.5t-26.5 -18.5l-11 -5l-32 52q7 3 17 9t27 22t17 28q-29 0 -50 20.5
t-21 50.5t20.5 50.5t50.5 20.5z" />
    <glyph glyph-name="Rcaron" unicode="&#x158;" horiz-adv-x="626" 
d="M368 699h-144l-94 142l103 -4l62 -57l63 57l103 4zM601 109l9 -109q-26 -7 -73 -7q-56 0 -93 24t-55.5 58.5t-35 68.5t-43.5 58t-68 24h-30v-226h-142v660h224q264 0 264 -223q0 -135 -133 -186q23 -11 42.5 -36.5t31 -48.5t33 -41t49.5 -18zM212 326h63q65 0 104 29
t39 81q0 55 -34 83.5t-98 28.5h-74v-222z" />
    <glyph glyph-name="rcaron" unicode="&#x159;" horiz-adv-x="380" 
d="M282 535h-144l-94 167l103 -4l62 -76l63 76l103 4zM310 478q37 0 70 -14l-36 -132q-25 17 -54 17q-41 0 -69 -32t-28 -89v-228h-137v472l107 4q17 -53 17 -104h4q32 106 126 106z" />
    <glyph glyph-name="Sacute" unicode="&#x15a;" horiz-adv-x="574" 
d="M334 700l-128 -6l59 132h171zM406 463q-3 32 -33 59.5t-82 27.5q-45 0 -71 -19.5t-26 -53.5q0 -24 19 -41t49 -28t67 -21t73.5 -25.5t66.5 -37t49 -59.5t19 -88q0 -81 -65 -132.5t-186 -51.5q-90 0 -158 29t-108 63l83 102q87 -79 187 -79q106 0 106 66q0 31 -25.5 52
t-63.5 31.5t-83 26.5t-83 34.5t-63.5 57t-25.5 93.5q0 85 65.5 141.5t170.5 56.5q62 0 109.5 -16.5t74 -44t41 -54.5t20.5 -58z" />
    <glyph glyph-name="sacute" unicode="&#x15b;" horiz-adv-x="482" 
d="M286 541l-122 -6l59 169h165zM315 307q2 8 2 17q0 29 -20 45.5t-56 16.5q-33 0 -51.5 -13.5t-18.5 -35.5q0 -26 28.5 -39.5t69 -21t81 -18.5t69.5 -42t29 -81q1 -64 -54.5 -102.5t-151.5 -38.5q-136 0 -220 70l64 83q16 -15 61 -36t90 -21q71 0 71 37q0 17 -19.5 29.5
t-49 18.5t-63.5 17t-63.5 25t-49 43t-19.5 69q0 69 55 109t147 40q85 0 139.5 -37t54.5 -95l-4 -32z" />
    <glyph glyph-name="Scircumflex" unicode="&#x15c;" horiz-adv-x="574" 
d="M354 836l93 -142l-103 4l-63 57l-62 -57l-103 -4l94 142h144zM406 463q-3 32 -33 59.5t-82 27.5q-45 0 -71 -19.5t-26 -53.5q0 -24 19 -41t49 -28t67 -21t73.5 -25.5t66.5 -37t49 -59.5t19 -88q0 -81 -65 -132.5t-186 -51.5q-90 0 -158 29t-108 63l83 102q87 -79 187 -79
q106 0 106 66q0 31 -25.5 52t-63.5 31.5t-83 26.5t-83 34.5t-63.5 57t-25.5 93.5q0 85 65.5 141.5t170.5 56.5q62 0 109.5 -16.5t74 -44t41 -54.5t20.5 -58z" />
    <glyph glyph-name="scircumflex" unicode="&#x15d;" horiz-adv-x="482" 
d="M76 535l94 167h144l93 -167l-103 4l-63 77l-62 -77zM315 307q2 8 2 17q0 29 -20 45.5t-56 16.5q-33 0 -51.5 -13.5t-18.5 -35.5q0 -26 28.5 -39.5t69 -21t81 -18.5t69.5 -42t29 -81q1 -64 -54.5 -102.5t-151.5 -38.5q-136 0 -220 70l64 83q16 -15 61 -36t90 -21
q71 0 71 37q0 17 -19.5 29.5t-49 18.5t-63.5 17t-63.5 25t-49 43t-19.5 69q0 69 55 109t147 40q85 0 139.5 -37t54.5 -95l-4 -32z" />
    <glyph glyph-name="Scedilla" unicode="&#x15e;" horiz-adv-x="574" 
d="M537 177q0 -74 -55 -124t-159 -59l-9 -20q32 -4 55 -25.5t23 -60.5q0 -44 -33 -68.5t-80 -24.5q-30 0 -56 10.5t-37 20.5l-12 11l34 59q27 -29 68 -29q39 0 39 28q0 39 -88 39l27 60q-140 10 -234 91l83 102q87 -79 187 -79q106 0 106 66q0 31 -25.5 52t-63.5 31.5
t-83 26.5t-83 34.5t-63.5 57t-25.5 93.5q0 85 65.5 141.5t170.5 56.5q62 0 109.5 -16.5t74 -44t41 -54.5t20.5 -58l-127 -31q-3 32 -33 59.5t-82 27.5q-45 0 -71 -19.5t-26 -53.5q0 -24 19 -41t49 -28t67 -21t73.5 -25.5t66.5 -37t49 -59.5t19 -88z" />
    <glyph glyph-name="scedilla" unicode="&#x15f;" horiz-adv-x="482" 
d="M448 135q1 -58 -44.5 -95.5t-126.5 -44.5l-10 -21q32 -4 55 -25.5t23 -60.5q0 -44 -33 -68.5t-80 -24.5q-30 0 -56 10.5t-38 20.5l-11 11l34 59q27 -29 68 -29q39 0 39 28q0 39 -88 39l27 61q-111 8 -185 69l64 83q16 -15 61 -36t90 -21q71 0 71 37q0 17 -19.5 29.5
t-49 18.5t-63.5 17t-63.5 25t-49 43t-19.5 69q0 69 55 109t147 40q85 0 139.5 -37t54.5 -95l-4 -32l-121 -7q2 8 2 17q0 29 -20 45.5t-56 16.5q-33 0 -51.5 -13.5t-18.5 -35.5q0 -26 28.5 -39.5t69 -21t81 -18.5t69.5 -42t29 -81z" />
    <glyph glyph-name="Scaron" unicode="&#x160;" horiz-adv-x="574" 
d="M116 841l103 -4l62 -57l63 57l103 4l-93 -142h-144zM406 463q-3 32 -33 59.5t-82 27.5q-45 0 -71 -19.5t-26 -53.5q0 -24 19 -41t49 -28t67 -21t73.5 -25.5t66.5 -37t49 -59.5t19 -88q0 -81 -65 -132.5t-186 -51.5q-90 0 -158 29t-108 63l83 102q87 -79 187 -79
q106 0 106 66q0 31 -25.5 52t-63.5 31.5t-83 26.5t-83 34.5t-63.5 57t-25.5 93.5q0 85 65.5 141.5t170.5 56.5q62 0 109.5 -16.5t74 -44t41 -54.5t20.5 -58z" />
    <glyph glyph-name="scaron" unicode="&#x161;" horiz-adv-x="482" 
d="M76 702l103 -4l62 -76l63 76l103 4l-93 -167h-144zM315 307q2 8 2 17q0 29 -20 45.5t-56 16.5q-33 0 -51.5 -13.5t-18.5 -35.5q0 -26 28.5 -39.5t69 -21t81 -18.5t69.5 -42t29 -81q1 -64 -54.5 -102.5t-151.5 -38.5q-136 0 -220 70l64 83q16 -15 61 -36t90 -21
q71 0 71 37q0 17 -19.5 29.5t-49 18.5t-63.5 17t-63.5 25t-49 43t-19.5 69q0 69 55 109t147 40q85 0 139.5 -37t54.5 -95l-4 -32z" />
    <glyph glyph-name="uni0162" unicode="&#x162;" horiz-adv-x="567" 
d="M354 0h-39l-12 -26q32 -4 55 -25.5t23 -60.5q0 -44 -33 -68.5t-80 -24.5q-30 0 -56 10.5t-38 20.5l-11 11l34 59q27 -29 68 -29q39 0 39 28q0 39 -88 39l29 66h-33v543h-201v117h544v-117h-201v-543z" />
    <glyph glyph-name="uni0163" unicode="&#x163;" horiz-adv-x="424" 
d="M275 -26q32 -4 55 -25.5t23 -60.5q0 -44 -33 -68.5t-80 -24.5q-30 0 -56 10.5t-38 20.5l-11 11l34 59q27 -29 68 -29q39 0 39 28q0 39 -88 39l30 67q-128 29 -128 194v173h-72v104h78v133l132 5v-138h166v-104h-166v-167q0 -47 18.5 -69t58.5 -22q21 0 40 6.5t27 12.5
l9 6l39 -107q-48 -33 -136 -34z" />
    <glyph glyph-name="Tcaron" unicode="&#x164;" horiz-adv-x="567" 
d="M121 841l103 -4l62 -57l63 57l103 4l-93 -142h-144zM212 0v543h-201v117h544v-117h-201v-543h-142z" />
    <glyph glyph-name="tcaron" unicode="&#x165;" horiz-adv-x="424" 
d="M333 593q-28 0 -47.5 19.5t-19.5 47.5t19.5 48t47.5 20q30 0 51 -20.5t21 -56.5q0 -34 -10 -62.5t-24.5 -44.5t-29.5 -27t-25 -15l-10 -4l-31 48q57 21 58 47zM381 135l39 -107q-50 -34 -141 -34q-189 0 -189 201v173h-72v104h78v133l132 5v-138h166v-104h-166v-167
q0 -47 18.5 -69t58.5 -22q21 0 40 6.5t27 12.5z" />
    <glyph glyph-name="Tbar" unicode="&#x166;" horiz-adv-x="567" 
d="M555 543h-201v-170h126v-88h-126v-285h-142v285h-130v88h130v170h-201v117h544v-117z" />
    <glyph glyph-name="tbar" unicode="&#x167;" horiz-adv-x="424" 
d="M381 135l39 -107q-50 -34 -141 -34q-189 0 -189 201v18h-66v78h66v77h-72v104h78v133l132 5v-138h166v-104h-166v-77h128v-78h-128v-12q0 -47 18.5 -69t58.5 -22q21 0 40 6.5t27 12.5z" />
    <glyph glyph-name="Utilde" unicode="&#x168;" horiz-adv-x="678" 
d="M532 843q5 -21 5 -49q0 -44 -28 -73.5t-77 -29.5q-34 0 -81 26.5t-61 26.5t-23.5 -9t-9.5 -24l5 -24h-91q-5 18 -5 44q0 46 29.5 73t77.5 27q43 0 90.5 -25.5t57.5 -25.5q26 0 26 30l-5 33h90zM473 660h142v-400q0 -122 -75.5 -194.5t-199.5 -72.5q-125 0 -201 72.5
t-76 194.5v400h142v-399q0 -68 37 -106.5t98 -38.5q60 0 96.5 38.5t36.5 105.5v400z" />
    <glyph glyph-name="utilde" unicode="&#x169;" horiz-adv-x="557" 
d="M177 533h-91q-5 21 -5 49q0 43 29.5 73t77.5 30q41 0 89.5 -25.5t58.5 -25.5q26 0 26 30l-5 33h90q5 -21 5 -49q0 -44 -28.5 -73.5t-78.5 -29.5q-33 0 -79 26.5t-59 26.5q-15 0 -25 -9.5t-10 -26.5zM365 472h137v-472l-111 -4q-15 58 -15 94h-2q-40 -96 -146 -96
q-85 0 -131 52.5t-46 135.5v290h138v-266q0 -43 21.5 -68.5t61.5 -25.5q44 0 68.5 35.5t24.5 80.5v244z" />
    <glyph glyph-name="Umacron" unicode="&#x16a;" horiz-adv-x="678" 
d="M182 710v94h323v-94h-323zM473 660h142v-400q0 -122 -75.5 -194.5t-199.5 -72.5q-125 0 -201 72.5t-76 194.5v400h142v-399q0 -68 37 -106.5t98 -38.5q60 0 96.5 38.5t36.5 105.5v400z" />
    <glyph glyph-name="umacron" unicode="&#x16b;" horiz-adv-x="557" 
d="M434 666v-94h-311v94h311zM365 472h137v-472l-111 -4q-15 58 -15 94h-2q-40 -96 -146 -96q-85 0 -131 52.5t-46 135.5v290h138v-266q0 -43 21.5 -68.5t61.5 -25.5q44 0 68.5 35.5t24.5 80.5v244z" />
    <glyph glyph-name="Ubreve" unicode="&#x16c;" horiz-adv-x="678" 
d="M489 832q0 -60 -41 -100t-108 -40t-108.5 40t-41.5 100h99q0 -54 50 -55q51 0 51 55h99zM473 660h142v-400q0 -122 -75.5 -194.5t-199.5 -72.5q-125 0 -201 72.5t-76 194.5v400h142v-399q0 -68 37 -106.5t98 -38.5q60 0 96.5 38.5t36.5 105.5v400z" />
    <glyph glyph-name="ubreve" unicode="&#x16d;" horiz-adv-x="557" 
d="M277 534q-71 0 -113 44t-42 115h101q0 -72 53 -74q53 0 53 74h102q0 -71 -41.5 -115t-112.5 -44zM365 472h137v-472l-111 -4q-15 58 -15 94h-2q-40 -96 -146 -96q-85 0 -131 52.5t-46 135.5v290h138v-266q0 -43 21.5 -68.5t61.5 -25.5q44 0 68.5 35.5t24.5 80.5v244z" />
    <glyph glyph-name="Uring" unicode="&#x16e;" horiz-adv-x="678" 
d="M340 681q-39 0 -67.5 26.5t-28.5 65.5t28.5 65.5t67.5 26.5t67.5 -27t28.5 -65t-28.5 -65t-67.5 -27zM371 773q0 13 -9 21.5t-22 8.5t-21.5 -8.5t-8.5 -21.5t8.5 -22t21.5 -9t22 9t9 22zM473 660h142v-400q0 -122 -75.5 -194.5t-199.5 -72.5q-125 0 -201 72.5t-76 194.5
v400h142v-399q0 -68 37 -106.5t98 -38.5q60 0 96.5 38.5t36.5 105.5v400z" />
    <glyph glyph-name="uring" unicode="&#x16f;" horiz-adv-x="557" 
d="M277 523q-41 0 -70.5 28t-29.5 67q0 41 29.5 69t70.5 28t70.5 -28t29.5 -69q0 -39 -29.5 -67t-70.5 -28zM277 650q-13 0 -22.5 -9t-9.5 -23q0 -13 9 -22t23 -9t23 9t9 22q0 14 -9.5 23t-22.5 9zM365 472h137v-472l-111 -4q-15 58 -15 94h-2q-40 -96 -146 -96
q-85 0 -131 52.5t-46 135.5v290h138v-266q0 -43 21.5 -68.5t61.5 -25.5q44 0 68.5 35.5t24.5 80.5v244z" />
    <glyph glyph-name="Uhungarumlaut" unicode="&#x170;" horiz-adv-x="678" 
d="M275 700l-111 -6l59 132h155zM475 700l-112 -6l59 132h155zM473 660h142v-400q0 -122 -75.5 -194.5t-199.5 -72.5q-125 0 -201 72.5t-76 194.5v400h142v-399q0 -68 37 -106.5t98 -38.5q60 0 96.5 38.5t36.5 105.5v400z" />
    <glyph glyph-name="uhungarumlaut" unicode="&#x171;" horiz-adv-x="557" 
d="M323 705l-102 -164l-128 -6l59 170h171zM430 541l-127 -6l58 170h172zM365 228v244h137v-472l-111 -4q-15 58 -15 94h-2q-40 -96 -146 -96q-85 0 -131 52.5t-46 135.5v290h138v-266q0 -43 21.5 -68.5t61.5 -25.5q44 0 68.5 35.5t24.5 80.5z" />
    <glyph glyph-name="Uogonek" unicode="&#x172;" horiz-adv-x="678" 
d="M473 660h142v-400q0 -95 -47 -161t-129 -92q-13 -6 -26 -14.5t-27 -28.5t-14 -43q0 -20 11 -31t29 -11q15 0 28 7.5t18 15.5l5 8l33 -64q-4 -5 -12 -12.5t-34 -19.5t-55 -12q-48 0 -77 26.5t-29 68.5q0 55 41 96q-121 3 -194 75.5t-73 191.5v400h142v-399
q0 -68 37 -106.5t98 -38.5q60 0 96.5 38.5t36.5 105.5v400z" />
    <glyph glyph-name="uogonek" unicode="&#x173;" horiz-adv-x="557" 
d="M520 -100l33 -64q-4 -5 -12 -12.5t-34 -19.5t-55 -12q-48 0 -77 26.5t-29 68.5q0 65 55 109h-10q-15 58 -15 94h-2q-40 -96 -146 -96q-85 0 -131 52.5t-46 135.5v290h138v-266q0 -43 21.5 -68.5t61.5 -25.5q44 0 68.5 35.5t24.5 80.5v244h137v-472q-3 -1 -8 -3.5
t-17.5 -10.5t-22 -17.5t-17.5 -25t-8 -32.5q0 -20 11 -31t29 -11q15 0 28 7.5t18 15.5z" />
    <glyph glyph-name="Wcircumflex" unicode="&#x174;" horiz-adv-x="924" 
d="M540 836l93 -142l-103 4l-63 57l-62 -57l-103 -4l94 142h144zM774 660h144l-184 -660h-161l-88 340q-10 39 -20 111h-3q-8 -57 -21 -111l-91 -340h-162l-181 660h145l103 -443l17 -81h3q15 73 17 80l109 444h125l108 -444q9 -34 18 -80h3l17 81z" />
    <glyph glyph-name="wcircumflex" unicode="&#x175;" horiz-adv-x="774" 
d="M388 616l-62 -77l-103 -4l94 167h144l93 -167l-103 4zM621 472h139l-136 -472h-157l-68 240q-8 38 -9 53h-3q-3 -29 -9 -53l-70 -240h-156l-140 472h143l68 -280q7 -30 12 -62h3q5 31 14 62l76 280h122l75 -278q11 -43 14 -64h3q6 37 13 64z" />
    <glyph glyph-name="Ycircumflex" unicode="&#x176;" horiz-adv-x="596" 
d="M301 755l-62 -57l-103 -4l94 142h144l93 -142l-103 4zM592 660l-223 -421v-239h-142v237l-224 423h153l111 -222q25 -50 32 -82h3q8 36 31 82l110 222h149z" />
    <glyph glyph-name="ycircumflex" unicode="&#x177;" horiz-adv-x="526" 
d="M99 535l94 167h144l93 -167l-103 4l-63 77l-62 -77zM317 -63q-56 -147 -192 -147q-24 0 -46 5t-32 9l-10 5l20 105q26 -14 57 -14q56 0 82 56l9 23l-195 493h147l97 -280q10 -32 15 -62h2q7 35 15 62l94 280h138z" />
    <glyph glyph-name="Ydieresis" unicode="&#x178;" horiz-adv-x="596" 
d="M201 702q-29 0 -48.5 20t-19.5 48t20 48t48 20t47.5 -20t19.5 -48t-19.5 -48t-47.5 -20zM407 702q-28 0 -48 20t-20 48t20 48t48 20t47.5 -20t19.5 -48t-19.5 -48t-47.5 -20zM592 660l-223 -421v-239h-142v237l-224 423h153l111 -222q25 -50 32 -82h3q8 36 31 82l110 222
h149z" />
    <glyph glyph-name="Zacute" unicode="&#x179;" horiz-adv-x="583" 
d="M348 700l-128 -6l59 132h171zM32 0v113l293 365q12 14 57 65l-2 3q-39 -3 -89 -3h-249v117h507v-113l-290 -365q-22 -27 -60 -65l2 -3q18 3 89 3h255v-117h-513z" />
    <glyph glyph-name="zacute" unicode="&#x17a;" horiz-adv-x="474" 
d="M288 541l-122 -6l59 169h165zM30 0v99l229 244q15 16 25 25l-1 3q-17 -3 -55 -3h-191v104h401v-99l-218 -237q-16 -18 -30 -32l2 -3q14 3 52 3h201v-104h-415z" />
    <glyph glyph-name="Zdotaccent" unicode="&#x17b;" horiz-adv-x="583" 
d="M293 694q-35 0 -58.5 22.5t-23.5 56.5t23.5 57t58.5 23t59.5 -23t24.5 -57t-24 -56.5t-60 -22.5zM32 0v113l293 365q12 14 57 65l-2 3q-39 -3 -89 -3h-249v117h507v-113l-290 -365q-22 -27 -60 -65l2 -3q18 3 89 3h255v-117h-513z" />
    <glyph glyph-name="zdotaccent" unicode="&#x17c;" horiz-adv-x="474" 
d="M332 623q0 -37 -25.5 -61t-63.5 -24q-37 0 -62.5 24t-25.5 61q0 36 25.5 60.5t62.5 24.5q38 0 63.5 -24t25.5 -61zM30 0v99l229 244q15 16 25 25l-1 3q-17 -3 -55 -3h-191v104h401v-99l-218 -237q-16 -18 -30 -32l2 -3q14 3 52 3h201v-104h-415z" />
    <glyph glyph-name="Zcaron" unicode="&#x17d;" horiz-adv-x="583" 
d="M130 841l103 -4l62 -57l63 57l103 4l-93 -142h-144zM32 0v113l293 365q12 14 57 65l-2 3q-39 -3 -89 -3h-249v117h507v-113l-290 -365q-22 -27 -60 -65l2 -3q18 3 89 3h255v-117h-513z" />
    <glyph glyph-name="zcaron" unicode="&#x17e;" horiz-adv-x="474" 
d="M78 702l103 -4l62 -76l63 76l103 4l-93 -167h-144zM30 0v99l229 244q15 16 25 25l-1 3q-17 -3 -55 -3h-191v104h401v-99l-218 -237q-16 -18 -30 -32l2 -3q14 3 52 3h201v-104h-415z" />
    <glyph glyph-name="uni01EA" unicode="&#x1ea;" horiz-adv-x="717" 
d="M439 1q-59 -31 -59 -82q0 -20 11 -31t29 -11q15 0 28 7.5t18 15.5l5 8l33 -64q-4 -5 -12 -12.5t-34 -19.5t-55 -12q-48 0 -77 26.5t-29 68.5q0 57 43 98q-136 7 -219.5 98t-83.5 240q0 153 89.5 244.5t232.5 91.5t232 -91.5t89 -244.5q0 -131 -65.5 -218.5t-175.5 -111.5
zM181 331q0 -99 49.5 -156.5t128.5 -57.5t128 57.5t49 156.5t-49 156t-128 57t-128.5 -57t-49.5 -156z" />
    <glyph glyph-name="uni01EB" unicode="&#x1eb;" horiz-adv-x="560" 
d="M365 6q-57 -31 -57 -81q0 -20 11 -31t29 -11q15 0 28 7.5t18 15.5l5 8l33 -64q-4 -5 -12 -12.5t-34 -19.5t-55 -12q-48 0 -77 26.5t-29 68.5q0 55 38 93q-105 6 -168.5 72.5t-63.5 169.5q0 107 68.5 174.5t180.5 67.5q111 0 179.5 -67.5t68.5 -174.5q0 -84 -44 -145.5
t-119 -84.5zM170 236q0 -58 30 -94t80 -36t79.5 36t29.5 94t-29.5 94t-79.5 36t-80 -36t-30 -94z" />
    <glyph glyph-name="AEacute" unicode="&#x1fc;" horiz-adv-x="952" 
d="M693 826l-102 -126l-128 -6l59 132h171zM907 543h-295v-152h256v-111h-256v-163h295v-117h-437v141h-243l-99 -141h-145l463 660h461v-117zM302 248h168v241z" />
    <glyph glyph-name="aeacute" unicode="&#x1fd;" horiz-adv-x="829" 
d="M560 704l-102 -163l-122 -6l59 169h165zM601 98q79 0 128 54l65 -75q-27 -35 -79 -59t-123 -24q-138 0 -205 94h-5q-7 -14 -19 -27t-33.5 -30t-57.5 -27t-80 -10q-76 0 -118 35t-42 95q0 43 21 72t63 45.5t93 23.5t122 9h6v21q0 37 -22 58.5t-64 21.5q-39 0 -60 -14.5
t-21 -40.5q0 -9 4 -19l-119 -20q-7 20 -7 47q0 68 56 109t153 41q100 0 158 -63q68 63 163 63q101 0 159.5 -62t58.5 -161l-5 -50h-323q9 -49 43 -78t90 -29zM575 374q-43 0 -71.5 -25.5t-35.5 -72.5h202q-1 43 -26 70.5t-69 27.5zM231 95q48 0 77.5 23.5t29.5 55.5v31h-7
q-87 -2 -126.5 -16.5t-39.5 -46.5q0 -47 66 -47z" />
    <glyph glyph-name="Oslashacute" unicode="&#x1fe;" horiz-adv-x="717" 
d="M512 825l-102 -126l-128 -6l59 132h171zM586 581q94 -94 94 -250q0 -154 -89 -246t-232 -92q-77 0 -139 27l-42 -64h-116l77 117q-102 94 -102 258q0 153 89.5 244.5t232.5 91.5q80 0 148 -31l34 52h115zM181 331q0 -83 36 -138l219 334q-36 17 -77 17q-79 0 -128.5 -57
t-49.5 -156zM359 117q79 0 128 57.5t49 156.5q0 74 -30 128l-214 -329q29 -13 67 -13z" />
    <glyph glyph-name="oslashacute" unicode="&#x1ff;" horiz-adv-x="560" 
d="M432 704l-102 -163l-122 -6l59 169h165zM443 425q85 -68 85 -189q0 -107 -68.5 -174.5t-179.5 -67.5q-56 0 -105 19l-27 -42h-81l49 76q-85 68 -85 189q0 107 68.5 174.5t180.5 67.5q56 0 105 -19l24 36h80zM170 236q0 -45 19 -78l131 201q-21 7 -40 7q-50 0 -80 -36
t-30 -94zM280 106q50 0 79.5 36t29.5 94q0 46 -18 77l-131 -200q17 -7 40 -7z" />
    <glyph glyph-name="Scommaaccent" unicode="&#x218;" horiz-adv-x="574" 
d="M406 463q-3 32 -33 59.5t-82 27.5q-45 0 -71 -19.5t-26 -53.5q0 -24 19 -41t49 -28t67 -21t73.5 -25.5t66.5 -37t49 -59.5t19 -88q0 -81 -65 -132.5t-186 -51.5q-90 0 -158 29t-108 63l83 102q87 -79 187 -79q106 0 106 66q0 31 -25.5 52t-63.5 31.5t-83 26.5t-83 34.5
t-63.5 57t-25.5 93.5q0 85 65.5 141.5t170.5 56.5q62 0 109.5 -16.5t74 -44t41 -54.5t20.5 -58zM216 -111q0 30 20.5 50.5t50.5 20.5q32 0 54.5 -21t22.5 -60q0 -36 -11 -67.5t-26.5 -49.5t-31 -31.5t-26.5 -18.5l-11 -5l-32 52q7 3 17 9t27 22t17 28q-29 0 -50 20.5
t-21 50.5z" />
    <glyph glyph-name="scommaaccent" unicode="&#x219;" horiz-adv-x="482" 
d="M315 307q2 8 2 17q0 29 -20 45.5t-56 16.5q-33 0 -51.5 -13.5t-18.5 -35.5q0 -26 28.5 -39.5t69 -21t81 -18.5t69.5 -42t29 -81q1 -64 -54.5 -102.5t-151.5 -38.5q-136 0 -220 70l64 83q16 -15 61 -36t90 -21q71 0 71 37q0 17 -19.5 29.5t-49 18.5t-63.5 17t-63.5 25
t-49 43t-19.5 69q0 69 55 109t147 40q85 0 139.5 -37t54.5 -95l-4 -32zM169 -111q0 30 20.5 50.5t50.5 20.5q32 0 54.5 -21t22.5 -60q0 -36 -11 -67.5t-26.5 -49.5t-31 -31.5t-26.5 -18.5l-11 -5l-32 52q7 3 17 9t27 22t17 28q-29 0 -50 20.5t-21 50.5z" />
    <glyph glyph-name="uni021A" unicode="&#x21a;" horiz-adv-x="567" 
d="M212 0v543h-201v117h544v-117h-201v-543h-142zM205 -111q0 30 20.5 50.5t50.5 20.5q32 0 54.5 -21t22.5 -60q0 -36 -11 -67.5t-26.5 -49.5t-31 -31.5t-26.5 -18.5l-11 -5l-32 52q7 3 17 9t27 22t17 28q-29 0 -50 20.5t-21 50.5z" />
    <glyph glyph-name="uni021B" unicode="&#x21b;" horiz-adv-x="424" 
d="M420 28q-50 -34 -141 -34q-189 0 -189 201v173h-72v104h78v133l132 5v-138h166v-104h-166v-167q0 -47 18.5 -69t58.5 -22q21 0 40 6.5t27 12.5l9 6zM248 -40q32 0 54.5 -21t22.5 -60q0 -36 -11 -67.5t-26.5 -49.5t-31 -31.5t-26.5 -18.5l-11 -5l-32 52q7 3 17 9t27 22
t17 28q-29 0 -50 20.5t-21 50.5t20.5 50.5t50.5 20.5z" />
    <glyph glyph-name="uni0237" unicode="&#x237;" horiz-adv-x="257" 
d="M-52 -82q16 -12 44 -12q72 0 72 90v476l137 4v-477q0 -98 -47 -153t-143 -55q-32 0 -57.5 7.5t-35.5 15.5l-9 8z" />
    <glyph glyph-name="circumflex" unicode="&#x2c6;" horiz-adv-x="382" 
d="M24 535l94 167h144l93 -167l-103 4l-63 77l-62 -77z" />
    <glyph glyph-name="caron" unicode="&#x2c7;" horiz-adv-x="360" 
d="M24 702l103 -4l62 -76l63 76l103 4l-93 -167h-144z" />
    <glyph glyph-name="breve" unicode="&#x2d8;" horiz-adv-x="353" 
d="M331 693q0 -71 -41.5 -115t-112.5 -44t-113 44t-42 115h101q0 -72 53 -74q53 0 53 74h102z" />
    <glyph glyph-name="dotaccent" unicode="&#x2d9;" horiz-adv-x="232" 
d="M204 623q0 -37 -25.5 -61t-63.5 -24q-37 0 -62.5 24t-25.5 61q0 36 25.5 60.5t62.5 24.5q38 0 63.5 -24t25.5 -61z" />
    <glyph glyph-name="ring" unicode="&#x2da;" horiz-adv-x="282" 
d="M141 523q-41 0 -70.5 28t-29.5 67q0 41 29.5 69t70.5 28t70.5 -28t29.5 -69q0 -39 -29.5 -67t-70.5 -28zM173 618q0 14 -9.5 23t-22.5 9t-22.5 -9t-9.5 -23q0 -13 9 -22t23 -9t23 9t9 22z" />
    <glyph glyph-name="ogonek" unicode="&#x2db;" horiz-adv-x="282" 
d="M240 -164q-4 -5 -12 -12.5t-34 -19.5t-55 -12q-48 0 -77 26.5t-29 68.5q0 32 14 59.5t33.5 43.5t39.5 27.5t34 16.5l14 4l21 -38q-3 -1 -8 -3.5t-17.5 -10.5t-22 -17.5t-17.5 -25t-8 -32.5q0 -20 11 -31t29 -11q15 0 28 7.5t18 15.5l5 8z" />
    <glyph glyph-name="tilde" unicode="&#x2dc;" horiz-adv-x="438" 
d="M396 697q5 -21 5 -49q0 -44 -28.5 -73.5t-78.5 -29.5q-33 0 -79 26.5t-59 26.5q-15 0 -25 -9.5t-10 -26.5l5 -29h-91q-5 21 -5 49q0 43 29.5 73t77.5 30q41 0 89.5 -25.5t58.5 -25.5q26 0 26 30l-5 33h90z" />
    <glyph glyph-name="hungarumlaut" unicode="&#x2dd;" horiz-adv-x="508" 
d="M162 541l-128 -6l59 170h171zM371 541l-127 -6l58 170h172z" />
    <glyph glyph-name="gravecomb" unicode="&#x300;" 
d="M-163 535l-103 169h168l58 -163z" />
    <glyph glyph-name="acutecomb" unicode="&#x301;" 
d="M-137 541l-122 -6l59 169h165z" />
    <glyph glyph-name="uni0302" unicode="&#x302;" 
d="M-358 535l94 167h144l93 -167l-103 4l-63 77l-62 -77z" />
    <glyph glyph-name="tildecomb" unicode="&#x303;" 
d="M-42 697q5 -21 5 -49q0 -44 -28.5 -73.5t-78.5 -29.5q-33 0 -79 26.5t-59 26.5q-15 0 -25 -9.5t-10 -26.5l5 -29h-91q-5 21 -5 49q0 43 29.5 73t77.5 30q41 0 89.5 -25.5t58.5 -25.5q26 0 26 30l-5 33h90z" />
    <glyph glyph-name="uni0304" unicode="&#x304;" 
d="M-363 572v94h311v-94h-311z" />
    <glyph glyph-name="uni0306" unicode="&#x306;" 
d="M-22 693q0 -71 -41.5 -115t-112.5 -44t-113 44t-42 115h101q0 -72 53 -74q53 0 53 74h102z" />
    <glyph glyph-name="uni0307" unicode="&#x307;" 
d="M-28 623q0 -37 -25.5 -61t-63.5 -24q-37 0 -62.5 24t-25.5 61q0 36 25.5 60.5t62.5 24.5q38 0 63.5 -24t25.5 -61z" />
    <glyph glyph-name="uni0308" unicode="&#x308;" 
d="M-295 550q-29 0 -49.5 20t-20.5 49t20.5 49.5t49.5 20.5q28 0 48.5 -20.5t20.5 -49.5t-20 -49t-49 -20zM-90 550q-28 0 -48.5 20t-20.5 49t20.5 49.5t48.5 20.5q29 0 49.5 -20.5t20.5 -49.5t-20.5 -49t-49.5 -20z" />
    <glyph glyph-name="uni030A" unicode="&#x30a;" 
d="M-141 523q-41 0 -70.5 28t-29.5 67q0 41 29.5 69t70.5 28t70.5 -28t29.5 -69q0 -39 -29.5 -67t-70.5 -28zM-109 618q0 14 -9.5 23t-22.5 9t-22.5 -9t-9.5 -23q0 -13 9 -22t23 -9t23 9t9 22z" />
    <glyph glyph-name="uni030B" unicode="&#x30b;" 
d="M-346 541l-128 -6l59 170h171zM-137 541l-127 -6l58 170h172z" />
    <glyph glyph-name="uni030C" unicode="&#x30c;" 
d="M-336 702l103 -4l62 -76l63 76l103 4l-93 -167h-144z" />
    <glyph glyph-name="uni0326" unicode="&#x326;" 
d="M-186 -111q0 30 20.5 50.5t50.5 20.5q32 0 54.5 -21t22.5 -60q0 -36 -11 -67.5t-26.5 -49.5t-31 -31.5t-26.5 -18.5l-11 -5l-32 52q7 3 17 9t27 22t17 28q-29 0 -50 20.5t-21 50.5z" />
    <glyph glyph-name="uni0327" unicode="&#x327;" 
d="M-111 -26q32 -4 55 -25.5t23 -60.5q0 -44 -33 -68.5t-80 -24.5q-30 0 -56 10.5t-38 20.5l-11 11l34 59q27 -29 68 -29q39 0 39 28q0 39 -88 39l35 79h70z" />
    <glyph glyph-name="uni0328" unicode="&#x328;" 
d="M-42 -164q-4 -5 -12 -12.5t-34 -19.5t-55 -12q-48 0 -77 26.5t-29 68.5q0 32 14 59.5t33.5 43.5t39.5 27.5t34 16.5l14 4l21 -38q-3 -1 -8 -3.5t-17.5 -10.5t-22 -17.5t-17.5 -25t-8 -32.5q0 -20 11 -31t29 -11q15 0 28 7.5t18 15.5l5 8z" />
    <glyph glyph-name="uni0335" unicode="&#x335;" 
d="M-368 234h332v-78h-332v78z" />
    <glyph glyph-name="uni0336" unicode="&#x336;" 
d="M-418 244h398v-88h-398v88z" />
    <glyph glyph-name="uni0337" unicode="&#x337;" 
d="M-362 343l301 171l39 -68l-302 -172z" />
    <glyph glyph-name="uni0338" unicode="&#x338;" 
d="M-153 504h80l-341 -524h-81z" />
    <glyph glyph-name="Wgrave" unicode="&#x1e80;" horiz-adv-x="924" 
d="M406 694l-103 132h171l59 -126zM774 660h144l-184 -660h-161l-88 340q-10 39 -20 111h-3q-8 -57 -21 -111l-91 -340h-162l-181 660h145l103 -443l17 -81h3q15 73 17 80l109 444h125l108 -444q9 -34 18 -80h3l17 81z" />
    <glyph glyph-name="wgrave" unicode="&#x1e81;" horiz-adv-x="774" 
d="M452 541l-123 -6l-103 169h168zM621 472h139l-136 -472h-157l-68 240q-8 38 -9 53h-3q-3 -29 -9 -53l-70 -240h-156l-140 472h143l68 -280q7 -30 12 -62h3q5 31 14 62l76 280h122l75 -278q11 -43 14 -64h3q6 37 13 64z" />
    <glyph glyph-name="Wacute" unicode="&#x1e82;" horiz-adv-x="924" 
d="M520 700l-128 -6l59 132h171zM774 660h144l-184 -660h-161l-88 340q-10 39 -20 111h-3q-8 -57 -21 -111l-91 -340h-162l-181 660h145l103 -443l17 -81h3q15 73 17 80l109 444h125l108 -444q9 -34 18 -80h3l17 81z" />
    <glyph glyph-name="wacute" unicode="&#x1e83;" horiz-adv-x="774" 
d="M552 704l-102 -163l-122 -6l59 169h165zM621 472h139l-136 -472h-157l-68 240q-8 38 -9 53h-3q-3 -29 -9 -53l-70 -240h-156l-140 472h143l68 -280q7 -30 12 -62h3q5 31 14 62l76 280h122l75 -278q11 -43 14 -64h3q6 37 13 64z" />
    <glyph glyph-name="Wdieresis" unicode="&#x1e84;" horiz-adv-x="924" 
d="M367 702q-29 0 -48.5 20t-19.5 48t20 48t48 20t47.5 -20t19.5 -48t-19.5 -48t-47.5 -20zM573 702q-28 0 -48 20t-20 48t20 48t48 20t47.5 -20t19.5 -48t-19.5 -48t-47.5 -20zM774 660h144l-184 -660h-161l-88 340q-10 39 -20 111h-3q-8 -57 -21 -111l-91 -340h-162
l-181 660h145l103 -443l17 -81h3q15 73 17 80l109 444h125l108 -444q9 -34 18 -80h3l17 81z" />
    <glyph glyph-name="wdieresis" unicode="&#x1e85;" horiz-adv-x="774" 
d="M289 550q-29 0 -49.5 20t-20.5 49t20.5 49.5t49.5 20.5q28 0 48.5 -20.5t20.5 -49.5t-20 -49t-49 -20zM494 550q-28 0 -48.5 20t-20.5 49t20.5 49.5t48.5 20.5q29 0 49.5 -20.5t20.5 -49.5t-20.5 -49t-49.5 -20zM621 472h139l-136 -472h-157l-68 240q-8 38 -9 53h-3
q-3 -29 -9 -53l-70 -240h-156l-140 472h143l68 -280q7 -30 12 -62h3q5 31 14 62l76 280h122l75 -278q11 -43 14 -64h3q6 37 13 64z" />
    <glyph glyph-name="Ygrave" unicode="&#x1ef2;" horiz-adv-x="596" 
d="M367 700l-127 -6l-103 132h171zM592 660l-223 -421v-239h-142v237l-224 423h153l111 -222q25 -50 32 -82h3q8 36 31 82l110 222h149z" />
    <glyph glyph-name="ygrave" unicode="&#x1ef3;" horiz-adv-x="526" 
d="M205 535l-103 169h168l58 -163zM317 -63q-56 -147 -192 -147q-24 0 -46 5t-32 9l-10 5l20 105q26 -14 57 -14q56 0 82 56l9 23l-195 493h147l97 -280q10 -32 15 -62h2q7 35 15 62l94 280h138z" />
    <glyph glyph-name="uni1EF8" unicode="&#x1ef8;" horiz-adv-x="596" 
d="M217 687h-91q-5 18 -5 44q0 46 29.5 73t77.5 27q43 0 90.5 -25.5t57.5 -25.5q26 0 26 30l-5 33h90q5 -21 5 -49q0 -44 -28 -73.5t-77 -29.5q-34 0 -81 26.5t-61 26.5t-23.5 -9t-9.5 -24zM592 660l-223 -421v-239h-142v237l-224 423h153l111 -222q25 -50 32 -82h3
q8 36 31 82l110 222h149z" />
    <glyph glyph-name="uni1EF9" unicode="&#x1ef9;" horiz-adv-x="526" 
d="M434 697q5 -21 5 -49q0 -44 -28.5 -73.5t-78.5 -29.5q-33 0 -79 26.5t-59 26.5q-15 0 -25 -9.5t-10 -26.5l5 -29h-91q-5 21 -5 49q0 43 29.5 73t77.5 30q41 0 89.5 -25.5t58.5 -25.5q26 0 26 30l-5 33h90zM317 -63q-56 -147 -192 -147q-24 0 -46 5t-32 9l-10 5l20 105
q26 -14 57 -14q56 0 82 56l9 23l-195 493h147l97 -280q10 -32 15 -62h2q7 35 15 62l94 280h138z" />
    <glyph glyph-name="endash" unicode="&#x2013;" horiz-adv-x="477" 
d="M49 225v94h379v-94h-379z" />
    <glyph glyph-name="emdash" unicode="&#x2014;" horiz-adv-x="737" 
d="M49 225v94h640v-94h-640z" />
    <glyph glyph-name="quoteleft" unicode="&#x2018;" horiz-adv-x="246" 
d="M205 427q0 -33 -22 -54.5t-58 -21.5q-38 0 -64.5 26t-26.5 75q0 43 12.5 81t30.5 61t36 40t31 24l12 7l47 -59q-3 -2 -8.5 -5.5t-19 -14t-24 -22t-19 -28.5t-8.5 -34q35 0 58 -21t23 -54z" />
    <glyph glyph-name="quoteright" unicode="&#x2019;" horiz-adv-x="243" 
d="M41 592q0 33 22 54.5t58 21.5q38 0 64.5 -26t26.5 -75q0 -43 -12.5 -81t-30.5 -61t-36 -40t-31 -24l-12 -7l-47 59q3 2 8.5 5.5t19 14t24 22t19 28.5t8.5 34q-35 0 -58 21t-23 54z" />
    <glyph glyph-name="quotesinglbase" unicode="&#x201a;" horiz-adv-x="250" 
d="M39 69q0 33 22 54.5t58 21.5q38 0 64.5 -26t26.5 -75q0 -43 -12.5 -81t-30.5 -61t-36 -40t-31 -24l-12 -7l-47 59q3 2 8.5 5.5t19 14t24 22t19 28.5t8.5 34q-35 0 -58 21t-23 54z" />
    <glyph glyph-name="quotedblleft" unicode="&#x201c;" horiz-adv-x="447" 
d="M205 429q0 -33 -22 -54.5t-58 -21.5q-38 0 -64.5 26t-26.5 75q0 43 12.5 81t30.5 61t36 40t31 24l12 7l47 -59q-3 -2 -8.5 -5.5t-19 -14t-24 -22t-19 -28.5t-8.5 -34q35 0 58 -21t23 -54zM406 429q0 -33 -22 -54.5t-58 -21.5q-38 0 -64.5 26t-26.5 75q0 43 12.5 81
t30.5 61t36 40t30 24l13 7l47 -59q-3 -2 -8.5 -5.5t-19 -14t-24 -22t-19 -28.5t-8.5 -34q35 0 58 -21t23 -54z" />
    <glyph glyph-name="quotedblright" unicode="&#x201d;" horiz-adv-x="444" 
d="M121 668q38 0 64 -26.5t26 -74.5q0 -44 -12.5 -82t-30.5 -61t-35.5 -39.5t-30.5 -23.5l-12 -7l-47 59q3 2 8.5 5.5t19 14t24 22t19 28.5t8.5 34q-35 0 -58 21t-23 53q0 34 22 55.5t58 21.5zM321 668q39 0 65 -26t26 -75q0 -44 -12.5 -82t-30.5 -61t-36 -39.5t-31 -23.5
l-12 -7l-46 59q3 2 8.5 5.5t19 14t24 22t19 28.5t8.5 34q-35 0 -58.5 21t-23.5 53q0 34 22 55.5t58 21.5z" />
    <glyph glyph-name="quotedblbase" unicode="&#x201e;" horiz-adv-x="456" 
d="M39 69q0 33 22 54.5t58 21.5q38 0 64.5 -26t26.5 -75q0 -43 -12.5 -81t-30.5 -61t-36 -40t-31 -24l-12 -7l-47 59q3 2 8.5 5.5t19 14t24 22t19 28.5t8.5 34q-35 0 -58 21t-23 54zM245 69q0 33 22 54.5t58 21.5q38 0 64.5 -26t26.5 -75q0 -43 -12.5 -81t-30.5 -61t-36 -40
t-31 -24l-12 -7l-47 59q3 2 8.5 5.5t19 14t24 22t19 28.5t8.5 34q-35 0 -58 21t-23 54z" />
    <glyph glyph-name="dagger" unicode="&#x2020;" horiz-adv-x="411" 
d="M369 381l-115 4l-4 -162l10 -427h-109l9 427l-3 162l-115 -4v91l113 -4l-4 191h109l-4 -191l113 4v-91z" />
    <glyph glyph-name="daggerdbl" unicode="&#x2021;" horiz-adv-x="411" 
d="M369 377l-116 5l-3 -145l4 -146l115 5v-90l-116 4l7 -214h-110l7 214l-115 -4v90l114 -5l4 146l-3 145l-115 -5v92l115 -4l-7 195h110l-7 -195l116 4v-92z" />
    <glyph glyph-name="bullet" unicode="&#x2022;" horiz-adv-x="381" 
d="M321 290q0 -54 -38.5 -92.5t-92.5 -38.5t-92 38.5t-38 92.5t38 92.5t92 38.5t92.5 -38.5t38.5 -92.5z" />
    <glyph glyph-name="ellipsis" unicode="&#x2026;" horiz-adv-x="660" 
d="M39 72q0 32 22.5 55t55.5 23q32 0 55 -23t23 -55t-23 -55t-55 -23q-33 0 -55.5 23t-22.5 55zM252 72q0 32 22.5 55t55.5 23q32 0 55 -23t23 -55t-23 -55t-55 -23q-33 0 -55.5 23t-22.5 55zM465 72q0 32 22.5 55t55.5 23q32 0 55 -23t23 -55t-23 -55t-55 -23
q-33 0 -55.5 23t-22.5 55z" />
    <glyph glyph-name="perthousand" unicode="&#x2030;" horiz-adv-x="1321" 
d="M255 0l304 667h111l-304 -667h-111zM208 290q-82 0 -132 51t-50 134q0 85 50 137t132 52t132 -52t50 -137q0 -83 -50 -134t-132 -51zM208 388q33 0 53 24t20 63q0 41 -20 65.5t-53 24.5q-32 0 -52 -25t-20 -65q0 -39 20 -63t52 -24zM710 -4q-82 0 -132 51t-50 134
q0 85 50 137t132 52t132 -52t50 -137q0 -83 -50 -134t-132 -51zM1112 -4q-82 0 -132 51t-50 134q0 85 50 137t132 52t132.5 -52t50.5 -137q0 -83 -50.5 -134t-132.5 -51zM710 94q33 0 53 24t20 63q0 41 -20 65.5t-53 24.5q-32 0 -52 -25t-20 -65q0 -39 20 -63t52 -24z
M1112 94q33 0 53 24t20 63q0 41 -20 65.5t-53 24.5q-32 0 -52 -25t-20 -65q0 -39 20 -63t52 -24z" />
    <glyph glyph-name="guilsinglleft" unicode="&#x2039;" horiz-adv-x="297" 
d="M36 212v105l160 140l65 -73l-135 -120l135 -119l-65 -73z" />
    <glyph glyph-name="guilsinglright" unicode="&#x203a;" horiz-adv-x="297" 
d="M101 72l-65 73l136 119l-136 120l65 73l161 -140v-105z" />
    <glyph glyph-name="fraction" unicode="&#x2044;" horiz-adv-x="356" 
d="M5 0l220 727h128l-219 -727h-129z" />
    <glyph glyph-name="Euro" unicode="&#x20ac;" horiz-adv-x="726" 
d="M440 116q57 0 100 26.5t69 61.5l84 -88q-18 -26 -46 -51t-86 -48.5t-125 -23.5q-113 0 -194 60.5t-109 168.5h-103l17 80h74q-1 9 -1 28q0 17 1 25h-91l17 80h85q28 109 109 170.5t196 61.5q97 0 161.5 -39t94.5 -83l-84 -88q-62 87 -166 87q-51 0 -95 -27.5t-66 -81.5
h240l-18 -80h-240q-1 -8 -1 -25q0 -19 1 -28h230l-18 -80h-193q22 -53 65 -79.5t92 -26.5z" />
    <glyph glyph-name="trademark" unicode="&#x2122;" horiz-adv-x="717" 
d="M30 587v73h259v-73h-89v-205h-81v205h-89zM565 660h91v-278h-78l3 149l-64 -149h-59l-61 149l2 -149h-79v278h93l75 -177z" />
    <glyph glyph-name="minus" unicode="&#x2212;" horiz-adv-x="492" 
d="M56 196v89h380v-89h-380z" />
    <glyph glyph-name="uni2215" unicode="&#x2215;" horiz-adv-x="428" 
d="M-2 0l307 726h128l-306 -726h-129z" />
    <glyph glyph-name="uni2219" unicode="&#x2219;" horiz-adv-x="337" 
d="M169 211q-28 0 -47 19t-19 47t19 47t47 19t47 -19t19 -47t-19 -47t-47 -19z" />
    <glyph glyph-name="approxequal" unicode="&#x2248;" horiz-adv-x="549" 
d="M58 268v91q45 33 110 33q42 0 107 -20t107 -20q67 0 110 30v-91q-50 -33 -110 -33q-42 0 -107 20t-107 20q-67 0 -110 -30zM58 94v91q45 33 110 33q42 0 107 -20t107 -20q67 0 110 30v-91q-50 -33 -110 -33q-42 0 -107 20t-107 20q-67 0 -110 -30z" />
    <glyph glyph-name="notequal" unicode="&#x2260;" horiz-adv-x="508" 
d="M453 295h-142l-34 -114h176v-88h-202l-28 -93h-80l28 93h-116v88h142l35 114h-177v89h204l26 88h79l-26 -88h115v-89z" />
    <glyph glyph-name="uniF8FF" unicode="&#xf8ff;" horiz-adv-x="1451" 
d="M691 583q0 26 17.5 44t43.5 18t44 -18t18 -44t-18 -43.5t-44 -17.5t-43.5 18t-17.5 43zM219 270h-119q0 134 9 314h100q10 -200 10 -314zM694 270q0 92 3 147h-61l3 -65q4 -4 15 -4q13 0 18 5v-74q-14 -15 -68 -15q-82 0 -82 66q0 12 2 49t2 38h-22v79l119 30l1 -17h178
q10 -64 10 -239h-118zM328 265q-92 0 -92 114q0 135 134 135q124 0 124 -117v-127h-83l-8 61q-6 -33 -23.5 -49.5t-51.5 -16.5zM1090 270h-114q0 26 1 56t1 37q0 29 -15 29q-18 0 -18 -29q0 -7 1.5 -37t1.5 -56h-114q0 175 10 239h80q6 -44 6 -76q2 15 6.5 30t24 33t49.5 18
q42 0 58.5 -25t18.5 -81zM1351 391q0 -126 -123 -126q-122 0 -122 124q0 125 124 125q121 0 121 -123zM390 375q0 26 -24 26q-22 0 -22 -26q0 -30 22 -30q24 0 24 30zM1251 375q0 26 -23 26q-21 0 -21 -26q0 -30 21 -30q23 0 23 30zM428 238h104q10 -52 10 -138
q0 -81 -33.5 -115.5t-118.5 -34.5q-61 0 -88 17v83q24 -16 70 -16q21 0 34 6t16.5 11.5t3.5 10.5q-16 -11 -49 -11q-90 0 -90 83v13h-55l3 -65q6 -4 15 -4q13 0 18 5v-73q-19 -15 -68 -15q-45 0 -63 17t-18 54q0 39 3 81h-18v80l117 29l-1 -18h177v-119q0 -16 3 -21.5
t12 -5.5q16 0 16 27v119zM733 243q37 0 58.5 -29t21.5 -84q0 -135 -137 -135q1 -15 1 -39h-119q0 142 10 282h78q7 -42 7 -76q17 81 80 81zM1070 127q0 -21 -3 -35h-124q11 -18 50 -18q34 0 55 12v-75q-23 -16 -78 -16q-141 0 -141 122q0 59 32.5 92.5t92.5 33.5
q55 0 85.5 -30t30.5 -86zM978 109q3 27 -17 27q-23 0 -23 -27h40zM670 72q5 0 12.5 2.5t16 11.5t8.5 23q0 23 -20 23q-22 0 -22 -31q0 -14 5 -29zM1074 13q0 -23 24 -23t24 23t-24 23t-24 -23zM1080 13q0 18 18 18t18 -18t-18 -18t-18 18zM1108 2l-6 9q7 0 7 7t-10 7h-11
v-23h5v9h5l4 -9h6zM1100 15h-7v6h7q4 0 4 -3t-4 -3z" />
    <glyph glyph-name="i.loclTRK" horiz-adv-x="250" 
d="M208 623q0 -37 -25.5 -61t-63.5 -24q-37 0 -62.5 24t-25.5 61q0 36 25.5 60.5t62.5 24.5q38 0 63.5 -24t25.5 -61zM56 0v472l137 4v-476h-137z" />
    <glyph glyph-name="uni0306.case.001" 
d="M-27 673q0 -60 -41 -100t-108 -40t-108.5 40t-41.5 100h99q0 -54 50 -55q51 0 51 55h99z" />
    <glyph glyph-name="caroncomb.alt" 
d="M-171 380q0 28 19.5 48t47.5 20q30 0 52 -21t22 -59q0 -36 -9.5 -68.5t-23 -53t-27.5 -35.5t-24 -21l-9 -7l-36 51q6 5 15.5 12.5t25.5 28.5t16 38q-29 0 -49 19.5t-20 47.5z" />
    <glyph glyph-name="acutecomb.case" 
d="M-137 541l-128 -6l59 132h171z" />
    <glyph glyph-name="uni0306.case" 
d="M-27 673q0 -60 -41 -100t-108 -40t-108.5 40t-41.5 100h99q0 -54 50 -55q51 0 51 55h99z" />
    <glyph glyph-name="uni030C.case" 
d="M-358 682l103 -4l62 -57l63 57l103 4l-93 -142h-144z" />
    <glyph glyph-name="uni0302.case" 
d="M-120 677l93 -142l-103 4l-63 57l-62 -57l-103 -4l94 142h144z" />
    <glyph glyph-name="uni0308.case" 
d="M-295 543q-29 0 -48.5 19.5t-19.5 48.5q0 28 20 48t48 20t47.5 -20t19.5 -48t-19.5 -48t-47.5 -20zM-89 543q-28 0 -48 20t-20 48t20 48t48 20t47.5 -20t19.5 -48t-19.5 -48t-47.5 -20z" />
    <glyph glyph-name="uni0307.case" 
d="M-117 535q-35 0 -58.5 22.5t-23.5 56.5t23.5 57t58.5 23t59.5 -23t24.5 -57t-24 -56.5t-60 -22.5z" />
    <glyph glyph-name="gravecomb.case" 
d="M-163 535l-103 132h171l59 -126z" />
    <glyph glyph-name="uni030B.case" 
d="M-307 541l-111 -6l59 132h155zM-107 541l-112 -6l59 132h155z" />
    <glyph glyph-name="uni0304.case" 
d="M-369 551v94h323v-94h-323z" />
    <glyph glyph-name="uni030A.case" 
d="M-141 522q-39 0 -67.5 26.5t-28.5 65.5t28.5 65.5t67.5 26.5t67.5 -27t28.5 -65t-28.5 -65t-67.5 -27zM-110 614q0 13 -9 21.5t-22 8.5t-21.5 -8.5t-8.5 -21.5t8.5 -22t21.5 -9t22 9t9 22z" />
    <glyph glyph-name="uni0338.case" 
d="M52 716l-478 -732h-116l479 732h115z" />
    <glyph glyph-name="uni0337.case" 
d="M-446 340l376 213l46 -78l-376 -214z" />
    <glyph glyph-name="tildecomb.case" 
d="M-42 678q5 -21 5 -49q0 -44 -28 -73.5t-77 -29.5q-34 0 -81 26.5t-61 26.5t-23.5 -9t-9.5 -24l5 -24h-91q-5 18 -5 44q0 46 29.5 73t77.5 27q43 0 90.5 -25.5t57.5 -25.5q26 0 26 30l-5 33h90z" />
    <glyph glyph-name="caron.alt" horiz-adv-x="202" 
d="M170 371q0 -34 -10 -62.5t-25 -44.5t-29.5 -27t-24.5 -15l-10 -4l-31 48q57 21 58 47q-28 0 -47.5 19.5t-19.5 47.5t19.5 48t47.5 20q30 0 51 -20.5t21 -56.5z" />
    <glyph glyph-name="acute.case" horiz-adv-x="299" 
d="M162 541l-128 -6l59 132h171z" />
    <glyph glyph-name="breve.case" horiz-adv-x="353" 
d="M326 673q0 -60 -41 -100t-108 -40t-108.5 40t-41.5 100h99q0 -54 50 -55q51 0 51 55h99z" />
    <glyph glyph-name="caron.case" horiz-adv-x="375" 
d="M24 682l103 -4l62 -57l63 57l103 4l-93 -142h-144z" />
    <glyph glyph-name="circumflex.case" horiz-adv-x="382" 
d="M262 677l93 -142l-103 4l-63 57l-62 -57l-103 -4l94 142h144z" />
    <glyph glyph-name="dieresis.case" horiz-adv-x="389" 
d="M94 543q-28 0 -48 19.5t-20 48.5q0 28 20 48t48 20t47.5 -20t19.5 -48t-19.5 -48t-47.5 -20zM300 543q-28 0 -48 20t-20 48t20 48t48 20t47.5 -20t19.5 -48t-19.5 -48t-47.5 -20z" />
    <glyph glyph-name="dotaccent.case" horiz-adv-x="232" 
d="M115 535q-35 0 -58.5 22.5t-23.5 56.5t23.5 57t58.5 23t59.5 -23t24.5 -57t-24 -56.5t-60 -22.5z" />
    <glyph glyph-name="grave.case" horiz-adv-x="299" 
d="M136 535l-103 132h171l59 -126z" />
    <glyph glyph-name="hungarumlaut.case" horiz-adv-x="457" 
d="M150 541l-111 -6l59 132h155zM350 541l-112 -6l59 132h155z" />
    <glyph glyph-name="macron.case" horiz-adv-x="414" 
d="M45 551v94h323v-94h-323z" />
    <glyph glyph-name="ring.case" horiz-adv-x="282" 
d="M141 522q-39 0 -67.5 26.5t-28.5 65.5t28.5 65.5t67.5 26.5t67.5 -27t28.5 -65t-28.5 -65t-67.5 -27zM172 614q0 13 -9 21.5t-22 8.5t-21.5 -8.5t-8.5 -21.5t8.5 -22t21.5 -9t22 9t9 22z" />
    <glyph glyph-name="tilde.case" horiz-adv-x="438" 
d="M396 678q5 -21 5 -49q0 -44 -28 -73.5t-77 -29.5q-34 0 -81 26.5t-61 26.5t-23.5 -9t-9.5 -24l5 -24h-91q-5 18 -5 44q0 46 29.5 73t77.5 27q43 0 90.5 -25.5t57.5 -25.5q26 0 26 30l-5 33h90z" />
    <glyph glyph-name="Rem" horiz-adv-x="516" 
 />
    <glyph glyph-name="IJacute" horiz-adv-x="763" 
d="M670 700l-128 -6l59 132h171zM198 699l-128 -6l59 132h171zM70 0v660h139v-660h-139zM359 163q39 -46 93 -46q48 0 70.5 22.5t22.5 74.5v446h142v-444q0 -108 -62 -165t-171 -57q-101 0 -179 70z" />
    <glyph glyph-name="ijacute" horiz-adv-x="508" 
d="M187 537l-122 -6l59 169h165zM457 537l-122 -6l59 169h166zM56 0v472l137 4v-476h-137zM199 -82q16 -12 44 -12q72 0 72 90v476l137 4v-477q0 -98 -47 -153t-143 -55q-32 0 -57.5 7.5t-34.5 15.5l-10 8z" />
    <glyph glyph-name="commaccent" horiz-adv-x="600" 
 />
    </font>
</defs>
</svg>
