<?xml version="1.0" standalone="no"?>
<!DOCTYPE svg PUBLIC "-//W3C//DTD SVG 1.1//EN" "http://www.w3.org/Graphics/SVG/1.1/DTD/svg11.dtd" >
<svg xmlns="http://www.w3.org/2000/svg" xmlns:xlink="http://www.w3.org/1999/xlink" version="1.1">
<metadata>
Created by FontForge 20201107 at Mon Jul 18 17:13:23 2016
 By 
Copyright (c) 2016 by Daniel Hernandez. All rights reserved.
</metadata>
<defs>
<font id="BasicSans-Light" horiz-adv-x="0" >
  <font-face 
    font-family="BasicSans-Light"
    font-weight="400"
    font-stretch="normal"
    units-per-em="1000"
    panose-1="0 0 4 0 0 0 0 0 0 0"
    ascent="773"
    descent="-227"
    x-height="468"
    cap-height="656"
    bbox="-529 -236 1351 929"
    underline-thickness="50"
    underline-position="-100"
    unicode-range="U+0020-FB02"
  />
<missing-glyph horiz-adv-x="414" 
 />
    <glyph glyph-name="fi" unicode="fi" horiz-adv-x="560" 
d="M171 468h252l61 2v-470h-61v418h-252v-418h-61v418h-70v50h70v74q0 77 43.5 123t114.5 46q63 0 104 -29l-23 -48q-39 26 -76 26q-47 0 -74.5 -32t-27.5 -85v-75zM455 668q20 0 34 -13.5t14 -33.5q0 -19 -14 -32.5t-34 -13.5t-33.5 13.5t-13.5 32.5q0 20 13.5 33.5
t33.5 13.5z" />
    <glyph glyph-name="fl" unicode="fl" horiz-adv-x="577" 
d="M110 542q0 77 43.5 123t114.5 46q63 0 104 -29l-23 -48q-39 26 -76 26q-47 0 -74.5 -32t-27.5 -85v-75h172v-50h-172v-418h-61v418h-70v50h70v74zM437 706h60v-706h-60v706z" />
    <glyph glyph-name=".notdef" horiz-adv-x="414" 
 />
    <glyph glyph-name=".null" 
 />
    <glyph glyph-name="nonmarkingreturn" horiz-adv-x="333" 
 />
    <glyph glyph-name="space" unicode=" " horiz-adv-x="240" 
 />
    <glyph glyph-name="exclam" unicode="!" horiz-adv-x="239" 
d="M154 666l-9 -478l-52 -2l-7 480h68zM119 77q18 0 31 -12.5t13 -30.5t-13 -31t-31 -13t-31.5 13t-13.5 31t13.5 30.5t31.5 12.5z" />
    <glyph glyph-name="quotedbl" unicode="&#x22;" horiz-adv-x="275" 
d="M66 543l-3 163h48l-4 -163h-41zM168 543l-3 163h47l-3 -163h-41z" />
    <glyph glyph-name="numbersign" unicode="#" horiz-adv-x="642" 
d="M593 308h-135l-27 -123h134l-10 -44h-133l-31 -141h-54l31 141h-142l-31 -141h-53l31 141h-134l10 44h134l27 123h-133l11 43h131l31 140h53l-31 -140h142l31 140h53l-31 -140h136zM378 185l27 123h-142l-27 -123h142z" />
    <glyph glyph-name="dollar" unicode="$" horiz-adv-x="542" 
d="M499 164q0 -71 -54 -116.5t-147 -51.5v-97h-48v97q-132 6 -215 75l39 49q83 -70 199 -70q76 0 120 31t44 83q0 40 -20.5 67.5t-54 43t-73.5 27.5t-79.5 25.5t-73 31.5t-54 51.5t-20.5 79.5q0 72 51.5 118.5t136.5 52.5v93h48v-93q151 -11 195 -147l-60 -15
q-10 38 -48.5 73t-111.5 35q-66 0 -107 -31.5t-41 -84.5q0 -34 20.5 -58t53.5 -38t73 -26t80 -26.5t73 -35t53.5 -57t20.5 -86.5z" />
    <glyph glyph-name="percent" unicode="%" horiz-adv-x="859" 
d="M256 0l298 662h59l-298 -662h-59zM200 290q-74 0 -119 50t-45 132q0 85 45 136t119 51q75 0 120 -51t45 -136q0 -82 -45.5 -132t-119.5 -50zM200 344q48 0 77 35t29 93q0 60 -29 96.5t-77 36.5q-47 0 -76 -36.5t-29 -96.5q0 -58 29 -93t76 -35zM658 -4q-74 0 -119 50
t-45 132q0 85 45 136t119 51q75 0 120.5 -51t45.5 -136q0 -82 -45.5 -132t-120.5 -50zM658 50q48 0 77 35t29 93q0 61 -29 97t-77 36q-47 0 -76 -36.5t-29 -96.5q0 -58 29 -93t76 -35z" />
    <glyph glyph-name="ampersand" unicode="&#x26;" horiz-adv-x="601" 
d="M561 293q0 -128 -69 -206l58 -67l-47 -33l-53 62q-75 -53 -185 -53q-97 0 -157 50t-60 130q0 121 142 172q-67 73 -67 150q0 70 46.5 114t119.5 44q71 0 113 -40.5t42 -104.5q0 -61 -42 -102.5t-123 -73.5l176 -204q49 64 49 180zM289 606q-48 0 -77 -29t-29 -76
q0 -61 65 -131q76 30 107.5 59.5t31.5 75.5t-26.5 73.5t-71.5 27.5zM265 52q93 0 148 39l-190 221q0 1 -1 1q-110 -42 -110 -131q0 -57 42 -93.5t111 -36.5z" />
    <glyph glyph-name="quotesingle" unicode="'" horiz-adv-x="173" 
d="M66 543l-3 163h48l-4 -163h-41z" />
    <glyph glyph-name="parenleft" unicode="(" horiz-adv-x="275" 
d="M202 -232q-6 7 -16 20.5t-36 60t-45.5 98t-35.5 132.5t-16 166q0 86 15.5 166.5t37.5 133.5t43.5 94t36.5 60l16 19l51 -26q-6 -6 -15.5 -18.5t-33.5 -54.5t-43 -90t-34 -125t-15 -159q0 -81 14.5 -157.5t35 -127.5t41.5 -90t35 -58l15 -18z" />
    <glyph glyph-name="parenright" unicode=")" horiz-adv-x="275" 
d="M223 245q0 -85 -15.5 -165.5t-37.5 -134.5t-43.5 -96t-36.5 -61l-16 -20l-52 26q6 7 15.5 19.5t33.5 56t42.5 92t33.5 125.5t15 158q0 82 -14.5 158t-35 126.5t-41 89t-35.5 55.5l-14 18l52 26q6 -7 16 -20t36 -58t45.5 -96t35.5 -132t16 -167z" />
    <glyph glyph-name="asterisk" unicode="*" horiz-adv-x="420" 
d="M255 369l-50 127l-81 -107l-32 24l91 103l-135 17l6 39l131 -27l-54 120l36 16l48 -126l83 114l32 -25l-93 -106l138 -17l-5 -38l-137 26l58 -123z" />
    <glyph glyph-name="plus" unicode="+" horiz-adv-x="449" 
d="M402 271v-47h-153v-170h-49v170h-153v47h153v152h49v-152h153z" />
    <glyph glyph-name="comma" unicode="," horiz-adv-x="224" 
d="M61 37q0 20 13 32t35 12q24 0 39 -17t15 -45q0 -29 -8.5 -56t-20.5 -45t-24 -31.5t-20 -20.5l-9 -6l-30 36q6 5 16 14t26 34.5t16 49.5q-20 0 -34 12t-14 31z" />
    <glyph glyph-name="hyphen" unicode="-" horiz-adv-x="393" 
d="M68 301v48h257v-48h-257z" />
    <glyph glyph-name="period" unicode="." horiz-adv-x="214" 
d="M61 39q0 19 13.5 32.5t32.5 13.5t32 -13.5t13 -32.5t-13 -32t-32 -13t-32.5 13t-13.5 32z" />
    <glyph glyph-name="slash" unicode="/" horiz-adv-x="397" 
d="M29 -204l278 910h61l-278 -910h-61z" />
    <glyph glyph-name="zero" unicode="0" horiz-adv-x="613" 
d="M305 -6q-118 0 -182.5 84.5t-64.5 246.5q0 165 64.5 251t182.5 86q120 0 185 -86t65 -251q0 -162 -65 -246.5t-185 -84.5zM305 50q89 0 137.5 69.5t48.5 205.5q0 138 -48.5 210t-137.5 72q-88 0 -135.5 -71.5t-47.5 -210.5q0 -136 47.5 -205.5t135.5 -69.5z" />
    <glyph glyph-name="one" unicode="1" horiz-adv-x="349" 
d="M193 0v588l-169 -45v60l222 53h10v-656h-63z" />
    <glyph glyph-name="two" unicode="2" horiz-adv-x="541" 
d="M146 51q21 3 49 3h299v-54h-440v52q18 12 64.5 43.5t71 49.5t65.5 50t63.5 58t47.5 59.5t36 70t11 74.5q0 69 -41 109.5t-111 40.5q-65 0 -105.5 -34t-40.5 -89q0 -21 5 -31l-61 -11q-6 18 -6 45q0 78 58 126.5t150 48.5q99 0 157 -55.5t58 -146.5q0 -186 -284 -377
q-30 -20 -48 -29z" />
    <glyph glyph-name="three" unicode="3" horiz-adv-x="557" 
d="M271 662q94 0 151.5 -50t57.5 -131q0 -63 -45 -105.5t-100 -42.5v-2q61 0 113.5 -41.5t52.5 -117.5q0 -79 -61.5 -128t-167.5 -49q-50 0 -92 12t-66.5 29t-42 34.5t-23.5 29.5l-7 12l51 30q2 -4 6.5 -10t21 -22t35.5 -28t50.5 -22t66.5 -10q77 0 121.5 34t44.5 93
q1 61 -47 91.5t-135 32.5l-34 1v57l35 1q73 2 116.5 32t43.5 84q0 58 -40.5 94.5t-105.5 36.5q-64 0 -103 -31t-39 -79q0 -21 5 -31l-61 -11q-6 9 -6 45q0 71 56.5 116.5t147.5 45.5z" />
    <glyph glyph-name="four" unicode="4" horiz-adv-x="570" 
d="M437 656v-440h101v-54h-101v-162h-62v162h-348v54l323 440h87zM374 216v335q0 38 2 45l-2 1q-4 -8 -29 -43l-214 -286q-31 -44 -37 -50l1 -3q8 1 50 1h229z" />
    <glyph glyph-name="five" unicode="5" horiz-adv-x="549" 
d="M103 656h358v-54h-303l-22 -226l3 -1q19 21 57.5 36.5t86.5 15.5q99 0 159.5 -60t60.5 -156q0 -97 -66 -156.5t-173 -59.5q-44 0 -83 11t-63 27t-42.5 32t-25.5 27l-8 11l51 35q2 -4 6.5 -9.5t20 -21t33.5 -27t48 -21t63 -9.5q78 0 127 44.5t49 116.5t-46 116t-120 44
q-41 0 -75 -13.5t-48 -27.5l-14 -13h-63z" />
    <glyph glyph-name="six" unicode="6" horiz-adv-x="577" 
d="M318 415q92 0 151 -56.5t59 -147.5q0 -97 -61.5 -157t-161.5 -60q-112 0 -180 85t-68 241q0 158 74 250t196 92q112 0 182 -74l-36 -41q-50 60 -143 60q-94 0 -152 -76.5t-58 -208.5q0 -28 1 -41l4 -1q7 51 57 93t136 42zM305 50q71 0 115.5 44t44.5 117q0 67 -43.5 108
t-115.5 41q-77 0 -124.5 -46t-48.5 -115q37 -149 172 -149z" />
    <glyph glyph-name="seven" unicode="7" horiz-adv-x="494" 
d="M470 656v-54l-263 -602h-65l247 555q18 41 23 46l-2 3q-22 -2 -58 -2h-261v-95h-57v149h436z" />
    <glyph glyph-name="eight" unicode="8" horiz-adv-x="591" 
d="M405 349q64 -17 98.5 -60t34.5 -106q0 -84 -67 -136t-176 -52t-176 52t-67 136q0 63 34.5 106t98.5 60v2q-44 14 -70.5 52t-26.5 90q0 75 57.5 122t149.5 47q93 0 150 -47t57 -122q0 -52 -26.5 -90t-70.5 -52v-2zM153 492q0 -52 39 -84.5t103 -31.5q64 -1 103.5 31.5
t39.5 84.5q0 53 -39.5 84.5t-103.5 31.5t-103 -31.5t-39 -84.5zM295 50q81 0 130 38.5t49 100.5t-48 96.5t-131 34.5t-130.5 -34.5t-47.5 -96.5t49 -100.5t129 -38.5z" />
    <glyph glyph-name="nine" unicode="9" horiz-adv-x="576" 
d="M271 662q113 0 180.5 -84.5t67.5 -241.5q0 -158 -72 -250t-193 -92q-123 0 -182 75l36 40q49 -59 142 -59q94 0 150 76t56 208q0 7 -0.5 21t-0.5 20l-5 1q-6 -50 -56 -92.5t-135 -42.5q-93 0 -152 56.5t-59 147.5q0 97 61.5 157t161.5 60zM270 296q76 0 123.5 45
t49.5 115q-37 151 -172 151q-71 0 -115.5 -45t-44.5 -117q0 -66 44 -107.5t115 -41.5z" />
    <glyph glyph-name="colon" unicode=":" horiz-adv-x="229" 
d="M69 427q0 19 13.5 32.5t32.5 13.5t32 -13.5t13 -32.5t-13 -32t-32 -13t-32.5 13t-13.5 32zM69 39q0 19 13.5 32.5t32.5 13.5t32 -13.5t13 -32.5t-13 -32t-32 -13t-32.5 13t-13.5 32z" />
    <glyph glyph-name="semicolon" unicode=";" horiz-adv-x="253" 
d="M83 427q0 19 13.5 32.5t32.5 13.5t32 -13.5t13 -32.5t-13 -32t-32 -13t-32.5 13t-13.5 32zM77 37q0 20 13 32t35 12q24 0 39 -17t15 -45q0 -29 -8.5 -56t-20.5 -45t-24 -31.5t-20 -20.5l-9 -6l-30 36q6 5 16 14t26 34.5t16 49.5q-20 0 -34 12t-14 31z" />
    <glyph glyph-name="less" unicode="&#x3c;" horiz-adv-x="401" 
d="M35 249v50l308 199v-55l-255 -169l255 -169v-55z" />
    <glyph glyph-name="equal" unicode="=" horiz-adv-x="527" 
d="M72 323v46h383v-46h-383zM72 132v46h383v-46h-383z" />
    <glyph glyph-name="greater" unicode="&#x3e;" horiz-adv-x="401" 
d="M58 50v55l255 169l-255 169v55l309 -199v-50z" />
    <glyph glyph-name="question" unicode="?" horiz-adv-x="457" 
d="M221 681q90 0 145 -49.5t55 -127.5q0 -41 -19 -75t-45.5 -59t-53.5 -49t-46 -57t-19 -72v-10l-57 -2v12q0 47 18 84.5t44 62.5t52 47.5t44.5 51.5t18.5 63q0 55 -38.5 90.5t-98.5 35.5q-56 0 -90 -31t-34 -80q0 -17 5 -27l-61 -10q-6 17 -6 40q0 72 51.5 117t134.5 45z
M207 77q19 0 31.5 -12.5t12.5 -31.5q0 -17 -12.5 -30t-31.5 -13q-17 0 -30 13t-13 30q0 19 13 31.5t30 12.5z" />
    <glyph glyph-name="at" unicode="@" horiz-adv-x="870" 
d="M647 44q-44 0 -70 24.5t-26 66.5v10q-16 -46 -53 -73.5t-93 -27.5q-79 0 -127.5 55t-48.5 145q0 91 49.5 145.5t130.5 54.5q96 0 136 -78v72h60v-297q0 -28 15.5 -44t42.5 -16q49 0 85.5 56.5t36.5 147.5q0 143 -93 232t-246 89q-163 0 -264.5 -101.5t-101.5 -267.5
q0 -156 100 -254t261 -98q31 0 60 3.5t52.5 9.5t44 13.5t36.5 16t29 17t22.5 16.5t15.5 13.5t9 9.5l4 4l17 -21q-107 -107 -290 -107q-173 0 -281 105t-108 272q0 178 109 286t285 108q166 0 267 -96t101 -250q0 -112 -48.5 -176.5t-118.5 -64.5zM418 95q58 0 92.5 41.5
t34.5 90.5v36q0 48 -35 89t-95 41q-56 0 -90.5 -41t-34.5 -108t35 -108t93 -41z" />
    <glyph glyph-name="A" unicode="A" horiz-adv-x="606" 
d="M519 0l-68 178h-298l-67 -178h-65l250 656h63l250 -656h-65zM173 231h258l-113 299q-5 14 -15 50h-2q-5 -21 -15 -50z" />
    <glyph glyph-name="B" unicode="B" horiz-adv-x="610" 
d="M418 344q23 -4 44.5 -14t44 -28.5t36.5 -51.5t14 -75q0 -84 -58 -129.5t-166 -45.5h-239v656h220q101 0 157.5 -44.5t56.5 -128.5q0 -64 -35 -97t-75 -40v-2zM464 480q0 122 -158 122h-149v-237h170q66 0 101.5 32.5t35.5 82.5zM326 54q79 0 123.5 32t44.5 95
q0 65 -44 100t-119 35h-174v-262h169z" />
    <glyph glyph-name="C" unicode="C" horiz-adv-x="635" 
d="M347 662q65 0 114.5 -22t75.5 -56.5t39 -67.5t14 -63l-60 -10q0 21 -9.5 47t-28.5 53.5t-57 45.5t-87 18q-100 0 -165 -75t-65 -204q0 -135 68.5 -206.5t175.5 -71.5q120 0 195 102l39 -39q-87 -118 -236 -118q-138 0 -221.5 89t-83.5 244q0 152 81.5 243t210.5 91z" />
    <glyph glyph-name="D" unicode="D" horiz-adv-x="661" 
d="M272 656q156 0 245 -87t89 -241q0 -160 -79 -244t-218 -84h-215v656h178zM308 54q109 0 172 71t63 203q0 133 -71.5 203.5t-199.5 70.5h-116v-548h152z" />
    <glyph glyph-name="E" unicode="E" horiz-adv-x="544" 
d="M491 602h-335v-234h302v-53h-302v-261h335v-54h-397v656h397v-54z" />
    <glyph glyph-name="F" unicode="F" horiz-adv-x="508" 
d="M479 602h-323v-238h280v-55h-280v-309h-62v656h385v-54z" />
    <glyph glyph-name="G" unicode="G" horiz-adv-x="658" 
d="M309 314h284v-314h-38q-8 35 -12 104q-55 -109 -204 -109q-128 0 -206 91.5t-78 241.5t80.5 242t208.5 92q65 0 115 -21.5t76.5 -54.5t39 -65t13.5 -62l-59 -10q0 21 -9.5 46t-29 51.5t-57.5 43.5t-88 17q-100 0 -163.5 -75.5t-63.5 -203.5q0 -125 62 -201.5t167 -76.5
q93 0 143 52t50 116v43h-231v53z" />
    <glyph glyph-name="H" unicode="H" horiz-adv-x="705" 
d="M549 656h63v-656h-63v315h-393v-315h-62v656h62v-288h393v288z" />
    <glyph glyph-name="I" unicode="I" horiz-adv-x="250" 
d="M94 0v656h62v-656h-62z" />
    <glyph glyph-name="J" unicode="J" horiz-adv-x="446" 
d="M49 106q56 -56 122 -56q124 0 124 127v479h63v-475q0 -93 -49.5 -139.5t-137.5 -46.5q-92 0 -161 64z" />
    <glyph glyph-name="K" unicode="K" horiz-adv-x="573" 
d="M489 1l-241 294h-92v-295h-62v656h62v-308h91l242 308h68l-264 -334l266 -321h-70z" />
    <glyph glyph-name="L" unicode="L" horiz-adv-x="511" 
d="M156 54h342v-54h-404v656h62v-602z" />
    <glyph glyph-name="M" unicode="M" horiz-adv-x="827" 
d="M733 656v-656h-62l1 479q0 51 3 66l-3 1q-1 -2 -5 -14t-8 -24.5t-8 -20.5l-216 -489h-40l-221 493q-11 25 -19 55l-3 -1q3 -18 3 -66l1 -479h-62v656h71l221 -498q20 -44 28 -72h2q6 22 29 72l219 498h69z" />
    <glyph glyph-name="N" unicode="N" horiz-adv-x="689" 
d="M595 656v-656h-72l-311 476q-45 72 -57 97l-4 -2q4 -16 4 -89l2 -482h-63v656h72l311 -479q34 -54 56 -96l5 2q-5 55 -5 90l-1 483h63z" />
    <glyph glyph-name="O" unicode="O" horiz-adv-x="712" 
d="M356 662q134 0 218 -90.5t84 -243.5t-84 -243t-218 -90q-133 0 -217.5 90t-84.5 243t84.5 243.5t217.5 90.5zM356 50q105 0 172 75.5t67 202.5t-67 203t-172 76t-171.5 -76t-66.5 -203t66.5 -202.5t171.5 -75.5z" />
    <glyph glyph-name="P" unicode="P" horiz-adv-x="580" 
d="M300 656q114 0 179 -57t65 -158q0 -99 -63 -155.5t-174 -56.5h-151v-229h-62v656h206zM298 283q85 0 134 42t49 116q0 75 -49.5 118t-135.5 43h-140v-319h142z" />
    <glyph glyph-name="Q" unicode="Q" horiz-adv-x="712" 
d="M658 328q0 -129 -61.5 -214.5t-164.5 -110.5q103 -28 198 -34l-13 -51q-146 14 -282 78q-125 7 -203 96t-78 236q0 153 84.5 243.5t217.5 90.5q134 0 218 -90.5t84 -243.5zM118 328q0 -127 66.5 -202.5t171.5 -75.5t172 75.5t67 202.5t-67 203t-172 76t-171.5 -76
t-66.5 -203z" />
    <glyph glyph-name="R" unicode="R" horiz-adv-x="595" 
d="M575 48l5 -50q-17 -3 -38 -3q-46 0 -78 27.5t-50.5 66t-38 77.5t-54 66.5t-84.5 27.5h-81v-260h-62v656h192q109 0 169.5 -51t60.5 -149q0 -72 -43.5 -120t-117.5 -66q33 -13 60 -51t43 -75.5t42 -67.5t59 -30zM156 310h119q78 0 128 38.5t50 107.5t-45 107.5t-125 38.5
h-127v-292z" />
    <glyph glyph-name="S" unicode="S" horiz-adv-x="552" 
d="M435 499q-10 38 -48.5 73t-111.5 35q-66 0 -107 -31.5t-41 -84.5q0 -34 20.5 -58t53.5 -38t73 -26t80 -26.5t73 -35t53.5 -57t20.5 -86.5q0 -76 -61.5 -122.5t-164.5 -46.5q-148 0 -238 76l39 49q83 -70 199 -70q76 0 120 31t44 83q0 40 -20.5 67.5t-54 43t-73.5 27.5
t-79.5 25.5t-73 31.5t-54 51.5t-20.5 79.5q0 77 59 124.5t152 47.5q172 0 220 -148z" />
    <glyph glyph-name="T" unicode="T" horiz-adv-x="532" 
d="M234 0v602h-221v54h506v-54h-222v-602h-63z" />
    <glyph glyph-name="U" unicode="U" horiz-adv-x="681" 
d="M532 656h62v-397q0 -123 -68.5 -193.5t-184.5 -70.5q-117 0 -186 70.5t-69 193.5v397h63v-395q0 -101 51.5 -156t140.5 -55q88 0 139.5 54.5t51.5 154.5v397z" />
    <glyph glyph-name="V" unicode="V" horiz-adv-x="599" 
d="M88 656l196 -530q5 -14 15 -50h2q2 7 15 50l197 530h64l-247 -656h-63l-245 656h66z" />
    <glyph glyph-name="W" unicode="W" horiz-adv-x="894" 
d="M806 656h63l-191 -656h-71l-142 497q-9 27 -17 73h-1q-8 -46 -17 -73l-146 -497h-69l-190 656h65l146 -530q10 -38 14 -56h2q8 36 13 56l153 530h59l154 -530l13 -56h2q4 18 14 56z" />
    <glyph glyph-name="X" unicode="X" horiz-adv-x="576" 
d="M556 656l-226 -332l226 -324h-71l-160 226q-14 20 -36 64h-1q-19 -39 -37 -63l-161 -227h-69l225 322l-225 334h74l158 -236q27 -41 35 -62h1q8 21 35 62l160 236h72z" />
    <glyph glyph-name="Y" unicode="Y" horiz-adv-x="573" 
d="M551 656l-232 -406v-250h-63v246l-235 410h69l168 -288q22 -38 29 -67h2q7 29 29 67l168 288h65z" />
    <glyph glyph-name="Z" unicode="Z" horiz-adv-x="553" 
d="M35 0v54l375 507l33 41l-2 3q-30 -3 -59 -3h-337v54h472v-54l-374 -507q-1 -2 -34 -41l2 -2q14 2 59 2h341v-54h-476z" />
    <glyph glyph-name="bracketleft" unicode="[" horiz-adv-x="292" 
d="M89 -204v910h171v-53h-111v-804h111v-53h-171z" />
    <glyph glyph-name="backslash" unicode="\" horiz-adv-x="397" 
d="M368 -204h-61l-278 910h60z" />
    <glyph glyph-name="bracketright" unicode="]" horiz-adv-x="292" 
d="M33 -204v53h110v804h-110v53h171v-910h-171z" />
    <glyph glyph-name="asciicircum" unicode="^" horiz-adv-x="364" 
d="M48 524l98 194h71l98 -194h-56l-78 145l-76 -145h-57z" />
    <glyph glyph-name="underscore" unicode="_" horiz-adv-x="349" 
d="M0 -110v46h349v-46h-349z" />
    <glyph glyph-name="grave" unicode="`" horiz-adv-x="255" 
d="M151 544l-88 147h80l61 -143z" />
    <glyph glyph-name="a" unicode="a" horiz-adv-x="525" 
d="M486 51l3 -51h-2q-2 -1 -6 -1.5t-8 -1.5t-10 -1.5t-11 -0.5q-71 0 -71 70v24h-2q-17 -36 -60 -65t-117 -29q-73 0 -113.5 33.5t-40.5 90.5q0 76 74.5 108.5t225.5 34.5l29 1v36q0 57 -35 90t-98 33q-58 0 -92 -25.5t-34 -70.5q0 -17 5 -27l-57 -10q-6 17 -6 40
q0 64 50.5 104t134.5 40q90 0 141.5 -46.5t51.5 -126.5v-213q0 -38 31 -38q9 0 17 2zM215 46q77 0 119.5 40t42.5 72v61l-29 -1q-121 -2 -179.5 -24.5t-58.5 -72.5q0 -75 105 -75z" />
    <glyph glyph-name="b" unicode="b" horiz-adv-x="583" 
d="M315 474q98 0 158.5 -66t60.5 -174t-61 -173.5t-161 -65.5q-70 0 -117 34t-65 88q0 -50 -9 -117h-43v704h61v-333q23 47 68 75t108 28zM308 47q75 0 120 51.5t45 135.5q0 85 -46 136.5t-122 51.5t-121 -52.5t-45 -113.5v-43q0 -62 44.5 -114t124.5 -52z" />
    <glyph glyph-name="c" unicode="c" horiz-adv-x="513" 
d="M276 473q86 0 137.5 -44.5t51.5 -113.5l-3 -30l-57 -4q2 6 2 25q0 51 -35 83.5t-95 32.5q-75 0 -121.5 -52t-46.5 -137t47 -136t129 -51q92 0 146 61l36 -38q-63 -74 -184 -74q-107 0 -171 65.5t-64 171.5q0 107 63.5 174t164.5 67z" />
    <glyph glyph-name="d" unicode="d" horiz-adv-x="583" 
d="M444 704h60v-704l-44 -2q-8 80 -7 120h-1q-20 -54 -67.5 -88.5t-116.5 -34.5q-98 0 -159 66t-61 174q0 107 61.5 173t161.5 66q61 0 105.5 -27t67.5 -71v328zM278 47q77 0 121.5 53t44.5 114v42q0 62 -45 114t-125 52q-74 0 -119 -51.5t-45 -135.5q0 -85 46 -136.5
t122 -51.5z" />
    <glyph glyph-name="e" unicode="e" horiz-adv-x="521" 
d="M272 473q93 0 148 -59t55 -153l-3 -40h-362q4 -80 51.5 -127.5t126.5 -47.5q89 0 139 61l38 -35q-62 -77 -181 -77q-108 0 -172 65t-64 173t62.5 174t161.5 66zM272 422q-64 0 -108 -42.5t-52 -113.5h301v4q0 70 -38.5 111t-102.5 41z" />
    <glyph glyph-name="f" unicode="f" horiz-adv-x="357" 
d="M273 660q-47 0 -74.5 -32t-27.5 -85v-75h172v-50h-172v-418h-61v418h-70v50h70v74q0 77 43.5 123t114.5 46q63 0 104 -29l-23 -48q-39 26 -76 26z" />
    <glyph glyph-name="g" unicode="g" horiz-adv-x="521" 
d="M325 64q81 0 127 -34t46 -95q0 -66 -59.5 -105t-177.5 -39q-114 0 -175 34.5t-61 96.5q0 76 86 106q-54 23 -54 77q0 29 19.5 49t48.5 27q-57 47 -57 125q0 75 52.5 121t137.5 46q81 0 132 -40q53 18 53 102l53 -11q0 -52 -26.5 -81.5t-54.5 -33.5q35 -43 35 -103
q0 -75 -52.5 -121t-138.5 -46q-50 0 -90 17q-57 -8 -57 -44q0 -28 27.5 -38t83.5 -10h102zM259 423q-59 0 -94.5 -32t-35.5 -85t35.5 -85t93.5 -32q59 0 95 32t36 85t-36 85t-94 32zM261 -157q177 0 177 92q0 77 -123 77h-108q-61 0 -91.5 -22.5t-30.5 -59.5q0 -87 176 -87z
" />
    <glyph glyph-name="h" unicode="h" horiz-adv-x="564" 
d="M310 473q83 0 132 -51.5t49 -134.5v-287h-61v287q0 61 -34.5 98t-95.5 37q-74 0 -117.5 -52.5t-43.5 -114.5v-255h-61v706h60v-341q22 47 66 77.5t106 30.5z" />
    <glyph glyph-name="i" unicode="i" horiz-adv-x="220" 
d="M160 621q0 -19 -14 -32.5t-34 -13.5t-33.5 13.5t-13.5 32.5q0 20 13.5 33.5t33.5 13.5t34 -13.5t14 -33.5zM80 0v468l61 2v-470h-61z" />
    <glyph glyph-name="j" unicode="j" horiz-adv-x="227" 
d="M167 621q0 -19 -14 -32.5t-34 -13.5t-33.5 13.5t-13.5 32.5q0 20 13.5 33.5t33.5 13.5t34 -13.5t14 -33.5zM-68 -139q23 -17 62 -17q48 0 70 25.5t22 81.5v517l61 2v-509q0 -169 -148 -169q-26 0 -47.5 6.5t-29.5 13.5l-9 6z" />
    <glyph glyph-name="k" unicode="k" horiz-adv-x="489" 
d="M407 0l-205 233h-63v-233h-61v706h61v-423h74l179 185h72l-209 -212l229 -256h-77z" />
    <glyph glyph-name="l" unicode="l" horiz-adv-x="220" 
d="M80 0v706h60v-706h-60z" />
    <glyph glyph-name="m" unicode="m" horiz-adv-x="888" 
d="M636 472q82 0 130.5 -51.5t48.5 -135.5v-285h-61v285q0 62 -34 99t-93 37q-69 0 -109.5 -52.5t-40.5 -112.5v-256h-61v285q0 62 -34 99t-93 37q-69 0 -109.5 -52.5t-40.5 -112.5v-256h-61v468l43 2q9 -58 9 -119q19 53 62 87t106 34q64 0 108.5 -32.5t61.5 -89.5
q19 53 62 87.5t106 34.5z" />
    <glyph glyph-name="n" unicode="n" horiz-adv-x="564" 
d="M309 473q83 0 132.5 -51.5t49.5 -134.5v-287h-61v287q0 61 -35 98t-95 37q-74 0 -117.5 -53t-43.5 -113v-256h-61v468l43 2q9 -58 9 -119h2q21 53 66 87.5t111 34.5z" />
    <glyph glyph-name="o" unicode="o" horiz-adv-x="562" 
d="M281 473q105 0 169 -66.5t64 -173.5t-64 -172.5t-169 -65.5t-169 65.5t-64 172.5t64 173.5t169 66.5zM281 46q77 0 124 51.5t47 135.5t-47 136.5t-124 52.5t-124.5 -52.5t-47.5 -136.5q0 -83 47.5 -135t124.5 -52z" />
    <glyph glyph-name="p" unicode="p" horiz-adv-x="583" 
d="M315 473q98 0 158.5 -66t60.5 -174q0 -107 -61 -172.5t-161 -65.5q-59 0 -104 27.5t-69 71.5v-298h-61v672l43 2q9 -65 9 -119h1q20 54 66.5 88t117.5 34zM308 46q75 0 120 51.5t45 135.5q0 85 -46 137t-122 52q-77 0 -121.5 -53t-44.5 -115v-42q0 -62 45 -114t124 -52z
" />
    <glyph glyph-name="q" unicode="q" horiz-adv-x="583" 
d="M462 468h42v-672h-60v303q-23 -47 -68 -75.5t-108 -28.5q-98 0 -159 66t-61 174q0 107 61.5 172.5t161.5 65.5q68 0 115.5 -34t65.5 -88h1q-2 51 9 117zM278 46q76 0 121 53t45 114v42q0 62 -44.5 114.5t-125.5 52.5q-74 0 -119 -51.5t-45 -135.5q0 -85 46 -137t122 -52z
" />
    <glyph glyph-name="r" unicode="r" horiz-adv-x="330" 
d="M265 473q32 0 53 -7l-15 -60q-14 8 -41 8q-51 0 -87 -49t-36 -112v-253h-61v468l43 2q9 -58 9 -119h2q15 53 48.5 87.5t84.5 34.5z" />
    <glyph glyph-name="s" unicode="s" horiz-adv-x="460" 
d="M343 310q3 15 3 24q0 41 -33 64.5t-85 23.5q-51 0 -80 -22t-29 -58q0 -34 30 -53t73 -28t86 -20t73 -40t31 -77q1 -60 -49 -94.5t-134 -34.5q-110 0 -193 69l38 40q63 -58 155 -58q58 0 90 21t32 57q0 32 -30.5 50.5t-73.5 28.5t-86 22.5t-73.5 41.5t-30.5 76
q0 57 48 93.5t125 36.5q76 0 124 -35.5t48 -92.5l-3 -30z" />
    <glyph glyph-name="t" unicode="t" horiz-adv-x="387" 
d="M358 76l21 -49q-46 -33 -118 -33q-80 0 -117.5 42t-37.5 127v255h-77v50h77v142l61 4v-146h190v-50h-190v-253q0 -60 23.5 -89t75.5 -29q25 0 48 7.5t34 14.5z" />
    <glyph glyph-name="u" unicode="u" horiz-adv-x="551" 
d="M413 468h60v-468l-44 -2q-9 58 -9 113h-1q-20 -51 -63.5 -83.5t-105.5 -32.5q-82 0 -129.5 50.5t-47.5 134.5v288h61v-288q0 -62 32.5 -98t92.5 -36q70 0 112 53t42 113v256z" />
    <glyph glyph-name="v" unicode="v" horiz-adv-x="504" 
d="M419 468h62l-195 -468h-69l-195 468h68l152 -373q7 -19 11 -34h2q4 18 10 34z" />
    <glyph glyph-name="w" unicode="w" horiz-adv-x="735" 
d="M646 468h62l-145 -468h-74l-110 356q-6 22 -8 34h-2q-2 -12 -8 -34l-112 -356h-74l-150 468h68l109 -370q2 -7 5 -15.5t5 -14t2 -7.5h2q0 2 2 8t4.5 14.5t4.5 14.5l112 370h63l112 -368q4 -14 9 -39h2q1 2 5 15.5t7 23.5z" />
    <glyph glyph-name="x" unicode="x" horiz-adv-x="464" 
d="M268 235l174 -235h-72l-125 171q-11 12 -12 21h-1q-3 -8 -12 -21l-125 -171h-70l172 233l-175 235h73l121 -167q14 -22 17 -28h1q4 10 16 28l120 167h70z" />
    <glyph glyph-name="y" unicode="y" horiz-adv-x="504" 
d="M251 -97q-20 -54 -51.5 -83t-84.5 -29q-17 0 -33 3.5t-23 6.5l-7 3l11 51q20 -11 48 -11q34 0 52.5 18.5t32.5 55.5l29 71l-200 479h67l152 -373q9 -18 11 -34h2q4 19 11 34l153 373h62z" />
    <glyph glyph-name="z" unicode="z" horiz-adv-x="447" 
d="M37 0v50l280 347q4 4 8 8.5t6.5 7.5t4.5 5l-1 2q-8 -2 -32 -2h-260v50h362v-50l-271 -338q-17 -21 -26 -30l1 -2q7 2 34 2h266v-50h-372z" />
    <glyph glyph-name="braceleft" unicode="{" horiz-adv-x="303" 
d="M271 -209q-69 0 -114 36t-45 122v200q0 33 -19 50t-45 17h-10v50h10q26 0 45 17t19 50v220q0 86 45 122t114 36v-55q-102 0 -102 -112v-223q0 -27 -10 -46t-20 -25.5t-19 -8.5q8 -2 18 -9t20.5 -26t10.5 -45v-204q0 -112 102 -112v-54z" />
    <glyph glyph-name="bar" unicode="|" horiz-adv-x="231" 
d="M89 -204v901h54v-901h-54z" />
    <glyph glyph-name="braceright" unicode="}" horiz-adv-x="303" 
d="M32 -155q102 0 102 112v204q0 58 49 80q-6 2 -12.5 5.5t-15.5 12t-15 24.5t-6 38v224q0 112 -102 112v54q70 0 115 -36t45 -122v-220q0 -33 19 -50t45 -17h10v-50h-10q-26 0 -45 -17t-19 -50v-200q0 -85 -45.5 -121.5t-114.5 -36.5v54z" />
    <glyph glyph-name="asciitilde" unicode="~" horiz-adv-x="566" 
d="M74 253v45q44 31 106 31q40 0 104.5 -20t103.5 -20q63 0 106 31v-46q-46 -31 -106 -31q-39 0 -103.5 20t-104.5 20q-62 0 -106 -30z" />
    <glyph glyph-name="exclamdown" unicode="&#xa1;" horiz-adv-x="222" 
d="M112 386q-19 0 -32 12.5t-13 30.5t13 31t32 13q17 0 30.5 -13t13.5 -31t-13 -30.5t-31 -12.5zM76 -203l9 476l52 2l7 -478h-68z" />
    <glyph glyph-name="cent" unicode="&#xa2;" horiz-adv-x="518" 
d="M288 46q92 0 146 61l37 -38q-59 -68 -165 -73v-96h-47v96q-95 9 -151.5 73.5t-56.5 163.5t56.5 163.5t151.5 73.5v93h47v-93q106 -5 165 -73l-37 -38q-54 61 -146 61q-82 0 -128.5 -51t-46.5 -136t46.5 -136t128.5 -51z" />
    <glyph glyph-name="sterling" unicode="&#xa3;" horiz-adv-x="575" 
d="M165 51q10 2 36 2h314v-53h-439v41q4 2 11 6.5t24.5 19t31 30.5t24.5 41.5t11 51.5q0 35 -17 71h-114v44h89q-18 30 -26 44.5t-17.5 44.5t-9.5 61q0 91 63.5 149t166.5 58q48 0 87.5 -11.5t62.5 -28.5t39 -34t22 -28l6 -12l-54 -25q-1 3 -4.5 9t-16.5 20.5t-29.5 26
t-46.5 20.5t-66 9q-74 0 -120 -43t-46 -109q0 -17 3 -33t10.5 -33.5t12 -27t17 -30.5t15.5 -27h232v-44h-210q15 -37 15 -71q0 -37 -20 -71.5t-34 -46.5t-24 -19z" />
    <glyph glyph-name="currency" unicode="&#xa4;" horiz-adv-x="595" 
d="M123 348q0 50 25 91l-83 83l32 33l82 -82q50 50 119 50t119 -50l82 82l32 -33l-83 -83q27 -46 27 -91q0 -50 -27 -91l82 -82l-33 -32l-80 79q-46 -48 -118 -48q-73 0 -120 50l-83 -84l-32 33l84 85q-25 41 -25 90zM172 348q0 -52 37 -88.5t90 -36.5q52 0 89 36.5t37 88.5
q0 53 -37 89t-90 36q-52 0 -89 -36.5t-37 -88.5z" />
    <glyph glyph-name="yen" unicode="&#xa5;" horiz-adv-x="586" 
d="M557 656l-207 -363h148v-46h-173v-76h173v-45h-173v-126h-63v126h-174v45h174v76h-174v46h147l-208 363h69l168 -288q22 -38 29 -67h2q7 29 29 67l168 288h65z" />
    <glyph glyph-name="brokenbar" unicode="&#xa6;" horiz-adv-x="229" 
d="M88 324v373h54v-373h-54zM88 -204v372h54v-372h-54z" />
    <glyph glyph-name="section" unicode="&#xa7;" horiz-adv-x="563" 
d="M437 82q68 -42 68 -127q0 -76 -61.5 -120t-164.5 -44q-149 0 -238 77l39 48q81 -70 199 -70q75 0 119 29t44 80q0 50 -38 78t-92.5 40.5t-109.5 26.5t-93 47.5t-38 91.5q0 37 22 67t60 46q-82 45 -85 141q-1 77 58 123t154 46q173 0 220 -148l-60 -16q-10 38 -48.5 73.5
t-111.5 35.5q-66 0 -107 -31t-41 -82t38.5 -80.5t93.5 -43t110 -29t93.5 -51.5t38.5 -97q0 -77 -69 -111zM131 241q0 -34 25.5 -56.5t55.5 -31.5t84.5 -21.5t82.5 -22.5q64 21 64 84q0 28 -13 48t-39.5 33t-51 20t-65 17t-63.5 17q-36 -6 -58 -29t-22 -58z" />
    <glyph glyph-name="dieresis" unicode="&#xa8;" horiz-adv-x="339" 
d="M79 579q-18 0 -30 12.5t-12 29.5q0 18 12 30.5t30 12.5q17 0 29.5 -13t12.5 -30t-12.5 -29.5t-29.5 -12.5zM261 579q-17 0 -29.5 12.5t-12.5 29.5t12.5 30t29.5 13q18 0 30 -12.5t12 -30.5q0 -17 -12 -29.5t-30 -12.5z" />
    <glyph glyph-name="copyright" unicode="&#xa9;" horiz-adv-x="772" 
d="M385 -4q-149 0 -240 91.5t-91 241.5q0 149 91 240.5t240 91.5q150 0 241.5 -91.5t91.5 -240.5q0 -150 -91.5 -241.5t-241.5 -91.5zM385 20q137 0 221 85t84 224t-84 223t-221 84t-220 -84t-83 -223t83.5 -224t219.5 -85zM548 176q-2 -3 -5.5 -7.5t-17.5 -15.5t-30.5 -20
t-45 -16t-60.5 -7q-89 0 -143 56.5t-54 149.5q0 101 54 162t142 61q77 0 119.5 -39.5t42.5 -84.5l-48 -9q0 3 -1.5 9t-8.5 20.5t-18 26t-33.5 20.5t-52.5 9q-64 0 -102.5 -47.5t-38.5 -125.5q0 -72 40.5 -116.5t107.5 -44.5q40 0 72 13.5t44 27.5l12 13z" />
    <glyph glyph-name="ordfeminine" unicode="&#xaa;" horiz-adv-x="463" 
d="M409 336l4 -49l-2 -1h-5.5t-7.5 -0.5t-9.5 -1t-10.5 -0.5q-63 0 -63 61v11q-37 -73 -137 -73q-58 0 -90 26.5t-32 72.5q0 62 59.5 87.5t176.5 26.5l21 1v27q0 41 -26 65.5t-72 24.5q-42 0 -67.5 -19t-25.5 -52q0 -7 4 -19l-55 -10q-5 14 -5 33q0 52 41 83.5t110 31.5
q73 0 114 -37t41 -103v-159q0 -28 24 -28q10 0 13 1zM193 331q56 0 88 29t32 54v45l-21 -1q-89 -1 -132.5 -17t-43.5 -54q0 -26 20 -41t57 -15z" />
    <glyph glyph-name="guillemotleft" unicode="&#xab;" horiz-adv-x="440" 
d="M46 239v50l138 134l32 -36l-130 -123l130 -123l-32 -36zM211 239v50l138 134l32 -36l-130 -123l130 -123l-32 -36z" />
    <glyph glyph-name="registered" unicode="&#xae;" horiz-adv-x="456" 
d="M227 312q-77 0 -125.5 48.5t-48.5 125.5q0 78 48.5 127t125.5 49t126 -49t49 -127q0 -77 -49 -125.5t-126 -48.5zM227 333q68 0 110.5 43t42.5 110q0 68 -43 112t-110 44t-109 -43t-42 -113q0 -68 42 -110.5t109 -42.5zM318 382q-5 -1 -11 -1q-17 0 -28 13t-16.5 28.5
t-18.5 28.5t-32 13h-29v-82h-26v213h73q30 0 48 -17t18 -45q0 -21 -11.5 -36.5t-21.5 -20t-14 -4.5q12 -4 21 -16t13 -23.5t11 -20.5t17 -9h4zM224 486q21 0 34 13.5t13 33.5q0 18 -12.5 29.5t-32.5 11.5h-43v-88h41z" />
    <glyph glyph-name="macron" unicode="&#xaf;" horiz-adv-x="368" 
d="M52 597v47h264v-47h-264z" />
    <glyph glyph-name="degree" unicode="&#xb0;" horiz-adv-x="346" 
d="M295 539q0 -54 -34 -87t-89 -33q-54 0 -87.5 33t-33.5 87q0 55 33.5 88.5t87.5 33.5q55 0 89 -33.5t34 -88.5zM258 539q0 39 -24 62.5t-62 23.5t-61 -23.5t-23 -62.5q0 -38 23 -61.5t61 -23.5t62 23.5t24 61.5z" />
    <glyph glyph-name="plusminus" unicode="&#xb1;" horiz-adv-x="496" 
d="M272 348h154v-47h-154v-131h-48v131h-154v47h154v127h48v-127zM70 59v47h356v-47h-356z" />
    <glyph glyph-name="acute" unicode="&#xb4;" horiz-adv-x="255" 
d="M106 548l-55 -4l62 147h79z" />
    <glyph glyph-name="paragraph" unicode="&#xb6;" horiz-adv-x="539" 
d="M401 -201v823h-90v-823h-41v515h-36q-93 0 -149.5 46.5t-56.5 123.5t56.5 124.5t149.5 47.5h208v-857h-41z" />
    <glyph glyph-name="periodcentered" unicode="&#xb7;" horiz-adv-x="221" 
d="M65 360q0 19 13.5 32.5t32.5 13.5t32 -13.5t13 -32.5t-13 -32t-32 -13t-32.5 13t-13.5 32z" />
    <glyph glyph-name="cedilla" unicode="&#xb8;" horiz-adv-x="265" 
d="M144 -33q31 -3 54.5 -23t23.5 -55q0 -37 -27 -58t-69 -21q-24 0 -45 8t-29 16l-9 8l19 36q24 -25 64 -25q23 0 37 10.5t14 27.5q0 19 -21 33t-68 14l29 71h45z" />
    <glyph glyph-name="ordmasculine" unicode="&#xba;" horiz-adv-x="471" 
d="M236 662q84 0 135 -53t51 -137t-51 -136.5t-135 -52.5t-135.5 52.5t-51.5 136.5q0 85 51.5 137.5t135.5 52.5zM236 334q56 0 90.5 38t34.5 100t-34.5 101t-90.5 39q-57 0 -91.5 -38.5t-34.5 -101.5q0 -62 34.5 -100t91.5 -38z" />
    <glyph glyph-name="guillemotright" unicode="&#xbb;" horiz-adv-x="440" 
d="M91 105l-32 36l130 123l-130 123l32 36l138 -134v-50zM256 105l-32 36l130 123l-130 123l32 36l138 -134v-50z" />
    <glyph glyph-name="onequarter" unicode="&#xbc;" horiz-adv-x="814" 
d="M191 0l299 662h59l-298 -662h-60zM151 294v299l-123 -24v56l172 31h10v-362h-59zM709 361v-230h73v-50h-73v-81h-60v81h-218l1 57l213 223h64zM651 131v145q0 23 1 26l-2 2q-2 -5 -19 -23l-121 -129q-14 -14 -24 -20l2 -2q5 1 35 1h128z" />
    <glyph glyph-name="onehalf" unicode="&#xbd;" horiz-adv-x="809" 
d="M191 0l299 662h59l-298 -662h-60zM151 294v299l-123 -24v56l172 31h10v-362h-59zM555 49q4 1 32 1h183v-50h-309v44q17 10 63 36t67.5 39.5t51 36t42.5 43.5t13 43q0 32 -24.5 51t-66.5 19q-39 0 -62.5 -17.5t-23.5 -46.5q0 -10 3 -13l-59 -12q-5 10 -5 28q0 49 40 81.5
t107 32.5q71 0 111.5 -32.5t40.5 -89.5q0 -29 -14 -55t-41.5 -48t-48.5 -35.5t-56 -32.5q-2 -1 -3.5 -2t-3.5 -2l-4 -2q-11 -7 -34 -15z" />
    <glyph glyph-name="threequarters" unicode="&#xbe;" horiz-adv-x="902" 
d="M288 0l298 662h59l-298 -662h-59zM201 659q67 0 108 -28.5t41 -75.5q0 -35 -27.5 -57t-66.5 -22v-1q42 0 74.5 -23t32.5 -62q0 -44 -43.5 -71.5t-117.5 -27.5q-36 0 -66 7t-48 17.5t-30.5 21t-17.5 17.5l-4 7l46 31q4 -5 13 -13t39.5 -21.5t66.5 -13.5q48 0 74 14.5
t26 39.5t-29 38t-76 13h-36v48h28q100 0 100 51q0 26 -23.5 42t-64.5 16q-37 0 -61 -13t-24 -33q0 -7 3 -13l-60 -10l-1 4q-1 4 -2 10.5t-1 13.5q0 41 41 67.5t106 26.5zM800 361v-230h72v-50h-72v-81h-61v81h-217l1 57l212 223h65zM741 131v145q0 23 2 26l-2 2
q-1 -2 -3.5 -5t-7.5 -8.5t-8 -9.5l-121 -129q-14 -14 -24 -20l1 -2q5 1 36 1h127z" />
    <glyph glyph-name="questiondown" unicode="&#xbf;" horiz-adv-x="451" 
d="M247 386q-19 0 -31.5 12.5t-12.5 31.5q0 18 12.5 30.5t31.5 12.5q17 0 30 -13t13 -30q0 -18 -13 -31t-30 -13zM233 -218q-90 0 -145 49.5t-55 127.5q0 41 19 75t45.5 59t53.5 49t46 57t19 72v10l57 2v-12q0 -47 -18 -84.5t-44 -62.5t-52 -47.5t-44.5 -51.5t-18.5 -63
q0 -55 38.5 -90.5t98.5 -35.5q55 0 89.5 31.5t34.5 79.5q0 17 -5 27l61 10q6 -17 6 -40q0 -72 -51.5 -117t-134.5 -45z" />
    <glyph glyph-name="Agrave" unicode="&#xc0;" horiz-adv-x="606" 
d="M334 690l-55 -4l-88 121h81zM519 0l-68 178h-298l-67 -178h-65l250 656h63l250 -656h-65zM173 231h258l-113 299q-5 14 -15 50h-2q-5 -21 -15 -50z" />
    <glyph glyph-name="Aacute" unicode="&#xc1;" horiz-adv-x="606" 
d="M413 807l-88 -117l-54 -4l62 121h80zM519 0l-68 178h-298l-67 -178h-65l250 656h63l250 -656h-65zM173 231h258l-113 299q-5 14 -15 50h-2q-5 -21 -15 -50z" />
    <glyph glyph-name="Acircumflex" unicode="&#xc2;" horiz-adv-x="606" 
d="M302 763l-75 -75l-57 -2l98 126h70l97 -126l-56 2zM519 0l-68 178h-298l-67 -178h-65l250 656h63l250 -656h-65zM173 231h258l-113 299q-5 14 -15 50h-2q-5 -21 -15 -50z" />
    <glyph glyph-name="Atilde" unicode="&#xc3;" horiz-adv-x="606" 
d="M198 676h-50q-3 15 -3 33q0 34 21.5 54.5t57.5 20.5q35 0 79 -29.5t58 -29.5q34 0 34 37l-4 27h50q4 -14 4 -34q0 -33 -20 -55.5t-57 -22.5q-32 0 -77.5 29.5t-61.5 29.5t-25.5 -9.5t-9.5 -25.5zM519 0l-68 178h-298l-67 -178h-65l250 656h63l250 -656h-65zM173 231h258
l-113 299q-5 14 -15 50h-2q-5 -21 -15 -50z" />
    <glyph glyph-name="Adieresis" unicode="&#xc4;" horiz-adv-x="606" 
d="M213 705q-17 0 -29.5 12t-12.5 29t12.5 29.5t29.5 12.5t29 -12.5t12 -29.5t-12 -29t-29 -12zM395 705q-17 0 -29.5 12t-12.5 29t12.5 29.5t29.5 12.5t29.5 -12.5t12.5 -29.5t-12.5 -29t-29.5 -12zM519 0l-68 178h-298l-67 -178h-65l250 656h63l250 -656h-65zM173 231h258
l-113 299q-5 14 -15 50h-2q-5 -21 -15 -50z" />
    <glyph glyph-name="Aring" unicode="&#xc5;" horiz-adv-x="606" 
d="M302 675q-32 0 -54 21.5t-22 52.5q0 32 22 53.5t54 21.5t53.5 -21.5t21.5 -53.5q0 -31 -21.5 -52.5t-53.5 -21.5zM302 787q-16 0 -26.5 -11t-10.5 -27t10.5 -26.5t26.5 -10.5t26.5 10.5t10.5 26.5t-10.5 27t-26.5 11zM519 0l-68 178h-298l-67 -178h-65l250 656h63
l250 -656h-65zM173 231h258l-113 299q-5 14 -15 50h-2q-5 -21 -15 -50z" />
    <glyph glyph-name="AE" unicode="&#xc6;" horiz-adv-x="945" 
d="M892 602h-335v-234h302v-53h-302v-261h335v-54h-397v178h-300l-136 -178h-66l500 656h399v-54zM235 231h260v341z" />
    <glyph glyph-name="Ccedilla" unicode="&#xc7;" horiz-adv-x="635" 
d="M596 113q-16 -22 -37 -43t-71 -46t-109 -28l-12 -29q31 -3 54.5 -23t23.5 -55q0 -37 -27 -58t-69 -21q-24 0 -44.5 8t-29.5 16l-9 8l19 36q24 -25 64 -25q23 0 37 10.5t14 27.5q0 19 -21 33t-68 14l24 58q-127 8 -203.5 96t-76.5 236q0 152 81.5 243t210.5 91
q65 0 114.5 -22t75.5 -56.5t39 -67.5t14 -63l-60 -10q0 21 -9.5 47t-28.5 53.5t-57 45.5t-87 18q-100 0 -165 -75t-65 -204q0 -135 68.5 -206.5t175.5 -71.5q120 0 195 102z" />
    <glyph glyph-name="Egrave" unicode="&#xc8;" horiz-adv-x="544" 
d="M338 690l-55 -4l-88 121h81zM491 602h-335v-234h302v-53h-302v-261h335v-54h-397v656h397v-54z" />
    <glyph glyph-name="Eacute" unicode="&#xc9;" horiz-adv-x="544" 
d="M417 807l-88 -117l-54 -4l62 121h80zM491 602h-335v-234h302v-53h-302v-261h335v-54h-397v656h397v-54z" />
    <glyph glyph-name="Ecircumflex" unicode="&#xca;" horiz-adv-x="544" 
d="M306 763l-75 -75l-57 -2l98 126h70l97 -126l-56 2zM491 602h-335v-234h302v-53h-302v-261h335v-54h-397v656h397v-54z" />
    <glyph glyph-name="Edieresis" unicode="&#xcb;" horiz-adv-x="544" 
d="M217 705q-17 0 -29.5 12t-12.5 29t12.5 29.5t29.5 12.5t29 -12.5t12 -29.5t-12 -29t-29 -12zM399 705q-17 0 -29.5 12t-12.5 29t12.5 29.5t29.5 12.5t29.5 -12.5t12.5 -29.5t-12.5 -29t-29.5 -12zM491 602h-335v-234h302v-53h-302v-261h335v-54h-397v656h397v-54z" />
    <glyph glyph-name="Igrave" unicode="&#xcc;" horiz-adv-x="250" 
d="M102 686l-88 121h81l62 -117zM94 0v656h62v-656h-62z" />
    <glyph glyph-name="Iacute" unicode="&#xcd;" horiz-adv-x="250" 
d="M148 690l-54 -4l62 121h80zM94 0v656h62v-656h-62z" />
    <glyph glyph-name="Icircumflex" unicode="&#xce;" horiz-adv-x="250" 
d="M161 812l97 -126l-56 2l-77 75l-75 -75l-57 -2l98 126h70zM94 0v656h62v-656h-62z" />
    <glyph glyph-name="Idieresis" unicode="&#xcf;" horiz-adv-x="250" 
d="M36 705q-17 0 -29.5 12t-12.5 29t12.5 29.5t29.5 12.5t29 -12.5t12 -29.5t-12 -29t-29 -12zM218 705q-17 0 -29.5 12t-12.5 29t12.5 29.5t29.5 12.5t29.5 -12.5t12.5 -29.5t-12.5 -29t-29.5 -12zM94 0v656h62v-656h-62z" />
    <glyph glyph-name="Eth" unicode="&#xd0;" horiz-adv-x="661" 
d="M272 656q156 0 245 -87t89 -241q0 -160 -79 -244t-218 -84h-215v301h-84v51h84v304h178zM308 54q109 0 172 71t63 203q0 133 -71.5 203.5t-199.5 70.5h-116v-250h187v-51h-187v-247h152z" />
    <glyph glyph-name="Ntilde" unicode="&#xd1;" horiz-adv-x="689" 
d="M508 789q4 -14 4 -34q0 -33 -20 -55.5t-57 -22.5q-32 0 -77.5 29.5t-61.5 29.5t-25.5 -9.5t-9.5 -25.5l4 -25h-50q-3 15 -3 33q0 34 21.5 54.5t57.5 20.5q35 0 79 -29.5t58 -29.5q34 0 34 37l-4 27h50zM595 656v-656h-72l-311 476q-45 72 -57 97l-4 -2q4 -16 4 -89
l2 -482h-63v656h72l311 -479q34 -54 56 -96l5 2q-5 55 -5 90l-1 483h63z" />
    <glyph glyph-name="Ograve" unicode="&#xd2;" horiz-adv-x="712" 
d="M333 686l-88 121h81l62 -117zM356 662q134 0 218 -90.5t84 -243.5t-84 -243t-218 -90q-133 0 -217.5 90t-84.5 243t84.5 243.5t217.5 90.5zM356 50q105 0 172 75.5t67 202.5t-67 203t-172 76t-171.5 -76t-66.5 -203t66.5 -202.5t171.5 -75.5z" />
    <glyph glyph-name="Oacute" unicode="&#xd3;" horiz-adv-x="712" 
d="M379 690l-54 -4l62 121h80zM356 662q134 0 218 -90.5t84 -243.5t-84 -243t-218 -90q-133 0 -217.5 90t-84.5 243t84.5 243.5t217.5 90.5zM356 50q105 0 172 75.5t67 202.5t-67 203t-172 76t-171.5 -76t-66.5 -203t66.5 -202.5t171.5 -75.5z" />
    <glyph glyph-name="Ocircumflex" unicode="&#xd4;" horiz-adv-x="712" 
d="M392 812l97 -126l-56 2l-77 75l-75 -75l-57 -2l98 126h70zM356 662q134 0 218 -90.5t84 -243.5t-84 -243t-218 -90q-133 0 -217.5 90t-84.5 243t84.5 243.5t217.5 90.5zM356 50q105 0 172 75.5t67 202.5t-67 203t-172 76t-171.5 -76t-66.5 -203t66.5 -202.5t171.5 -75.5z
" />
    <glyph glyph-name="Otilde" unicode="&#xd5;" horiz-adv-x="712" 
d="M495 789q4 -14 4 -34q0 -33 -20 -55.5t-57 -22.5q-32 0 -77.5 29.5t-61.5 29.5t-25.5 -9.5t-9.5 -25.5l4 -25h-50q-3 15 -3 33q0 34 21.5 54.5t57.5 20.5q35 0 79 -29.5t58 -29.5q34 0 34 37l-4 27h50zM356 662q134 0 218 -90.5t84 -243.5t-84 -243t-218 -90
q-133 0 -217.5 90t-84.5 243t84.5 243.5t217.5 90.5zM356 50q105 0 172 75.5t67 202.5t-67 203t-172 76t-171.5 -76t-66.5 -203t66.5 -202.5t171.5 -75.5z" />
    <glyph glyph-name="Odieresis" unicode="&#xd6;" horiz-adv-x="712" 
d="M267 705q-17 0 -29.5 12t-12.5 29t12.5 29.5t29.5 12.5t29 -12.5t12 -29.5t-12 -29t-29 -12zM449 705q-17 0 -29.5 12t-12.5 29t12.5 29.5t29.5 12.5t29.5 -12.5t12.5 -29.5t-12.5 -29t-29.5 -12zM356 662q134 0 218 -90.5t84 -243.5t-84 -243t-218 -90q-133 0 -217.5 90
t-84.5 243t84.5 243.5t217.5 90.5zM356 50q105 0 172 75.5t67 202.5t-67 203t-172 76t-171.5 -76t-66.5 -203t66.5 -202.5t171.5 -75.5z" />
    <glyph glyph-name="multiply" unicode="&#xd7;" horiz-adv-x="442" 
d="M377 364l-122 -122l122 -122l-34 -33l-122 122l-122 -122l-34 33l122 122l-122 122l34 33l122 -122l122 122z" />
    <glyph glyph-name="Oslash" unicode="&#xd8;" horiz-adv-x="712" 
d="M560 585q98 -92 98 -257q0 -153 -84 -243t-218 -90q-92 0 -162 44l-55 -83h-65l78 116q-98 92 -98 256q0 153 84.5 243.5t217.5 90.5q92 0 162 -44l47 70h64zM118 328q0 -126 68 -204l299 445q-55 38 -129 38q-105 0 -171.5 -76t-66.5 -203zM356 50q105 0 172 75.5
t67 202.5t-69 206l-299 -446q56 -38 129 -38z" />
    <glyph glyph-name="Ugrave" unicode="&#xd9;" horiz-adv-x="681" 
d="M318 686l-88 121h81l62 -117zM532 656h62v-397q0 -123 -68.5 -193.5t-184.5 -70.5q-117 0 -186 70.5t-69 193.5v397h63v-395q0 -101 51.5 -156t140.5 -55q88 0 139.5 54.5t51.5 154.5v397z" />
    <glyph glyph-name="Uacute" unicode="&#xda;" horiz-adv-x="681" 
d="M364 690l-54 -4l62 121h80zM532 656h62v-397q0 -123 -68.5 -193.5t-184.5 -70.5q-117 0 -186 70.5t-69 193.5v397h63v-395q0 -101 51.5 -156t140.5 -55q88 0 139.5 54.5t51.5 154.5v397z" />
    <glyph glyph-name="Ucircumflex" unicode="&#xdb;" horiz-adv-x="681" 
d="M377 812l97 -126l-56 2l-77 75l-75 -75l-57 -2l98 126h70zM532 656h62v-397q0 -123 -68.5 -193.5t-184.5 -70.5q-117 0 -186 70.5t-69 193.5v397h63v-395q0 -101 51.5 -156t140.5 -55q88 0 139.5 54.5t51.5 154.5v397z" />
    <glyph glyph-name="Udieresis" unicode="&#xdc;" horiz-adv-x="681" 
d="M252 705q-17 0 -29.5 12t-12.5 29t12.5 29.5t29.5 12.5t29 -12.5t12 -29.5t-12 -29t-29 -12zM434 705q-17 0 -29.5 12t-12.5 29t12.5 29.5t29.5 12.5t29.5 -12.5t12.5 -29.5t-12.5 -29t-29.5 -12zM532 656h62v-397q0 -123 -68.5 -193.5t-184.5 -70.5q-117 0 -186 70.5
t-69 193.5v397h63v-395q0 -101 51.5 -156t140.5 -55q88 0 139.5 54.5t51.5 154.5v397z" />
    <glyph glyph-name="Yacute" unicode="&#xdd;" horiz-adv-x="573" 
d="M398 807l-88 -117l-54 -4l62 121h80zM551 656l-232 -406v-250h-63v246l-235 410h69l168 -288q22 -38 29 -67h2q7 29 29 67l168 288h65z" />
    <glyph glyph-name="Thorn" unicode="&#xde;" horiz-adv-x="586" 
d="M301 547q115 0 180 -57t65 -158q0 -100 -63 -156t-175 -56h-152v-120h-62v656h62v-109h145zM299 173q85 0 134 42.5t49 116.5q0 75 -49 118t-135 43h-142v-320h143z" />
    <glyph glyph-name="germandbls" unicode="&#xdf;" horiz-adv-x="546" 
d="M354 365q69 -17 107 -65t38 -117q0 -87 -51 -137.5t-150 -50.5q-28 0 -53 3t-37 6l-11 3l11 52q35 -13 91 -13q65 0 102 37.5t37 100.5q0 69 -45.5 109.5t-128.5 40.5h-26v50h11q57 1 94 43t37 106q0 57 -34.5 92t-89.5 35t-86 -34.5t-31 -98.5v-527h-61v536q0 79 48 127
t129 48q83 0 135 -49.5t52 -129.5q0 -53 -23.5 -96.5t-64.5 -70.5z" />
    <glyph glyph-name="agrave" unicode="&#xe0;" horiz-adv-x="525" 
d="M280 548l-53 -4l-88 147h80zM486 51l3 -51h-2q-2 -1 -6 -1.5t-8 -1.5t-10 -1.5t-11 -0.5q-71 0 -71 70v24h-2q-17 -36 -60 -65t-117 -29q-73 0 -113.5 33.5t-40.5 90.5q0 76 74.5 108.5t225.5 34.5l29 1v36q0 57 -35 90t-98 33q-58 0 -92 -25.5t-34 -70.5q0 -17 5 -27
l-57 -10q-6 17 -6 40q0 64 50.5 104t134.5 40q90 0 141.5 -46.5t51.5 -126.5v-213q0 -38 31 -38q9 0 17 2zM215 46q77 0 119.5 40t42.5 72v61l-29 -1q-121 -2 -179.5 -24.5t-58.5 -72.5q0 -75 105 -75z" />
    <glyph glyph-name="aacute" unicode="&#xe1;" horiz-adv-x="525" 
d="M334 691l-86 -143l-55 -4l62 147h79zM486 51l3 -51h-2q-2 -1 -6 -1.5t-8 -1.5t-10 -1.5t-11 -0.5q-71 0 -71 70v24h-2q-17 -36 -60 -65t-117 -29q-73 0 -113.5 33.5t-40.5 90.5q0 76 74.5 108.5t225.5 34.5l29 1v36q0 57 -35 90t-98 33q-58 0 -92 -25.5t-34 -70.5
q0 -17 5 -27l-57 -10q-6 17 -6 40q0 64 50.5 104t134.5 40q90 0 141.5 -46.5t51.5 -126.5v-213q0 -38 31 -38q9 0 17 2zM215 46q77 0 119.5 40t42.5 72v61l-29 -1q-121 -2 -179.5 -24.5t-58.5 -72.5q0 -75 105 -75z" />
    <glyph glyph-name="acircumflex" unicode="&#xe2;" horiz-adv-x="525" 
d="M244 641l-75 -95l-57 -2l98 146h70l97 -146l-56 2zM486 51l3 -51h-2q-2 -1 -6 -1.5t-8 -1.5t-10 -1.5t-11 -0.5q-71 0 -71 70v24h-2q-17 -36 -60 -65t-117 -29q-73 0 -113.5 33.5t-40.5 90.5q0 76 74.5 108.5t225.5 34.5l29 1v36q0 57 -35 90t-98 33q-58 0 -92 -25.5
t-34 -70.5q0 -17 5 -27l-57 -10q-6 17 -6 40q0 64 50.5 104t134.5 40q90 0 141.5 -46.5t51.5 -126.5v-213q0 -38 31 -38q9 0 17 2zM215 46q77 0 119.5 40t42.5 72v61l-29 -1q-121 -2 -179.5 -24.5t-58.5 -72.5q0 -75 105 -75z" />
    <glyph glyph-name="atilde" unicode="&#xe3;" horiz-adv-x="525" 
d="M142 557h-50q-3 15 -3 34q0 32 22 55t57 23t79 -29.5t58 -29.5q34 0 34 37l-4 27h50q4 -14 4 -34q0 -34 -20.5 -56t-59.5 -22q-31 0 -75 29.5t-59 29.5q-37 0 -37 -37zM486 51l3 -51h-2q-2 -1 -6 -1.5t-8 -1.5t-10 -1.5t-11 -0.5q-71 0 -71 70v24h-2q-17 -36 -60 -65
t-117 -29q-73 0 -113.5 33.5t-40.5 90.5q0 76 74.5 108.5t225.5 34.5l29 1v36q0 57 -35 90t-98 33q-58 0 -92 -25.5t-34 -70.5q0 -17 5 -27l-57 -10q-6 17 -6 40q0 64 50.5 104t134.5 40q90 0 141.5 -46.5t51.5 -126.5v-213q0 -38 31 -38q9 0 17 2zM215 46q77 0 119.5 40
t42.5 72v61l-29 -1q-121 -2 -179.5 -24.5t-58.5 -72.5q0 -75 105 -75z" />
    <glyph glyph-name="adieresis" unicode="&#xe4;" horiz-adv-x="525" 
d="M158 579q-18 0 -30 12.5t-12 29.5q0 18 12 30.5t30 12.5q17 0 29.5 -13t12.5 -30t-12.5 -29.5t-29.5 -12.5zM340 579q-17 0 -29.5 12.5t-12.5 29.5t12.5 30t29.5 13q18 0 30 -12.5t12 -30.5q0 -17 -12 -29.5t-30 -12.5zM486 51l3 -51h-2q-2 -1 -6 -1.5t-8 -1.5t-10 -1.5
t-11 -0.5q-71 0 -71 70v24h-2q-17 -36 -60 -65t-117 -29q-73 0 -113.5 33.5t-40.5 90.5q0 76 74.5 108.5t225.5 34.5l29 1v36q0 57 -35 90t-98 33q-58 0 -92 -25.5t-34 -70.5q0 -17 5 -27l-57 -10q-6 17 -6 40q0 64 50.5 104t134.5 40q90 0 141.5 -46.5t51.5 -126.5v-213
q0 -38 31 -38q9 0 17 2zM215 46q77 0 119.5 40t42.5 72v61l-29 -1q-121 -2 -179.5 -24.5t-58.5 -72.5q0 -75 105 -75z" />
    <glyph glyph-name="aring" unicode="&#xe5;" horiz-adv-x="525" 
d="M246 538q-34 0 -57.5 22.5t-23.5 56.5t23.5 57t57.5 23t57.5 -23t23.5 -57t-23.5 -56.5t-57.5 -22.5zM246 656q-17 0 -28 -11t-11 -28t11.5 -28t27.5 -11t27.5 11t11.5 28t-11 28t-28 11zM486 51l3 -51h-2q-2 -1 -6 -1.5t-8 -1.5t-10 -1.5t-11 -0.5q-71 0 -71 70v24h-2
q-17 -36 -60 -65t-117 -29q-73 0 -113.5 33.5t-40.5 90.5q0 76 74.5 108.5t225.5 34.5l29 1v36q0 57 -35 90t-98 33q-58 0 -92 -25.5t-34 -70.5q0 -17 5 -27l-57 -10q-6 17 -6 40q0 64 50.5 104t134.5 40q90 0 141.5 -46.5t51.5 -126.5v-213q0 -38 31 -38q9 0 17 2zM215 46
q77 0 119.5 40t42.5 72v61l-29 -1q-121 -2 -179.5 -24.5t-58.5 -72.5q0 -75 105 -75z" />
    <glyph glyph-name="ae" unicode="&#xe6;" horiz-adv-x="849" 
d="M600 473q93 0 148 -59t55 -153l-3 -40h-362q4 -80 51.5 -127.5t127.5 -47.5q88 0 138 61l38 -35q-62 -77 -181 -77q-73 0 -127.5 31.5t-82.5 88.5h-3q-13 -42 -61.5 -81t-135.5 -39q-73 0 -113.5 33.5t-40.5 90.5q0 76 74.5 108.5t225.5 34.5l29 1v36q0 57 -35 90t-98 33
q-58 0 -92 -25.5t-34 -70.5q0 -10 5 -30l-56 -10q-7 17 -7 43q0 64 50.5 104t134.5 40q61 0 106 -25.5t68 -68.5q63 94 181 94zM601 422q-65 0 -109 -42.5t-52 -113.5h302v4q0 70 -38.5 111t-102.5 41zM215 46q77 0 119.5 40t42.5 75v58l-29 -1q-121 -2 -179.5 -24.5
t-58.5 -72.5q0 -75 105 -75z" />
    <glyph glyph-name="ccedilla" unicode="&#xe7;" horiz-adv-x="513" 
d="M467 69q-60 -71 -174 -74l-12 -28q31 -3 54.5 -23t23.5 -55q0 -37 -27 -58t-69 -21q-24 0 -44.5 8t-29.5 16l-9 8l19 36q24 -25 64 -25q23 0 37 10.5t14 27.5q0 19 -21 33t-68 14l24 59q-92 11 -146.5 74.5t-54.5 160.5q0 107 63.5 174t164.5 67q86 0 137.5 -44.5
t51.5 -113.5l-3 -30l-57 -4q2 6 2 25q0 51 -35 83.5t-95 32.5q-75 0 -121.5 -52t-46.5 -137t47 -136t129 -51q92 0 146 61z" />
    <glyph glyph-name="egrave" unicode="&#xe8;" horiz-adv-x="521" 
d="M305 548l-53 -4l-88 147h80zM272 473q93 0 148 -59t55 -153l-3 -40h-362q4 -80 51.5 -127.5t126.5 -47.5q89 0 139 61l38 -35q-62 -77 -181 -77q-108 0 -172 65t-64 173t62.5 174t161.5 66zM272 422q-64 0 -108 -42.5t-52 -113.5h301v4q0 70 -38.5 111t-102.5 41z" />
    <glyph glyph-name="eacute" unicode="&#xe9;" horiz-adv-x="521" 
d="M359 691l-86 -143l-55 -4l62 147h79zM272 473q93 0 148 -59t55 -153l-3 -40h-362q4 -80 51.5 -127.5t126.5 -47.5q89 0 139 61l38 -35q-62 -77 -181 -77q-108 0 -172 65t-64 173t62.5 174t161.5 66zM272 422q-64 0 -108 -42.5t-52 -113.5h301v4q0 70 -38.5 111t-102.5 41
z" />
    <glyph glyph-name="ecircumflex" unicode="&#xea;" horiz-adv-x="521" 
d="M269 641l-75 -95l-57 -2l98 146h70l97 -146l-56 2zM272 473q93 0 148 -59t55 -153l-3 -40h-362q4 -80 51.5 -127.5t126.5 -47.5q89 0 139 61l38 -35q-62 -77 -181 -77q-108 0 -172 65t-64 173t62.5 174t161.5 66zM272 422q-64 0 -108 -42.5t-52 -113.5h301v4
q0 70 -38.5 111t-102.5 41z" />
    <glyph glyph-name="edieresis" unicode="&#xeb;" horiz-adv-x="521" 
d="M183 579q-18 0 -30 12.5t-12 29.5q0 18 12 30.5t30 12.5q17 0 29.5 -13t12.5 -30t-12.5 -29.5t-29.5 -12.5zM365 579q-17 0 -29.5 12.5t-12.5 29.5t12.5 30t29.5 13q18 0 30 -12.5t12 -30.5q0 -17 -12 -29.5t-30 -12.5zM272 473q93 0 148 -59t55 -153l-3 -40h-362
q4 -80 51.5 -127.5t126.5 -47.5q89 0 139 61l38 -35q-62 -77 -181 -77q-108 0 -172 65t-64 173t62.5 174t161.5 66zM272 422q-64 0 -108 -42.5t-52 -113.5h301v4q0 70 -38.5 111t-102.5 41z" />
    <glyph glyph-name="igrave" unicode="&#xec;" horiz-adv-x="220" 
d="M80 544l-88 147h80l61 -143zM80 0v468l61 2v-470h-61z" />
    <glyph glyph-name="iacute" unicode="&#xed;" horiz-adv-x="220" 
d="M134 548l-55 -4l62 147h79zM80 0v468l61 2v-470h-61z" />
    <glyph glyph-name="icircumflex" unicode="&#xee;" horiz-adv-x="220" 
d="M-26 544l98 146h70l97 -146l-56 2l-77 95l-75 -95zM80 0v468l61 2v-470h-61z" />
    <glyph glyph-name="idieresis" unicode="&#xef;" horiz-adv-x="220" 
d="M20 579q-18 0 -30 12.5t-12 29.5q0 18 12 30.5t30 12.5q17 0 29.5 -13t12.5 -30t-12.5 -29.5t-29.5 -12.5zM202 579q-17 0 -29.5 12.5t-12.5 29.5t12.5 30t29.5 13q18 0 30 -12.5t12 -30.5q0 -17 -12 -29.5t-30 -12.5zM80 0v468l61 2v-470h-61z" />
    <glyph glyph-name="eth" unicode="&#xf0;" horiz-adv-x="560" 
d="M385 602q116 -126 116 -353q0 -120 -63.5 -187.5t-170.5 -67.5q-94 0 -156 59.5t-62 157.5q0 106 60 166t153 60q72 0 118 -33t60 -74q-11 143 -109 241l-89 -52l-23 40l76 44q-61 45 -125 52l35 51q83 -19 145 -71l90 53l23 -40zM271 46q78 0 124 48.5t46 127.5
q0 70 -47.5 117t-121.5 47q-71 0 -117.5 -47.5t-46.5 -126.5q0 -74 46 -120t117 -46z" />
    <glyph glyph-name="ntilde" unicode="&#xf1;" horiz-adv-x="564" 
d="M180 557h-50q-3 15 -3 34q0 32 22 55t57 23t79 -29.5t58 -29.5q34 0 34 37l-4 27h50q4 -14 4 -34q0 -34 -20.5 -56t-59.5 -22q-31 0 -75 29.5t-59 29.5q-37 0 -37 -37zM309 473q83 0 132.5 -51.5t49.5 -134.5v-287h-61v287q0 61 -35 98t-95 37q-74 0 -117.5 -53
t-43.5 -113v-256h-61v468l43 2q9 -58 9 -119h2q21 53 66 87.5t111 34.5z" />
    <glyph glyph-name="ograve" unicode="&#xf2;" horiz-adv-x="562" 
d="M262 544l-88 147h80l61 -143zM281 473q105 0 169 -66.5t64 -173.5t-64 -172.5t-169 -65.5t-169 65.5t-64 172.5t64 173.5t169 66.5zM281 46q77 0 124 51.5t47 135.5t-47 136.5t-124 52.5t-124.5 -52.5t-47.5 -136.5q0 -83 47.5 -135t124.5 -52z" />
    <glyph glyph-name="oacute" unicode="&#xf3;" horiz-adv-x="562" 
d="M283 548l-55 -4l62 147h79zM281 473q105 0 169 -66.5t64 -173.5t-64 -172.5t-169 -65.5t-169 65.5t-64 172.5t64 173.5t169 66.5zM281 46q77 0 124 51.5t47 135.5t-47 136.5t-124 52.5t-124.5 -52.5t-47.5 -136.5q0 -83 47.5 -135t124.5 -52z" />
    <glyph glyph-name="ocircumflex" unicode="&#xf4;" horiz-adv-x="562" 
d="M147 544l98 146h70l97 -146l-56 2l-77 95l-75 -95zM281 473q105 0 169 -66.5t64 -173.5t-64 -172.5t-169 -65.5t-169 65.5t-64 172.5t64 173.5t169 66.5zM281 46q77 0 124 51.5t47 135.5t-47 136.5t-124 52.5t-124.5 -52.5t-47.5 -136.5q0 -83 47.5 -135t124.5 -52z" />
    <glyph glyph-name="otilde" unicode="&#xf5;" horiz-adv-x="562" 
d="M420 674q4 -14 4 -34q0 -34 -20.5 -56t-59.5 -22q-31 0 -75 29.5t-59 29.5q-37 0 -37 -37l4 -27h-50q-3 15 -3 34q0 32 22 55t57 23t79 -29.5t58 -29.5q34 0 34 37l-4 27h50zM281 473q105 0 169 -66.5t64 -173.5t-64 -172.5t-169 -65.5t-169 65.5t-64 172.5t64 173.5
t169 66.5zM281 46q77 0 124 51.5t47 135.5t-47 136.5t-124 52.5t-124.5 -52.5t-47.5 -136.5q0 -83 47.5 -135t124.5 -52z" />
    <glyph glyph-name="odieresis" unicode="&#xf6;" horiz-adv-x="562" 
d="M193 579q-18 0 -30 12.5t-12 29.5q0 18 12 30.5t30 12.5q17 0 29.5 -13t12.5 -30t-12.5 -29.5t-29.5 -12.5zM375 579q-17 0 -29.5 12.5t-12.5 29.5t12.5 30t29.5 13q18 0 30 -12.5t12 -30.5q0 -17 -12 -29.5t-30 -12.5zM281 473q105 0 169 -66.5t64 -173.5t-64 -172.5
t-169 -65.5t-169 65.5t-64 172.5t64 173.5t169 66.5zM281 46q77 0 124 51.5t47 135.5t-47 136.5t-124 52.5t-124.5 -52.5t-47.5 -136.5q0 -83 47.5 -135t124.5 -52z" />
    <glyph glyph-name="divide" unicode="&#xf7;" horiz-adv-x="488" 
d="M204 435q0 17 13 30t30 13q18 0 30.5 -13t12.5 -30q0 -18 -12.5 -30.5t-30.5 -12.5q-17 0 -30 12.5t-13 30.5zM67 222v46h354v-46h-354zM204 40q0 17 13 30t30 13q18 0 30.5 -13t12.5 -30q0 -18 -12.5 -30.5t-30.5 -12.5q-17 0 -30 12.5t-13 30.5z" />
    <glyph glyph-name="oslash" unicode="&#xf8;" horiz-adv-x="562" 
d="M430 425q84 -68 84 -192q0 -107 -64 -172.5t-169 -65.5q-62 0 -112 25l-31 -48h-51l45 70q-84 67 -84 191q0 107 64 173.5t169 66.5q64 0 113 -26l31 48h50zM109 233q0 -90 55 -142l201 310q-36 21 -84 21q-77 0 -124.5 -52.5t-47.5 -136.5zM281 46q77 0 124 51.5
t47 135.5q0 91 -54 143l-200 -310q37 -20 83 -20z" />
    <glyph glyph-name="ugrave" unicode="&#xf9;" horiz-adv-x="551" 
d="M306 548l-53 -4l-88 147h80zM413 468h60v-468l-44 -2q-9 58 -9 113h-1q-20 -51 -63.5 -83.5t-105.5 -32.5q-82 0 -129.5 50.5t-47.5 134.5v288h61v-288q0 -62 32.5 -98t92.5 -36q70 0 112 53t42 113v256z" />
    <glyph glyph-name="uacute" unicode="&#xfa;" horiz-adv-x="551" 
d="M360 691l-86 -143l-55 -4l62 147h79zM413 468h60v-468l-44 -2q-9 58 -9 113h-1q-20 -51 -63.5 -83.5t-105.5 -32.5q-82 0 -129.5 50.5t-47.5 134.5v288h61v-288q0 -62 32.5 -98t92.5 -36q70 0 112 53t42 113v256z" />
    <glyph glyph-name="ucircumflex" unicode="&#xfb;" horiz-adv-x="551" 
d="M270 641l-75 -95l-57 -2l98 146h70l97 -146l-56 2zM413 468h60v-468l-44 -2q-9 58 -9 113h-1q-20 -51 -63.5 -83.5t-105.5 -32.5q-82 0 -129.5 50.5t-47.5 134.5v288h61v-288q0 -62 32.5 -98t92.5 -36q70 0 112 53t42 113v256z" />
    <glyph glyph-name="udieresis" unicode="&#xfc;" horiz-adv-x="551" 
d="M184 579q-18 0 -30 12.5t-12 29.5q0 18 12 30.5t30 12.5q17 0 29.5 -13t12.5 -30t-12.5 -29.5t-29.5 -12.5zM366 579q-17 0 -29.5 12.5t-12.5 29.5t12.5 30t29.5 13q18 0 30 -12.5t12 -30.5q0 -17 -12 -29.5t-30 -12.5zM413 468h60v-468l-44 -2q-9 58 -9 113h-1
q-20 -51 -63.5 -83.5t-105.5 -32.5q-82 0 -129.5 50.5t-47.5 134.5v288h61v-288q0 -62 32.5 -98t92.5 -36q70 0 112 53t42 113v256z" />
    <glyph glyph-name="yacute" unicode="&#xfd;" horiz-adv-x="504" 
d="M254 548l-55 -4l62 147h79zM251 -97q-20 -54 -51.5 -83t-84.5 -29q-17 0 -33 3.5t-23 6.5l-7 3l11 51q20 -11 48 -11q34 0 52.5 18.5t32.5 55.5l29 71l-200 479h67l152 -373q9 -18 11 -34h2q4 19 11 34l153 373h62z" />
    <glyph glyph-name="thorn" unicode="&#xfe;" horiz-adv-x="583" 
d="M315 473q98 0 158.5 -66t60.5 -174q0 -107 -61 -172.5t-161 -65.5q-59 0 -104 27.5t-69 71.5v-298h-61v901h59v-331q23 48 68 77.5t110 29.5zM308 46q75 0 120 51.5t45 135.5q0 85 -46 137t-122 52q-77 0 -121.5 -53t-44.5 -115v-42q0 -62 45 -114t124 -52z" />
    <glyph glyph-name="ydieresis" unicode="&#xff;" horiz-adv-x="504" 
d="M164 579q-18 0 -30 12.5t-12 29.5q0 18 12 30.5t30 12.5q17 0 29.5 -13t12.5 -30t-12.5 -29.5t-29.5 -12.5zM346 579q-17 0 -29.5 12.5t-12.5 29.5t12.5 30t29.5 13q18 0 30 -12.5t12 -30.5q0 -17 -12 -29.5t-30 -12.5zM251 -97q-20 -54 -51.5 -83t-84.5 -29
q-17 0 -33 3.5t-23 6.5l-7 3l11 51q20 -11 48 -11q34 0 52.5 18.5t32.5 55.5l29 71l-200 479h67l152 -373q9 -18 11 -34h2q4 19 11 34l153 373h62z" />
    <glyph glyph-name="Amacron" unicode="&#x100;" horiz-adv-x="606" 
d="M440 756v-46h-266v46h266zM519 0l-68 178h-298l-67 -178h-65l250 656h63l250 -656h-65zM173 231h258l-113 299q-5 14 -15 50h-2q-5 -21 -15 -50z" />
    <glyph glyph-name="amacron" unicode="&#x101;" horiz-adv-x="525" 
d="M381 644v-47h-264v47h264zM486 51l3 -51h-2q-2 -1 -6 -1.5t-8 -1.5t-10 -1.5t-11 -0.5q-71 0 -71 70v24h-2q-17 -36 -60 -65t-117 -29q-73 0 -113.5 33.5t-40.5 90.5q0 76 74.5 108.5t225.5 34.5l29 1v36q0 57 -35 90t-98 33q-58 0 -92 -25.5t-34 -70.5q0 -17 5 -27
l-57 -10q-6 17 -6 40q0 64 50.5 104t134.5 40q90 0 141.5 -46.5t51.5 -126.5v-213q0 -38 31 -38q9 0 17 2zM215 46q77 0 119.5 40t42.5 72v61l-29 -1q-121 -2 -179.5 -24.5t-58.5 -72.5q0 -75 105 -75z" />
    <glyph glyph-name="Abreve" unicode="&#x102;" horiz-adv-x="606" 
d="M302 685q-53 0 -84.5 33t-31.5 84h48q0 -33 18 -52t50 -20q32 0 50 19.5t18 52.5h48q0 -51 -31.5 -84t-84.5 -33zM519 0l-68 178h-298l-67 -178h-65l250 656h63l250 -656h-65zM173 231h258l-113 299q-5 14 -15 50h-2q-5 -21 -15 -50z" />
    <glyph glyph-name="abreve" unicode="&#x103;" horiz-adv-x="525" 
d="M246 543q-59 0 -92.5 38t-33.5 99h52q0 -44 19.5 -67.5t54.5 -24.5q34 0 54 24t20 68h52q0 -61 -33.5 -99t-92.5 -38zM486 51l3 -51h-2q-2 -1 -6 -1.5t-8 -1.5t-10 -1.5t-11 -0.5q-71 0 -71 70v24h-2q-17 -36 -60 -65t-117 -29q-73 0 -113.5 33.5t-40.5 90.5
q0 76 74.5 108.5t225.5 34.5l29 1v36q0 57 -35 90t-98 33q-58 0 -92 -25.5t-34 -70.5q0 -17 5 -27l-57 -10q-6 17 -6 40q0 64 50.5 104t134.5 40q90 0 141.5 -46.5t51.5 -126.5v-213q0 -38 31 -38q9 0 17 2zM215 46q77 0 119.5 40t42.5 72v61l-29 -1q-121 -2 -179.5 -24.5
t-58.5 -72.5q0 -75 105 -75z" />
    <glyph glyph-name="Aogonek" unicode="&#x104;" horiz-adv-x="606" 
d="M598 -125l18 -36q-26 -30 -75 -30q-40 0 -65 22.5t-25 59.5q0 67 67 111l-67 176h-298l-67 -178h-65l250 656h63l250 -656q-3 -1 -9 -3.5t-20.5 -11t-25.5 -19t-20 -28.5t-9 -38q0 -22 13.5 -35t34.5 -13q13 0 25.5 6t18.5 12zM173 231h258l-113 299q-5 14 -15 50h-2
q-5 -21 -15 -50z" />
    <glyph glyph-name="aogonek" unicode="&#x105;" horiz-adv-x="525" 
d="M503 -125l18 -36q-26 -30 -75 -30q-40 0 -65 22.5t-25 59.5q0 66 65 109q-40 15 -40 65v24h-2q-17 -36 -60 -65t-117 -29q-73 0 -113.5 33.5t-40.5 90.5q0 76 74.5 108.5t225.5 34.5l29 1v36q0 57 -35 90t-98 33q-58 0 -92 -25.5t-34 -70.5q0 -17 5 -27l-57 -10
q-6 17 -6 40q0 64 50.5 104t134.5 40q90 0 141.5 -46.5t51.5 -126.5v-213q0 -38 31 -38q9 0 17 2l3 -51q-3 -1 -9 -3.5t-20.5 -11t-25.5 -19t-20 -28.5t-9 -38q0 -22 13.5 -35t34.5 -13q13 0 25.5 6t18.5 12zM215 46q77 0 119.5 40t42.5 72v61l-29 -1q-121 -2 -179.5 -24.5
t-58.5 -72.5q0 -75 105 -75z" />
    <glyph glyph-name="Cacute" unicode="&#x106;" horiz-adv-x="635" 
d="M371 690l-54 -4l62 121h80zM347 662q65 0 114.5 -22t75.5 -56.5t39 -67.5t14 -63l-60 -10q0 21 -9.5 47t-28.5 53.5t-57 45.5t-87 18q-100 0 -165 -75t-65 -204q0 -135 68.5 -206.5t175.5 -71.5q120 0 195 102l39 -39q-87 -118 -236 -118q-138 0 -221.5 89t-83.5 244
q0 152 81.5 243t210.5 91z" />
    <glyph glyph-name="cacute" unicode="&#x107;" horiz-adv-x="513" 
d="M278 548l-55 -4l62 147h79zM276 473q86 0 137.5 -44.5t51.5 -113.5l-3 -30l-57 -4q2 6 2 25q0 51 -35 83.5t-95 32.5q-75 0 -121.5 -52t-46.5 -137t47 -136t129 -51q92 0 146 61l36 -38q-63 -74 -184 -74q-107 0 -171 65.5t-64 171.5q0 107 63.5 174t164.5 67z" />
    <glyph glyph-name="Ccircumflex" unicode="&#x108;" horiz-adv-x="635" 
d="M384 812l97 -126l-56 2l-77 75l-75 -75l-57 -2l98 126h70zM347 662q65 0 114.5 -22t75.5 -56.5t39 -67.5t14 -63l-60 -10q0 21 -9.5 47t-28.5 53.5t-57 45.5t-87 18q-100 0 -165 -75t-65 -204q0 -135 68.5 -206.5t175.5 -71.5q120 0 195 102l39 -39q-87 -118 -236 -118
q-138 0 -221.5 89t-83.5 244q0 152 81.5 243t210.5 91z" />
    <glyph glyph-name="ccircumflex" unicode="&#x109;" horiz-adv-x="513" 
d="M142 544l98 146h70l97 -146l-56 2l-77 95l-75 -95zM276 473q86 0 137.5 -44.5t51.5 -113.5l-3 -30l-57 -4q2 6 2 25q0 51 -35 83.5t-95 32.5q-75 0 -121.5 -52t-46.5 -137t47 -136t129 -51q92 0 146 61l36 -38q-63 -74 -184 -74q-107 0 -171 65.5t-64 171.5
q0 107 63.5 174t164.5 67z" />
    <glyph glyph-name="Cdotaccent" unicode="&#x10a;" horiz-adv-x="635" 
d="M348 698q-20 0 -33.5 13.5t-13.5 32.5q0 20 13.5 33.5t33.5 13.5t34 -14t14 -33t-14 -32.5t-34 -13.5zM347 662q65 0 114.5 -22t75.5 -56.5t39 -67.5t14 -63l-60 -10q0 21 -9.5 47t-28.5 53.5t-57 45.5t-87 18q-100 0 -165 -75t-65 -204q0 -135 68.5 -206.5t175.5 -71.5
q120 0 195 102l39 -39q-87 -118 -236 -118q-138 0 -221.5 89t-83.5 244q0 152 81.5 243t210.5 91z" />
    <glyph glyph-name="cdotaccent" unicode="&#x10b;" horiz-adv-x="513" 
d="M324 621q0 -19 -14 -32.5t-34 -13.5t-33.5 13.5t-13.5 32.5q0 20 13.5 33.5t33.5 13.5t34 -13.5t14 -33.5zM276 473q86 0 137.5 -44.5t51.5 -113.5l-3 -30l-57 -4q2 6 2 25q0 51 -35 83.5t-95 32.5q-75 0 -121.5 -52t-46.5 -137t47 -136t129 -51q92 0 146 61l36 -38
q-63 -74 -184 -74q-107 0 -171 65.5t-64 171.5q0 107 63.5 174t164.5 67z" />
    <glyph glyph-name="Ccaron" unicode="&#x10c;" horiz-adv-x="635" 
d="M216 817l57 -2l75 -75l77 75l56 2l-97 -126h-70zM347 662q65 0 114.5 -22t75.5 -56.5t39 -67.5t14 -63l-60 -10q0 21 -9.5 47t-28.5 53.5t-57 45.5t-87 18q-100 0 -165 -75t-65 -204q0 -135 68.5 -206.5t175.5 -71.5q120 0 195 102l39 -39q-87 -118 -236 -118
q-138 0 -221.5 89t-83.5 244q0 152 81.5 243t210.5 91z" />
    <glyph glyph-name="ccaron" unicode="&#x10d;" horiz-adv-x="513" 
d="M144 690l57 -2l75 -95l77 95l56 2l-97 -146h-70zM276 473q86 0 137.5 -44.5t51.5 -113.5l-3 -30l-57 -4q2 6 2 25q0 51 -35 83.5t-95 32.5q-75 0 -121.5 -52t-46.5 -137t47 -136t129 -51q92 0 146 61l36 -38q-63 -74 -184 -74q-107 0 -171 65.5t-64 171.5q0 107 63.5 174
t164.5 67z" />
    <glyph glyph-name="Dcaron" unicode="&#x10e;" horiz-adv-x="661" 
d="M325 689h-70l-98 126l57 -2l75 -75l77 75l56 2zM272 656q156 0 245 -87t89 -241q0 -160 -79 -244t-218 -84h-215v656h178zM308 54q109 0 172 71t63 203q0 133 -71.5 203.5t-199.5 70.5h-116v-548h152z" />
    <glyph glyph-name="dcaron" unicode="&#x10f;" horiz-adv-x="595" 
d="M607 717q21 0 35 -14t14 -38q0 -27 -7 -52t-17 -40.5t-20.5 -27.5t-17.5 -17l-7 -5l-25 33q5 3 13 9.5t21 24.5t13 36q-20 0 -34 13t-14 32t13.5 32.5t32.5 13.5zM444 376v328h60v-704l-44 -2q-8 80 -7 120h-1q-20 -54 -67.5 -88.5t-116.5 -34.5q-98 0 -159 66t-61 174
q0 107 61.5 173t161.5 66q61 0 105.5 -27t67.5 -71zM278 47q77 0 121.5 53t44.5 114v42q0 62 -45 114t-125 52q-74 0 -119 -51.5t-45 -135.5q0 -85 46 -136.5t122 -51.5z" />
    <glyph glyph-name="Dcroat" unicode="&#x110;" horiz-adv-x="661" 
d="M272 656q156 0 245 -87t89 -241q0 -160 -79 -244t-218 -84h-215v301h-84v51h84v304h178zM308 54q109 0 172 71t63 203q0 133 -71.5 203.5t-199.5 70.5h-116v-250h187v-51h-187v-247h152z" />
    <glyph glyph-name="dcroat" unicode="&#x111;" horiz-adv-x="583" 
d="M565 604v-45h-61v-559l-44 -2q-8 80 -7 120h-1q-20 -54 -67.5 -88.5t-116.5 -34.5q-98 0 -159 66t-61 174q0 107 61.5 173t161.5 66q61 0 105.5 -27t67.5 -71v183h-147v45h147v100h60v-100h61zM278 47q77 0 121.5 53t44.5 114v42q0 62 -45 114t-125 52q-74 0 -119 -51.5
t-45 -135.5q0 -85 46 -136.5t122 -51.5z" />
    <glyph glyph-name="Emacron" unicode="&#x112;" horiz-adv-x="544" 
d="M444 756v-46h-266v46h266zM491 602h-335v-234h302v-53h-302v-261h335v-54h-397v656h397v-54z" />
    <glyph glyph-name="emacron" unicode="&#x113;" horiz-adv-x="521" 
d="M406 644v-47h-264v47h264zM272 473q93 0 148 -59t55 -153l-3 -40h-362q4 -80 51.5 -127.5t126.5 -47.5q89 0 139 61l38 -35q-62 -77 -181 -77q-108 0 -172 65t-64 173t62.5 174t161.5 66zM272 422q-64 0 -108 -42.5t-52 -113.5h301v4q0 70 -38.5 111t-102.5 41z" />
    <glyph glyph-name="Ebreve" unicode="&#x114;" horiz-adv-x="544" 
d="M306 685q-53 0 -84.5 33t-31.5 84h48q0 -33 18 -52t50 -20q32 0 50 19.5t18 52.5h48q0 -51 -31.5 -84t-84.5 -33zM491 602h-335v-234h302v-53h-302v-261h335v-54h-397v656h397v-54z" />
    <glyph glyph-name="ebreve" unicode="&#x115;" horiz-adv-x="521" 
d="M271 543q-59 0 -92.5 38t-33.5 99h52q0 -44 19.5 -67.5t54.5 -24.5q34 0 54 24t20 68h52q0 -61 -33.5 -99t-92.5 -38zM272 473q93 0 148 -59t55 -153l-3 -40h-362q4 -80 51.5 -127.5t126.5 -47.5q89 0 139 61l38 -35q-62 -77 -181 -77q-108 0 -172 65t-64 173t62.5 174
t161.5 66zM272 422q-64 0 -108 -42.5t-52 -113.5h301v4q0 70 -38.5 111t-102.5 41z" />
    <glyph glyph-name="Edotaccent" unicode="&#x116;" horiz-adv-x="544" 
d="M306 698q-20 0 -33.5 13.5t-13.5 32.5q0 20 13.5 33.5t33.5 13.5t34 -14t14 -33t-14 -32.5t-34 -13.5zM491 602h-335v-234h302v-53h-302v-261h335v-54h-397v656h397v-54z" />
    <glyph glyph-name="edotaccent" unicode="&#x117;" horiz-adv-x="521" 
d="M271 575q-20 0 -33.5 13.5t-13.5 32.5q0 20 13.5 33.5t33.5 13.5t34 -13.5t14 -33.5q0 -19 -14 -32.5t-34 -13.5zM272 473q93 0 148 -59t55 -153l-3 -40h-362q4 -80 51.5 -127.5t126.5 -47.5q89 0 139 61l38 -35q-62 -77 -181 -77q-108 0 -172 65t-64 173t62.5 174
t161.5 66zM272 422q-64 0 -108 -42.5t-52 -113.5h301v4q0 70 -38.5 111t-102.5 41z" />
    <glyph glyph-name="Eogonek" unicode="&#x118;" horiz-adv-x="544" 
d="M505 -125l18 -36q-26 -30 -75 -30q-40 0 -65 22.5t-25 59.5q0 68 65 109h-329v656h397v-54h-335v-234h302v-53h-302v-261h335v-54q-3 -1 -9 -3.5t-20.5 -11t-25.5 -19t-20 -28.5t-9 -38q0 -22 13.5 -35t34.5 -13q13 0 25.5 6t18.5 12z" />
    <glyph glyph-name="eogonek" unicode="&#x119;" horiz-adv-x="521" 
d="M272 473q93 0 148 -59t55 -153l-3 -40h-362q4 -80 51.5 -127.5t126.5 -47.5q89 0 139 61l38 -35q-36 -44 -93 -64q-59 -33 -59 -88q0 -22 13.5 -35t34.5 -13q13 0 25.5 6t18.5 12l6 5l18 -36q-26 -30 -75 -30q-40 0 -65 22.5t-25 59.5q0 49 35 84h-15q-108 0 -172 65
t-64 173t62.5 174t161.5 66zM272 422q-64 0 -108 -42.5t-52 -113.5h301v4q0 70 -38.5 111t-102.5 41z" />
    <glyph glyph-name="Ecaron" unicode="&#x11a;" horiz-adv-x="544" 
d="M342 691h-70l-98 126l57 -2l75 -75l77 75l56 2zM491 602h-335v-234h302v-53h-302v-261h335v-54h-397v656h397v-54z" />
    <glyph glyph-name="ecaron" unicode="&#x11b;" horiz-adv-x="521" 
d="M307 544h-70l-98 146l57 -2l75 -95l77 95l56 2zM272 473q93 0 148 -59t55 -153l-3 -40h-362q4 -80 51.5 -127.5t126.5 -47.5q89 0 139 61l38 -35q-62 -77 -181 -77q-108 0 -172 65t-64 173t62.5 174t161.5 66zM272 422q-64 0 -108 -42.5t-52 -113.5h301v4q0 70 -38.5 111
t-102.5 41z" />
    <glyph glyph-name="Gcircumflex" unicode="&#x11c;" horiz-adv-x="658" 
d="M344 763l-75 -75l-57 -2l98 126h70l97 -126l-56 2zM309 314h284v-314h-38q-8 35 -12 104q-55 -109 -204 -109q-128 0 -206 91.5t-78 241.5t80.5 242t208.5 92q65 0 115 -21.5t76.5 -54.5t39 -65t13.5 -62l-59 -10q0 21 -9.5 46t-29 51.5t-57.5 43.5t-88 17
q-100 0 -163.5 -75.5t-63.5 -203.5q0 -125 62 -201.5t167 -76.5q93 0 143 52t50 116v43h-231v53z" />
    <glyph glyph-name="gcircumflex" unicode="&#x11d;" horiz-adv-x="521" 
d="M265 641l-75 -95l-57 -2l98 146h70l97 -146l-56 2zM325 64q81 0 127 -34t46 -95q0 -66 -59.5 -105t-177.5 -39q-114 0 -175 34.5t-61 96.5q0 76 86 106q-54 22 -54 77q0 29 19.5 49t48.5 27q-57 47 -57 125q0 75 52.5 121t137.5 46q81 0 132 -40q53 18 53 102l53 -11
q0 -52 -26.5 -81.5t-54.5 -33.5q35 -43 35 -103q0 -75 -52.5 -121t-138.5 -46q-50 0 -90 17q-57 -8 -57 -44q0 -28 27.5 -38t83.5 -10h102zM259 423q-59 0 -94.5 -32t-35.5 -85t35.5 -85t93.5 -32q59 0 95 32t36 85t-36 85t-94 32zM261 -157q177 0 177 92q0 77 -123 77h-101
h-9q-58 0 -89 -22.5t-31 -59.5q0 -87 176 -87z" />
    <glyph glyph-name="Gbreve" unicode="&#x11e;" horiz-adv-x="658" 
d="M344 685q-53 0 -84.5 33t-31.5 84h48q0 -33 18 -52t50 -20q32 0 50 19.5t18 52.5h48q0 -51 -31.5 -84t-84.5 -33zM309 314h284v-314h-38q-8 35 -12 104q-55 -109 -204 -109q-128 0 -206 91.5t-78 241.5t80.5 242t208.5 92q65 0 115 -21.5t76.5 -54.5t39 -65t13.5 -62
l-59 -10q0 21 -9.5 46t-29 51.5t-57.5 43.5t-88 17q-100 0 -163.5 -75.5t-63.5 -203.5q0 -125 62 -201.5t167 -76.5q93 0 143 52t50 116v43h-231v53z" />
    <glyph glyph-name="gbreve" unicode="&#x11f;" horiz-adv-x="521" 
d="M267 543q-59 0 -92.5 38t-33.5 99h52q0 -44 19.5 -67.5t54.5 -24.5q34 0 54 24t20 68h52q0 -61 -33.5 -99t-92.5 -38zM325 64q81 0 127 -34t46 -95q0 -66 -59.5 -105t-177.5 -39q-114 0 -175 34.5t-61 96.5q0 76 86 106q-54 23 -54 77q0 29 19.5 49t48.5 27
q-57 47 -57 125q0 75 52.5 121t137.5 46q81 0 132 -40q53 18 53 102l53 -11q0 -52 -26.5 -81.5t-54.5 -33.5q35 -43 35 -103q0 -75 -52.5 -121t-138.5 -46q-50 0 -90 17q-57 -8 -57 -44q0 -28 27.5 -38t83.5 -10h102zM259 423q-59 0 -94.5 -32t-35.5 -85t35.5 -85t93.5 -32
q59 0 95 32t36 85t-36 85t-94 32zM261 -157q177 0 177 92q0 77 -123 77h-108q-61 0 -91.5 -22.5t-30.5 -59.5q0 -87 176 -87z" />
    <glyph glyph-name="Gdotaccent" unicode="&#x120;" horiz-adv-x="658" 
d="M344 698q-20 0 -33.5 13.5t-13.5 32.5q0 20 13.5 33.5t33.5 13.5t34 -14t14 -33t-14 -32.5t-34 -13.5zM309 314h284v-314h-38q-8 35 -12 104q-55 -109 -204 -109q-128 0 -206 91.5t-78 241.5t80.5 242t208.5 92q65 0 115 -21.5t76.5 -54.5t39 -65t13.5 -62l-59 -10
q0 21 -9.5 46t-29 51.5t-57.5 43.5t-88 17q-100 0 -163.5 -75.5t-63.5 -203.5q0 -125 62 -201.5t167 -76.5q93 0 143 52t50 116v43h-231v53z" />
    <glyph glyph-name="gdotaccent" unicode="&#x121;" horiz-adv-x="521" 
d="M267 575q-20 0 -33.5 13.5t-13.5 32.5q0 20 13.5 33.5t33.5 13.5t34 -13.5t14 -33.5q0 -19 -14 -32.5t-34 -13.5zM325 64q81 0 127 -34t46 -95q0 -66 -59.5 -105t-177.5 -39q-114 0 -175 34.5t-61 96.5q0 76 86 106q-54 23 -54 77q0 29 19.5 49t48.5 27q-57 47 -57 125
q0 75 52.5 121t137.5 46q81 0 132 -40q53 18 53 102l53 -11q0 -52 -26.5 -81.5t-54.5 -33.5q35 -43 35 -103q0 -75 -52.5 -121t-138.5 -46q-50 0 -90 17q-57 -8 -57 -44q0 -28 27.5 -38t83.5 -10h102zM259 423q-59 0 -94.5 -32t-35.5 -85t35.5 -85t93.5 -32q59 0 95 32
t36 85t-36 85t-94 32zM261 -157q177 0 177 92q0 77 -123 77h-108q-61 0 -91.5 -22.5t-30.5 -59.5q0 -87 176 -87z" />
    <glyph glyph-name="Gcommaaccent" unicode="&#x122;" horiz-adv-x="658" 
d="M309 314h284v-314h-38q-8 35 -12 104q-55 -109 -204 -109q-128 0 -206 91.5t-78 241.5t80.5 242t208.5 92q65 0 115 -21.5t76.5 -54.5t39 -65t13.5 -62l-59 -10q0 21 -9.5 46t-29 51.5t-57.5 43.5t-88 17q-100 0 -163.5 -75.5t-63.5 -203.5q0 -125 62 -201.5t167 -76.5
q93 0 143 52t50 116v43h-231v53zM339 -43q20 0 34 -14.5t14 -39.5t-7.5 -47t-17.5 -35t-20.5 -22.5t-17.5 -12.5l-8 -4l-21 31l12.5 7.5t20.5 18.5t13 27q-20 0 -34 13t-14 32t13.5 32.5t32.5 13.5z" />
    <glyph glyph-name="gcommaaccent" unicode="&#x123;" horiz-adv-x="521" 
d="M267 511q-20 0 -34 14.5t-14 39.5q0 40 18 70.5t35 40.5l18 10l21 -31l-12.5 -7.5t-20.5 -18.5t-13 -27q20 0 34 -13t14 -32t-13.5 -32.5t-32.5 -13.5zM325 64q81 0 127 -34t46 -95q0 -66 -59.5 -105t-177.5 -39q-114 0 -175 34.5t-61 96.5q0 76 86 106q-54 23 -54 77
q0 29 19.5 49t48.5 27q-57 47 -57 125q0 75 52.5 121t137.5 46q81 0 132 -40q53 18 53 102l53 -11q0 -52 -26.5 -81.5t-54.5 -33.5q35 -43 35 -103q0 -75 -52.5 -121t-138.5 -46q-50 0 -90 17q-57 -8 -57 -44q0 -28 27.5 -38t83.5 -10h102zM259 423q-59 0 -94.5 -32
t-35.5 -85t35.5 -85t93.5 -32q59 0 95 32t36 85t-36 85t-94 32zM261 -157q177 0 177 92q0 77 -123 77h-108q-61 0 -91.5 -22.5t-30.5 -59.5q0 -87 176 -87z" />
    <glyph glyph-name="Hcircumflex" unicode="&#x124;" horiz-adv-x="705" 
d="M359 763l-75 -75l-57 -2l98 126h70l97 -126l-56 2zM549 656h63v-656h-63v315h-393v-315h-62v656h62v-288h393v288z" />
    <glyph glyph-name="Hbar" unicode="&#x126;" horiz-adv-x="705" 
d="M661 568v-51h-49v-517h-63v315h-393v-315h-62v517h-58v51h58v88h62v-88h393v88h63v-88h49zM549 368v149h-393v-149h393z" />
    <glyph glyph-name="hbar" unicode="&#x127;" horiz-adv-x="564" 
d="M310 473q83 0 132 -51.5t49 -134.5v-287h-61v287q0 61 -34.5 98t-95.5 37q-74 0 -117.5 -52.5t-43.5 -114.5v-255h-61v559h-59v45h59v102h60v-102h149v-45h-149v-194q22 47 66 77.5t106 30.5z" />
    <glyph glyph-name="Itilde" unicode="&#x128;" horiz-adv-x="250" 
d="M264 789q4 -14 4 -34q0 -33 -20 -55.5t-57 -22.5q-32 0 -77.5 29.5t-61.5 29.5t-25.5 -9.5t-9.5 -25.5l4 -25h-50q-3 15 -3 33q0 34 21.5 54.5t57.5 20.5q35 0 79 -29.5t58 -29.5q34 0 34 37l-4 27h50zM94 0v656h62v-656h-62z" />
    <glyph glyph-name="itilde" unicode="&#x129;" horiz-adv-x="220" 
d="M247 674q4 -14 4 -34q0 -34 -20.5 -56t-59.5 -22q-31 0 -75 29.5t-59 29.5q-37 0 -37 -37l4 -27h-50q-3 15 -3 34q0 32 22 55t57 23t79 -29.5t58 -29.5q34 0 34 37l-4 27h50zM80 0v468l61 2v-470h-61z" />
    <glyph glyph-name="Imacron" unicode="&#x12a;" horiz-adv-x="250" 
d="M-3 710v46h266v-46h-266zM94 0v656h62v-656h-62z" />
    <glyph glyph-name="imacron" unicode="&#x12b;" horiz-adv-x="220" 
d="M-21 597v47h264v-47h-264zM80 0v468l61 2v-470h-61z" />
    <glyph glyph-name="Ibreve" unicode="&#x12c;" horiz-adv-x="250" 
d="M241 802q0 -51 -31.5 -84t-84.5 -33t-84.5 33t-31.5 84h48q0 -33 18 -52t50 -20q32 0 50 19.5t18 52.5h48zM94 0v656h62v-656h-62z" />
    <glyph glyph-name="ibreve" unicode="&#x12d;" horiz-adv-x="220" 
d="M234 680q0 -61 -33.5 -99t-92.5 -38t-92.5 38t-33.5 99h52q0 -44 19.5 -67.5t54.5 -24.5q34 0 54 24t20 68h52zM80 0v468l61 2v-470h-61z" />
    <glyph glyph-name="Iogonek" unicode="&#x12e;" horiz-adv-x="250" 
d="M170 -125l18 -36q-26 -30 -75 -30q-40 0 -65 22.5t-25 59.5q0 70 71 113v652h62v-656q-3 -1 -9 -3.5t-20.5 -11t-25.5 -19t-20 -28.5t-9 -38q0 -22 13.5 -35t34.5 -13q13 0 25.5 6t18.5 12z" />
    <glyph glyph-name="iogonek" unicode="&#x12f;" horiz-adv-x="220" 
d="M112 575q-20 0 -33.5 13.5t-13.5 32.5q0 20 13.5 33.5t33.5 13.5t34 -13.5t14 -33.5q0 -19 -14 -32.5t-34 -13.5zM155 -125l18 -36q-26 -30 -75 -30q-40 0 -65 22.5t-25 59.5q0 73 72 113v464l61 2v-470q-3 -1 -9 -3.5t-20.5 -11t-25.5 -19t-20 -28.5t-9 -38
q0 -22 13.5 -35t34.5 -13q13 0 25.5 6t18.5 12z" />
    <glyph glyph-name="Idotaccent" unicode="&#x130;" horiz-adv-x="250" 
d="M125 698q-20 0 -33.5 13.5t-13.5 32.5q0 20 14 33.5t33 13.5q20 0 34 -14t14 -33t-14 -32.5t-34 -13.5zM94 0v656h62v-656h-62z" />
    <glyph glyph-name="dotlessi" unicode="&#x131;" horiz-adv-x="220" 
d="M80 0v468l61 2v-470h-61z" />
    <glyph glyph-name="IJ" unicode="&#x132;" horiz-adv-x="696" 
d="M94 0v656h62v-656h-62zM299 106q56 -56 122 -56q124 0 124 127v479h63v-475q0 -93 -49.5 -139.5t-137.5 -46.5q-92 0 -161 64z" />
    <glyph glyph-name="ij" unicode="&#x133;" horiz-adv-x="433" 
d="M110 668q20 0 34 -13.5t14 -33.5q0 -19 -14 -32.5t-34 -13.5t-33.5 13.5t-13.5 32.5q0 20 13.5 33.5t33.5 13.5zM326 668q20 0 34 -13.5t14 -33.5q0 -19 -14 -32.5t-34 -13.5t-33.5 13.5t-13.5 32.5q0 20 13.5 33.5t33.5 13.5zM80 0v468l61 2v-470h-61zM138 -139
q23 -17 62 -17q48 0 70.5 26t22.5 81v517l61 2v-509q0 -169 -149 -169q-25 0 -46.5 6.5t-30.5 13.5l-8 6z" />
    <glyph glyph-name="Jcircumflex" unicode="&#x134;" horiz-adv-x="446" 
d="M361 812l97 -126l-56 2l-77 75l-75 -75l-57 -2l98 126h70zM49 106q56 -56 122 -56q124 0 124 127v479h63v-475q0 -93 -49.5 -139.5t-137.5 -46.5q-92 0 -161 64z" />
    <glyph glyph-name="jcircumflex" unicode="&#x135;" horiz-adv-x="227" 
d="M-16 558l97 146h71l97 -146l-57 2l-76 95l-76 -95zM-68 -139q23 -17 62 -17q48 0 70 25.5t22 81.5v517l61 2v-509q0 -169 -148 -169q-26 0 -47.5 6.5t-29.5 13.5l-9 6z" />
    <glyph glyph-name="Kcommaaccent" unicode="&#x136;" horiz-adv-x="573" 
d="M293 322l266 -321h-70l-241 294h-92v-295h-62v656h62v-308h91l242 308h68zM306 -43q20 0 34 -14.5t14 -39.5q0 -40 -18 -70.5t-36 -40.5l-17 -10l-21 31l12.5 7.5t20.5 18.5t13 27q-20 0 -34 13t-14 32t13.5 32.5t32.5 13.5z" />
    <glyph glyph-name="kcommaaccent" unicode="&#x137;" horiz-adv-x="489" 
d="M255 256l229 -256h-77l-205 233h-63v-233h-61v706h61v-423h74l179 185h72zM252 -43q20 0 34 -14.5t14 -39.5q0 -40 -18 -70.5t-36 -40.5l-17 -10l-21 31l12.5 7.5t20.5 18.5t13 27q-20 0 -34 13t-14 32t13.5 32.5t32.5 13.5z" />
    <glyph glyph-name="kgreenlandic" unicode="&#x138;" horiz-adv-x="488" 
d="M407 0l-203 209h-65v-209h-61v468h61v-209h71l182 209h72l-209 -235l229 -233h-77z" />
    <glyph glyph-name="Lacute" unicode="&#x139;" horiz-adv-x="511" 
d="M239 807l-88 -117l-54 -4l62 121h80zM156 54h342v-54h-404v656h62v-602z" />
    <glyph glyph-name="lacute" unicode="&#x13a;" horiz-adv-x="220" 
d="M135 786l-55 -4l62 147h79zM80 0v706h60v-706h-60z" />
    <glyph glyph-name="Lcommaaccent" unicode="&#x13b;" horiz-adv-x="511" 
d="M156 54h342v-54h-404v656h62v-602zM311 -43q20 0 34 -14.5t14 -39.5t-7.5 -47t-17.5 -35t-20.5 -22.5t-17.5 -12.5l-8 -4l-21 31l12.5 7.5t20.5 18.5t13 27q-20 0 -34 13t-14 32t13.5 32.5t32.5 13.5z" />
    <glyph glyph-name="lcommaaccent" unicode="&#x13c;" horiz-adv-x="220" 
d="M80 0v706h60v-706h-60zM63 -89q0 19 13.5 32.5t32.5 13.5q20 0 34 -14.5t14 -39.5t-7.5 -47t-17.5 -35t-20.5 -22.5t-17.5 -12.5l-8 -4l-21 31l12.5 7.5t20.5 18.5t13 27q-20 0 -34 13t-14 32z" />
    <glyph glyph-name="Lcaron" unicode="&#x13d;" horiz-adv-x="511" 
d="M342 537q5 3 13 9t21.5 24.5t13.5 36.5q-20 0 -34 13t-14 32t13.5 32t32.5 13q21 0 35 -14t14 -38q0 -44 -17.5 -79.5t-34.5 -49.5l-17 -13zM156 54h342v-54h-404v656h62v-602z" />
    <glyph glyph-name="lcaron" unicode="&#x13e;" horiz-adv-x="230" 
d="M196 671q0 19 13.5 32.5t32.5 13.5q20 0 34 -14t14 -38q0 -27 -7 -52t-17 -40.5t-20.5 -27.5t-17.5 -17l-7 -5l-25 33q5 3 13 9.5t21.5 24.5t13.5 36q-20 0 -34 13t-14 32zM80 0v706h60v-706h-60z" />
    <glyph glyph-name="Ldot" unicode="&#x13f;" horiz-adv-x="511" 
d="M156 54h342v-54h-404v656h62v-602zM327 256q-19 0 -32.5 13t-13.5 32t13.5 32.5t32.5 13.5t32 -13.5t13 -32.5t-13 -32t-32 -13z" />
    <glyph glyph-name="ldot" unicode="&#x140;" horiz-adv-x="282" 
d="M80 0v706h60v-706h-60zM299 350q0 -19 -14 -32.5t-34 -13.5t-33.5 13.5t-13.5 32.5q0 20 14 33.5t33 13.5q20 0 34 -14t14 -33z" />
    <glyph glyph-name="Lslash" unicode="&#x141;" horiz-adv-x="511" 
d="M156 54h342v-54h-404v252l-84 -49l-23 40l107 63v350h62v-314l151 88l23 -40l-174 -102v-234z" />
    <glyph glyph-name="lslash" unicode="&#x142;" horiz-adv-x="288" 
d="M268 416l-93 -55v-361h-60v326l-67 -39l-23 41l90 52v326h60v-291l70 41z" />
    <glyph glyph-name="Nacute" unicode="&#x143;" horiz-adv-x="689" 
d="M367 690l-54 -4l62 121h80zM595 656v-656h-72l-311 476q-45 72 -57 97l-4 -2q4 -16 4 -89l2 -482h-63v656h72l311 -479q34 -54 56 -96l5 2q-5 55 -5 90l-1 483h63z" />
    <glyph glyph-name="nacute" unicode="&#x144;" horiz-adv-x="564" 
d="M372 691l-86 -143l-55 -4l62 147h79zM309 473q83 0 132.5 -51.5t49.5 -134.5v-287h-61v287q0 61 -35 98t-95 37q-74 0 -117.5 -53t-43.5 -113v-256h-61v468l43 2q9 -58 9 -119h2q21 53 66 87.5t111 34.5z" />
    <glyph glyph-name="Ncommaaccent" unicode="&#x145;" horiz-adv-x="689" 
d="M595 656v-656h-72l-311 476q-45 72 -57 97l-4 -2q4 -16 4 -89l2 -482h-63v656h72l311 -479q34 -54 56 -96l5 2q-5 55 -5 90l-1 483h63zM298 -89q0 19 13.5 32.5t32.5 13.5q20 0 34 -14.5t14 -39.5q0 -40 -18 -70.5t-36 -40.5l-17 -10l-21 31l12.5 7.5t20.5 18.5t13 27
q-20 0 -34 13t-14 32z" />
    <glyph glyph-name="ncommaaccent" unicode="&#x146;" horiz-adv-x="564" 
d="M309 473q83 0 132.5 -51.5t49.5 -134.5v-287h-61v287q0 61 -35 98t-95 37q-74 0 -117.5 -53t-43.5 -113v-256h-61v468l43 2q9 -58 9 -119h2q21 53 66 87.5t111 34.5zM284 -43q20 0 34 -14.5t14 -39.5q0 -40 -18 -70.5t-36 -40.5l-17 -10l-21 31l12.5 7.5t20.5 18.5t13 27
q-20 0 -34 13t-14 32t13.5 32.5t32.5 13.5z" />
    <glyph glyph-name="Ncaron" unicode="&#x147;" horiz-adv-x="689" 
d="M212 817l57 -2l75 -75l77 75l56 2l-97 -126h-70zM595 656v-656h-72l-311 476q-45 72 -57 97l-4 -2q4 -16 4 -89l2 -482h-63v656h72l311 -479q34 -54 56 -96l5 2q-5 55 -5 90l-1 483h63z" />
    <glyph glyph-name="ncaron" unicode="&#x148;" horiz-adv-x="564" 
d="M320 544h-70l-98 146l57 -2l75 -95l77 95l56 2zM309 473q83 0 132.5 -51.5t49.5 -134.5v-287h-61v287q0 61 -35 98t-95 37q-74 0 -117.5 -53t-43.5 -113v-256h-61v468l43 2q9 -58 9 -119h2q21 53 66 87.5t111 34.5z" />
    <glyph glyph-name="napostrophe" unicode="&#x149;" horiz-adv-x="564" 
d="M27 720q21 0 35 -14t14 -38q0 -27 -7 -52t-17 -40.5t-20.5 -27.5t-17.5 -17l-7 -5l-26 34q5 3 13 9t21.5 24.5t13.5 36.5q-20 0 -34 13t-14 32t13.5 32t32.5 13zM309 473q83 0 132.5 -51.5t49.5 -134.5v-287h-61v287q0 61 -35 98t-95 37q-74 0 -117.5 -53t-43.5 -113
v-256h-61v468l43 2q9 -58 9 -119h2q21 53 66 87.5t111 34.5z" />
    <glyph glyph-name="Eng" unicode="&#x14a;" horiz-adv-x="689" 
d="M532 656h63v-708q0 -88 -46 -136t-124 -48q-41 0 -76 15t-49 30l-15 15l39 44q4 -6 12.5 -14t34.5 -22t54 -14q51 0 79 31.5t28 94.5v56h-9l-311 476q-45 72 -57 97l-4 -2q4 -16 4 -89l2 -482h-63v656h72l311 -479q34 -54 56 -96l5 2q-5 55 -5 90z" />
    <glyph glyph-name="eng" unicode="&#x14b;" horiz-adv-x="564" 
d="M309 473q83 0 132.5 -51.5t49.5 -134.5v-326q0 -169 -149 -169q-25 0 -46.5 6.5t-29.5 13.5l-9 6l18 43q23 -17 62 -17q48 0 70.5 26t22.5 81v336q0 61 -35 98t-95 37q-74 0 -117.5 -53t-43.5 -113v-256h-61v468l43 2q9 -58 9 -119h2q21 53 66 87.5t111 34.5z" />
    <glyph glyph-name="Omacron" unicode="&#x14c;" horiz-adv-x="712" 
d="M228 710v46h266v-46h-266zM356 662q134 0 218 -90.5t84 -243.5t-84 -243t-218 -90q-133 0 -217.5 90t-84.5 243t84.5 243.5t217.5 90.5zM356 50q105 0 172 75.5t67 202.5t-67 203t-172 76t-171.5 -76t-66.5 -203t66.5 -202.5t171.5 -75.5z" />
    <glyph glyph-name="omacron" unicode="&#x14d;" horiz-adv-x="562" 
d="M152 597v47h264v-47h-264zM281 473q105 0 169 -66.5t64 -173.5t-64 -172.5t-169 -65.5t-169 65.5t-64 172.5t64 173.5t169 66.5zM281 46q77 0 124 51.5t47 135.5t-47 136.5t-124 52.5t-124.5 -52.5t-47.5 -136.5q0 -83 47.5 -135t124.5 -52z" />
    <glyph glyph-name="Obreve" unicode="&#x14e;" horiz-adv-x="712" 
d="M472 802q0 -51 -31.5 -84t-84.5 -33t-84.5 33t-31.5 84h48q0 -33 18 -52t50 -20q32 0 50 19.5t18 52.5h48zM356 662q134 0 218 -90.5t84 -243.5t-84 -243t-218 -90q-133 0 -217.5 90t-84.5 243t84.5 243.5t217.5 90.5zM356 50q105 0 172 75.5t67 202.5t-67 203t-172 76
t-171.5 -76t-66.5 -203t66.5 -202.5t171.5 -75.5z" />
    <glyph glyph-name="obreve" unicode="&#x14f;" horiz-adv-x="562" 
d="M407 680q0 -61 -33.5 -99t-92.5 -38t-92.5 38t-33.5 99h52q0 -44 19.5 -67.5t54.5 -24.5q34 0 54 24t20 68h52zM281 473q105 0 169 -66.5t64 -173.5t-64 -172.5t-169 -65.5t-169 65.5t-64 172.5t64 173.5t169 66.5zM281 46q77 0 124 51.5t47 135.5t-47 136.5t-124 52.5
t-124.5 -52.5t-47.5 -136.5q0 -83 47.5 -135t124.5 -52z" />
    <glyph glyph-name="Ohungarumlaut" unicode="&#x150;" horiz-adv-x="712" 
d="M290 690l-54 -4l62 121h80zM446 690l-55 -4l62 121h80zM356 662q134 0 218 -90.5t84 -243.5t-84 -243t-218 -90q-133 0 -217.5 90t-84.5 243t84.5 243.5t217.5 90.5zM356 50q105 0 172 75.5t67 202.5t-67 203t-172 76t-171.5 -76t-66.5 -203t66.5 -202.5t171.5 -75.5z
" />
    <glyph glyph-name="ohungarumlaut" unicode="&#x151;" horiz-adv-x="562" 
d="M234 548l-53 -4l62 147h79zM375 548l-53 -4l61 147h80zM281 473q105 0 169 -66.5t64 -173.5t-64 -172.5t-169 -65.5t-169 65.5t-64 172.5t64 173.5t169 66.5zM281 46q77 0 124 51.5t47 135.5t-47 136.5t-124 52.5t-124.5 -52.5t-47.5 -136.5q0 -83 47.5 -135t124.5 -52z
" />
    <glyph glyph-name="OE" unicode="&#x152;" horiz-adv-x="1048" 
d="M995 602h-335v-234h302v-53h-302v-261h335v-54h-397v115q-84 -120 -242 -120q-133 0 -217.5 90t-84.5 243t84.5 243.5t217.5 90.5q158 0 242 -121v115h397v-54zM356 50q105 0 172 75.5t67 202.5t-67 203t-172 76t-171.5 -76t-66.5 -203t66.5 -202.5t171.5 -75.5z" />
    <glyph glyph-name="oe" unicode="&#x153;" horiz-adv-x="926" 
d="M677 473q93 0 148 -59t55 -153l-3 -40h-362q4 -80 51.5 -127.5t126.5 -47.5q89 0 139 61l38 -35q-62 -77 -181 -77q-145 0 -206 110q-29 -52 -81.5 -81t-120.5 -29q-105 0 -169 65.5t-64 172.5t64 173.5t169 66.5q68 0 120.5 -29.5t81.5 -81.5q28 52 78.5 81.5
t115.5 29.5zM281 46q77 0 124 51.5t47 135.5t-47 136.5t-124 52.5t-124.5 -52.5t-47.5 -136.5q0 -83 47.5 -135t124.5 -52zM677 422q-64 0 -108 -42.5t-52 -113.5h301v4q0 70 -38.5 111t-102.5 41z" />
    <glyph glyph-name="Racute" unicode="&#x154;" horiz-adv-x="595" 
d="M392 807l-88 -117l-54 -4l62 121h80zM575 48l5 -50q-17 -3 -38 -3q-46 0 -78 27.5t-50.5 66t-38 77.5t-54 66.5t-84.5 27.5h-81v-260h-62v656h192q109 0 169.5 -51t60.5 -149q0 -72 -43.5 -120t-117.5 -66q33 -13 60 -51t43 -75.5t42 -67.5t59 -30zM156 310h119
q78 0 128 38.5t50 107.5t-45 107.5t-125 38.5h-127v-292z" />
    <glyph glyph-name="racute" unicode="&#x155;" horiz-adv-x="330" 
d="M274 691l-86 -143l-55 -4l62 147h79zM265 473q32 0 53 -7l-15 -60q-14 8 -41 8q-51 0 -87 -49t-36 -112v-253h-61v468l43 2q9 -58 9 -119h2q15 53 48.5 87.5t84.5 34.5z" />
    <glyph glyph-name="Rcommaaccent" unicode="&#x156;" horiz-adv-x="595" 
d="M575 48l5 -50q-17 -3 -38 -3q-46 0 -78 27.5t-50.5 66t-38 77.5t-54 66.5t-84.5 27.5h-81v-260h-62v656h192q109 0 169.5 -51t60.5 -149q0 -72 -43.5 -120t-117.5 -66q33 -13 60 -51t43 -75.5t42 -67.5t59 -30zM156 310h119q78 0 128 38.5t50 107.5t-45 107.5t-125 38.5
h-127v-292zM314 -43q20 0 34 -14.5t14 -39.5q0 -40 -18 -70.5t-36 -40.5l-17 -10l-21 31l12.5 7.5t20.5 18.5t13 27q-20 0 -34 13t-14 32t13.5 32.5t32.5 13.5z" />
    <glyph glyph-name="rcommaaccent" unicode="&#x157;" horiz-adv-x="330" 
d="M265 473q32 0 53 -7l-15 -60q-14 8 -41 8q-51 0 -87 -49t-36 -112v-253h-61v468l43 2q9 -58 9 -119h2q15 53 48.5 87.5t84.5 34.5zM112 -43q20 0 34 -14.5t14 -39.5q0 -40 -18 -70.5t-36 -40.5l-17 -10l-21 31l12.5 7.5t20.5 18.5t13 27q-20 0 -34 13t-14 32t13.5 32.5
t32.5 13.5z" />
    <glyph glyph-name="Rcaron" unicode="&#x158;" horiz-adv-x="595" 
d="M317 691h-70l-98 126l57 -2l75 -75l77 75l56 2zM575 48l5 -50q-17 -3 -38 -3q-46 0 -78 27.5t-50.5 66t-38 77.5t-54 66.5t-84.5 27.5h-81v-260h-62v656h192q109 0 169.5 -51t60.5 -149q0 -72 -43.5 -120t-117.5 -66q33 -13 60 -51t43 -75.5t42 -67.5t59 -30zM156 310
h119q78 0 128 38.5t50 107.5t-45 107.5t-125 38.5h-127v-292z" />
    <glyph glyph-name="rcaron" unicode="&#x159;" horiz-adv-x="330" 
d="M222 544h-70l-98 146l57 -2l75 -95l77 95l56 2zM132 351q15 53 48.5 87.5t84.5 34.5q32 0 53 -7l-15 -60q-14 8 -41 8q-51 0 -87 -49t-36 -112v-253h-61v468l43 2q9 -58 9 -119h2z" />
    <glyph glyph-name="Sacute" unicode="&#x15a;" horiz-adv-x="552" 
d="M288 690l-54 -4l62 121h80zM435 499q-10 38 -48.5 73t-111.5 35q-66 0 -107 -31.5t-41 -84.5q0 -34 20.5 -58t53.5 -38t73 -26t80 -26.5t73 -35t53.5 -57t20.5 -86.5q0 -76 -61.5 -122.5t-164.5 -46.5q-148 0 -238 76l39 49q83 -70 199 -70q76 0 120 31t44 83
q0 40 -20.5 67.5t-54 43t-73.5 27.5t-79.5 25.5t-73 31.5t-54 51.5t-20.5 79.5q0 77 59 124.5t152 47.5q172 0 220 -148z" />
    <glyph glyph-name="sacute" unicode="&#x15b;" horiz-adv-x="460" 
d="M229 548l-55 -4l62 147h79zM343 310q3 15 3 24q0 41 -33 64.5t-85 23.5q-51 0 -80 -22t-29 -58q0 -34 30 -53t73 -28t86 -20t73 -40t31 -77q1 -60 -49 -94.5t-134 -34.5q-110 0 -193 69l38 40q63 -58 155 -58q58 0 90 21t32 57q0 32 -30.5 50.5t-73.5 28.5t-86 22.5
t-73.5 41.5t-30.5 76q0 57 48 93.5t125 36.5q76 0 124 -35.5t48 -92.5l-3 -30z" />
    <glyph glyph-name="Scircumflex" unicode="&#x15c;" horiz-adv-x="552" 
d="M301 812l97 -126l-56 2l-77 75l-75 -75l-57 -2l98 126h70zM435 499q-10 38 -48.5 73t-111.5 35q-66 0 -107 -31.5t-41 -84.5q0 -34 20.5 -58t53.5 -38t73 -26t80 -26.5t73 -35t53.5 -57t20.5 -86.5q0 -76 -61.5 -122.5t-164.5 -46.5q-148 0 -238 76l39 49q83 -70 199 -70
q76 0 120 31t44 83q0 40 -20.5 67.5t-54 43t-73.5 27.5t-79.5 25.5t-73 31.5t-54 51.5t-20.5 79.5q0 77 59 124.5t152 47.5q172 0 220 -148z" />
    <glyph glyph-name="scircumflex" unicode="&#x15d;" horiz-adv-x="460" 
d="M93 544l98 146h70l97 -146l-56 2l-77 95l-75 -95zM343 310q3 15 3 24q0 41 -33 64.5t-85 23.5q-51 0 -80 -22t-29 -58q0 -34 30 -53t73 -28t86 -20t73 -40t31 -77q1 -60 -49 -94.5t-134 -34.5q-110 0 -193 69l38 40q63 -58 155 -58q58 0 90 21t32 57q0 32 -30.5 50.5
t-73.5 28.5t-86 22.5t-73.5 41.5t-30.5 76q0 57 48 93.5t125 36.5q76 0 124 -35.5t48 -92.5l-3 -30z" />
    <glyph glyph-name="Scedilla" unicode="&#x15e;" horiz-adv-x="552" 
d="M501 164q0 -71 -55 -117t-149 -51l-12 -29q31 -3 54.5 -23t23.5 -55q0 -37 -27 -58t-69 -21q-24 0 -44.5 8t-29.5 16l-9 8l19 36q24 -25 64 -25q23 0 37 10.5t14 27.5q0 19 -21 33t-68 14l23 58q-131 5 -215 75l39 49q83 -70 199 -70q76 0 120 31t44 83q0 40 -20.5 67.5
t-54 43t-73.5 27.5t-79.5 25.5t-73 31.5t-54 51.5t-20.5 79.5q0 77 59 124.5t152 47.5q172 0 220 -148l-60 -15q-10 38 -48.5 73t-111.5 35q-66 0 -107 -31.5t-41 -84.5q0 -34 20.5 -58t53.5 -38t73 -26t80 -26.5t73 -35t53.5 -57t20.5 -86.5z" />
    <glyph glyph-name="scedilla" unicode="&#x15f;" horiz-adv-x="460" 
d="M412 124q1 -56 -42.5 -89.5t-117.5 -38.5l-12 -29q31 -3 54.5 -23t23.5 -55q0 -37 -27 -58t-69 -21q-24 0 -45 8t-29 16l-9 8l19 36q24 -25 64 -25q23 0 37 10.5t14 27.5q0 19 -21 33t-68 14l24 58q-47 3 -88.5 19t-52.5 24.5t-31 24.5l38 40q63 -58 155 -58q58 0 90 21
t32 57q0 32 -30.5 50.5t-73.5 28.5t-86 22.5t-73.5 41.5t-30.5 76q0 57 48 93.5t125 36.5q76 0 124 -35.5t48 -92.5l-3 -30l-56 -5q3 15 3 24q0 41 -33 64.5t-85 23.5q-51 0 -80 -22t-29 -58q0 -34 30 -53t73 -28t86 -20t73 -40t31 -77z" />
    <glyph glyph-name="Scaron" unicode="&#x160;" horiz-adv-x="552" 
d="M133 817l57 -2l75 -75l77 75l56 2l-97 -126h-70zM435 499q-10 38 -48.5 73t-111.5 35q-66 0 -107 -31.5t-41 -84.5q0 -34 20.5 -58t53.5 -38t73 -26t80 -26.5t73 -35t53.5 -57t20.5 -86.5q0 -76 -61.5 -122.5t-164.5 -46.5q-148 0 -238 76l39 49q83 -70 199 -70
q76 0 120 31t44 83q0 40 -20.5 67.5t-54 43t-73.5 27.5t-79.5 25.5t-73 31.5t-54 51.5t-20.5 79.5q0 77 59 124.5t152 47.5q172 0 220 -148z" />
    <glyph glyph-name="scaron" unicode="&#x161;" horiz-adv-x="460" 
d="M95 690l57 -2l75 -95l77 95l56 2l-97 -146h-70zM343 310q3 15 3 24q0 41 -33 64.5t-85 23.5q-51 0 -80 -22t-29 -58q0 -34 30 -53t73 -28t86 -20t73 -40t31 -77q1 -60 -49 -94.5t-134 -34.5q-110 0 -193 69l38 40q63 -58 155 -58q58 0 90 21t32 57q0 32 -30.5 50.5
t-73.5 28.5t-86 22.5t-73.5 41.5t-30.5 76q0 57 48 93.5t125 36.5q76 0 124 -35.5t48 -92.5l-3 -30z" />
    <glyph glyph-name="uni0162" unicode="&#x162;" horiz-adv-x="532" 
d="M297 0h-10l-14 -33q31 -3 54.5 -23t23.5 -55q0 -37 -27 -58t-69 -21q-24 0 -44.5 8t-29.5 16l-9 8l19 36q24 -25 64 -25q23 0 37 10.5t14 27.5q0 19 -21 33t-68 14l25 62h-8v602h-221v54h506v-54h-222v-602z" />
    <glyph glyph-name="uni0163" unicode="&#x163;" horiz-adv-x="387" 
d="M241 -33q31 -3 54.5 -23t23.5 -55q0 -37 -27 -58t-69 -21q-24 0 -44.5 8t-29.5 16l-9 8l19 36q24 -25 64 -25q23 0 37 10.5t14 27.5q0 19 -21 33t-68 14l25 61q-104 24 -104 164v255h-77v50h77v142l61 4v-146h190v-50h-190v-253q0 -60 23.5 -89t75.5 -29q25 0 48 7.5
t34 14.5l10 7l21 -49q-46 -33 -118 -33h-8z" />
    <glyph glyph-name="Tcaron" unicode="&#x164;" horiz-adv-x="532" 
d="M135 817l57 -2l75 -75l77 75l56 2l-97 -126h-70zM234 0v602h-221v54h506v-54h-222v-602h-63z" />
    <glyph glyph-name="tcaron" unicode="&#x165;" horiz-adv-x="387" 
d="M288 590q-20 0 -34 13t-14 32t13.5 32t32.5 13q21 0 35 -14t14 -38q0 -26 -7.5 -47.5t-18 -33.5t-21 -21t-18.5 -12l-7 -3l-21 32q5 2 12.5 5.5t20.5 16t13 25.5zM358 76l21 -49q-46 -33 -118 -33q-80 0 -117.5 42t-37.5 127v255h-77v50h77v142l61 4v-146h190v-50h-190
v-253q0 -60 23.5 -89t75.5 -29q25 0 48 7.5t34 14.5z" />
    <glyph glyph-name="Tbar" unicode="&#x166;" horiz-adv-x="532" 
d="M519 602h-222v-229h134v-51h-134v-322h-63v322h-136v51h136v229h-221v54h506v-54z" />
    <glyph glyph-name="tbar" unicode="&#x167;" horiz-adv-x="387" 
d="M358 76l21 -49q-46 -33 -118 -33q-80 0 -117.5 42t-37.5 127v69h-65v45h65v141h-77v50h77v142l61 4v-146h190v-50h-190v-141h142v-45h-142v-67q0 -60 23.5 -89t75.5 -29q25 0 48 7.5t34 14.5z" />
    <glyph glyph-name="Utilde" unicode="&#x168;" horiz-adv-x="681" 
d="M496 789q4 -14 4 -34q0 -33 -20 -55.5t-57 -22.5q-32 0 -77.5 29.5t-61.5 29.5t-25.5 -9.5t-9.5 -25.5l4 -25h-50q-3 15 -3 33q0 34 21.5 54.5t57.5 20.5q35 0 79 -29.5t58 -29.5q34 0 34 37l-4 27h50zM532 656h62v-397q0 -123 -68.5 -193.5t-184.5 -70.5
q-117 0 -186 70.5t-69 193.5v397h63v-395q0 -101 51.5 -156t140.5 -55q88 0 139.5 54.5t51.5 154.5v397z" />
    <glyph glyph-name="utilde" unicode="&#x169;" horiz-adv-x="551" 
d="M168 557h-50q-3 15 -3 34q0 32 22 55t57 23t79 -29.5t58 -29.5q34 0 34 37l-4 27h50q4 -14 4 -34q0 -34 -20.5 -56t-59.5 -22q-31 0 -75 29.5t-59 29.5q-37 0 -37 -37zM413 468h60v-468l-44 -2q-9 58 -9 113h-1q-20 -51 -63.5 -83.5t-105.5 -32.5q-82 0 -129.5 50.5
t-47.5 134.5v288h61v-288q0 -62 32.5 -98t92.5 -36q70 0 112 53t42 113v256z" />
    <glyph glyph-name="Umacron" unicode="&#x16a;" horiz-adv-x="681" 
d="M213 710v46h266v-46h-266zM532 656h62v-397q0 -123 -68.5 -193.5t-184.5 -70.5q-117 0 -186 70.5t-69 193.5v397h63v-395q0 -101 51.5 -156t140.5 -55q88 0 139.5 54.5t51.5 154.5v397z" />
    <glyph glyph-name="umacron" unicode="&#x16b;" horiz-adv-x="551" 
d="M407 644v-47h-264v47h264zM413 468h60v-468l-44 -2q-9 58 -9 113h-1q-20 -51 -63.5 -83.5t-105.5 -32.5q-82 0 -129.5 50.5t-47.5 134.5v288h61v-288q0 -62 32.5 -98t92.5 -36q70 0 112 53t42 113v256z" />
    <glyph glyph-name="Ubreve" unicode="&#x16c;" horiz-adv-x="681" 
d="M457 802q0 -51 -31.5 -84t-84.5 -33t-84.5 33t-31.5 84h48q0 -33 18 -52t50 -20q32 0 50 19.5t18 52.5h48zM532 656h62v-397q0 -123 -68.5 -193.5t-184.5 -70.5q-117 0 -186 70.5t-69 193.5v397h63v-395q0 -101 51.5 -156t140.5 -55q88 0 139.5 54.5t51.5 154.5v397z" />
    <glyph glyph-name="ubreve" unicode="&#x16d;" horiz-adv-x="551" 
d="M272 543q-59 0 -92.5 38t-33.5 99h52q0 -44 19.5 -67.5t54.5 -24.5q34 0 54 24t20 68h52q0 -61 -33.5 -99t-92.5 -38zM413 468h60v-468l-44 -2q-9 58 -9 113h-1q-20 -51 -63.5 -83.5t-105.5 -32.5q-82 0 -129.5 50.5t-47.5 134.5v288h61v-288q0 -62 32.5 -98t92.5 -36
q70 0 112 53t42 113v256z" />
    <glyph glyph-name="Uring" unicode="&#x16e;" horiz-adv-x="681" 
d="M341 675q-32 0 -54 21.5t-22 52.5q0 32 22 53.5t54 21.5t53.5 -21.5t21.5 -53.5q0 -31 -21.5 -52.5t-53.5 -21.5zM378 749q0 16 -10.5 27t-26.5 11t-26.5 -11t-10.5 -27t10.5 -26.5t26.5 -10.5t26.5 10.5t10.5 26.5zM532 656h62v-397q0 -123 -68.5 -193.5t-184.5 -70.5
q-117 0 -186 70.5t-69 193.5v397h63v-395q0 -101 51.5 -156t140.5 -55q88 0 139.5 54.5t51.5 154.5v397z" />
    <glyph glyph-name="uring" unicode="&#x16f;" horiz-adv-x="551" 
d="M272 538q-34 0 -57.5 22.5t-23.5 56.5t23.5 57t57.5 23t57.5 -23t23.5 -57t-23.5 -56.5t-57.5 -22.5zM272 656q-17 0 -28 -11t-11 -28t11.5 -28t27.5 -11t27.5 11t11.5 28t-11 28t-28 11zM413 468h60v-468l-44 -2q-9 58 -9 113h-1q-20 -51 -63.5 -83.5t-105.5 -32.5
q-82 0 -129.5 50.5t-47.5 134.5v288h61v-288q0 -62 32.5 -98t92.5 -36q70 0 112 53t42 113v256z" />
    <glyph glyph-name="Uhungarumlaut" unicode="&#x170;" horiz-adv-x="681" 
d="M275 690l-54 -4l62 121h80zM431 690l-55 -4l62 121h80zM532 656h62v-397q0 -123 -68.5 -193.5t-184.5 -70.5q-117 0 -186 70.5t-69 193.5v397h63v-395q0 -101 51.5 -156t140.5 -55q88 0 139.5 54.5t51.5 154.5v397z" />
    <glyph glyph-name="uhungarumlaut" unicode="&#x171;" horiz-adv-x="551" 
d="M313 691l-88 -143l-53 -4l62 147h79zM366 548l-53 -4l61 147h80zM413 468h60v-468l-44 -2q-9 58 -9 113h-1q-20 -51 -63.5 -83.5t-105.5 -32.5q-82 0 -129.5 50.5t-47.5 134.5v288h61v-288q0 -62 32.5 -98t92.5 -36q70 0 112 53t42 113v256z" />
    <glyph glyph-name="Uogonek" unicode="&#x172;" horiz-adv-x="681" 
d="M532 656h62v-397q0 -99 -44.5 -164t-124.5 -89q-26 -11 -49 -34.5t-23 -60.5q0 -22 13.5 -35t34.5 -13q13 0 25.5 5.5t18.5 11.5l6 6l18 -36q-26 -30 -75 -30q-40 0 -65 22.5t-25 59.5q0 54 44 93h-7q-117 0 -186 70.5t-69 193.5v397h63v-395q0 -101 51.5 -156t140.5 -55
q88 0 139.5 54.5t51.5 154.5v397z" />
    <glyph glyph-name="uogonek" unicode="&#x173;" horiz-adv-x="551" 
d="M487 -125l18 -36q-26 -30 -75 -30q-40 0 -65 22.5t-25 59.5q0 80 87 121q-7 52 -7 99h-1q-20 -51 -63.5 -83.5t-105.5 -32.5q-82 0 -129.5 50.5t-47.5 134.5v288h61v-288q0 -62 32.5 -98t92.5 -36q70 0 112 53t42 113v256h60v-468q-3 -1 -9 -3.5t-20.5 -11t-25.5 -19
t-20 -28.5t-9 -38q0 -22 13.5 -35t34.5 -13q13 0 25.5 6t18.5 12z" />
    <glyph glyph-name="Wcircumflex" unicode="&#x174;" horiz-adv-x="894" 
d="M483 812l97 -126l-56 2l-77 75l-75 -75l-57 -2l98 126h70zM806 656h63l-191 -656h-71l-142 497q-9 27 -17 73h-1q-8 -46 -17 -73l-146 -497h-69l-190 656h65l146 -530q10 -38 14 -56h2q8 36 13 56l153 530h59l154 -530l13 -56h2q4 18 14 56z" />
    <glyph glyph-name="wcircumflex" unicode="&#x175;" horiz-adv-x="735" 
d="M368 641l-75 -95l-57 -2l98 146h70l97 -146l-56 2zM646 468h62l-145 -468h-74l-110 356q-6 22 -8 34h-2q-2 -12 -8 -34l-112 -356h-74l-150 468h68l109 -370q2 -7 5 -15.5t5 -14t2 -7.5h2q0 2 2 8t4.5 14.5t4.5 14.5l112 370h63l112 -368q4 -14 9 -39h2q1 2 5 15.5
t7 23.5z" />
    <glyph glyph-name="Ycircumflex" unicode="&#x176;" horiz-adv-x="573" 
d="M287 763l-75 -75l-57 -2l98 126h70l97 -126l-56 2zM551 656l-232 -406v-250h-63v246l-235 410h69l168 -288q22 -38 29 -67h2q7 29 29 67l168 288h65z" />
    <glyph glyph-name="ycircumflex" unicode="&#x177;" horiz-adv-x="504" 
d="M118 544l98 146h70l97 -146l-56 2l-77 95l-75 -95zM251 -97q-20 -54 -51.5 -83t-84.5 -29q-17 0 -33 3.5t-23 6.5l-7 3l11 51q20 -11 48 -11q34 0 52.5 18.5t32.5 55.5l29 71l-200 479h67l152 -373q9 -18 11 -34h2q4 19 11 34l153 373h62z" />
    <glyph glyph-name="Ydieresis" unicode="&#x178;" horiz-adv-x="573" 
d="M198 705q-17 0 -29.5 12t-12.5 29t12.5 29.5t29.5 12.5t29 -12.5t12 -29.5t-12 -29t-29 -12zM380 705q-17 0 -29.5 12t-12.5 29t12.5 29.5t29.5 12.5t29.5 -12.5t12.5 -29.5t-12.5 -29t-29.5 -12zM551 656l-232 -406v-250h-63v246l-235 410h69l168 -288q22 -38 29 -67h2
q7 29 29 67l168 288h65z" />
    <glyph glyph-name="Zacute" unicode="&#x179;" horiz-adv-x="553" 
d="M299 690l-54 -4l62 121h80zM35 0v54l375 507l33 41l-2 3q-30 -3 -59 -3h-337v54h472v-54l-374 -507q-1 -2 -34 -41l2 -2q14 2 59 2h341v-54h-476z" />
    <glyph glyph-name="zacute" unicode="&#x17a;" horiz-adv-x="447" 
d="M235 548l-55 -4l62 147h79zM37 0v50l280 347q4 4 8 8.5t6.5 7.5t4.5 5l-1 2q-8 -2 -32 -2h-260v50h362v-50l-271 -338q-17 -21 -26 -30l1 -2q7 2 34 2h266v-50h-372z" />
    <glyph glyph-name="Zdotaccent" unicode="&#x17b;" horiz-adv-x="553" 
d="M276 698q-20 0 -33.5 13.5t-13.5 32.5q0 20 13.5 33.5t33.5 13.5t34 -14t14 -33t-14 -32.5t-34 -13.5zM35 0v54l375 507l33 41l-2 3q-30 -3 -59 -3h-337v54h472v-54l-374 -507q-1 -2 -34 -41l2 -2q14 2 59 2h341v-54h-476z" />
    <glyph glyph-name="zdotaccent" unicode="&#x17c;" horiz-adv-x="447" 
d="M281 621q0 -19 -14 -32.5t-34 -13.5t-33.5 13.5t-13.5 32.5q0 20 13.5 33.5t33.5 13.5t34 -13.5t14 -33.5zM37 0v50l280 347q4 4 8 8.5t6.5 7.5t4.5 5l-1 2q-8 -2 -32 -2h-260v50h362v-50l-271 -338q-17 -21 -26 -30l1 -2q7 2 34 2h266v-50h-372z" />
    <glyph glyph-name="Zcaron" unicode="&#x17d;" horiz-adv-x="553" 
d="M144 817l57 -2l75 -75l77 75l56 2l-97 -126h-70zM35 0v54l375 507l33 41l-2 3q-30 -3 -59 -3h-337v54h472v-54l-374 -507q-1 -2 -34 -41l2 -2q14 2 59 2h341v-54h-476z" />
    <glyph glyph-name="zcaron" unicode="&#x17e;" horiz-adv-x="447" 
d="M101 690l57 -2l75 -95l77 95l56 2l-97 -146h-70zM37 0v50l280 347q4 4 8 8.5t6.5 7.5t4.5 5l-1 2q-8 -2 -32 -2h-260v50h362v-50l-271 -338q-17 -21 -26 -30l1 -2q7 2 34 2h266v-50h-372z" />
    <glyph glyph-name="uni01EA" unicode="&#x1ea;" horiz-adv-x="712" 
d="M424 2q-78 -33 -78 -98q0 -22 13.5 -35t34.5 -13q13 0 25.5 6t18.5 12l6 5l18 -36q-26 -30 -75 -30q-40 0 -65 22.5t-25 59.5q0 60 52 100q-130 2 -212.5 92.5t-82.5 240.5q0 153 84.5 243.5t217.5 90.5q134 0 218 -90.5t84 -243.5q0 -132 -64 -218t-170 -108zM118 328
q0 -127 66.5 -202.5t171.5 -75.5t172 75.5t67 202.5t-67 203t-172 76t-171.5 -76t-66.5 -203z" />
    <glyph glyph-name="uni01EB" unicode="&#x1eb;" horiz-adv-x="562" 
d="M347 3q-65 -34 -65 -92q0 -22 13.5 -35t34.5 -13q13 0 25.5 5.5t18.5 11.5l6 6l18 -36q-26 -30 -75 -30q-40 0 -65 22.5t-25 59.5q0 54 44 93q-103 1 -166 66.5t-63 171.5q0 107 64 173.5t169 66.5t169 -66.5t64 -173.5q0 -88 -45 -149.5t-122 -80.5zM109 233
q0 -83 47.5 -135t124.5 -52t124 51.5t47 135.5t-47 136.5t-124 52.5t-124.5 -52.5t-47.5 -136.5z" />
    <glyph glyph-name="AEacute" unicode="&#x1fc;" horiz-adv-x="945" 
d="M658 807l-88 -117l-54 -4l62 121h80zM892 602h-335v-234h302v-53h-302v-261h335v-54h-397v178h-300l-136 -178h-66l500 656h399v-54zM235 231h260v341z" />
    <glyph glyph-name="aeacute" unicode="&#x1fd;" horiz-adv-x="849" 
d="M500 691l-86 -143l-55 -4l62 147h79zM600 473q93 0 148 -59t55 -153l-3 -40h-362q4 -80 51.5 -127.5t127.5 -47.5q88 0 138 61l38 -35q-62 -77 -181 -77q-73 0 -127.5 31.5t-82.5 88.5h-3q-13 -42 -61.5 -81t-135.5 -39q-73 0 -113.5 33.5t-40.5 90.5q0 76 74.5 108.5
t225.5 34.5l29 1v36q0 57 -35 90t-98 33q-58 0 -92 -25.5t-34 -70.5q0 -10 5 -30l-56 -10q-7 17 -7 43q0 64 50.5 104t134.5 40q61 0 106 -25.5t68 -68.5q63 94 181 94zM601 422q-65 0 -109 -42.5t-52 -113.5h302v4q0 70 -38.5 111t-102.5 41zM215 46q77 0 119.5 40t42.5 75
v58l-29 -1q-121 -2 -179.5 -24.5t-58.5 -72.5q0 -75 105 -75z" />
    <glyph glyph-name="Oslashacute" unicode="&#x1fe;" horiz-adv-x="712" 
d="M458 806l-88 -117l-54 -4l62 121h80zM560 585q98 -92 98 -257q0 -153 -84 -243t-218 -90q-92 0 -162 44l-55 -83h-65l78 116q-98 92 -98 256q0 153 84.5 243.5t217.5 90.5q92 0 162 -44l47 70h64zM118 328q0 -126 68 -204l299 445q-55 38 -129 38q-105 0 -171.5 -76
t-66.5 -203zM356 50q105 0 172 75.5t67 202.5t-69 206l-299 -446q56 -38 129 -38z" />
    <glyph glyph-name="oslashacute" unicode="&#x1ff;" horiz-adv-x="562" 
d="M369 691l-86 -143l-55 -4l62 147h79zM430 425q84 -68 84 -192q0 -107 -64 -172.5t-169 -65.5q-62 0 -112 25l-31 -48h-51l45 70q-84 67 -84 191q0 107 64 173.5t169 66.5q64 0 113 -26l31 48h50zM109 233q0 -90 55 -142l201 310q-36 21 -84 21q-77 0 -124.5 -52.5
t-47.5 -136.5zM281 46q77 0 124 51.5t47 135.5q0 91 -54 143l-200 -310q37 -20 83 -20z" />
    <glyph glyph-name="Scommaaccent" unicode="&#x218;" horiz-adv-x="552" 
d="M435 499q-10 38 -48.5 73t-111.5 35q-66 0 -107 -31.5t-41 -84.5q0 -34 20.5 -58t53.5 -38t73 -26t80 -26.5t73 -35t53.5 -57t20.5 -86.5q0 -76 -61.5 -122.5t-164.5 -46.5q-148 0 -238 76l39 49q83 -70 199 -70q76 0 120 31t44 83q0 40 -20.5 67.5t-54 43t-73.5 27.5
t-79.5 25.5t-73 31.5t-54 51.5t-20.5 79.5q0 77 59 124.5t152 47.5q172 0 220 -148zM230 -89q0 19 13.5 32.5t32.5 13.5q20 0 34 -14.5t14 -39.5q0 -40 -18 -70.5t-36 -40.5l-17 -10l-21 31l12.5 7.5t20.5 18.5t13 27q-20 0 -34 13t-14 32z" />
    <glyph glyph-name="scommaaccent" unicode="&#x219;" horiz-adv-x="460" 
d="M343 310q3 15 3 24q0 41 -33 64.5t-85 23.5q-51 0 -80 -22t-29 -58q0 -34 30 -53t73 -28t86 -20t73 -40t31 -77q1 -60 -49 -94.5t-134 -34.5q-110 0 -193 69l38 40q63 -58 155 -58q58 0 90 21t32 57q0 32 -30.5 50.5t-73.5 28.5t-86 22.5t-73.5 41.5t-30.5 76
q0 57 48 93.5t125 36.5q76 0 124 -35.5t48 -92.5l-3 -30zM185 -89q0 19 13.5 32.5t32.5 13.5q20 0 34 -14.5t14 -39.5t-7.5 -47t-17.5 -35t-20.5 -22.5t-17.5 -12.5l-8 -4l-21 31l12.5 7.5t20.5 18.5t13 27q-20 0 -34 13t-14 32z" />
    <glyph glyph-name="uni021A" unicode="&#x21a;" horiz-adv-x="532" 
d="M234 0v602h-221v54h506v-54h-222v-602h-63zM218 -89q0 19 13.5 32.5t32.5 13.5q20 0 34 -14.5t14 -39.5q0 -40 -18 -70.5t-36 -40.5l-17 -10l-21 31l12.5 7.5t20.5 18.5t13 27q-20 0 -34 13t-14 32z" />
    <glyph glyph-name="uni021B" unicode="&#x21b;" horiz-adv-x="387" 
d="M379 27q-46 -33 -118 -33q-80 0 -117.5 42t-37.5 127v255h-77v50h77v142l61 4v-146h190v-50h-190v-253q0 -60 23.5 -89t75.5 -29q25 0 48 7.5t34 14.5l10 7zM232 -43q20 0 34 -14.5t14 -39.5t-7.5 -47t-17.5 -35t-20.5 -22.5t-18.5 -12.5l-7 -4l-21 31l12.5 7.5
t20.5 18.5t13 27q-20 0 -34 13t-14 32t13.5 32.5t32.5 13.5z" />
    <glyph glyph-name="uni0237" unicode="&#x237;" horiz-adv-x="227" 
d="M-68 -139q23 -17 62 -17q48 0 70 25.5t22 81.5v517l61 2v-509q0 -169 -148 -169q-26 0 -47.5 6.5t-29.5 13.5l-9 6z" />
    <glyph glyph-name="circumflex" unicode="&#x2c6;" horiz-adv-x="334" 
d="M34 544l98 146h70l97 -146l-56 2l-77 95l-75 -95z" />
    <glyph glyph-name="caron" unicode="&#x2c7;" horiz-adv-x="326" 
d="M34 690l57 -2l75 -95l77 95l56 2l-97 -146h-70z" />
    <glyph glyph-name="breve" unicode="&#x2d8;" horiz-adv-x="310" 
d="M281 680q0 -61 -33.5 -99t-92.5 -38t-92.5 38t-33.5 99h52q0 -44 19.5 -67.5t54.5 -24.5q34 0 54 24t20 68h52z" />
    <glyph glyph-name="dotaccent" unicode="&#x2d9;" horiz-adv-x="188" 
d="M142 621q0 -19 -14 -32.5t-34 -13.5t-33.5 13.5t-13.5 32.5q0 20 13.5 33.5t33.5 13.5t34 -13.5t14 -33.5z" />
    <glyph glyph-name="ring" unicode="&#x2da;" horiz-adv-x="252" 
d="M126 538q-34 0 -57.5 22.5t-23.5 56.5t23.5 57t57.5 23t57.5 -23t23.5 -57t-23.5 -56.5t-57.5 -22.5zM165 617q0 17 -11 28t-28 11t-28 -11t-11 -28t11.5 -28t27.5 -11t27.5 11t11.5 28z" />
    <glyph glyph-name="ogonek" unicode="&#x2db;" horiz-adv-x="253" 
d="M203 -160q-26 -30 -75 -30q-40 0 -65 22.5t-25 59.5q0 29 12.5 53.5t30.5 39t36 24.5t31 14l12 4l11 -26q-3 -1 -9 -3.5t-20.5 -11t-25.5 -19t-20 -28.5t-9 -38q0 -22 13.5 -35t34.5 -13q13 0 25.5 5.5t18.5 11.5l6 6z" />
    <glyph glyph-name="tilde" unicode="&#x2dc;" horiz-adv-x="385" 
d="M335 674q4 -14 4 -34q0 -34 -20.5 -56t-59.5 -22q-31 0 -75 29.5t-59 29.5q-37 0 -37 -37l4 -27h-50q-3 15 -3 34q0 32 22 55t57 23t79 -29.5t58 -29.5q34 0 34 37l-4 27h50z" />
    <glyph glyph-name="hungarumlaut" unicode="&#x2dd;" horiz-adv-x="376" 
d="M100 548l-53 -4l62 147h79zM241 548l-53 -4l61 147h80z" />
    <glyph glyph-name="gravecomb" unicode="&#x300;" 
d="M-104 544l-88 147h80l61 -143z" />
    <glyph glyph-name="acutecomb" unicode="&#x301;" 
d="M-149 548l-55 -4l62 147h79z" />
    <glyph glyph-name="uni0302" unicode="&#x302;" 
d="M-300 544l98 146h70l97 -146l-56 2l-77 95l-75 -95z" />
    <glyph glyph-name="tildecomb" unicode="&#x303;" 
d="M-50 674q4 -14 4 -34q0 -34 -20.5 -56t-59.5 -22q-31 0 -75 29.5t-59 29.5q-37 0 -37 -37l4 -27h-50q-3 15 -3 34q0 32 22 55t57 23t79 -29.5t58 -29.5q34 0 34 37l-4 27h50z" />
    <glyph glyph-name="uni0304" unicode="&#x304;" 
d="M-316 597v47h264v-47h-264z" />
    <glyph glyph-name="uni0306" unicode="&#x306;" 
d="M-29 680q0 -61 -33.5 -99t-92.5 -38t-92.5 38t-33.5 99h52q0 -44 19.5 -67.5t54.5 -24.5q34 0 54 24t20 68h52z" />
    <glyph glyph-name="uni0307" unicode="&#x307;" 
d="M-46 621q0 -19 -14 -32.5t-34 -13.5t-33.5 13.5t-13.5 32.5q0 20 13.5 33.5t33.5 13.5t34 -13.5t14 -33.5z" />
    <glyph glyph-name="uni0308" unicode="&#x308;" 
d="M-260 579q-18 0 -30 12.5t-12 29.5q0 18 12 30.5t30 12.5q17 0 29.5 -13t12.5 -30t-12.5 -29.5t-29.5 -12.5zM-78 579q-17 0 -29.5 12.5t-12.5 29.5t12.5 30t29.5 13q18 0 30 -12.5t12 -30.5q0 -17 -12 -29.5t-30 -12.5z" />
    <glyph glyph-name="uni030A" unicode="&#x30a;" 
d="M-126 538q-34 0 -57.5 22.5t-23.5 56.5t23.5 57t57.5 23t57.5 -23t23.5 -57t-23.5 -56.5t-57.5 -22.5zM-87 617q0 17 -11 28t-28 11t-28 -11t-11 -28t11.5 -28t27.5 -11t27.5 11t11.5 28z" />
    <glyph glyph-name="uni030B" unicode="&#x30b;" 
d="M-276 548l-53 -4l62 147h79zM-135 548l-53 -4l61 147h80z" />
    <glyph glyph-name="uni030C" unicode="&#x30c;" 
d="M-292 690l57 -2l75 -95l77 95l56 2l-97 -146h-70z" />
    <glyph glyph-name="uni0326" unicode="&#x326;" 
d="M-140 -89q0 19 13.5 32.5t32.5 13.5q20 0 34 -14.5t14 -39.5t-7.5 -47t-18 -35t-20.5 -22.5t-18 -12.5l-7 -4l-21 31l12.5 7.5t20.5 18.5t13 27q-20 0 -34 13t-14 32z" />
    <glyph glyph-name="uni0327" unicode="&#x327;" 
d="M-121 -33q31 -3 54.5 -23t23.5 -55q0 -37 -27 -58t-69 -21q-24 0 -44.5 8t-29.5 16l-9 8l19 36q24 -25 64 -25q23 0 37 10.5t14 27.5q0 19 -21 33t-68 14l29 71h45z" />
    <glyph glyph-name="uni0328" unicode="&#x328;" 
d="M-50 -160q-26 -30 -75 -30q-40 0 -65 22.5t-25 59.5q0 29 12.5 53.5t30.5 39t36 24.5t30 14l13 4l11 -26q-3 -1 -9 -3.5t-20.5 -11t-25.5 -19t-20 -28.5t-9 -38q0 -22 13.5 -35t34.5 -13q13 0 25.5 5.5t18.5 11.5l6 6z" />
    <glyph glyph-name="uni0335" unicode="&#x335;" 
d="M-288 211h268v-45h-268v45z" />
    <glyph glyph-name="uni0336" unicode="&#x336;" 
d="M-350 217h333v-51h-333v51z" />
    <glyph glyph-name="uni0337" unicode="&#x337;" 
d="M-264 339l221 129l23 -40l-221 -129z" />
    <glyph glyph-name="uni0338" unicode="&#x338;" 
d="M-138 503h50l-337 -523h-51z" />
    <glyph glyph-name="Wgrave" unicode="&#x1e80;" horiz-adv-x="894" 
d="M424 686l-88 121h81l62 -117zM806 656h63l-191 -656h-71l-142 497q-9 27 -17 73h-1q-8 -46 -17 -73l-146 -497h-69l-190 656h65l146 -530q10 -38 14 -56h2q8 36 13 56l153 530h59l154 -530l13 -56h2q4 18 14 56z" />
    <glyph glyph-name="wgrave" unicode="&#x1e81;" horiz-adv-x="735" 
d="M404 548l-53 -4l-88 147h80zM646 468h62l-145 -468h-74l-110 356q-6 22 -8 34h-2q-2 -12 -8 -34l-112 -356h-74l-150 468h68l109 -370q2 -7 5 -15.5t5 -14t2 -7.5h2q0 2 2 8t4.5 14.5t4.5 14.5l112 370h63l112 -368q4 -14 9 -39h2q1 2 5 15.5t7 23.5z" />
    <glyph glyph-name="Wacute" unicode="&#x1e82;" horiz-adv-x="894" 
d="M470 690l-54 -4l62 121h80zM806 656h63l-191 -656h-71l-142 497q-9 27 -17 73h-1q-8 -46 -17 -73l-146 -497h-69l-190 656h65l146 -530q10 -38 14 -56h2q8 36 13 56l153 530h59l154 -530l13 -56h2q4 18 14 56z" />
    <glyph glyph-name="wacute" unicode="&#x1e83;" horiz-adv-x="735" 
d="M485 691l-86 -143l-55 -4l62 147h79zM646 468h62l-145 -468h-74l-110 356q-6 22 -8 34h-2q-2 -12 -8 -34l-112 -356h-74l-150 468h68l109 -370q2 -7 5 -15.5t5 -14t2 -7.5h2q0 2 2 8t4.5 14.5t4.5 14.5l112 370h63l112 -368q4 -14 9 -39h2q1 2 5 15.5t7 23.5z" />
    <glyph glyph-name="Wdieresis" unicode="&#x1e84;" horiz-adv-x="894" 
d="M358 705q-17 0 -29.5 12t-12.5 29t12.5 29.5t29.5 12.5t29 -12.5t12 -29.5t-12 -29t-29 -12zM540 705q-17 0 -29.5 12t-12.5 29t12.5 29.5t29.5 12.5t29.5 -12.5t12.5 -29.5t-12.5 -29t-29.5 -12zM806 656h63l-191 -656h-71l-142 497q-9 27 -17 73h-1q-8 -46 -17 -73
l-146 -497h-69l-190 656h65l146 -530q10 -38 14 -56h2q8 36 13 56l153 530h59l154 -530l13 -56h2q4 18 14 56z" />
    <glyph glyph-name="wdieresis" unicode="&#x1e85;" horiz-adv-x="735" 
d="M282 579q-18 0 -30 12.5t-12 29.5q0 18 12 30.5t30 12.5q17 0 29.5 -13t12.5 -30t-12.5 -29.5t-29.5 -12.5zM464 579q-17 0 -29.5 12.5t-12.5 29.5t12.5 30t29.5 13q18 0 30 -12.5t12 -30.5q0 -17 -12 -29.5t-30 -12.5zM646 468h62l-145 -468h-74l-110 356q-6 22 -8 34
h-2q-2 -12 -8 -34l-112 -356h-74l-150 468h68l109 -370q2 -7 5 -15.5t5 -14t2 -7.5h2q0 2 2 8t4.5 14.5t4.5 14.5l112 370h63l112 -368q4 -14 9 -39h2q1 2 5 15.5t7 23.5z" />
    <glyph glyph-name="Ygrave" unicode="&#x1ef2;" horiz-adv-x="573" 
d="M319 690l-55 -4l-88 121h81zM551 656l-232 -406v-250h-63v246l-235 410h69l168 -288q22 -38 29 -67h2q7 29 29 67l168 288h65z" />
    <glyph glyph-name="ygrave" unicode="&#x1ef3;" horiz-adv-x="504" 
d="M233 544l-88 147h80l61 -143zM251 -97q-20 -54 -51.5 -83t-84.5 -29q-17 0 -33 3.5t-23 6.5l-7 3l11 51q20 -11 48 -11q34 0 52.5 18.5t32.5 55.5l29 71l-200 479h67l152 -373q9 -18 11 -34h2q4 19 11 34l153 373h62z" />
    <glyph glyph-name="uni1EF8" unicode="&#x1ef8;" horiz-adv-x="573" 
d="M194 676h-50q-3 15 -3 33q0 34 21.5 54.5t57.5 20.5q35 0 79 -29.5t58 -29.5q34 0 34 37l-4 27h50q4 -14 4 -34q0 -33 -20 -55.5t-57 -22.5q-32 0 -77.5 29.5t-61.5 29.5t-25.5 -9.5t-9.5 -25.5zM551 656l-232 -406v-250h-63v246l-235 410h69l168 -288q22 -38 29 -67h2
q7 29 29 67l168 288h65z" />
    <glyph glyph-name="uni1EF9" unicode="&#x1ef9;" horiz-adv-x="504" 
d="M391 674q4 -14 4 -34q0 -34 -20.5 -56t-59.5 -22q-31 0 -75 29.5t-59 29.5q-37 0 -37 -37l4 -27h-50q-3 15 -3 34q0 32 22 55t57 23t79 -29.5t58 -29.5q34 0 34 37l-4 27h50zM251 -97q-20 -54 -51.5 -83t-84.5 -29q-17 0 -33 3.5t-23 6.5l-7 3l11 51q20 -11 48 -11
q34 0 52.5 18.5t32.5 55.5l29 71l-200 479h67l152 -373q9 -18 11 -34h2q4 19 11 34l153 373h62z" />
    <glyph glyph-name="endash" unicode="&#x2013;" horiz-adv-x="472" 
d="M59 250v47h354v-47h-354z" />
    <glyph glyph-name="emdash" unicode="&#x2014;" horiz-adv-x="718" 
d="M59 250v47h600v-47h-600z" />
    <glyph glyph-name="quoteleft" unicode="&#x2018;" horiz-adv-x="216" 
d="M155 485q0 -20 -13 -32t-35 -12q-24 0 -39 17t-15 45q0 29 8.5 56t20.5 45t24 31.5t20 20.5l9 6l30 -36q-6 -5 -16 -14t-26 -34.5t-16 -49.5q20 0 34 -12t14 -31z" />
    <glyph glyph-name="quoteright" unicode="&#x2019;" horiz-adv-x="213" 
d="M63 619q0 20 13 32t35 12q24 0 39 -17t15 -45q0 -29 -8.5 -56t-20.5 -45t-24 -31.5t-20 -20.5l-9 -6l-30 36q6 5 16 14t26 34.5t16 49.5q-20 0 -34 12t-14 31z" />
    <glyph glyph-name="quotesinglbase" unicode="&#x201a;" horiz-adv-x="224" 
d="M61 37q0 20 13 32t35 12q24 0 39 -17t15 -45q0 -29 -8.5 -56t-20.5 -45t-24 -31.5t-20 -20.5l-9 -6l-30 36q6 5 16 14t26 34.5t16 49.5q-20 0 -34 12t-14 31z" />
    <glyph glyph-name="quotedblleft" unicode="&#x201c;" horiz-adv-x="358" 
d="M155 485q0 -20 -13 -32t-35 -12q-24 0 -39 17t-15 45q0 29 8.5 56t20.5 45t24 31.5t20 20.5l9 6l30 -36q-6 -5 -16 -14t-26 -34.5t-16 -49.5q20 0 34 -12t14 -31zM297 485q0 -20 -13 -32t-35 -12q-24 0 -39 17t-15 45q0 29 8.5 56t20.5 45t24 31.5t20 20.5l9 6l30 -36
q-6 -5 -16 -14t-26 -34.5t-16 -49.5q20 0 34 -12t14 -31z" />
    <glyph glyph-name="quotedblright" unicode="&#x201d;" horiz-adv-x="355" 
d="M112 663q24 0 38.5 -17t14.5 -45q0 -29 -8.5 -56t-20.5 -45t-24 -31.5t-20 -20.5l-9 -6l-30 36q6 5 16 14t26 34.5t16 49.5q-20 0 -34 12t-14 31q0 20 13.5 32t35.5 12zM254 663q24 0 39 -17t15 -45q0 -46 -21 -86t-41 -57l-21 -16l-30 36q6 5 16 14t26.5 34.5t16.5 49.5
q-21 0 -35 12t-14 31q0 20 13.5 32t35.5 12z" />
    <glyph glyph-name="quotedblbase" unicode="&#x201e;" horiz-adv-x="367" 
d="M61 37q0 20 13 32t35 12q24 0 39 -17t15 -45q0 -29 -8.5 -56t-20.5 -45t-24 -31.5t-20 -20.5l-9 -6l-30 36q6 5 16 14t26 34.5t16 49.5q-20 0 -34 12t-14 31zM203 37q0 20 13 32t35 12q24 0 39 -17t15 -45q0 -29 -8.5 -56t-20.5 -45t-24 -31.5t-20 -20.5l-9 -6l-30 36
q6 5 16 14t26 34.5t16 49.5q-20 0 -34 12t-14 31z" />
    <glyph glyph-name="dagger" unicode="&#x2020;" horiz-adv-x="405" 
d="M352 419l-125 3l-2 -199l5 -427h-55l4 427l-2 199l-124 -3v49l124 -3l-2 189h55l-2 -189l124 3v-49z" />
    <glyph glyph-name="daggerdbl" unicode="&#x2021;" horiz-adv-x="405" 
d="M352 414l-124 2l-3 -177l3 -186l124 3v-47l-124 2l2 -215h-55l1 215l-123 -2v47l123 -3l3 186l-3 177l-123 -2v49l123 -2l-1 195h55l-2 -195l124 2v-49z" />
    <glyph glyph-name="bullet" unicode="&#x2022;" horiz-adv-x="343" 
d="M258 289q0 -35 -25.5 -60.5t-61.5 -25.5q-35 0 -60.5 25.5t-25.5 60.5q0 36 25.5 61.5t60.5 25.5q36 0 61.5 -25.5t25.5 -61.5z" />
    <glyph glyph-name="ellipsis" unicode="&#x2026;" horiz-adv-x="540" 
d="M61 39q0 19 13.5 32.5t32.5 13.5t32 -13.5t13 -32.5t-13 -32t-32 -13t-32.5 13t-13.5 32zM222 39q0 19 13.5 32.5t32.5 13.5t32 -13.5t13 -32.5t-13 -32t-32 -13t-32.5 13t-13.5 32zM388 39q0 19 13.5 32.5t32.5 13.5t32 -13.5t13 -32.5t-13 -32t-32 -13t-32.5 13
t-13.5 32z" />
    <glyph glyph-name="perthousand" unicode="&#x2030;" horiz-adv-x="1244" 
d="M258 0l299 662h59l-298 -662h-60zM200 290q-74 0 -119 50t-45 132q0 85 45 136t119 51q75 0 120 -51t45 -136q0 -82 -45.5 -132t-119.5 -50zM200 344q48 0 77 35t29 93q0 60 -29 96.5t-77 36.5q-47 0 -76 -36.5t-29 -96.5q0 -58 29 -93t76 -35zM657 -4q-74 0 -119 50
t-45 132q0 85 45 136t119 51q75 0 120.5 -51t45.5 -136q0 -82 -46 -132t-120 -50zM1044 -4q-74 0 -119 50t-45 132q0 85 45 136t119 51q75 0 120.5 -51t45.5 -136q0 -82 -45.5 -132t-120.5 -50zM657 50q48 0 77 35t29 93q0 61 -29 97t-77 36q-47 0 -76 -36.5t-29 -96.5
q0 -58 29 -93t76 -35zM1044 50q48 0 77 35t29 93q0 61 -29 97t-77 36q-47 0 -76 -36.5t-29 -96.5q0 -58 29 -93t76 -35z" />
    <glyph glyph-name="guilsinglleft" unicode="&#x2039;" horiz-adv-x="275" 
d="M46 239v50l138 134l32 -36l-130 -123l130 -123l-32 -36z" />
    <glyph glyph-name="guilsinglright" unicode="&#x203a;" horiz-adv-x="275" 
d="M91 105l-32 36l130 123l-130 123l32 36l138 -134v-50z" />
    <glyph glyph-name="fraction" unicode="&#x2044;" horiz-adv-x="316" 
d="M18 0l221 726h61l-221 -726h-61z" />
    <glyph glyph-name="Euro" unicode="&#x20ac;" horiz-adv-x="709" 
d="M430 50q124 0 192 94l39 -38q-10 -15 -26 -30.5t-44 -35.5t-70.5 -32.5t-92.5 -12.5q-109 0 -184.5 63.5t-98.5 176.5h-104l11 46h86q-2 30 -2 47q0 26 3 52h-98l11 45h94q24 111 99.5 174t183.5 63q48 0 90.5 -13t70.5 -33.5t44.5 -36.5t26.5 -31l-39 -38
q-28 38 -76.5 67.5t-115.5 29.5q-77 0 -137.5 -47t-82.5 -135h292l-11 -45h-289q-3 -24 -3 -52q0 -24 3 -47h270l-11 -46h-251q22 -89 82 -137t138 -48z" />
    <glyph glyph-name="trademark" unicode="&#x2122;" horiz-adv-x="701" 
d="M36 618v38h254v-38h-104v-238h-46v238h-104zM577 656h47v-276h-41v196l-89 -196h-31l-88 196v-196h-42v276h50l96 -212z" />
    <glyph glyph-name="minus" unicode="&#x2212;" horiz-adv-x="498" 
d="M72 224v47h354v-47h-354z" />
    <glyph glyph-name="uni2215" unicode="&#x2215;" horiz-adv-x="395" 
d="M10 0l317 726h60l-316 -726h-61z" />
    <glyph glyph-name="uni2219" unicode="&#x2219;" horiz-adv-x="320" 
d="M160 237q-16 0 -26.5 10.5t-10.5 26.5q0 17 10.5 27.5t26.5 10.5t26.5 -11t10.5 -27t-10.5 -26.5t-26.5 -10.5z" />
    <glyph glyph-name="approxequal" unicode="&#x2248;" horiz-adv-x="565" 
d="M73 302v45q42 31 106 31q40 0 104 -20t103 -20q64 0 107 31v-46q-47 -31 -107 -31q-39 0 -103 20t-104 20q-63 0 -106 -30zM73 130v45q44 32 106 32q40 0 104 -20t103 -20q66 0 107 30v-46q-47 -31 -107 -31q-39 0 -103 20t-104 20q-63 0 -106 -30z" />
    <glyph glyph-name="notequal" unicode="&#x2260;" horiz-adv-x="527" 
d="M455 323h-142l-43 -145h185v-46h-199l-39 -132h-51l40 132h-134v46h148l43 145h-191v46h205l31 103h50l-31 -103h128v-46z" />
    <glyph glyph-name="uniF8FF" unicode="&#xf8ff;" horiz-adv-x="1451" 
d="M691 583q0 26 17.5 44t43.5 18t44 -18t18 -44t-18 -43.5t-44 -17.5t-43.5 18t-17.5 43zM219 270h-119q0 134 9 314h100q10 -200 10 -314zM694 270q0 92 3 147h-61l3 -65q4 -4 15 -4q13 0 18 5v-74q-14 -15 -68 -15q-82 0 -82 66q0 12 2 49t2 38h-22v79l119 30l1 -17h178
q10 -64 10 -239h-118zM328 265q-92 0 -92 114q0 135 134 135q124 0 124 -117v-127h-83l-8 61q-6 -33 -23.5 -49.5t-51.5 -16.5zM1090 270h-114q0 26 1 56t1 37q0 29 -15 29q-18 0 -18 -29q0 -7 1.5 -37t1.5 -56h-114q0 175 10 239h80q6 -44 6 -76q2 15 6.5 30t24 33t49.5 18
q42 0 58.5 -25t18.5 -81zM1351 391q0 -126 -123 -126q-122 0 -122 124q0 125 124 125q121 0 121 -123zM390 375q0 26 -24 26q-22 0 -22 -26q0 -30 22 -30q24 0 24 30zM1251 375q0 26 -23 26q-21 0 -21 -26q0 -30 21 -30q23 0 23 30zM428 238h104q10 -52 10 -138
q0 -81 -33.5 -115.5t-118.5 -34.5q-61 0 -88 17v83q24 -16 70 -16q21 0 34 6t16.5 11.5t3.5 10.5q-16 -11 -49 -11q-90 0 -90 83v13h-55l3 -65q6 -4 15 -4q13 0 18 5v-73q-19 -15 -68 -15q-45 0 -63 17t-18 54q0 39 3 81h-18v80l117 29l-1 -18h177v-119q0 -16 3 -21.5
t12 -5.5q16 0 16 27v119zM733 243q37 0 58.5 -29t21.5 -84q0 -135 -137 -135q1 -15 1 -39h-119q0 142 10 282h78q7 -42 7 -76q17 81 80 81zM1070 127q0 -21 -3 -35h-124q11 -18 50 -18q34 0 55 12v-75q-23 -16 -78 -16q-141 0 -141 122q0 59 32.5 92.5t92.5 33.5
q55 0 85.5 -30t30.5 -86zM978 109q3 27 -17 27q-23 0 -23 -27h40zM670 72q5 0 12.5 2.5t16 11.5t8.5 23q0 23 -20 23q-22 0 -22 -31q0 -14 5 -29zM1074 13q0 -23 24 -23t24 23t-24 23t-24 -23zM1080 13q0 18 18 18t18 -18t-18 -18t-18 18zM1108 2l-6 9q7 0 7 7t-10 7h-11
v-23h5v9h5l4 -9h6zM1100 15h-7v6h7q4 0 4 -3t-4 -3z" />
    <glyph glyph-name="i.loclTRK" horiz-adv-x="220" 
d="M156 621q0 -19 -14 -32.5t-34 -13.5t-33.5 13.5t-13.5 32.5q0 20 13.5 33.5t33.5 13.5t34 -13.5t14 -33.5zM80 0v468l61 2v-470h-61z" />
    <glyph glyph-name="uni0306.case.001" 
d="M-39 660q0 -51 -31.5 -84t-84.5 -33t-84.5 33t-31.5 84h48q0 -33 18 -52t50 -20q32 0 50 19.5t18 52.5h48z" />
    <glyph glyph-name="caroncomb.alt" 
d="M-114 402q0 19 13.5 32t32.5 13q21 0 35 -14t14 -38q0 -27 -7 -52t-17 -40.5t-20.5 -27.5t-17.5 -17l-7 -5l-26 34q5 3 13 9t21.5 24.5t13.5 36.5q-20 0 -34 13t-14 32z" />
    <glyph glyph-name="acutecomb.case" 
d="M-150 548l-54 -4l62 121h80z" />
    <glyph glyph-name="uni0306.case" 
d="M-39 660q0 -51 -31.5 -84t-84.5 -33t-84.5 33t-31.5 84h48q0 -33 18 -52t50 -20q32 0 50 19.5t18 52.5h48z" />
    <glyph glyph-name="uni030C.case" 
d="M-300 675l57 -2l75 -75l77 75l56 2l-97 -126h-70z" />
    <glyph glyph-name="uni0302.case" 
d="M-132 670l97 -126l-56 2l-77 75l-75 -75l-57 -2l98 126h70z" />
    <glyph glyph-name="uni0308.case" 
d="M-260 563q-17 0 -29.5 12t-12.5 29t12.5 29.5t29.5 12.5t29 -12.5t12 -29.5t-12 -29t-29 -12zM-78 563q-17 0 -29.5 12t-12.5 29t12.5 29.5t29.5 12.5t29.5 -12.5t12.5 -29.5t-12.5 -29t-29.5 -12z" />
    <glyph glyph-name="uni0307.case" 
d="M-94 556q-20 0 -33.5 13.5t-13.5 32.5q0 20 13.5 33.5t33.5 13.5t34 -14t14 -33t-14 -32.5t-34 -13.5z" />
    <glyph glyph-name="gravecomb.case" 
d="M-104 544l-88 121h81l62 -117z" />
    <glyph glyph-name="uni030B.case" 
d="M-265 548l-54 -4l62 121h80zM-109 548l-55 -4l62 121h80z" />
    <glyph glyph-name="uni0304.case" 
d="M-317 568v46h266v-46h-266z" />
    <glyph glyph-name="uni030A.case" 
d="M-126 533q-32 0 -54 21.5t-22 52.5q0 32 22 53.5t54 21.5t53.5 -21.5t21.5 -53.5q0 -31 -21.5 -52.5t-53.5 -21.5zM-89 607q0 16 -10.5 27t-26.5 11t-26.5 -11t-10.5 -27t10.5 -26.5t26.5 -10.5t26.5 10.5t10.5 26.5z" />
    <glyph glyph-name="uni0338.case" 
d="M26 716l-490 -732h-65l491 732h64z" />
    <glyph glyph-name="uni0337.case" 
d="M-364 339l320 187l23 -40l-320 -187z" />
    <glyph glyph-name="tildecomb.case" 
d="M-50 645q4 -14 4 -34q0 -33 -20 -55.5t-57 -22.5q-32 0 -77.5 29.5t-61.5 29.5t-25.5 -9.5t-9.5 -25.5l4 -25h-50q-3 15 -3 33q0 34 21.5 54.5t57.5 20.5q35 0 79 -29.5t58 -29.5q34 0 34 37l-4 27h50z" />
    <glyph glyph-name="caron.alt" horiz-adv-x="135" 
d="M116 395q0 -26 -7.5 -47.5t-18 -33.5t-21 -21t-17.5 -12l-8 -3l-21 32q5 2 12.5 5.5t20.5 16t13 25.5q-20 0 -34 13t-14 32t13.5 32t32.5 13q21 0 35 -14t14 -38z" />
    <glyph glyph-name="acute.case" horiz-adv-x="255" 
d="M105 548l-54 -4l62 121h80z" />
    <glyph glyph-name="breve.case" horiz-adv-x="310" 
d="M271 660q0 -51 -31.5 -84t-84.5 -33t-84.5 33t-31.5 84h48q0 -33 18 -52t50 -20q32 0 50 19.5t18 52.5h48z" />
    <glyph glyph-name="caron.case" horiz-adv-x="326" 
d="M34 675l57 -2l75 -75l77 75l56 2l-97 -126h-70z" />
    <glyph glyph-name="circumflex.case" horiz-adv-x="334" 
d="M202 670l97 -126l-56 2l-77 75l-75 -75l-57 -2l98 126h70z" />
    <glyph glyph-name="dieresis.case" horiz-adv-x="339" 
d="M79 563q-17 0 -29.5 12t-12.5 29t12.5 29.5t29.5 12.5t29 -12.5t12 -29.5t-12 -29t-29 -12zM261 563q-17 0 -29.5 12t-12.5 29t12.5 29.5t29.5 12.5t29.5 -12.5t12.5 -29.5t-12.5 -29t-29.5 -12z" />
    <glyph glyph-name="dotaccent.case" horiz-adv-x="188" 
d="M94 556q-20 0 -33.5 13.5t-13.5 32.5q0 20 13.5 33.5t33.5 13.5t34 -14t14 -33t-14 -32.5t-34 -13.5z" />
    <glyph glyph-name="grave.case" horiz-adv-x="255" 
d="M151 544l-88 121h81l62 -117z" />
    <glyph glyph-name="hungarumlaut.case" horiz-adv-x="376" 
d="M111 548l-54 -4l62 121h80zM267 548l-55 -4l62 121h80z" />
    <glyph glyph-name="macron.case" horiz-adv-x="368" 
d="M51 568v46h266v-46h-266z" />
    <glyph glyph-name="ring.case" horiz-adv-x="252" 
d="M126 533q-32 0 -54 21.5t-22 52.5q0 32 22 53.5t54 21.5t53.5 -21.5t21.5 -53.5q0 -31 -21.5 -52.5t-53.5 -21.5zM163 607q0 16 -10.5 27t-26.5 11t-26.5 -11t-10.5 -27t10.5 -26.5t26.5 -10.5t26.5 10.5t10.5 26.5z" />
    <glyph glyph-name="tilde.case" horiz-adv-x="385" 
d="M335 645q4 -14 4 -34q0 -33 -20 -55.5t-57 -22.5q-32 0 -77.5 29.5t-61.5 29.5t-25.5 -9.5t-9.5 -25.5l4 -25h-50q-3 15 -3 33q0 34 21.5 54.5t57.5 20.5q35 0 79 -29.5t58 -29.5q34 0 34 37l-4 27h50z" />
    <glyph glyph-name="Rem" horiz-adv-x="485" 
 />
    <glyph glyph-name="IJacute" horiz-adv-x="697" 
d="M598 690l-54 -4l62 121h80zM150 689l-54 -4l62 121h80zM94 0v656h62v-656h-62zM299 106q56 -56 122 -56q124 0 124 127v479h63v-475q0 -93 -49.5 -139.5t-137.5 -46.5q-92 0 -161 64z" />
    <glyph glyph-name="ijacute" horiz-adv-x="433" 
d="M138 540l-55 -4l62 147h79zM357 540l-55 -3l62 146h80zM80 0v468l61 2v-470h-61zM138 -139q23 -17 62 -17q48 0 70.5 26t22.5 81v517l61 2v-509q0 -169 -149 -169q-25 0 -46.5 6.5t-30.5 13.5l-8 6z" />
    <glyph glyph-name="commaccent" horiz-adv-x="600" 
 />
    </font>
</defs>
</svg>
