<?xml version="1.0" standalone="no"?>
<!DOCTYPE svg PUBLIC "-//W3C//DTD SVG 1.1//EN" "http://www.w3.org/Graphics/SVG/1.1/DTD/svg11.dtd" >
<svg xmlns="http://www.w3.org/2000/svg" xmlns:xlink="http://www.w3.org/1999/xlink" version="1.1">
<metadata>
Created by FontForge 20201107 at Mon Jul 18 17:13:12 2016
 By 
Copyright (c) 2016 by Daniel Hernandez. All rights reserved.
</metadata>
<defs>
<font id="BasicSans-SemiBold" horiz-adv-x="0" >
  <font-face 
    font-family="BasicSans-SemiBold"
    font-weight="400"
    font-stretch="normal"
    units-per-em="1000"
    panose-1="0 0 7 0 0 0 0 0 0 0"
    ascent="773"
    descent="-227"
    x-height="472"
    cap-height="660"
    bbox="-541 -279 1351 936"
    underline-thickness="50"
    underline-position="-100"
    unicode-range="U+0020-FB02"
  />
<missing-glyph horiz-adv-x="414" 
 />
    <glyph glyph-name="fi" unicode="fi" horiz-adv-x="628" 
d="M222 472h209l122 4v-476h-122v378h-209v-378h-122v378h-70v94h70v42q0 91 54 144.5t140 53.5q68 0 106 -25l-37 -97l-7 4q-7 5 -12 7.5t-15 5.5t-21 3q-41 0 -63.5 -25.5t-22.5 -68.5v-44zM493 547q-34 0 -57 22t-23 55t23 55t57 22q33 0 56.5 -22t23.5 -55t-23.5 -55
t-56.5 -22z" />
    <glyph glyph-name="fl" unicode="fl" horiz-adv-x="628" 
d="M308 610q-41 0 -63.5 -25.5t-22.5 -68.5v-44h152v-94h-152v-378h-122v378h-70v94h70v42q0 91 54 144.5t140 53.5q27 0 53.5 -6t39 -11t17.5 -8l-37 -97q-35 20 -59 20zM446 706h121v-706h-121v706z" />
    <glyph glyph-name=".notdef" horiz-adv-x="414" 
 />
    <glyph glyph-name=".null" 
 />
    <glyph glyph-name="nonmarkingreturn" horiz-adv-x="333" 
 />
    <glyph glyph-name="space" unicode=" " horiz-adv-x="211" 
 />
    <glyph glyph-name="exclam" unicode="!" horiz-adv-x="256" 
d="M196 669l-18 -462l-101 -4l-13 466h132zM92 95q15 14 35.5 14t34.5 -14q15 -15 14.5 -35.5t-14.5 -35.5q-14 -14 -35.5 -14t-35.5 15q-14 14 -13.5 34.5t14.5 35.5z" />
    <glyph glyph-name="quotedbl" unicode="&#x22;" horiz-adv-x="314" 
d="M55 504l-4 202h82l-5 -202h-73zM186 504l-4 202h82l-5 -202h-73z" />
    <glyph glyph-name="numbersign" unicode="#" horiz-adv-x="647" 
d="M601 296h-122l-22 -102h124l-17 -71h-122l-27 -123h-92l27 123h-104l-26 -123h-93l27 123h-125l17 71h123l22 102h-125l17 71h123l27 124h92l-27 -124h104l27 124h92l-27 -124h124zM365 194l22 102h-104l-22 -102h104z" />
    <glyph glyph-name="dollar" unicode="$" horiz-adv-x="568" 
d="M531 175q0 -72 -52.5 -121t-148.5 -59v-99h-86v99q-131 12 -218 86l75 92q85 -76 187 -76q56 0 86.5 20t30.5 56q0 34 -26 57t-64.5 34.5t-84 27.5t-84 34t-64.5 56t-26 92q0 74 51.5 126.5t136.5 63.5v99h86v-98q94 -11 139 -60t57 -108l-114 -28q-3 33 -34.5 62.5
t-88.5 29.5q-50 0 -78.5 -22t-28.5 -59q0 -29 26 -49.5t64.5 -31t84 -27t84 -36.5t64.5 -61.5t26 -99.5z" />
    <glyph glyph-name="percent" unicode="%" horiz-adv-x="902" 
d="M248 0l304 667h102l-302 -667h-104zM206 290q-80 0 -129 50.5t-49 133.5q0 85 49 137t129 52q81 0 130.5 -52t49.5 -137q0 -83 -49.5 -133.5t-130.5 -50.5zM206 381q35 0 56.5 25.5t21.5 67.5q0 44 -21.5 70.5t-56.5 26.5q-34 0 -55 -27t-21 -70q0 -42 21 -67.5t55 -25.5
zM695 -4q-80 0 -129.5 51t-49.5 133q0 85 49.5 137t129.5 52q81 0 130.5 -52t49.5 -137q0 -83 -49.5 -133.5t-130.5 -50.5zM695 87q35 0 56.5 25.5t21.5 67.5q0 44 -21.5 70.5t-56.5 26.5q-34 0 -55.5 -27t-21.5 -70q0 -42 21.5 -67.5t55.5 -25.5z" />
    <glyph glyph-name="ampersand" unicode="&#x26;" horiz-adv-x="609" 
d="M582 293q0 -116 -66 -195l57 -66l-80 -59l-54 62q-72 -39 -165 -39q-107 0 -172.5 51t-65.5 133q0 121 129 172q-55 69 -55 140q0 74 51 121t130 47q80 0 129 -43.5t49 -111.5q0 -117 -147 -180l126 -147q34 54 34 141zM292 569q-33 0 -53 -21t-20 -56q0 -51 49 -104
q54 21 74.5 45.5t20.5 61.5q0 33 -19.5 53.5t-51.5 20.5zM277 97q53 0 95 17l-149 173q-65 -32 -65 -93q0 -43 32.5 -70t86.5 -27z" />
    <glyph glyph-name="quotesingle" unicode="'" horiz-adv-x="183" 
d="M55 504l-4 202h82l-5 -202h-73z" />
    <glyph glyph-name="parenleft" unicode="(" horiz-adv-x="304" 
d="M189 -244q-6 7 -16 20.5t-36 59.5t-45.5 98t-35.5 135.5t-16 171.5t15.5 170.5t37.5 137t43.5 96.5t37.5 61l15 20l101 -45q-5 -6 -14 -18t-32 -54t-40.5 -89t-32 -122.5t-14.5 -156.5t13.5 -156t33 -124t39.5 -87t33 -56l14 -17z" />
    <glyph glyph-name="parenright" unicode=")" horiz-adv-x="303" 
d="M264 241q0 -88 -15.5 -170.5t-37.5 -137t-43.5 -96.5t-37.5 -61l-15 -20l-101 45q5 6 14 18t32 54t40 89t31.5 122.5t14.5 156.5t-13.5 156t-33 124t-39 87t-32.5 56l-14 17l101 45q6 -7 16 -20.5t36 -59.5t45.5 -98t35.5 -135.5t16 -171.5z" />
    <glyph glyph-name="asterisk" unicode="*" horiz-adv-x="428" 
d="M251 339l-45 127l-76 -107l-53 38l95 103l-136 12l7 63l133 -31l-56 122l58 26l44 -130l79 114l51 -39l-93 -104l135 -11l-7 -64l-136 29l59 -122z" />
    <glyph glyph-name="plus" unicode="+" horiz-adv-x="462" 
d="M427 283v-82h-153v-167h-86v167h-153v82h153v149h86v-149h153z" />
    <glyph glyph-name="comma" unicode="," horiz-adv-x="246" 
d="M43 62q0 32 20.5 51t54.5 19q36 0 60 -24.5t24 -68.5q0 -41 -12 -77t-29 -58.5t-34 -39t-29 -23.5l-12 -7l-44 56q3 2 8 5.5t18 14.5t23 22.5t18 28.5t8 33q-32 0 -53 19t-21 49z" />
    <glyph glyph-name="hyphen" unicode="-" horiz-adv-x="387" 
d="M55 281v85h277v-85h-277z" />
    <glyph glyph-name="period" unicode="." horiz-adv-x="230" 
d="M43 65q0 30 21 51.5t51 21.5t51 -21.5t21 -51.5q0 -29 -21 -50t-51 -21t-51 21t-21 50z" />
    <glyph glyph-name="slash" unicode="/" horiz-adv-x="437" 
d="M22 -204l277 910h115l-275 -910h-117z" />
    <glyph glyph-name="zero" unicode="0" horiz-adv-x="641" 
d="M319 -7q-132 0 -203.5 88t-71.5 246q0 160 71.5 250t203.5 90q133 0 205 -90t72 -250q0 -159 -72 -246.5t-205 -87.5zM319 103q72 0 112 58t40 166q0 110 -40 170t-112 60q-70 0 -109.5 -60t-39.5 -170q0 -108 39 -166t110 -58z" />
    <glyph glyph-name="one" unicode="1" horiz-adv-x="387" 
d="M189 0v530l-169 -44v115l274 59h19v-660h-124z" />
    <glyph glyph-name="two" unicode="2" horiz-adv-x="567" 
d="M237 100q21 3 53 3h237v-103h-480v88q27 20 78 56t80 57t68 54.5t59.5 60t36 61t15.5 69.5q0 50 -30 80.5t-81 30.5q-48 0 -77.5 -25t-29.5 -65q0 -13 4 -25l-121 -21q-8 19 -8 52q0 86 64.5 140t169.5 54q107 0 171.5 -59.5t64.5 -157.5q0 -64 -35.5 -126t-81 -104
t-110.5 -87q-31 -22 -49 -29z" />
    <glyph glyph-name="three" unicode="3" horiz-adv-x="574" 
d="M279 667q106 0 168.5 -53.5t62.5 -139.5q0 -60 -39.5 -100.5t-92.5 -40.5v-2q58 0 106.5 -43t48.5 -112q0 -81 -67 -132t-184 -51q-56 0 -103 13.5t-73.5 32.5t-45 38t-25.5 33l-7 13l94 61q2 -3 6.5 -8.5t19 -20t31 -25t43.5 -19.5t56 -9q59 0 93 24t35 65q0 82 -132 88
l-58 1v96l44 1q57 2 90 24t33 60q0 43 -29.5 69.5t-77.5 26.5q-46 0 -73.5 -21t-27.5 -53q0 -15 4 -25l-122 -19q-6 12 -6 51q0 78 63 127.5t165 49.5z" />
    <glyph glyph-name="four" unicode="4" horiz-adv-x="606" 
d="M480 660v-413h97v-102h-96v-145h-123v145h-337v102l297 413h162zM362 247v240q0 51 2 58l-3 3q-6 -14 -35 -55l-138 -186q-42 -57 -43 -58l2 -4q10 2 59 2h156z" />
    <glyph glyph-name="five" unicode="5" horiz-adv-x="571" 
d="M97 660h394v-104h-293l-14 -155l4 -2q42 40 122 40q102 0 164.5 -60.5t62.5 -158.5q0 -102 -72.5 -164.5t-188.5 -62.5q-50 0 -94 13t-71.5 31.5t-47.5 36.5t-29 31l-8 13l97 68q2 -3 6.5 -9t19 -20t31 -25t42.5 -20t54 -9q59 0 96.5 32.5t37.5 85.5q0 51 -34 83.5
t-89 32.5q-30 0 -55 -11t-34.5 -19.5t-11.5 -13.5h-117z" />
    <glyph glyph-name="six" unicode="6" horiz-adv-x="590" 
d="M339 420q92 0 152 -58t60 -151q0 -98 -65.5 -158t-171.5 -60q-122 0 -196.5 88t-74.5 243q0 154 79 248t207 94q135 0 206 -87l-77 -76q-41 54 -123 54q-77 0 -123.5 -62t-46.5 -163v-13l4 -1q11 37 53 69.5t117 32.5zM313 102q53 0 86 31t33 82q0 47 -33 76.5t-86 29.5
q-60 0 -96 -32.5t-37 -85.5q31 -101 133 -101z" />
    <glyph glyph-name="seven" unicode="7" horiz-adv-x="517" 
d="M30 660h467v-100l-247 -560h-137l236 508q24 48 26 50l-2 3q-16 -2 -50 -2h-182v-90h-113v180h2v11z" />
    <glyph glyph-name="eight" unicode="8" horiz-adv-x="602" 
d="M450 347q51 -20 81.5 -61.5t30.5 -97.5q0 -88 -71.5 -141.5t-189.5 -53.5t-189.5 53.5t-71.5 141.5q0 56 30.5 97.5t81.5 61.5v3q-36 15 -58.5 51t-22.5 83q0 81 63.5 132t166.5 51t166.5 -51t63.5 -132q0 -47 -22.5 -83t-58.5 -51v-3zM301 570q-49 0 -77.5 -23
t-28.5 -64q0 -38 29 -62.5t77 -24.5t77.5 25t29.5 62q0 41 -29 64t-78 23zM301 94q63 0 101 29t38 77q0 44 -38 70t-101 26t-101 -26t-38 -70q0 -48 38.5 -77t100.5 -29z" />
    <glyph glyph-name="nine" unicode="9" horiz-adv-x="586" 
d="M277 666q124 0 195 -86.5t71 -247.5q0 -154 -77 -246.5t-204 -92.5q-143 0 -209 85l80 75q41 -51 122 -51q75 0 122 62t47 164v1l-4 1q-9 -34 -50 -64.5t-117 -30.5q-93 0 -153.5 57.5t-60.5 150.5q0 99 66.5 161t171.5 62zM278 338q58 0 94 32t38 84q-29 104 -133 104
q-52 0 -85.5 -31.5t-33.5 -81.5q0 -47 33.5 -77t86.5 -30z" />
    <glyph glyph-name="colon" unicode=":" horiz-adv-x="251" 
d="M54 406q0 30 21 51.5t51 21.5t51 -21.5t21 -51.5q0 -29 -21 -50t-51 -21t-51 21t-21 50zM54 64q0 30 21 51.5t51 21.5t51 -21.5t21 -51.5q0 -29 -21 -50t-51 -21t-51 21t-21 50z" />
    <glyph glyph-name="semicolon" unicode=";" horiz-adv-x="269" 
d="M63 406q0 30 21 51.5t51 21.5t51 -21.5t21 -51.5q0 -29 -21 -50t-51 -21t-51 21t-21 50zM56 61q0 32 20.5 51t54.5 19q36 0 60 -24.5t24 -68.5q0 -41 -12 -77t-29 -58.5t-34 -39t-29 -23.5l-12 -7l-44 56q3 2 8 5.5t18 14.5t23 22.5t18 28.5t8 33q-32 0 -53 19t-21 49z
" />
    <glyph glyph-name="less" unicode="&#x3c;" horiz-adv-x="421" 
d="M29 226v93l339 197v-102l-236 -142l236 -140v-103z" />
    <glyph glyph-name="equal" unicode="=" horiz-adv-x="509" 
d="M59 301v82h391v-82h-391zM59 100v81h391v-81h-391z" />
    <glyph glyph-name="greater" unicode="&#x3e;" horiz-adv-x="421" 
d="M53 29v103l235 140l-235 142v102l339 -197v-93z" />
    <glyph glyph-name="question" unicode="?" horiz-adv-x="474" 
d="M231 691q103 0 159.5 -53.5t56.5 -131.5q0 -42 -19 -75t-45.5 -55.5t-53.5 -43.5t-46 -49.5t-19 -62.5v-15l-107 -4v31q0 44 17 79t41.5 57t49 40.5t42 41.5t17.5 49q0 36 -25.5 60.5t-67.5 24.5q-39 0 -63 -21t-24 -56q0 -12 5 -24l-114 -18q-7 27 -7 52q0 77 56 125.5
t147 48.5zM211 130q29 0 50 -21t21 -50q0 -28 -21 -48.5t-50 -20.5t-49 20t-20 49t20.5 50t48.5 21z" />
    <glyph glyph-name="at" unicode="@" horiz-adv-x="855" 
d="M503 442h114v-289q0 -22 12.5 -35.5t33.5 -13.5q43 0 73.5 51.5t30.5 134.5q0 136 -90.5 220.5t-237.5 84.5q-155 0 -255 -99.5t-100 -256.5q0 -151 98 -246t252 -95q161 0 268 98l27 -30q-109 -109 -294 -109q-174 0 -285 106.5t-111 275.5q0 176 112.5 286.5
t287.5 110.5q168 -1 270.5 -97t102.5 -249q0 -117 -54 -184t-134 -67q-47 0 -76.5 24.5t-34.5 64.5q-35 -87 -134 -87q-78 0 -125.5 56.5t-47.5 144.5q0 95 51 150.5t129 55.5q81 0 117 -56v50zM411 138q40 0 66 28t26 65v26q0 37 -25.5 65.5t-68.5 28.5q-39 0 -62.5 -29.5
t-23.5 -79.5q0 -47 24 -75.5t64 -28.5z" />
    <glyph glyph-name="A" unicode="A" horiz-adv-x="623" 
d="M488 0l-50 148h-252l-50 -148h-130l239 660h134l237 -660h-128zM219 245h186l-72 210q-8 23 -20 73h-3q-7 -35 -20 -74z" />
    <glyph glyph-name="B" unicode="B" horiz-adv-x="615" 
d="M441 344q19 -3 40.5 -13t43.5 -28.5t36.5 -51t14.5 -72.5q0 -86 -58.5 -132.5t-167.5 -46.5h-276v660h249q106 0 165 -46.5t59 -131.5q0 -65 -33.5 -97t-72.5 -38v-3zM421 471q0 91 -122 91h-100v-180h109q54 0 83.5 24.5t29.5 64.5zM329 98q55 0 87.5 24t32.5 71
q0 49 -35.5 75t-93.5 26h-121v-196h130z" />
    <glyph glyph-name="C" unicode="C" horiz-adv-x="645" 
d="M348 667q69 0 122.5 -23t82.5 -59.5t44 -76.5t15 -80l-118 -18q0 55 -36 101t-108 46q-78 0 -129.5 -61.5t-51.5 -165.5q0 -114 57 -170.5t142 -56.5q103 0 174 95l75 -77q-13 -19 -31 -37t-49 -40.5t-76 -36.5t-96 -14q-146 0 -235 90.5t-89 246.5q0 152 85.5 244.5
t221.5 92.5z" />
    <glyph glyph-name="D" unicode="D" horiz-adv-x="671" 
d="M296 660q159 0 246 -88.5t87 -241.5q0 -162 -79.5 -246t-222.5 -84h-253v660h222zM315 101q87 0 136.5 56t49.5 173q0 114 -56 171.5t-162 57.5h-83v-458h115z" />
    <glyph glyph-name="E" unicode="E" horiz-adv-x="550" 
d="M503 556h-303v-168h265v-100h-265v-184h303v-104h-429v660h429v-104z" />
    <glyph glyph-name="F" unicode="F" horiz-adv-x="519" 
d="M493 556h-293v-178h252v-103h-252v-275h-126v660h419v-104z" />
    <glyph glyph-name="G" unicode="G" horiz-adv-x="670" 
d="M620 323v-323h-83q-6 23 -11 80q-58 -87 -189 -87q-133 0 -214 92t-81 245q0 152 85.5 244.5t220.5 92.5q69 0 122.5 -22t82.5 -57t43.5 -73t14.5 -77l-116 -18q0 54 -36.5 95.5t-108.5 41.5q-78 0 -129.5 -61t-51.5 -166q0 -104 51 -167.5t138 -63.5q76 0 116.5 38.5
t40.5 100.5h-185v85h290z" />
    <glyph glyph-name="H" unicode="H" horiz-adv-x="709" 
d="M508 660h126v-660h-126v286h-308v-286h-126v660h126v-270h308v270z" />
    <glyph glyph-name="I" unicode="I" horiz-adv-x="273" 
d="M74 0v660h125v-660h-125z" />
    <glyph glyph-name="J" unicode="J" horiz-adv-x="470" 
d="M74 153q45 -49 100 -49q51 0 76 24t25 78v454h126v-451q0 -105 -60 -160t-165 -55q-99 0 -177 70z" />
    <glyph glyph-name="K" unicode="K" horiz-adv-x="603" 
d="M466 1l-193 266h-73v-267h-126v660h126v-292h66l200 292h131l-237 -338l239 -321h-133z" />
    <glyph glyph-name="L" unicode="L" horiz-adv-x="520" 
d="M200 104h308v-104h-434v660h126v-556z" />
    <glyph glyph-name="M" unicode="M" horiz-adv-x="850" 
d="M776 660v-660h-125l1 366q0 68 5 81l-5 2q-8 -36 -22 -66l-169 -386h-70l-173 390q-15 31 -21 62l-4 -2q4 -20 4 -81l2 -366h-125v660h136l173 -377q30 -66 43 -109h3q6 24 44 109l171 377h132z" />
    <glyph glyph-name="N" unicode="N" horiz-adv-x="697" 
d="M623 660v-660h-124l-228 348q-23 34 -75 123l-5 -3q5 -23 5 -119l2 -349h-124v660h119l235 -360q50 -78 72 -124l6 3q-5 42 -5 122l-1 359h123z" />
    <glyph glyph-name="O" unicode="O" horiz-adv-x="717" 
d="M358 667q142 0 230 -91.5t88 -245.5q0 -153 -88 -244.5t-230 -91.5q-140 0 -228.5 91.5t-88.5 244.5t88 245t229 92zM358 103q85 0 138 61.5t53 165.5q0 105 -53 166t-138 61q-84 0 -137 -61t-53 -166q0 -104 53 -165.5t137 -61.5z" />
    <glyph glyph-name="P" unicode="P" horiz-adv-x="600" 
d="M303 660q129 0 200 -59t71 -171q0 -111 -69 -171t-186 -60h-119v-199h-126v660h229zM296 300q72 0 111.5 33.5t39.5 96.5q0 61 -40 95t-116 34h-91v-259h96z" />
    <glyph glyph-name="Q" unicode="Q" horiz-adv-x="717" 
d="M676 330q0 -117 -52.5 -199t-144.5 -116q97 -22 181 -26l-25 -97q-97 13 -166 36t-151 68q-125 13 -201 103t-76 231q0 153 88 245t229 92q142 0 230 -91.5t88 -245.5zM168 330q0 -104 53 -165.5t137 -61.5q85 0 138 61.5t53 165.5q0 105 -53 166t-138 61q-84 0 -137 -61
t-53 -166z" />
    <glyph glyph-name="R" unicode="R" horiz-adv-x="617" 
d="M594 96l8 -96q-26 -7 -67 -7q-40 0 -70 13.5t-48 34.5t-32 47t-26.5 52t-27.5 47t-38 34.5t-55 13.5h-38v-235h-126v660h217q257 0 257 -217q0 -136 -138 -186q25 -12 45.5 -41t32.5 -55t34 -46.5t52 -20.5zM200 326h74q67 0 108 30.5t41 85.5q0 57 -36 87t-103 30h-84
v-233z" />
    <glyph glyph-name="S" unicode="S" horiz-adv-x="568" 
d="M410 469q-3 33 -34.5 62.5t-88.5 29.5q-50 0 -78.5 -22t-28.5 -59q0 -29 26 -49.5t64.5 -31t84 -27t84 -36.5t64.5 -61.5t26 -99.5q0 -81 -65 -131.5t-181 -50.5q-87 0 -154 27.5t-105 60.5l75 92q85 -76 187 -76q56 0 86.5 20t30.5 56q0 34 -26 57t-64.5 34.5t-84 27.5
t-84 34t-64.5 56t-26 92q0 84 64 138.5t166 54.5q63 0 110 -17t72.5 -45t38.5 -54t19 -54z" />
    <glyph glyph-name="T" unicode="T" horiz-adv-x="559" 
d="M216 0v556h-204v104h535v-104h-205v-556h-126z" />
    <glyph glyph-name="U" unicode="U" horiz-adv-x="680" 
d="M486 660h126v-401q0 -120 -75 -193t-196 -73q-123 0 -198 72.5t-75 193.5v401h126v-400q0 -74 40.5 -115.5t106.5 -41.5q65 0 105 41.5t40 114.5v401z" />
    <glyph glyph-name="V" unicode="V" horiz-adv-x="615" 
d="M139 660l148 -454q13 -39 20 -74h3q11 45 21 73l149 455h128l-234 -660h-133l-233 660h131z" />
    <glyph glyph-name="W" unicode="W" horiz-adv-x="918" 
d="M781 660h127l-185 -660h-142l-99 370q-12 46 -21 107h-2q-8 -53 -22 -107l-102 -370h-141l-184 660h130l109 -454q7 -34 18 -80h2q2 7 8 35t10 44l117 455h112l117 -455q10 -39 18 -79h3q5 26 18 80z" />
    <glyph glyph-name="X" unicode="X" horiz-adv-x="612" 
d="M394 324l212 -324h-143l-119 191q-13 19 -37 68h-2q-24 -49 -37 -68l-125 -191h-132l205 323l-208 337h148l115 -203q23 -40 34 -65h3q6 18 35 65l123 203h135z" />
    <glyph glyph-name="Y" unicode="Y" horiz-adv-x="591" 
d="M583 660l-224 -420v-240h-126v236l-227 424h136l122 -234q27 -52 32 -82h3q5 30 32 82l120 234h132z" />
    <glyph glyph-name="Z" unicode="Z" horiz-adv-x="578" 
d="M33 0v101l309 394q38 46 52 60l-2 4q-19 -3 -83 -3h-266v104h500v-101l-306 -394q-29 -36 -56 -60l3 -4q15 3 83 3h271v-104h-505z" />
    <glyph glyph-name="bracketleft" unicode="[" horiz-adv-x="352" 
d="M69 -204v910h257v-99h-139v-712h139v-99h-257z" />
    <glyph glyph-name="backslash" unicode="\" horiz-adv-x="437" 
d="M414 -204h-116l-276 910h116z" />
    <glyph glyph-name="bracketright" unicode="]" horiz-adv-x="352" 
d="M27 -204v99h138v712h-138v99h256v-910h-256z" />
    <glyph glyph-name="asciicircum" unicode="^" horiz-adv-x="388" 
d="M36 511l93 218h130l93 -218h-103l-55 131l-55 -131h-103z" />
    <glyph glyph-name="underscore" unicode="_" horiz-adv-x="389" 
d="M0 -141v85h389v-85h-389z" />
    <glyph glyph-name="grave" unicode="`" horiz-adv-x="290" 
d="M140 538l-99 164h151l58 -159z" />
    <glyph glyph-name="a" unicode="a" horiz-adv-x="540" 
d="M509 97l5 -95q-27 -7 -60 -7q-91 0 -103 75q-39 -76 -155 -76q-76 0 -118 35t-42 95q0 80 75.5 113.5t225.5 35.5h8v23q0 41 -24.5 64.5t-70.5 23.5q-43 0 -66.5 -16.5t-23.5 -45.5q0 -9 4 -19l-108 -18q-6 19 -6 44q0 67 55 108t149 41q100 0 155 -49t55 -136v-166
q0 -18 6.5 -25t21.5 -7q7 0 17 2zM228 87q53 0 85 23.5t32 55.5v40h-8q-96 -2 -139 -18t-43 -51q0 -50 73 -50z" />
    <glyph glyph-name="b" unicode="b" horiz-adv-x="585" 
d="M335 478q94 0 154 -65.5t60 -177.5q0 -109 -61.5 -175t-159.5 -66q-60 0 -101 27.5t-62 73.5h-1q0 -44 -12 -95h-92v706h122v-307q48 79 153 79zM308 96q53 0 85 38t32 101q0 65 -32.5 103t-88.5 38t-89 -39.5t-33 -87.5v-27q0 -50 33.5 -88t92.5 -38z" />
    <glyph glyph-name="c" unicode="c" horiz-adv-x="513" 
d="M277 478q90 0 144 -47t54 -118l-3 -33l-109 -7q2 6 2 22q0 36 -23.5 59.5t-65.5 23.5q-53 0 -85.5 -38.5t-32.5 -101.5q0 -66 34.5 -105t98.5 -39q87 0 134 57l62 -76q-28 -35 -80.5 -58t-122.5 -23q-115 0 -182.5 66.5t-67.5 173.5q0 108 67.5 176t175.5 68z" />
    <glyph glyph-name="d" unicode="d" horiz-adv-x="585" 
d="M403 706h122v-706l-97 -4q-14 64 -12 99h-3q-45 -101 -163 -101q-96 0 -155 67t-59 174q0 112 62 177.5t158 65.5q99 0 147 -69v297zM281 96q55 0 88.5 38.5t33.5 87.5v28q0 48 -33.5 87t-92.5 39q-53 0 -85.5 -38.5t-32.5 -102.5q0 -63 33 -101t89 -38z" />
    <glyph glyph-name="e" unicode="e" horiz-adv-x="526" 
d="M300 89q78 0 125 56l62 -67q-29 -38 -80.5 -61t-119.5 -23q-116 0 -184 66.5t-68 174.5q0 107 65.5 175t173.5 68q101 0 159 -62t58 -160l-5 -49h-328q9 -54 45 -86t97 -32zM274 383q-46 0 -77 -28.5t-39 -78.5h218q-1 47 -28.5 77t-73.5 30z" />
    <glyph glyph-name="f" unicode="f" horiz-adv-x="385" 
d="M222 516v-44h152v-94h-152v-378h-122v378h-70v94h70v42q0 91 54 144.5t140 53.5q27 0 53.5 -6t39 -11t17.5 -8l-37 -97q-35 20 -59 20q-41 0 -63.5 -25.5t-22.5 -68.5z" />
    <glyph glyph-name="g" unicode="g" horiz-adv-x="530" 
d="M327 79q88 0 139 -35t51 -102q0 -66 -59.5 -108.5t-194.5 -42.5q-125 0 -187.5 33.5t-62.5 91.5q0 69 80 96q-52 29 -52 86q0 31 18.5 53t47.5 32q-53 48 -53 122q0 77 57 124.5t150 47.5q76 0 129 -31q46 24 46 113l94 -24q0 -54 -30 -87.5t-65 -40.5q35 -41 35 -102
q0 -77 -57 -125t-151 -48q-45 0 -86 13q-37 -8 -37 -31q0 -20 19.5 -27.5t64.5 -7.5h104zM170 305q-1 -37 24 -59.5t67 -22.5q42 -1 68 21.5t27 59.5q0 37 -25.5 59.5t-67.5 23.5q-42 0 -67.5 -22.5t-25.5 -59.5zM263 -121q76 0 108.5 14t32.5 44q0 27 -21.5 37.5
t-69.5 10.5h-94q-96 0 -96 -50q0 -29 32.5 -42.5t107.5 -13.5z" />
    <glyph glyph-name="h" unicode="h" horiz-adv-x="565" 
d="M330 478q85 0 132 -52t47 -136v-290h-122v273q0 47 -23.5 74t-68.5 27q-54 0 -83.5 -39t-29.5 -90v-245h-122v706h120v-313h3q44 85 147 85z" />
    <glyph glyph-name="i" unicode="i" horiz-adv-x="244" 
d="M203 624q0 -33 -23.5 -55t-56.5 -22q-34 0 -57 22t-23 55t23 55t57 22q33 0 56.5 -22t23.5 -55zM61 0v472l122 4v-476h-122z" />
    <glyph glyph-name="j" unicode="j" horiz-adv-x="251" 
d="M213 627q0 -33 -23.5 -54.5t-57.5 -21.5q-33 0 -56 21.5t-23 54.5t23 55.5t56 22.5q34 0 57.5 -22.5t23.5 -55.5zM-55 -94q18 -12 48 -12q75 0 75 90v488l122 4v-484q0 -95 -45 -148t-137 -53q-31 0 -55.5 7.5t-33.5 15.5l-9 7z" />
    <glyph glyph-name="k" unicode="k" horiz-adv-x="530" 
d="M387 0l-159 203h-46v-203h-122v706h122v-409h59l136 175h139l-185 -225l205 -247h-149z" />
    <glyph glyph-name="l" unicode="l" horiz-adv-x="243" 
d="M61 0v706h121v-706h-121z" />
    <glyph glyph-name="m" unicode="m" horiz-adv-x="876" 
d="M643 477q84 0 131 -52t47 -137v-288h-122v272q0 47 -23.5 73.5t-67.5 26.5q-51 0 -79 -39t-28 -88v-245h-122v272q0 47 -23.5 73.5t-67.5 26.5q-51 0 -78.5 -39t-27.5 -88v-245h-122v472l94 4q15 -52 15 -103h1q41 104 153 104q62 0 104.5 -28.5t60.5 -79.5
q40 108 155 108z" />
    <glyph glyph-name="n" unicode="n" horiz-adv-x="564" 
d="M330 478q85 0 132 -52t47 -136v-290h-122v273q0 47 -24 74t-68 27q-54 0 -83.5 -39.5t-29.5 -89.5v-245h-122v472l94 4q15 -55 15 -103h3q44 105 158 105z" />
    <glyph glyph-name="o" unicode="o" horiz-adv-x="562" 
d="M281 478q111 0 179 -68t68 -175t-68 -174t-179 -67t-179 67t-68 174t68.5 175t178.5 68zM281 94q56 0 89.5 39t33.5 102q0 64 -33.5 103.5t-89.5 39.5t-89.5 -39.5t-33.5 -103.5q0 -63 33.5 -102t89.5 -39z" />
    <glyph glyph-name="p" unicode="p" horiz-adv-x="585" 
d="M335 478q96 0 155 -67.5t59 -175.5q0 -111 -61.5 -176t-159.5 -65t-146 71v-269h-122v676l94 4q15 -50 15 -99h2q44 101 164 101zM308 96q53 0 85 38t32 101q0 64 -33 102.5t-88 38.5t-88.5 -38.5t-33.5 -87.5v-28q0 -48 33.5 -87t92.5 -39z" />
    <glyph glyph-name="q" unicode="q" horiz-adv-x="585" 
d="M431 472h94v-676h-122v272q-48 -74 -150 -74q-95 0 -156 65.5t-61 177.5q0 107 59.5 174t157.5 67q118 0 161 -101h2q-2 37 15 95zM281 96q55 0 88.5 39.5t33.5 87.5v27q0 50 -33.5 88t-92.5 38q-53 0 -85.5 -38t-32.5 -101q0 -64 33 -102.5t89 -38.5z" />
    <glyph glyph-name="r" unicode="r" horiz-adv-x="369" 
d="M299 478q37 0 67 -12l-31 -119q-21 15 -51 15q-43 0 -72.5 -33.5t-29.5 -94.5v-234h-122v472l94 4q15 -55 15 -106h3q32 108 127 108z" />
    <glyph glyph-name="s" unicode="s" horiz-adv-x="478" 
d="M322 306q2 8 2 19q0 31 -23 49t-62 18q-37 0 -57 -15t-20 -40q0 -27 28.5 -41.5t69.5 -22t82 -18.5t70 -41.5t30 -80.5q0 -64 -54.5 -101.5t-148.5 -37.5q-129 0 -215 71l61 75q17 -16 61 -36.5t90 -20.5q82 0 82 45q0 22 -28 35.5t-68 22.5t-80 22.5t-68 44.5t-28 79
q0 66 54 106t143 40q84 0 137.5 -37.5t53.5 -95.5l-4 -32z" />
    <glyph glyph-name="t" unicode="t" horiz-adv-x="417" 
d="M377 123l35 -96q-49 -33 -135 -33q-183 0 -183 197v187h-73v94h76v135l119 5v-140h171v-94h-171v-183q0 -50 19.5 -74t61.5 -24q23 0 43 6.5t28 12.5z" />
    <glyph glyph-name="u" unicode="u" horiz-adv-x="556" 
d="M374 472h122v-472l-96 -4q-14 58 -14 96h-2q-43 -98 -150 -98q-84 0 -131 52t-47 136v290h122v-273q0 -47 23.5 -74t67.5 -27q49 0 77 40t28 89v245z" />
    <glyph glyph-name="v" unicode="v" horiz-adv-x="528" 
d="M393 472h122l-184 -472h-135l-185 472h132l108 -295q9 -26 15 -60h3q8 40 15 60z" />
    <glyph glyph-name="w" unicode="w" horiz-adv-x="771" 
d="M631 472h124l-139 -472h-141l-77 267q-7 23 -9 47h-3q-2 -18 -8 -47l-80 -267h-139l-145 472h129l76 -295q13 -57 13 -60h3q3 16 14 60l83 295h112l82 -293q11 -44 14 -62h3q6 36 13 62z" />
    <glyph glyph-name="x" unicode="x" horiz-adv-x="501" 
d="M319 235l174 -235h-134l-87 123q-19 26 -20 37h-3q-3 -14 -20 -37l-86 -123h-133l173 238l-173 234h136l79 -115q23 -34 26 -48h2q3 16 25 48l77 115h135z" />
    <glyph glyph-name="y" unicode="y" horiz-adv-x="523" 
d="M305 -69q-53 -140 -181 -140q-23 0 -44 4.5t-30 8.5l-10 4l19 95q25 -13 55 -13q57 0 83 61l13 31l-197 490h132l107 -295q9 -26 15 -60h2q7 33 16 60l105 295h123z" />
    <glyph glyph-name="z" unicode="z" horiz-adv-x="470" 
d="M32 0v90l239 262q17 20 24 26l-1 3q-15 -3 -50 -3h-206v94h394v-90l-225 -253q-18 -20 -33 -35l1 -3q15 3 50 3h215v-94h-408z" />
    <glyph glyph-name="braceleft" unicode="{" horiz-adv-x="345" 
d="M316 -211q-34 0 -63.5 5.5t-57.5 19t-48 35t-32 56t-12 79.5v142q0 33 -19 50t-45 17h-10v96h10q26 0 45 17t19 50v160q0 56 17.5 95.5t49 61t67.5 30.5t79 9v-103q-102 0 -102 -112v-168q0 -71 -49 -88q13 -4 31 -27t18 -61v-149q0 -112 102 -112v-103z" />
    <glyph glyph-name="bar" unicode="|" horiz-adv-x="239" 
d="M69 -204v904h100v-904h-100z" />
    <glyph glyph-name="braceright" unicode="}" horiz-adv-x="344" 
d="M29 -107q102 0 102 112v148q0 14 2 26t6 20.5t7.5 15t9.5 11.5t9 7t9 5l5 3q-48 17 -48 88v168q0 112 -102 112v104q43 0 78.5 -9t67 -30t49.5 -61t18 -96v-161q0 -33 19 -50t45 -17h10v-96h-10q-26 0 -45 -17t-19 -50v-141q0 -55 -18 -95t-49.5 -61t-67 -30.5
t-78.5 -9.5v104z" />
    <glyph glyph-name="asciitilde" unicode="~" horiz-adv-x="553" 
d="M60 231v82q45 33 110 33q42 0 107 -20t107 -20q67 0 110 30v-82q-50 -33 -110 -33q-42 0 -107 20t-107 20q-67 0 -110 -30z" />
    <glyph glyph-name="exclamdown" unicode="&#xa1;" horiz-adv-x="245" 
d="M124 343q-28 0 -48 19.5t-20 48.5t20 48.5t48 19.5t48.5 -20t20.5 -48t-20.5 -48t-48.5 -20zM55 -206l17 459l101 3l14 -462h-132z" />
    <glyph glyph-name="cent" unicode="&#xa2;" horiz-adv-x="526" 
d="M296 94q86 0 134 57l62 -76q-55 -69 -168 -79v-99h-86v101q-92 15 -145 79t-53 159q0 94 53 158t145 79v101h86v-99q113 -10 168 -79l-62 -76q-48 58 -134 58q-63 0 -98 -39t-35 -103t35 -103t98 -39z" />
    <glyph glyph-name="sterling" unicode="&#xa3;" horiz-adv-x="598" 
d="M227 97q18 3 47 3h273v-100h-481v72q4 2 10.5 6t23.5 18.5t30 30t23.5 40.5t10.5 51q0 18 -4 30h-121v73h85q-46 70 -46 132q0 95 69 154.5t181 59.5q53 0 96.5 -14.5t68.5 -35t42.5 -41t24.5 -34.5l6 -15l-105 -46q-1 3 -3.5 8.5t-13 18.5t-23.5 23t-37 18.5t-53 8.5
q-56 0 -91 -32t-35 -82q0 -9 1.5 -18t2.5 -16t5 -17t6 -14.5t8 -15.5t7.5 -13.5t9 -14.5t8.5 -14h208v-73h-176q3 -15 3 -30q0 -43 -23.5 -76t-39.5 -41z" />
    <glyph glyph-name="currency" unicode="&#xa4;" horiz-adv-x="596" 
d="M102 348q0 52 26 97l-81 81l59 60l81 -81q50 39 113 39q60 0 111 -38l81 80l59 -60l-81 -81q27 -44 27 -97q0 -54 -27 -97l79 -77l-60 -59l-78 76q-48 -37 -111 -37q-64 0 -113 38l-83 -82l-59 59l83 83q-26 47 -26 96zM193 348q0 -43 31 -73.5t76 -30.5q44 0 75.5 30.5
t31.5 73.5q0 44 -31.5 74.5t-75.5 30.5q-45 0 -76 -30.5t-31 -74.5z" />
    <glyph glyph-name="yen" unicode="&#xa5;" horiz-adv-x="627" 
d="M601 660l-208 -390h149v-106h-165v-164h-126v164h-166v106h148l-209 390h136l122 -234q27 -52 32 -82h3q5 30 32 82l120 234h132z" />
    <glyph glyph-name="brokenbar" unicode="&#xa6;" horiz-adv-x="238" 
d="M69 313v387h100v-387h-100zM69 -204v387h100v-387h-100z" />
    <glyph glyph-name="section" unicode="&#xa7;" horiz-adv-x="585" 
d="M474 91q63 -48 63 -128t-67 -126.5t-180 -46.5q-153 0 -259 87l76 93q79 -76 186 -76q56 0 86.5 19t30.5 54q0 36 -35.5 58t-86 34.5t-101.5 28t-86.5 50.5t-35.5 91q0 77 77 113q-77 48 -80 142q-1 83 63 133t168 50q51 0 91.5 -11.5t66 -29t43.5 -41.5t26.5 -44.5
t13.5 -42.5l-114 -29q-5 34 -36.5 63t-88.5 29q-49 0 -77.5 -21t-28.5 -56q0 -34 25.5 -57t64 -33.5t83.5 -25t83.5 -31t64 -52t25.5 -87.5q0 -74 -61 -107zM177 239q0 -19 11.5 -33t34.5 -24t45.5 -16.5t58.5 -16t58 -16.5q34 19 34 59q0 17 -8 30.5t-18.5 22t-32 18
t-36.5 14t-45 13t-44 12.5q-58 -6 -58 -63z" />
    <glyph glyph-name="dieresis" unicode="&#xa8;" horiz-adv-x="380" 
d="M91 557q-27 0 -46 18.5t-19 45.5q0 26 19 45.5t46 19.5q26 0 44.5 -19.5t18.5 -45.5q0 -27 -18.5 -45.5t-44.5 -18.5zM292 557q-26 0 -45 18.5t-19 45.5q0 26 19 45.5t45 19.5q27 0 45.5 -19t18.5 -46t-18.5 -45.5t-45.5 -18.5z" />
    <glyph glyph-name="copyright" unicode="&#xa9;" horiz-adv-x="754" 
d="M376 -5q-151 0 -243 92.5t-92 243.5q0 150 92 242t243 92t244 -92t93 -242q0 -151 -92.5 -243.5t-244.5 -92.5zM376 29q134 0 216 83t82 219q0 135 -82 217.5t-216 82.5q-133 0 -214.5 -82.5t-81.5 -217.5q0 -136 81.5 -219t214.5 -83zM544 181q-2 -3 -6 -7.5t-18.5 -16
t-31.5 -20.5t-47 -16.5t-63 -7.5q-90 0 -145.5 57.5t-55.5 151.5q0 101 55.5 162.5t146.5 61.5q77 0 124 -39.5t47 -103.5l-83 -15q0 3 -0.5 8.5t-5 18.5t-13 23t-26.5 18.5t-42 8.5q-48 0 -77.5 -38t-29.5 -99t32 -98t85 -37q34 0 61.5 12.5t38.5 24.5l11 12z" />
    <glyph glyph-name="ordfeminine" unicode="&#xaa;" horiz-adv-x="474" 
d="M431 369l4 -86q-23 -6 -54 -6q-77 0 -89 59h-1q-29 -60 -121 -60q-61 0 -95 28t-34 77q0 67 62.5 94.5t177.5 27.5h5v16q0 29 -17.5 46t-50.5 17q-30 0 -47 -12t-17 -32q0 -4 3 -13l-99 -17q-5 16 -5 38q0 55 45.5 88t124.5 33q84 0 128.5 -40t44.5 -113v-123
q0 -24 21 -24q6 0 14 2zM202 360q38 0 61 16.5t23 39.5v30h-5q-130 0 -130 -49q0 -37 51 -37z" />
    <glyph glyph-name="guillemotleft" unicode="&#xab;" horiz-adv-x="510" 
d="M38 217v95l156 138l59 -65l-135 -121l135 -120l-59 -66zM255 217v95l156 138l59 -65l-136 -121l136 -120l-59 -66z" />
    <glyph glyph-name="registered" unicode="&#xae;" horiz-adv-x="437" 
d="M218 314q-79 0 -128.5 48.5t-49.5 127.5t49.5 128t128.5 49t129 -49t50 -128t-49.5 -127.5t-129.5 -48.5zM218 342q67 0 107.5 41t40.5 107q0 67 -40.5 108t-107.5 41t-107 -40.5t-40 -108.5q0 -66 40.5 -107t106.5 -41zM310 383q-7 -1 -16 -1q-26 0 -48 36.5t-48 36.5
h-17v-72h-39v213h78q32 0 51.5 -18t19.5 -46q0 -22 -11 -37t-20.5 -19.5t-14.5 -4.5q18 -7 30.5 -30.5t26.5 -23.5h5zM214 491q17 0 28.5 11t11.5 28q0 14 -10.5 22.5t-27.5 8.5h-35v-70h33z" />
    <glyph glyph-name="macron" unicode="&#xaf;" horiz-adv-x="405" 
d="M52 579v84h301v-84h-301z" />
    <glyph glyph-name="degree" unicode="&#xb0;" horiz-adv-x="337" 
d="M300 535q0 -58 -37 -94t-96 -36q-57 0 -93.5 36t-36.5 94t36.5 94t93.5 36q59 0 96 -36t37 -94zM235 535q0 30 -18.5 48.5t-49.5 18.5q-29 0 -47 -18.5t-18 -48.5t18 -48t47 -18q31 0 49.5 18t18.5 48z" />
    <glyph glyph-name="plusminus" unicode="&#xb1;" horiz-adv-x="501" 
d="M294 371h152v-82h-152v-131h-86v131h-153v82h153v125h86v-125zM55 26v81h391v-81h-391z" />
    <glyph glyph-name="acute" unicode="&#xb4;" horiz-adv-x="290" 
d="M149 543l-109 -5l58 164h149z" />
    <glyph glyph-name="paragraph" unicode="&#xb6;" horiz-adv-x="597" 
d="M443 -200v803h-90v-803h-71v484h-40q-98 0 -157.5 51t-59.5 134q0 86 59.5 138.5t157.5 52.5h272v-860h-71z" />
    <glyph glyph-name="periodcentered" unicode="&#xb7;" horiz-adv-x="236" 
d="M46 354q0 30 21 51.5t51 21.5t51 -21.5t21 -51.5q0 -29 -21 -50t-51 -21t-51 21t-21 50z" />
    <glyph glyph-name="cedilla" unicode="&#xb8;" horiz-adv-x="282" 
d="M170 -27q32 -4 55 -25.5t23 -59.5q0 -43 -32 -67t-79 -24q-29 0 -54 10.5t-36 20.5l-11 10l31 56q26 -28 68 -28q40 0 40 28q0 39 -89 39l35 81h68z" />
    <glyph glyph-name="ordmasculine" unicode="&#xba;" horiz-adv-x="470" 
d="M235 667q90 0 145.5 -54.5t55.5 -140.5q0 -87 -55.5 -141.5t-145.5 -54.5t-145.5 54.5t-55.5 141.5q0 86 55.5 140.5t145.5 54.5zM235 370q39 0 62.5 28t23.5 74t-23.5 74t-62.5 28t-62.5 -28t-23.5 -74t23.5 -74t62.5 -28z" />
    <glyph glyph-name="guillemotright" unicode="&#xbb;" horiz-adv-x="510" 
d="M99 78l-59 66l135 120l-135 121l59 65l156 -138v-95zM316 78l-59 66l135 120l-135 121l59 65l156 -138v-95z" />
    <glyph glyph-name="onequarter" unicode="&#xbc;" horiz-adv-x="866" 
d="M200 0l304 667h102l-302 -667h-104zM148 295v256l-121 -24v95l210 37h19v-364h-108zM771 363v-214h66v-82h-66v-67h-107v67h-202l1 85l192 211h116zM670 149v91q0 23 2 27l-3 2q-2 -4 -16 -20l-70 -78q-8 -10 -22 -21l2 -2q6 1 35 1h72z" />
    <glyph glyph-name="onehalf" unicode="&#xbd;" horiz-adv-x="860" 
d="M200 0l304 667h102l-302 -667h-104zM148 295v256l-121 -24v95l210 37h19v-364h-108zM658 83q4 1 34 1h136v-84h-338v68q135 76 167 101q49 38 49 69q0 19 -15 31.5t-38 12.5q-25 0 -39.5 -12t-14.5 -30q0 -8 2 -10l-108 -21q-6 18 -6 34q0 54 45 90t122 36
q75 0 118.5 -35t43.5 -94q0 -46 -34 -78.5t-92 -63.5q-14 -8 -33 -13z" />
    <glyph glyph-name="threequarters" unicode="&#xbe;" horiz-adv-x="944" 
d="M287 0l303 667h103l-302 -667h-104zM208 664q74 0 117.5 -32t43.5 -83q0 -32 -22 -52t-57 -20v-1q39 0 65.5 -23t26.5 -59q0 -46 -46 -75.5t-127 -29.5q-41 0 -74.5 8t-52 19t-31.5 22t-17 19l-5 8l73 54q4 -4 12 -10.5t34.5 -17.5t55.5 -11q67 0 67 30q0 28 -59 28h-55
v72h38q64 0 64 32q0 16 -14 26.5t-40 10.5t-41 -8.5t-15 -20.5q0 -7 1 -9l-104 -17v2q-1 2 -1.5 5t-1 7t-1 9t-0.5 10q0 48 45 77.5t121 29.5zM850 363v-214h67v-82h-67v-67h-107v67h-201v85l193 211h115zM750 149v91q0 23 1 27l-3 2q-2 -4 -16 -20l-69 -78q-10 -12 -23 -21
l2 -2q7 1 36 1h72z" />
    <glyph glyph-name="questiondown" unicode="&#xbf;" horiz-adv-x="469" 
d="M260 339q-29 0 -49.5 20.5t-20.5 49.5t20.5 49.5t49.5 20.5t49.5 -20.5t20.5 -49.5t-20.5 -49.5t-49.5 -20.5zM240 -223q-103 0 -159 54t-56 131q0 42 19 75.5t45.5 56t53.5 43.5t46 49.5t19 62.5v15l107 4v-31q0 -45 -17 -80t-41.5 -56.5t-49 -40.5t-42 -41.5
t-17.5 -48.5q0 -37 25 -61.5t67 -24.5q39 0 63 21t24 56q0 12 -4 24l114 18q6 -26 6 -52q0 -77 -55.5 -125.5t-147.5 -48.5z" />
    <glyph glyph-name="Agrave" unicode="&#xc0;" horiz-adv-x="623" 
d="M374 698l-113 -5l-99 130h154zM488 0l-50 148h-252l-50 -148h-130l239 660h134l237 -660h-128zM219 245h186l-72 210q-8 23 -20 73h-3q-7 -35 -20 -74z" />
    <glyph glyph-name="Aacute" unicode="&#xc1;" horiz-adv-x="623" 
d="M460 823l-99 -125l-112 -5l58 130h153zM488 0l-50 148h-252l-50 -148h-130l239 660h134l237 -660h-128zM219 245h186l-72 210q-8 23 -20 73h-3q-7 -35 -20 -74z" />
    <glyph glyph-name="Acircumflex" unicode="&#xc2;" horiz-adv-x="623" 
d="M314 755l-64 -59l-96 -3l95 139h130l95 -139l-96 3zM488 0l-50 148h-252l-50 -148h-130l239 660h134l237 -660h-128zM219 245h186l-72 210q-8 23 -20 73h-3q-7 -35 -20 -74z" />
    <glyph glyph-name="Atilde" unicode="&#xc3;" horiz-adv-x="623" 
d="M213 684h-84q-6 18 -6 43q0 43 28 69t75 26q41 0 88 -26t57 -26q26 0 26 31l-4 32h84q4 -19 4 -47q0 -41 -26 -69.5t-73 -28.5q-35 0 -82 26.5t-60 26.5q-14 0 -23 -8.5t-9 -23.5zM488 0l-50 148h-252l-50 -148h-130l239 660h134l237 -660h-128zM219 245h186l-72 210
q-8 23 -20 73h-3q-7 -35 -20 -74z" />
    <glyph glyph-name="Adieresis" unicode="&#xc4;" horiz-adv-x="623" 
d="M217 702q-26 0 -44.5 18.5t-18.5 44.5t18.5 44.5t44.5 18.5q25 0 43.5 -18.5t18.5 -44.5t-18 -44.5t-44 -18.5zM418 702q-26 0 -44.5 18.5t-18.5 44.5q0 25 18.5 44t44.5 19t44.5 -18.5t18.5 -44.5t-18.5 -44.5t-44.5 -18.5zM488 0l-50 148h-252l-50 -148h-130l239 660
h134l237 -660h-128zM219 245h186l-72 210q-8 23 -20 73h-3q-7 -35 -20 -74z" />
    <glyph glyph-name="Aring" unicode="&#xc5;" horiz-adv-x="623" 
d="M313 679q-38 0 -65 26t-27 63t27 63t65 26t65 -26t27 -63t-27 -63t-65 -26zM313 798q-13 0 -21.5 -8.5t-8.5 -21.5t8.5 -22t21.5 -9t22 9t9 22t-9 21.5t-22 8.5zM488 0l-50 148h-252l-50 -148h-130l239 660h134l237 -660h-128zM219 245h186l-72 210q-8 23 -20 73h-3
q-7 -35 -20 -74z" />
    <glyph glyph-name="AE" unicode="&#xc6;" horiz-adv-x="948" 
d="M901 556h-303v-168h265v-100h-265v-184h303v-104h-429v148h-253l-105 -148h-130l472 660h445v-104zM288 245h184v258z" />
    <glyph glyph-name="Ccedilla" unicode="&#xc7;" horiz-adv-x="645" 
d="M617 121q-12 -17 -28.5 -34t-44 -38.5t-67.5 -36t-86 -18.5l-10 -21q32 -4 55 -25.5t23 -59.5q0 -43 -32 -67t-79 -24q-29 0 -54 10.5t-36 20.5l-11 10l31 56q26 -28 68 -28q40 0 40 28q0 39 -89 39l27 62q-129 13 -206 102t-77 233q0 152 85.5 244.5t221.5 92.5
q69 0 122.5 -23t82.5 -59.5t44 -76.5t15 -80l-118 -18q0 55 -36 101t-108 46q-78 0 -129.5 -61.5t-51.5 -165.5q0 -114 57 -170.5t142 -56.5q103 0 174 95z" />
    <glyph glyph-name="Egrave" unicode="&#xc8;" horiz-adv-x="550" 
d="M363 698l-113 -5l-99 130h154zM503 556h-303v-168h265v-100h-265v-184h303v-104h-429v660h429v-104z" />
    <glyph glyph-name="Eacute" unicode="&#xc9;" horiz-adv-x="550" 
d="M449 823l-99 -125l-112 -5l58 130h153zM503 556h-303v-168h265v-100h-265v-184h303v-104h-429v660h429v-104z" />
    <glyph glyph-name="Ecircumflex" unicode="&#xca;" horiz-adv-x="550" 
d="M303 755l-64 -59l-96 -3l95 139h130l95 -139l-96 3zM503 556h-303v-168h265v-100h-265v-184h303v-104h-429v660h429v-104z" />
    <glyph glyph-name="Edieresis" unicode="&#xcb;" horiz-adv-x="550" 
d="M206 702q-26 0 -44.5 18.5t-18.5 44.5t18.5 44.5t44.5 18.5q25 0 43.5 -18.5t18.5 -44.5t-18 -44.5t-44 -18.5zM407 702q-26 0 -44.5 18.5t-18.5 44.5q0 25 19 44t44 19q26 0 44.5 -18.5t18.5 -44.5t-18.5 -44.5t-44.5 -18.5zM503 556h-303v-168h265v-100h-265v-184h303
v-104h-429v660h429v-104z" />
    <glyph glyph-name="Igrave" unicode="&#xcc;" horiz-adv-x="273" 
d="M85 693l-99 130h154l58 -125zM74 0v660h125v-660h-125z" />
    <glyph glyph-name="Iacute" unicode="&#xcd;" horiz-adv-x="273" 
d="M185 698l-112 -5l58 130h153zM74 0v660h125v-660h-125z" />
    <glyph glyph-name="Icircumflex" unicode="&#xce;" horiz-adv-x="273" 
d="M203 832l95 -139l-96 3l-64 59l-64 -59l-96 -3l95 139h130zM74 0v660h125v-660h-125z" />
    <glyph glyph-name="Idieresis" unicode="&#xcf;" horiz-adv-x="273" 
d="M41 702q-26 0 -44.5 18.5t-18.5 44.5t18.5 44.5t44.5 18.5q25 0 43.5 -18.5t18.5 -44.5t-18 -44.5t-44 -18.5zM242 702q-26 0 -44.5 18.5t-18.5 44.5q0 25 18.5 44t44.5 19t44.5 -18.5t18.5 -44.5t-18.5 -44.5t-44.5 -18.5zM74 0v660h125v-660h-125z" />
    <glyph glyph-name="Eth" unicode="&#xd0;" horiz-adv-x="671" 
d="M296 660q159 0 246 -88.5t87 -241.5q0 -162 -79.5 -246t-222.5 -84h-253v287h-92v83h92v290h222zM315 101q87 0 136.5 56t49.5 173q0 114 -56 171.5t-162 57.5h-83v-189h168v-83h-168v-186h115z" />
    <glyph glyph-name="Ntilde" unicode="&#xd1;" horiz-adv-x="697" 
d="M542 833q4 -19 4 -47q0 -41 -26 -69.5t-73 -28.5q-35 0 -82 26.5t-60 26.5q-14 0 -23 -8.5t-9 -23.5l5 -25h-84q-6 18 -6 43q0 43 28 69t75 26q41 0 88 -26t57 -26q26 0 26 31l-4 32h84zM623 660v-660h-124l-228 348q-23 34 -75 123l-5 -3q5 -23 5 -119l2 -349h-124v660
h119l235 -360q50 -78 72 -124l6 3q-5 42 -5 122l-1 359h123z" />
    <glyph glyph-name="Ograve" unicode="&#xd2;" horiz-adv-x="717" 
d="M306 693l-99 130h154l58 -125zM358 667q142 0 230 -91.5t88 -245.5q0 -153 -88 -244.5t-230 -91.5q-140 0 -228.5 91.5t-88.5 244.5t88 245t229 92zM358 103q85 0 138 61.5t53 165.5q0 105 -53 166t-138 61q-84 0 -137 -61t-53 -166q0 -104 53 -165.5t137 -61.5z" />
    <glyph glyph-name="Oacute" unicode="&#xd3;" horiz-adv-x="717" 
d="M406 698l-112 -5l58 130h153zM358 667q142 0 230 -91.5t88 -245.5q0 -153 -88 -244.5t-230 -91.5q-140 0 -228.5 91.5t-88.5 244.5t88 245t229 92zM358 103q85 0 138 61.5t53 165.5q0 105 -53 166t-138 61q-84 0 -137 -61t-53 -166q0 -104 53 -165.5t137 -61.5z" />
    <glyph glyph-name="Ocircumflex" unicode="&#xd4;" horiz-adv-x="717" 
d="M424 832l95 -139l-96 3l-64 59l-64 -59l-96 -3l95 139h130zM358 667q142 0 230 -91.5t88 -245.5q0 -153 -88 -244.5t-230 -91.5q-140 0 -228.5 91.5t-88.5 244.5t88 245t229 92zM358 103q85 0 138 61.5t53 165.5q0 105 -53 166t-138 61q-84 0 -137 -61t-53 -166
q0 -104 53 -165.5t137 -61.5z" />
    <glyph glyph-name="Otilde" unicode="&#xd5;" horiz-adv-x="717" 
d="M522 833q4 -19 4 -47q0 -41 -26 -69.5t-73 -28.5q-35 0 -82 26.5t-60 26.5q-14 0 -23 -8.5t-9 -23.5l5 -25h-84q-6 18 -6 43q0 43 28 69t75 26q41 0 88 -26t57 -26q26 0 26 31l-4 32h84zM358 667q142 0 230 -91.5t88 -245.5q0 -153 -88 -244.5t-230 -91.5
q-140 0 -228.5 91.5t-88.5 244.5t88 245t229 92zM358 103q85 0 138 61.5t53 165.5q0 105 -53 166t-138 61q-84 0 -137 -61t-53 -166q0 -104 53 -165.5t137 -61.5z" />
    <glyph glyph-name="Odieresis" unicode="&#xd6;" horiz-adv-x="717" 
d="M262 702q-26 0 -44.5 18.5t-18.5 44.5t18.5 44.5t44.5 18.5q25 0 43.5 -18.5t18.5 -44.5t-18 -44.5t-44 -18.5zM463 702q-26 0 -44.5 18.5t-18.5 44.5q0 25 19 44t44 19q26 0 44.5 -18.5t18.5 -44.5t-18.5 -44.5t-44.5 -18.5zM358 667q142 0 230 -91.5t88 -245.5
q0 -153 -88 -244.5t-230 -91.5q-140 0 -228.5 91.5t-88.5 244.5t88 245t229 92zM358 103q85 0 138 61.5t53 165.5q0 105 -53 166t-138 61q-84 0 -137 -61t-53 -166q0 -104 53 -165.5t137 -61.5z" />
    <glyph glyph-name="multiply" unicode="&#xd7;" horiz-adv-x="446" 
d="M400 353l-117 -117l117 -118l-59 -59l-117 118l-118 -118l-59 59l118 118l-118 117l59 59l118 -117l117 117z" />
    <glyph glyph-name="Oslash" unicode="&#xd8;" horiz-adv-x="717" 
d="M582 581q94 -92 94 -251q0 -153 -88 -244.5t-230 -91.5q-79 0 -142 30l-44 -68h-109l78 118q-100 94 -100 256q0 153 88 245t229 92q82 0 150 -33l36 54h108zM168 330q0 -92 42 -151l235 358q-40 20 -87 20q-84 0 -137 -61t-53 -166zM358 103q85 0 138 61.5t53 165.5
q0 84 -37 144l-233 -354q37 -17 79 -17z" />
    <glyph glyph-name="Ugrave" unicode="&#xd9;" horiz-adv-x="680" 
d="M289 693l-99 130h154l58 -125zM486 660h126v-401q0 -120 -75 -193t-196 -73q-123 0 -198 72.5t-75 193.5v401h126v-400q0 -74 40.5 -115.5t106.5 -41.5q65 0 105 41.5t40 114.5v401z" />
    <glyph glyph-name="Uacute" unicode="&#xda;" horiz-adv-x="680" 
d="M389 698l-112 -5l58 130h153zM486 660h126v-401q0 -120 -75 -193t-196 -73q-123 0 -198 72.5t-75 193.5v401h126v-400q0 -74 40.5 -115.5t106.5 -41.5q65 0 105 41.5t40 114.5v401z" />
    <glyph glyph-name="Ucircumflex" unicode="&#xdb;" horiz-adv-x="680" 
d="M407 832l95 -139l-96 3l-64 59l-64 -59l-96 -3l95 139h130zM486 660h126v-401q0 -120 -75 -193t-196 -73q-123 0 -198 72.5t-75 193.5v401h126v-400q0 -74 40.5 -115.5t106.5 -41.5q65 0 105 41.5t40 114.5v401z" />
    <glyph glyph-name="Udieresis" unicode="&#xdc;" horiz-adv-x="680" 
d="M245 702q-26 0 -44.5 18.5t-18.5 44.5t18.5 44.5t44.5 18.5q25 0 43.5 -18.5t18.5 -44.5t-18 -44.5t-44 -18.5zM446 702q-26 0 -44.5 18.5t-18.5 44.5q0 25 18.5 44t44.5 19t44.5 -18.5t18.5 -44.5t-18.5 -44.5t-44.5 -18.5zM486 660h126v-401q0 -120 -75 -193t-196 -73
q-123 0 -198 72.5t-75 193.5v401h126v-400q0 -74 40.5 -115.5t106.5 -41.5q65 0 105 41.5t40 114.5v401z" />
    <glyph glyph-name="Yacute" unicode="&#xdd;" horiz-adv-x="591" 
d="M444 823l-99 -125l-112 -5l58 130h153zM583 660l-224 -420v-240h-126v236l-227 424h136l122 -234q27 -52 32 -82h3q5 30 32 82l120 234h132z" />
    <glyph glyph-name="Thorn" unicode="&#xde;" horiz-adv-x="608" 
d="M306 563q130 0 201 -58.5t71 -171.5q0 -112 -69 -171.5t-187 -59.5h-122v-102h-126v660h126v-97h106zM299 203q73 0 112 33.5t39 96.5q0 61 -40 95t-115 34h-95v-259h99z" />
    <glyph glyph-name="germandbls" unicode="&#xdf;" horiz-adv-x="575" 
d="M405 357q67 -21 101.5 -68t34.5 -112q0 -86 -52.5 -135t-151.5 -49q-30 0 -56.5 2.5t-38.5 4.5l-11 3l16 99q27 -9 72 -9t72 26t27 72q0 50 -34 80t-100 30h-32v14h-6v84h13q44 0 73 33.5t29 84.5q0 44 -25.5 70.5t-65.5 26.5q-42 0 -65 -26t-23 -76v-512h-122v519
q0 87 56.5 140.5t150.5 53.5q96 0 156.5 -54t60.5 -142q0 -99 -79 -160z" />
    <glyph glyph-name="agrave" unicode="&#xe0;" horiz-adv-x="540" 
d="M310 543l-110 -5l-99 164h151zM509 97l5 -95q-27 -7 -60 -7q-91 0 -103 75q-39 -76 -155 -76q-76 0 -118 35t-42 95q0 80 75.5 113.5t225.5 35.5h8v23q0 41 -24.5 64.5t-70.5 23.5q-43 0 -66.5 -16.5t-23.5 -45.5q0 -9 4 -19l-108 -18q-6 19 -6 44q0 67 55 108t149 41
q100 0 155 -49t55 -136v-166q0 -18 6.5 -25t21.5 -7q7 0 17 2zM228 87q53 0 85 23.5t32 55.5v40h-8q-96 -2 -139 -18t-43 -51q0 -50 73 -50z" />
    <glyph glyph-name="aacute" unicode="&#xe1;" horiz-adv-x="540" 
d="M389 702l-98 -159l-109 -5l58 164h149zM509 97l5 -95q-27 -7 -60 -7q-91 0 -103 75q-39 -76 -155 -76q-76 0 -118 35t-42 95q0 80 75.5 113.5t225.5 35.5h8v23q0 41 -24.5 64.5t-70.5 23.5q-43 0 -66.5 -16.5t-23.5 -45.5q0 -9 4 -19l-108 -18q-6 19 -6 44q0 67 55 108
t149 41q100 0 155 -49t55 -136v-166q0 -18 6.5 -25t21.5 -7q7 0 17 2zM228 87q53 0 85 23.5t32 55.5v40h-8q-96 -2 -139 -18t-43 -51q0 -50 73 -50z" />
    <glyph glyph-name="acircumflex" unicode="&#xe2;" horiz-adv-x="540" 
d="M255 620l-64 -79l-96 -3l95 163h130l95 -163l-96 3zM509 97l5 -95q-27 -7 -60 -7q-91 0 -103 75q-39 -76 -155 -76q-76 0 -118 35t-42 95q0 80 75.5 113.5t225.5 35.5h8v23q0 41 -24.5 64.5t-70.5 23.5q-43 0 -66.5 -16.5t-23.5 -45.5q0 -9 4 -19l-108 -18q-6 19 -6 44
q0 67 55 108t149 41q100 0 155 -49t55 -136v-166q0 -18 6.5 -25t21.5 -7q7 0 17 2zM228 87q53 0 85 23.5t32 55.5v40h-8q-96 -2 -139 -18t-43 -51q0 -50 73 -50z" />
    <glyph glyph-name="atilde" unicode="&#xe3;" horiz-adv-x="540" 
d="M154 538h-84q-6 20 -6 46q0 41 28.5 70t74.5 29q31 0 60.5 -13t51 -26t33.5 -13q26 0 26 31l-4 32h84q4 -19 4 -47q0 -41 -26.5 -69.5t-75.5 -28.5q-34 0 -79 26.5t-58 26.5q-34 0 -34 -35zM509 97l5 -95q-27 -7 -60 -7q-91 0 -103 75q-39 -76 -155 -76q-76 0 -118 35
t-42 95q0 80 75.5 113.5t225.5 35.5h8v23q0 41 -24.5 64.5t-70.5 23.5q-43 0 -66.5 -16.5t-23.5 -45.5q0 -9 4 -19l-108 -18q-6 19 -6 44q0 67 55 108t149 41q100 0 155 -49t55 -136v-166q0 -18 6.5 -25t21.5 -7q7 0 17 2zM228 87q53 0 85 23.5t32 55.5v40h-8
q-96 -2 -139 -18t-43 -51q0 -50 73 -50z" />
    <glyph glyph-name="adieresis" unicode="&#xe4;" horiz-adv-x="540" 
d="M158 557q-27 0 -46 18.5t-19 45.5q0 26 19 45.5t46 19.5q26 0 44.5 -19.5t18.5 -45.5q0 -27 -18.5 -45.5t-44.5 -18.5zM359 557q-26 0 -45 18.5t-19 45.5q0 26 19 45.5t45 19.5q27 0 45.5 -19t18.5 -46t-18.5 -45.5t-45.5 -18.5zM509 97l5 -95q-27 -7 -60 -7
q-91 0 -103 75q-39 -76 -155 -76q-76 0 -118 35t-42 95q0 80 75.5 113.5t225.5 35.5h8v23q0 41 -24.5 64.5t-70.5 23.5q-43 0 -66.5 -16.5t-23.5 -45.5q0 -9 4 -19l-108 -18q-6 19 -6 44q0 67 55 108t149 41q100 0 155 -49t55 -136v-166q0 -18 6.5 -25t21.5 -7q7 0 17 2z
M228 87q53 0 85 23.5t32 55.5v40h-8q-96 -2 -139 -18t-43 -51q0 -50 73 -50z" />
    <glyph glyph-name="aring" unicode="&#xe5;" horiz-adv-x="540" 
d="M254 525q-40 0 -69 27.5t-29 66.5t29 66.5t69 27.5t68.5 -27.5t28.5 -66.5t-28.5 -66.5t-68.5 -27.5zM254 651q-14 0 -23 -9.5t-9 -22.5q0 -14 9.5 -23.5t22.5 -9.5q14 0 23.5 10t9.5 23t-9.5 22.5t-23.5 9.5zM509 97l5 -95q-27 -7 -60 -7q-91 0 -103 75
q-39 -76 -155 -76q-76 0 -118 35t-42 95q0 80 75.5 113.5t225.5 35.5h8v23q0 41 -24.5 64.5t-70.5 23.5q-43 0 -66.5 -16.5t-23.5 -45.5q0 -9 4 -19l-108 -18q-6 19 -6 44q0 67 55 108t149 41q100 0 155 -49t55 -136v-166q0 -18 6.5 -25t21.5 -7q7 0 17 2zM228 87
q53 0 85 23.5t32 55.5v40h-8q-96 -2 -139 -18t-43 -51q0 -50 73 -50z" />
    <glyph glyph-name="ae" unicode="&#xe6;" horiz-adv-x="836" 
d="M606 89q82 0 129 56l62 -67q-29 -38 -80.5 -61t-119.5 -23q-141 0 -206 97h-6q-50 -97 -189 -97q-76 0 -118 35t-42 95q0 80 75.5 113.5t225.5 35.5h8v23q0 41 -24.5 64.5t-70.5 23.5q-43 0 -66.5 -16.5t-23.5 -45.5q0 -11 5 -21l-108 -18q-7 19 -7 46q0 67 55 108
t149 41q104 0 162 -68q68 68 168 68q101 0 158.5 -62t57.5 -160l-4 -49h-332q9 -54 45 -86t97 -32zM581 383q-46 0 -77.5 -28.5t-39.5 -78.5h222q-1 47 -29 77t-76 30zM228 87q53 0 85.5 25t32.5 58v36h-9q-96 -2 -139 -18t-43 -51q0 -50 73 -50z" />
    <glyph glyph-name="ccedilla" unicode="&#xe7;" horiz-adv-x="513" 
d="M487 75q-59 -75 -188 -81l-10 -21q32 -4 55 -25.5t23 -59.5q0 -43 -32 -67t-79 -24q-29 0 -54 10.5t-36 20.5l-11 10l31 56q26 -28 68 -28q40 0 40 28q0 39 -89 39l28 65q-93 14 -146 77.5t-53 158.5q0 108 67.5 176t175.5 68q90 0 144 -47t54 -118l-3 -33l-109 -7
q2 6 2 22q0 36 -23.5 59.5t-65.5 23.5q-53 0 -85.5 -38.5t-32.5 -101.5q0 -66 34.5 -105t98.5 -39q87 0 134 57z" />
    <glyph glyph-name="egrave" unicode="&#xe8;" horiz-adv-x="526" 
d="M329 543l-110 -5l-99 164h151zM300 89q78 0 125 56l62 -67q-29 -38 -80.5 -61t-119.5 -23q-116 0 -184 66.5t-68 174.5q0 107 65.5 175t173.5 68q101 0 159 -62t58 -160l-5 -49h-328q9 -54 45 -86t97 -32zM274 383q-46 0 -77 -28.5t-39 -78.5h218q-1 47 -28.5 77
t-73.5 30z" />
    <glyph glyph-name="eacute" unicode="&#xe9;" horiz-adv-x="526" 
d="M408 702l-98 -159l-109 -5l58 164h149zM300 89q78 0 125 56l62 -67q-29 -38 -80.5 -61t-119.5 -23q-116 0 -184 66.5t-68 174.5q0 107 65.5 175t173.5 68q101 0 159 -62t58 -160l-5 -49h-328q9 -54 45 -86t97 -32zM274 383q-46 0 -77 -28.5t-39 -78.5h218q-1 47 -28.5 77
t-73.5 30z" />
    <glyph glyph-name="ecircumflex" unicode="&#xea;" horiz-adv-x="526" 
d="M274 620l-64 -79l-96 -3l95 163h130l95 -163l-96 3zM300 89q78 0 125 56l62 -67q-29 -38 -80.5 -61t-119.5 -23q-116 0 -184 66.5t-68 174.5q0 107 65.5 175t173.5 68q101 0 159 -62t58 -160l-5 -49h-328q9 -54 45 -86t97 -32zM274 383q-46 0 -77 -28.5t-39 -78.5h218
q-1 47 -28.5 77t-73.5 30z" />
    <glyph glyph-name="edieresis" unicode="&#xeb;" horiz-adv-x="526" 
d="M177 557q-27 0 -46 18.5t-19 45.5q0 26 19 45.5t46 19.5q26 0 44.5 -19.5t18.5 -45.5q0 -27 -18.5 -45.5t-44.5 -18.5zM378 557q-26 0 -45 18.5t-19 45.5q0 26 19 45.5t45 19.5q27 0 45.5 -19t18.5 -46t-18.5 -45.5t-45.5 -18.5zM300 89q78 0 125 56l62 -67
q-29 -38 -80.5 -61t-119.5 -23q-116 0 -184 66.5t-68 174.5q0 107 65.5 175t173.5 68q101 0 159 -62t58 -160l-5 -49h-328q9 -54 45 -86t97 -32zM274 383q-46 0 -77 -28.5t-39 -78.5h218q-1 47 -28.5 77t-73.5 30z" />
    <glyph glyph-name="igrave" unicode="&#xec;" horiz-adv-x="244" 
d="M66 538l-99 164h151l58 -159zM61 0v472l122 4v-476h-122z" />
    <glyph glyph-name="iacute" unicode="&#xed;" horiz-adv-x="244" 
d="M174 543l-109 -5l58 164h149zM61 0v472l122 4v-476h-122z" />
    <glyph glyph-name="icircumflex" unicode="&#xee;" horiz-adv-x="244" 
d="M-42 538l95 163h130l95 -163l-96 3l-64 79l-64 -79zM61 0v472l122 4v-476h-122z" />
    <glyph glyph-name="idieresis" unicode="&#xef;" horiz-adv-x="244" 
d="M21 557q-27 0 -46 18.5t-19 45.5q0 26 19 45.5t46 19.5q26 0 44.5 -19.5t18.5 -45.5q0 -27 -18.5 -45.5t-44.5 -18.5zM222 557q-26 0 -45 18.5t-19 45.5q0 26 19 45.5t45 19.5q27 0 45.5 -19t18.5 -46t-18.5 -45.5t-45.5 -18.5zM61 0v472l122 4v-476h-122z" />
    <glyph glyph-name="eth" unicode="&#xf0;" horiz-adv-x="570" 
d="M409 605q119 -121 119 -333q0 -128 -68 -203t-190 -75q-104 0 -169.5 63t-65.5 160q0 105 62 167.5t159 62.5q56 0 94 -21t55 -49q-19 97 -90 165l-98 -64l-42 63l73 48q-51 25 -103 26l61 91q80 -12 141 -52l93 61l41 -63zM280 94q59 0 94.5 36.5t36.5 92.5v3
q-1 55 -37.5 88t-93.5 33q-56 0 -92 -35.5t-36 -92.5q0 -55 36.5 -90t91.5 -35z" />
    <glyph glyph-name="ntilde" unicode="&#xf1;" horiz-adv-x="564" 
d="M185 538h-84q-6 20 -6 46q0 41 28.5 70t74.5 29q41 0 87.5 -26t57.5 -26q26 0 26 31l-4 32h84q4 -19 4 -47q0 -41 -26.5 -69.5t-75.5 -28.5q-33 0 -79 26.5t-58 26.5q-34 0 -34 -35zM330 478q85 0 132 -52t47 -136v-290h-122v273q0 47 -24 74t-68 27q-54 0 -83.5 -39.5
t-29.5 -89.5v-245h-122v472l94 4q15 -55 15 -103h3q44 105 158 105z" />
    <glyph glyph-name="ograve" unicode="&#xf2;" horiz-adv-x="562" 
d="M227 538l-99 164h151l58 -159zM281 478q111 0 179 -68t68 -175t-68 -174t-179 -67t-179 67t-68 174t68.5 175t178.5 68zM281 94q56 0 89.5 39t33.5 102q0 64 -33.5 103.5t-89.5 39.5t-89.5 -39.5t-33.5 -103.5q0 -63 33.5 -102t89.5 -39z" />
    <glyph glyph-name="oacute" unicode="&#xf3;" horiz-adv-x="562" 
d="M318 543l-109 -5l58 164h149zM281 478q111 0 179 -68t68 -175t-68 -174t-179 -67t-179 67t-68 174t68.5 175t178.5 68zM281 94q56 0 89.5 39t33.5 102q0 64 -33.5 103.5t-89.5 39.5t-89.5 -39.5t-33.5 -103.5q0 -63 33.5 -102t89.5 -39z" />
    <glyph glyph-name="ocircumflex" unicode="&#xf4;" horiz-adv-x="562" 
d="M122 538l95 163h130l95 -163l-96 3l-64 79l-64 -79zM281 478q111 0 179 -68t68 -175t-68 -174t-179 -67t-179 67t-68 174t68.5 175t178.5 68zM281 94q56 0 89.5 39t33.5 102q0 64 -33.5 103.5t-89.5 39.5t-89.5 -39.5t-33.5 -103.5q0 -63 33.5 -102t89.5 -39z" />
    <glyph glyph-name="otilde" unicode="&#xf5;" horiz-adv-x="562" 
d="M445 694q4 -19 4 -47q0 -41 -26.5 -69.5t-75.5 -28.5q-33 0 -79 26.5t-58 26.5q-34 0 -34 -35l5 -29h-84q-6 20 -6 46q0 41 28.5 70t74.5 29q41 0 87.5 -26t57.5 -26q26 0 26 31l-4 32h84zM281 478q111 0 179 -68t68 -175t-68 -174t-179 -67t-179 67t-68 174t68.5 175
t178.5 68zM281 94q56 0 89.5 39t33.5 102q0 64 -33.5 103.5t-89.5 39.5t-89.5 -39.5t-33.5 -103.5q0 -63 33.5 -102t89.5 -39z" />
    <glyph glyph-name="odieresis" unicode="&#xf6;" horiz-adv-x="562" 
d="M185 557q-27 0 -46 18.5t-19 45.5q0 26 19 45.5t46 19.5q26 0 44.5 -19.5t18.5 -45.5q0 -27 -18.5 -45.5t-44.5 -18.5zM386 557q-26 0 -45 18.5t-19 45.5q0 26 19 45.5t45 19.5q27 0 45.5 -19t18.5 -46t-18.5 -45.5t-45.5 -18.5zM281 478q111 0 179 -68t68 -175t-68 -174
t-179 -67t-179 67t-68 174t68.5 175t178.5 68zM281 94q56 0 89.5 39t33.5 102q0 64 -33.5 103.5t-89.5 39.5t-89.5 -39.5t-33.5 -103.5q0 -63 33.5 -102t89.5 -39z" />
    <glyph glyph-name="divide" unicode="&#xf7;" horiz-adv-x="471" 
d="M178 421q0 24 17 41t41 17t41 -17t17 -41q0 -23 -17 -40t-41 -17t-41 17t-17 40zM46 201v82h378v-82h-378zM178 50q0 24 17 41t41 17t41 -17t17 -41q0 -23 -17 -40t-41 -17t-41 17t-17 40z" />
    <glyph glyph-name="oslash" unicode="&#xf8;" horiz-adv-x="562" 
d="M443 425q85 -68 85 -190q0 -107 -68 -174t-179 -67q-56 0 -105 19l-27 -41h-78l48 74q-85 68 -85 189q0 107 68.5 175t178.5 68q58 0 107 -20l24 37h77zM158 235q0 -53 25 -91l147 224q-21 10 -49 10q-56 0 -89.5 -39.5t-33.5 -103.5zM281 94q56 0 89.5 39t33.5 102
q0 53 -25 91l-145 -223q21 -9 47 -9z" />
    <glyph glyph-name="ugrave" unicode="&#xf9;" horiz-adv-x="556" 
d="M332 543l-110 -5l-99 164h151zM374 472h122v-472l-96 -4q-14 58 -14 96h-2q-43 -98 -150 -98q-84 0 -131 52t-47 136v290h122v-273q0 -47 23.5 -74t67.5 -27q49 0 77 40t28 89v245z" />
    <glyph glyph-name="uacute" unicode="&#xfa;" horiz-adv-x="556" 
d="M411 702l-98 -159l-109 -5l58 164h149zM374 472h122v-472l-96 -4q-14 58 -14 96h-2q-43 -98 -150 -98q-84 0 -131 52t-47 136v290h122v-273q0 -47 23.5 -74t67.5 -27q49 0 77 40t28 89v245z" />
    <glyph glyph-name="ucircumflex" unicode="&#xfb;" horiz-adv-x="556" 
d="M277 620l-64 -79l-96 -3l95 163h130l95 -163l-96 3zM374 472h122v-472l-96 -4q-14 58 -14 96h-2q-43 -98 -150 -98q-84 0 -131 52t-47 136v290h122v-273q0 -47 23.5 -74t67.5 -27q49 0 77 40t28 89v245z" />
    <glyph glyph-name="udieresis" unicode="&#xfc;" horiz-adv-x="556" 
d="M180 557q-27 0 -46 18.5t-19 45.5q0 26 19 45.5t46 19.5q26 0 44.5 -19.5t18.5 -45.5q0 -27 -18.5 -45.5t-44.5 -18.5zM381 557q-26 0 -45 18.5t-19 45.5q0 26 19 45.5t45 19.5q27 0 45.5 -19t18.5 -46t-18.5 -45.5t-45.5 -18.5zM374 472h122v-472l-96 -4q-14 58 -14 96
h-2q-43 -98 -150 -98q-84 0 -131 52t-47 136v290h122v-273q0 -47 23.5 -74t67.5 -27q49 0 77 40t28 89v245z" />
    <glyph glyph-name="yacute" unicode="&#xfd;" horiz-adv-x="523" 
d="M298 543l-109 -5l58 164h149zM305 -69q-53 -140 -181 -140q-23 0 -44 4.5t-30 8.5l-10 4l19 95q25 -13 55 -13q57 0 83 61l13 31l-197 490h132l107 -295q9 -26 15 -60h2q7 33 16 60l105 295h123z" />
    <glyph glyph-name="thorn" unicode="&#xfe;" horiz-adv-x="585" 
d="M335 478q96 0 155 -67.5t59 -175.5q0 -111 -61.5 -176t-159.5 -65t-146 71v-269h-122v676h1v228h118l1 -304h1q48 82 154 82zM308 96q53 0 85 38t32 101q0 64 -33 102.5t-88 38.5t-88.5 -38.5t-33.5 -87.5v-28q0 -48 33.5 -87t92.5 -39z" />
    <glyph glyph-name="ydieresis" unicode="&#xff;" horiz-adv-x="523" 
d="M165 557q-27 0 -46 18.5t-19 45.5q0 26 19 45.5t46 19.5q26 0 44.5 -19.5t18.5 -45.5q0 -27 -18.5 -45.5t-44.5 -18.5zM366 557q-26 0 -45 18.5t-19 45.5q0 26 19 45.5t45 19.5q27 0 45.5 -19t18.5 -46t-18.5 -45.5t-45.5 -18.5zM305 -69q-53 -140 -181 -140
q-23 0 -44 4.5t-30 8.5l-10 4l19 95q25 -13 55 -13q57 0 83 61l13 31l-197 490h132l107 -295q9 -26 15 -60h2q7 33 16 60l105 295h123z" />
    <glyph glyph-name="Amacron" unicode="&#x100;" horiz-adv-x="623" 
d="M473 794v-85h-311v85h311zM488 0l-50 148h-252l-50 -148h-130l239 660h134l237 -660h-128zM219 245h186l-72 210q-8 23 -20 73h-3q-7 -35 -20 -74z" />
    <glyph glyph-name="amacron" unicode="&#x101;" horiz-adv-x="540" 
d="M406 663v-84h-301v84h301zM509 97l5 -95q-27 -7 -60 -7q-91 0 -103 75q-39 -76 -155 -76q-76 0 -118 35t-42 95q0 80 75.5 113.5t225.5 35.5h8v23q0 41 -24.5 64.5t-70.5 23.5q-43 0 -66.5 -16.5t-23.5 -45.5q0 -9 4 -19l-108 -18q-6 19 -6 44q0 67 55 108t149 41
q100 0 155 -49t55 -136v-166q0 -18 6.5 -25t21.5 -7q7 0 17 2zM228 87q53 0 85 23.5t32 55.5v40h-8q-96 -2 -139 -18t-43 -51q0 -50 73 -50z" />
    <glyph glyph-name="Abreve" unicode="&#x102;" horiz-adv-x="623" 
d="M313 691q-65 0 -103.5 38.5t-38.5 96.5h89q0 -56 52 -57q53 0 53 57h89q0 -58 -38.5 -96.5t-102.5 -38.5zM488 0l-50 148h-252l-50 -148h-130l239 660h134l237 -660h-128zM219 245h186l-72 210q-8 23 -20 73h-3q-7 -35 -20 -74z" />
    <glyph glyph-name="abreve" unicode="&#x103;" horiz-adv-x="540" 
d="M254 537q-70 0 -109.5 43t-39.5 111h93q0 -76 55 -76q56 0 56 76h93q0 -68 -39.5 -111t-108.5 -43zM509 97l5 -95q-27 -7 -60 -7q-91 0 -103 75q-39 -76 -155 -76q-76 0 -118 35t-42 95q0 80 75.5 113.5t225.5 35.5h8v23q0 41 -24.5 64.5t-70.5 23.5q-43 0 -66.5 -16.5
t-23.5 -45.5q0 -9 4 -19l-108 -18q-6 19 -6 44q0 67 55 108t149 41q100 0 155 -49t55 -136v-166q0 -18 6.5 -25t21.5 -7q7 0 17 2zM228 87q53 0 85 23.5t32 55.5v40h-8q-96 -2 -139 -18t-43 -51q0 -50 73 -50z" />
    <glyph glyph-name="Aogonek" unicode="&#x104;" horiz-adv-x="623" 
d="M633 -105l31 -59q-4 -5 -11.5 -12t-32.5 -18.5t-53 -11.5q-47 0 -76 26t-29 67q0 68 60 113h-34l-50 148h-252l-50 -148h-130l239 660h134l237 -660q-3 -1 -8 -3.5t-18 -10.5t-23 -17.5t-18 -25.5t-8 -34q0 -20 11.5 -31.5t29.5 -11.5q15 0 27.5 7t18.5 15zM219 245h186
l-72 210q-8 23 -20 73h-3q-7 -35 -20 -74z" />
    <glyph glyph-name="aogonek" unicode="&#x105;" horiz-adv-x="540" 
d="M531 -103l31 -59q-4 -5 -11.5 -12t-32.5 -18.5t-53 -11.5q-47 0 -76 26t-29 67q0 64 56 110q-56 12 -65 71q-39 -76 -155 -76q-76 0 -118 35t-42 95q0 80 75.5 113.5t225.5 35.5h8v23q0 41 -24.5 64.5t-70.5 23.5q-43 0 -66.5 -16.5t-23.5 -45.5q0 -9 4 -19l-108 -18
q-6 19 -6 44q0 67 55 108t149 41q100 0 155 -49t55 -136v-166q0 -18 6.5 -25t21.5 -7q7 0 17 2l5 -95q-3 -1 -8 -3.5t-18 -10.5t-23 -17.5t-18 -25.5t-8 -34q0 -20 11.5 -31.5t29.5 -11.5q15 0 27.5 7t18.5 15zM228 87q53 0 85 23.5t32 55.5v40h-8q-96 -2 -139 -18t-43 -51
q0 -50 73 -50z" />
    <glyph glyph-name="Cacute" unicode="&#x106;" horiz-adv-x="645" 
d="M397 698l-112 -5l58 130h153zM348 667q69 0 122.5 -23t82.5 -59.5t44 -76.5t15 -80l-118 -18q0 55 -36 101t-108 46q-78 0 -129.5 -61.5t-51.5 -165.5q0 -114 57 -170.5t142 -56.5q103 0 174 95l75 -77q-13 -19 -31 -37t-49 -40.5t-76 -36.5t-96 -14q-146 0 -235 90.5
t-89 246.5q0 152 85.5 244.5t221.5 92.5z" />
    <glyph glyph-name="cacute" unicode="&#x107;" horiz-adv-x="513" 
d="M314 543l-109 -5l58 164h149zM277 478q90 0 144 -47t54 -118l-3 -33l-109 -7q2 6 2 22q0 36 -23.5 59.5t-65.5 23.5q-53 0 -85.5 -38.5t-32.5 -101.5q0 -66 34.5 -105t98.5 -39q87 0 134 57l62 -76q-28 -35 -80.5 -58t-122.5 -23q-115 0 -182.5 66.5t-67.5 173.5
q0 108 67.5 176t175.5 68z" />
    <glyph glyph-name="Ccircumflex" unicode="&#x108;" horiz-adv-x="645" 
d="M415 832l95 -139l-96 3l-64 59l-64 -59l-96 -3l95 139h130zM348 667q69 0 122.5 -23t82.5 -59.5t44 -76.5t15 -80l-118 -18q0 55 -36 101t-108 46q-78 0 -129.5 -61.5t-51.5 -165.5q0 -114 57 -170.5t142 -56.5q103 0 174 95l75 -77q-13 -19 -31 -37t-49 -40.5t-76 -36.5
t-96 -14q-146 0 -235 90.5t-89 246.5q0 152 85.5 244.5t221.5 92.5z" />
    <glyph glyph-name="ccircumflex" unicode="&#x109;" horiz-adv-x="513" 
d="M118 538l95 163h130l95 -163l-96 3l-64 79l-64 -79zM277 478q90 0 144 -47t54 -118l-3 -33l-109 -7q2 6 2 22q0 36 -23.5 59.5t-65.5 23.5q-53 0 -85.5 -38.5t-32.5 -101.5q0 -66 34.5 -105t98.5 -39q87 0 134 57l62 -76q-28 -35 -80.5 -58t-122.5 -23
q-115 0 -182.5 66.5t-67.5 173.5q0 108 67.5 176t175.5 68z" />
    <glyph glyph-name="Cdotaccent" unicode="&#x10a;" horiz-adv-x="645" 
d="M348 693q-32 0 -54 21t-22 52q0 32 22 53t54 21q33 0 55 -21t22 -53q0 -31 -22.5 -52t-54.5 -21zM348 667q69 0 122.5 -23t82.5 -59.5t44 -76.5t15 -80l-118 -18q0 55 -36 101t-108 46q-78 0 -129.5 -61.5t-51.5 -165.5q0 -114 57 -170.5t142 -56.5q103 0 174 95l75 -77
q-13 -19 -31 -37t-49 -40.5t-76 -36.5t-96 -14q-146 0 -235 90.5t-89 246.5q0 152 85.5 244.5t221.5 92.5z" />
    <glyph glyph-name="cdotaccent" unicode="&#x10b;" horiz-adv-x="513" 
d="M358 624q0 -33 -23.5 -55t-57.5 -22q-33 0 -56 22t-23 55t23 55t56 22q34 0 57.5 -22t23.5 -55zM277 478q90 0 144 -47t54 -118l-3 -33l-109 -7q2 6 2 22q0 36 -23.5 59.5t-65.5 23.5q-53 0 -85.5 -38.5t-32.5 -101.5q0 -66 34.5 -105t98.5 -39q87 0 134 57l62 -76
q-28 -35 -80.5 -58t-122.5 -23q-115 0 -182.5 66.5t-67.5 173.5q0 108 67.5 176t175.5 68z" />
    <glyph glyph-name="Ccaron" unicode="&#x10c;" horiz-adv-x="645" 
d="M190 837l96 -4l64 -59l64 59l96 4l-95 -139h-130zM348 667q69 0 122.5 -23t82.5 -59.5t44 -76.5t15 -80l-118 -18q0 55 -36 101t-108 46q-78 0 -129.5 -61.5t-51.5 -165.5q0 -114 57 -170.5t142 -56.5q103 0 174 95l75 -77q-13 -19 -31 -37t-49 -40.5t-76 -36.5t-96 -14
q-146 0 -235 90.5t-89 246.5q0 152 85.5 244.5t221.5 92.5z" />
    <glyph glyph-name="ccaron" unicode="&#x10d;" horiz-adv-x="513" 
d="M118 701l96 -4l64 -79l64 79l96 4l-95 -163h-130zM277 478q90 0 144 -47t54 -118l-3 -33l-109 -7q2 6 2 22q0 36 -23.5 59.5t-65.5 23.5q-53 0 -85.5 -38.5t-32.5 -101.5q0 -66 34.5 -105t98.5 -39q87 0 134 57l62 -76q-28 -35 -80.5 -58t-122.5 -23q-115 0 -182.5 66.5
t-67.5 173.5q0 108 67.5 176t175.5 68z" />
    <glyph glyph-name="Dcaron" unicode="&#x10e;" horiz-adv-x="671" 
d="M352 698h-130l-95 139l96 -4l64 -59l64 59l96 4zM296 660q159 0 246 -88.5t87 -241.5q0 -162 -79.5 -246t-222.5 -84h-253v660h222zM315 101q87 0 136.5 56t49.5 173q0 114 -56 171.5t-162 57.5h-83v-458h115z" />
    <glyph glyph-name="dcaron" unicode="&#x10f;" horiz-adv-x="618" 
d="M631 718q29 0 49.5 -20t20.5 -56t-9.5 -67.5t-22.5 -51.5t-26 -35t-23 -22l-9 -6l-36 49q6 4 15.5 12t25.5 29t16 39q-28 0 -47 18.5t-19 45.5t19 46t46 19zM403 409v297h122v-706l-97 -4q-14 64 -12 99h-3q-45 -101 -163 -101q-96 0 -155 67t-59 174q0 112 62 177.5
t158 65.5q99 0 147 -69zM281 96q55 0 88.5 38.5t33.5 87.5v28q0 48 -33.5 87t-92.5 39q-53 0 -85.5 -38.5t-32.5 -102.5q0 -63 33 -101t89 -38z" />
    <glyph glyph-name="Dcroat" unicode="&#x110;" horiz-adv-x="671" 
d="M296 660q159 0 246 -88.5t87 -241.5q0 -162 -79.5 -246t-222.5 -84h-253v287h-92v83h92v290h222zM315 101q87 0 136.5 56t49.5 173q0 114 -56 171.5t-162 57.5h-83v-189h168v-83h-168v-186h115z" />
    <glyph glyph-name="dcroat" unicode="&#x111;" horiz-adv-x="585" 
d="M585 621v-73h-60v-548l-97 -4q-14 64 -12 99h-3q-45 -101 -163 -101q-96 0 -155 67t-59 174q0 112 62 177.5t158 65.5q99 0 147 -69v139h-140v73h140v85h122v-85h60zM281 96q55 0 88.5 38.5t33.5 87.5v28q0 48 -33.5 87t-92.5 39q-53 0 -85.5 -38.5t-32.5 -102.5
q0 -63 33 -101t89 -38z" />
    <glyph glyph-name="Emacron" unicode="&#x112;" horiz-adv-x="550" 
d="M462 794v-85h-311v85h311zM503 556h-303v-168h265v-100h-265v-184h303v-104h-429v660h429v-104z" />
    <glyph glyph-name="emacron" unicode="&#x113;" horiz-adv-x="526" 
d="M425 663v-84h-301v84h301zM300 89q78 0 125 56l62 -67q-29 -38 -80.5 -61t-119.5 -23q-116 0 -184 66.5t-68 174.5q0 107 65.5 175t173.5 68q101 0 159 -62t58 -160l-5 -49h-328q9 -54 45 -86t97 -32zM274 383q-46 0 -77 -28.5t-39 -78.5h218q-1 47 -28.5 77t-73.5 30z
" />
    <glyph glyph-name="Ebreve" unicode="&#x114;" horiz-adv-x="550" 
d="M302 691q-65 0 -103.5 38.5t-38.5 96.5h89q0 -56 52 -57q53 0 53 57h89q0 -58 -38.5 -96.5t-102.5 -38.5zM503 556h-303v-168h265v-100h-265v-184h303v-104h-429v660h429v-104z" />
    <glyph glyph-name="ebreve" unicode="&#x115;" horiz-adv-x="526" 
d="M273 537q-70 0 -109.5 43t-39.5 111h93q0 -76 55 -76q56 0 56 76h93q0 -68 -39.5 -111t-108.5 -43zM300 89q78 0 125 56l62 -67q-29 -38 -80.5 -61t-119.5 -23q-116 0 -184 66.5t-68 174.5q0 107 65.5 175t173.5 68q101 0 159 -62t58 -160l-5 -49h-328q9 -54 45 -86
t97 -32zM274 383q-46 0 -77 -28.5t-39 -78.5h218q-1 47 -28.5 77t-73.5 30z" />
    <glyph glyph-name="Edotaccent" unicode="&#x116;" horiz-adv-x="550" 
d="M301 693q-32 0 -54 21t-22 52q0 32 22 53t54 21q33 0 55 -21t22 -53q0 -31 -22.5 -52t-54.5 -21zM503 556h-303v-168h265v-100h-265v-184h303v-104h-429v660h429v-104z" />
    <glyph glyph-name="edotaccent" unicode="&#x117;" horiz-adv-x="526" 
d="M273 547q-33 0 -56 22t-23 55t23 55t56 22q34 0 57.5 -22t23.5 -55t-23.5 -55t-57.5 -22zM300 89q78 0 125 56l62 -67q-29 -38 -80.5 -61t-119.5 -23q-116 0 -184 66.5t-68 174.5q0 107 65.5 175t173.5 68q101 0 159 -62t58 -160l-5 -49h-328q9 -54 45 -86t97 -32z
M274 383q-46 0 -77 -28.5t-39 -78.5h218q-1 47 -28.5 77t-73.5 30z" />
    <glyph glyph-name="Eogonek" unicode="&#x118;" horiz-adv-x="550" 
d="M520 -105l31 -59q-4 -5 -11.5 -12t-32.5 -18.5t-53 -11.5q-47 0 -76 26t-29 67q0 68 60 113h-335v660h429v-104h-303v-168h265v-100h-265v-184h303v-104q-3 -1 -8 -3.5t-18 -10.5t-23 -17.5t-18 -25.5t-8 -34q0 -20 11.5 -31.5t29.5 -11.5q15 0 27.5 7t17.5 15z" />
    <glyph glyph-name="eogonek" unicode="&#x119;" horiz-adv-x="526" 
d="M300 89q78 0 125 56l62 -67q-31 -40 -87 -64q-59 -32 -59 -83q0 -20 11.5 -31.5t29.5 -11.5q15 0 27.5 7t18.5 15l5 7l31 -59q-4 -5 -11.5 -12t-32.5 -18.5t-53 -11.5q-47 0 -76 26t-29 67q0 47 31 85h-6q-116 0 -184 66.5t-68 174.5q0 107 65.5 175t173.5 68
q101 0 159 -62t58 -160l-5 -49h-328q9 -54 45 -86t97 -32zM274 383q-46 0 -77 -28.5t-39 -78.5h218q-1 47 -28.5 77t-73.5 30z" />
    <glyph glyph-name="Ecaron" unicode="&#x11a;" horiz-adv-x="550" 
d="M368 698h-130l-95 139l96 -4l64 -59l64 59l96 4zM503 556h-303v-168h265v-100h-265v-184h303v-104h-429v660h429v-104z" />
    <glyph glyph-name="ecaron" unicode="&#x11b;" horiz-adv-x="526" 
d="M339 538h-130l-95 163l96 -4l64 -79l64 79l96 4zM300 89q78 0 125 56l62 -67q-29 -38 -80.5 -61t-119.5 -23q-116 0 -184 66.5t-68 174.5q0 107 65.5 175t173.5 68q101 0 159 -62t58 -160l-5 -49h-328q9 -54 45 -86t97 -32zM274 383q-46 0 -77 -28.5t-39 -78.5h218
q-1 47 -28.5 77t-73.5 30z" />
    <glyph glyph-name="Gcircumflex" unicode="&#x11c;" horiz-adv-x="670" 
d="M348 755l-64 -59l-96 -3l95 139h130l95 -139l-96 3zM620 323v-323h-83q-6 23 -11 80q-58 -87 -189 -87q-133 0 -214 92t-81 245q0 152 85.5 244.5t220.5 92.5q69 0 122.5 -22t82.5 -57t43.5 -73t14.5 -77l-116 -18q0 54 -36.5 95.5t-108.5 41.5q-78 0 -129.5 -61
t-51.5 -166q0 -104 51 -167.5t138 -63.5q76 0 116.5 38.5t40.5 100.5h-185v85h290z" />
    <glyph glyph-name="gcircumflex" unicode="&#x11d;" horiz-adv-x="530" 
d="M269 620l-64 -79l-96 -3l95 163h130l95 -163l-96 3zM327 79q88 0 139 -35t51 -102q0 -66 -59.5 -108.5t-194.5 -42.5q-125 0 -187.5 33.5t-62.5 91.5q0 69 80 96q-52 29 -52 86q0 31 18.5 53t47.5 32q-53 48 -53 122q0 77 57 124.5t150 47.5q81 0 134 -35q41 27 41 95
l90 -18q0 -52 -26.5 -82t-59.5 -37q30 -39 30 -95q0 -77 -57 -125t-151 -48q-45 0 -86 13q-37 -8 -37 -31q0 -20 19.5 -27.5t64.5 -7.5h104zM170 305q-1 -37 24 -59.5t67 -22.5q42 -1 68 21.5t27 59.5q0 37 -25.5 59.5t-67.5 23.5q-42 0 -67.5 -22.5t-25.5 -59.5zM263 -121
q76 0 108.5 14t32.5 44q0 27 -21.5 37.5t-69.5 10.5h-94q-96 0 -96 -50q0 -29 32.5 -42.5t107.5 -13.5z" />
    <glyph glyph-name="Gbreve" unicode="&#x11e;" horiz-adv-x="670" 
d="M347 691q-65 0 -103.5 38.5t-38.5 96.5h89q0 -56 52 -57q53 0 53 57h89q0 -58 -38.5 -96.5t-102.5 -38.5zM620 323v-323h-83q-6 23 -11 80q-58 -87 -189 -87q-133 0 -214 92t-81 245q0 152 85.5 244.5t220.5 92.5q69 0 122.5 -22t82.5 -57t43.5 -73t14.5 -77l-116 -18
q0 54 -36.5 95.5t-108.5 41.5q-78 0 -129.5 -61t-51.5 -166q0 -104 51 -167.5t138 -63.5q76 0 116.5 38.5t40.5 100.5h-185v85h290z" />
    <glyph glyph-name="gbreve" unicode="&#x11f;" horiz-adv-x="530" 
d="M268 537q-70 0 -109.5 43t-39.5 111h93q0 -76 55 -76q56 0 56 76h93q0 -68 -39.5 -111t-108.5 -43zM327 79q88 0 139 -35t51 -102q0 -66 -59.5 -108.5t-194.5 -42.5q-125 0 -187.5 33.5t-62.5 91.5q0 69 80 96q-52 29 -52 86q0 31 18.5 53t47.5 32q-53 48 -53 122
q0 77 57 124.5t150 47.5q76 0 129 -31q46 24 46 113l94 -24q0 -54 -30 -87.5t-65 -40.5q35 -41 35 -102q0 -77 -57 -125t-151 -48q-45 0 -86 13q-37 -8 -37 -31q0 -20 19.5 -27.5t64.5 -7.5h104zM170 305q-1 -37 24 -59.5t67 -22.5q42 -1 68 21.5t27 59.5q0 37 -25.5 59.5
t-67.5 23.5q-42 0 -67.5 -22.5t-25.5 -59.5zM263 -121q76 0 108.5 14t32.5 44q0 27 -21.5 37.5t-69.5 10.5h-94q-96 0 -96 -50q0 -29 32.5 -42.5t107.5 -13.5z" />
    <glyph glyph-name="Gdotaccent" unicode="&#x120;" horiz-adv-x="670" 
d="M346 693q-32 0 -54 21t-22 52q0 32 22 53t54 21q33 0 55 -21t22 -53q0 -31 -22.5 -52t-54.5 -21zM620 323v-323h-83q-6 23 -11 80q-58 -87 -189 -87q-133 0 -214 92t-81 245q0 152 85.5 244.5t220.5 92.5q69 0 122.5 -22t82.5 -57t43.5 -73t14.5 -77l-116 -18
q0 54 -36.5 95.5t-108.5 41.5q-78 0 -129.5 -61t-51.5 -166q0 -104 51 -167.5t138 -63.5q76 0 116.5 38.5t40.5 100.5h-185v85h290z" />
    <glyph glyph-name="gdotaccent" unicode="&#x121;" horiz-adv-x="530" 
d="M268 547q-33 0 -56 22t-23 55t23 55t56 22q34 0 57.5 -22t23.5 -55t-23.5 -55t-57.5 -22zM327 79q88 0 139 -35t51 -102q0 -66 -59.5 -108.5t-194.5 -42.5q-125 0 -187.5 33.5t-62.5 91.5q0 69 80 96q-52 29 -52 86q0 31 18.5 53t47.5 32q-53 48 -53 122q0 77 57 124.5
t150 47.5q76 0 129 -31q46 24 46 113l94 -24q0 -54 -30 -87.5t-65 -40.5q35 -41 35 -102q0 -77 -57 -125t-151 -48q-45 0 -86 13q-37 -8 -37 -31q0 -20 19.5 -27.5t64.5 -7.5h104zM170 305q-1 -37 24 -59.5t67 -22.5q42 -1 68 21.5t27 59.5q0 37 -25.5 59.5t-67.5 23.5
q-42 0 -67.5 -22.5t-25.5 -59.5zM263 -121q76 0 108.5 14t32.5 44q0 27 -21.5 37.5t-69.5 10.5h-94q-96 0 -96 -50q0 -29 32.5 -42.5t107.5 -13.5z" />
    <glyph glyph-name="Gcommaaccent" unicode="&#x122;" horiz-adv-x="670" 
d="M620 323v-323h-83q-6 23 -11 80q-58 -87 -189 -87q-133 0 -214 92t-81 245q0 152 85.5 244.5t220.5 92.5q69 0 122.5 -22t82.5 -57t43.5 -73t14.5 -77l-116 -18q0 54 -36.5 95.5t-108.5 41.5q-78 0 -129.5 -61t-51.5 -166q0 -104 51 -167.5t138 -63.5q76 0 116.5 38.5
t40.5 100.5h-185v85h290zM342 -39q30 0 51 -20.5t21 -56.5q0 -35 -10.5 -64.5t-25 -47t-29 -29.5t-25.5 -17l-10 -5l-30 48q6 3 15.5 8.5t26 21t16.5 27.5q-28 0 -47.5 19.5t-19.5 47.5t19.5 48t47.5 20z" />
    <glyph glyph-name="gcommaaccent" unicode="&#x123;" horiz-adv-x="530" 
d="M270 511q-30 0 -51 20.5t-21 56.5q0 35 10.5 64.5t25 47t29 29.5t25.5 17l10 5l30 -48q-6 -3 -15.5 -8.5t-26 -21t-16.5 -27.5q28 0 47.5 -19.5t19.5 -47.5t-19.5 -48t-47.5 -20zM327 79q88 0 139 -35t51 -102q0 -66 -59.5 -108.5t-194.5 -42.5q-125 0 -187.5 33.5
t-62.5 91.5q0 69 80 96q-52 29 -52 86q0 31 18.5 53t47.5 32q-53 48 -53 122q0 77 57 124.5t150 47.5q76 0 129 -31q46 24 46 113l94 -24q0 -54 -30 -87.5t-65 -40.5q35 -41 35 -102q0 -77 -57 -125t-151 -48q-45 0 -86 13q-37 -8 -37 -31q0 -20 19.5 -27.5t64.5 -7.5h104z
M170 305q-1 -37 24 -59.5t67 -22.5q42 -1 68 21.5t27 59.5q0 37 -25.5 59.5t-67.5 23.5q-42 0 -67.5 -22.5t-25.5 -59.5zM263 -121q76 0 108.5 14t32.5 44q0 27 -21.5 37.5t-69.5 10.5h-94q-96 0 -96 -50q0 -29 32.5 -42.5t107.5 -13.5z" />
    <glyph glyph-name="Hcircumflex" unicode="&#x124;" horiz-adv-x="709" 
d="M363 755l-64 -59l-96 -3l95 139h130l95 -139l-96 3zM508 660h126v-660h-126v286h-308v-286h-126v660h126v-270h308v270z" />
    <glyph glyph-name="Hbar" unicode="&#x126;" horiz-adv-x="709" 
d="M686 583v-83h-52v-500h-126v286h-308v-286h-126v500h-54v83h54v77h126v-77h308v77h126v-77h52zM508 390v110h-308v-110h308z" />
    <glyph glyph-name="hbar" unicode="&#x127;" horiz-adv-x="565" 
d="M330 478q85 0 132 -52t47 -136v-290h-122v273q0 47 -23.5 74t-68.5 27q-54 0 -83.5 -39t-29.5 -90v-245h-122v548h-64v73h64v85h120v-85h138v-73h-138v-155h3q44 85 147 85z" />
    <glyph glyph-name="Itilde" unicode="&#x128;" horiz-adv-x="273" 
d="M301 833q4 -19 4 -47q0 -41 -26 -69.5t-73 -28.5q-35 0 -82 26.5t-60 26.5q-14 0 -23 -8.5t-9 -23.5l5 -25h-84q-6 18 -6 43q0 43 28 69t75 26q41 0 88 -26t57 -26q26 0 26 31l-4 32h84zM74 0v660h125v-660h-125z" />
    <glyph glyph-name="itilde" unicode="&#x129;" horiz-adv-x="244" 
d="M281 694q4 -19 4 -47q0 -41 -26.5 -69.5t-75.5 -28.5q-33 0 -78.5 26.5t-58.5 26.5q-34 0 -34 -35l5 -29h-84q-6 20 -6 46q0 41 28.5 70t74.5 29q40 0 87 -26t58 -26q26 0 26 31l-4 32h84zM61 0v472l122 4v-476h-122z" />
    <glyph glyph-name="Imacron" unicode="&#x12a;" horiz-adv-x="273" 
d="M-14 709v85h311v-85h-311zM74 0v660h125v-660h-125z" />
    <glyph glyph-name="imacron" unicode="&#x12b;" horiz-adv-x="244" 
d="M-32 579v84h301v-84h-301zM61 0v472l122 4v-476h-122z" />
    <glyph glyph-name="Ibreve" unicode="&#x12c;" horiz-adv-x="273" 
d="M278 826q0 -58 -38.5 -96.5t-102.5 -38.5q-65 0 -103.5 38.5t-38.5 96.5h89q0 -56 52 -57q53 0 53 57h89zM74 0v660h125v-660h-125z" />
    <glyph glyph-name="ibreve" unicode="&#x12d;" horiz-adv-x="244" 
d="M265 691q0 -68 -39.5 -111t-108.5 -43q-70 0 -109.5 43t-39.5 111h93q0 -76 55 -76q56 0 56 76h93zM61 0v472l122 4v-476h-122z" />
    <glyph glyph-name="Iogonek" unicode="&#x12e;" horiz-adv-x="273" 
d="M216 -105l31 -59q-4 -5 -11.5 -12t-32.5 -18.5t-53 -11.5q-47 0 -76 26t-29 67q0 68 60 113h-31v660h125v-660q-3 -1 -8 -3.5t-18 -10.5t-23 -17.5t-18 -25.5t-8 -34q0 -20 11.5 -31.5t29.5 -11.5q15 0 27.5 7t17.5 15z" />
    <glyph glyph-name="iogonek" unicode="&#x12f;" horiz-adv-x="244" 
d="M123 547q-34 0 -57 22t-23 55t23 55t57 22q33 0 56.5 -22t23.5 -55t-23.5 -55t-56.5 -22zM200 -105l31 -59q-4 -5 -11.5 -12t-32.5 -18.5t-53 -11.5q-47 0 -76 26t-29 67q0 68 60 113h-28v472l122 4v-476q-3 -1 -8 -3.5t-18 -10.5t-23 -17.5t-18 -25.5t-8 -34
q0 -20 11.5 -31.5t29.5 -11.5q15 0 27.5 7t17.5 15z" />
    <glyph glyph-name="Idotaccent" unicode="&#x130;" horiz-adv-x="273" 
d="M136 693q-32 0 -54 21t-22 52q0 32 22 53t54 21q33 0 55 -21t22 -53q0 -31 -22.5 -52t-54.5 -21zM74 0v660h125v-660h-125z" />
    <glyph glyph-name="dotlessi" unicode="&#x131;" horiz-adv-x="244" 
d="M61 0v472l122 4v-476h-122z" />
    <glyph glyph-name="IJ" unicode="&#x132;" horiz-adv-x="743" 
d="M74 0v660h125v-660h-125zM347 153q45 -49 100 -49q51 0 76 24t25 78v454h126v-451q0 -105 -60 -160t-165 -55q-99 0 -177 70z" />
    <glyph glyph-name="ij" unicode="&#x133;" horiz-adv-x="493" 
d="M119 700q34 0 57.5 -22t23.5 -55t-23.5 -55t-57.5 -22t-57 22t-23 55t23 55t57 22zM376 700q33 0 56.5 -22t23.5 -55t-23.5 -55t-56.5 -22q-34 0 -57 22t-23 55t23 55t57 22zM61 0v472l122 4v-476h-122zM188 -94q17 -12 47 -12q75 0 75 90v488l123 4v-484q0 -95 -45 -148
t-137 -53q-31 0 -55.5 7.5t-33.5 15.5l-10 7z" />
    <glyph glyph-name="Jcircumflex" unicode="&#x134;" horiz-adv-x="470" 
d="M402 832l95 -139l-96 3l-64 59l-64 -59l-96 -3l95 139h130zM74 153q45 -49 100 -49q51 0 76 24t25 78v454h126v-451q0 -105 -60 -160t-165 -55q-99 0 -177 70z" />
    <glyph glyph-name="jcircumflex" unicode="&#x135;" horiz-adv-x="251" 
d="M-28 548l95 163h130l95 -163l-96 3l-64 79l-64 -79zM-55 -94q18 -12 48 -12q75 0 75 90v488l122 4v-484q0 -95 -45 -148t-137 -53q-31 0 -55.5 7.5t-33.5 15.5l-9 7z" />
    <glyph glyph-name="Kcommaaccent" unicode="&#x136;" horiz-adv-x="603" 
d="M360 322l239 -321h-133l-193 266h-73v-267h-126v660h126v-292h66l200 292h131zM317 -39q30 0 51 -20.5t21 -56.5q0 -35 -10.5 -64.5t-25 -47t-29 -29.5t-24.5 -17l-11 -5l-30 48q6 3 15.5 8.5t26 21t16.5 27.5q-28 0 -47.5 19.5t-19.5 47.5t19.5 48t47.5 20z" />
    <glyph glyph-name="kcommaaccent" unicode="&#x137;" horiz-adv-x="530" 
d="M331 247l205 -247h-149l-159 203h-46v-203h-122v706h122v-409h59l136 175h139zM270 -39q30 0 51 -20.5t21 -56.5q0 -35 -10.5 -64.5t-25 -47t-29 -29.5t-25.5 -17l-10 -5l-30 48q6 3 15.5 8.5t26 21t16.5 27.5q-28 0 -47.5 19.5t-19.5 47.5t19.5 48t47.5 20z" />
    <glyph glyph-name="kgreenlandic" unicode="&#x138;" horiz-adv-x="529" 
d="M387 0l-156 183h-49v-183h-122v472h122v-195h56l139 195h139l-185 -244l205 -228h-149z" />
    <glyph glyph-name="Lacute" unicode="&#x139;" horiz-adv-x="520" 
d="M287 823l-99 -125l-112 -5l58 130h153zM200 104h308v-104h-434v660h126v-556z" />
    <glyph glyph-name="lacute" unicode="&#x13a;" horiz-adv-x="243" 
d="M174 777l-109 -5l58 164h149zM61 0v706h121v-706h-121z" />
    <glyph glyph-name="Lcommaaccent" unicode="&#x13b;" horiz-adv-x="520" 
d="M200 104h308v-104h-434v660h126v-556zM305 -39q30 0 51 -20.5t21 -56.5q0 -35 -10.5 -64.5t-25 -47t-29 -29.5t-24.5 -17l-11 -5l-30 48q6 3 15.5 8.5t26 21t16.5 27.5q-28 0 -47.5 19.5t-19.5 47.5t19.5 48t47.5 20z" />
    <glyph glyph-name="lcommaaccent" unicode="&#x13c;" horiz-adv-x="243" 
d="M61 0v706h121v-706h-121zM53 -107q0 28 19.5 48t47.5 20q30 0 51 -20.5t21 -56.5q0 -35 -10.5 -64.5t-25 -47t-29 -29.5t-25.5 -17l-10 -5l-30 48q6 3 15.5 8.5t26 21t16.5 27.5q-28 0 -47.5 19.5t-19.5 47.5z" />
    <glyph glyph-name="Lcaron" unicode="&#x13d;" horiz-adv-x="520" 
d="M403 569q-27 0 -46 19t-19 46q0 26 18.5 45t45.5 19q29 0 49.5 -19.5t20.5 -55.5t-9.5 -67.5t-22.5 -52t-26 -35.5t-22 -22l-10 -6l-35 49q6 4 15.5 12t25 29t15.5 39zM200 104h308v-104h-434v660h126v-556z" />
    <glyph glyph-name="lcaron" unicode="&#x13e;" horiz-adv-x="277" 
d="M223 653q0 27 18.5 46t45.5 19q29 0 49.5 -20t20.5 -56t-9.5 -67.5t-22.5 -51.5t-26 -35t-23 -22l-9 -6l-35 49q6 4 15.5 12t25 29t15.5 39q-27 0 -46 18.5t-19 45.5zM61 0v706h121v-706h-121z" />
    <glyph glyph-name="Ldot" unicode="&#x13f;" horiz-adv-x="520" 
d="M200 104h308v-104h-434v660h126v-556zM354 247q-30 0 -51 21t-21 50q0 30 21 51.5t51 21.5t51 -21.5t21 -51.5q0 -29 -21 -50t-51 -21z" />
    <glyph glyph-name="ldot" unicode="&#x140;" horiz-adv-x="379" 
d="M61 0v706h121v-706h-121zM392 352q0 -33 -23.5 -55t-57.5 -22t-57 22t-23 55t23 55t57 22q33 0 57 -22t24 -55z" />
    <glyph glyph-name="Lslash" unicode="&#x141;" horiz-adv-x="520" 
d="M200 104h308v-104h-434v209l-63 -36l-41 72l104 60v355h126v-283l134 77l42 -72l-176 -101v-177z" />
    <glyph glyph-name="lslash" unicode="&#x142;" horiz-adv-x="337" 
d="M335 424l-104 -60v-364h-121v295l-64 -37l-37 66l101 58v324h121v-255l67 38z" />
    <glyph glyph-name="Nacute" unicode="&#x143;" horiz-adv-x="697" 
d="M393 698l-112 -5l58 130h153zM623 660v-660h-124l-228 348q-23 34 -75 123l-5 -3q5 -23 5 -119l2 -349h-124v660h119l235 -360q50 -78 72 -124l6 3q-5 42 -5 122l-1 359h123z" />
    <glyph glyph-name="nacute" unicode="&#x144;" horiz-adv-x="564" 
d="M420 702l-98 -159l-109 -5l58 164h149zM330 478q85 0 132 -52t47 -136v-290h-122v273q0 47 -24 74t-68 27q-54 0 -83.5 -39.5t-29.5 -89.5v-245h-122v472l94 4q15 -55 15 -103h3q44 105 158 105z" />
    <glyph glyph-name="Ncommaaccent" unicode="&#x145;" horiz-adv-x="697" 
d="M623 660v-660h-124l-228 348q-23 34 -75 123l-5 -3q5 -23 5 -119l2 -349h-124v660h119l235 -360q50 -78 72 -124l6 3q-5 42 -5 122l-1 359h123zM278 -107q0 28 19.5 48t47.5 20q30 0 51 -20.5t21 -56.5q0 -35 -10.5 -64.5t-25 -47t-29 -29.5t-24.5 -17l-11 -5l-30 48
q6 3 15.5 8.5t26 21t16.5 27.5q-28 0 -47.5 19.5t-19.5 47.5z" />
    <glyph glyph-name="ncommaaccent" unicode="&#x146;" horiz-adv-x="564" 
d="M330 478q85 0 132 -52t47 -136v-290h-122v273q0 47 -24 74t-68 27q-54 0 -83.5 -39.5t-29.5 -89.5v-245h-122v472l94 4q15 -55 15 -103h3q44 105 158 105zM283 -39q30 0 51 -20.5t21 -56.5q0 -35 -10.5 -64.5t-25 -47t-29 -29.5t-24.5 -17l-11 -5l-30 48q6 3 15.5 8.5
t26 21t16.5 27.5q-28 0 -47.5 19.5t-19.5 47.5t19.5 48t47.5 20z" />
    <glyph glyph-name="Ncaron" unicode="&#x147;" horiz-adv-x="697" 
d="M186 837l96 -4l64 -59l64 59l96 4l-95 -139h-130zM623 660v-660h-124l-228 348q-23 34 -75 123l-5 -3q5 -23 5 -119l2 -349h-124v660h119l235 -360q50 -78 72 -124l6 3q-5 42 -5 122l-1 359h123z" />
    <glyph glyph-name="ncaron" unicode="&#x148;" horiz-adv-x="564" 
d="M351 538h-130l-95 163l96 -4l64 -79l64 79l96 4zM330 478q85 0 132 -52t47 -136v-290h-122v273q0 47 -24 74t-68 27q-54 0 -83.5 -39.5t-29.5 -89.5v-245h-122v472l94 4q15 -55 15 -103h3q44 105 158 105z" />
    <glyph glyph-name="napostrophe" unicode="&#x149;" horiz-adv-x="564" 
d="M2 720q29 0 49.5 -19.5t20.5 -55.5t-9.5 -67.5t-22.5 -52t-26 -35.5t-22 -22l-10 -6l-35 49q6 4 15.5 12t25 29t15.5 39q-27 0 -46 19t-19 46q0 26 18.5 45t45.5 19zM330 478q85 0 132 -52t47 -136v-290h-122v273q0 47 -24 74t-68 27q-54 0 -83.5 -39.5t-29.5 -89.5v-245
h-122v472l94 4q15 -55 15 -103h3q44 105 158 105z" />
    <glyph glyph-name="Eng" unicode="&#x14a;" horiz-adv-x="697" 
d="M500 660h123v-679q0 -114 -65 -175t-164 -61q-52 0 -96.5 18.5t-62.5 36.5l-18 18l77 87q0 -2 11 -13t36 -23.5t53 -12.5q50 0 77 30.5t27 89.5v26l-227 346q-23 34 -75 123l-5 -3q5 -23 5 -119l2 -349h-124v660h119l235 -360q50 -78 72 -124l6 3q-5 42 -5 122z" />
    <glyph glyph-name="eng" unicode="&#x14b;" horiz-adv-x="564" 
d="M330 478q85 0 132 -52t47 -136v-298q0 -95 -45 -148t-137 -53q-31 0 -55.5 7.5t-33.5 15.5l-10 7l36 85q17 -12 47 -12q76 0 76 90v289q0 47 -24 74t-68 27q-54 0 -83.5 -39.5t-29.5 -89.5v-245h-122v472l94 4q15 -55 15 -103h3q44 105 158 105z" />
    <glyph glyph-name="Omacron" unicode="&#x14c;" horiz-adv-x="717" 
d="M207 709v85h311v-85h-311zM358 667q142 0 230 -91.5t88 -245.5q0 -153 -88 -244.5t-230 -91.5q-140 0 -228.5 91.5t-88.5 244.5t88 245t229 92zM358 103q85 0 138 61.5t53 165.5q0 105 -53 166t-138 61q-84 0 -137 -61t-53 -166q0 -104 53 -165.5t137 -61.5z" />
    <glyph glyph-name="omacron" unicode="&#x14d;" horiz-adv-x="562" 
d="M132 579v84h301v-84h-301zM281 478q111 0 179 -68t68 -175t-68 -174t-179 -67t-179 67t-68 174t68.5 175t178.5 68zM281 94q56 0 89.5 39t33.5 102q0 64 -33.5 103.5t-89.5 39.5t-89.5 -39.5t-33.5 -103.5q0 -63 33.5 -102t89.5 -39z" />
    <glyph glyph-name="Obreve" unicode="&#x14e;" horiz-adv-x="717" 
d="M499 826q0 -58 -38.5 -96.5t-102.5 -38.5q-65 0 -103.5 38.5t-38.5 96.5h89q0 -56 52 -57q53 0 53 57h89zM358 667q142 0 230 -91.5t88 -245.5q0 -153 -88 -244.5t-230 -91.5q-140 0 -228.5 91.5t-88.5 244.5t88 245t229 92zM358 103q85 0 138 61.5t53 165.5
q0 105 -53 166t-138 61q-84 0 -137 -61t-53 -166q0 -104 53 -165.5t137 -61.5z" />
    <glyph glyph-name="obreve" unicode="&#x14f;" horiz-adv-x="562" 
d="M429 691q0 -68 -39.5 -111t-108.5 -43q-70 0 -109.5 43t-39.5 111h93q0 -76 55 -76q56 0 56 76h93zM281 478q111 0 179 -68t68 -175t-68 -174t-179 -67t-179 67t-68 174t68.5 175t178.5 68zM281 94q56 0 89.5 39t33.5 102q0 64 -33.5 103.5t-89.5 39.5t-89.5 -39.5
t-33.5 -103.5q0 -63 33.5 -102t89.5 -39z" />
    <glyph glyph-name="Ohungarumlaut" unicode="&#x150;" horiz-adv-x="717" 
d="M292 698l-101 -5l58 130h143zM484 698l-101 -5l58 130h143zM358 667q142 0 230 -91.5t88 -245.5q0 -153 -88 -244.5t-230 -91.5q-140 0 -228.5 91.5t-88.5 244.5t88 245t229 92zM358 103q85 0 138 61.5t53 165.5q0 105 -53 166t-138 61q-84 0 -137 -61t-53 -166
q0 -104 53 -165.5t137 -61.5z" />
    <glyph glyph-name="ohungarumlaut" unicode="&#x151;" horiz-adv-x="562" 
d="M228 543l-112 -5l58 165h153zM421 543l-112 -5l58 165h154zM281 478q111 0 179 -68t68 -175t-68 -174t-179 -67t-179 67t-68 174t68.5 175t178.5 68zM281 94q56 0 89.5 39t33.5 102q0 64 -33.5 103.5t-89.5 39.5t-89.5 -39.5t-33.5 -103.5q0 -63 33.5 -102t89.5 -39z" />
    <glyph glyph-name="OE" unicode="&#x152;" horiz-adv-x="1029" 
d="M982 556h-303v-168h265v-100h-265v-184h303v-104h-429v55q-79 -61 -195 -61q-140 0 -228.5 91.5t-88.5 244.5t88 245t229 92q116 0 195 -61v54h429v-104zM358 103q85 0 138 61.5t53 165.5q0 105 -53 166t-138 61q-84 0 -137 -61t-53 -166q0 -104 53 -165.5t137 -61.5z
" />
    <glyph glyph-name="oe" unicode="&#x153;" horiz-adv-x="897" 
d="M671 89q78 0 125 56l62 -67q-29 -38 -80.5 -61t-119.5 -23q-123 0 -191 74q-69 -74 -186 -74q-111 0 -179 67t-68 174t68.5 175t178.5 68q117 0 185 -74q66 74 179 74q101 0 159 -62t58 -160l-5 -49h-328q9 -54 45 -86t97 -32zM645 383q-46 0 -77 -28.5t-39 -78.5h218
q-1 47 -28.5 77t-73.5 30zM281 94q56 0 89.5 39t33.5 102q0 64 -33.5 103.5t-89.5 39.5t-89.5 -39.5t-33.5 -103.5q0 -63 33.5 -102t89.5 -39z" />
    <glyph glyph-name="Racute" unicode="&#x154;" horiz-adv-x="617" 
d="M438 823l-99 -125l-112 -5l58 130h153zM594 96l8 -96q-26 -7 -67 -7q-40 0 -70 13.5t-48 34.5t-32 47t-26.5 52t-27.5 47t-38 34.5t-55 13.5h-38v-235h-126v660h217q257 0 257 -217q0 -136 -138 -186q25 -12 45.5 -41t32.5 -55t34 -46.5t52 -20.5zM200 326h74
q67 0 108 30.5t41 85.5q0 57 -36 87t-103 30h-84v-233z" />
    <glyph glyph-name="racute" unicode="&#x155;" horiz-adv-x="369" 
d="M340 702l-98 -159l-109 -5l58 164h149zM299 478q37 0 67 -12l-31 -119q-21 15 -51 15q-43 0 -72.5 -33.5t-29.5 -94.5v-234h-122v472l94 4q15 -55 15 -106h3q32 108 127 108z" />
    <glyph glyph-name="Rcommaaccent" unicode="&#x156;" horiz-adv-x="617" 
d="M594 96l8 -96q-26 -7 -67 -7q-40 0 -70 13.5t-48 34.5t-32 47t-26.5 52t-27.5 47t-38 34.5t-55 13.5h-38v-235h-126v660h217q257 0 257 -217q0 -136 -138 -186q25 -12 45.5 -41t32.5 -55t34 -46.5t52 -20.5zM200 326h74q67 0 108 30.5t41 85.5q0 57 -36 87t-103 30h-84
v-233zM323 -39q30 0 51 -20.5t21 -56.5q0 -35 -10.5 -64.5t-25 -47t-29 -29.5t-24.5 -17l-11 -5l-30 48q6 3 15.5 8.5t26 21t16.5 27.5q-28 0 -47.5 19.5t-19.5 47.5t19.5 48t47.5 20z" />
    <glyph glyph-name="rcommaaccent" unicode="&#x157;" horiz-adv-x="369" 
d="M299 478q37 0 67 -12l-31 -119q-21 15 -51 15q-43 0 -72.5 -33.5t-29.5 -94.5v-234h-122v472l94 4q15 -55 15 -106h3q32 108 127 108zM124 -39q30 0 51 -20.5t21 -56.5q0 -35 -10.5 -64.5t-25 -47t-29 -29.5t-25.5 -17l-10 -5l-30 48q6 3 15.5 8.5t26 21t16.5 27.5
q-28 0 -47.5 19.5t-19.5 47.5t19.5 48t47.5 20z" />
    <glyph glyph-name="Rcaron" unicode="&#x158;" horiz-adv-x="617" 
d="M357 698h-130l-95 139l96 -4l64 -59l64 59l96 4zM594 96l8 -96q-26 -7 -67 -7q-40 0 -70 13.5t-48 34.5t-32 47t-26.5 52t-27.5 47t-38 34.5t-55 13.5h-38v-235h-126v660h217q257 0 257 -217q0 -136 -138 -186q25 -12 45.5 -41t32.5 -55t34 -46.5t52 -20.5zM200 326h74
q67 0 108 30.5t41 85.5q0 57 -36 87t-103 30h-84v-233z" />
    <glyph glyph-name="rcaron" unicode="&#x159;" horiz-adv-x="369" 
d="M271 538h-130l-95 163l96 -4l64 -79l64 79l96 4zM172 370q32 108 127 108q37 0 67 -12l-31 -119q-21 15 -51 15q-43 0 -72.5 -33.5t-29.5 -94.5v-234h-122v472l94 4q15 -55 15 -106h3z" />
    <glyph glyph-name="Sacute" unicode="&#x15a;" horiz-adv-x="568" 
d="M322 698l-112 -5l58 130h153zM410 469q-3 33 -34.5 62.5t-88.5 29.5q-50 0 -78.5 -22t-28.5 -59q0 -29 26 -49.5t64.5 -31t84 -27t84 -36.5t64.5 -61.5t26 -99.5q0 -81 -65 -131.5t-181 -50.5q-87 0 -154 27.5t-105 60.5l75 92q85 -76 187 -76q56 0 86.5 20t30.5 56
q0 34 -26 57t-64.5 34.5t-84 27.5t-84 34t-64.5 56t-26 92q0 84 64 138.5t166 54.5q63 0 110 -17t72.5 -45t38.5 -54t19 -54z" />
    <glyph glyph-name="sacute" unicode="&#x15b;" horiz-adv-x="478" 
d="M276 543l-109 -5l58 164h149zM322 306q2 8 2 19q0 31 -23 49t-62 18q-37 0 -57 -15t-20 -40q0 -27 28.5 -41.5t69.5 -22t82 -18.5t70 -41.5t30 -80.5q0 -64 -54.5 -101.5t-148.5 -37.5q-129 0 -215 71l61 75q17 -16 61 -36.5t90 -20.5q82 0 82 45q0 22 -28 35.5t-68 22.5
t-80 22.5t-68 44.5t-28 79q0 66 54 106t143 40q84 0 137.5 -37.5t53.5 -95.5l-4 -32z" />
    <glyph glyph-name="Scircumflex" unicode="&#x15c;" horiz-adv-x="568" 
d="M340 832l95 -139l-96 3l-64 59l-64 -59l-96 -3l95 139h130zM410 469q-3 33 -34.5 62.5t-88.5 29.5q-50 0 -78.5 -22t-28.5 -59q0 -29 26 -49.5t64.5 -31t84 -27t84 -36.5t64.5 -61.5t26 -99.5q0 -81 -65 -131.5t-181 -50.5q-87 0 -154 27.5t-105 60.5l75 92
q85 -76 187 -76q56 0 86.5 20t30.5 56q0 34 -26 57t-64.5 34.5t-84 27.5t-84 34t-64.5 56t-26 92q0 84 64 138.5t166 54.5q63 0 110 -17t72.5 -45t38.5 -54t19 -54z" />
    <glyph glyph-name="scircumflex" unicode="&#x15d;" horiz-adv-x="478" 
d="M80 538l95 163h130l95 -163l-96 3l-64 79l-64 -79zM322 306q2 8 2 19q0 31 -23 49t-62 18q-37 0 -57 -15t-20 -40q0 -27 28.5 -41.5t69.5 -22t82 -18.5t70 -41.5t30 -80.5q0 -64 -54.5 -101.5t-148.5 -37.5q-129 0 -215 71l61 75q17 -16 61 -36.5t90 -20.5q82 0 82 45
q0 22 -28 35.5t-68 22.5t-80 22.5t-68 44.5t-28 79q0 66 54 106t143 40q84 0 137.5 -37.5t53.5 -95.5l-4 -32z" />
    <glyph glyph-name="Scedilla" unicode="&#x15e;" horiz-adv-x="568" 
d="M529 175q0 -74 -56 -123.5t-156 -57.5l-10 -21q32 -4 55 -25.5t23 -59.5q0 -43 -32 -67t-79 -24q-29 0 -54 10.5t-36 20.5l-11 10l31 56q26 -28 68 -28q40 0 40 28q0 39 -89 39l26 61q-135 10 -225 87l75 92q85 -76 187 -76q56 0 86.5 20t30.5 56q0 34 -26 57t-64.5 34.5
t-84 27.5t-84 34t-64.5 56t-26 92q0 84 64 138.5t166 54.5q63 0 110 -17t72.5 -45t38.5 -54t19 -54l-114 -28q-3 33 -34.5 62.5t-88.5 29.5q-50 0 -78.5 -22t-28.5 -59q0 -29 26 -49.5t64.5 -31t84 -27t84 -36.5t64.5 -61.5t26 -99.5z" />
    <glyph glyph-name="scedilla" unicode="&#x15f;" horiz-adv-x="478" 
d="M442 133q0 -58 -45 -94t-124 -44l-10 -22q32 -4 55 -25.5t23 -59.5q0 -43 -32 -67t-79 -24q-29 0 -54 10.5t-36 20.5l-11 10l31 56q26 -28 68 -28q40 0 40 28q0 39 -89 39l27 62q-106 9 -182 70l61 75q17 -16 61 -36.5t90 -20.5q82 0 82 45q0 22 -28 35.5t-68 22.5
t-80 22.5t-68 44.5t-28 79q0 66 54 106t143 40q84 0 137.5 -37.5t53.5 -95.5l-4 -32l-108 -7q2 8 2 19q0 31 -23 49t-62 18q-37 0 -57 -15t-20 -40q0 -27 28.5 -41.5t69.5 -22t82 -18.5t70 -41.5t30 -80.5z" />
    <glyph glyph-name="Scaron" unicode="&#x160;" horiz-adv-x="568" 
d="M115 837l96 -4l64 -59l64 59l96 4l-95 -139h-130zM410 469q-3 33 -34.5 62.5t-88.5 29.5q-50 0 -78.5 -22t-28.5 -59q0 -29 26 -49.5t64.5 -31t84 -27t84 -36.5t64.5 -61.5t26 -99.5q0 -81 -65 -131.5t-181 -50.5q-87 0 -154 27.5t-105 60.5l75 92q85 -76 187 -76
q56 0 86.5 20t30.5 56q0 34 -26 57t-64.5 34.5t-84 27.5t-84 34t-64.5 56t-26 92q0 84 64 138.5t166 54.5q63 0 110 -17t72.5 -45t38.5 -54t19 -54z" />
    <glyph glyph-name="scaron" unicode="&#x161;" horiz-adv-x="478" 
d="M80 701l96 -4l64 -79l64 79l96 4l-95 -163h-130zM322 306q2 8 2 19q0 31 -23 49t-62 18q-37 0 -57 -15t-20 -40q0 -27 28.5 -41.5t69.5 -22t82 -18.5t70 -41.5t30 -80.5q0 -64 -54.5 -101.5t-148.5 -37.5q-129 0 -215 71l61 75q17 -16 61 -36.5t90 -20.5q82 0 82 45
q0 22 -28 35.5t-68 22.5t-80 22.5t-68 44.5t-28 79q0 66 54 106t143 40q84 0 137.5 -37.5t53.5 -95.5l-4 -32z" />
    <glyph glyph-name="uni0162" unicode="&#x162;" horiz-adv-x="559" 
d="M342 0h-31l-13 -27q32 -4 55 -25.5t23 -59.5q0 -43 -32 -67t-79 -24q-29 0 -54 10.5t-36 20.5l-11 10l31 56q26 -28 68 -28q40 0 40 28q0 39 -89 39l29 67h-27v556h-204v104h535v-104h-205v-556z" />
    <glyph glyph-name="uni0163" unicode="&#x163;" horiz-adv-x="417" 
d="M271 -27q32 -4 55 -25.5t23 -59.5q0 -43 -32 -67t-79 -24q-29 0 -54 10.5t-36 20.5l-11 10l31 56q26 -28 68 -28q40 0 40 28q0 39 -89 39l29 68q-122 28 -122 190v187h-73v94h76v135l119 5v-140h171v-94h-171v-183q0 -50 19.5 -74t61.5 -24q23 0 43 6.5t28 12.5l9 7
l35 -96q-48 -32 -131 -33z" />
    <glyph glyph-name="Tcaron" unicode="&#x164;" horiz-adv-x="559" 
d="M122 837l96 -4l64 -59l64 59l96 4l-95 -139h-130zM216 0v556h-204v104h535v-104h-205v-556h-126z" />
    <glyph glyph-name="tcaron" unicode="&#x165;" horiz-adv-x="417" 
d="M321 590q-26 0 -45 19t-19 46q0 26 18.5 45t45.5 19q29 0 49 -19t20 -54q0 -33 -10 -60.5t-24 -43t-28 -26t-24 -14.5l-10 -3l-29 46q55 19 56 45zM377 123l35 -96q-49 -33 -135 -33q-183 0 -183 197v187h-73v94h76v135l119 5v-140h171v-94h-171v-183q0 -50 19.5 -74
t61.5 -24q23 0 43 6.5t28 12.5z" />
    <glyph glyph-name="Tbar" unicode="&#x166;" horiz-adv-x="559" 
d="M547 556h-205v-181h127v-83h-127v-292h-126v292h-133v83h133v181h-204v104h535v-104z" />
    <glyph glyph-name="tbar" unicode="&#x167;" horiz-adv-x="417" 
d="M377 123l35 -96q-49 -33 -135 -33q-183 0 -183 197v24h-68v73h68v90h-73v94h76v135l119 5v-140h171v-94h-171v-90h132v-73h-132v-20q0 -50 19.5 -74t61.5 -24q23 0 43 6.5t28 12.5z" />
    <glyph glyph-name="Utilde" unicode="&#x168;" horiz-adv-x="680" 
d="M527 833q4 -19 4 -47q0 -41 -26 -69.5t-73 -28.5q-35 0 -82 26.5t-60 26.5q-14 0 -23 -8.5t-9 -23.5l5 -25h-84q-6 18 -6 43q0 43 28 69t75 26q41 0 88 -26t57 -26q26 0 26 31l-4 32h84zM486 660h126v-401q0 -120 -75 -193t-196 -73q-123 0 -198 72.5t-75 193.5v401h126
v-400q0 -74 40.5 -115.5t106.5 -41.5q65 0 105 41.5t40 114.5v401z" />
    <glyph glyph-name="utilde" unicode="&#x169;" horiz-adv-x="556" 
d="M176 538h-84q-6 20 -6 46q0 41 28.5 70t74.5 29q31 0 60.5 -13t51 -26t33.5 -13q26 0 26 31l-4 32h84q4 -19 4 -47q0 -41 -26.5 -69.5t-75.5 -28.5q-34 0 -79.5 26.5t-57.5 26.5q-34 0 -34 -35zM374 472h122v-472l-96 -4q-14 58 -14 96h-2q-43 -98 -150 -98
q-84 0 -131 52t-47 136v290h122v-273q0 -47 23.5 -74t67.5 -27q49 0 77 40t28 89v245z" />
    <glyph glyph-name="Umacron" unicode="&#x16a;" horiz-adv-x="680" 
d="M190 709v85h311v-85h-311zM486 660h126v-401q0 -120 -75 -193t-196 -73q-123 0 -198 72.5t-75 193.5v401h126v-400q0 -74 40.5 -115.5t106.5 -41.5q65 0 105 41.5t40 114.5v401z" />
    <glyph glyph-name="umacron" unicode="&#x16b;" horiz-adv-x="556" 
d="M428 663v-84h-301v84h301zM374 472h122v-472l-96 -4q-14 58 -14 96h-2q-43 -98 -150 -98q-84 0 -131 52t-47 136v290h122v-273q0 -47 23.5 -74t67.5 -27q49 0 77 40t28 89v245z" />
    <glyph glyph-name="Ubreve" unicode="&#x16c;" horiz-adv-x="680" 
d="M482 826q0 -58 -38.5 -96.5t-102.5 -38.5q-65 0 -103.5 38.5t-38.5 96.5h89q0 -56 52 -57q53 0 53 57h89zM486 660h126v-401q0 -120 -75 -193t-196 -73q-123 0 -198 72.5t-75 193.5v401h126v-400q0 -74 40.5 -115.5t106.5 -41.5q65 0 105 41.5t40 114.5v401z" />
    <glyph glyph-name="ubreve" unicode="&#x16d;" horiz-adv-x="556" 
d="M276 537q-70 0 -109.5 43t-39.5 111h93q0 -76 55 -76q56 0 56 76h93q0 -68 -39.5 -111t-108.5 -43zM374 472h122v-472l-96 -4q-14 58 -14 96h-2q-43 -98 -150 -98q-84 0 -131 52t-47 136v290h122v-273q0 -47 23.5 -74t67.5 -27q49 0 77 40t28 89v245z" />
    <glyph glyph-name="Uring" unicode="&#x16e;" horiz-adv-x="680" 
d="M341 679q-38 0 -65 26t-27 63t27 63t65 26t65 -26t27 -63t-27 -63t-65 -26zM372 768q0 13 -9 21.5t-22 8.5t-21.5 -8.5t-8.5 -21.5t8.5 -22t21.5 -9t22 9t9 22zM486 660h126v-401q0 -120 -75 -193t-196 -73q-123 0 -198 72.5t-75 193.5v401h126v-400q0 -74 40.5 -115.5
t106.5 -41.5q65 0 105 41.5t40 114.5v401z" />
    <glyph glyph-name="uring" unicode="&#x16f;" horiz-adv-x="556" 
d="M276 525q-40 0 -69 27.5t-29 66.5t29 66.5t69 27.5t68.5 -27.5t28.5 -66.5t-28.5 -66.5t-68.5 -27.5zM276 651q-14 0 -23 -9.5t-9 -22.5q0 -14 9.5 -23.5t22.5 -9.5q14 0 23.5 10t9.5 23t-9.5 22.5t-23.5 9.5zM374 472h122v-472l-96 -4q-14 58 -14 96h-2
q-43 -98 -150 -98q-84 0 -131 52t-47 136v290h122v-273q0 -47 23.5 -74t67.5 -27q49 0 77 40t28 89v245z" />
    <glyph glyph-name="Uhungarumlaut" unicode="&#x170;" horiz-adv-x="680" 
d="M275 698l-101 -5l58 130h143zM467 698l-101 -5l58 130h143zM486 660h126v-401q0 -120 -75 -193t-196 -73q-123 0 -198 72.5t-75 193.5v401h126v-400q0 -74 40.5 -115.5t106.5 -41.5q65 0 105 41.5t40 114.5v401z" />
    <glyph glyph-name="uhungarumlaut" unicode="&#x171;" horiz-adv-x="556" 
d="M322 703l-99 -160l-112 -5l58 165h153zM416 543l-112 -5l58 165h154zM374 227v245h122v-472l-96 -4q-14 58 -14 96h-2q-43 -98 -150 -98q-84 0 -131 52t-47 136v290h122v-273q0 -47 23.5 -74t67.5 -27q49 0 77 40t28 89z" />
    <glyph glyph-name="Uogonek" unicode="&#x172;" horiz-adv-x="680" 
d="M486 660h126v-401q0 -96 -48.5 -163t-132.5 -91q-62 -32 -62 -85q0 -20 11.5 -31.5t29.5 -11.5q15 0 27.5 7.5t18.5 14.5l5 7l31 -59q-4 -5 -11.5 -12t-32.5 -18.5t-53 -11.5q-47 0 -76 26t-29 67q0 55 40 95q-119 4 -190.5 76.5t-71.5 189.5v401h126v-400
q0 -74 40.5 -115.5t106.5 -41.5q65 0 105 41.5t40 114.5v401z" />
    <glyph glyph-name="uogonek" unicode="&#x173;" horiz-adv-x="556" 
d="M513 -105l31 -59q-4 -5 -11.5 -12t-32.5 -18.5t-53 -11.5q-47 0 -76 26t-29 67q0 66 58 111q-14 58 -14 94h-2q-43 -98 -150 -98q-84 0 -131 52t-47 136v290h122v-273q0 -47 23.5 -74t67.5 -27q49 0 77 40t28 89v245h122v-472q-3 -1 -8 -3.5t-18 -10.5t-23 -17.5
t-18 -25.5t-8 -34q0 -20 11.5 -31.5t29.5 -11.5q15 0 27.5 7t18.5 15z" />
    <glyph glyph-name="Wcircumflex" unicode="&#x174;" horiz-adv-x="918" 
d="M527 832l95 -139l-96 3l-64 59l-64 -59l-96 -3l95 139h130zM781 660h127l-185 -660h-142l-99 370q-12 46 -21 107h-2q-8 -53 -22 -107l-102 -370h-141l-184 660h130l109 -454q7 -34 18 -80h2q2 7 8 35t10 44l117 455h112l117 -455q10 -39 18 -79h3q5 26 18 80z" />
    <glyph glyph-name="wcircumflex" unicode="&#x175;" horiz-adv-x="771" 
d="M388 620l-64 -79l-96 -3l95 163h130l95 -163l-96 3zM631 472h124l-139 -472h-141l-77 267q-7 23 -9 47h-3q-2 -18 -8 -47l-80 -267h-139l-145 472h129l76 -295q13 -57 13 -60h3q3 16 14 60l83 295h112l82 -293q11 -44 14 -62h3q6 36 13 62z" />
    <glyph glyph-name="Ycircumflex" unicode="&#x176;" horiz-adv-x="591" 
d="M298 755l-64 -59l-96 -3l95 139h130l95 -139l-96 3zM583 660l-224 -420v-240h-126v236l-227 424h136l122 -234q27 -52 32 -82h3q5 30 32 82l120 234h132z" />
    <glyph glyph-name="ycircumflex" unicode="&#x177;" horiz-adv-x="523" 
d="M102 538l95 163h130l95 -163l-96 3l-64 79l-64 -79zM305 -69q-53 -140 -181 -140q-23 0 -44 4.5t-30 8.5l-10 4l19 95q25 -13 55 -13q57 0 83 61l13 31l-197 490h132l107 -295q9 -26 15 -60h2q7 33 16 60l105 295h123z" />
    <glyph glyph-name="Ydieresis" unicode="&#x178;" horiz-adv-x="591" 
d="M201 702q-26 0 -44.5 18.5t-18.5 44.5t18.5 44.5t44.5 18.5q25 0 43.5 -18.5t18.5 -44.5t-18 -44.5t-44 -18.5zM402 702q-26 0 -44.5 18.5t-18.5 44.5q0 25 18.5 44t44.5 19t44.5 -18.5t18.5 -44.5t-18.5 -44.5t-44.5 -18.5zM583 660l-224 -420v-240h-126v236l-227 424
h136l122 -234q27 -52 32 -82h3q5 30 32 82l120 234h132z" />
    <glyph glyph-name="Zacute" unicode="&#x179;" horiz-adv-x="578" 
d="M338 698l-112 -5l58 130h153zM33 0v101l309 394q38 46 52 60l-2 4q-19 -3 -83 -3h-266v104h500v-101l-306 -394q-29 -36 -56 -60l3 -4q15 3 83 3h271v-104h-505z" />
    <glyph glyph-name="zacute" unicode="&#x17a;" horiz-adv-x="470" 
d="M279 543l-109 -5l58 164h149zM32 0v90l239 262q17 20 24 26l-1 3q-15 -3 -50 -3h-206v94h394v-90l-225 -253q-18 -20 -33 -35l1 -3q15 3 50 3h215v-94h-408z" />
    <glyph glyph-name="Zdotaccent" unicode="&#x17b;" horiz-adv-x="578" 
d="M289 693q-32 0 -54 21t-22 52q0 32 22 53t54 21q33 0 55 -21t22 -53q0 -31 -22.5 -52t-54.5 -21zM33 0v101l309 394q38 46 52 60l-2 4q-19 -3 -83 -3h-266v104h500v-101l-306 -394q-29 -36 -56 -60l3 -4q15 3 83 3h271v-104h-505z" />
    <glyph glyph-name="zdotaccent" unicode="&#x17c;" horiz-adv-x="470" 
d="M323 624q0 -33 -23.5 -55t-57.5 -22q-33 0 -56 22t-23 55t23 55t56 22q34 0 57.5 -22t23.5 -55zM32 0v90l239 262q17 20 24 26l-1 3q-15 -3 -50 -3h-206v94h394v-90l-225 -253q-18 -20 -33 -35l1 -3q15 3 50 3h215v-94h-408z" />
    <glyph glyph-name="Zcaron" unicode="&#x17d;" horiz-adv-x="578" 
d="M131 837l96 -4l64 -59l64 59l96 4l-95 -139h-130zM33 0v101l309 394q38 46 52 60l-2 4q-19 -3 -83 -3h-266v104h500v-101l-306 -394q-29 -36 -56 -60l3 -4q15 3 83 3h271v-104h-505z" />
    <glyph glyph-name="zcaron" unicode="&#x17e;" horiz-adv-x="470" 
d="M83 701l96 -4l64 -79l64 79l96 4l-95 -163h-130zM32 0v90l239 262q17 20 24 26l-1 3q-15 -3 -50 -3h-206v94h394v-90l-225 -253q-18 -20 -33 -35l1 -3q15 3 50 3h215v-94h-408z" />
    <glyph glyph-name="uni01EA" unicode="&#x1ea;" horiz-adv-x="717" 
d="M436 2q-64 -30 -64 -86q0 -20 11.5 -31.5t29.5 -11.5q15 0 27.5 7.5t17.5 14.5l6 7l31 -59q-4 -5 -11.5 -12t-32.5 -18.5t-53 -11.5q-47 0 -76 26t-29 67q0 59 45 100q-132 7 -214.5 98t-82.5 238q0 153 88 245t229 92q142 0 230 -91.5t88 -245.5q0 -130 -65 -217
t-175 -111zM168 330q0 -104 53 -165.5t137 -61.5q85 0 138 61.5t53 165.5q0 105 -53 166t-138 61q-84 0 -137 -61t-53 -166z" />
    <glyph glyph-name="uni01EB" unicode="&#x1eb;" horiz-adv-x="562" 
d="M364 5q-59 -32 -59 -83q0 -20 11.5 -31.5t29.5 -11.5q15 0 27.5 7.5t18.5 14.5l5 7l31 -59q-4 -5 -11.5 -12t-32.5 -18.5t-53 -11.5q-47 0 -76 26t-29 67q0 55 39 94q-104 5 -167.5 71.5t-63.5 169.5q0 107 68.5 175t178.5 68q111 0 179 -68t68 -175q0 -85 -44 -146
t-120 -84zM158 235q0 -63 33.5 -102t89.5 -39t89.5 39t33.5 102q0 64 -33.5 103.5t-89.5 39.5t-89.5 -39.5t-33.5 -103.5z" />
    <glyph glyph-name="AEacute" unicode="&#x1fc;" horiz-adv-x="948" 
d="M684 823l-99 -125l-112 -5l58 130h153zM901 556h-303v-168h265v-100h-265v-184h303v-104h-429v148h-253l-105 -148h-130l472 660h445v-104zM288 245h184v258z" />
    <glyph glyph-name="aeacute" unicode="&#x1fd;" horiz-adv-x="836" 
d="M549 702l-98 -159l-109 -5l58 164h149zM606 89q82 0 129 56l62 -67q-29 -38 -80.5 -61t-119.5 -23q-141 0 -206 97h-6q-50 -97 -189 -97q-76 0 -118 35t-42 95q0 80 75.5 113.5t225.5 35.5h8v23q0 41 -24.5 64.5t-70.5 23.5q-43 0 -66.5 -16.5t-23.5 -45.5q0 -11 5 -21
l-108 -18q-7 19 -7 46q0 67 55 108t149 41q104 0 162 -68q68 68 168 68q101 0 158.5 -62t57.5 -160l-4 -49h-332q9 -54 45 -86t97 -32zM581 383q-46 0 -77.5 -28.5t-39.5 -78.5h222q-1 47 -29 77t-76 30zM228 87q53 0 85.5 25t32.5 58v36h-9q-96 -2 -139 -18t-43 -51
q0 -50 73 -50z" />
    <glyph glyph-name="Oslashacute" unicode="&#x1fe;" horiz-adv-x="717" 
d="M502 822l-99 -125l-112 -5l58 130h153zM582 581q94 -92 94 -251q0 -153 -88 -244.5t-230 -91.5q-79 0 -142 30l-44 -68h-109l78 118q-100 94 -100 256q0 153 88 245t229 92q82 0 150 -33l36 54h108zM168 330q0 -92 42 -151l235 358q-40 20 -87 20q-84 0 -137 -61
t-53 -166zM358 103q85 0 138 61.5t53 165.5q0 84 -37 144l-233 -354q37 -17 79 -17z" />
    <glyph glyph-name="oslashacute" unicode="&#x1ff;" horiz-adv-x="562" 
d="M420 702l-98 -159l-109 -5l58 164h149zM443 425q85 -68 85 -190q0 -107 -68 -174t-179 -67q-56 0 -105 19l-27 -41h-78l48 74q-85 68 -85 189q0 107 68.5 175t178.5 68q58 0 107 -20l24 37h77zM158 235q0 -53 25 -91l147 224q-21 10 -49 10q-56 0 -89.5 -39.5
t-33.5 -103.5zM281 94q56 0 89.5 39t33.5 102q0 53 -25 91l-145 -223q21 -9 47 -9z" />
    <glyph glyph-name="Scommaaccent" unicode="&#x218;" horiz-adv-x="568" 
d="M410 469q-3 33 -34.5 62.5t-88.5 29.5q-50 0 -78.5 -22t-28.5 -59q0 -29 26 -49.5t64.5 -31t84 -27t84 -36.5t64.5 -61.5t26 -99.5q0 -81 -65 -131.5t-181 -50.5q-87 0 -154 27.5t-105 60.5l75 92q85 -76 187 -76q56 0 86.5 20t30.5 56q0 34 -26 57t-64.5 34.5t-84 27.5
t-84 34t-64.5 56t-26 92q0 84 64 138.5t166 54.5q63 0 110 -17t72.5 -45t38.5 -54t19 -54zM215 -107q0 28 19.5 48t47.5 20q30 0 51 -20.5t21 -56.5q0 -35 -10.5 -64.5t-25 -47t-29 -29.5t-25.5 -17l-10 -5l-30 48q6 3 15.5 8.5t26 21t16.5 27.5q-28 0 -47.5 19.5
t-19.5 47.5z" />
    <glyph glyph-name="scommaaccent" unicode="&#x219;" horiz-adv-x="478" 
d="M322 306q2 8 2 19q0 31 -23 49t-62 18q-37 0 -57 -15t-20 -40q0 -27 28.5 -41.5t69.5 -22t82 -18.5t70 -41.5t30 -80.5q0 -64 -54.5 -101.5t-148.5 -37.5q-129 0 -215 71l61 75q17 -16 61 -36.5t90 -20.5q82 0 82 45q0 22 -28 35.5t-68 22.5t-80 22.5t-68 44.5t-28 79
q0 66 54 106t143 40q84 0 137.5 -37.5t53.5 -95.5l-4 -32zM171 -107q0 28 19.5 48t47.5 20q30 0 51 -20.5t21 -56.5q0 -35 -10.5 -64.5t-25 -47t-29 -29.5t-25.5 -17l-10 -5l-30 48q6 3 15.5 8.5t26 21t16.5 27.5q-28 0 -47.5 19.5t-19.5 47.5z" />
    <glyph glyph-name="uni021A" unicode="&#x21a;" horiz-adv-x="559" 
d="M216 0v556h-204v104h535v-104h-205v-556h-126zM206 -107q0 28 19.5 48t47.5 20q30 0 51 -20.5t21 -56.5q0 -35 -10.5 -64.5t-25 -47t-29 -29.5t-24.5 -17l-11 -5l-30 48q6 3 15.5 8.5t26 21t16.5 27.5q-28 0 -47.5 19.5t-19.5 47.5z" />
    <glyph glyph-name="uni021B" unicode="&#x21b;" horiz-adv-x="417" 
d="M412 27q-49 -33 -135 -33q-183 0 -183 197v187h-73v94h76v135l119 5v-140h171v-94h-171v-183q0 -50 19.5 -74t61.5 -24q23 0 43 6.5t28 12.5l9 7zM246 -39q30 0 51 -20.5t21 -56.5q0 -35 -10.5 -64.5t-25 -47t-29 -29.5t-25.5 -17l-10 -5l-30 48q6 3 15.5 8.5t26 21
t16.5 27.5q-28 0 -47.5 19.5t-19.5 47.5t19.5 48t47.5 20z" />
    <glyph glyph-name="uni0237" unicode="&#x237;" horiz-adv-x="251" 
d="M-55 -94q18 -12 48 -12q75 0 75 90v488l122 4v-484q0 -95 -45 -148t-137 -53q-31 0 -55.5 7.5t-33.5 15.5l-9 7z" />
    <glyph glyph-name="circumflex" unicode="&#x2c6;" horiz-adv-x="373" 
d="M25 538l95 163h130l95 -163l-96 3l-64 79l-64 -79z" />
    <glyph glyph-name="caron" unicode="&#x2c7;" horiz-adv-x="353" 
d="M25 701l96 -4l64 -79l64 79l96 4l-95 -163h-130z" />
    <glyph glyph-name="breve" unicode="&#x2d8;" horiz-adv-x="345" 
d="M321 691q0 -68 -39.5 -111t-108.5 -43q-70 0 -109.5 43t-39.5 111h93q0 -76 55 -76q56 0 56 76h93z" />
    <glyph glyph-name="dotaccent" unicode="&#x2d9;" horiz-adv-x="223" 
d="M192 624q0 -33 -23.5 -55t-57.5 -22q-33 0 -56 22t-23 55t23 55t56 22q34 0 57.5 -22t23.5 -55z" />
    <glyph glyph-name="ring" unicode="&#x2da;" horiz-adv-x="276" 
d="M138 525q-40 0 -69 27.5t-29 66.5t29 66.5t69 27.5t68.5 -27.5t28.5 -66.5t-28.5 -66.5t-68.5 -27.5zM171 619q0 13 -9.5 22.5t-23.5 9.5t-23 -9.5t-9 -22.5q0 -14 9.5 -23.5t22.5 -9.5q14 0 23.5 10t9.5 23z" />
    <glyph glyph-name="ogonek" unicode="&#x2db;" horiz-adv-x="276" 
d="M234 -163q-4 -5 -11.5 -12t-32.5 -18.5t-53 -11.5q-47 0 -76 26t-29 67q0 32 14 59.5t33.5 43.5t39.5 27t34 16l14 4l19 -37q-3 -1 -8 -3.5t-18 -10.5t-23 -17.5t-18 -25.5t-8 -34q0 -20 11.5 -31.5t29.5 -11.5q15 0 27.5 7.5t18.5 14.5l5 7z" />
    <glyph glyph-name="tilde" unicode="&#x2dc;" horiz-adv-x="428" 
d="M385 694q4 -19 4 -47q0 -41 -26.5 -69.5t-75.5 -28.5q-33 0 -79 26.5t-58 26.5q-34 0 -34 -35l5 -29h-84q-6 20 -6 46q0 41 28.5 70t74.5 29q40 0 87 -26t58 -26q26 0 26 31l-4 32h84z" />
    <glyph glyph-name="hungarumlaut" unicode="&#x2dd;" horiz-adv-x="477" 
d="M148 543l-112 -5l58 165h153zM341 543l-112 -5l58 165h154z" />
    <glyph glyph-name="gravecomb" unicode="&#x300;" 
d="M-150 538l-99 164h151l58 -159z" />
    <glyph glyph-name="acutecomb" unicode="&#x301;" 
d="M-141 543l-109 -5l58 164h149z" />
    <glyph glyph-name="uni0302" unicode="&#x302;" 
d="M-348 538l95 163h130l95 -163l-96 3l-64 79l-64 -79z" />
    <glyph glyph-name="tildecomb" unicode="&#x303;" 
d="M-43 694q4 -19 4 -47q0 -41 -26.5 -69.5t-75.5 -28.5q-33 0 -79 26.5t-58 26.5q-34 0 -34 -35l5 -29h-84q-6 20 -6 46q0 41 28.5 70t74.5 29q40 0 87 -26t58 -26q26 0 26 31l-4 32h84z" />
    <glyph glyph-name="uni0304" unicode="&#x304;" 
d="M-353 579v84h301v-84h-301z" />
    <glyph glyph-name="uni0306" unicode="&#x306;" 
d="M-24 691q0 -68 -39.5 -111t-108.5 -43q-70 0 -109.5 43t-39.5 111h93q0 -76 55 -76q56 0 56 76h93z" />
    <glyph glyph-name="uni0307" unicode="&#x307;" 
d="M-31 624q0 -33 -23.5 -55t-57.5 -22q-33 0 -56 22t-23 55t23 55t56 22q34 0 57.5 -22t23.5 -55z" />
    <glyph glyph-name="uni0308" unicode="&#x308;" 
d="M-289 557q-27 0 -46 18.5t-19 45.5q0 26 19 45.5t46 19.5q26 0 44.5 -19.5t18.5 -45.5q0 -27 -18.5 -45.5t-44.5 -18.5zM-88 557q-26 0 -45 18.5t-19 45.5q0 26 19 45.5t45 19.5q27 0 45.5 -19t18.5 -46t-18.5 -45.5t-45.5 -18.5z" />
    <glyph glyph-name="uni030A" unicode="&#x30a;" 
d="M-138 525q-40 0 -69 27.5t-29 66.5t29 66.5t69 27.5t68.5 -27.5t28.5 -66.5t-28.5 -66.5t-68.5 -27.5zM-105 619q0 13 -9.5 22.5t-23.5 9.5t-23 -9.5t-9 -22.5q0 -14 9.5 -23.5t22.5 -9.5q14 0 23.5 10t9.5 23z" />
    <glyph glyph-name="uni030B" unicode="&#x30b;" 
d="M-329 543l-112 -5l58 165h153zM-136 543l-112 -5l58 165h154z" />
    <glyph glyph-name="uni030C" unicode="&#x30c;" 
d="M-328 701l96 -4l64 -79l64 79l96 4l-95 -163h-130z" />
    <glyph glyph-name="uni0326" unicode="&#x326;" 
d="M-178 -107q0 28 19.5 48t47.5 20q30 0 51 -20.5t21 -56.5q0 -35 -10.5 -64.5t-25 -47t-29 -29.5t-24.5 -17l-11 -5l-30 48q6 3 15.5 8.5t26 21t16.5 27.5q-28 0 -47.5 19.5t-19.5 47.5z" />
    <glyph glyph-name="uni0327" unicode="&#x327;" 
d="M-112 -27q32 -4 55 -25.5t23 -59.5q0 -43 -32 -67t-79 -24q-29 0 -54 10.5t-36 20.5l-11 10l31 56q26 -28 68 -28q40 0 40 28q0 39 -89 39l35 81h68z" />
    <glyph glyph-name="uni0328" unicode="&#x328;" 
d="M-42 -163q-4 -5 -11.5 -12t-32.5 -18.5t-53 -11.5q-47 0 -76 26t-29 67q0 32 14 59.5t34 43.5t39.5 27t33.5 16l14 4l19 -37q-3 -1 -8 -3.5t-18 -10.5t-23 -17.5t-18 -25.5t-8 -34q0 -20 11.5 -31.5t29.5 -11.5q15 0 27.5 7.5t18.5 14.5l5 7z" />
    <glyph glyph-name="uni0335" unicode="&#x335;" 
d="M-353 230h322v-73h-322v73z" />
    <glyph glyph-name="uni0336" unicode="&#x336;" 
d="M-406 240h386v-83h-386v83z" />
    <glyph glyph-name="uni0337" unicode="&#x337;" 
d="M-347 342l289 165l37 -65l-289 -165z" />
    <glyph glyph-name="uni0338" unicode="&#x338;" 
d="M-168 503h77l-340 -523h-78z" />
    <glyph glyph-name="Wgrave" unicode="&#x1e80;" horiz-adv-x="918" 
d="M409 693l-99 130h154l58 -125zM781 660h127l-185 -660h-142l-99 370q-12 46 -21 107h-2q-8 -53 -22 -107l-102 -370h-141l-184 660h130l109 -454q7 -34 18 -80h2q2 7 8 35t10 44l117 455h112l117 -455q10 -39 18 -79h3q5 26 18 80z" />
    <glyph glyph-name="wgrave" unicode="&#x1e81;" horiz-adv-x="771" 
d="M443 543l-110 -5l-99 164h151zM631 472h124l-139 -472h-141l-77 267q-7 23 -9 47h-3q-2 -18 -8 -47l-80 -267h-139l-145 472h129l76 -295q13 -57 13 -60h3q3 16 14 60l83 295h112l82 -293q11 -44 14 -62h3q6 36 13 62z" />
    <glyph glyph-name="Wacute" unicode="&#x1e82;" horiz-adv-x="918" 
d="M509 698l-112 -5l58 130h153zM781 660h127l-185 -660h-142l-99 370q-12 46 -21 107h-2q-8 -53 -22 -107l-102 -370h-141l-184 660h130l109 -454q7 -34 18 -80h2q2 7 8 35t10 44l117 455h112l117 -455q10 -39 18 -79h3q5 26 18 80z" />
    <glyph glyph-name="wacute" unicode="&#x1e83;" horiz-adv-x="771" 
d="M542 702l-98 -159l-109 -5l58 164h149zM631 472h124l-139 -472h-141l-77 267q-7 23 -9 47h-3q-2 -18 -8 -47l-80 -267h-139l-145 472h129l76 -295q13 -57 13 -60h3q3 16 14 60l83 295h112l82 -293q11 -44 14 -62h3q6 36 13 62z" />
    <glyph glyph-name="Wdieresis" unicode="&#x1e84;" horiz-adv-x="918" 
d="M365 702q-26 0 -44.5 18.5t-18.5 44.5t18.5 44.5t44.5 18.5q25 0 43.5 -18.5t18.5 -44.5t-18 -44.5t-44 -18.5zM566 702q-26 0 -44.5 18.5t-18.5 44.5q0 25 18.5 44t44.5 19t44.5 -18.5t18.5 -44.5t-18.5 -44.5t-44.5 -18.5zM781 660h127l-185 -660h-142l-99 370
q-12 46 -21 107h-2q-8 -53 -22 -107l-102 -370h-141l-184 660h130l109 -454q7 -34 18 -80h2q2 7 8 35t10 44l117 455h112l117 -455q10 -39 18 -79h3q5 26 18 80z" />
    <glyph glyph-name="wdieresis" unicode="&#x1e85;" horiz-adv-x="771" 
d="M291 557q-27 0 -46 18.5t-19 45.5q0 26 19 45.5t46 19.5q26 0 44.5 -19.5t18.5 -45.5q0 -27 -18.5 -45.5t-44.5 -18.5zM492 557q-26 0 -45 18.5t-19 45.5q0 26 19 45.5t45 19.5q27 0 45.5 -19t18.5 -46t-18.5 -45.5t-45.5 -18.5zM631 472h124l-139 -472h-141l-77 267
q-7 23 -9 47h-3q-2 -18 -8 -47l-80 -267h-139l-145 472h129l76 -295q13 -57 13 -60h3q3 16 14 60l83 295h112l82 -293q11 -44 14 -62h3q6 36 13 62z" />
    <glyph glyph-name="Ygrave" unicode="&#x1ef2;" horiz-adv-x="591" 
d="M358 698l-113 -5l-99 130h154zM583 660l-224 -420v-240h-126v236l-227 424h136l122 -234q27 -52 32 -82h3q5 30 32 82l120 234h132z" />
    <glyph glyph-name="ygrave" unicode="&#x1ef3;" horiz-adv-x="523" 
d="M207 538l-99 164h151l58 -159zM305 -69q-53 -140 -181 -140q-23 0 -44 4.5t-30 8.5l-10 4l19 95q25 -13 55 -13q57 0 83 61l13 31l-197 490h132l107 -295q9 -26 15 -60h2q7 33 16 60l105 295h123z" />
    <glyph glyph-name="uni1EF8" unicode="&#x1ef8;" horiz-adv-x="591" 
d="M212 684h-84q-6 18 -6 43q0 43 28 69t75 26q41 0 88 -26t57 -26q26 0 26 31l-4 32h84q4 -19 4 -47q0 -41 -26 -69.5t-73 -28.5q-35 0 -82 26.5t-60 26.5q-14 0 -23 -8.5t-9 -23.5zM583 660l-224 -420v-240h-126v236l-227 424h136l122 -234q27 -52 32 -82h3q5 30 32 82
l120 234h132z" />
    <glyph glyph-name="uni1EF9" unicode="&#x1ef9;" horiz-adv-x="523" 
d="M425 694q4 -19 4 -47q0 -41 -26.5 -69.5t-75.5 -28.5q-33 0 -79 26.5t-58 26.5q-34 0 -34 -35l5 -29h-84q-6 20 -6 46q0 41 28.5 70t74.5 29q40 0 87 -26t58 -26q26 0 26 31l-4 32h84zM305 -69q-53 -140 -181 -140q-23 0 -44 4.5t-30 8.5l-10 4l19 95q25 -13 55 -13
q57 0 83 61l13 31l-197 490h132l107 -295q9 -26 15 -60h2q7 33 16 60l105 295h123z" />
    <glyph glyph-name="endash" unicode="&#x2013;" horiz-adv-x="472" 
d="M48 229v86h376v-86h-376z" />
    <glyph glyph-name="emdash" unicode="&#x2014;" horiz-adv-x="728" 
d="M48 229v86h631v-86h-631z" />
    <glyph glyph-name="quoteleft" unicode="&#x2018;" horiz-adv-x="242" 
d="M197 438q0 -32 -20.5 -51t-54.5 -19q-36 0 -60 24.5t-24 68.5q0 41 12 77t29 58.5t34 39t29 23.5l12 7l44 -56q-3 -2 -8 -5.5t-18 -14.5t-23 -22.5t-18 -28.5t-8 -33q32 0 53 -19t21 -49z" />
    <glyph glyph-name="quoteright" unicode="&#x2019;" horiz-adv-x="239" 
d="M46 597q0 32 20.5 51t54.5 19q36 0 60 -24.5t24 -68.5q0 -41 -12 -77t-29 -58.5t-34 -39t-29 -23.5l-12 -7l-44 56q3 2 8 5.5t18 14.5t23 22.5t18 28.5t8 33q-32 0 -53 19t-21 49z" />
    <glyph glyph-name="quotesinglbase" unicode="&#x201a;" horiz-adv-x="246" 
d="M43 62q0 32 20.5 51t54.5 19q36 0 60 -24.5t24 -68.5q0 -41 -12 -77t-29 -58.5t-34 -39t-29 -23.5l-12 -7l-44 56q3 2 8 5.5t18 14.5t23 22.5t18 28.5t8 33q-32 0 -53 19t-21 49z" />
    <glyph glyph-name="quotedblleft" unicode="&#x201c;" horiz-adv-x="433" 
d="M197 440q0 -32 -20.5 -51t-54.5 -19q-36 0 -60 24.5t-24 68.5q0 41 12 77t29 58.5t34 39t29 23.5l12 7l44 -56q-3 -2 -8 -5.5t-18 -14.5t-23 -22.5t-18 -28.5t-8 -33q32 0 53 -19t21 -49zM388 440q0 -32 -20.5 -51t-54.5 -19q-36 0 -60 24.5t-24 68.5q0 41 12 77t29 58.5
t34 39t29 23.5l12 7l44 -56q-3 -2 -8 -5.5t-18 -14.5t-23 -22.5t-18 -28.5t-8 -33q32 0 53 -19t21 -49z" />
    <glyph glyph-name="quotedblright" unicode="&#x201d;" horiz-adv-x="430" 
d="M120 667q36 0 60 -24.5t24 -68.5q0 -41 -12 -77t-28.5 -58.5t-33.5 -39t-29 -23.5l-12 -7l-45 56q9 5 21.5 14.5t33.5 36.5t21 53q-32 0 -53.5 19.5t-21.5 49.5q0 31 20.5 50t54.5 19zM311 667q36 0 60 -24t24 -69q0 -41 -12 -77t-28.5 -58.5t-33.5 -39t-29 -23.5l-12 -7
l-44 56q3 2 8 5.5t18 14.5t23 22.5t18 28.5t8 33q-32 0 -53 19.5t-21 49.5q0 31 20 50t54 19z" />
    <glyph glyph-name="quotedblbase" unicode="&#x201e;" horiz-adv-x="441" 
d="M43 62q0 32 20.5 51t54.5 19q36 0 60 -24.5t24 -68.5q0 -41 -12 -77t-29 -58.5t-34 -39t-29 -23.5l-12 -7l-44 56q3 2 8 5.5t18 14.5t23 22.5t18 28.5t8 33q-32 0 -53 19t-21 49zM238 62q0 32 20.5 51t54.5 19q36 0 60 -24.5t24 -68.5q0 -41 -12 -77t-29 -58.5t-34 -39
t-29 -23.5l-12 -7l-44 56q3 2 8 5.5t18 14.5t23 22.5t18 28.5t8 33q-32 0 -53 19t-21 49z" />
    <glyph glyph-name="dagger" unicode="&#x2020;" horiz-adv-x="411" 
d="M367 387l-117 4l-4 -169l10 -426h-101l9 426l-3 169l-116 -4v85l114 -4l-4 190h101l-4 -190l115 4v-85z" />
    <glyph glyph-name="daggerdbl" unicode="&#x2021;" horiz-adv-x="411" 
d="M367 383l-117 4l-4 -149l4 -153l117 5v-83l-117 4l5 -215h-100l6 215l-116 -4v83l115 -5l4 153l-4 149l-115 -4v85l116 -4l-6 196h100l-5 -196l117 4v-85z" />
    <glyph glyph-name="bullet" unicode="&#x2022;" horiz-adv-x="373" 
d="M308 289q0 -50 -36 -85.5t-86 -35.5t-85.5 35.5t-35.5 85.5q0 51 35.5 87t85.5 36t86 -36t36 -87z" />
    <glyph glyph-name="ellipsis" unicode="&#x2026;" horiz-adv-x="636" 
d="M43 65q0 30 21 51.5t51 21.5t51 -21.5t21 -51.5q0 -29 -21 -50t-51 -21t-51 21t-21 50zM246 65q0 30 21 51.5t51 21.5t51 -21.5t21 -51.5q0 -29 -21 -50t-51 -21t-51 21t-21 50zM449 65q0 30 21 51.5t51 21.5t51 -21.5t21 -51.5q0 -29 -21 -50t-51 -21t-51 21t-21 50z
" />
    <glyph glyph-name="perthousand" unicode="&#x2030;" horiz-adv-x="1303" 
d="M255 0l304 667h102l-302 -667h-104zM206 290q-80 0 -129.5 51t-49.5 133q0 85 49.5 137t129.5 52q81 0 130.5 -52t49.5 -137q0 -83 -49.5 -133.5t-130.5 -50.5zM206 381q35 0 56.5 25.5t21.5 67.5q0 44 -21.5 70.5t-56.5 26.5q-34 0 -55.5 -27t-21.5 -70
q0 -42 21.5 -67.5t55.5 -25.5zM700 -4q-80 0 -129 50.5t-49 133.5q0 85 49 137t129 52q81 0 130.5 -52t49.5 -137q0 -83 -49.5 -133.5t-130.5 -50.5zM1096 -4q-80 0 -129.5 51t-49.5 133q0 85 49.5 137t129.5 52q81 0 130.5 -52t49.5 -137q0 -83 -49.5 -133.5t-130.5 -50.5z
M700 87q35 0 56.5 25.5t21.5 67.5q0 44 -21.5 70.5t-56.5 26.5q-34 0 -55.5 -27t-21.5 -70q0 -42 21.5 -67.5t55.5 -25.5zM1096 87q35 0 56.5 25.5t21.5 67.5q0 44 -21.5 70.5t-56.5 26.5q-34 0 -55.5 -27t-21.5 -70q0 -42 21.5 -67.5t55.5 -25.5z" />
    <glyph glyph-name="guilsinglleft" unicode="&#x2039;" horiz-adv-x="293" 
d="M38 217v95l156 138l59 -65l-135 -121l135 -120l-59 -66z" />
    <glyph glyph-name="guilsinglright" unicode="&#x203a;" horiz-adv-x="293" 
d="M99 78l-59 66l135 120l-135 121l59 65l156 -138v-95z" />
    <glyph glyph-name="fraction" unicode="&#x2044;" horiz-adv-x="349" 
d="M7 0l220 726h116l-219 -726h-117z" />
    <glyph glyph-name="Euro" unicode="&#x20ac;" horiz-adv-x="722" 
d="M437 103q59 0 103.5 26t70.5 62l75 -78q-29 -42 -92.5 -81t-159.5 -39q-111 0 -190.5 61t-107.5 169h-105l17 75h76q-1 10 -1 32q0 21 1 31h-93l17 75h87q28 109 108 170t192 61q51 0 96 -13t75.5 -33.5t49.5 -39t30 -35.5l-75 -77q-64 88 -171 88q-55 0 -102 -30.5
t-70 -90.5h251l-16 -75h-251q-1 -10 -1 -31q0 -22 1 -32h239l-17 -75h-205q23 -60 69 -90t99 -30z" />
    <glyph glyph-name="trademark" unicode="&#x2122;" horiz-adv-x="714" 
d="M31 594v66h259v-66h-91v-211h-77v211h-91zM569 660h81v-277h-71l1 152l-68 -152h-52l-66 152l1 -152h-71v277h83l80 -181z" />
    <glyph glyph-name="minus" unicode="&#x2212;" horiz-adv-x="496" 
d="M59 201v82h378v-82h-378z" />
    <glyph glyph-name="uni2215" unicode="&#x2215;" horiz-adv-x="422" 
d="M0 0l309 726h115l-308 -726h-116z" />
    <glyph glyph-name="uni2219" unicode="&#x2219;" horiz-adv-x="335" 
d="M168 216q-25 0 -43 17.5t-18 42.5q0 26 17.5 43.5t43.5 17.5q25 0 42.5 -17.5t17.5 -43.5q0 -25 -17.5 -42.5t-42.5 -17.5z" />
    <glyph glyph-name="approxequal" unicode="&#x2248;" horiz-adv-x="555" 
d="M61 274v82q45 33 110 33q43 0 107 -20t107 -20q67 0 110 30v-82q-49 -33 -110 -33q-43 0 -107 20t-107 20q-67 0 -110 -30zM61 102v82q45 33 110 33q43 0 107 -20t107 -20q67 0 110 30v-82q-49 -33 -110 -33q-43 0 -107 20t-107 20q-67 0 -110 -30z" />
    <glyph glyph-name="notequal" unicode="&#x2260;" horiz-adv-x="509" 
d="M450 301h-138l-36 -120h174v-81h-198l-30 -100h-77l30 100h-116v81h140l37 120h-177v82h201l27 89h76l-27 -89h114v-82z" />
    <glyph glyph-name="uniF8FF" unicode="&#xf8ff;" horiz-adv-x="1451" 
d="M691 583q0 26 17.5 44t43.5 18t44 -18t18 -44t-18 -43.5t-44 -17.5t-43.5 18t-17.5 43zM219 270h-119q0 134 9 314h100q10 -200 10 -314zM694 270q0 92 3 147h-61l3 -65q4 -4 15 -4q13 0 18 5v-74q-14 -15 -68 -15q-82 0 -82 66q0 12 2 49t2 38h-22v79l119 30l1 -17h178
q10 -64 10 -239h-118zM328 265q-92 0 -92 114q0 135 134 135q124 0 124 -117v-127h-83l-8 61q-6 -33 -23.5 -49.5t-51.5 -16.5zM1090 270h-114q0 26 1 56t1 37q0 29 -15 29q-18 0 -18 -29q0 -7 1.5 -37t1.5 -56h-114q0 175 10 239h80q6 -44 6 -76q2 15 6.5 30t24 33t49.5 18
q42 0 58.5 -25t18.5 -81zM1351 391q0 -126 -123 -126q-122 0 -122 124q0 125 124 125q121 0 121 -123zM390 375q0 26 -24 26q-22 0 -22 -26q0 -30 22 -30q24 0 24 30zM1251 375q0 26 -23 26q-21 0 -21 -26q0 -30 21 -30q23 0 23 30zM428 238h104q10 -52 10 -138
q0 -81 -33.5 -115.5t-118.5 -34.5q-61 0 -88 17v83q24 -16 70 -16q21 0 34 6t16.5 11.5t3.5 10.5q-16 -11 -49 -11q-90 0 -90 83v13h-55l3 -65q6 -4 15 -4q13 0 18 5v-73q-19 -15 -68 -15q-45 0 -63 17t-18 54q0 39 3 81h-18v80l117 29l-1 -18h177v-119q0 -16 3 -21.5
t12 -5.5q16 0 16 27v119zM733 243q37 0 58.5 -29t21.5 -84q0 -135 -137 -135q1 -15 1 -39h-119q0 142 10 282h78q7 -42 7 -76q17 81 80 81zM1070 127q0 -21 -3 -35h-124q11 -18 50 -18q34 0 55 12v-75q-23 -16 -78 -16q-141 0 -141 122q0 59 32.5 92.5t92.5 33.5
q55 0 85.5 -30t30.5 -86zM978 109q3 27 -17 27q-23 0 -23 -27h40zM670 72q5 0 12.5 2.5t16 11.5t8.5 23q0 23 -20 23q-22 0 -22 -31q0 -14 5 -29zM1074 13q0 -23 24 -23t24 23t-24 23t-24 -23zM1080 13q0 18 18 18t18 -18t-18 -18t-18 18zM1108 2l-6 9q7 0 7 7t-10 7h-11
v-23h5v9h5l4 -9h6zM1100 15h-7v6h7q4 0 4 -3t-4 -3z" />
    <glyph glyph-name="i.loclTRK" horiz-adv-x="244" 
d="M198 624q0 -33 -23.5 -55t-57.5 -22q-33 0 -56 22t-23 55t23 55t56 22q34 0 57.5 -22t23.5 -55zM61 0v472l122 4v-476h-122z" />
    <glyph glyph-name="uni0306.case.001" 
d="M-31 671q0 -58 -38.5 -96.5t-102.5 -38.5q-65 0 -103.5 38.5t-38.5 96.5h89q0 -56 52 -57q53 0 53 57h89z" />
    <glyph glyph-name="caroncomb.alt" 
d="M-161 383q0 26 18.5 45t45.5 19q29 0 49.5 -19.5t20.5 -55.5t-9.5 -67.5t-22.5 -52t-26 -35.5t-23 -21l-9 -7l-35 49q6 4 15.5 12t25 29t15.5 39q-27 0 -46 19t-19 46z" />
    <glyph glyph-name="acutecomb.case" 
d="M-142 543l-112 -5l58 130h153z" />
    <glyph glyph-name="uni0306.case" 
d="M-31 671q0 -58 -38.5 -96.5t-102.5 -38.5q-65 0 -103.5 38.5t-38.5 96.5h89q0 -56 52 -57q53 0 53 57h89z" />
    <glyph glyph-name="uni030C.case" 
d="M-348 682l96 -4l64 -59l64 59l96 4l-95 -139h-130z" />
    <glyph glyph-name="uni0302.case" 
d="M-123 677l95 -139l-96 3l-64 59l-64 -59l-96 -3l95 139h130z" />
    <glyph glyph-name="uni0308.case" 
d="M-289 547q-26 0 -44.5 18.5t-18.5 44.5t18.5 44.5t44.5 18.5q25 0 43.5 -18.5t18.5 -44.5t-18 -44.5t-44 -18.5zM-88 547q-26 0 -44.5 18.5t-18.5 44.5t18.5 44.5t44.5 18.5t44.5 -18.5t18.5 -44.5t-18.5 -44.5t-44.5 -18.5z" />
    <glyph glyph-name="uni0307.case" 
d="M-112 538q-32 0 -54 21t-22 52q0 32 22 53t54 21q33 0 55 -21t22 -53q0 -31 -22.5 -52t-54.5 -21z" />
    <glyph glyph-name="gravecomb.case" 
d="M-150 538l-99 130h154l58 -125z" />
    <glyph glyph-name="uni030B.case" 
d="M-299 543l-101 -5l58 130h143zM-107 543l-101 -5l58 130h143z" />
    <glyph glyph-name="uni0304.case" 
d="M-358 554v85h311v-85h-311z" />
    <glyph glyph-name="uni030A.case" 
d="M-138 524q-38 0 -65 26t-27 63t27 63t65 26t65 -26t27 -63t-27 -63t-65 -26zM-107 613q0 13 -9 21.5t-22 8.5t-21.5 -8.5t-8.5 -21.5t8.5 -22t21.5 -9t22 9t9 22z" />
    <glyph glyph-name="uni0338.case" 
d="M48 716l-480 -732h-109l481 732h108z" />
    <glyph glyph-name="uni0337.case" 
d="M-429 340l364 209l42 -72l-365 -209z" />
    <glyph glyph-name="tildecomb.case" 
d="M-43 672q4 -19 4 -47q0 -41 -26 -69.5t-73 -28.5q-35 0 -82 26.5t-60 26.5q-14 0 -23 -8.5t-9 -23.5l5 -25h-84q-6 18 -6 43q0 43 28 69t75 26q41 0 88 -26t57 -26q26 0 26 31l-4 32h84z" />
    <glyph glyph-name="caron.alt" horiz-adv-x="189" 
d="M161 374q0 -33 -10 -60.5t-24 -43t-28 -26t-24 -14.5l-10 -3l-29 46q55 19 56 45q-26 0 -45 19t-19 46q0 26 18.5 45t45.5 19q29 0 49 -19t20 -54z" />
    <glyph glyph-name="acute.case" horiz-adv-x="290" 
d="M148 543l-112 -5l58 130h153z" />
    <glyph glyph-name="breve.case" horiz-adv-x="345" 
d="M314 671q0 -58 -38.5 -96.5t-102.5 -38.5q-65 0 -103.5 38.5t-38.5 96.5h89q0 -56 52 -57q53 0 53 57h89z" />
    <glyph glyph-name="caron.case" horiz-adv-x="364" 
d="M25 682l96 -4l64 -59l64 59l96 4l-95 -139h-130z" />
    <glyph glyph-name="circumflex.case" horiz-adv-x="373" 
d="M250 677l95 -139l-96 3l-64 59l-64 -59l-96 -3l95 139h130z" />
    <glyph glyph-name="dieresis.case" horiz-adv-x="380" 
d="M91 547q-26 0 -44.5 18.5t-18.5 44.5t18.5 44.5t44.5 18.5q25 0 43.5 -18.5t18.5 -44.5t-18 -44.5t-44 -18.5zM292 547q-26 0 -44.5 18.5t-18.5 44.5t18.5 44.5t44.5 18.5t44.5 -18.5t18.5 -44.5t-18.5 -44.5t-44.5 -18.5z" />
    <glyph glyph-name="dotaccent.case" horiz-adv-x="223" 
d="M111 538q-32 0 -54 21t-22 52q0 32 22 53t54 21q33 0 55 -21t22 -53q0 -31 -22.5 -52t-54.5 -21z" />
    <glyph glyph-name="grave.case" horiz-adv-x="290" 
d="M140 538l-99 130h154l58 -125z" />
    <glyph glyph-name="hungarumlaut.case" horiz-adv-x="442" 
d="M143 543l-101 -5l58 130h143zM335 543l-101 -5l58 130h143z" />
    <glyph glyph-name="macron.case" horiz-adv-x="405" 
d="M47 554v85h311v-85h-311z" />
    <glyph glyph-name="ring.case" horiz-adv-x="276" 
d="M138 524q-38 0 -65 26t-27 63t27 63t65 26t65 -26t27 -63t-27 -63t-65 -26zM169 613q0 13 -9 21.5t-22 8.5t-21.5 -8.5t-8.5 -21.5t8.5 -22t21.5 -9t22 9t9 22z" />
    <glyph glyph-name="tilde.case" horiz-adv-x="428" 
d="M385 672q4 -19 4 -47q0 -41 -26 -69.5t-73 -28.5q-35 0 -82 26.5t-60 26.5q-14 0 -23 -8.5t-9 -23.5l5 -25h-84q-6 18 -6 43q0 43 28 69t75 26q41 0 88 -26t57 -26q26 0 26 31l-4 32h84z" />
    <glyph glyph-name="Rem" horiz-adv-x="510" 
 />
    <glyph glyph-name="IJacute" horiz-adv-x="751" 
d="M188 698l-112 -5l58 130h153zM657 698l-112 -5l58 130h153zM74 0v660h125v-660h-125zM347 153q45 -49 100 -49q51 0 76 24t25 78v454h126v-451q0 -105 -60 -160t-165 -55q-99 0 -177 70z" />
    <glyph glyph-name="ijacute" horiz-adv-x="493" 
d="M176 538l-108 -6l58 165h149zM437 539l-109 -6l58 164h149zM61 0v472l122 4v-476h-122zM188 -94q17 -12 47 -12q75 0 75 90v488l123 4v-484q0 -95 -45 -148t-137 -53q-31 0 -55.5 7.5t-33.5 15.5l-10 7z" />
    <glyph glyph-name="commaccent" horiz-adv-x="600" 
 />
    </font>
</defs>
</svg>
