<?xml version="1.0" standalone="no"?>
<!DOCTYPE svg PUBLIC "-//W3C//DTD SVG 1.1//EN" "http://www.w3.org/Graphics/SVG/1.1/DTD/svg11.dtd" >
<svg xmlns="http://www.w3.org/2000/svg" xmlns:xlink="http://www.w3.org/1999/xlink" version="1.1">
<metadata>
Created by FontForge 20201107 at Mon Jul 18 17:13:49 2016
 By 
Copyright (c) 2016 by Daniel Hernandez. All rights reserved.
</metadata>
<defs>
<font id="BasicSansAlt-BoldIt" horiz-adv-x="0" >
  <font-face 
    font-family="BasicSansAlt-BoldIt"
    font-weight="400"
    font-style="italic"
    font-stretch="normal"
    units-per-em="1000"
    panose-1="0 0 8 0 0 0 0 0 0 0"
    ascent="773"
    descent="-227"
    x-height="472"
    cap-height="660"
    bbox="-523 -293 1385 938"
    underline-thickness="50"
    underline-position="-100"
    slope="-7"
    unicode-range="U+0020-FB02"
  />
<missing-glyph horiz-adv-x="398" 
 />
    <glyph glyph-name="fi" unicode="fi" horiz-adv-x="643" 
d="M287 472h188l138 4l-58 -476h-138l46 368h-189l-45 -368h-136l45 368h-68l13 104h68l4 35q8 63 39 110t78 71t104 24q14 0 27.5 -1.5t24 -4t19 -5.5t15 -6t9.5 -4.5l5 -2.5l-53 -110l-4.5 4t-8.5 6.5t-13 5.5t-19 3q-35 0 -58.5 -24t-28.5 -64zM573 708q34 0 56 -21.5
t22 -54.5q0 -40 -29.5 -67t-69.5 -27q-34 0 -56 21.5t-22 54.5q0 40 29 67t70 27z" />
    <glyph glyph-name="fl" unicode="fl" horiz-adv-x="620" 
d="M378 597q-23 0 -41.5 -11t-30 -31t-15.5 -46l-4 -37h140l-12 -104h-141l-45 -368h-136l45 368h-68l13 104h68l4 35q8 63 39 110t78 71t104 24q28 0 54 -6t37 -11t14 -7l-52 -110l-4 2.5l-8 5t-9.5 5t-13.5 4.5t-16 2zM518 706h137l-87 -706h-137z" />
    <glyph glyph-name=".notdef" horiz-adv-x="398" 
 />
    <glyph glyph-name=".null" 
 />
    <glyph glyph-name="nonmarkingreturn" horiz-adv-x="333" 
 />
    <glyph glyph-name="space" unicode=" " horiz-adv-x="193" 
 />
    <glyph glyph-name="exclam" unicode="!" horiz-adv-x="251" 
d="M282 670l-75 -459l-112 -4l41 463h146zM81 90q10 22 33.5 30.5t45.5 -1.5q21 -11 27.5 -33t-4.5 -41q-9 -23 -32.5 -31.5t-46.5 2.5q-20 11 -26.5 32.5t3.5 41.5z" />
    <glyph glyph-name="quotedbl" unicode="&#x22;" horiz-adv-x="313" 
d="M110 494l22 212h89l-31 -212h-80zM245 494l22 212h89l-31 -212h-80z" />
    <glyph glyph-name="numbersign" unicode="#" horiz-adv-x="617" 
d="M609 292h-108l-32 -97h110l-26 -76h-109l-39 -119h-98l39 119h-93l-38 -119h-99l39 119h-114l27 76h112l32 97h-114l27 76h112l41 124h97l-40 -124h92l41 124h98l-40 -124h110zM370 195l32 97h-92l-32 -97h92z" />
    <glyph glyph-name="dollar" unicode="$" horiz-adv-x="578" 
d="M255 471q0 -22 16 -37.5t42 -26t57 -20t62.5 -24t57.5 -33.5t42 -51.5t16 -75.5q0 -54 -23.5 -97.5t-73 -72.5t-120.5 -37l-12 -100h-94l13 99q-72 7 -123.5 33.5t-81.5 56.5l97 102q26 -29 70.5 -54t98.5 -25q52 0 79 19.5t27 54.5q0 21 -13 37t-33.5 25.5t-47 19.5
t-54 18.5t-54 22.5t-47 31.5t-33 45.5t-12.5 64q0 83 58 144t151 74l12 101h94l-13 -101q46 -6 79.5 -24.5t51 -44t26 -50t10.5 -51.5l-130 -31q2 31 -22.5 59t-73.5 28q-45 0 -72 -22t-27 -57z" />
    <glyph glyph-name="percent" unicode="%" horiz-adv-x="885" 
d="M240 0l375 667h109l-374 -667h-110zM236 290q-71 0 -112.5 44t-41.5 116q0 94 56.5 154t143.5 60q71 0 113 -45t42 -118q0 -94 -56.5 -152.5t-144.5 -58.5zM248 388q35 0 58 28.5t23 73.5q0 35 -16 55t-43 20q-34 0 -56.5 -29.5t-22.5 -74.5q0 -33 15.5 -53t41.5 -20z
M684 -4q-72 0 -113.5 43.5t-41.5 116.5q0 94 56.5 154t143.5 60q47 0 82.5 -20.5t54 -57.5t18.5 -85q0 -94 -56.5 -152.5t-143.5 -58.5zM695 94q35 0 57.5 28.5t22.5 73.5q0 34 -15.5 54.5t-42.5 20.5q-34 0 -56.5 -29t-22.5 -75q0 -22 7 -38.5t20 -25.5t30 -9z" />
    <glyph glyph-name="ampersand" unicode="&#x26;" horiz-adv-x="587" 
d="M602 293q-14 -116 -87 -195l44 -64l-91 -64l-43 61q-72 -35 -158 -35q-49 0 -89.5 12t-68 33.5t-43 52.5t-15.5 68q0 135 148 191q-37 61 -37 120q0 82 57.5 135.5t142.5 53.5q73 0 116 -39t43 -102q0 -129 -163 -199l95 -135q35 52 45 132zM351 562q-31 0 -51.5 -23.5
t-20.5 -61.5q0 -41 30 -85q55 21 75 47t20 64q0 18 -6.5 31t-18.5 20.5t-28 7.5zM286 105q42 0 78 13l-114 162q-63 -32 -63 -94q0 -36 26.5 -58.5t72.5 -22.5z" />
    <glyph glyph-name="quotesingle" unicode="'" horiz-adv-x="178" 
d="M110 494l22 212h89l-31 -212h-80z" />
    <glyph glyph-name="parenleft" unicode="(" horiz-adv-x="300" 
d="M148 -244q-4 6 -10 16.5t-22 47.5t-28 78.5t-22 107.5t-10 136q0 77 12 151t30.5 130.5t41 106.5t45 85t41 61t29.5 38l12 12l106 -49q-4 -4 -11 -11.5t-26 -33.5t-36.5 -55t-39 -76t-37 -97.5t-26 -117.5t-10.5 -137q0 -63 8 -121t19.5 -97t23 -68.5t19.5 -43.5l8 -14z
" />
    <glyph glyph-name="parenright" unicode=")" horiz-adv-x="300" 
d="M303 341q0 -77 -11.5 -151t-30 -130.5t-41 -107t-45 -85.5t-41 -61t-29.5 -38l-12 -12l-106 49q8 8 20.5 22.5t44.5 65t56.5 107t44.5 147t20 186.5q0 46 -4.5 89.5t-11.5 76.5t-15 62.5t-16.5 50t-15.5 35.5t-11 23l-4 7l117 49q4 -6 10 -16.5t21.5 -47.5t27.5 -78.5
t22 -107.5t10 -135z" />
    <glyph glyph-name="asterisk" unicode="*" horiz-adv-x="414" 
d="M281 332l-26 127l-85 -107l-51 41l103 102l-129 11l17 70l123 -33l-39 123l66 28l24 -131l89 114l50 -42l-102 -103l128 -11l-17 -70l-126 30l41 -122z" />
    <glyph glyph-name="plus" unicode="+" horiz-adv-x="442" 
d="M447 285l-12 -89h-142l-21 -164h-94l20 164h-144l11 89h144l18 149h95l-18 -149h143z" />
    <glyph glyph-name="comma" unicode="," horiz-adv-x="242" 
d="M44 61q0 36 25 60t64 24q33 0 55.5 -22.5t22.5 -63.5q0 -45 -15 -85.5t-36.5 -65.5t-43 -43.5t-36.5 -25.5l-15 -8l-40 59q4 2 9.5 5.5t20 14t26.5 22t22.5 28.5t12.5 34q-32 0 -52 19t-20 48z" />
    <glyph glyph-name="hyphen" unicode="-" horiz-adv-x="371" 
d="M83 276l12 94h273l-12 -94h-273z" />
    <glyph glyph-name="period" unicode="." horiz-adv-x="226" 
d="M44 64q0 35 26.5 60.5t61.5 25.5q29 0 48.5 -20.5t19.5 -49.5q0 -35 -26.5 -60.5t-61.5 -25.5q-30 0 -49 20t-19 50z" />
    <glyph glyph-name="slash" unicode="/" horiz-adv-x="433" 
d="M-5 -204l377 910h128l-376 -910h-129z" />
    <glyph glyph-name="zero" unicode="0" horiz-adv-x="625" 
d="M311 -7q-115 0 -176.5 72t-61.5 202q0 117 38 207t111 141.5t172 51.5q116 0 177 -74.5t61 -206.5q0 -178 -85 -285.5t-236 -107.5zM326 116q49 0 86.5 31t58 90t20.5 137q0 81 -29.5 125.5t-82.5 44.5q-74 0 -119 -73t-45 -191q0 -80 29 -122t82 -42z" />
    <glyph glyph-name="one" unicode="1" horiz-adv-x="382" 
d="M178 0l63 516l-166 -44l16 128l284 60h23l-81 -660h-139z" />
    <glyph glyph-name="two" unicode="2" horiz-adv-x="551" 
d="M270 112q15 2 49 2h209l-14 -114h-472l12 95q28 21 73 51.5t74 50.5t65.5 47.5t60 50.5t45 50t32 55t10.5 57q0 26 -9.5 45.5t-28 30.5t-44.5 11q-43 0 -71 -25t-28 -64q0 -11 2 -15l-140 -25q-3 11 -3 33q0 96 72.5 157.5t186.5 61.5q63 0 110.5 -24t72.5 -68t25 -103
q0 -52 -20.5 -101t-59 -90.5t-76 -72.5t-88.5 -65q-31 -22 -47 -27z" />
    <glyph glyph-name="three" unicode="3" horiz-adv-x="558" 
d="M353 667q97 0 152 -48t55 -126q0 -70 -42.5 -115.5t-101.5 -45.5v-2q51 0 90 -38t39 -98q0 -88 -74 -144.5t-197 -56.5q-56 0 -101 13.5t-69.5 33t-40.5 39.5t-22 33l-5 14l114 69q2 -3 5 -8.5t15 -19.5t26 -24.5t37.5 -19t50.5 -8.5q52 0 84 22.5t35 61.5q3 34 -21 53.5
t-77 21.5l-69 1l12 102l48 1q55 2 86.5 25t31.5 64q0 23 -9.5 40.5t-28 27t-42.5 9.5q-41 0 -66 -21t-25 -53q0 -11 1 -14l-140 -22q-2 4 -2 30q0 90 70.5 146.5t180.5 56.5z" />
    <glyph glyph-name="four" unicode="4" horiz-adv-x="590" 
d="M555 660l-50 -407h90l-14 -112h-89l-17 -141h-138l17 141h-318l13 112l330 407h176zM374 253l27 217q6 53 9 61l-3 2q-13 -21 -39 -55l-139 -170q-43 -52 -44 -53l2 -3q10 1 53 1h134z" />
    <glyph glyph-name="five" unicode="5" horiz-adv-x="555" 
d="M172 660h389l-14 -116h-277l-29 -140l3 -2q19 16 51 26t66 10q89 0 141.5 -52t52.5 -138q0 -113 -80.5 -184t-205.5 -71q-50 0 -92.5 13t-67 31.5t-42.5 37t-25 31.5l-6 13l115 78q0 -2 2 -5t8.5 -11.5t13.5 -16t18.5 -16.5t24.5 -16t30 -11.5t36 -4.5q54 0 90.5 33
t36.5 86q0 41 -24.5 66.5t-65.5 25.5q-26 0 -48.5 -9.5t-31.5 -18.5t-12 -14h-129z" />
    <glyph glyph-name="six" unicode="6" horiz-adv-x="570" 
d="M383 419q82 0 131.5 -50t49.5 -133q0 -107 -74 -175t-188 -68q-106 0 -168 73.5t-62 202.5q0 175 93 286.5t234 111.5q134 0 194 -93l-101 -83q-11 19 -37.5 36t-64.5 17q-72 0 -120.5 -58.5t-59.5 -160.5l6 -1q7 16 20 31t33.5 30t50 24.5t63.5 9.5zM316 114
q51 0 83.5 32t32.5 81q0 39 -24.5 62t-67.5 23q-50 0 -84.5 -28.5t-42.5 -75.5q17 -94 103 -94z" />
    <glyph glyph-name="seven" unicode="7" horiz-adv-x="507" 
d="M107 660h463l-13 -111l-301 -549h-157l287 497q28 47 30 49l-1 3q-12 -2 -43 -2h-153l-11 -88h-126l24 201h1z" />
    <glyph glyph-name="eight" unicode="8" horiz-adv-x="580" 
d="M485 346q39 -18 62 -54t23 -84q0 -96 -78 -155.5t-203 -59.5q-107 0 -170 48t-63 128q0 42 16.5 78t44 60t63.5 39v3q-27 14 -43 44t-16 70q0 90 70 147t181 57q94 0 150 -45.5t56 -120.5q0 -53 -26 -93t-66 -59zM339 399q45 0 74 26.5t29 65.5q0 22 -10 38.5t-29 25
t-44 8.5q-46 0 -74 -24.5t-28 -66.5q0 -31 22 -52t60 -21zM303 104q58 0 95 29.5t37 76.5q0 37 -29.5 59.5t-79.5 22.5q-59 0 -95.5 -28t-36.5 -73q0 -26 13 -45.5t38 -30.5t58 -11z" />
    <glyph glyph-name="nine" unicode="9" horiz-adv-x="566" 
d="M351 667q106 0 164.5 -71.5t58.5 -202.5q0 -180 -89.5 -290t-231.5 -110q-73 0 -123 23.5t-76 64.5l104 83q14 -19 40 -34.5t63 -15.5q66 0 115 55t63 150l-5 1q-16 -33 -56.5 -60t-106.5 -27q-83 0 -133.5 49.5t-50.5 132.5q0 108 76 180t188 72zM312 347
q50 0 84.5 28.5t42.5 75.5q-18 94 -103 94q-50 0 -83.5 -32t-33.5 -81q0 -38 25.5 -61.5t67.5 -23.5z" />
    <glyph glyph-name="colon" unicode=":" horiz-adv-x="246" 
d="M94 392q0 36 26.5 61.5t61.5 25.5q29 0 49 -20.5t20 -49.5q0 -35 -27 -60.5t-62 -25.5q-19 0 -35 9t-24.5 25t-8.5 35zM54 62q0 36 26.5 61.5t61.5 25.5q29 0 49 -20.5t20 -49.5q0 -35 -27 -60.5t-62 -25.5q-29 0 -48.5 20t-19.5 49z" />
    <glyph glyph-name="semicolon" unicode=";" horiz-adv-x="260" 
d="M100 392q0 36 26 61.5t61 25.5q30 0 49.5 -20.5t19.5 -49.5q0 -35 -26.5 -60.5t-61.5 -25.5q-20 0 -35.5 9t-24 25t-8.5 35zM56 59q0 37 25 61t63 24q34 0 56.5 -22.5t22.5 -63.5q0 -46 -15 -86t-36.5 -65t-43 -43.5t-36.5 -26.5l-15 -7l-40 59q4 2 9.5 5.5t20 14
t26.5 22t22 28.5t12 34q-31 0 -51 18.5t-20 47.5z" />
    <glyph glyph-name="less" unicode="&#x3c;" horiz-adv-x="412" 
d="M54 221l12 103l360 197l-13 -114l-238 -135l204 -134l-14 -113z" />
    <glyph glyph-name="equal" unicode="=" horiz-adv-x="488" 
d="M88 295l11 89h385l-11 -89h-385zM63 93l11 88h384l-10 -88h-385z" />
    <glyph glyph-name="greater" unicode="&#x3e;" horiz-adv-x="412" 
d="M53 25l14 113l237 134l-204 135l14 114l311 -197l-13 -103z" />
    <glyph glyph-name="question" unicode="?" horiz-adv-x="461" 
d="M310 693q95 0 142.5 -48t47.5 -118q0 -40 -14.5 -73t-36 -53t-47.5 -41t-49.5 -37.5t-41.5 -41t-23 -53.5q-1 -2 -1.5 -7.5t-0.5 -8.5l-117 -4q1 13 4 37q6 32 19 59t30 45.5t36 34.5t37 29.5t32.5 27t23.5 30.5t9 37q0 18 -7 32.5t-22 23t-36 8.5q-23 0 -41 -9
t-28.5 -26.5t-10.5 -40.5q0 -10 1 -17l-126 -20q-2 16 -2 31q0 89 62.5 146t159.5 57zM223 144q19 0 34.5 -9t24 -25t8.5 -35q0 -34 -26 -59t-61 -25q-28 0 -47.5 19.5t-19.5 48.5q0 23 12.5 42.5t32 31t42.5 11.5z" />
    <glyph glyph-name="at" unicode="@" horiz-adv-x="812" 
d="M646 442l-34 -283q-4 -23 6 -36.5t29 -13.5q47 0 82 62.5t35 154.5q0 120 -74.5 192.5t-201.5 72.5q-51 0 -100 -13.5t-90.5 -38t-76.5 -60t-59.5 -78.5t-38 -95t-13.5 -107q0 -132 80.5 -214.5t211.5 -82.5q50 0 94.5 10.5t79.5 28.5t53.5 30t40.5 29l25 -33
q-131 -109 -298 -109q-150 0 -243.5 93t-93.5 243q0 126 59 228t158 158t216 56q147 0 234 -84.5t87 -221.5q0 -131 -64 -211.5t-155 -80.5q-46 0 -73 24.5t-29 65.5q-41 -87 -134 -87q-66 0 -103.5 47.5t-37.5 122.5q0 109 58.5 173t138.5 64q73 0 100 -50l6 44h125z
M409 148q20 0 37.5 10t30 26.5t16.5 35.5l6 43q1 19 -6.5 37t-23.5 29.5t-37 11.5q-36 0 -59.5 -32.5t-23.5 -81.5q0 -36 16 -57.5t44 -21.5z" />
    <glyph glyph-name="A" unicode="A" horiz-adv-x="603" 
d="M457 0l-26 141h-224l-60 -141h-146l305 660h153l142 -660h-144zM253 248h159l-35 196q-7 38 -10 75h-3q-8 -29 -28 -76z" />
    <glyph glyph-name="B" unicode="B" horiz-adv-x="594" 
d="M475 343q16 -3 33.5 -12t35.5 -25.5t29.5 -44t11.5 -62.5q0 -94 -63.5 -146.5t-178.5 -52.5h-278l81 660h255q93 0 144.5 -41.5t51.5 -116.5q0 -41 -12.5 -72t-33.5 -48t-39.5 -25t-36.5 -11v-3zM343 386q35 0 59.5 11.5t37.5 32.5t13 49q0 24 -10.5 40t-32 25t-52.5 9
h-85l-21 -167h91zM330 107q51 0 81.5 25.5t30.5 74.5q0 38 -26 59t-71 21h-105l-22 -180h112z" />
    <glyph glyph-name="C" unicode="C" horiz-adv-x="625" 
d="M417 667q56 0 99 -15.5t69 -40.5t42 -57.5t20.5 -65.5t-0.5 -67l-133 -20q3 24 -1 48t-15.5 46t-36 35.5t-57.5 13.5q-77 0 -132.5 -69t-55.5 -181q0 -89 43.5 -133.5t110.5 -44.5q55 0 99.5 28.5t73.5 65.5l73 -88q-17 -20 -37.5 -38.5t-53.5 -41t-78.5 -36t-95.5 -13.5
q-129 0 -204 77.5t-75 212.5q0 68 17.5 128.5t49 106.5t74 80t95 51.5t109.5 17.5z" />
    <glyph glyph-name="D" unicode="D" horiz-adv-x="643" 
d="M372 660q135 0 207 -75.5t72 -205.5q0 -179 -87.5 -279t-244.5 -100h-254l81 660h226zM315 113q91 0 141.5 64t50.5 193q0 59 -19.5 99t-56.5 59t-92 19h-64l-54 -434h94z" />
    <glyph glyph-name="E" unicode="E" horiz-adv-x="531" 
d="M555 543h-281l-19 -152h243l-14 -111h-242l-21 -163h282l-14 -117h-424l81 660h424z" />
    <glyph glyph-name="F" unicode="F" horiz-adv-x="503" 
d="M546 543h-272l-20 -162h235l-14 -115h-235l-33 -266h-142l81 660h415z" />
    <glyph glyph-name="G" unicode="G" horiz-adv-x="648" 
d="M650 431l-134 -20q4 33 -4 62t-36 50t-72 21q-77 0 -132 -69t-55 -181q0 -84 38 -133.5t105 -49.5q65 0 104.5 32.5t48.5 88.5h-163l11 90h282l-40 -322h-96q-3 19 -1 70q-66 -77 -185 -77q-114 0 -181 77.5t-67 209.5q0 86 27 159t73 122.5t109.5 77.5t134.5 28
q56 0 99.5 -15t69.5 -39t42 -55.5t21 -63t1 -63.5z" />
    <glyph glyph-name="H" unicode="H" horiz-adv-x="682" 
d="M556 660h142l-81 -660h-142l34 277h-268l-34 -277h-142l81 660h142l-32 -266h267z" />
    <glyph glyph-name="I" unicode="I" horiz-adv-x="270" 
d="M65 0l81 660h140l-81 -660h-140z" />
    <glyph glyph-name="J" unicode="J" horiz-adv-x="455" 
d="M99 163q31 -46 81 -46q22 0 38.5 5.5t29 17t20.5 30t11 44.5l55 446h142l-55 -444q-13 -108 -80.5 -165t-174.5 -57q-56 0 -97 21.5t-65 48.5z" />
    <glyph glyph-name="K" unicode="K" horiz-adv-x="589" 
d="M668 660l-257 -338l177 -322h-148l-136 259h-65l-32 -259h-142l81 660h142l-35 -288h57l211 288h147z" />
    <glyph glyph-name="L" unicode="L" horiz-adv-x="501" 
d="M221 117h283l-14 -117h-425l81 660h142z" />
    <glyph glyph-name="M" unicode="M" horiz-adv-x="823" 
d="M839 660l-81 -660h-141l44 348q6 52 13 79l-3 1q-26 -59 -27 -62l-195 -370h-75l-106 374q-11 38 -11 58l-6 -1q3 -12 -5 -79l-41 -348h-140l81 660h151l108 -350q26 -82 31 -116h3q7 21 60 117l192 349h148z" />
    <glyph glyph-name="N" unicode="N" horiz-adv-x="675" 
d="M690 660l-81 -660h-134l-159 318q-11 22 -59 123l-7 -3q3 -21 -9 -119l-38 -319h-138l81 660h125l168 -334q37 -74 58 -125l6 3q-2 35 9 123l40 333h138z" />
    <glyph glyph-name="O" unicode="O" horiz-adv-x="690" 
d="M426 667q124 0 198.5 -79t74.5 -213q0 -172 -100.5 -277t-255.5 -105q-123 0 -197 79t-74 214q0 171 100 276t254 105zM359 116q54 0 98.5 30t71 87t26.5 132q0 83 -39.5 131t-104.5 48q-83 0 -139 -68t-56 -181q0 -83 39 -131t104 -48z" />
    <glyph glyph-name="P" unicode="P" horiz-adv-x="586" 
d="M378 660q115 0 178.5 -51.5t63.5 -150.5q0 -127 -79 -196.5t-203 -69.5h-107l-24 -192h-142l81 660h232zM325 304q72 0 111 36t39 103q0 49 -32 77t-93 28h-75l-30 -244h80z" />
    <glyph glyph-name="Q" unicode="Q" horiz-adv-x="717" 
d="M699 375q0 -133 -61.5 -227.5t-165.5 -132.5q88 -20 169 -24l-43 -109q-96 15 -156 39t-141 75q-106 14 -167.5 91t-61.5 199q0 171 100 276t254 105q124 0 198.5 -79t74.5 -213zM216 295q0 -83 39 -131t104 -48q54 0 98.5 30t71 87t26.5 132q0 83 -39.5 131t-104.5 48
q-83 0 -139 -68t-56 -181z" />
    <glyph glyph-name="R" unicode="R" horiz-adv-x="604" 
d="M445 251q20 -11 35 -36t23 -48.5t26 -41.5t44 -18l21 2l-5 -109q-26 -7 -73 -7q-35 0 -61.5 10t-41 26.5t-26.5 37.5t-18.5 42.5t-16 42.5t-19.5 37.5t-28 26.5t-43 10h-27l-28 -226h-142l81 660h218q232 0 232 -188q0 -165 -151 -221zM247 326h57q68 0 109.5 33t41.5 93
q0 23 -7.5 41t-22 30.5t-35.5 18.5t-48 6h-67z" />
    <glyph glyph-name="S" unicode="S" horiz-adv-x="553" 
d="M444 463q3 31 -22 59t-73 28q-46 0 -73 -22t-27 -57q0 -22 16.5 -37.5t42 -26t57 -20t63 -24t57.5 -33.5t42 -51.5t16 -76.5q0 -92 -70 -150.5t-198 -58.5q-89 0 -151 28.5t-96 63.5l96 102q27 -29 71 -54t98 -25q53 0 79.5 19.5t26.5 54.5q0 21 -12.5 37t-33 25.5
t-47 19.5t-54 18.5t-54 22.5t-47.5 31.5t-33.5 45.5t-12.5 64q0 94 72 157.5t183 63.5q35 0 64.5 -6t51 -16t38 -24t27.5 -29t18.5 -32.5t11 -33.5t4.5 -32z" />
    <glyph glyph-name="T" unicode="T" horiz-adv-x="547" 
d="M202 0l67 543h-191l14 117h525l-14 -117h-192l-67 -543h-142z" />
    <glyph glyph-name="U" unicode="U" horiz-adv-x="651" 
d="M531 660h142l-49 -400q-15 -121 -97 -194t-201 -73q-121 0 -185.5 73t-49.5 194l49 400h142l-48 -399q-4 -27 -1 -50t12 -40.5t23 -30t32.5 -18.5t40.5 -6q55 0 94 38.5t47 105.5z" />
    <glyph glyph-name="V" unicode="V" horiz-adv-x="596" 
d="M231 660l74 -443q9 -53 10 -76h3q9 30 28 75l184 444h144l-299 -660h-154l-137 660h147z" />
    <glyph glyph-name="W" unicode="W" horiz-adv-x="890" 
d="M823 660h143l-257 -660h-161l-40 340q-5 47 -5 111h-3q-21 -76 -33 -111l-126 -340h-162l-93 660h145l42 -443q1 -10 2 -23t2 -22t2 -19t1 -17h3l26 80l157 444h123l47 -444q6 -69 7 -80h3q3 9 7 22t10 30.5t9 28.5z" />
    <glyph glyph-name="X" unicode="X" horiz-adv-x="597" 
d="M670 660l-233 -336l159 -324h-160l-83 189q-20 42 -22 62h-3q-17 -35 -37 -62l-136 -189h-147l228 321l-152 339h167l76 -202q17 -46 20 -59h3q5 14 36 59l136 202h148z" />
    <glyph glyph-name="Y" unicode="Y" horiz-adv-x="574" 
d="M653 660l-264 -417l-30 -243h-142l29 240l-164 420h154l76 -222q17 -51 20 -82h3q13 38 39 82l130 222h149z" />
    <glyph glyph-name="Z" unicode="Z" horiz-adv-x="562" 
d="M30 0l15 113l320 365q36 38 65 65l-2 3q-25 -3 -88 -3h-233l14 117h490l-14 -113l-318 -365q-29 -32 -67 -65l2 -3q18 3 88 3h238l-14 -117h-496z" />
    <glyph glyph-name="bracketleft" unicode="[" horiz-adv-x="357" 
d="M36 -204l112 910h272l-14 -108h-142l-85 -694h142l-13 -108h-272z" />
    <glyph glyph-name="backslash" unicode="\" horiz-adv-x="433" 
d="M388 -204h-129l-152 910h128z" />
    <glyph glyph-name="bracketright" unicode="]" horiz-adv-x="357" 
d="M-1 -204l13 108h142l85 694h-142l14 108h272l-112 -910h-272z" />
    <glyph glyph-name="asciicircum" unicode="^" horiz-adv-x="381" 
d="M93 508l116 224h143l61 -224h-113l-31 128l-62 -128h-114z" />
    <glyph glyph-name="underscore" unicode="_" horiz-adv-x="386" 
d="M-18 -149l12 94h386l-12 -94h-386z" />
    <glyph glyph-name="grave" unicode="`" horiz-adv-x="290" 
d="M195 535l-79 169h166l37 -163z" />
    <glyph glyph-name="a" unicode="a" horiz-adv-x="523" 
d="M492 104q8 0 17 3l-8 -104q-30 -9 -67 -9q-93 0 -98 74q-48 -74 -153 -74q-67 0 -103 30.5t-36 83.5q0 38 15 67t41.5 47.5t65.5 30.5t83.5 16.5t99.5 4.5h6l3 21q4 37 -13.5 58.5t-56.5 21.5t-61 -16t-22 -44q0 -6 2 -13l-120 -20q-2 13 -2 30q0 75 60.5 120.5t161 45.5
t147.5 -49.5t35 -139.5l-19 -155q-3 -30 22 -30zM234 95q42 0 71.5 19t35.5 47l5 44h-5q-83 0 -122 -16.5t-39 -52.5q0 -20 14.5 -30.5t39.5 -10.5z" />
    <glyph glyph-name="b" unicode="b" horiz-adv-x="557" 
d="M387 478q76 0 123.5 -55t47.5 -150q0 -125 -68.5 -202t-170.5 -77q-53 0 -88.5 26t-50.5 69q-3 -35 -23 -89h-105l87 706h137l-38 -303q53 75 149 75zM305 109q50 0 82 41t32 108q0 49 -22.5 77t-62.5 28q-43 0 -74.5 -32t-39.5 -73l-5 -42q-4 -43 20.5 -75t69.5 -32z
" />
    <glyph glyph-name="c" unicode="c" horiz-adv-x="489" 
d="M324 478q80 0 125.5 -42t45.5 -107q0 -13 -2.5 -26t-4.5 -20l-2 -6l-121 -7q5 15 5 31q0 28 -16 46.5t-46 18.5q-33 0 -58.5 -19t-40 -53.5t-14.5 -77.5q0 -51 25 -80.5t74 -29.5q45 0 77.5 17.5t50.5 37.5l55 -86q-27 -33 -80.5 -57t-125.5 -24q-102 0 -159 57.5
t-57 151.5q0 120 76.5 197.5t192.5 77.5z" />
    <glyph glyph-name="d" unicode="d" horiz-adv-x="557" 
d="M456 706h137l-87 -706l-113 -4q-2 22 -2 52.5t1 40.5h-3q-53 -95 -161 -95q-53 0 -92 26.5t-59.5 72.5t-20.5 105q0 128 70.5 204t168.5 76q90 0 125 -63zM281 109q41 0 73 30.5t41 72.5l6 51q1 40 -23 70t-68 30q-49 0 -81.5 -41.5t-32.5 -107.5q0 -48 23 -76.5
t62 -28.5z" />
    <glyph glyph-name="e" unicode="e" horiz-adv-x="502" 
d="M320 478q88 0 136.5 -53t48.5 -140q0 -20 -3.5 -40t-6.5 -30l-3 -10h-301q4 -49 32 -78t79 -29q70 0 123 54l55 -75q-28 -35 -82 -59t-124 -24q-69 0 -118.5 27t-74.5 74t-25 110q0 118 74.5 195.5t189.5 77.5zM308 374q-39 0 -69 -26t-42 -72h184v12q0 25 -8 44
t-25 30.5t-40 11.5z" />
    <glyph glyph-name="f" unicode="f" horiz-adv-x="379" 
d="M378 597q-23 0 -41.5 -11t-30 -31t-15.5 -46l-4 -37h140l-12 -104h-141l-45 -368h-136l45 368h-68l13 104h68l4 35q8 63 39 110t78 71t104 24q28 0 54 -6t37 -11t14 -7l-52 -110l-4 2.5l-8 5t-9.5 5t-13.5 4.5t-16 2z" />
    <glyph glyph-name="g" unicode="g" horiz-adv-x="509" 
d="M580 536q-6 -52 -40 -86t-70 -41q26 -37 26 -86q0 -84 -64 -138t-163 -54q-44 0 -80 13q-37 -7 -37 -34q0 -10 7 -16t21 -8.5t39 -2.5h103q80 0 126.5 -31.5t46.5 -92.5q0 -21 -5 -40t-16.5 -38.5t-32 -35t-49 -28.5t-71.5 -20t-96 -7q-113 0 -170 30.5t-57 82.5
q0 77 90 105q-43 28 -43 78q0 38 22 63.5t57 35.5q-38 41 -38 101q0 84 63.5 138t161.5 54q67 0 114 -28q46 25 57 113zM369 309q2 31 -16 50t-51 20q-24 0 -43.5 -10t-31 -28t-12.5 -41q-2 -31 15.5 -50t50.5 -20q37 0 61 22t27 57zM297 -20h-80q-96 0 -96 -49
q0 -23 27 -34.5t89 -11.5q72 0 101.5 14t29.5 44q0 20 -16.5 28.5t-54.5 8.5z" />
    <glyph glyph-name="h" unicode="h" horiz-adv-x="543" 
d="M384 478q83 0 120 -52t27 -136l-36 -290h-137l32 266q3 21 0 38.5t-11 29.5t-22 19t-33 7q-42 0 -69 -31.5t-35 -75.5l-31 -253h-137l87 706h135l-38 -311h2q50 83 146 83z" />
    <glyph glyph-name="i" unicode="i" horiz-adv-x="242" 
d="M286 632q0 -40 -29.5 -67t-70.5 -27q-34 0 -56 21.5t-22 54.5q0 40 29.5 67t70.5 27q34 0 56 -21.5t22 -54.5zM52 0l58 472l138 4l-58 -476h-138z" />
    <glyph glyph-name="j" unicode="j" horiz-adv-x="249" 
d="M298 637q0 -20 -8 -37.5t-22 -29.5t-32 -19t-38 -7q-22 0 -39.5 9.5t-27.5 26.5t-10 39q0 40 29 67.5t69 27.5q35 0 57 -21.5t22 -55.5zM-59 -82q14 -12 40 -12q67 0 77 90l59 476l138 4l-59 -477q-12 -98 -64 -153t-147 -55q-31 0 -55 8t-32 15l-8 8z" />
    <glyph glyph-name="k" unicode="k" horiz-adv-x="523" 
d="M571 472l-197 -226l158 -246h-165l-116 197h-38l-24 -197h-137l87 706h137l-50 -405h49l141 171h155z" />
    <glyph glyph-name="l" unicode="l" horiz-adv-x="241" 
d="M52 0l87 706h137l-87 -706h-137z" />
    <glyph glyph-name="m" unicode="m" horiz-adv-x="836" 
d="M678 477q81 0 118.5 -52t26.5 -136l-35 -289h-137l32 265q4 29 -2 50t-22 32.5t-41 11.5q-41 0 -66 -31.5t-33 -75.5l-31 -252h-137l32 265q6 44 -10.5 69t-53.5 25q-43 0 -68.5 -33.5t-31.5 -78.5l-30 -247h-137l58 472l109 4q9 -48 4 -99h3q48 100 153 100q58 0 94 -28
t48 -78q49 106 157 106z" />
    <glyph glyph-name="n" unicode="n" horiz-adv-x="542" 
d="M385 478q81 0 118.5 -52t26.5 -136l-35 -290h-138l33 266q3 28 -3 49t-22 33t-41 12q-43 0 -70.5 -33t-34.5 -78l-30 -249h-137l58 472l109 4q9 -50 4 -99h4q52 101 158 101z" />
    <glyph glyph-name="o" unicode="o" horiz-adv-x="536" 
d="M327 478q97 0 154 -58.5t57 -153.5q0 -119 -76 -195.5t-195 -76.5q-65 0 -113 27t-73 74.5t-25 110.5q0 117 76.5 194.5t194.5 77.5zM281 106q53 0 86 42.5t33 108.5q0 50 -23 79.5t-64 29.5q-52 0 -85 -43t-33 -109q0 -49 22.5 -78.5t63.5 -29.5z" />
    <glyph glyph-name="p" unicode="p" horiz-adv-x="557" 
d="M387 478q80 0 126 -56.5t46 -148.5q0 -128 -69 -203.5t-170 -75.5q-89 0 -124 65l-32 -263h-137l83 676l109 4q4 -20 5.5 -52.5t-0.5 -40.5h3q51 95 160 95zM305 109q50 0 81.5 41t31.5 107q0 49 -22 77.5t-62 28.5q-42 0 -74.5 -32.5t-39.5 -75.5l-5 -43
q-1 -41 22.5 -72t67.5 -31z" />
    <glyph glyph-name="q" unicode="q" horiz-adv-x="557" 
d="M455 472h109l-83 -676h-137l32 264q-51 -66 -142 -66q-79 0 -128 55t-49 151q0 120 65.5 199t168.5 79q37 0 65 -12.5t44.5 -33.5t25.5 -49h2q1 11 9.5 40t17.5 49zM281 109q44 0 75 32.5t39 73.5l5 40q5 43 -19.5 75.5t-70.5 32.5q-49 0 -81 -41t-32 -107
q0 -48 22.5 -77t61.5 -29z" />
    <glyph glyph-name="r" unicode="r" horiz-adv-x="369" 
d="M360 478q35 0 66 -14l-52 -132q-21 17 -51 17q-38 0 -67 -29.5t-38 -82.5l-29 -237h-137l58 472l109 4q4 -21 4.5 -56t-1.5 -48h3q44 106 135 106z" />
    <glyph glyph-name="s" unicode="s" horiz-adv-x="463" 
d="M338 307q5 11 5 25q0 17 -7 29t-21.5 18.5t-34.5 6.5q-33 0 -52 -15t-19 -38q0 -20 18 -32.5t45 -17.5t58 -13.5t58 -19.5t44.5 -36.5t17.5 -62.5q0 -71 -58.5 -114t-158.5 -43q-49 0 -89 9t-64 23t-35 22.5t-17 15.5l73 83q11 -13 52.5 -35t85.5 -22q17 0 30.5 2.5
t22.5 8t13 13t4 17.5q0 15 -17 26.5t-42 17.5t-55 16t-55.5 22.5t-42.5 38t-17 61.5q0 75 60 120t157 45q77 0 124 -34t47 -87q0 -10 -2 -21t-4 -16l-3 -6z" />
    <glyph glyph-name="t" unicode="t" horiz-adv-x="409" 
d="M268 368l-20 -167q-6 -47 9 -69t52 -22q20 0 39 6.5t28 12.5l8 6l26 -107q-2 -1 -6.5 -3.5t-18.5 -8.5t-29 -10.5t-39.5 -8t-48.5 -3.5q-90 0 -130 50.5t-28 150.5l21 173h-69l13 104h74l16 133l133 5l-17 -138h157l-12 -104h-158z" />
    <glyph glyph-name="u" unicode="u" horiz-adv-x="536" 
d="M405 472h137l-58 -472l-112 -4q-7 55 -3 94h-2q-50 -96 -152 -96q-81 0 -118.5 52t-26.5 136l35 290h138l-33 -266q-5 -43 11.5 -68.5t54.5 -25.5t64 32.5t34 77.5z" />
    <glyph glyph-name="v" unicode="v" horiz-adv-x="513" 
d="M425 472h137l-229 -472h-153l-114 472h147l56 -280q6 -32 6 -62h3q10 35 22 62z" />
    <glyph glyph-name="w" unicode="w" horiz-adv-x="744" 
d="M651 472h139l-188 -472h-157l-32 240q-3 27 -2 53h-3q-8 -33 -15 -53l-93 -240h-156l-75 472h141l28 -280q5 -50 4 -62h3q8 26 21 62l106 279l-1 1h121l36 -278q4 -30 5 -64h3q9 32 19 64z" />
    <glyph glyph-name="x" unicode="x" horiz-adv-x="492" 
d="M544 472l-194 -238l139 -234h-146l-60 112q-15 30 -17 40h-3q-3 -9 -26 -40l-85 -112h-148l198 240l-137 232h148l52 -103q20 -41 21 -52h3q4 13 30 52l74 103h151z" />
    <glyph glyph-name="y" unicode="y" horiz-adv-x="506" 
d="M419 472h138l-255 -535q-32 -67 -84 -107t-123 -40q-24 0 -45 5t-30 10l-10 4l33 105q24 -14 54 -14q54 0 86 56l11 22l-128 494h147l55 -280q6 -32 6 -62h3q8 26 22 62z" />
    <glyph glyph-name="z" unicode="z" horiz-adv-x="457" 
d="M29 0l12 99l246 244q21 20 27 25l-1 3q-17 -3 -54 -3h-178l12 104h388l-12 -99l-236 -237q-17 -18 -32 -32l1 -3q17 3 52 3h188l-13 -104h-400z" />
    <glyph glyph-name="braceleft" unicode="{" horiz-adv-x="342" 
d="M289 -212q-44 0 -80 9.5t-65.5 31.5t-43 64t-6.5 100l16 128q3 23 -5 38.5t-20.5 22t-27.5 6.5h-10l13 106h10q24 0 44.5 17t24.5 50l18 147q7 58 30.5 99.5t59 63.5t73.5 32t83 10l-14 -116q-47 0 -76 -27.5t-36 -84.5l-19 -154q-3 -23 -10.5 -41t-16.5 -27.5t-16 -14
t-14 -6.5q7 -3 15.5 -12t15.5 -30.5t4 -48.5l-16 -136q-13 -112 84 -112z" />
    <glyph glyph-name="bar" unicode="|" horiz-adv-x="232" 
d="M36 -204l111 906h111l-112 -906h-110z" />
    <glyph glyph-name="braceright" unicode="}" horiz-adv-x="343" 
d="M15 -96q47 0 76 28t36 84l16 135q2 15 5.5 27t8.5 21t9.5 15t10.5 11.5t9.5 7.5t9 5t5.5 4q-5 1 -11 5.5t-13.5 14t-10.5 27.5t-1 42l20 155q7 56 -15.5 84t-69.5 28l14 115q45 0 80.5 -9.5t65.5 -31.5t43.5 -63.5t6.5 -100.5l-19 -147q-4 -33 13 -50t41 -17h9l-13 -106
h-9q-9 0 -18 -2.5t-17.5 -7.5t-15.5 -12.5t-12 -19t-7 -25.5l-15 -127q-8 -58 -31.5 -100t-59 -64t-73.5 -31.5t-82 -9.5z" />
    <glyph glyph-name="asciitilde" unicode="~" horiz-adv-x="523" 
d="M81 225l11 91q47 33 110 33q41 0 100.5 -20t100.5 -20q24 0 55.5 8t53.5 22l-12 -91q-51 -33 -109 -33q-41 0 -100.5 20t-99.5 20q-25 0 -56.5 -8t-53.5 -22z" />
    <glyph glyph-name="exclamdown" unicode="&#xa1;" horiz-adv-x="241" 
d="M163 332q-28 0 -46.5 19t-18.5 47q0 33 25 57.5t59 24.5q27 0 45.5 -19.5t18.5 -47.5q0 -33 -25 -57t-58 -24zM19 -207l76 454l113 4l-42 -458h-147z" />
    <glyph glyph-name="cent" unicode="&#xa2;" horiz-adv-x="503" 
d="M300 106q31 0 60 11t43.5 21.5t24.5 22.5l56 -86q-24 -28 -67.5 -50.5t-100.5 -28.5l-13 -98h-93l12 101q-77 15 -118.5 70t-41.5 136q0 104 59 177.5t160 91.5l12 102h94l-12 -100q38 -4 69.5 -17t50 -28.5t28.5 -33.5l-76 -86q-12 20 -41 37.5t-74 17.5
q-62 0 -96.5 -42t-34.5 -109q0 -50 25 -79.5t74 -29.5z" />
    <glyph glyph-name="sterling" unicode="&#xa3;" horiz-adv-x="580" 
d="M249 109q11 2 43 2h253l-13 -112h-472l10 81q2 1 6 3.5t15.5 10t22.5 16.5t24 23t22 28.5t15.5 34.5t6.5 40v11h-115l9 79h78q-28 60 -28 106q0 102 77 169t196 67q52 0 93.5 -15t63.5 -36t36.5 -42.5t18.5 -36.5l4 -15l-122 -51q-1 3 -2.5 8t-9 17.5t-18 22t-30.5 17.5
t-45 8q-51 0 -85 -34t-34 -86q0 -18 5 -38t9 -29t14 -32h194l-9 -79h-163v-8q0 -33 -14.5 -62.5t-29.5 -44t-28 -20.5z" />
    <glyph glyph-name="currency" unicode="&#xa4;" horiz-adv-x="572" 
d="M133 328q0 60 39 118l-67 81l73 66l67 -80q51 35 110 35q56 0 101 -35l86 80l57 -66l-87 -80q16 -35 16 -78q0 -64 -40 -119l65 -76l-74 -65l-64 75q-50 -35 -109 -35t-102 35l-88 -81l-58 65l90 83q-15 38 -15 77zM234 338q0 -37 24 -63t60 -26q44 0 77 32.5t33 77.5
q0 25 -11 45.5t-30.5 32.5t-43.5 12q-28 0 -53.5 -15t-40.5 -40.5t-15 -55.5z" />
    <glyph glyph-name="yen" unicode="&#xa5;" horiz-adv-x="638" 
d="M425 267h145l-2 -14l-9 -80h-158l-21 -173h-142l21 173h-158l1 14l10 80h145l-154 393h154l76 -222q17 -51 20 -82h3q13 38 39 82l130 222h149z" />
    <glyph glyph-name="brokenbar" unicode="&#xa6;" horiz-adv-x="232" 
d="M99 312l48 390h111l-48 -390h-111zM36 -204l48 390h110l-48 -390h-110z" />
    <glyph glyph-name="section" unicode="&#xa7;" horiz-adv-x="572" 
d="M553 218q0 -90 -76 -126q50 -41 50 -109q0 -89 -73 -141.5t-193 -52.5q-89 0 -151 29t-96 63l96 103q16 -18 37 -34t58 -30.5t74 -14.5q52 0 78.5 18.5t26.5 51.5q0 25 -21.5 42.5t-54.5 27t-71 22.5t-71 28t-55 44.5t-22 70.5q0 47 25 80t65 50q-60 45 -60 122
q0 92 71 148.5t182 56.5q48 0 86 -11.5t61 -28.5t38.5 -41t21.5 -46t8 -46l-130 -32q1 33 -23.5 60.5t-72.5 27.5q-46 0 -72.5 -21.5t-26.5 -57.5q0 -28 21.5 -48t53.5 -29.5t70 -23.5t70 -29t54 -46.5t22 -76.5zM214 232q0 -16 9.5 -28t29.5 -21t38 -15t49 -15t50 -16
q34 21 34 61q0 14 -7 25.5t-16 19t-27 16t-31.5 13t-38 12.5t-38.5 13q-25 -4 -38.5 -22t-13.5 -43z" />
    <glyph glyph-name="dieresis" unicode="&#xa8;" horiz-adv-x="377" 
d="M159 550q-17 0 -31 8t-22 22.5t-8 31.5q0 31 23.5 54t54.5 23q26 0 43 -18.5t17 -44.5q0 -21 -10.5 -38.5t-28.5 -27.5t-38 -10zM357 550q-25 0 -42.5 18t-17.5 44q0 31 23.5 54t54.5 23q26 0 43 -18.5t17 -44.5q0 -20 -10.5 -38t-28.5 -28t-39 -10z" />
    <glyph glyph-name="copyright" unicode="&#xa9;" horiz-adv-x="716" 
d="M356 -5q-130 0 -207 79.5t-77 212.5q0 110 47.5 196.5t131 134t188.5 47.5q131 0 208.5 -79.5t77.5 -211.5q0 -167 -104 -273t-265 -106zM361 32q141 0 232 95t91 243q0 118 -67.5 188t-182.5 70q-139 0 -230 -94t-91 -243q0 -117 67 -188t181 -71zM542 184
q-2 -3 -6 -7.5t-20 -17t-34 -21.5t-47 -16.5t-61 -7.5q-79 0 -125 49.5t-46 131.5q0 110 63.5 180.5t161.5 70.5q74 0 114.5 -40.5t32.5 -106.5l-90 -16q1 3 1 8t-2.5 18t-8 23t-20.5 18t-37 8q-48 0 -79.5 -41.5t-31.5 -105.5q0 -50 24.5 -80t66.5 -30q30 0 56.5 12
t37.5 23l11 12z" />
    <glyph glyph-name="ordfeminine" unicode="&#xaa;" horiz-adv-x="457" 
d="M452 374q7 0 14 2l-8 -94q-25 -7 -59 -7q-81 0 -87 59q-38 -59 -120 -59q-53 0 -83 24.5t-30 67.5q0 32 13 56.5t35 39.5t54.5 24t67.5 13t77 4h2l1 14q4 26 -8.5 41.5t-39.5 15.5q-28 0 -43.5 -11t-15.5 -30q0 -5 2 -10l-110 -18q-1 10 -1 23q0 63 50 100.5t135 37.5
q84 0 122.5 -40.5t29.5 -115.5l-15 -115q-3 -22 17 -22zM241 365q20 0 36 6.5t26 17t14 23.5l4 33h-2q-59 0 -88 -11.5t-29 -37.5q0 -31 39 -31z" />
    <glyph glyph-name="guillemotleft" unicode="&#xab;" horiz-adv-x="511" 
d="M59 212l13 105l173 140l55 -73l-145 -120l116 -119l-74 -73zM283 212l14 105l173 140l55 -73l-146 -120l117 -119l-74 -73z" />
    <glyph glyph-name="registered" unicode="&#xae;" horiz-adv-x="416" 
d="M246 313q-70 0 -112 42.5t-42 111.5q0 88 56.5 144t141.5 56q70 0 112 -43t42 -113q0 -86 -56.5 -142t-141.5 -56zM250 343q70 0 115.5 46.5t45.5 119.5q0 58 -34 93.5t-91 35.5q-70 0 -115 -47t-45 -121q0 -58 33.5 -92.5t90.5 -34.5zM343 382q-8 -1 -17 -1
q-17 0 -28 11t-16 24t-15 24t-24 11h-13l-8 -69h-43l26 213h76q28 0 46 -16t18 -41t-13 -42t-24 -22t-17 -5q10 -4 16.5 -12.5t9 -16.5t7.5 -14t14 -6q5 0 6 1zM262 491q18 0 29.5 11t11.5 28q0 12 -8.5 19.5t-21.5 7.5h-30l-8 -66h27z" />
    <glyph glyph-name="macron" unicode="&#xaf;" horiz-adv-x="400" 
d="M119 572l12 94h302l-12 -94h-302z" />
    <glyph glyph-name="degree" unicode="&#xb0;" horiz-adv-x="320" 
d="M355 550q0 -65 -41 -106.5t-105 -41.5q-52 0 -83 31.5t-31 83.5q0 65 42 107t104 42q53 0 83.5 -31.5t30.5 -84.5zM284 542q0 24 -14 39t-37 15q-29 0 -47.5 -20t-18.5 -52q0 -23 13.5 -37.5t36.5 -14.5q30 0 48.5 19.5t18.5 50.5z" />
    <glyph glyph-name="plusminus" unicode="&#xb1;" horiz-adv-x="476" 
d="M332 376h143l-11 -89h-143l-16 -130h-95l16 130h-143l10 89h144l15 123h95zM50 19l11 89h381l-11 -89h-381z" />
    <glyph glyph-name="acute" unicode="&#xb4;" horiz-adv-x="290" 
d="M227 541l-122 -6l76 169h165z" />
    <glyph glyph-name="paragraph" unicode="&#xb6;" horiz-adv-x="589" 
d="M413 -201l99 799h-87l-99 -799h-76l58 476h-39q-87 0 -139 46t-52 121q0 96 67 157t171 61h280l-105 -861h-78z" />
    <glyph glyph-name="periodcentered" unicode="&#xb7;" horiz-adv-x="230" 
d="M81 346q0 23 12 43.5t32 32t43 11.5q30 0 49.5 -20.5t19.5 -49.5q0 -35 -26.5 -60.5t-61.5 -25.5q-20 0 -35.5 9t-24 25t-8.5 35z" />
    <glyph glyph-name="cedilla" unicode="&#xb8;" horiz-adv-x="275" 
d="M167 -26q27 -4 46.5 -23t19.5 -52t-18.5 -57.5t-45.5 -35.5t-59 -11q-29 0 -53 10.5t-33 20.5l-10 11l40 59l8 -8t21 -13t34 -8q40 0 40 31q0 36 -79 36l43 79h68z" />
    <glyph glyph-name="ordmasculine" unicode="&#xba;" horiz-adv-x="448" 
d="M306 667q53 0 92.5 -22t60 -60.5t20.5 -88.5q0 -96 -62.5 -158.5t-159.5 -62.5q-79 0 -126 47.5t-47 124.5q0 96 62.5 158t159.5 62zM270 377q38 0 60.5 31.5t22.5 79.5q0 35 -15.5 56t-44.5 21q-37 0 -59.5 -31t-22.5 -79q0 -36 15.5 -57t43.5 -21z" />
    <glyph glyph-name="guillemotright" unicode="&#xbb;" horiz-adv-x="511" 
d="M107 72l-56 73l145 119l-116 120l75 73l138 -140l-14 -105zM332 72l-56 73l144 119l-115 120l74 73l138 -140l-13 -105z" />
    <glyph glyph-name="onequarter" unicode="&#xbc;" horiz-adv-x="849" 
d="M196 0l374 667h109l-373 -667h-110zM176 294l31 249l-119 -24l13 102l216 39h21l-45 -366h-117zM806 364l-26 -213h61l-10 -87h-62l-8 -64h-114l8 64h-192l11 86l209 214h123zM674 151l10 86q2 18 4 24l-2 2q-3 -4 -14 -17l-71 -76q-13 -13 -20 -17l1 -3q6 1 29 1h63z
" />
    <glyph glyph-name="onehalf" unicode="&#xbd;" horiz-adv-x="845" 
d="M196 0l374 667h109l-373 -667h-110zM176 294l31 249l-119 -24l13 102l216 39h21l-45 -366h-117zM671 88q3 1 32 1h124l-12 -89h-335l9 73q3 2 10 6q39 20 58.5 30.5t50 27.5t46 28t32.5 25.5t24 27t7 25.5q0 15 -11 25t-28 10q-23 0 -36.5 -12.5t-13.5 -30.5q0 -4 1 -6
l-120 -22q-3 8 -3 24q0 38 22 70t64.5 50.5t97.5 18.5q68 0 107 -31.5t39 -84.5q0 -27 -11 -50.5t-32.5 -42t-42 -31.5t-50.5 -27q-18 -10 -30 -12z" />
    <glyph glyph-name="threequarters" unicode="&#xbe;" horiz-adv-x="916" 
d="M275 0l375 667h109l-374 -667h-110zM281 664q47 0 80.5 -13.5t50 -37t16.5 -54.5q0 -37 -24 -60t-62 -23v-1q35 0 56.5 -20t21.5 -52q0 -49 -49.5 -82t-134.5 -33q-40 0 -71.5 8t-48 19t-28 22t-14.5 19l-3 8l83 59q3 -5 9.5 -11t29 -16.5t49.5 -10.5q62 0 62 30
q0 22 -43 22h-60l9 74h40q58 0 58 34q0 14 -10.5 22t-30.5 8q-22 0 -35.5 -8.5t-13.5 -21.5q0 -5 1 -5l-114 -19l-0.5 3t-1 7.5t-0.5 9.5q0 55 49 89t129 34zM875 364l-27 -213h62l-11 -87h-61l-8 -64h-115l8 64h-192l11 86l209 214h124zM742 151l10 86q2 18 5 24l-3 2
q-4 -6 -14 -17l-71 -76q-14 -13 -20 -17l1 -3q6 1 30 1h62z" />
    <glyph glyph-name="questiondown" unicode="&#xbf;" horiz-adv-x="456" 
d="M293 326q-19 0 -34.5 9t-24 25t-8.5 35q0 34 26 59t61 25q28 0 47 -19.5t19 -49.5q0 -34 -25.5 -59t-60.5 -25zM206 -223q-95 0 -142.5 48t-47.5 118q0 40 14 73t36 53t48 40.5t49 37t41.5 41.5t23.5 54q2 10 2 15l117 4l-5 -36q-7 -44 -29 -78t-48 -55t-51 -40
t-41.5 -41t-16.5 -49q0 -28 16.5 -46.5t47.5 -18.5q36 0 58.5 21.5t22.5 58.5q0 3 -1 13l127 20q1 -15 1 -30q0 -90 -62.5 -146.5t-159.5 -56.5z" />
    <glyph glyph-name="Agrave" unicode="&#xc0;" horiz-adv-x="603" 
d="M458 700l-129 -6l-83 132h171zM457 0l-26 141h-224l-60 -141h-146l305 660h153l142 -660h-144zM253 247h159l-35 197q-7 38 -10 75h-3q-8 -29 -28 -76z" />
    <glyph glyph-name="Aacute" unicode="&#xc1;" horiz-adv-x="603" 
d="M560 826l-116 -126l-128 -6l72 132h172zM457 0l-26 141h-224l-60 -141h-146l305 660h153l142 -660h-144zM253 247h159l-35 197q-7 38 -10 75h-3q-8 -29 -28 -76z" />
    <glyph glyph-name="Acircumflex" unicode="&#xc2;" horiz-adv-x="603" 
d="M398 754l-66 -56l-102 -4l106 142h144l72 -142l-102 4zM457 0l-26 141h-224l-60 -141h-146l305 660h153l142 -660h-144zM253 248h159l-35 196q-7 38 -10 75h-3q-8 -29 -28 -76z" />
    <glyph glyph-name="Atilde" unicode="&#xc3;" horiz-adv-x="603" 
d="M293 686l-90 1q-2 10 -2 25q0 55 33 87t85 32q32 0 60 -13t47.5 -25.5t31.5 -12.5q28 0 28 44l-1 18h89v-19q0 -60 -32 -96t-85 -36q-26 0 -51 13t-45.5 26t-34.5 13q-15 0 -25.5 -10.5t-10.5 -28.5zM457 0l-26 141h-224l-60 -141h-146l305 660h153l142 -660h-144z
M253 248h159l-35 196q-7 38 -10 75h-3q-8 -29 -28 -76z" />
    <glyph glyph-name="Adieresis" unicode="&#xc4;" horiz-adv-x="603" 
d="M294 702q-25 0 -42 17.5t-17 43.5q0 30 23 52t53 22q25 0 42 -17.5t17 -43.5q0 -30 -23 -52t-53 -22zM494 702q-25 0 -42 17.5t-17 43.5q0 29 23 51.5t53 22.5q25 0 42 -17.5t17 -43.5q0 -30 -22.5 -52t-53.5 -22zM457 0l-26 141h-224l-60 -141h-146l305 660h153
l142 -660h-144zM253 247h159l-35 197q-7 38 -10 75h-3q-8 -29 -28 -76z" />
    <glyph glyph-name="Aring" unicode="&#xc5;" horiz-adv-x="603" 
d="M388 680q-35 0 -59 24t-24 59q0 42 32 72t73 30q35 0 59.5 -24t24.5 -60q0 -41 -32.5 -71t-73.5 -30zM403 803q-13 0 -23 -10t-10 -24q0 -12 7 -19.5t18 -7.5q14 0 23.5 10t9.5 23q0 12 -7 20t-18 8zM457 0l-26 141h-224l-60 -141h-146l305 660h153l142 -660h-144z
M253 248h159l-35 196q-7 38 -10 75h-3q-8 -29 -28 -76z" />
    <glyph glyph-name="AE" unicode="&#xc6;" horiz-adv-x="952" 
d="M940 543h-282l-18 -152h242l-13 -111h-243l-20 -163h281l-14 -117h-423l17 141h-227l-112 -141h-145l523 660h448zM324 247h156l29 234z" />
    <glyph glyph-name="Ccedilla" unicode="&#xc7;" horiz-adv-x="625" 
d="M647 421l-133 -20q3 24 -1 48t-15.5 46t-36 35.5t-57.5 13.5q-77 0 -132.5 -69t-55.5 -181q0 -89 43.5 -133.5t110.5 -44.5q55 0 99.5 28.5t73.5 65.5l73 -88q-10 -12 -21 -23t-27.5 -25.5t-36 -27t-43 -23.5t-52 -19t-59.5 -10l-11 -20q27 -4 46.5 -23t19.5 -52
q0 -49 -36.5 -76.5t-86.5 -27.5q-28 0 -52.5 10.5t-33.5 20.5l-10 11l41 59q2 -3 7 -8t21 -13t34 -8q40 0 40 31q0 36 -79 36l33 61q-111 12 -174.5 88.5t-63.5 199.5q0 68 17.5 128.5t49 106.5t74 80t95 51.5t109.5 17.5q56 0 99 -15.5t69 -40.5t42 -57.5t20.5 -65.5
t-0.5 -67z" />
    <glyph glyph-name="Egrave" unicode="&#xc8;" horiz-adv-x="531" 
d="M438 700l-128 -6l-84 132h171zM555 543h-281l-19 -152h243l-14 -111h-242l-21 -163h282l-14 -117h-424l81 660h424z" />
    <glyph glyph-name="Eacute" unicode="&#xc9;" horiz-adv-x="531" 
d="M540 826l-116 -126l-128 -6l72 132h172zM555 543h-281l-19 -152h243l-14 -111h-242l-21 -163h282l-14 -117h-424l81 660h424z" />
    <glyph glyph-name="Ecircumflex" unicode="&#xca;" horiz-adv-x="531" 
d="M378 754l-66 -56l-102 -4l107 142h143l73 -142l-103 4zM555 543h-281l-19 -152h243l-14 -111h-242l-21 -163h282l-14 -117h-424l81 660h424z" />
    <glyph glyph-name="Edieresis" unicode="&#xcb;" horiz-adv-x="531" 
d="M274 702q-25 0 -41.5 17.5t-16.5 43.5q0 30 23 52t52 22q25 0 42 -17.5t17 -43.5q0 -30 -22.5 -52t-53.5 -22zM474 702q-25 0 -41.5 17.5t-16.5 43.5q0 29 23 51.5t52 22.5q26 0 42.5 -17.5t16.5 -43.5q0 -30 -22.5 -52t-53.5 -22zM555 543h-281l-19 -152h243l-14 -111
h-242l-21 -163h282l-14 -117h-424l81 660h424z" />
    <glyph glyph-name="Igrave" unicode="&#xcc;" horiz-adv-x="270" 
d="M160 694l-84 132h171l41 -126zM65 0l81 660h140l-81 -660h-140z" />
    <glyph glyph-name="Iacute" unicode="&#xcd;" horiz-adv-x="270" 
d="M275 700l-128 -6l72 132h171zM65 0l81 660h140l-81 -660h-140z" />
    <glyph glyph-name="Icircumflex" unicode="&#xce;" horiz-adv-x="270" 
d="M310 836l73 -142l-102 4l-52 56l-67 -56l-102 -4l107 142h143zM65 0l81 660h140l-81 -660h-140z" />
    <glyph glyph-name="Idieresis" unicode="&#xcf;" horiz-adv-x="270" 
d="M125 702q-25 0 -42 17.5t-17 43.5q0 30 23 52t53 22q25 0 42 -17.5t17 -43.5q0 -30 -23 -52t-53 -22zM325 702q-25 0 -42 17.5t-17 43.5q0 29 23 51.5t53 22.5q25 0 42 -17.5t17 -43.5q0 -30 -22.5 -52t-53.5 -22zM65 0l81 660h140l-81 -660h-140z" />
    <glyph glyph-name="Eth" unicode="&#xd0;" horiz-adv-x="643" 
d="M372 660q135 0 207 -75.5t72 -205.5q0 -179 -87.5 -279t-244.5 -100h-254l35 286h-89l11 88h89l35 286h226zM315 113q91 0 141.5 64t50.5 193q0 59 -19.5 99t-56.5 59t-92 19h-64l-22 -173h155l-11 -88h-155l-21 -173h94z" />
    <glyph glyph-name="Ntilde" unicode="&#xd1;" horiz-adv-x="675" 
d="M634 842v-19q0 -39 -14 -69t-41 -46.5t-62 -16.5q-26 0 -51 13t-45.5 26t-33.5 13q-8 0 -14.5 -2.5t-11.5 -7.5t-8 -12.5t-3 -16.5l3 -18h-89q-2 11 -2 26q0 54 33 86.5t85 32.5q31 0 59 -13t47.5 -25.5t31.5 -12.5q28 0 28 44l-1 18h89zM690 660l-81 -660h-134l-159 318
q-12 22 -59 123l-7 -3q3 -21 -9 -119l-38 -319h-138l81 660h125l168 -334q37 -74 58 -125l6 3q-2 35 9 123l40 333h138z" />
    <glyph glyph-name="Ograve" unicode="&#xd2;" horiz-adv-x="690" 
d="M369 694l-83 132h171l41 -126zM426 667q124 0 198.5 -79t74.5 -213q0 -172 -100.5 -277t-255.5 -105q-123 0 -197 79t-74 214q0 171 100 276t254 105zM359 117q54 0 98.5 29.5t71 86.5t26.5 132q0 83 -39.5 131t-104.5 48q-83 0 -139 -68t-56 -181q0 -83 39 -130.5
t104 -47.5z" />
    <glyph glyph-name="Oacute" unicode="&#xd3;" horiz-adv-x="690" 
d="M484 700l-128 -6l72 132h172zM426 667q124 0 198.5 -79t74.5 -213q0 -172 -100.5 -277t-255.5 -105q-123 0 -197 79t-74 214q0 171 100 276t254 105zM359 117q54 0 98.5 29.5t71 86.5t26.5 132q0 83 -39.5 131t-104.5 48q-83 0 -139 -68t-56 -181q0 -83 39 -130.5
t104 -47.5z" />
    <glyph glyph-name="Ocircumflex" unicode="&#xd4;" horiz-adv-x="690" 
d="M520 836l72 -142l-102 4l-52 56l-66 -56l-102 -4l106 142h144zM426 667q124 0 198.5 -79t74.5 -213q0 -172 -100.5 -277t-255.5 -105q-123 0 -197 79t-74 214q0 171 100 276t254 105zM359 117q54 0 98.5 29.5t71 86.5t26.5 132q0 83 -39.5 131t-104.5 48q-83 0 -139 -68
t-56 -181q0 -83 39 -130.5t104 -47.5z" />
    <glyph glyph-name="Otilde" unicode="&#xd5;" horiz-adv-x="690" 
d="M614 842v-19q0 -39 -14 -69t-41 -46.5t-62 -16.5q-26 0 -51 13t-45.5 26t-34.5 13q-6 0 -11.5 -1.5t-10 -5t-7.5 -8t-5 -10.5t-2 -14l3 -18h-90q-2 11 -2 26q0 54 33 86.5t85 32.5q32 0 60 -13t47.5 -25.5t31.5 -12.5q28 0 28 44l-1 18h89zM426 667q124 0 198.5 -79
t74.5 -213q0 -172 -100.5 -277t-255.5 -105q-123 0 -197 79t-74 214q0 171 100 276t254 105zM359 117q54 0 98.5 29.5t71 86.5t26.5 132q0 83 -39.5 131t-104.5 48q-83 0 -139 -68t-56 -181q0 -83 39 -130.5t104 -47.5z" />
    <glyph glyph-name="Odieresis" unicode="&#xd6;" horiz-adv-x="690" 
d="M334 702q-25 0 -42 17.5t-17 43.5q0 30 23 52t53 22q25 0 42 -17.5t17 -43.5q0 -30 -23 -52t-53 -22zM534 702q-25 0 -42 17.5t-17 43.5q0 29 23 51.5t53 22.5q25 0 42 -17.5t17 -43.5q0 -30 -22.5 -52t-53.5 -22zM426 667q124 0 198.5 -79t74.5 -213q0 -172 -100.5 -277
t-255.5 -105q-123 0 -197 79t-74 214q0 171 100 276t254 105zM359 117q54 0 98.5 29.5t71 86.5t26.5 132q0 83 -39.5 131t-104.5 48q-83 0 -139 -68t-56 -181q0 -55 18 -95.5t50 -61.5t75 -21z" />
    <glyph glyph-name="multiply" unicode="&#xd7;" horiz-adv-x="426" 
d="M430 349l-125 -115l96 -115l-73 -64l-94 114l-124 -114l-56 64l125 115l-96 115l71 64l96 -113l123 113z" />
    <glyph glyph-name="Oslash" unicode="&#xd8;" horiz-adv-x="690" 
d="M717 688l-83 -111q65 -78 65 -202q0 -172 -100.5 -277t-255.5 -105q-70 0 -126 27l-49 -64h-113l89 119q-72 79 -72 211q0 171 100 276t254 105q78 0 138 -32l40 53h113zM216 295q0 -57 19 -98l247 328q-31 19 -71 19q-83 0 -139 -68t-56 -181zM555 365q0 49 -15 87
l-242 -322q28 -14 61 -14q54 0 98.5 30t71 87t26.5 132z" />
    <glyph glyph-name="Ugrave" unicode="&#xd9;" horiz-adv-x="651" 
d="M352 694l-84 132h171l41 -126zM531 660h142l-49 -400q-15 -121 -97 -194t-201 -73q-121 0 -185.5 73t-49.5 194l49 400h142l-48 -399q-5 -34 1 -61.5t20 -45.5t36 -28t50 -10q55 0 94 38.5t47 105.5z" />
    <glyph glyph-name="Uacute" unicode="&#xda;" horiz-adv-x="651" 
d="M466 700l-128 -6l73 132h171zM531 660h142l-49 -400q-15 -121 -97 -194t-201 -73q-121 0 -185.5 73t-49.5 194l49 400h142l-48 -399q-5 -34 1 -61.5t20 -45.5t36 -28t50 -10q55 0 94 38.5t47 105.5z" />
    <glyph glyph-name="Ucircumflex" unicode="&#xdb;" horiz-adv-x="651" 
d="M502 836l73 -142l-103 4l-51 56l-67 -56l-102 -4l107 142h143zM531 660h142l-49 -400q-15 -121 -97 -194t-201 -73q-121 0 -185.5 73t-49.5 194l49 400h142l-48 -399q-4 -27 -1 -50t12 -40.5t23 -30t32.5 -18.5t40.5 -6q55 0 94 38.5t47 105.5z" />
    <glyph glyph-name="Udieresis" unicode="&#xdc;" horiz-adv-x="651" 
d="M317 702q-25 0 -42 17.5t-17 43.5q0 30 23 52t52 22q26 0 42.5 -17.5t16.5 -43.5q0 -30 -22.5 -52t-52.5 -22zM517 702q-26 0 -42.5 17.5t-16.5 43.5q0 29 23 51.5t52 22.5q26 0 42.5 -17.5t16.5 -43.5q0 -20 -10.5 -37t-27.5 -27t-37 -10zM531 660h142l-49 -400
q-15 -121 -97 -194t-201 -73q-121 0 -185.5 73t-49.5 194l49 400h142l-48 -399q-9 -68 20.5 -106.5t86.5 -38.5q55 0 94 38.5t47 105.5z" />
    <glyph glyph-name="Yacute" unicode="&#xdd;" horiz-adv-x="574" 
d="M545 826l-116 -126l-128 -6l72 132h172zM653 660l-264 -417l-30 -243h-142l29 240l-164 420h154l76 -222q17 -51 20 -82h3q13 38 39 82l130 222h149z" />
    <glyph glyph-name="Thorn" unicode="&#xde;" horiz-adv-x="591" 
d="M368 565q116 0 179 -51t63 -150q0 -127 -78.5 -196.5t-201.5 -69.5h-111l-12 -98h-142l81 660h142l-11 -95h91zM315 210q48 0 81.5 16t50.5 47t17 75q0 50 -31.5 77.5t-92.5 27.5h-77l-30 -243h82z" />
    <glyph glyph-name="germandbls" unicode="&#xdf;" horiz-adv-x="561" 
d="M449 356q53 -19 80 -60t27 -96q0 -95 -57.5 -151t-160.5 -56q-29 0 -54.5 2.5t-36.5 4.5l-11 2l29 111q21 -8 59 -8q42 0 68.5 27t26.5 76q0 40 -26 63t-74 23h-36l3 22h-3l10 90h12q41 0 69.5 35t28.5 85q0 35 -18.5 56t-48.5 21q-35 0 -57 -23.5t-28 -68.5l-62 -511
h-137l63 514q11 90 74 144.5t157 54.5q89 0 142.5 -48t53.5 -127q0 -56 -25 -103.5t-68 -78.5z" />
    <glyph glyph-name="agrave" unicode="&#xe0;" horiz-adv-x="523" 
d="M378 541l-124 -6l-79 169h166zM492 104q8 0 17 3l-8 -104q-30 -9 -67 -9q-93 0 -98 74q-48 -74 -154 -74q-66 0 -102 30.5t-36 83.5q0 38 15 67t41.5 47.5t65.5 30.5t83.5 16.5t99.5 4.5h6l3 21q4 37 -13.5 58.5t-56.5 21.5t-61 -16t-22 -44q0 -6 2 -13l-120 -20
q-2 13 -2 30q0 75 60.5 120.5t161 45.5t147.5 -49.5t35 -139.5l-19 -155q-3 -30 22 -30zM234 95q42 0 71.5 19t35.5 47l5 44h-5q-83 0 -122 -16.5t-39 -52.5q0 -20 14.5 -30.5t39.5 -10.5z" />
    <glyph glyph-name="aacute" unicode="&#xe1;" horiz-adv-x="523" 
d="M479 704l-119 -163l-122 -6l76 169h165zM492 104q8 0 17 3l-8 -104q-30 -9 -67 -9q-93 0 -98 74q-48 -74 -153 -74q-67 0 -103 30.5t-36 83.5q0 38 15 67t41.5 47.5t65.5 30.5t83.5 16.5t99.5 4.5h6l3 21q4 37 -13.5 58.5t-56.5 21.5t-61 -16t-22 -44q0 -6 2 -13
l-120 -20q-2 13 -2 30q0 75 60.5 120.5t161 45.5t147.5 -49.5t35 -139.5l-19 -155q-3 -30 22 -30zM234 95q42 0 71.5 19t35.5 47l5 44h-5q-83 0 -122 -16.5t-39 -52.5q0 -20 14.5 -30.5t39.5 -10.5z" />
    <glyph glyph-name="acircumflex" unicode="&#xe2;" horiz-adv-x="523" 
d="M324 616l-69 -77l-102 -4l110 167h143l70 -167l-103 4zM492 104q8 0 17 3l-8 -104q-30 -9 -67 -9q-93 0 -98 74q-48 -74 -154 -74q-66 0 -102 30.5t-36 83.5q0 38 15 67t41.5 47.5t65.5 30.5t83.5 16.5t99.5 4.5h6l3 21q4 37 -13.5 58.5t-56.5 21.5t-61 -16t-22 -44
q0 -6 2 -13l-120 -20q-2 13 -2 30q0 49 27 86.5t77.5 58.5t116.5 21q101 0 148 -49.5t35 -139.5l-19 -154q-3 -31 22 -31zM234 95q42 0 71.5 19t35.5 47l5 44h-5q-83 0 -122 -16.5t-39 -52.5q0 -20 14.5 -30.5t39.5 -10.5z" />
    <glyph glyph-name="atilde" unicode="&#xe3;" horiz-adv-x="523" 
d="M216 533h-89q-1 11 -1 26q0 54 34 90t85 36q30 0 58 -13t48 -25.5t32 -12.5q28 0 28 44l-2 19h89q1 -9 1 -20q0 -60 -32 -96t-87 -36q-20 0 -39.5 8t-33 18t-28.5 18.5t-26 8.5q-17 0 -27.5 -11.5t-10.5 -33.5zM492 104q8 0 17 3l-8 -104q-30 -9 -67 -9q-93 0 -98 74
q-48 -74 -154 -74q-66 0 -102 30.5t-36 83.5q0 38 15 67t41.5 47.5t65.5 30.5t83.5 16.5t99.5 4.5h6l3 21q4 37 -13.5 58.5t-56.5 21.5t-61 -16t-22 -44q0 -6 2 -13l-120 -20q-2 13 -2 30q0 49 27 86.5t77.5 58.5t116.5 21q101 0 148 -49.5t35 -139.5l-19 -154
q-3 -31 22 -31zM234 95q42 0 71.5 19t35.5 47l5 44h-5q-55 0 -90.5 -7t-53 -22.5t-17.5 -39.5q0 -20 14.5 -30.5t39.5 -10.5z" />
    <glyph glyph-name="adieresis" unicode="&#xe4;" horiz-adv-x="523" 
d="M219 550q-17 0 -31 8t-21.5 22.5t-7.5 31.5q0 31 23.5 54t54.5 23q25 0 42.5 -18.5t17.5 -44.5q0 -21 -11 -38.5t-28.5 -27.5t-38.5 -10zM418 550q-26 0 -43 18t-17 44q0 31 23.5 54t53.5 23q27 0 44 -18.5t17 -44.5q0 -20 -10.5 -38t-28.5 -28t-39 -10zM492 104
q8 0 17 3l-8 -104q-30 -9 -67 -9q-93 0 -98 74q-48 -74 -154 -74q-66 0 -102 30.5t-36 83.5q0 38 15 67t41.5 47.5t65.5 30.5t83.5 16.5t99.5 4.5h6l3 21q4 37 -13.5 58.5t-56.5 21.5t-61 -16t-22 -44q0 -6 2 -13l-120 -20q-2 13 -2 30q0 75 60.5 120.5t161 45.5
t147.5 -49.5t35 -139.5l-19 -154q-3 -31 22 -31zM234 95q42 0 71.5 19t35.5 47l5 44h-5q-55 0 -90.5 -7t-53 -22.5t-17.5 -39.5q0 -20 14.5 -30.5t39.5 -10.5z" />
    <glyph glyph-name="aring" unicode="&#xe5;" horiz-adv-x="523" 
d="M312 522q-24 0 -44 11.5t-31.5 31.5t-11.5 44q0 43 33.5 74.5t76.5 31.5q36 0 61 -25t25 -62q0 -21 -9.5 -41t-24.5 -34t-35 -22.5t-40 -8.5zM327 650q-14 0 -24 -10.5t-10 -24.5q0 -4 0.5 -8t2.5 -7t4.5 -5.5t5.5 -4.5t6.5 -2.5t7.5 -0.5q13 0 23.5 10.5t10.5 24.5
q0 12 -7.5 20t-19.5 8zM492 104q8 0 17 3l-8 -104q-30 -9 -67 -9q-93 0 -98 74q-48 -74 -153 -74q-67 0 -103 30.5t-36 83.5q0 38 15 67t41.5 47.5t65.5 30.5t83.5 16.5t99.5 4.5h6l3 21q4 37 -13.5 58.5t-56.5 21.5t-61 -16t-22 -44q0 -6 2 -13l-120 -20q-2 13 -2 30
q0 49 27 86.5t77.5 58.5t116.5 21q101 0 148 -49.5t35 -139.5l-19 -154q-3 -31 22 -31zM234 95q42 0 71.5 19t35.5 47l5 44h-5q-83 0 -122 -16.5t-39 -52.5q0 -20 14.5 -30.5t39.5 -10.5z" />
    <glyph glyph-name="ae" unicode="&#xe6;" horiz-adv-x="794" 
d="M612 478q87 0 135.5 -53t48.5 -140q0 -20 -3 -40t-7 -30l-3 -10h-301q4 -49 32 -78t80 -29q70 0 122 54l55 -75q-28 -35 -82 -59t-124 -24q-129 0 -177 94h-8q-8 -14 -21 -27t-36 -30t-59.5 -27t-80.5 -10q-67 0 -103 30.5t-36 83.5q0 38 15 67t41.5 47.5t65.5 30.5
t83.5 16.5t99.5 4.5h6l3 21q4 37 -13.5 58.5t-56.5 21.5t-61 -16t-22 -43q0 -9 3 -15l-122 -20q-2 12 -2 29q0 76 60.5 122t161.5 46q94 0 142 -59q66 59 164 59zM599 374q-39 0 -69 -26t-41 -72h183v12q0 38 -19 62t-54 24zM234 95q44 0 74.5 24t34.5 56l4 30h-6
q-83 0 -122 -16.5t-39 -52.5q0 -20 14.5 -30.5t39.5 -10.5z" />
    <glyph glyph-name="ccedilla" unicode="&#xe7;" horiz-adv-x="489" 
d="M486 277l-121 -7q5 15 5 31q0 28 -16 46.5t-46 18.5q-49 0 -81 -42t-32 -108q0 -51 25 -80.5t74 -29.5q45 0 77.5 17.5t50.5 37.5l55 -86q-25 -31 -75 -54.5t-116 -26.5l-12 -20q27 -4 46.5 -23t19.5 -52q0 -49 -36.5 -76.5t-86.5 -27.5q-28 0 -52 10.5t-34 20.5l-10 11
l41 59q2 -3 7 -8t21 -13t34 -8q40 0 40 31q0 36 -79 36l35 64q-79 14 -122 69t-43 136q0 120 76.5 197.5t192.5 77.5q80 0 125.5 -42t45.5 -107q0 -13 -2.5 -26t-4.5 -20z" />
    <glyph glyph-name="egrave" unicode="&#xe8;" horiz-adv-x="502" 
d="M391 541l-124 -6l-79 169h166zM320 478q88 0 136.5 -53t48.5 -140q0 -20 -3.5 -40t-6.5 -30l-3 -10h-301q4 -49 32 -78t79 -29q70 0 123 54l55 -75q-28 -35 -82 -59t-124 -24q-69 0 -118.5 27t-74.5 74t-25 110q0 118 74.5 195.5t189.5 77.5zM308 374q-39 0 -69 -26
t-42 -72h184v12q0 25 -8 44t-25 30.5t-40 11.5z" />
    <glyph glyph-name="eacute" unicode="&#xe9;" horiz-adv-x="502" 
d="M492 704l-119 -163l-122 -6l76 169h165zM320 478q88 0 136.5 -53t48.5 -140q0 -20 -3.5 -40t-6.5 -30l-3 -10h-301q4 -49 32 -78t79 -29q70 0 123 54l55 -75q-28 -35 -82 -59t-124 -24q-103 0 -160.5 58t-57.5 153q0 118 74.5 195.5t189.5 77.5zM308 374q-26 0 -48 -11.5
t-38.5 -33.5t-24.5 -53h184v12q0 25 -8 44t-25 30.5t-40 11.5z" />
    <glyph glyph-name="ecircumflex" unicode="&#xea;" horiz-adv-x="502" 
d="M336 616l-68 -77l-102 -4l110 167h142l71 -167l-103 4zM320 478q88 0 136.5 -53t48.5 -140q0 -20 -3.5 -40t-6.5 -30l-3 -10h-301q4 -49 32 -78t79 -29q70 0 123 54l55 -75q-28 -35 -82 -59t-124 -24q-103 0 -160.5 58t-57.5 153q0 118 74.5 195.5t189.5 77.5zM308 374
q-26 0 -48 -11.5t-38.5 -33.5t-24.5 -53h184v12q0 25 -8 44t-25 30.5t-40 11.5z" />
    <glyph glyph-name="edieresis" unicode="&#xeb;" horiz-adv-x="502" 
d="M232 550q-17 0 -31 8t-21.5 22.5t-7.5 31.5q0 31 23.5 54t54.5 23q25 0 42.5 -18.5t17.5 -44.5q0 -21 -11 -38.5t-28.5 -27.5t-38.5 -10zM431 550q-26 0 -43 18t-17 44q0 31 23.5 54t53.5 23q18 0 32 -8.5t21.5 -23t7.5 -31.5q0 -20 -10.5 -38t-28.5 -28t-39 -10z
M320 478q88 0 136.5 -53t48.5 -140q0 -20 -3.5 -40t-6.5 -30l-3 -10h-301q4 -49 32 -78t79 -29q70 0 123 54l55 -75q-28 -35 -82 -59t-124 -24q-103 0 -160.5 58t-57.5 153q0 77 33.5 139.5t94 98t136.5 35.5zM308 374q-39 0 -69 -26t-42 -72h184v12q0 25 -8 44t-25 30.5
t-40 11.5z" />
    <glyph glyph-name="igrave" unicode="&#xec;" horiz-adv-x="242" 
d="M124 535l-79 169h166l37 -163zM52 0l58 472l138 4l-58 -476h-138z" />
    <glyph glyph-name="iacute" unicode="&#xed;" horiz-adv-x="242" 
d="M246 541l-122 -6l77 169h165zM52 0l58 472l138 4l-58 -476h-138z" />
    <glyph glyph-name="icircumflex" unicode="&#xee;" horiz-adv-x="242" 
d="M21 535l111 167h142l70 -167l-102 4l-50 77l-69 -77zM52 0l58 472l138 4l-58 -476h-138z" />
    <glyph glyph-name="idieresis" unicode="&#xef;" horiz-adv-x="242" 
d="M88 550q-17 0 -31 8t-22 22.5t-8 31.5q0 31 23.5 54t54.5 23q26 0 43 -18.5t17 -44.5q0 -21 -10.5 -38.5t-28.5 -27.5t-38 -10zM286 550q-25 0 -42.5 18t-17.5 44q0 31 23.5 54t53.5 23q27 0 44 -18.5t17 -44.5q0 -20 -10.5 -38t-28.5 -28t-39 -10zM52 0l58 472l138 4
l-58 -476h-138z" />
    <glyph glyph-name="eth" unicode="&#xf0;" horiz-adv-x="550" 
d="M466 612q87 -98 87 -267q0 -162 -76.5 -256.5t-218.5 -94.5q-95 0 -149.5 56t-54.5 142q0 113 69.5 185t174.5 72q49 0 81.5 -19.5t45.5 -46.5q-6 98 -64 159l-97 -65l-37 66l68 46q-42 19 -94 20l77 98q72 -8 128 -44l97 65l38 -65zM283 106q51 0 85.5 34t42.5 87v5
q3 48 -24 76.5t-75 28.5q-54 0 -89.5 -37t-35.5 -94q0 -45 26.5 -72.5t69.5 -27.5z" />
    <glyph glyph-name="ntilde" unicode="&#xf1;" horiz-adv-x="542" 
d="M243 533h-90q-1 11 -1 26q0 54 34 90t85 36q30 0 58 -13t48 -25.5t32 -12.5q28 0 28 44l-2 19h89q1 -9 1 -20q0 -60 -32 -96t-87 -36q-20 0 -39.5 8t-33 18t-28.5 18.5t-26 8.5q-17 0 -27.5 -11.5t-10.5 -33.5zM385 478q81 0 118.5 -52t26.5 -136l-35 -290h-138l33 266
q3 28 -3 49t-22 33t-41 12q-43 0 -70.5 -33t-34.5 -78l-30 -249h-137l58 472l109 4q9 -50 4 -99h4q52 101 158 101z" />
    <glyph glyph-name="ograve" unicode="&#xf2;" horiz-adv-x="536" 
d="M274 535l-79 169h167l36 -163zM327 478q97 0 154 -58.5t57 -153.5q0 -119 -76 -195.5t-195 -76.5q-97 0 -154 58.5t-57 153.5q0 117 76.5 194.5t194.5 77.5zM281 106q53 0 86 42.5t33 108.5q0 25 -6 44.5t-17 34t-27 22.5t-37 8q-52 0 -85 -43t-33 -109q0 -49 22.5 -78.5
t63.5 -29.5z" />
    <glyph glyph-name="oacute" unicode="&#xf3;" horiz-adv-x="536" 
d="M380 541l-122 -6l77 169h165zM327 478q97 0 154 -58.5t57 -153.5q0 -119 -76 -195.5t-195 -76.5q-65 0 -113 27t-73 74.5t-25 110.5q0 117 76.5 194.5t194.5 77.5zM281 106q53 0 86 42.5t33 108.5q0 50 -23 79.5t-64 29.5q-52 0 -85 -43t-33 -109q0 -49 22.5 -78.5
t63.5 -29.5z" />
    <glyph glyph-name="ocircumflex" unicode="&#xf4;" horiz-adv-x="536" 
d="M173 535l111 167h142l70 -167l-102 4l-50 77l-69 -77zM327 478q97 0 154 -58.5t57 -153.5q0 -119 -76 -195.5t-195 -76.5q-65 0 -113 27t-73 74.5t-25 110.5q0 117 76.5 194.5t194.5 77.5zM281 106q53 0 86 42.5t33 108.5q0 50 -23 79.5t-64 29.5q-35 0 -62 -20
t-41.5 -54.5t-14.5 -77.5q0 -49 22.5 -78.5t63.5 -29.5z" />
    <glyph glyph-name="otilde" unicode="&#xf5;" horiz-adv-x="536" 
d="M519 696q1 -8 1 -19q0 -60 -32.5 -96t-87.5 -36q-19 0 -39 8t-33.5 18t-28.5 18.5t-26 8.5q-16 0 -27 -11.5t-11 -33.5l2 -20h-90q-1 11 -1 26q0 54 34 90t85 36q30 0 58 -13t48.5 -25.5t31.5 -12.5q28 0 28 44l-1 18h89zM327 478q97 0 154 -58.5t57 -153.5
q0 -119 -76 -195.5t-195 -76.5q-65 0 -113 27t-73.5 74.5t-25.5 110.5q0 117 77 194.5t195 77.5zM281 106q53 0 85.5 42.5t32.5 108.5q0 50 -22.5 79.5t-63.5 29.5q-52 0 -85 -43t-33 -109q0 -49 22.5 -78.5t63.5 -29.5z" />
    <glyph glyph-name="odieresis" unicode="&#xf6;" horiz-adv-x="536" 
d="M240 550q-17 0 -31 8t-22 22.5t-8 31.5q0 31 23.5 54t54.5 23q17 0 31 -8.5t21.5 -23t7.5 -31.5q0 -21 -10.5 -38.5t-28.5 -27.5t-38 -10zM438 550q-25 0 -42.5 18t-17.5 44q0 31 23.5 54t53.5 23q27 0 44 -18.5t17 -44.5q0 -20 -10.5 -38t-28.5 -28t-39 -10zM327 478
q97 0 154 -58.5t57 -153.5q0 -119 -76 -195.5t-195 -76.5q-65 0 -113 27t-73.5 74.5t-25.5 110.5q0 117 77 194.5t195 77.5zM281 106q53 0 85.5 42.5t32.5 108.5q0 50 -22.5 79.5t-63.5 29.5q-35 0 -62 -20t-41.5 -54.5t-14.5 -77.5q0 -49 22.5 -78.5t63.5 -29.5z" />
    <glyph glyph-name="divide" unicode="&#xf7;" horiz-adv-x="441" 
d="M173 410q0 28 21 49t49 21q24 0 39.5 -16.5t15.5 -40.5q0 -28 -21 -48.5t-50 -20.5q-15 0 -27.5 7.5t-19.5 20.5t-7 28zM61 196l12 89h366l-11 -89h-367zM166 48q0 19 9.5 35t26 25.5t34.5 9.5q23 0 39 -16.5t16 -40.5q0 -28 -21.5 -48t-49.5 -20q-24 0 -39 16t-15 39z
" />
    <glyph glyph-name="oslash" unicode="&#xf8;" horiz-adv-x="536" 
d="M477 424q61 -59 61 -158q0 -119 -76 -195.5t-195 -76.5q-54 0 -97 19l-32 -42h-78l57 77q-61 58 -61 158q0 117 76.5 194.5t194.5 77.5q55 0 98 -20l28 37h77zM195 214q0 -29 8 -51l147 195q-16 8 -37 8q-52 0 -85 -43t-33 -109zM281 106q53 0 85.5 42.5t32.5 108.5
q0 29 -8 52l-146 -195q16 -8 36 -8z" />
    <glyph glyph-name="ugrave" unicode="&#xf9;" horiz-adv-x="536" 
d="M397 541l-124 -6l-80 169h167zM405 472h137l-58 -472l-112 -4q-7 55 -3 94h-2q-50 -96 -152 -96q-81 0 -118.5 52t-26.5 136l35 290h138l-33 -266q-5 -43 11.5 -68.5t54.5 -25.5t64 32.5t34 77.5z" />
    <glyph glyph-name="uacute" unicode="&#xfa;" horiz-adv-x="536" 
d="M498 704l-119 -163l-123 -6l77 169h165zM405 472h137l-58 -472l-112 -4q-7 55 -3 94h-2q-50 -96 -152 -96q-81 0 -118.5 52t-26.5 136l35 290h138l-33 -266q-5 -43 11.5 -68.5t54.5 -25.5t64 32.5t34 77.5z" />
    <glyph glyph-name="ucircumflex" unicode="&#xfb;" horiz-adv-x="536" 
d="M342 616l-68 -77l-102 -4l110 167h142l70 -167l-102 4zM405 472h137l-58 -472l-112 -4q-7 55 -3 94h-2q-50 -96 -152 -96q-81 0 -118.5 52t-26.5 136l35 290h138l-33 -266q-5 -43 11.5 -68.5t54.5 -25.5t64 32.5t34 77.5z" />
    <glyph glyph-name="udieresis" unicode="&#xfc;" horiz-adv-x="536" 
d="M238 550q-17 0 -31 8t-22 22.5t-8 31.5q0 31 23.5 54t54.5 23q26 0 43 -18.5t17 -44.5q0 -21 -10.5 -38.5t-28.5 -27.5t-38 -10zM437 550q-26 0 -43 18t-17 44q0 31 23 54t54 23q26 0 43.5 -18.5t17.5 -44.5q0 -20 -10.5 -38t-28.5 -28t-39 -10zM405 472h137l-58 -472
l-112 -4q-7 55 -3 94h-2q-50 -96 -152 -96q-81 0 -118.5 52t-26.5 136l35 290h138l-33 -266q-5 -43 11.5 -68.5t54.5 -25.5t64 32.5t34 77.5z" />
    <glyph glyph-name="yacute" unicode="&#xfd;" horiz-adv-x="506" 
d="M367 541l-123 -6l77 169h165zM419 472h138l-255 -535q-32 -67 -84 -107t-123 -40q-24 0 -45 5t-30 10l-10 4l33 105q24 -14 54 -14q54 0 86 56l11 22l-127 494h146l55 -280q6 -32 6 -62h3q8 26 22 62z" />
    <glyph glyph-name="thorn" unicode="&#xfe;" horiz-adv-x="583" 
d="M388 478q80 0 125.5 -56.5t45.5 -148.5q0 -128 -68.5 -203.5t-169.5 -75.5q-89 0 -125 65l-32 -263h-137l112 906h134l-37 -303h1q52 79 151 79zM306 109q50 0 81.5 41t31.5 107q0 49 -22.5 77.5t-61.5 28.5q-29 0 -54 -15.5t-40.5 -40.5t-20.5 -53l-5 -41
q-1 -42 22.5 -73t68.5 -31z" />
    <glyph glyph-name="ydieresis" unicode="&#xff;" horiz-adv-x="506" 
d="M226 550q-17 0 -31 8t-22 22.5t-8 31.5q0 31 23.5 54t54.5 23q17 0 31 -8.5t21.5 -23t7.5 -31.5q0 -21 -10.5 -38.5t-28.5 -27.5t-38 -10zM424 550q-25 0 -42 18t-17 44q0 31 23 54t54 23q26 0 43.5 -18.5t17.5 -44.5q0 -20 -11 -38t-29 -28t-39 -10zM419 472h138
l-255 -535q-32 -67 -84 -107t-123 -40q-24 0 -45 5t-30 10l-10 4l33 105q24 -14 54 -14q54 0 86 56l11 22l-128 494h147l55 -280q6 -32 6 -62h3q8 26 22 62z" />
    <glyph glyph-name="Amacron" unicode="&#x100;" horiz-adv-x="603" 
d="M564 803l-12 -94h-315l12 94h315zM457 0l-26 141h-224l-60 -141h-146l305 660h153l142 -660h-144zM253 248h159l-35 196q-7 38 -10 75h-3q-8 -29 -28 -76z" />
    <glyph glyph-name="amacron" unicode="&#x101;" horiz-adv-x="523" 
d="M483 666l-12 -94h-302l12 94h302zM492 104q8 0 17 3l-8 -104q-30 -9 -67 -9q-93 0 -98 74q-48 -74 -153 -74q-67 0 -103 30.5t-36 83.5q0 38 15 67t41.5 47.5t65.5 30.5t83.5 16.5t99.5 4.5h6l3 21q4 37 -13.5 58.5t-56.5 21.5t-61 -16t-22 -44q0 -6 2 -13l-120 -20
q-2 13 -2 30q0 75 60.5 120.5t161 45.5t147.5 -49.5t35 -139.5l-19 -155q-3 -30 22 -30zM234 95q42 0 71.5 19t35.5 47l5 44h-5q-83 0 -122 -16.5t-39 -52.5q0 -20 14.5 -30.5t39.5 -10.5z" />
    <glyph glyph-name="Abreve" unicode="&#x102;" horiz-adv-x="603" 
d="M389 692q-66 0 -101.5 39.5t-28.5 100.5h98q-7 -55 41.5 -55t55.5 55h97q-7 -61 -52 -100.5t-110 -39.5zM457 0l-26 141h-224l-60 -141h-146l305 660h153l142 -660h-144zM253 248h159l-35 196q-7 38 -10 75h-3q-8 -29 -28 -76z" />
    <glyph glyph-name="abreve" unicode="&#x103;" horiz-adv-x="523" 
d="M314 534q-70 0 -105.5 44t-26.5 115h100q-9 -74 41 -74t59 74h100q-5 -47 -27.5 -83t-59 -56t-81.5 -20zM492 104q8 0 17 3l-8 -104q-30 -9 -67 -9q-93 0 -98 74q-48 -74 -153 -74q-67 0 -103 30.5t-36 83.5q0 38 15 67t41.5 47.5t65.5 30.5t83.5 16.5t99.5 4.5h6l3 21
q4 37 -13.5 58.5t-56.5 21.5t-61 -16t-22 -44q0 -6 2 -13l-120 -20q-2 13 -2 30q0 75 60.5 120.5t161 45.5t147.5 -49.5t35 -139.5l-19 -154q-3 -31 22 -31zM234 95q42 0 71.5 19t35.5 47l5 44h-5q-83 0 -122 -16.5t-39 -52.5q0 -20 14.5 -30.5t39.5 -10.5z" />
    <glyph glyph-name="Aogonek" unicode="&#x104;" horiz-adv-x="603" 
d="M606 -101l25 -64q-5 -5 -13.5 -12t-35.5 -19t-56 -12q-41 0 -66 23t-25 61q0 74 71 124h-49l-26 141h-224l-60 -141h-146l305 660h153l142 -660q-3 -1 -8.5 -3.5t-19.5 -11.5t-25 -19t-19.5 -26.5t-8.5 -35.5q0 -17 9 -26.5t24 -9.5t28 8t19 15zM253 248h159l-35 196
q-7 38 -10 75h-3q-8 -29 -28 -76z" />
    <glyph glyph-name="aogonek" unicode="&#x105;" horiz-adv-x="523" 
d="M506 -98l25 -64q-5 -5 -13.5 -12t-35.5 -19.5t-56 -12.5q-41 0 -66 23.5t-25 60.5q0 71 64 119q-59 12 -63 71q-48 -74 -153 -74q-67 0 -103 30.5t-36 83.5q0 38 15 67t41.5 47.5t65.5 30.5t83.5 16.5t99.5 4.5h6l3 21q4 37 -13.5 58.5t-56.5 21.5t-61 -16t-22 -44
q0 -6 2 -13l-120 -20q-2 13 -2 30q0 49 27 86.5t77.5 58.5t116.5 21q101 0 148 -49.5t35 -139.5l-19 -154q-3 -31 22 -31q8 0 17 3l-8 -104q-3 -2 -8.5 -4t-19.5 -11t-24.5 -19t-19.5 -27t-9 -35q0 -17 9 -26.5t25 -9.5q14 0 27 7.5t19 15.5zM234 95q42 0 71.5 19t35.5 47
l5 44h-5q-83 0 -122 -16.5t-39 -52.5q0 -20 14.5 -30.5t39.5 -10.5z" />
    <glyph glyph-name="Cacute" unicode="&#x106;" horiz-adv-x="625" 
d="M475 700l-127 -6l72 132h171zM417 667q56 0 99 -15.5t69 -40.5t42 -57.5t20.5 -65.5t-0.5 -67l-133 -20q3 24 -1 48t-15.5 46t-36 35.5t-57.5 13.5q-77 0 -132.5 -69t-55.5 -181q0 -89 43.5 -133.5t110.5 -44.5q55 0 99.5 28.5t73.5 65.5l73 -88q-17 -20 -37.5 -38.5
t-53.5 -41t-78.5 -36t-95.5 -13.5q-129 0 -204 77.5t-75 212.5q0 68 17.5 128.5t49 106.5t74 80t95 51.5t109.5 17.5z" />
    <glyph glyph-name="cacute" unicode="&#x107;" horiz-adv-x="489" 
d="M377 541l-122 -6l76 169h165zM324 478q80 0 125.5 -42t45.5 -107q0 -13 -2.5 -26t-4.5 -20l-2 -6l-121 -7q5 15 5 31q0 28 -16 46.5t-46 18.5q-33 0 -58.5 -19t-40 -53.5t-14.5 -77.5q0 -51 25 -80.5t74 -29.5q45 0 77.5 17.5t50.5 37.5l55 -86q-27 -33 -80.5 -57
t-125.5 -24q-68 0 -117.5 27t-74 73.5t-24.5 108.5q0 120 76.5 197.5t192.5 77.5z" />
    <glyph glyph-name="Ccircumflex" unicode="&#x108;" horiz-adv-x="625" 
d="M511 836l73 -142l-103 4l-51 56l-67 -56l-102 -4l107 142h143zM417 667q56 0 99 -15.5t69.5 -40.5t42 -57.5t20 -65.5t-0.5 -67l-133 -20q3 24 -1 48t-15.5 46t-36 35.5t-57.5 13.5q-77 0 -132.5 -69t-55.5 -181q0 -89 43.5 -133.5t110.5 -44.5q55 0 99.5 28.5t73.5 65.5
l73 -88q-17 -20 -37.5 -38.5t-53.5 -41t-78.5 -36t-95.5 -13.5q-129 0 -204 77.5t-75 212.5q0 68 17.5 128.5t49 106.5t74 80t95 51.5t109.5 17.5z" />
    <glyph glyph-name="ccircumflex" unicode="&#x109;" horiz-adv-x="489" 
d="M170 535l110 167h142l71 -167l-103 4l-50 77l-68 -77zM324 478q80 0 125.5 -42t45.5 -107q0 -13 -2.5 -26t-4.5 -20l-2 -6l-121 -7q5 15 5 31q0 28 -16 46.5t-46 18.5q-33 0 -58.5 -19t-40 -53.5t-14.5 -77.5q0 -51 25 -80.5t74 -29.5q45 0 77.5 17.5t50.5 37.5l55 -86
q-27 -33 -80.5 -57t-125.5 -24q-102 0 -159 57.5t-57 151.5q0 120 76.5 197.5t192.5 77.5z" />
    <glyph glyph-name="Cdotaccent" unicode="&#x10a;" horiz-adv-x="625" 
d="M420 693q-31 0 -51.5 20.5t-20.5 51.5q0 37 27 62.5t65 25.5q31 0 52.5 -20.5t21.5 -51.5q0 -25 -13 -45t-34.5 -31.5t-46.5 -11.5zM417 667q56 0 99 -15.5t69 -40.5t42 -57.5t20.5 -65.5t-0.5 -67l-133 -20q3 24 -1 48t-15.5 46t-36 35.5t-57.5 13.5q-77 0 -132.5 -69
t-55.5 -181q0 -89 43.5 -133.5t110.5 -44.5q55 0 99.5 28.5t73.5 65.5l73 -88q-17 -20 -37.5 -38.5t-53.5 -41t-78.5 -36t-95.5 -13.5q-129 0 -204 77.5t-75 212.5q0 68 17.5 128.5t49 106.5t74 80t95 51.5t109.5 17.5z" />
    <glyph glyph-name="cdotaccent" unicode="&#x10b;" horiz-adv-x="489" 
d="M431 632q0 -26 -14 -48t-37 -34t-49 -12q-34 0 -56 21.5t-22 54.5q0 40 29.5 67t69.5 27q34 0 56.5 -21.5t22.5 -54.5zM324 478q80 0 125.5 -42t45.5 -107q0 -13 -2.5 -26t-4.5 -20l-2 -6l-121 -7q5 15 5 31q0 28 -16 46.5t-46 18.5q-33 0 -58.5 -19t-40 -53.5
t-14.5 -77.5q0 -51 25 -80.5t74 -29.5q45 0 77.5 17.5t50.5 37.5l55 -86q-27 -33 -80.5 -57t-125.5 -24q-68 0 -117.5 27t-74 73.5t-24.5 108.5q0 120 76.5 197.5t192.5 77.5z" />
    <glyph glyph-name="Ccaron" unicode="&#x10c;" horiz-adv-x="625" 
d="M279 841l101 -4l53 -57l66 57l103 4l-108 -142h-143zM417 667q56 0 99 -15.5t69.5 -40.5t42 -57.5t20 -65.5t-0.5 -67l-133 -20q3 24 -1 48t-15.5 46t-36 35.5t-57.5 13.5q-77 0 -132.5 -69t-55.5 -181q0 -89 43.5 -133.5t110.5 -44.5q55 0 99.5 28.5t73.5 65.5l73 -88
q-17 -20 -37.5 -38.5t-53.5 -41t-78.5 -36t-95.5 -13.5q-129 0 -204 77.5t-75 212.5q0 68 17.5 128.5t49 106.5t74 80t95 51.5t109.5 17.5z" />
    <glyph glyph-name="ccaron" unicode="&#x10d;" horiz-adv-x="489" 
d="M190 702l101 -4l51 -76l68 76l103 4l-110 -167h-142zM324 478q80 0 125.5 -42t45.5 -107q0 -13 -2.5 -26t-4.5 -20l-2 -6l-121 -7q5 15 5 31q0 28 -16 46.5t-46 18.5q-33 0 -58.5 -19t-40 -53.5t-14.5 -77.5q0 -51 25 -80.5t74 -29.5q45 0 77.5 17.5t50.5 37.5l55 -86
q-27 -33 -80.5 -57t-125.5 -24q-68 0 -117.5 27t-74 73.5t-24.5 108.5q0 120 76.5 197.5t192.5 77.5z" />
    <glyph glyph-name="Dcaron" unicode="&#x10e;" horiz-adv-x="643" 
d="M432 699h-143l-71 142l101 -4l52 -57l66 57l103 4zM372 660q135 0 207 -75.5t72 -205.5q0 -179 -87.5 -279t-244.5 -100h-254l81 660h226zM315 113q91 0 141.5 64t50.5 193q0 59 -19.5 99t-56.5 59t-92 19h-64l-54 -434h94z" />
    <glyph glyph-name="dcaron" unicode="&#x10f;" horiz-adv-x="603" 
d="M696 718q27 0 45.5 -17.5t18.5 -51.5q0 -37 -11.5 -71t-28.5 -55.5t-33.5 -38t-28.5 -23.5l-12 -8l-28 51q6 5 16 13t28 29t20 38q-26 0 -43 17t-17 42q0 20 10.5 37.5t27.5 27.5t36 10zM420 415l36 291h137l-87 -706l-113 -4q-2 22 -2 52.5t1 40.5h-3q-53 -95 -161 -95
q-53 0 -92 26.5t-59 72.5t-20 105q0 128 70 204t168 76q90 0 125 -63zM281 109q41 0 73 30.5t41 72.5l6 51q1 40 -23 70t-68 30q-49 0 -81.5 -41.5t-32.5 -107.5q0 -48 23 -76.5t62 -28.5z" />
    <glyph glyph-name="Dcroat" unicode="&#x110;" horiz-adv-x="643" 
d="M372 660q135 0 207 -75.5t72 -205.5q0 -179 -87.5 -279t-244.5 -100h-254l35 286h-89l11 88h89l35 286h226zM315 113q91 0 141.5 64t50.5 193q0 59 -19.5 99t-56.5 59t-92 19h-64l-22 -173h155l-11 -88h-155l-21 -173h94z" />
    <glyph glyph-name="dcroat" unicode="&#x111;" horiz-adv-x="557" 
d="M643 625l-10 -78h-60l-67 -547l-113 -4q-5 66 -1 93h-3q-53 -95 -161 -95q-53 0 -92 26.5t-59.5 72.5t-20.5 105q0 128 70.5 204t168.5 76q90 0 125 -63l16 132h-126l10 78h126l10 81h137l-10 -81h60zM281 109q41 0 73 30.5t41 72.5l6 51q1 40 -23 70t-68 30
q-49 0 -81.5 -41.5t-32.5 -107.5q0 -48 23 -76.5t62 -28.5z" />
    <glyph glyph-name="Emacron" unicode="&#x112;" horiz-adv-x="531" 
d="M544 803l-11 -94h-315l11 94h315zM555 543h-281l-19 -152h243l-14 -111h-242l-21 -163h282l-14 -117h-424l81 660h424z" />
    <glyph glyph-name="emacron" unicode="&#x113;" horiz-adv-x="502" 
d="M496 666l-12 -94h-302l12 94h302zM320 478q88 0 136.5 -53t48.5 -140q0 -20 -3.5 -40t-6.5 -30l-3 -10h-301q4 -49 32 -78t79 -29q70 0 123 54l55 -75q-28 -35 -82 -59t-124 -24q-103 0 -160.5 58t-57.5 153q0 118 74.5 195.5t189.5 77.5zM308 374q-39 0 -69 -26t-42 -72
h184v12q0 25 -8 44t-25 30.5t-40 11.5z" />
    <glyph glyph-name="Ebreve" unicode="&#x114;" horiz-adv-x="531" 
d="M370 692q-67 0 -102.5 39.5t-27.5 100.5h97q-6 -55 42 -55t55 55h98q-8 -61 -52.5 -100.5t-109.5 -39.5zM555 543h-281l-19 -152h243l-14 -111h-242l-21 -163h282l-14 -117h-424l81 660h424z" />
    <glyph glyph-name="ebreve" unicode="&#x115;" horiz-adv-x="502" 
d="M326 534q-69 0 -104.5 44t-27.5 115h100q-8 -74 42 -74t59 74h100q-5 -47 -27.5 -83t-59 -56t-82.5 -20zM320 478q88 0 136.5 -53t48.5 -140q0 -20 -3.5 -40t-6.5 -30l-3 -10h-301q4 -49 32 -78t79 -29q70 0 123 54l55 -75q-28 -35 -82 -59t-124 -24q-103 0 -160.5 58
t-57.5 153q0 118 74.5 195.5t189.5 77.5zM308 374q-39 0 -69 -26t-42 -72h184v12q0 25 -8 44t-25 30.5t-40 11.5z" />
    <glyph glyph-name="Edotaccent" unicode="&#x116;" horiz-adv-x="531" 
d="M368 693q-31 0 -51.5 20.5t-20.5 51.5q0 37 27.5 62.5t64.5 25.5q32 0 53 -20.5t21 -51.5q0 -37 -27.5 -62.5t-66.5 -25.5zM555 543h-281l-19 -152h243l-14 -111h-242l-21 -163h282l-14 -117h-424l81 660h424z" />
    <glyph glyph-name="edotaccent" unicode="&#x117;" horiz-adv-x="502" 
d="M327 538q-22 0 -40 9.5t-28 27t-10 39.5q0 40 29.5 67t69.5 27q34 0 56.5 -21.5t22.5 -54.5q0 -40 -30 -67t-70 -27zM320 478q88 0 136.5 -53t48.5 -140q0 -20 -3.5 -40t-6.5 -30l-3 -10h-301q4 -49 32 -78t79 -29q70 0 123 54l55 -75q-28 -35 -82 -59t-124 -24
q-103 0 -160.5 58t-57.5 153q0 118 74.5 195.5t189.5 77.5zM308 374q-39 0 -69 -26t-42 -72h184v12q0 25 -8 44t-25 30.5t-40 11.5z" />
    <glyph glyph-name="Eogonek" unicode="&#x118;" horiz-adv-x="531" 
d="M555 543h-281l-19 -152h243l-14 -111h-242l-21 -163h282l-14 -117q-4 -1 -9.5 -3.5t-19.5 -11.5t-24.5 -19t-19.5 -26.5t-9 -35.5q0 -17 9.5 -26.5t24.5 -9.5q14 0 27.5 8t18.5 15l6 8l25 -64q-4 -5 -12.5 -12t-36 -19.5t-55.5 -12.5q-42 0 -67 23.5t-25 61.5
q0 74 71 124h-328l81 660h424z" />
    <glyph glyph-name="eogonek" unicode="&#x119;" horiz-adv-x="502" 
d="M320 478q88 0 136.5 -53t48.5 -140q0 -20 -3.5 -40t-6.5 -30l-3 -10h-301q4 -49 32 -78t79 -29q70 0 123 54l55 -75q-31 -39 -88 -61q-61 -35 -61 -87q0 -17 9 -26.5t24 -9.5q14 0 27.5 8t19.5 15l5 8l25 -64l-2 -2t-7.5 -6.5t-11.5 -8.5t-15.5 -9t-19 -8.5t-22.5 -6
t-26 -2.5q-42 0 -66.5 23t-24.5 61q0 52 36 93h-8q-69 0 -118.5 27t-74.5 74t-25 110q0 118 74.5 195.5t189.5 77.5zM308 374q-39 0 -69 -26t-42 -72h184v12q0 25 -8 44t-25 30.5t-40 11.5z" />
    <glyph glyph-name="Ecaron" unicode="&#x11a;" horiz-adv-x="531" 
d="M443 699h-143l-72 142l101 -4l53 -57l65 57l104 4zM555 543h-281l-19 -152h243l-14 -111h-242l-21 -163h282l-14 -117h-424l81 660h424z" />
    <glyph glyph-name="ecaron" unicode="&#x11b;" horiz-adv-x="502" 
d="M399 535h-142l-71 167l101 -4l51 -76l68 76l103 4zM320 478q88 0 136.5 -53t48.5 -140q0 -20 -3.5 -40t-6.5 -30l-3 -10h-301q4 -49 32 -78t79 -29q70 0 123 54l55 -75q-28 -35 -82 -59t-124 -24q-103 0 -160.5 58t-57.5 153q0 118 74.5 195.5t189.5 77.5zM308 374
q-39 0 -69 -26t-42 -72h184v12q0 25 -8 44t-25 30.5t-40 11.5z" />
    <glyph glyph-name="Gcircumflex" unicode="&#x11c;" horiz-adv-x="648" 
d="M428 754l-66 -56l-102 -4l107 142h143l72 -142l-102 4zM650 431l-134 -20q3 24 -1 46.5t-16.5 42.5t-36.5 32t-58 12q-77 0 -132 -69t-55 -181q0 -84 38 -133.5t105 -49.5q65 0 104.5 32.5t48.5 88.5h-163l11 90h282l-40 -322h-96q-3 19 -1 70q-66 -77 -185 -77
q-114 0 -181 77.5t-67 209.5q0 86 27 159t73 122.5t109.5 77.5t134.5 28q56 0 99.5 -15t69.5 -39t42 -55.5t21 -63t1 -63.5z" />
    <glyph glyph-name="gcircumflex" unicode="&#x11d;" horiz-adv-x="509" 
d="M339 616l-68 -77l-102 -4l110 167h142l70 -167l-102 4zM574 513q-6 -50 -34.5 -79t-62.5 -35q19 -34 19 -76q0 -84 -64 -138t-163 -54q-44 0 -80 13q-37 -7 -37 -34q0 -15 15 -21t52 -6h103q80 0 126.5 -31.5t46.5 -92.5q0 -25 -7 -47.5t-25.5 -45.5t-47.5 -39t-78 -26.5
t-112 -10.5q-113 0 -170 30.5t-57 82.5q0 77 90 105q-43 28 -43 78q0 38 22 63.5t57 35.5q-38 41 -38 101q0 84 63.5 138t161.5 54q73 0 122 -33q39 27 46 86zM369 309q2 31 -16 50t-51 20q-24 0 -43.5 -10t-31 -28t-12.5 -41q-2 -31 15.5 -50t50.5 -20q37 0 61 22t27 57z
M297 -20h-80q-96 0 -96 -49q0 -23 27 -34.5t89 -11.5q72 0 101.5 14t29.5 44q0 20 -16.5 28.5t-54.5 8.5z" />
    <glyph glyph-name="Gbreve" unicode="&#x11e;" horiz-adv-x="648" 
d="M419 692q-66 0 -101.5 39.5t-28.5 100.5h98q-7 -55 41.5 -55t55.5 55h97q-7 -61 -52 -100.5t-110 -39.5zM650 431l-134 -20q4 33 -4 62t-36 50t-72 21q-77 0 -132 -69t-55 -181q0 -84 38 -133.5t105 -49.5q65 0 104.5 32.5t48.5 88.5h-163l11 90h282l-40 -322h-96
q-3 19 -1 70q-66 -77 -185 -77q-114 0 -181 77.5t-67 209.5q0 86 27 159t73 122.5t109.5 77.5t134.5 28q56 0 99.5 -15t69.5 -39t42 -55.5t21 -63t1 -63.5z" />
    <glyph glyph-name="gbreve" unicode="&#x11f;" horiz-adv-x="509" 
d="M326 534q-69 0 -105 44t-27 115h100q-9 -74 41 -74t59 74h101q-6 -47 -28.5 -83t-59 -56t-81.5 -20zM580 536q-6 -52 -40 -86t-70 -41q26 -37 26 -86q0 -84 -64 -138t-163 -54q-44 0 -80 13q-37 -7 -37 -34q0 -15 15 -21t52 -6h103q80 0 126.5 -31.5t46.5 -92.5
q0 -25 -7 -47.5t-25.5 -45.5t-47.5 -39t-77.5 -26.5t-112.5 -10.5q-113 0 -170 30.5t-57 82.5q0 77 90 105q-43 28 -43 78q0 38 22 63.5t57 35.5q-38 41 -38 101q0 84 63.5 138t161.5 54q67 0 114 -28q46 25 57 113zM369 309q2 31 -16 50t-51 20q-24 0 -43.5 -10t-31 -28
t-12.5 -41q-2 -31 15.5 -50t50.5 -20q37 0 61 22t27 57zM297 -20h-79q-97 0 -97 -49q0 -23 27 -34.5t89 -11.5q72 0 102 14t30 44q0 20 -17 28.5t-55 8.5z" />
    <glyph glyph-name="Gdotaccent" unicode="&#x120;" horiz-adv-x="648" 
d="M418 693q-31 0 -51.5 20.5t-20.5 51.5q0 37 27.5 62.5t64.5 25.5q32 0 53 -20.5t21 -51.5q0 -25 -13 -45t-34.5 -31.5t-46.5 -11.5zM650 431l-134 -20q4 33 -4 62t-36 50t-72 21q-77 0 -132 -69t-55 -181q0 -84 38 -133.5t105 -49.5q65 0 104.5 32.5t48.5 88.5h-163
l11 90h282l-40 -322h-96q-3 19 -1 70q-66 -77 -185 -77q-114 0 -181 77.5t-67 209.5q0 86 27 159t73 122.5t109.5 77.5t134.5 28q56 0 99.5 -15t69.5 -39t42 -55.5t21 -63t1 -63.5z" />
    <glyph glyph-name="gdotaccent" unicode="&#x121;" horiz-adv-x="509" 
d="M326 538q-22 0 -40 9.5t-28 27t-10 39.5q0 26 14 48t36.5 34t49.5 12q34 0 56 -21.5t22 -54.5q0 -40 -29.5 -67t-70.5 -27zM580 536q-6 -52 -40 -86t-70 -41q26 -37 26 -86q0 -84 -64 -138t-163 -54q-44 0 -80 13q-37 -7 -37 -34q0 -15 15 -21t52 -6h103
q80 0 126.5 -31.5t46.5 -92.5q0 -25 -7 -47.5t-25.5 -45.5t-47.5 -39t-77.5 -26.5t-112.5 -10.5q-113 0 -170 30.5t-57 82.5q0 77 90 105q-43 28 -43 78q0 38 22 63.5t57 35.5q-38 41 -38 101q0 84 63.5 138t161.5 54q67 0 114 -28q46 25 57 113zM369 309q2 31 -16 50
t-51 20q-24 0 -43.5 -10t-31 -28t-12.5 -41q-2 -31 15.5 -50t50.5 -20q37 0 61 22t27 57zM297 -20h-79q-97 0 -97 -49q0 -23 27 -34.5t89 -11.5q72 0 102 14t30 44q0 20 -17 28.5t-55 8.5z" />
    <glyph glyph-name="Gcommaaccent" unicode="&#x122;" horiz-adv-x="648" 
d="M650 431l-134 -20q4 33 -4 62t-36 50t-72 21q-77 0 -132 -69t-55 -181q0 -84 38 -133.5t105 -49.5q65 0 104.5 32.5t48.5 88.5h-163l11 90h282l-40 -322h-96q-3 19 -1 70q-66 -77 -185 -77q-114 0 -181 77.5t-67 209.5q0 86 27 159t73 122.5t109.5 77.5t134.5 28
q56 0 99.5 -15t69.5 -39t42 -55.5t21 -63t1 -63.5zM325 -40q28 0 47.5 -18t19.5 -52q0 -38 -13 -70.5t-31.5 -52.5t-37 -34t-31.5 -20l-13 -6l-25 52q7 3 17.5 9t29 21.5t20.5 28.5q-27 0 -44 18t-17 45q0 32 23.5 55.5t54.5 23.5z" />
    <glyph glyph-name="gcommaaccent" unicode="&#x123;" horiz-adv-x="509" 
d="M325 512q-28 0 -47 18t-19 52q0 38 13 70.5t31.5 52.5t37 34t31.5 20l12 5l26 -51q-7 -3 -17.5 -9t-29.5 -21.5t-21 -28.5q27 0 44.5 -18t17.5 -45q0 -32 -24 -55.5t-55 -23.5zM580 536q-6 -52 -40 -86t-70 -41q26 -37 26 -86q0 -84 -64 -138t-163 -54q-44 0 -80 13
q-37 -7 -37 -34q0 -15 15 -21t52 -6h103q80 0 126.5 -31.5t46.5 -92.5q0 -25 -7 -47.5t-25.5 -45.5t-47.5 -39t-78 -26.5t-112 -10.5q-113 0 -170 30.5t-57 82.5q0 77 90 105q-43 28 -43 78q0 38 22 63.5t57 35.5q-38 41 -38 101q0 84 63.5 138t161.5 54q67 0 114 -28
q46 25 57 113zM369 309q2 31 -16 50t-51 19q-24 1 -43.5 -9t-31 -28t-12.5 -41q-2 -31 15.5 -50t50.5 -20q37 0 61 22t27 57zM297 -20h-80q-96 0 -96 -49q0 -23 27 -34.5t89 -11.5q72 0 101.5 14t29.5 44q0 20 -16.5 28.5t-54.5 8.5z" />
    <glyph glyph-name="Hcircumflex" unicode="&#x124;" horiz-adv-x="682" 
d="M441 754l-67 -56l-102 -4l107 142h143l73 -142l-103 4zM556 660h142l-81 -660h-142l34 277h-268l-34 -277h-142l81 660h142l-32 -266h267z" />
    <glyph glyph-name="Hbar" unicode="&#x126;" horiz-adv-x="682" 
d="M737 587l-11 -88h-48l-61 -499h-142l34 277h-268l-34 -277h-142l61 499h-54l11 88h54l9 73h142l-9 -73h268l9 73h142l-9 -73h48zM523 394l13 105h-268l-12 -105h267z" />
    <glyph glyph-name="hbar" unicode="&#x127;" horiz-adv-x="543" 
d="M384 478q83 0 120 -52t27 -136l-36 -290h-137l32 266q3 21 0 38.5t-11 29.5t-22 19t-33 7q-42 0 -69 -31.5t-35 -75.5l-31 -253h-137l67 547h-64l10 78h64l10 81h135l-10 -81h124l-10 -78h-124l-18 -152h2q50 83 146 83z" />
    <glyph glyph-name="Itilde" unicode="&#x128;" horiz-adv-x="270" 
d="M405 842v-19q0 -60 -32 -96t-86 -36q-25 0 -50 13t-45.5 26t-34.5 13q-8 0 -14.5 -2.5t-11 -7.5t-7.5 -12.5t-3 -16.5l3 -18h-90q-2 11 -2 26q0 54 33 86.5t85 32.5q32 0 60 -13t47.5 -25.5t31.5 -12.5q27 0 27 44l-1 18h90zM65 0l81 660h140l-81 -660h-140z" />
    <glyph glyph-name="itilde" unicode="&#x129;" horiz-adv-x="242" 
d="M367 696q1 -8 1 -19q0 -60 -32.5 -96t-87.5 -36q-25 0 -49.5 13t-44 26.5t-33.5 13.5q-16 0 -27 -11.5t-11 -33.5l2 -20h-90q-1 11 -1 26q0 54 34 90t85 36q30 0 58 -13t48.5 -25.5t31.5 -12.5q28 0 28 44l-1 18h89zM52 0l58 472l138 4l-58 -476h-138z" />
    <glyph glyph-name="Imacron" unicode="&#x12a;" horiz-adv-x="270" 
d="M68 709l12 94h315l-12 -94h-315zM65 0l81 660h140l-81 -660h-140z" />
    <glyph glyph-name="imacron" unicode="&#x12b;" horiz-adv-x="242" 
d="M37 572l12 94h302l-12 -94h-302zM52 0l58 472l138 4l-58 -476h-138z" />
    <glyph glyph-name="Ibreve" unicode="&#x12c;" horiz-adv-x="270" 
d="M382 832q-7 -61 -52 -100.5t-110 -39.5q-66 0 -101.5 39.5t-28.5 100.5h98q-7 -55 41 -55t55 55h98zM65 0l81 660h140l-81 -660h-140z" />
    <glyph glyph-name="ibreve" unicode="&#x12d;" horiz-adv-x="242" 
d="M351 693q-6 -47 -28.5 -83t-59 -56t-81.5 -20q-69 0 -105 44t-27 115h100q-9 -74 41 -74t59 74h101zM52 0l58 472l138 4l-58 -476h-138z" />
    <glyph glyph-name="Iogonek" unicode="&#x12e;" horiz-adv-x="270" 
d="M157 -132q14 0 27 8t19 15l6 8l25 -64q-4 -5 -13 -12t-36 -19t-55 -12t-49 10.5t-32 29.5t-11 44q0 74 71 124h-44l81 660h140l-81 -660q-4 -1 -9.5 -3.5t-19.5 -11.5t-24.5 -19t-19.5 -26.5t-9 -35.5q0 -17 9.5 -26.5t24.5 -9.5z" />
    <glyph glyph-name="iogonek" unicode="&#x12f;" horiz-adv-x="242" 
d="M208 708q34 0 56 -21.5t22 -54.5q0 -40 -29.5 -67t-70.5 -27q-34 0 -56 21.5t-22 54.5q0 40 29.5 67t70.5 27zM190 0q-4 -1 -9.5 -3.5t-19.5 -11.5t-24.5 -19t-19.5 -26.5t-9 -35.5q0 -17 9.5 -26.5t24.5 -9.5q14 0 27 8t19 15l6 8l25 -64q-4 -5 -13 -12t-36 -19.5
t-55 -12.5t-49 11t-32 30t-11 44q0 74 71 124h-42l58 472l138 4z" />
    <glyph glyph-name="Idotaccent" unicode="&#x130;" horiz-adv-x="270" 
d="M219 693q-31 0 -51.5 20.5t-20.5 51.5q0 37 27.5 62.5t64.5 25.5q32 0 53 -20.5t21 -51.5q0 -37 -28 -62.5t-66 -25.5zM65 0l81 660h140l-81 -660h-140z" />
    <glyph glyph-name="dotlessi" unicode="&#x131;" horiz-adv-x="242" 
d="M52 0l58 472l138 4l-58 -476h-138z" />
    <glyph glyph-name="IJ" unicode="&#x132;" horiz-adv-x="724" 
d="M65 0l81 660h140l-81 -660h-140zM369 163q30 -46 80 -46q45 0 69 23t31 74l54 446h142l-54 -444q-13 -108 -81 -165t-174 -57q-56 0 -97 21.5t-66 48.5z" />
    <glyph glyph-name="ij" unicode="&#x133;" horiz-adv-x="493" 
d="M538 628q0 -20 -8 -37.5t-21.5 -29.5t-31.5 -19.5t-38 -7.5q-34 0 -56 21.5t-22 54.5q0 40 29 67.5t70 27.5q34 0 56 -22t22 -55zM282 628q0 -40 -29.5 -67t-69.5 -27q-34 0 -56.5 21t-22.5 54q0 40 29.5 67.5t69.5 27.5q34 0 56.5 -21.5t22.5 -54.5zM52 0l58 472l138 4
l-58 -476h-138zM185 -82q14 -12 40 -12q68 0 78 90l59 476l137 4l-59 -477q-11 -98 -63.5 -153t-146.5 -55q-32 0 -56 8t-32 15l-8 8z" />
    <glyph glyph-name="Jcircumflex" unicode="&#x134;" horiz-adv-x="455" 
d="M499 836l72 -142l-102 4l-52 56l-66 -56l-102 -4l106 142h144zM99 163q31 -46 81 -46q22 0 38.5 5.5t29 17t20.5 30t11 44.5l55 446h142l-55 -444q-13 -108 -80.5 -165t-174.5 -57q-56 0 -97 21.5t-65 48.5z" />
    <glyph glyph-name="jcircumflex" unicode="&#x135;" horiz-adv-x="249" 
d="M38 545l110 167h143l69 -167l-102 4l-49 77l-69 -77zM-59 -82q14 -12 40 -12q35 0 53.5 23.5t23.5 66.5l59 476l138 4l-59 -477q-12 -98 -64 -153t-146 -55q-32 0 -56 8t-32 15l-8 8z" />
    <glyph glyph-name="Kcommaaccent" unicode="&#x136;" horiz-adv-x="589" 
d="M668 660l-257 -338l177 -322h-148l-136 259h-65l-32 -259h-142l81 660h142l-35 -288h57l211 288h147zM304 -40q28 0 47 -18t19 -52q0 -38 -13 -70.5t-31.5 -52.5t-37 -34t-31.5 -20l-13 -5l-25 51q7 3 17.5 9t29 21.5t20.5 28.5q-17 0 -31.5 8.5t-22 23t-7.5 31.5
q0 32 23.5 55.5t55.5 23.5z" />
    <glyph glyph-name="kcommaaccent" unicode="&#x137;" horiz-adv-x="523" 
d="M571 472l-197 -226l158 -246h-165l-116 197h-38l-24 -197h-137l87 706h137l-50 -405h49l141 171h155zM260 -40q28 0 47.5 -18t19.5 -52q0 -27 -7 -52.5t-18 -43t-24.5 -33t-27 -25t-24.5 -16.5t-18 -10l-7 -2l-25 51q7 3 17.5 9t29 21.5t20.5 28.5q-27 0 -44.5 18
t-17.5 45q0 32 24 55.5t55 23.5z" />
    <glyph glyph-name="kgreenlandic" unicode="&#x138;" horiz-adv-x="523" 
d="M571 472l-199 -244l160 -228h-165l-114 177h-43l-21 -177h-137l58 472h137l-24 -191h46l147 191h155z" />
    <glyph glyph-name="Lacute" unicode="&#x139;" horiz-adv-x="501" 
d="M394 826l-116 -126l-128 -6l73 132h171zM221 117h283l-14 -117h-425l81 660h142z" />
    <glyph glyph-name="lacute" unicode="&#x13a;" horiz-adv-x="241" 
d="M273 775l-122 -6l77 169h165zM52 0l87 706h137l-87 -706h-137z" />
    <glyph glyph-name="Lcommaaccent" unicode="&#x13b;" horiz-adv-x="501" 
d="M221 117h283l-14 -117h-425l81 660h142zM284 -40q28 0 47 -18t19 -52q0 -27 -7 -52.5t-18 -43t-24.5 -33t-26.5 -25t-24.5 -16.5t-17.5 -10l-7 -2l-26 51q7 3 18 9t29.5 21.5t20.5 28.5q-27 0 -44.5 18t-17.5 45q0 32 24 55.5t55 23.5z" />
    <glyph glyph-name="lcommaaccent" unicode="&#x13c;" horiz-adv-x="241" 
d="M52 0l87 706h137l-87 -706h-137zM35 -119q0 21 11 39.5t29 29t39 10.5q27 0 46.5 -18t19.5 -52q0 -27 -7 -52.5t-18 -43t-24.5 -33t-27 -25t-24.5 -16.5t-18 -10l-7 -2l-25 51q7 3 17.5 9t29 21.5t20.5 28.5q-18 0 -32 8.5t-21.5 23t-7.5 31.5z" />
    <glyph glyph-name="Lcaron" unicode="&#x13d;" horiz-adv-x="501" 
d="M395 484q7 5 17 13t27.5 29t19.5 38q-17 0 -30.5 7.5t-21.5 21.5t-8 31q0 30 22.5 52t52.5 22q17 0 30.5 -7t23 -23t9.5 -39q0 -37 -12 -71t-28.5 -55.5t-33 -38t-28.5 -23.5l-11 -8zM288 660l-67 -543h283l-14 -117h-425l81 660h142z" />
    <glyph glyph-name="lcaron" unicode="&#x13e;" horiz-adv-x="287" 
d="M305 644q0 30 22.5 52t51.5 22q27 0 45.5 -17.5t18.5 -51.5q0 -37 -11.5 -71t-28.5 -55.5t-33.5 -38t-28.5 -23.5l-12 -8l-28 51q6 5 16 13t28 29t20 38q-26 0 -43 17t-17 43zM52 0l87 706h137l-87 -706h-137z" />
    <glyph glyph-name="Ldot" unicode="&#x13f;" horiz-adv-x="501" 
d="M221 117h283l-14 -117h-425l81 660h142zM381 244q-30 0 -49 20t-19 49q0 36 26 61.5t61 25.5q30 0 49.5 -20.5t19.5 -49.5q0 -35 -26.5 -60.5t-61.5 -25.5z" />
    <glyph glyph-name="ldot" unicode="&#x140;" horiz-adv-x="398" 
d="M52 0l87 706h137l-87 -706h-137zM451 362q0 -40 -29.5 -67t-70.5 -27q-34 0 -55.5 21t-21.5 54q0 20 8 38t21.5 30.5t31.5 19.5t37 7q35 0 57 -21.5t22 -54.5z" />
    <glyph glyph-name="Lslash" unicode="&#x141;" horiz-adv-x="501" 
d="M221 117h283l-14 -117h-425l25 198l-57 -31l-36 80l106 57l43 356h142l-33 -273l133 73l37 -79l-183 -100z" />
    <glyph glyph-name="lslash" unicode="&#x142;" horiz-adv-x="335" 
d="M389 422l-106 -58l-45 -364h-137l35 284l-63 -34l-29 69l103 56l41 331h137l-31 -252l65 36z" />
    <glyph glyph-name="Nacute" unicode="&#x143;" horiz-adv-x="675" 
d="M473 700l-128 -6l72 132h171zM690 660l-81 -660h-134l-159 318q-11 22 -59 123l-7 -3q3 -21 -9 -119l-38 -319h-138l81 660h125l168 -334q37 -74 58 -125l6 3q-2 35 9 123l40 333h138z" />
    <glyph glyph-name="nacute" unicode="&#x144;" horiz-adv-x="542" 
d="M505 704l-119 -163l-122 -6l76 169h165zM385 478q81 0 118.5 -52t26.5 -136l-35 -290h-138l33 266q3 28 -3 49t-22 33t-41 12q-43 0 -70.5 -33t-34.5 -78l-30 -249h-137l58 472l109 4q9 -50 4 -99h4q52 101 158 101z" />
    <glyph glyph-name="Ncommaaccent" unicode="&#x145;" horiz-adv-x="675" 
d="M690 660l-81 -660h-134l-159 318q-11 22 -59 123l-7 -3q3 -21 -9 -119l-38 -319h-138l81 660h125l168 -334q37 -74 58 -125l6 3q-2 35 9 123l40 333h138zM251 -119q0 21 11 39.5t29 29t39 10.5q18 0 32.5 -7.5t24 -23.5t9.5 -39q0 -38 -13 -70.5t-31.5 -52.5t-37 -34
t-31.5 -20l-13 -5l-25 51q7 3 17.5 9t29 21.5t20.5 28.5q-27 0 -44 18t-17 45z" />
    <glyph glyph-name="ncommaaccent" unicode="&#x146;" horiz-adv-x="542" 
d="M385 478q81 0 118.5 -52t26.5 -136l-35 -290h-138l33 266q3 28 -3 49t-22 33t-41 12q-43 0 -70.5 -33t-34.5 -78l-30 -249h-137l58 472l109 4q9 -50 4 -99h4q52 101 158 101zM267 -40q27 0 46.5 -18t19.5 -52q0 -27 -7 -52.5t-18 -43t-24.5 -33t-27 -25t-24.5 -16.5
t-18 -10l-7 -2l-25 51q7 3 17.5 9t29 21.5t20.5 28.5q-18 0 -32 8.5t-21.5 23t-7.5 31.5q0 32 23.5 55.5t55.5 23.5z" />
    <glyph glyph-name="Ncaron" unicode="&#x147;" horiz-adv-x="675" 
d="M276 841l101 -4l53 -57l66 57l103 4l-108 -142h-143zM690 660l-81 -660h-134l-159 318q-11 22 -59 123l-7 -3q3 -21 -9 -119l-38 -319h-138l81 660h125l168 -334q37 -74 58 -125l6 3q-2 35 9 123l40 333h138z" />
    <glyph glyph-name="ncaron" unicode="&#x148;" horiz-adv-x="542" 
d="M412 535h-142l-70 167l101 -4l50 -76l68 76l103 4zM385 478q81 0 118.5 -52t26.5 -136l-35 -290h-138l33 266q3 28 -3 49t-22 33t-41 12q-43 0 -70.5 -33t-34.5 -78l-30 -249h-137l58 472l109 4q9 -50 4 -99h4q52 101 158 101z" />
    <glyph glyph-name="napostrophe" unicode="&#x149;" horiz-adv-x="542" 
d="M143 651q0 -37 -11.5 -71t-28 -55.5t-33 -38t-28.5 -23.5l-12 -8l-28 51q6 5 16 12.5t28 29t20 37.5q-26 0 -43 17.5t-17 42.5q0 31 22.5 53t52.5 22q17 0 30.5 -7t22.5 -23t9 -39zM385 478q81 0 118.5 -52t26.5 -136l-35 -290h-138l33 266q5 43 -11.5 68.5t-54.5 25.5
q-29 0 -52 -17t-35.5 -41.5t-17.5 -52.5l-30 -249h-137l58 472l109 4q9 -50 4 -99h4q52 101 158 101z" />
    <glyph glyph-name="Eng" unicode="&#x14a;" horiz-adv-x="701" 
d="M552 660h138l-82 -676q-16 -117 -89 -180t-172 -63q-24 0 -45.5 4t-37.5 10.5t-30 14t-23 15.5t-15.5 14.5t-9.5 10.5l-3 4l97 98q0 -2 8.5 -12t29 -21.5t43.5 -11.5q44 0 72 29t35 84l4 31l-3 1l-153 306q-11 22 -59 123l-7 -3q3 -21 -9 -119l-38 -319h-138l81 660h125
l168 -334q37 -74 58 -125l6 3q-2 35 9 123z" />
    <glyph glyph-name="eng" unicode="&#x14b;" horiz-adv-x="552" 
d="M385 478q81 0 118 -52t27 -136l-35 -291q-12 -98 -64 -153t-146 -55q-32 0 -56 8t-32 15l-8 8l51 96q14 -12 40 -12q67 0 78 90l32 270q5 43 -11.5 68.5t-54.5 25.5q-43 0 -71 -34t-34 -80l-30 -246h-137l58 472l109 4q9 -50 4 -99h3q52 101 159 101z" />
    <glyph glyph-name="Omacron" unicode="&#x14c;" horiz-adv-x="690" 
d="M277 709l12 94h315l-12 -94h-315zM426 667q124 0 198.5 -79t74.5 -213q0 -172 -100.5 -277t-255.5 -105q-123 0 -197 79t-74 214q0 171 100 276t254 105zM359 117q54 0 98.5 29.5t71 86.5t26.5 132q0 83 -39.5 131t-104.5 48q-83 0 -139 -68t-56 -181q0 -83 39 -130.5
t104 -47.5z" />
    <glyph glyph-name="omacron" unicode="&#x14d;" horiz-adv-x="536" 
d="M189 572l12 94h302l-12 -94h-302zM327 478q97 0 154 -58.5t57 -153.5q0 -119 -76 -195.5t-195 -76.5q-65 0 -113 27t-73 74.5t-25 110.5q0 117 76.5 194.5t194.5 77.5zM281 106q53 0 86 42.5t33 108.5q0 50 -23 79.5t-64 29.5q-52 0 -85 -43t-33 -109q0 -49 22.5 -78.5
t63.5 -29.5z" />
    <glyph glyph-name="Obreve" unicode="&#x14e;" horiz-adv-x="690" 
d="M591 832q-4 -40 -26 -71.5t-57.5 -50t-78.5 -18.5q-66 0 -101.5 39.5t-28.5 100.5h98q-7 -55 41.5 -55t55.5 55h97zM426 667q124 0 198.5 -79t74.5 -213q0 -172 -100.5 -277t-255.5 -105q-123 0 -197 79t-74 214q0 171 100 276t254 105zM359 116q54 0 98.5 30t71 87
t26.5 132q0 83 -39.5 131t-104.5 48q-83 0 -139 -68t-56 -181q0 -83 39 -131t104 -48z" />
    <glyph glyph-name="obreve" unicode="&#x14f;" horiz-adv-x="536" 
d="M503 693q-9 -71 -55 -115t-114 -44q-69 0 -105 44t-27 115h100q-9 -74 41 -74t59 74h101zM327 478q97 0 154 -58.5t57 -153.5q0 -119 -76 -195.5t-195 -76.5q-65 0 -113 27t-73 74.5t-25 110.5q0 117 76.5 194.5t194.5 77.5zM281 106q53 0 86 42.5t33 108.5
q0 50 -23 79.5t-64 29.5q-52 0 -85 -43t-33 -109q0 -49 22.5 -78.5t63.5 -29.5z" />
    <glyph glyph-name="Ohungarumlaut" unicode="&#x150;" horiz-adv-x="690" 
d="M368 700l-111 -6l73 132h154zM562 700l-111 -6l73 132h154zM426 667q124 0 198.5 -79t74.5 -213q0 -172 -100.5 -277t-255.5 -105q-123 0 -197 79t-74 214q0 171 100 276t254 105zM359 117q54 0 98.5 29.5t71 86.5t26.5 132q0 83 -39.5 131t-104.5 48q-83 0 -139 -68
t-56 -181q0 -55 18 -95.5t50 -61.5t75 -21z" />
    <glyph glyph-name="ohungarumlaut" unicode="&#x151;" horiz-adv-x="536" 
d="M279 541l-128 -6l77 170h171zM486 541l-128 -6l77 170h171zM327 478q97 0 154 -58.5t57 -154.5q0 -118 -76 -194.5t-195 -76.5q-65 0 -113 27t-73 74.5t-25 110.5q0 117 76.5 194.5t194.5 77.5zM281 106q53 0 86 42.5t33 108.5q0 50 -23 79.5t-64 29.5q-52 0 -85 -43
t-33 -109q0 -49 22.5 -78.5t63.5 -29.5z" />
    <glyph glyph-name="OE" unicode="&#x152;" horiz-adv-x="980" 
d="M1005 543h-282l-18 -152h242l-13 -111h-243l-20 -163h281l-14 -117h-423l4 37q-79 -44 -176 -44q-123 0 -197 79t-74 214q0 171 100 276t254 105q97 0 164 -49l6 42h423zM359 116q54 0 98.5 30t71 87t26.5 132q0 83 -39.5 131t-104.5 48q-83 0 -139 -68t-56 -181
q0 -83 39 -131t104 -48z" />
    <glyph glyph-name="oe" unicode="&#x153;" horiz-adv-x="847" 
d="M665 478q87 0 135.5 -53t48.5 -140q0 -20 -3.5 -40t-6.5 -30l-3 -10h-301q3 -32 15 -55.5t37 -37.5t59 -14q70 0 123 54l55 -75q-28 -35 -82 -59t-124 -24q-109 0 -168 66q-74 -66 -183 -66q-65 0 -113 27t-73 74.5t-25 110.5q0 117 76.5 194.5t194.5 77.5q102 0 160 -65
q73 65 178 65zM652 374q-39 0 -69 -26t-42 -72h184v12q0 38 -19 62t-54 24zM281 106q53 0 86 42.5t33 108.5q0 50 -23 79.5t-64 29.5q-52 0 -85 -43t-33 -109q0 -49 22.5 -78.5t63.5 -29.5z" />
    <glyph glyph-name="Racute" unicode="&#x154;" horiz-adv-x="604" 
d="M539 826l-116 -126l-128 -6l72 132h172zM445 251q16 -9 29 -27.5t21 -37.5t17 -37.5t24 -30t37 -11.5l21 2l-5 -109q-26 -7 -73 -7q-35 0 -61.5 10t-41 26.5t-26.5 37.5t-18.5 42.5t-16 42.5t-19.5 37.5t-28 26.5t-43 10h-27l-28 -226h-142l81 660h218q232 0 232 -188
q0 -165 -151 -221zM247 326h57q68 0 109.5 33t41.5 93q0 23 -7.5 41t-22 30.5t-35.5 18.5t-48 6h-67z" />
    <glyph glyph-name="racute" unicode="&#x155;" horiz-adv-x="369" 
d="M434 704l-119 -163l-123 -6l77 169h165zM225 372q44 106 135 106q35 0 66 -14l-52 -132q-21 17 -51 17q-25 0 -46 -12.5t-37 -38t-22 -61.5l-29 -237h-137l58 472l109 4q4 -21 4.5 -56t-1.5 -48h3z" />
    <glyph glyph-name="Rcommaaccent" unicode="&#x156;" horiz-adv-x="604" 
d="M445 251q20 -11 35 -36t23 -48.5t26 -41.5t44 -18l21 2l-5 -109q-26 -7 -73 -7q-35 0 -61.5 10t-41 26.5t-26.5 37.5t-18.5 42.5t-16 42.5t-19.5 37.5t-28 26.5t-43 10h-27l-28 -226h-142l81 660h218q232 0 232 -188q0 -165 -151 -221zM247 326h57q68 0 109.5 33t41.5 93
q0 23 -7.5 41t-22 30.5t-35.5 18.5t-48 6h-67zM312 -40q27 0 46.5 -18t19.5 -52q0 -38 -13 -70.5t-31.5 -52.5t-37 -34t-31.5 -20l-13 -5l-25 51q7 3 17.5 9t29 21.5t20.5 28.5q-17 0 -31.5 8.5t-22 23t-7.5 31.5q0 32 23.5 55.5t55.5 23.5z" />
    <glyph glyph-name="rcommaaccent" unicode="&#x157;" horiz-adv-x="369" 
d="M360 478q35 0 66 -14l-52 -132q-21 17 -51 17q-38 0 -67 -29.5t-38 -82.5l-29 -237h-137l58 472l109 4q4 -21 4.5 -56t-1.5 -48h3q44 106 135 106zM117 -40q28 0 47.5 -18t19.5 -52q0 -27 -7 -52.5t-18 -43t-24.5 -33t-27 -25t-24.5 -16.5t-18 -10l-7 -2l-25 51
q2 1 6.5 3t15.5 9t20 14t16.5 16t8.5 17q-27 0 -44 18t-17 45q0 32 23.5 55.5t54.5 23.5z" />
    <glyph glyph-name="Rcaron" unicode="&#x158;" horiz-adv-x="604" 
d="M442 699h-144l-71 142l101 -4l52 -57l66 57l103 4zM445 251q16 -9 29 -27.5t20.5 -37.5t17 -37.5t24.5 -30t37 -11.5l21 2l-5 -109q-26 -7 -73 -7q-35 0 -61.5 10t-41 26.5t-26.5 37.5t-18.5 42.5t-16 42.5t-19.5 37.5t-28 26.5t-43 10h-27l-28 -226h-142l81 660h218
q232 0 232 -188q0 -165 -151 -221zM247 326h57q68 0 109.5 33t41.5 93q0 23 -7.5 41t-22 30.5t-35.5 18.5t-48 6h-67z" />
    <glyph glyph-name="rcaron" unicode="&#x159;" horiz-adv-x="369" 
d="M341 535h-142l-71 167l101 -4l51 -76l68 76l103 4zM225 372q44 106 135 106q35 0 66 -14l-52 -132q-21 17 -51 17q-38 0 -67 -29.5t-38 -82.5l-29 -237h-137l58 472l109 4q4 -21 4.5 -56t-1.5 -48h3z" />
    <glyph glyph-name="Sacute" unicode="&#x15a;" horiz-adv-x="553" 
d="M410 700l-127 -6l72 132h171zM444 463q3 31 -22 59t-73 28q-46 0 -73 -22t-27 -57q0 -22 16.5 -37.5t42 -26t57 -20t63 -24t57.5 -33.5t42 -51.5t16 -76.5q0 -92 -70 -150.5t-198 -58.5q-89 0 -151 28.5t-96 63.5l96 102q27 -29 71 -54t98 -25q53 0 79.5 19.5t26.5 54.5
q0 21 -12.5 37t-33 25.5t-47 19.5t-54 18.5t-54 22.5t-47.5 31.5t-33.5 45.5t-12.5 64q0 94 72 157.5t183 63.5q40 0 73.5 -7.5t56 -21.5t39 -30.5t26 -37t14 -39t6.5 -37.5z" />
    <glyph glyph-name="sacute" unicode="&#x15b;" horiz-adv-x="463" 
d="M345 541l-122 -6l76 169h165zM338 307q5 11 5 25q0 25 -16.5 39.5t-46.5 14.5q-33 0 -52 -15t-19 -38q0 -20 18 -32.5t45 -17.5t58 -13.5t58 -19.5t45 -36.5t18 -62.5q0 -47 -26.5 -82.5t-76 -55t-115.5 -19.5q-49 0 -89 9t-64 23t-35 22.5t-17 15.5l73 83
q11 -13 52.5 -35t85.5 -22q34 0 52 11t18 30q0 15 -17 26.5t-42 17.5t-55 16t-55.5 22.5t-42.5 38t-17 61.5q0 75 60 120t157 45q51 0 90 -15.5t60 -43t21 -62.5q0 -10 -2 -21t-4 -16l-3 -6z" />
    <glyph glyph-name="Scircumflex" unicode="&#x15c;" horiz-adv-x="553" 
d="M446 836l73 -142l-103 4l-51 56l-67 -56l-102 -4l107 142h143zM444 463q3 31 -22 59t-73 28q-46 0 -73 -22t-27 -57q0 -22 16.5 -37.5t42 -26t57 -20t63 -24t57.5 -33.5t42 -51.5t16 -76.5q0 -92 -70 -150.5t-198 -58.5q-89 0 -151 28.5t-96 63.5l96 102q27 -29 71 -54
t98 -25q53 0 79.5 19.5t26.5 54.5q0 21 -12.5 37t-33 25.5t-47 19.5t-54 18.5t-54 22.5t-47.5 31.5t-33.5 45.5t-12.5 64q0 94 72 157.5t183 63.5q35 0 64.5 -6t51 -16t38 -24t27.5 -29t18.5 -32.5t11 -33.5t4.5 -32z" />
    <glyph glyph-name="scircumflex" unicode="&#x15d;" horiz-adv-x="463" 
d="M138 535l110 167h142l71 -167l-103 4l-50 77l-68 -77zM338 307q5 11 5 25q0 25 -16.5 39.5t-46.5 14.5q-33 0 -52 -15t-19 -38q0 -20 18 -32.5t45 -17.5t58 -13.5t58 -19.5t45 -36.5t18 -62.5q0 -47 -26.5 -82.5t-76 -55t-115.5 -19.5q-49 0 -89 9t-64 23t-35 22.5
t-17 15.5l73 83q11 -13 52.5 -35t85.5 -22q34 0 52 11t18 30q0 15 -17 26.5t-42 17.5t-55 16t-55.5 22.5t-42.5 38t-17 61.5q0 75 60 120t157 45q30 0 57 -6t48 -16.5t36 -25.5t22.5 -33.5t7.5 -39.5q0 -10 -2 -21t-4 -16l-3 -6z" />
    <glyph glyph-name="Scedilla" unicode="&#x15e;" horiz-adv-x="553" 
d="M249 471q0 -22 16.5 -37.5t42 -26t57 -20t63 -24t57.5 -33.5t42 -51.5t16 -76.5q0 -85 -60 -142t-171 -66l-12 -20q27 -4 46.5 -23t19.5 -52q0 -49 -36.5 -76.5t-86.5 -27.5q-28 0 -52 10.5t-34 20.5l-10 11l41 59q2 -3 7 -8t21 -13t34 -8q41 0 41 31q0 36 -80 36l33 60
q-77 5 -131 32.5t-85 58.5l96 102q27 -29 71 -54t98 -25q53 0 79.5 19.5t26.5 54.5q0 21 -12.5 37t-33 25.5t-47 19.5t-54 18.5t-54 22.5t-47.5 31.5t-33.5 45.5t-12.5 64q0 94 72 157.5t183 63.5q40 0 73.5 -7.5t56 -21.5t39 -30.5t26 -37t14 -39t6.5 -37.5l-131 -31
q3 31 -22 59t-73 28q-46 0 -73 -22t-27 -57z" />
    <glyph glyph-name="scedilla" unicode="&#x15f;" horiz-adv-x="463" 
d="M459 314l-121 -7q5 11 5 25q0 25 -16.5 39.5t-46.5 14.5q-33 0 -52 -15t-19 -38q0 -20 18 -32.5t45 -17.5t58 -13.5t58 -19.5t45 -36.5t18 -62.5q0 -43 -22 -76t-63.5 -53.5t-97.5 -25.5l-12 -22q27 -4 46.5 -23t19.5 -52q0 -49 -36.5 -76.5t-86.5 -27.5q-29 0 -53 10.5
t-33 20.5l-10 11l40 59q3 -3 7.5 -8t21 -13t34.5 -8q40 0 40 31q0 36 -79 36l33 61q-40 3 -73.5 12.5t-54 22.5t-29.5 20.5t-15 13.5l73 83q11 -13 52.5 -35t85.5 -22q34 0 52.5 11t18.5 30q0 15 -17 26.5t-42.5 17.5t-55.5 16t-55.5 22.5t-42.5 38t-17 61.5q0 75 60 120
t157 45q51 0 90 -15.5t60 -43t21 -62.5q0 -10 -2 -21t-4 -16z" />
    <glyph glyph-name="Scaron" unicode="&#x160;" horiz-adv-x="553" 
d="M214 841l101 -4l53 -57l66 57l103 4l-108 -142h-143zM444 463q3 31 -22 59t-73 28q-46 0 -73 -22t-27 -57q0 -22 16.5 -37.5t42 -26t57 -20t63 -24t57.5 -33.5t42 -51.5t16 -76.5q0 -92 -70 -150.5t-198 -58.5q-89 0 -151 28.5t-96 63.5l96 102q27 -29 71 -54t98 -25
q53 0 79.5 19.5t26.5 54.5q0 21 -12.5 37t-33 25.5t-47 19.5t-54 18.5t-54 22.5t-47.5 31.5t-33.5 45.5t-12.5 64q0 94 72 157.5t183 63.5q35 0 64.5 -6t51 -16t38 -24t27.5 -29t18.5 -32.5t11 -33.5t4.5 -32z" />
    <glyph glyph-name="scaron" unicode="&#x161;" horiz-adv-x="463" 
d="M158 702l101 -4l51 -76l68 76l103 4l-110 -167h-142zM338 307q5 11 5 25q0 25 -16.5 39.5t-46.5 14.5q-33 0 -52 -15t-19 -38q0 -20 18 -32.5t45 -17.5t58 -13.5t58 -19.5t45 -36.5t18 -62.5q0 -71 -59 -114t-159 -43q-49 0 -89 9t-64 23t-34.5 22.5t-17.5 15.5l73 83
q11 -13 52.5 -35t85.5 -22q34 0 52.5 11t18.5 30q0 15 -17 26.5t-42.5 17.5t-55.5 16t-55.5 22.5t-42.5 38t-17 61.5q0 75 60 120t157 45q51 0 90 -15.5t60 -43t21 -62.5q0 -10 -2 -21t-4 -16l-3 -6z" />
    <glyph glyph-name="uni0162" unicode="&#x162;" horiz-adv-x="547" 
d="M92 660h525l-14 -117h-192l-67 -543h-39l-15 -26q27 -4 46.5 -23t19.5 -52q0 -49 -36.5 -76.5t-86.5 -27.5q-28 0 -52 10.5t-34 20.5l-10 11l41 59q2 -3 7 -8t21 -13t34 -8q40 0 40 31q0 36 -79 36l36 66h-35l67 543h-191z" />
    <glyph glyph-name="uni0163" unicode="&#x163;" horiz-adv-x="409" 
d="M268 368l-20 -167q-6 -47 9 -69t52 -22q20 0 39 6.5t28 12.5l8 6l26 -107q-2 -1 -6 -3.5t-17.5 -8t-28 -10t-37.5 -8t-46 -4.5l-12 -20q27 -4 46.5 -23t19.5 -52q0 -49 -36.5 -76.5t-85.5 -27.5q-29 0 -53 10.5t-34 20.5l-10 11l41 59q2 -3 7 -8t21 -13t34 -8q41 0 41 31
q0 36 -80 36l37 66q-121 30 -101 195l21 173h-69l13 104h74l16 133l133 5l-17 -138h157l-12 -104h-158z" />
    <glyph glyph-name="Tcaron" unicode="&#x164;" horiz-adv-x="547" 
d="M219 841l101 -4l53 -57l65 57l104 4l-108 -142h-143zM202 0l67 543h-191l14 117h525l-14 -117h-192l-67 -543h-142z" />
    <glyph glyph-name="tcaron" unicode="&#x165;" horiz-adv-x="409" 
d="M334 546q2 1 6 2.5t14.5 6.5t18.5 10t15.5 13t8.5 15q-25 0 -41.5 17.5t-16.5 42.5q0 30 22 52.5t52 22.5q26 0 43.5 -17.5t17.5 -48.5q0 -27 -6.5 -50t-16.5 -39.5t-22.5 -29.5t-25 -21t-22.5 -13.5t-17 -7.5l-6 -3zM298 610l-17 -138h157l-12 -104h-158l-20 -167
q-6 -47 9 -69t52 -22q20 0 39 6.5t28 12.5l8 6l26 -107q-2 -1 -6.5 -3.5t-18.5 -8.5t-29 -10.5t-39.5 -8t-48.5 -3.5q-90 0 -130 50.5t-28 150.5l21 173h-69l13 104h74l16 133z" />
    <glyph glyph-name="Tbar" unicode="&#x166;" horiz-adv-x="547" 
d="M603 543h-192l-21 -170h120l-11 -88h-120l-35 -285h-142l35 285h-124l11 88h124l21 170h-191l14 117h525z" />
    <glyph glyph-name="tbar" unicode="&#x167;" horiz-adv-x="409" 
d="M426 368h-158l-9 -76h122l-10 -78h-121l-2 -13q-6 -47 9 -69t52 -22q20 0 39 6.5t28 12.5l8 6l26 -107q-2 -1 -6.5 -3.5t-18.5 -8.5t-29 -10.5t-39.5 -8t-48.5 -3.5q-90 0 -130 50.5t-28 150.5l2 19h-64l10 78h64l9 76h-69l13 104h74l16 133l133 5l-17 -138h157z" />
    <glyph glyph-name="Utilde" unicode="&#x168;" horiz-adv-x="651" 
d="M617 842v-19q0 -39 -14 -69t-41 -46.5t-63 -16.5q-25 0 -50 13t-45.5 26t-34.5 13q-6 0 -11.5 -1.5t-10 -5t-7.5 -8t-5 -10.5t-2 -14l3 -18h-90q-2 11 -2 26q0 54 33 86.5t85 32.5q32 0 60 -13t47.5 -25.5t31.5 -12.5q27 0 27 44l-1 18h90zM531 660h142l-49 -400
q-15 -121 -97 -194t-201 -73q-121 0 -185.5 73t-49.5 194l49 400h142l-48 -399q-9 -68 20.5 -106.5t86.5 -38.5q55 0 94 38.5t47 105.5z" />
    <glyph glyph-name="utilde" unicode="&#x169;" horiz-adv-x="536" 
d="M235 533h-89q-1 11 -1 26q0 54 33.5 90t84.5 36q31 0 59 -13t48 -25.5t32 -12.5q27 0 27 44l-1 19h89q1 -9 1 -20q0 -60 -32.5 -96t-86.5 -36q-20 0 -40 8t-33 18t-28 18.5t-26 8.5q-17 0 -27.5 -11.5t-10.5 -33.5zM405 472h137l-58 -472l-112 -4q-7 55 -3 94h-2
q-50 -96 -152 -96q-81 0 -118.5 52t-26.5 136l35 290h138l-33 -266q-5 -43 11.5 -68.5t54.5 -25.5t64 32.5t34 77.5z" />
    <glyph glyph-name="Umacron" unicode="&#x16a;" horiz-adv-x="651" 
d="M260 709l12 94h314l-11 -94h-315zM531 660h142l-49 -400q-15 -121 -97 -194t-201 -73q-121 0 -185.5 73t-49.5 194l49 400h142l-48 -399q-4 -27 -1 -50t12 -40.5t23 -30t32.5 -18.5t40.5 -6q55 0 94 38.5t47 105.5z" />
    <glyph glyph-name="umacron" unicode="&#x16b;" horiz-adv-x="536" 
d="M501 666l-11 -94h-302l11 94h302zM405 472h137l-58 -472l-112 -4q-7 55 -3 94h-2q-50 -96 -152 -96q-81 0 -118.5 52t-26.5 136l35 290h138l-33 -266q-5 -43 11.5 -68.5t54.5 -25.5t64 32.5t34 77.5z" />
    <glyph glyph-name="Ubreve" unicode="&#x16c;" horiz-adv-x="651" 
d="M574 832q-8 -61 -52.5 -100.5t-109.5 -39.5q-67 0 -102.5 39.5t-27.5 100.5h98q-7 -55 41 -55t55 55h98zM531 660h142l-49 -400q-15 -121 -97 -194t-201 -73q-121 0 -185.5 73t-49.5 194l49 400h142l-48 -399q-4 -27 -1 -50t12 -40.5t23 -30t32.5 -18.5t40.5 -6
q55 0 94 38.5t47 105.5z" />
    <glyph glyph-name="ubreve" unicode="&#x16d;" horiz-adv-x="536" 
d="M332 534q-69 0 -104.5 44t-27.5 115h100q-8 -74 41 -74q51 0 59 74h101q-6 -47 -28 -83t-58.5 -56t-82.5 -20zM405 472h137l-58 -472l-112 -4q-7 55 -3 94h-2q-50 -96 -152 -96q-81 0 -118.5 52t-26.5 136l35 290h138l-33 -266q-5 -43 11.5 -68.5t54.5 -25.5t64 32.5
t34 77.5z" />
    <glyph glyph-name="Uring" unicode="&#x16e;" horiz-adv-x="651" 
d="M410 680q-35 0 -59 24t-24 59q0 42 32.5 72t73.5 30q35 0 59 -24t24 -60q0 -41 -32.5 -71t-73.5 -30zM451 775q0 12 -7.5 20t-18.5 8q-13 0 -22.5 -10t-9.5 -24q0 -12 7 -19.5t18 -7.5q13 0 23 10t10 23zM531 660h142l-49 -400q-15 -121 -97 -194t-201 -73
q-121 0 -185.5 73t-49.5 194l49 400h142l-48 -399q-5 -34 1 -61.5t20 -45.5t36 -28t50 -10q55 0 94 38.5t47 105.5z" />
    <glyph glyph-name="uring" unicode="&#x16f;" horiz-adv-x="536" 
d="M330 522q-36 0 -61 25t-25 62q0 43 33.5 74.5t76.5 31.5q36 0 60.5 -25t24.5 -62q0 -21 -9 -41t-24 -34t-35 -22.5t-41 -8.5zM346 650q-14 0 -24.5 -10.5t-10.5 -24.5q0 -4 1 -8t2.5 -7t4 -5.5t5.5 -4.5t6.5 -2.5t7.5 -0.5q14 0 24.5 10.5t10.5 24.5q0 12 -8 20t-19 8z
M405 472h137l-58 -472l-112 -4q-7 55 -3 94h-2q-50 -96 -152 -96q-81 0 -118.5 52t-26.5 136l35 290h138l-33 -266q-5 -43 11.5 -68.5t54.5 -25.5t64 32.5t34 77.5z" />
    <glyph glyph-name="Uhungarumlaut" unicode="&#x170;" horiz-adv-x="651" 
d="M351 700l-111 -6l72 132h154zM545 700l-111 -6l72 132h154zM531 660h142l-49 -400q-15 -121 -97 -194t-201 -73q-121 0 -185.5 73t-49.5 194l49 400h142l-48 -399q-5 -34 1 -61.5t20 -45.5t36 -28t50 -10q55 0 94 38.5t47 105.5z" />
    <glyph glyph-name="uhungarumlaut" unicode="&#x171;" horiz-adv-x="536" 
d="M397 705l-120 -164l-128 -6l77 170h171zM484 541l-128 -6l77 170h171zM374 222l31 250h137l-58 -472l-112 -4q-7 55 -3 94h-2q-50 -96 -152 -96q-81 0 -118.5 52t-26.5 136l35 290h138l-33 -266q-5 -43 11.5 -68.5t54.5 -25.5t64 32.5t34 77.5z" />
    <glyph glyph-name="Uogonek" unicode="&#x172;" horiz-adv-x="651" 
d="M531 660h142l-49 -400q-12 -96 -67 -163t-140 -91q-15 -8 -29 -17.5t-28 -30t-14 -44.5q0 -17 9 -26.5t24 -9.5t28 8t19 15l6 8l25 -64q-5 -5 -13.5 -12t-36 -19.5t-55.5 -12.5q-42 0 -66.5 23.5t-24.5 61.5q0 62 50 107q-115 5 -175 77.5t-45 189.5l49 400h142l-48 -399
q-4 -27 -1 -50t12 -40.5t23 -30t32.5 -18.5t40.5 -6q55 0 94 38.5t47 105.5z" />
    <glyph glyph-name="uogonek" unicode="&#x173;" horiz-adv-x="536" 
d="M436 -132q15 0 28 8t19 15l6 8l24 -64q-4 -5 -12.5 -12t-36 -19.5t-55.5 -12.5q-42 0 -66.5 23.5t-24.5 61.5q0 71 66 120h-12q-7 55 -3 94h-2q-50 -96 -152 -96q-81 0 -118.5 52t-26.5 136l35 290h138l-33 -266q-5 -43 11.5 -68.5t54.5 -25.5t64 32.5t34 77.5l31 250
h137l-58 -472q-3 -1 -8.5 -3.5t-19.5 -11.5t-25 -19t-19.5 -26.5t-8.5 -35.5q0 -17 9 -26.5t24 -9.5z" />
    <glyph glyph-name="Wcircumflex" unicode="&#x174;" horiz-adv-x="890" 
d="M624 836l73 -142l-102 4l-52 56l-67 -56l-102 -4l107 142h143zM823 660h143l-257 -660h-161l-40 340q-5 47 -5 111h-3q-21 -76 -33 -111l-126 -340h-162l-93 660h145l42 -443q1 -11 2.5 -29t2.5 -30.5t2 -21.5h3l26 80l157 444h123l47 -444q6 -69 7 -80h3q3 9 7 22
t10 30.5t9 28.5z" />
    <glyph glyph-name="wcircumflex" unicode="&#x175;" horiz-adv-x="744" 
d="M449 616l-69 -77l-102 -4l111 167h142l70 -167l-102 4zM651 472h139l-188 -472h-157l-32 240q-3 27 -2 53h-3q-8 -33 -15 -53l-93 -240h-156l-75 472h141l28 -280q5 -50 4 -62h3q8 26 21 62l106 279l-1 1h121l36 -278q4 -30 5 -64h3q9 32 19 64z" />
    <glyph glyph-name="Ycircumflex" unicode="&#x176;" horiz-adv-x="574" 
d="M383 754l-66 -56l-102 -4l106 142h144l72 -142l-102 4zM653 660l-264 -417l-30 -243h-142l29 240l-164 420h154l76 -222q17 -51 20 -82h3q13 38 39 82l130 222h149z" />
    <glyph glyph-name="ycircumflex" unicode="&#x177;" horiz-adv-x="506" 
d="M159 535l111 167h142l70 -167l-102 4l-50 77l-69 -77zM419 472h138l-255 -535q-32 -67 -84 -107t-123 -40q-24 0 -45 5t-30 10l-10 4l33 105q24 -14 54 -14q54 0 86 56l11 22l-127 494h146l55 -280q6 -32 6 -62h3q8 26 22 62z" />
    <glyph glyph-name="Ydieresis" unicode="&#x178;" horiz-adv-x="574" 
d="M279 702q-25 0 -42 17.5t-17 43.5q0 30 23 52t53 22q25 0 42 -17.5t17 -43.5q0 -30 -23 -52t-53 -22zM479 702q-25 0 -42 17.5t-17 43.5q0 29 23 51.5t53 22.5q25 0 42 -17.5t17 -43.5q0 -30 -22.5 -52t-53.5 -22zM653 660l-264 -417l-30 -243h-142l29 240l-164 420h154
l76 -222q17 -51 20 -82h3q13 38 39 82l130 222h149z" />
    <glyph glyph-name="Zacute" unicode="&#x179;" horiz-adv-x="562" 
d="M423 700l-128 -6l72 132h172zM30 0l15 113l320 365q36 38 65 65l-2 3q-25 -3 -88 -3h-233l14 117h490l-14 -113l-318 -365q-29 -32 -67 -65l2 -3q18 3 88 3h238l-14 -117h-496z" />
    <glyph glyph-name="zacute" unicode="&#x17a;" horiz-adv-x="457" 
d="M346 541l-122 -6l77 169h165zM29 0l12 99l246 244q21 20 27 25l-1 3q-17 -3 -54 -3h-178l12 104h388l-12 -99l-236 -237q-17 -18 -32 -32l1 -3q17 3 52 3h188l-13 -104h-400z" />
    <glyph glyph-name="Zdotaccent" unicode="&#x17b;" horiz-adv-x="562" 
d="M367 693q-31 0 -51.5 20.5t-20.5 51.5q0 37 27.5 62.5t64.5 25.5q32 0 53 -20.5t21 -51.5q0 -25 -13 -45t-34.5 -31.5t-46.5 -11.5zM30 0l15 113l320 365q36 38 65 65l-2 3q-25 -3 -88 -3h-233l14 117h490l-14 -113l-318 -365q-29 -32 -67 -65l2 -3q18 3 88 3h238
l-14 -117h-496z" />
    <glyph glyph-name="zdotaccent" unicode="&#x17c;" horiz-adv-x="457" 
d="M400 632q0 -26 -14 -48t-36.5 -34t-49.5 -12q-34 0 -56 21.5t-22 54.5q0 40 29.5 67t70.5 27q34 0 56 -21.5t22 -54.5zM29 0l12 99l246 244q21 20 27 25l-1 3q-17 -3 -54 -3h-178l12 104h388l-12 -99l-236 -237q-17 -18 -32 -32l1 -3q17 3 52 3h188l-13 -104h-400z" />
    <glyph glyph-name="Zcaron" unicode="&#x17d;" horiz-adv-x="562" 
d="M227 841l101 -4l52 -57l66 57l104 4l-108 -142h-144zM30 0l15 113l320 365q36 38 65 65l-2 3q-25 -3 -88 -3h-233l14 117h490l-14 -113l-318 -365q-29 -32 -67 -65l2 -3q18 3 88 3h238l-14 -117h-496z" />
    <glyph glyph-name="zcaron" unicode="&#x17e;" horiz-adv-x="457" 
d="M160 702l101 -4l50 -76l68 76l103 4l-110 -167h-142zM29 0l12 99l246 244q21 20 27 25l-1 3q-17 -3 -54 -3h-178l12 104h388l-12 -99l-236 -237q-17 -18 -32 -32l1 -3q17 3 52 3h188l-13 -104h-400z" />
    <glyph glyph-name="uni01EA" unicode="&#x1ea;" horiz-adv-x="690" 
d="M424 2q-67 -35 -67 -89q0 -18 9 -27t24 -9t28 7.5t19 15.5l6 7l25 -63q-5 -5 -13.5 -12.5t-36 -19.5t-55.5 -12q-42 0 -66.5 23t-24.5 61q0 64 52 110q-115 6 -183.5 84.5t-68.5 207.5q0 171 100 276t254 105q124 0 198.5 -79t74.5 -213q0 -148 -76 -247.5t-199 -125.5z
M216 295q0 -83 39 -130.5t104 -47.5q54 0 98.5 29.5t71 86.5t26.5 132q0 83 -39.5 131t-104.5 48q-83 0 -139 -68t-56 -181z" />
    <glyph glyph-name="uni01EB" unicode="&#x1eb;" horiz-adv-x="536" 
d="M353 6q-65 -34 -65 -88q0 -17 9 -26.5t24 -9.5t28 7.5t19 15.5l6 8l25 -64q-5 -5 -13.5 -12.5t-36 -19.5t-55.5 -12q-42 0 -66.5 23.5t-24.5 60.5q0 61 47 105q-60 4 -104 31.5t-67 74t-23 106.5q0 117 76.5 194.5t194.5 77.5q97 0 154 -58.5t57 -153.5q0 -63 -23 -116.5
t-64.5 -90t-97.5 -53.5zM195 214q0 -49 22.5 -78.5t63.5 -29.5q53 0 86 42.5t33 108.5q0 50 -23 79.5t-64 29.5q-35 0 -62 -20t-41.5 -54.5t-14.5 -77.5z" />
    <glyph glyph-name="AEacute" unicode="&#x1fc;" horiz-adv-x="952" 
d="M771 826l-115 -126l-128 -6l72 132h171zM940 543h-282l-18 -152h242l-13 -111h-243l-20 -163h281l-14 -117h-423l17 141h-227l-112 -141h-145l523 660h448zM324 247h156l29 234z" />
    <glyph glyph-name="aeacute" unicode="&#x1fd;" horiz-adv-x="794" 
d="M628 704l-120 -163l-122 -6l77 169h165zM612 478q87 0 135.5 -53t48.5 -140q0 -20 -3 -40t-7 -30l-3 -10h-301q4 -49 32 -78t80 -29q70 0 123 54l54 -75q-28 -35 -82 -59t-124 -24q-129 0 -177 94h-8q-8 -14 -21 -27t-36 -30t-59.5 -27t-80.5 -10q-67 0 -103 30.5
t-36 83.5q0 38 15 67t41.5 47.5t65.5 30.5t83.5 16.5t99.5 4.5h6l3 21q4 37 -13.5 58.5t-56.5 21.5t-61 -16t-22 -43q0 -9 3 -15l-122 -20q-2 12 -2 29q0 76 60.5 122t161.5 46q94 0 142 -59q66 59 164 59zM599 374q-39 0 -68.5 -26t-41.5 -72h183q1 6 1 12q0 38 -19.5 62
t-54.5 24zM234 95q44 0 74.5 24t34.5 56l4 30h-6q-83 0 -122 -16.5t-39 -52.5q0 -20 14.5 -30.5t39.5 -10.5z" />
    <glyph glyph-name="Oslashacute" unicode="&#x1fe;" horiz-adv-x="690" 
d="M598 825l-115 -126l-128 -6l72 132h171zM717 688l-83 -111q65 -78 65 -202q0 -172 -100.5 -277t-255.5 -105q-70 0 -126 27l-49 -64h-113l89 119q-72 79 -72 211q0 171 100 276t254 105q78 0 138 -32l40 53h113zM216 295q0 -57 19 -98l247 328q-31 19 -71 19
q-83 0 -139 -68t-56 -181zM555 365q0 49 -15 87l-242 -322q28 -14 61 -14q54 0 98.5 30t71 87t26.5 132z" />
    <glyph glyph-name="oslashacute" unicode="&#x1ff;" horiz-adv-x="536" 
d="M506 704l-119 -163l-123 -6l77 169h165zM477 424q61 -59 61 -158q0 -119 -76 -195.5t-195 -76.5q-54 0 -97 19l-32 -42h-78l57 77q-61 58 -61 158q0 117 76.5 194.5t194.5 77.5q55 0 98 -20l28 37h77zM195 214q0 -29 8 -51l147 195q-16 8 -37 8q-35 0 -62 -20
t-41.5 -54.5t-14.5 -77.5zM281 106q53 0 85.5 42.5t32.5 108.5q0 29 -8 52l-146 -195q16 -8 36 -8z" />
    <glyph glyph-name="Scommaaccent" unicode="&#x218;" horiz-adv-x="553" 
d="M444 463q3 31 -22 59t-73 28q-46 0 -73 -22t-27 -57q0 -22 16.5 -37.5t42 -26t57 -20t63 -24t57.5 -33.5t42 -51.5t16 -76.5q0 -92 -70 -150.5t-198 -58.5q-89 0 -151 28.5t-96 63.5l96 102q27 -29 71 -54t98 -25q53 0 79.5 19.5t26.5 54.5q0 21 -12.5 37t-33 25.5
t-47 19.5t-54 18.5t-54 22.5t-47.5 31.5t-33.5 45.5t-12.5 64q0 94 72 157.5t183 63.5q35 0 64.5 -6t51 -16t38 -24t27.5 -29t18.5 -32.5t11 -33.5t4.5 -32zM193 -119q0 21 11 39.5t29 29t38 10.5q18 0 33 -7.5t24.5 -23.5t9.5 -39q0 -27 -7 -52.5t-18 -43t-24.5 -33
t-27 -25t-24.5 -16.5t-18 -10l-7 -2l-25 51q2 1 6.5 3t15.5 9t19.5 14t16.5 16t9 17q-27 0 -44 18t-17 45z" />
    <glyph glyph-name="scommaaccent" unicode="&#x219;" horiz-adv-x="463" 
d="M338 307q5 11 5 25q0 17 -7 29t-21.5 18.5t-34.5 6.5q-33 0 -52 -15t-19 -38q0 -20 18 -32.5t45 -17.5t58 -13.5t58 -19.5t44.5 -36.5t17.5 -62.5q0 -71 -58.5 -114t-158.5 -43q-49 0 -89 9t-64 23t-35 22.5t-17 15.5l73 83q11 -13 52.5 -35t85.5 -22q17 0 30.5 2.5
t22.5 8t13 13t4 17.5q0 15 -17 26.5t-42 17.5t-55 16t-55.5 22.5t-42.5 38t-17 61.5q0 75 60 120t157 45q77 0 124 -34t47 -87q0 -10 -2 -21t-4 -16l-3 -6zM148 -119q0 21 11 39.5t29 29t39 10.5q18 0 32.5 -7.5t24 -23.5t9.5 -39q0 -27 -7 -52.5t-18 -43t-24.5 -33
t-26.5 -25t-24.5 -16.5t-18.5 -10l-7 -3l-25 52q7 3 17.5 9t29.5 21.5t21 28.5q-27 0 -44.5 18t-17.5 45z" />
    <glyph glyph-name="uni021A" unicode="&#x21a;" horiz-adv-x="547" 
d="M202 0l67 543h-191l14 117h525l-14 -117h-192l-67 -543h-142zM182 -119q0 16 6.5 31t17.5 25.5t25.5 16.5t29.5 6q28 0 47 -18t19 -52q0 -27 -6.5 -52.5t-18 -43t-24.5 -33t-26.5 -25t-24.5 -16.5t-18 -10l-7 -2l-26 51q7 3 18 9t29.5 21.5t20.5 28.5q-27 0 -44.5 18
t-17.5 45z" />
    <glyph glyph-name="uni021B" unicode="&#x21b;" horiz-adv-x="409" 
d="M268 368l-20 -167q-6 -47 9 -69t52 -22q20 0 39 6.5t28 12.5l8 6l26 -107q-2 -1 -6.5 -3.5t-18.5 -8.5t-29 -10.5t-39.5 -8t-48.5 -3.5q-90 0 -130 50.5t-28 150.5l21 173h-69l13 104h74l16 133l133 5l-17 -138h157l-12 -104h-158zM234 -40q28 0 47.5 -18t19.5 -52
q0 -27 -7 -52.5t-18 -43t-24.5 -33t-27 -25t-24.5 -16.5t-18 -10l-7 -3l-25 52q2 1 6.5 3t15.5 9t19.5 14t16.5 16t9 17q-27 0 -44 18t-17 45q0 32 23.5 55.5t54.5 23.5z" />
    <glyph glyph-name="uni0237" unicode="&#x237;" horiz-adv-x="249" 
d="M-59 -82q14 -12 40 -12q35 0 53.5 23.5t23.5 66.5l59 476l138 4l-59 -477q-12 -98 -64 -153t-146 -55q-32 0 -56 8t-32 15l-8 8z" />
    <glyph glyph-name="circumflex" unicode="&#x2c6;" horiz-adv-x="370" 
d="M88 535l111 167h142l70 -167l-102 4l-50 77l-69 -77z" />
    <glyph glyph-name="caron" unicode="&#x2c7;" horiz-adv-x="348" 
d="M109 702l101 -4l50 -76l68 76l104 4l-111 -167h-142z" />
    <glyph glyph-name="breve" unicode="&#x2d8;" horiz-adv-x="342" 
d="M407 693q-9 -71 -55 -115t-114 -44q-69 0 -105 44t-27 115h100q-9 -74 41 -74t59 74h101z" />
    <glyph glyph-name="dotaccent" unicode="&#x2d9;" horiz-adv-x="225" 
d="M278 632q0 -26 -14 -48t-36.5 -34t-49.5 -12q-11 0 -21 2.5t-19 7.5t-16 11.5t-11.5 15t-7.5 18.5t-3 21q0 40 29.5 67t70.5 27q34 0 56 -21.5t22 -54.5z" />
    <glyph glyph-name="ring" unicode="&#x2da;" horiz-adv-x="273" 
d="M201 522q-37 0 -62 25t-25 62q0 43 33.5 74.5t76.5 31.5q36 0 61 -25t25 -62q0 -28 -16 -52.5t-41 -39t-52 -14.5zM243 622q0 12 -7.5 20t-19.5 8q-14 0 -24 -10.5t-10 -24.5q0 -12 7.5 -20t19.5 -8q13 0 23.5 10.5t10.5 24.5z" />
    <glyph glyph-name="ogonek" unicode="&#x2db;" horiz-adv-x="272" 
d="M213 -164q-5 -5 -13.5 -12.5t-35.5 -19.5t-56 -12q-41 0 -66 23.5t-25 60.5q0 25 8.5 47.5t21.5 38.5t29 29.5t32 21.5t29 14t22 9l8 2l16 -38q-3 -1 -8.5 -3.5t-19.5 -11t-24.5 -18.5t-19.5 -27t-9 -35q0 -17 9 -26.5t24 -9.5t28 7.5t19 15.5l6 8z" />
    <glyph glyph-name="tilde" unicode="&#x2dc;" horiz-adv-x="425" 
d="M470 696q1 -8 1 -19q0 -60 -32 -96t-87 -36q-25 0 -49.5 13t-44.5 26.5t-33 13.5q-17 0 -27.5 -11.5t-10.5 -33.5l1 -20h-89q-1 11 -1 26q0 54 34 90t85 36q30 0 58 -13t48 -25.5t32 -12.5q28 0 28 44l-2 18h89z" />
    <glyph glyph-name="hungarumlaut" unicode="&#x2dd;" horiz-adv-x="500" 
d="M227 541l-128 -6l76 170h172zM434 541l-128 -6l76 170h171z" />
    <glyph glyph-name="gravecomb" unicode="&#x300;" 
d="M-96 535l-79 169h167l37 -163z" />
    <glyph glyph-name="acutecomb" unicode="&#x301;" 
d="M-63 541l-122 -6l77 169h165z" />
    <glyph glyph-name="uni0302" unicode="&#x302;" 
d="M-282 535l111 167h142l70 -167l-102 4l-50 77l-69 -77z" />
    <glyph glyph-name="tildecomb" unicode="&#x303;" 
d="M46 696q1 -8 1 -19q0 -60 -32 -96t-87 -36q-25 0 -49.5 13t-44.5 26.5t-33 13.5q-17 0 -27.5 -11.5t-10.5 -33.5l1 -20h-89q-1 11 -1 26q0 54 34 90t85 36q30 0 58 -13t48 -25.5t32 -12.5q28 0 28 44l-2 18h89z" />
    <glyph glyph-name="uni0304" unicode="&#x304;" 
d="M-281 572l12 94h302l-12 -94h-302z" />
    <glyph glyph-name="uni0306" unicode="&#x306;" 
d="M64 693q-8 -71 -54 -115t-114 -44q-70 0 -105.5 44t-26.5 115h100q-9 -74 41 -74t59 74h100z" />
    <glyph glyph-name="uni0307" unicode="&#x307;" 
d="M52 632q0 -26 -13.5 -48t-36.5 -34t-49 -12q-34 0 -56 21.5t-22 54.5q0 40 29 67t70 27q34 0 56 -21.5t22 -54.5z" />
    <glyph glyph-name="uni0308" unicode="&#x308;" 
d="M-219 550q-17 0 -31 8t-22 22.5t-8 31.5q0 31 23.5 54t54.5 23q26 0 43 -18.5t17 -44.5q0 -21 -10.5 -38.5t-28.5 -27.5t-38 -10zM-21 550q-25 0 -42.5 18t-17.5 44q0 31 23.5 54t54.5 23q17 0 31 -8.5t21.5 -23t7.5 -31.5q0 -20 -10.5 -38t-28.5 -28t-39 -10z" />
    <glyph glyph-name="uni030A" unicode="&#x30a;" 
d="M-72 522q-37 0 -62 25t-25 62q0 43 33.5 74.5t76.5 31.5q36 0 61 -25t25 -62q0 -28 -15.5 -52.5t-41 -39t-52.5 -14.5zM-30 622q0 12 -7.5 20t-19.5 8q-14 0 -24 -10.5t-10 -24.5q0 -12 7.5 -20t19.5 -8q13 0 23.5 10.5t10.5 24.5z" />
    <glyph glyph-name="uni030B" unicode="&#x30b;" 
d="M-274 541l-127 -6l76 170h172zM-66 541l-128 -6l76 170h171z" />
    <glyph glyph-name="uni030C" unicode="&#x30c;" 
d="M-239 702l101 -4l50 -76l68 76l104 4l-111 -167h-142z" />
    <glyph glyph-name="uni0326" unicode="&#x326;" 
d="M-196 -119q0 16 6.5 31t17.5 25.5t25.5 16.5t29.5 6q28 0 47 -18t19 -52q0 -27 -6.5 -52.5t-18 -43t-24.5 -33t-26.5 -25t-24.5 -16.5t-18 -10l-7 -2l-26 51q7 3 18 9t29.5 21.5t20.5 28.5q-18 0 -32 8.5t-22 23t-8 31.5z" />
    <glyph glyph-name="uni0327" unicode="&#x327;" 
d="M-110 -26q28 -4 47 -23t19 -52q0 -49 -36.5 -76.5t-85.5 -27.5q-29 0 -53 10.5t-34 20.5l-9 11l40 59q3 -3 7.5 -8t20.5 -13t34 -8q41 0 41 31q0 36 -79 36l43 79h68z" />
    <glyph glyph-name="uni0328" unicode="&#x328;" 
d="M-59 -164q-4 -5 -13 -12.5t-36 -19.5t-55 -12q-42 0 -67 23.5t-25 60.5q0 25 8.5 47.5t21.5 38.5t29 29.5t32 21.5t29.5 14t21.5 9l8 2l17 -38q-4 -1 -9.5 -3.5t-19.5 -11t-24.5 -18.5t-19.5 -27t-9 -35q0 -17 9.5 -26.5t24.5 -9.5q14 0 27 7.5t19 15.5l6 8z" />
    <glyph glyph-name="uni0335" unicode="&#x335;" 
d="M-330 234h323l-10 -78h-323z" />
    <glyph glyph-name="uni0336" unicode="&#x336;" 
d="M-375 244h386l-11 -88h-386z" />
    <glyph glyph-name="uni0337" unicode="&#x337;" 
d="M-312 343l315 171l30 -68l-315 -172z" />
    <glyph glyph-name="uni0338" unicode="&#x338;" 
d="M-79 504h78l-392 -524h-79z" />
    <glyph glyph-name="Wgrave" unicode="&#x1e80;" horiz-adv-x="890" 
d="M474 694l-84 132h171l41 -126zM823 660h143l-257 -660h-161l-40 340q-5 47 -5 111h-3q-21 -76 -33 -111l-126 -340h-162l-93 660h145l42 -443q1 -10 2 -23t2 -22t2 -19t1 -17h3l26 80l157 444h123l47 -444q6 -69 7 -80h3q3 9 7 22t10 30.5t9 28.5z" />
    <glyph glyph-name="wgrave" unicode="&#x1e81;" horiz-adv-x="744" 
d="M503 541l-124 -6l-79 169h167zM651 472h139l-188 -472h-157l-32 240q-3 27 -2 53h-3q-8 -33 -15 -53l-93 -240h-156l-75 472h141l28 -280q5 -50 4 -62h3q8 26 21 62l106 279l-1 1h121l36 -278q4 -30 5 -64h3q9 32 19 64z" />
    <glyph glyph-name="Wacute" unicode="&#x1e82;" horiz-adv-x="890" 
d="M589 700l-128 -6l72 132h171zM823 660h143l-257 -660h-161l-40 340q-5 47 -5 111h-3q-21 -76 -33 -111l-126 -340h-162l-93 660h145l42 -443q1 -8 1.5 -18t1.5 -18t1.5 -16.5t1.5 -15.5t1 -13h3l26 80l157 444h123l47 -444q6 -69 7 -80h3q3 9 7 22t10 30.5t9 28.5z" />
    <glyph glyph-name="wacute" unicode="&#x1e83;" horiz-adv-x="744" 
d="M621 704l-120 -163l-122 -6l77 169h165zM651 472h139l-188 -472h-157l-32 240q-3 27 -2 53h-3q-8 -33 -15 -53l-93 -240h-156l-75 472h141l28 -280q5 -50 4 -62h3q8 26 21 62l106 279l-1 1h121l36 -278q4 -30 5 -64h3q9 32 19 64z" />
    <glyph glyph-name="Wdieresis" unicode="&#x1e84;" horiz-adv-x="890" 
d="M439 702q-25 0 -42 17.5t-17 43.5q0 30 23 52t53 22q25 0 42 -17.5t17 -43.5q0 -30 -23 -52t-53 -22zM639 702q-25 0 -42 17.5t-17 43.5q0 29 23 51.5t53 22.5q25 0 42 -17.5t17 -43.5q0 -30 -22.5 -52t-53.5 -22zM823 660h143l-257 -660h-161l-40 340q-5 47 -5 111h-3
q-21 -76 -33 -111l-126 -340h-162l-93 660h145l42 -443q1 -11 2.5 -29t3 -30.5t1.5 -21.5h3l26 80l157 444h123l47 -444q6 -69 7 -80h3q3 9 7 22t10 30.5t9 28.5z" />
    <glyph glyph-name="wdieresis" unicode="&#x1e85;" horiz-adv-x="744" 
d="M345 550q-17 0 -31 8t-22 22.5t-8 31.5q0 31 23.5 54t54.5 23q17 0 30.5 -8.5t21.5 -23t8 -31.5q0 -21 -10.5 -38.5t-28.5 -27.5t-38 -10zM543 550q-25 0 -42.5 18t-17.5 44q0 31 23.5 54t53.5 23q27 0 44 -18.5t17 -44.5q0 -10 -2.5 -20t-8 -18.5t-12.5 -15.5
t-15.5 -11.5t-18.5 -7.5t-21 -3zM651 472h139l-188 -472h-157l-32 240q-3 27 -2 53h-3q-8 -33 -15 -53l-93 -240h-156l-75 472h141l28 -280q5 -50 4 -62h3q8 26 21 62l106 279l-1 1h121l36 -278q4 -30 5 -64h3q9 32 19 64z" />
    <glyph glyph-name="Ygrave" unicode="&#x1ef2;" horiz-adv-x="574" 
d="M443 700l-129 -6l-83 132h171zM653 660l-264 -417l-30 -243h-142l29 240l-164 420h154l76 -222q17 -51 20 -82h3q13 38 39 82l130 222h149z" />
    <glyph glyph-name="ygrave" unicode="&#x1ef3;" horiz-adv-x="506" 
d="M260 535l-79 169h167l37 -163zM419 472h138l-255 -535q-32 -67 -84 -107t-123 -40q-24 0 -45 5t-30 10l-10 4l33 105q24 -14 54 -14q54 0 86 56l11 22l-128 494h147l55 -280q6 -32 6 -62h3q8 26 22 62z" />
    <glyph glyph-name="uni1EF8" unicode="&#x1ef8;" horiz-adv-x="574" 
d="M295 686l-89 1q-2 10 -2 25q0 55 33 87t85 32q31 0 59 -13t48 -25.5t31 -12.5q28 0 28 44l-1 18h89q1 -8 1 -19q0 -60 -32 -96t-86 -36q-25 0 -50.5 13t-45.5 26t-34 13q-16 0 -26 -10.5t-10 -28.5zM653 660l-264 -417l-30 -243h-142l29 240l-164 420h154l76 -222
q17 -51 20 -82h3q13 38 39 82l130 222h149z" />
    <glyph glyph-name="uni1EF9" unicode="&#x1ef9;" horiz-adv-x="506" 
d="M505 696q1 -8 1 -19q0 -60 -32.5 -96t-87.5 -36q-19 0 -39 8t-33.5 18t-28.5 18.5t-25 8.5q-17 0 -28 -11.5t-11 -33.5l2 -20h-89q-1 11 -1 26q0 54 33.5 90t84.5 36q31 0 59 -13t48 -25.5t32 -12.5q27 0 27 44l-1 18h89zM419 472h138l-255 -535q-32 -67 -84 -107
t-123 -40q-24 0 -45 5t-30 10l-10 4l33 105q24 -14 54 -14q54 0 86 56l11 22l-128 494h147l55 -280q6 -32 6 -62h3q8 26 22 62z" />
    <glyph glyph-name="endash" unicode="&#x2013;" horiz-adv-x="461" 
d="M75 225l12 94h366l-12 -94h-366z" />
    <glyph glyph-name="emdash" unicode="&#x2014;" horiz-adv-x="712" 
d="M75 225l12 94h618l-12 -94h-618z" />
    <glyph glyph-name="quoteleft" unicode="&#x2018;" horiz-adv-x="237" 
d="M252 435q0 -36 -24.5 -60t-63.5 -24q-33 0 -55.5 22t-22.5 64q0 45 15 85.5t36.5 65.5t43 43t36.5 26l15 8l40 -59q-2 -1 -5 -3t-12 -7.5t-17 -12t-18 -16t-17.5 -19.5t-13.5 -22t-8 -24q32 0 51.5 -19t19.5 -48z" />
    <glyph glyph-name="quoteright" unicode="&#x2019;" horiz-adv-x="235" 
d="M110 583q0 37 25 61t64 24q33 0 55.5 -22.5t22.5 -63.5q0 -46 -15 -86t-36.5 -65t-43 -43.5t-36.5 -26.5l-15 -7l-40 59q4 2 9.5 5t20.5 14t26.5 22.5t22 28.5t12.5 34q-32 0 -52 18.5t-20 47.5z" />
    <glyph glyph-name="quotesinglbase" unicode="&#x201a;" horiz-adv-x="242" 
d="M44 61q0 36 25 60t64 24q33 0 55.5 -22.5t22.5 -63.5q0 -45 -15 -85.5t-36.5 -65.5t-43 -43.5t-36.5 -25.5l-15 -8l-40 59q4 2 9.5 5.5t20 14t26.5 22t22.5 28.5t12.5 34q-32 0 -52 19t-20 48z" />
    <glyph glyph-name="quotedblleft" unicode="&#x201c;" horiz-adv-x="434" 
d="M200 438q0 -37 -24.5 -60.5t-63.5 -23.5q-34 0 -56.5 22t-22.5 63q0 33 8 64t21 53t28.5 41.5t31.5 32t28.5 21.5t21.5 13l8 4l39 -60q-3 -1 -9 -4.5t-20.5 -14.5t-26 -22.5t-22 -28.5t-12.5 -34q31 0 51 -18.5t20 -47.5zM388 438q0 -37 -24.5 -60.5t-63.5 -23.5
q-34 0 -56.5 22t-22.5 63q0 34 8 64.5t21 52.5t28.5 41.5t31.5 32t28.5 21.5t21.5 13l8 4l39 -60q-3 -1 -9 -4.5t-20.5 -14.5t-26 -22.5t-22 -28.5t-12.5 -34q31 0 51 -18.5t20 -47.5z" />
    <glyph glyph-name="quotedblright" unicode="&#x201d;" horiz-adv-x="431" 
d="M198 668q16 0 30 -5.5t24.5 -16t17 -27t6.5 -37.5q0 -46 -15 -86t-36.5 -65t-43 -43.5t-36.5 -26.5l-15 -7l-40 59q4 2 9.5 5t20.5 14t26.5 22.5t22 28.5t12.5 34q-32 0 -52 18.5t-20 47.5q0 37 25 61t64 24zM394 668q33 0 55.5 -22.5t22.5 -63.5q0 -46 -15 -86
t-36.5 -65t-43 -43.5t-36.5 -26.5l-15 -7l-40 59q4 1 9.5 4.5t20.5 14.5t26.5 22.5t22 28.5t12.5 34q-16 0 -29 5t-22.5 13.5t-14.5 21t-5 26.5q0 24 11 43t31 30.5t46 11.5z" />
    <glyph glyph-name="quotedblbase" unicode="&#x201e;" horiz-adv-x="444" 
d="M44 61q0 36 25 60t64 24q33 0 55.5 -22.5t22.5 -63.5q0 -45 -15 -85.5t-36.5 -65.5t-43 -43.5t-36.5 -25.5l-15 -8l-40 59q4 2 9.5 5.5t20 14t26.5 22t22.5 28.5t12.5 34q-32 0 -52 19t-20 48zM251 61q0 36 24.5 60t63.5 24q33 0 55.5 -22.5t22.5 -63.5q0 -46 -15 -86
t-36.5 -65t-43 -43.5t-36.5 -25.5l-15 -8l-39 59l35 24q50 40 55 80q-32 0 -51.5 19t-19.5 48z" />
    <glyph glyph-name="dagger" unicode="&#x2020;" horiz-adv-x="395" 
d="M412 472l-11 -91l-109 3l-24 -161l-41 -427h-109l61 427l17 161l-110 -3l11 91l108 -4l19 191h109l-29 -191z" />
    <glyph glyph-name="daggerdbl" unicode="&#x2021;" horiz-adv-x="395" 
d="M401 377l-110 5l-21 -145l-14 -146l111 5l-11 -90l-110 4l-20 -214h-109l34 214l-111 -4l11 90l109 -5l21 146l15 145l-111 -5l12 92l110 -4l16 195h109l-31 -195l112 4z" />
    <glyph glyph-name="bullet" unicode="&#x2022;" horiz-adv-x="369" 
d="M350 303q0 -58 -44 -101t-102 -43q-33 0 -59 15.5t-40 42.5t-14 59q0 58 43.5 101.5t101.5 43.5q32 0 58 -16t41 -42.5t15 -59.5z" />
    <glyph glyph-name="ellipsis" unicode="&#x2026;" horiz-adv-x="642" 
d="M44 64q0 35 26.5 60.5t61.5 25.5q29 0 48.5 -20.5t19.5 -49.5q0 -35 -26.5 -60.5t-61.5 -25.5q-30 0 -49 20t-19 50zM252 64q0 35 26 60.5t62 25.5q29 0 48.5 -20.5t19.5 -49.5q0 -35 -26.5 -60.5t-61.5 -25.5q-30 0 -49 20t-19 50zM460 64q0 35 26.5 60.5t61.5 25.5
q19 0 35 -9.5t25 -25.5t9 -35q0 -35 -27 -60.5t-62 -25.5q-14 0 -27 5.5t-21.5 14.5t-14 22t-5.5 28z" />
    <glyph glyph-name="perthousand" unicode="&#x2030;" horiz-adv-x="1275" 
d="M245 0l374 667h109l-373 -667h-110zM236 290q-71 0 -113 44t-42 116q0 94 56.5 154t143.5 60q72 0 114 -45t42 -118q0 -94 -57 -152.5t-144 -58.5zM248 388q35 0 57.5 28.5t22.5 73.5q0 35 -15.5 55t-43.5 20q-33 0 -56 -29.5t-23 -74.5q0 -33 15.5 -53t42.5 -20zM685 -4
q-72 0 -113.5 43.5t-41.5 116.5q0 94 56.5 154t144.5 60q71 0 113 -45t42 -118q0 -94 -57 -152.5t-144 -58.5zM1074 -4q-72 0 -113.5 43.5t-41.5 116.5q0 47 15 86.5t41.5 67.5t63.5 44t80 16q71 0 113 -44.5t42 -118.5q0 -94 -56.5 -152.5t-143.5 -58.5zM697 94
q35 0 57.5 28.5t22.5 73.5q0 22 -7 39t-20 26.5t-31 9.5q-34 0 -57 -29t-23 -75q0 -33 15.5 -53t42.5 -20zM1085 94q35 0 57.5 28.5t22.5 73.5q0 35 -15.5 55t-42.5 20q-34 0 -57 -29.5t-23 -74.5q0 -22 7 -38.5t20.5 -25.5t30.5 -9z" />
    <glyph glyph-name="guilsinglleft" unicode="&#x2039;" horiz-adv-x="287" 
d="M59 212l13 105l173 140l55 -73l-145 -120l116 -119l-74 -73z" />
    <glyph glyph-name="guilsinglright" unicode="&#x203a;" horiz-adv-x="287" 
d="M107 72l-56 73l145 119l-116 120l75 73l138 -140l-14 -105z" />
    <glyph glyph-name="fraction" unicode="&#x2044;" horiz-adv-x="345" 
d="M4 0l300 727h128l-300 -727h-128z" />
    <glyph glyph-name="Euro" unicode="&#x20ac;" horiz-adv-x="699" 
d="M438 116q38 0 74 15t58 33t40 40l73 -88q-15 -19 -36.5 -37.5t-54 -39t-78 -33.5t-95.5 -13q-107 0 -177 61t-86 168h-100l26 80h70q1 27 5 53h-85l27 80h77q38 108 125.5 170t201.5 62q40 0 75.5 -9t60 -22t45.5 -30.5t32 -31.5t20 -29l-95 -88q-20 36 -56 61.5
t-92 25.5q-49 0 -95 -27.5t-73 -81.5h231l-27 -80h-229q-4 -25 -4 -53h217l-27 -80h-181q16 -53 52 -79.5t81 -26.5z" />
    <glyph glyph-name="trademark" unicode="&#x2122;" horiz-adv-x="690" 
d="M110 660h249l-9 -73h-84l-26 -205h-80l26 205h-85zM623 660h91l-34 -278h-77l20 149l-78 -149h-58l-40 149l-16 -149h-77l34 278h92l49 -174z" />
    <glyph glyph-name="minus" unicode="&#x2212;" horiz-adv-x="471" 
d="M76 196l12 89h366l-12 -89h-366z" />
    <glyph glyph-name="uni2215" unicode="&#x2215;" horiz-adv-x="413" 
d="M-3 0l383 726h128l-382 -726h-129z" />
    <glyph glyph-name="uni2219" unicode="&#x2219;" horiz-adv-x="325" 
d="M189 211q-25 0 -41.5 17t-16.5 42q0 30 22.5 51.5t51.5 21.5q25 0 41 -17t16 -42q0 -30 -21.5 -51.5t-51.5 -21.5z" />
    <glyph glyph-name="approxequal" unicode="&#x2248;" horiz-adv-x="526" 
d="M88 268l11 91q48 33 110 33q41 0 100 -20t100 -20q25 0 56.5 7.5t53.5 22.5l-12 -91q-50 -33 -109 -33q-41 0 -100.5 20t-100.5 20q-24 0 -55.5 -8t-53.5 -22zM67 94l11 91q48 33 110 33q40 0 99.5 -20t100.5 -20q24 0 56 8t53 22l-11 -91q-51 -33 -109 -33
q-41 0 -100.5 20t-100.5 20q-25 0 -56.5 -7.5t-52.5 -22.5z" />
    <glyph glyph-name="notequal" unicode="&#x2260;" horiz-adv-x="488" 
d="M473 295h-138l-47 -114h170l-10 -88h-196l-38 -93h-77l38 93h-112l11 88h137l48 114h-171l11 89h196l36 88h76l-36 -88h113z" />
    <glyph glyph-name="uniF8FF" unicode="&#xf8ff;" horiz-adv-x="1468" 
d="M725 583q0 26 17.5 44t43.5 18t44 -18t18 -44t-18 -43.5t-44 -17.5t-43.5 18t-17.5 43zM253 270h-119q0 134 9 314h100q10 -200 10 -314zM728 270q0 92 3 147h-61l3 -65q4 -4 15 -4q13 0 18 5v-74q-14 -15 -68 -15q-82 0 -82 66q0 12 2 49t2 38h-22v79l119 30l1 -17h178
q10 -64 10 -239h-118zM362 265q-92 0 -92 114q0 135 134 135q124 0 124 -117v-127h-83l-8 61q-6 -33 -23.5 -49.5t-51.5 -16.5zM1124 270h-114q0 26 1 56t1 37q0 29 -15 29q-18 0 -18 -29q0 -7 1.5 -37t1.5 -56h-114q0 175 10 239h80q6 -44 6 -76q2 15 6.5 30t24 33t49.5 18
q42 0 58.5 -25t18.5 -81zM1385 391q0 -126 -123 -126q-122 0 -122 124q0 125 124 125q121 0 121 -123zM424 375q0 26 -24 26q-22 0 -22 -26q0 -30 22 -30q24 0 24 30zM1285 375q0 26 -23 26q-21 0 -21 -26q0 -30 21 -30q23 0 23 30zM462 238h104q10 -52 10 -138
q0 -81 -33.5 -115.5t-118.5 -34.5q-61 0 -88 17v83q24 -16 70 -16q21 0 34 6t16.5 11.5t3.5 10.5q-17 -11 -49 -11q-90 0 -90 83v13h-55l3 -65q6 -4 15 -4q13 0 18 5v-73q-19 -15 -68 -15q-45 0 -63 17t-18 54q0 39 3 81h-18v80l117 29l-1 -18h177v-119q0 -16 3 -21.5
t12 -5.5q16 0 16 27v119zM767 243q37 0 58.5 -29t21.5 -84q0 -135 -137 -135q1 -15 1 -39h-119q0 142 10 282h78q7 -42 7 -76q17 81 80 81zM1104 127q0 -21 -3 -35h-124q11 -18 50 -18q34 0 55 12v-75q-23 -16 -78 -16q-141 0 -141 122q0 59 32.5 92.5t92.5 33.5
q55 0 85.5 -30t30.5 -86zM1012 109q3 27 -17 27q-23 0 -23 -27h40zM704 72q5 0 12.5 2.5t16 11.5t8.5 23q0 23 -20 23q-22 0 -22 -31q0 -14 5 -29zM1108 13q0 -23 24 -23t24 23t-24 23t-24 -23zM1114 13q0 18 18 18t18 -18t-18 -18t-18 18zM1142 2l-6 9q7 0 7 7t-10 7h-11
v-23h5v9h5l4 -9h6zM1134 15h-7v6h7q4 0 4 -3t-4 -3z" />
    <glyph glyph-name="i.loclTRK" horiz-adv-x="242" 
d="M282 632q0 -26 -14 -48t-36.5 -34t-49.5 -12q-34 0 -56 21.5t-22 54.5q0 40 29.5 67t70.5 27q34 0 56 -21.5t22 -54.5zM52 0l58 472l138 4l-58 -476h-138z" />
    <glyph glyph-name="napostrophe.s001" horiz-adv-x="563" 
d="M143 651q0 -37 -11.5 -71t-28 -55.5t-33 -38t-28.5 -23.5l-12 -8l-28 51q6 5 16 12.5t28 29t20 37.5q-26 0 -43 17.5t-17 42.5q0 31 22.5 53t52.5 22q17 0 30.5 -7t22.5 -23t9 -39zM532 104q7 0 17 3l-7 -105q-30 -9 -79 -9q-54 0 -76.5 28t-17.5 75l21 170
q5 43 -12 68.5t-54 25.5q-42 0 -69.5 -32.5t-35.5 -77.5l-30 -250h-137l58 472l109 4q9 -50 4 -99h4q52 101 158 101q81 0 118.5 -52t26.5 -136l-20 -160q-3 -26 22 -26z" />
    <glyph glyph-name="ncommaaccent.s001" horiz-adv-x="563" 
d="M532 104q7 0 17 3l-7 -105q-30 -9 -79 -9q-54 0 -76.5 28t-17.5 75l21 170q5 43 -12 68.5t-54 25.5q-42 0 -69.5 -32.5t-35.5 -77.5l-30 -250h-137l58 472l109 4q9 -50 4 -99h4q52 101 158 101q81 0 118.5 -52t26.5 -136l-20 -160q-3 -26 22 -26zM277 -40q28 0 47 -18
t19 -52q0 -27 -7 -52.5t-18 -43t-24.5 -33t-27 -25t-24.5 -16.5t-18 -10l-7 -2l-25 51q7 3 17.5 9t29 21.5t20.5 28.5q-27 0 -44 18t-17 45q0 32 23.5 55.5t55.5 23.5z" />
    <glyph glyph-name="uni0306.case.001" 
d="M58 673q-8 -60 -52.5 -100t-109.5 -40q-67 0 -102.5 40t-27.5 100h98q-7 -55 41 -55t55 55h98z" />
    <glyph glyph-name="caroncomb.alt" 
d="M-122 373q0 30 22.5 52.5t52.5 22.5q16 0 30 -7.5t23 -23.5t9 -38q0 -27 -6 -52.5t-16 -44.5t-22 -36t-24 -28t-22 -19.5t-16 -11.5l-7 -4l-28 51q6 4 16 12t28 29t20 38q-17 0 -31 8t-21.5 21.5t-7.5 30.5z" />
    <glyph glyph-name="acutecomb.case" 
d="M-64 541l-128 -6l73 132h171z" />
    <glyph glyph-name="uni0306.case" 
d="M58 673q-8 -60 -52.5 -100t-109.5 -40q-67 0 -102.5 40t-27.5 100h98q-7 -55 41 -55t55 55h98z" />
    <glyph glyph-name="uni030C.case" 
d="M-264 682l101 -4l53 -57l66 57l103 4l-108 -142h-143z" />
    <glyph glyph-name="uni0302.case" 
d="M-32 677l73 -142l-102 4l-52 57l-67 -57l-102 -4l107 142h143z" />
    <glyph glyph-name="uni0308.case" 
d="M-220 543q-26 0 -42.5 17.5t-16.5 43.5q0 30 23 52.5t52 22.5q26 0 42.5 -18t16.5 -44q0 -30 -22.5 -52t-52.5 -22zM-21 543q-25 0 -41.5 17.5t-16.5 43.5q0 30 23 52.5t52 22.5q26 0 42.5 -18t16.5 -44q0 -30 -22.5 -52t-53.5 -22z" />
    <glyph glyph-name="uni0307.case" 
d="M-48 535q-31 0 -51.5 20t-20.5 51q0 37 27.5 62.5t64.5 25.5q32 0 53 -20.5t21 -51.5q0 -37 -28 -62t-66 -25z" />
    <glyph glyph-name="gravecomb.case" 
d="M-95 535l-84 132h171l41 -126z" />
    <glyph glyph-name="uni030B.case" 
d="M-232 541l-111 -6l73 132h153zM-38 541l-111 -6l73 132h154z" />
    <glyph glyph-name="uni0304.case" 
d="M-290 551l11 94h315l-11 -94h-315z" />
    <glyph glyph-name="uni030A.case" 
d="M-73 522q-23 0 -42 10.5t-30 30t-11 42.5q0 41 32.5 71t73.5 30q35 0 59 -24t24 -59q0 -41 -32.5 -71t-73.5 -30zM-32 617q0 12 -7 19.5t-19 7.5q-13 0 -22.5 -10t-9.5 -23q0 -12 7 -20t18 -8q13 0 23 10t10 24z" />
    <glyph glyph-name="uni0338.case" 
d="M139 716l-549 -732h-113l549 732h113z" />
    <glyph glyph-name="uni0337.case" 
d="M-393 340l392 213l36 -78l-392 -214z" />
    <glyph glyph-name="tildecomb.case" 
d="M44 678q1 -9 1 -20q0 -59 -32 -95.5t-86 -36.5q-25 0 -50.5 13t-45.5 26.5t-34 13.5q-16 0 -26 -10.5t-10 -28.5l2 -18h-89q-2 10 -2 25q0 55 33 87t85 32q32 0 60 -12.5t47.5 -25.5t30.5 -13q28 0 28 44l-1 19h89z" />
    <glyph glyph-name="caron.alt" horiz-adv-x="199" 
d="M213 382q0 -27 -6.5 -50.5t-17 -39.5t-22.5 -29t-24.5 -21t-23 -13.5t-16.5 -8.5l-7 -2l-23 48q6 3 16 7t27 16t20 24q-26 0 -42.5 17t-16.5 43q0 20 10.5 37t27.5 27.5t37 10.5q26 0 43.5 -17.5t17.5 -48.5z" />
    <glyph glyph-name="acute.case" horiz-adv-x="290" 
d="M227 541l-128 -6l72 132h171z" />
    <glyph glyph-name="breve.case" horiz-adv-x="342" 
d="M399 673q-7 -60 -52 -100t-110 -40q-66 0 -101.5 40t-28.5 100h98q-7 -55 41.5 -55t55.5 55h97z" />
    <glyph glyph-name="caron.case" horiz-adv-x="364" 
d="M106 682l101 -4l53 -57l66 57l103 4l-108 -142h-143z" />
    <glyph glyph-name="circumflex.case" horiz-adv-x="370" 
d="M338 677l73 -142l-102 4l-52 57l-67 -57l-102 -4l107 142h143z" />
    <glyph glyph-name="dieresis.case" horiz-adv-x="377" 
d="M158 543q-26 0 -42.5 17.5t-16.5 43.5q0 30 23 52.5t52 22.5q26 0 42.5 -18t16.5 -44q0 -30 -22.5 -52t-52.5 -22zM357 543q-25 0 -41.5 17.5t-16.5 43.5q0 30 23 52.5t52 22.5q26 0 42.5 -18t16.5 -44q0 -30 -22.5 -52t-53.5 -22z" />
    <glyph glyph-name="dotaccent.case" horiz-adv-x="225" 
d="M177 535q-20 0 -36.5 9t-26 25t-9.5 37q0 37 27.5 62.5t64.5 25.5q32 0 53 -20.5t21 -51.5q0 -37 -28 -62t-66 -25z" />
    <glyph glyph-name="grave.case" horiz-adv-x="290" 
d="M195 535l-84 132h171l41 -126z" />
    <glyph glyph-name="hungarumlaut.case" horiz-adv-x="445" 
d="M213 541l-111 -6l73 132h154zM407 541l-111 -6l73 132h154z" />
    <glyph glyph-name="macron.case" horiz-adv-x="400" 
d="M110 551l12 94h315l-12 -94h-315z" />
    <glyph glyph-name="ring.case" horiz-adv-x="273" 
d="M200 522q-14 0 -26.5 4t-23 11.5t-18 17.5t-11.5 23t-4 27q0 41 32 71t74 30q35 0 59 -24t24 -59q0 -41 -32.5 -71t-73.5 -30zM241 617q0 12 -7.5 19.5t-18.5 7.5q-13 0 -22.5 -10t-9.5 -23q0 -12 6.5 -20t18.5 -8q13 0 23 10t10 24z" />
    <glyph glyph-name="tilde.case" horiz-adv-x="425" 
d="M468 678q1 -9 1 -20q0 -59 -32 -95.5t-86 -36.5q-25 0 -50 13t-45.5 26.5t-34.5 13.5q-16 0 -26 -10.5t-10 -28.5l3 -18h-90q-2 10 -2 25q0 55 33 87t85 32q32 0 60 -12.5t47.5 -25.5t31.5 -13q27 0 27 44l-1 19h89z" />
    <glyph glyph-name="Rem" horiz-adv-x="498" 
 />
    <glyph glyph-name="IJacute" horiz-adv-x="763" 
d="M733 700l-128 -6l72 132h171zM275 699l-128 -6l72 133h171zM65 0l81 660h140l-81 -660h-140zM369 163q30 -46 80 -46q45 0 69 23t31 74l54 446h142l-54 -444q-13 -108 -81 -165t-174 -57q-56 0 -97 21.5t-66 48.5z" />
    <glyph glyph-name="ijacute" horiz-adv-x="494" 
d="M493 537l-122 -6l77 169h165zM237 537l-121 -6l77 169h165zM52 0l58 472l138 4l-58 -476h-138zM185 -82q14 -12 40 -12q68 0 78 90l59 476l137 4l-58 -477q-12 -98 -64.5 -153t-146.5 -55q-32 0 -56 8t-32 15l-8 8z" />
    <glyph glyph-name="commaccent" horiz-adv-x="576" 
 />
    </font>
</defs>
</svg>
