<?xml version="1.0" standalone="no"?>
<!DOCTYPE svg PUBLIC "-//W3C//DTD SVG 1.1//EN" "http://www.w3.org/Graphics/SVG/1.1/DTD/svg11.dtd" >
<svg xmlns="http://www.w3.org/2000/svg" xmlns:xlink="http://www.w3.org/1999/xlink" version="1.1">
<metadata>
Created by FontForge 20201107 at Mon Jul 18 17:14:17 2016
 By 
Copyright (c) 2016 by Daniel Hernandez. All rights reserved.
</metadata>
<defs>
<font id="BasicSansAlt-RegularIt" horiz-adv-x="0" >
  <font-face 
    font-family="BasicSansAlt-RegularIt"
    font-weight="400"
    font-style="italic"
    font-stretch="normal"
    units-per-em="1000"
    panose-1="0 0 5 0 0 0 0 0 0 0"
    ascent="773"
    descent="-227"
    x-height="472"
    cap-height="660"
    bbox="-514 -250 1385 932"
    underline-thickness="50"
    underline-position="-100"
    slope="-7"
    unicode-range="U+0020-FB02"
  />
<missing-glyph horiz-adv-x="393" 
 />
    <glyph glyph-name="fi" unicode="fi" horiz-adv-x="597" 
d="M245 472h215l89 3l-58 -475h-89l49 401h-215l-49 -401h-87l49 401h-67l9 71h67l7 58q10 82 62.5 132t128.5 50q33 0 60.5 -9t37.5 -16l-38 -70q-35 21 -61 21q-43 0 -70 -28.5t-33 -77.5zM532 685q24 0 39.5 -15.5t15.5 -38.5q0 -27 -21 -46t-49 -19q-23 0 -38 15t-15 38
q0 27 20.5 46.5t47.5 19.5z" />
    <glyph glyph-name="fl" unicode="fl" horiz-adv-x="571" 
d="M355 638q-43 0 -70 -28.5t-33 -77.5l-7 -60h152l-9 -71h-152l-49 -401h-87l49 401h-67l9 71h67l7 58q10 82 62.5 132t128.5 50q33 0 60.5 -9t37.5 -16l-38 -70q-35 21 -61 21zM504 706h88l-87 -706h-88z" />
    <glyph glyph-name=".notdef" horiz-adv-x="393" 
 />
    <glyph glyph-name=".null" 
 />
    <glyph glyph-name="nonmarkingreturn" horiz-adv-x="333" 
 />
    <glyph glyph-name="space" unicode=" " horiz-adv-x="214" 
 />
    <glyph glyph-name="exclam" unicode="!" horiz-adv-x="237" 
d="M251 668l-71 -471l-75 -3l48 474h98zM125 98q21 0 34.5 -15.5t13.5 -38.5t-15.5 -40t-37.5 -17q-20 0 -34 15.5t-14 37.5q0 24 16 41t37 17z" />
    <glyph glyph-name="quotedbl" unicode="&#x22;" horiz-adv-x="282" 
d="M122 526l19 180h63l-26 -180h-56zM234 526l19 180h63l-26 -180h-56z" />
    <glyph glyph-name="numbersign" unicode="#" horiz-adv-x="622" 
d="M615 303h-128l-37 -111h130l-21 -60h-128l-44 -132h-75l43 132h-108l-43 -132h-75l44 132h-126l22 60h123l37 111h-126l22 60h124l42 128h74l-42 -128h108l42 128h76l-42 -128h129zM375 192l36 111h-108l-36 -111h108z" />
    <glyph glyph-name="dollar" unicode="$" horiz-adv-x="546" 
d="M202 478q0 -25 17 -43.5t44 -30t59.5 -23t65 -26t59.5 -33.5t44 -52t17 -76q0 -83 -58.5 -136.5t-155.5 -62.5l-13 -99h-66l13 99q-66 5 -115 27t-77 50l66 71q63 -69 167 -69q69 0 108.5 29t39.5 79q0 42 -31.5 69t-77 42t-91 32t-77 51.5t-31.5 88.5q0 81 56 135.5
t145 63.5l11 95h66l-11 -95q148 -14 167 -159l-88 -21q0 36 -29 69t-93 33q-58 0 -94.5 -29.5t-36.5 -78.5z" />
    <glyph glyph-name="percent" unicode="%" horiz-adv-x="832" 
d="M233 0l369 666h83l-368 -666h-84zM228 290q-66 0 -105 43t-39 114q0 94 53.5 154t135.5 60q67 0 106 -44t39 -117q0 -93 -53.5 -151.5t-136.5 -58.5zM237 367q44 0 71 35t27 90q0 42 -19 67t-52 25q-40 0 -68 -36.5t-28 -91.5q0 -41 19 -65t50 -24zM638 -4q-66 0 -105 43
t-39 114q0 94 53.5 154t135.5 60q67 0 106 -44t39 -117q0 -93 -53.5 -151.5t-136.5 -58.5zM647 73q42 0 69.5 34.5t27.5 89.5q0 42 -18.5 67.5t-51.5 25.5q-41 0 -68.5 -36.5t-27.5 -91.5q0 -41 18.5 -65t50.5 -24z" />
    <glyph glyph-name="ampersand" unicode="&#x26;" horiz-adv-x="575" 
d="M578 293q-15 -118 -86 -196l49 -70l-72 -48l-44 63q-75 -46 -170 -46q-89 0 -141.5 45.5t-52.5 119.5q0 133 149 188q-42 61 -42 124q0 78 55 130.5t134 52.5q65 0 103 -37.5t38 -95.5q0 -126 -169 -193l118 -169q44 59 56 158zM348 584q-41 0 -67.5 -28t-26.5 -72
q0 -48 40 -105q41 16 66 31.5t37 32t15.5 30.5t3.5 36q0 34 -18.5 54.5t-49.5 20.5zM266 78q67 0 116 26l-136 195q-91 -37 -91 -121q0 -44 30 -72t81 -28z" />
    <glyph glyph-name="quotesingle" unicode="'" horiz-adv-x="170" 
d="M122 526l19 180h63l-26 -180h-56z" />
    <glyph glyph-name="parenleft" unicode="(" horiz-adv-x="277" 
d="M156 -244q-4 6 -10 16.5t-21.5 47.5t-27.5 78.5t-21.5 107.5t-9.5 135q0 106 21.5 205t52 165t61.5 117t53 74l21 24l70 -35q-8 -8 -21 -23t-46 -66.5t-58.5 -110t-46.5 -152.5t-21 -193q0 -103 20.5 -191.5t41.5 -126.5l20 -37z" />
    <glyph glyph-name="parenright" unicode=")" horiz-adv-x="276" 
d="M270 342q0 -106 -21.5 -205.5t-52 -165.5t-61 -117t-51.5 -74l-22 -24l-71 35q8 8 21 23t46 67t58 110.5t46 152t21 193.5q0 102 -20.5 190.5t-40.5 126.5l-20 37l79 35q4 -6 10 -16.5t21 -47.5t27 -78t21.5 -107t9.5 -135z" />
    <glyph glyph-name="asterisk" unicode="*" horiz-adv-x="401" 
d="M282 355l-29 127l-87 -107l-38 31l100 103l-126 15l13 51l121 -29l-37 121l48 21l28 -128l91 114l37 -32l-101 -105l127 -14l-12 -51l-126 27l40 -122z" />
    <glyph glyph-name="plus" unicode="+" horiz-adv-x="439" 
d="M436 278l-8 -65h-149l-21 -173h-67l21 173h-149l8 65h149l19 151h67l-19 -151h149z" />
    <glyph glyph-name="comma" unicode="," horiz-adv-x="227" 
d="M55 43q0 28 18.5 45t49.5 17q27 0 43 -18.5t16 -47.5q0 -36 -12.5 -69t-30.5 -55.5t-35.5 -39.5t-29.5 -25l-13 -8l-33 48q8 5 20 14.5t33.5 37t24.5 52.5q-22 0 -36.5 13.5t-14.5 35.5z" />
    <glyph glyph-name="hyphen" unicode="-" horiz-adv-x="368" 
d="M94 292l8 66h252l-8 -66h-252z" />
    <glyph glyph-name="period" unicode="." horiz-adv-x="211" 
d="M54 46q0 26 19.5 45.5t46.5 19.5q21 0 35.5 -15.5t14.5 -37.5q0 -26 -19.5 -45t-45.5 -19q-22 0 -36.5 15t-14.5 37z" />
    <glyph glyph-name="slash" unicode="/" horiz-adv-x="397" 
d="M-2 -204l377 910h86l-376 -910h-87z" />
    <glyph glyph-name="zero" unicode="0" horiz-adv-x="594" 
d="M294 -6q-102 0 -156.5 70t-54.5 199q0 182 78.5 292.5t215.5 110.5q104 0 159.5 -70.5t55.5 -200.5q0 -181 -79.5 -291t-218.5 -110zM304 74q89 0 142 87t53 226q0 95 -34 147t-98 52q-88 0 -139.5 -88t-51.5 -228q0 -94 33 -145t95 -51z" />
    <glyph glyph-name="one" unicode="1" horiz-adv-x="353" 
d="M183 0l69 562l-168 -46l11 87l248 57h12l-81 -660h-91z" />
    <glyph glyph-name="two" unicode="2" horiz-adv-x="530" 
d="M195 74q21 3 54 3h251l-9 -77h-440l9 73q28 20 85.5 57.5t89.5 59t76 58.5t67 67t40.5 71.5t17.5 85.5q0 53 -29 83.5t-79 30.5q-59 0 -97.5 -33.5t-38.5 -85.5q0 -12 2 -20l-91 -14q-2 4 -2 25q0 93 67 150.5t170 57.5q89 0 140 -49.5t51 -132.5q0 -56 -22.5 -109
t-65.5 -100.5t-86.5 -84t-103.5 -78.5q-33 -23 -57 -34z" />
    <glyph glyph-name="three" unicode="3" horiz-adv-x="537" 
d="M342 666q87 0 137.5 -45t50.5 -121q0 -69 -46.5 -117t-100.5 -48v-2q50 0 91 -37.5t41 -102.5q0 -85 -69 -142t-185 -57q-50 0 -90.5 13t-62.5 31t-36.5 36t-19.5 31l-5 13l78 43q2 -4 5 -9.5t15.5 -20.5t28 -26.5t41.5 -21t56 -9.5q65 0 104.5 29t46.5 80q7 49 -27.5 75
t-110.5 31l-36 2l10 81l36 2q67 4 105 31.5t38 79.5q0 45 -28.5 73t-76.5 28q-56 0 -92 -29.5t-36 -74.5q0 -16 2 -20l-91 -14q-2 4 -2 25q0 85 64 139t165 54z" />
    <glyph glyph-name="four" unicode="4" horiz-adv-x="563" 
d="M520 660l-52 -427h97l-10 -77h-97l-19 -156h-89l19 156h-327l10 77l342 427h126zM377 233l36 290q5 43 9 54l-3 2q-13 -21 -37 -53l-182 -223q-7 -9 -19.5 -25t-22 -28t-12.5 -15l1 -3q11 1 61 1h169z" />
    <glyph glyph-name="five" unicode="5" horiz-adv-x="532" 
d="M173 660h361l-9 -77h-283l-40 -188l3 -2q47 47 130 47q86 0 137.5 -53.5t51.5 -140.5q0 -111 -77 -181.5t-193 -70.5q-45 0 -83 12.5t-60.5 30t-38.5 35t-22 30.5l-6 12l80 48q2 -4 5 -9.5t15 -21t27 -27t40 -21t53 -9.5q70 0 118.5 45.5t48.5 116.5q0 55 -33 89t-88 34
q-33 0 -62 -12.5t-42 -24.5l-13 -13h-89z" />
    <glyph glyph-name="six" unicode="6" horiz-adv-x="554" 
d="M365 421q79 0 128 -50.5t49 -132.5q0 -107 -70.5 -175.5t-177.5 -68.5q-98 0 -155 69.5t-57 199.5q0 177 88 290t222 113q119 0 175 -77l-58 -58q-13 21 -42.5 38t-78.5 17q-85 0 -144 -75.5t-69 -203.5l5 -1q11 36 58 75.5t127 39.5zM303 74q63 0 105 43.5t42 110.5
q0 51 -30.5 81.5t-83.5 30.5q-41 0 -75 -16.5t-56 -47t-29 -70.5q17 -132 127 -132z" />
    <glyph glyph-name="seven" unicode="7" horiz-adv-x="478" 
d="M537 660l-9 -77l-313 -583h-95l291 531q27 48 30 51l-1 3q-16 -2 -55 -2h-203l-11 -91h-81l21 168h426z" />
    <glyph glyph-name="eight" unicode="8" horiz-adv-x="570" 
d="M458 349q43 -17 68 -55t25 -88q0 -94 -75 -153t-192 -59q-100 0 -160 47.5t-60 125.5q0 64 37 112t98 70v2q-29 12 -46 44.5t-17 74.5q0 85 65 140.5t166 55.5q86 0 137 -44t51 -115q0 -54 -28 -97.5t-69 -58.5v-2zM357 587q-57 0 -92.5 -29.5t-35.5 -80.5q0 -39 28 -64
t76 -25q57 0 93 32t36 80q0 41 -28.5 64t-76.5 23zM294 73q73 0 119.5 38t46.5 97q0 46 -36.5 72.5t-100.5 26.5q-74 0 -119.5 -33.5t-45.5 -89.5q0 -50 37 -80.5t99 -30.5z" />
    <glyph glyph-name="nine" unicode="9" horiz-adv-x="554" 
d="M341 666q98 0 154.5 -69.5t56.5 -199.5q0 -117 -39.5 -209t-110 -143t-159.5 -51q-120 0 -176 77l59 57q37 -54 121 -54q54 0 99.5 33.5t75.5 96.5t37 147l-5 1q-4 -13 -15.5 -30t-32.5 -36.5t-57 -33t-79 -13.5q-79 0 -128 50.5t-49 132.5q0 107 70.5 175.5t177.5 68.5z
M299 319q62 0 105.5 37t53.5 98q-17 132 -126 132q-62 0 -104.5 -44t-42.5 -110q0 -33 14 -58.5t40 -40t60 -14.5z" />
    <glyph glyph-name="colon" unicode=":" horiz-adv-x="232" 
d="M109 413q0 26 19.5 45.5t46.5 19.5q21 0 35.5 -15.5t14.5 -37.5q0 -26 -19.5 -45t-45.5 -19q-22 0 -36.5 15t-14.5 37zM65 46q0 26 19.5 45.5t46.5 19.5q21 0 35.5 -15.5t14.5 -37.5q0 -26 -19.5 -45t-45.5 -19q-22 0 -36.5 15t-14.5 37z" />
    <glyph glyph-name="semicolon" unicode=";" horiz-adv-x="252" 
d="M122 413q0 26 19.5 45.5t46.5 19.5q21 0 35.5 -15.5t14.5 -37.5q0 -26 -19.5 -45t-45.5 -19q-22 0 -36.5 15t-14.5 37zM69 43q0 28 18.5 45t49.5 17q27 0 43 -18.5t16 -47.5q0 -36 -12.5 -69t-30 -55.5t-35.5 -39.5t-30 -25l-13 -8l-33 48q8 5 20 14.5t33.5 37t24.5 52.5
q-22 0 -36.5 13.5t-14.5 35.5z" />
    <glyph glyph-name="less" unicode="&#x3c;" horiz-adv-x="389" 
d="M58 238l9 71l333 198l-9 -78l-251 -156l212 -155l-9 -78z" />
    <glyph glyph-name="equal" unicode="=" horiz-adv-x="486" 
d="M101 314l8 65h362l-8 -65h-362zM76 117l8 64h362l-8 -64h-362z" />
    <glyph glyph-name="greater" unicode="&#x3e;" horiz-adv-x="389" 
d="M56 40l9 78l252 155l-213 156l9 78l285 -198l-9 -71z" />
    <glyph glyph-name="question" unicode="?" horiz-adv-x="443" 
d="M300 688q83 0 131 -45t48 -117q0 -47 -19.5 -84.5t-48.5 -63t-59 -49.5t-54.5 -56.5t-31.5 -71.5q0 -3 -1 -7t-1 -7l-82 -3q0 10 2 18q10 50 35 89.5t52.5 63t54 45.5t43.5 49.5t17 63.5q0 42 -26 69t-69 27q-48 0 -79.5 -28.5t-31.5 -72.5q0 -12 1 -17l-89 -14
q-2 12 -2 27q0 80 59 132t151 52zM210 98q21 0 35 -14.5t14 -35.5q0 -25 -19 -43t-44 -18q-20 0 -34 14.5t-14 35.5q0 24 19 42.5t43 18.5z" />
    <glyph glyph-name="at" unicode="@" horiz-adv-x="825" 
d="M611 42q-43 0 -66.5 24.5t-18.5 64.5v5q-21 -43 -57.5 -69t-87.5 -26q-68 0 -107.5 47.5t-39.5 125.5q0 104 58 169t144 65q80 0 111 -62l7 56h86l-37 -301q-3 -22 8.5 -35.5t32.5 -13.5q52 0 95.5 67t43.5 170q0 123 -76.5 199t-206.5 76q-170 0 -283 -115t-113 -295
q0 -137 81.5 -222t217.5 -85q50 0 96 10t76 24.5t51.5 29t33.5 25.5l12 10l17 -24l-7 -6q-7 -7 -19.5 -16t-29.5 -20.5t-41.5 -22.5t-52.5 -20.5t-64.5 -15t-75.5 -5.5q-150 0 -240 93t-90 242q0 195 123.5 319.5t311.5 124.5q143 0 228 -84t85 -219q0 -134 -62 -212
t-144 -78zM410 115q46 0 78.5 35.5t39.5 79.5l4 29q3 44 -21 79.5t-72 35.5q-50 0 -83 -42.5t-33 -107.5q0 -49 23.5 -79t63.5 -30z" />
    <glyph glyph-name="A" unicode="A" horiz-adv-x="585" 
d="M479 0l-37 164h-259l-77 -164h-94l315 660h92l154 -660h-94zM218 239h208l-54 239q-7 27 -12 69h-2q-13 -37 -28 -69z" />
    <glyph glyph-name="B" unicode="B" horiz-adv-x="578" 
d="M450 347q40 -8 75 -43.5t35 -101.5q0 -94 -62 -148t-175 -54h-244l81 660h214q92 0 142 -39t50 -114q0 -74 -37 -111.5t-79 -46.5v-2zM473 494q0 89 -121 89h-110l-26 -208h122q63 0 99 34t36 85zM320 77q66 0 107.5 32t41.5 95q0 52 -36 77.5t-95 25.5h-130l-29 -230
h141z" />
    <glyph glyph-name="C" unicode="C" horiz-adv-x="607" 
d="M412 666q63 0 109 -22.5t68 -57.5t30 -71.5t4 -71.5l-86 -14q6 58 -26 107.5t-108 49.5q-94 0 -161 -81.5t-67 -217.5q0 -107 51 -160t130 -53q56 0 104 29t81 71l48 -56q-102 -124 -245 -124q-121 0 -191 76t-70 210q0 170 94.5 278t234.5 108z" />
    <glyph glyph-name="D" unicode="D" horiz-adv-x="638" 
d="M353 660q137 0 210 -73.5t73 -206.5q0 -188 -89.5 -284t-242.5 -96h-225l81 660h193zM310 77q105 0 169.5 75.5t64.5 221.5q0 103 -52 156t-151 53h-99l-63 -506h131z" />
    <glyph glyph-name="E" unicode="E" horiz-adv-x="519" 
d="M542 583h-300l-25 -202h266l-10 -77h-266l-28 -227h300l-9 -77h-391l81 660h391z" />
    <glyph glyph-name="F" unicode="F" horiz-adv-x="487" 
d="M533 583h-291l-26 -210h248l-10 -79h-248l-36 -294h-91l81 660h382z" />
    <glyph glyph-name="G" unicode="G" horiz-adv-x="633" 
d="M625 453l-86 -14q3 25 -2.5 50t-20.5 47t-44.5 36t-69.5 14q-93 0 -160 -81.5t-67 -216.5q0 -97 45 -155.5t125 -58.5t130 46.5t59 115.5l2 14h-198l9 76h273l-40 -326h-56q-4 21 -2 90q-64 -96 -200 -96q-110 0 -174.5 78t-64.5 207q0 171 94 279t234 108q63 0 109 -21
t68.5 -54t31.5 -68.5t5 -69.5z" />
    <glyph glyph-name="H" unicode="H" horiz-adv-x="671" 
d="M582 660h91l-81 -660h-91l37 304h-331l-37 -304h-91l81 660h91l-34 -279h331z" />
    <glyph glyph-name="I" unicode="I" horiz-adv-x="249" 
d="M79 0l81 660h91l-81 -660h-91z" />
    <glyph glyph-name="J" unicode="J" horiz-adv-x="442" 
d="M76 130q45 -56 102 -56q107 0 121 115l58 471h91l-57 -466q-12 -98 -72 -149t-151 -51q-94 0 -156 69z" />
    <glyph glyph-name="K" unicode="K" horiz-adv-x="557" 
d="M630 660l-286 -338l207 -321h-99l-179 283h-68l-35 -284h-91l81 660h91l-37 -299h69l250 299h97z" />
    <glyph glyph-name="L" unicode="L" horiz-adv-x="492" 
d="M179 77h310l-9 -77h-401l81 660h91z" />
    <glyph glyph-name="M" unicode="M" horiz-adv-x="799" 
d="M801 660l-81 -660h-91l52 406q5 45 13 86l-2 1q-2 -3 -8.5 -19.5t-13.5 -32t-11 -23.5l-230 -420h-55l-133 427q-12 38 -12 68l-5 -1q2 -10 -6 -86l-48 -406h-91l81 660h99l133 -438q19 -65 24 -92h2q9 22 48 92l241 438h94z" />
    <glyph glyph-name="N" unicode="N" horiz-adv-x="655" 
d="M657 660l-81 -660h-98l-193 414q-32 68 -52 122l-6 -3q4 -16 -8 -118l-49 -415h-91l81 660h100l193 -418q23 -50 49 -120l6 3q8 110 9 119l49 416h91z" />
    <glyph glyph-name="O" unicode="O" horiz-adv-x="681" 
d="M422 666q117 0 187.5 -78t70.5 -210q0 -171 -97 -277.5t-244 -106.5q-116 0 -186.5 78.5t-70.5 209.5q0 171 97.5 277.5t242.5 106.5zM349 74q103 0 171 82t68 214q0 99 -48 157.5t-128 58.5q-101 0 -169.5 -82.5t-68.5 -213.5q0 -99 48 -157.5t127 -58.5z" />
    <glyph glyph-name="P" unicode="P" horiz-adv-x="557" 
d="M360 660q108 0 165.5 -50t57.5 -142q0 -120 -71 -187.5t-196 -67.5h-120l-26 -213h-91l81 660h200zM312 290q85 0 131.5 44t46.5 123q0 60 -37.5 93t-107.5 33h-103l-36 -293h106z" />
    <glyph glyph-name="Q" unicode="Q" horiz-adv-x="716" 
d="M680 378q0 -138 -65 -236t-173 -132q80 -19 174 -25l-27 -71q-161 14 -280 81q-104 11 -165.5 88t-61.5 199q0 171 97.5 277.5t242.5 106.5q117 0 187.5 -78t70.5 -210zM174 290q0 -65 22 -114t61.5 -75.5t91.5 -26.5q67 0 121.5 36.5t86 104.5t31.5 155q0 99 -48 157.5
t-128 58.5q-66 0 -120 -36.5t-86 -104.5t-32 -155z" />
    <glyph glyph-name="R" unicode="R" horiz-adv-x="571" 
d="M395 271q20 -13 34.5 -39.5t23.5 -53.5t19 -52.5t26.5 -42t41.5 -16.5l19 2l-1 -70q-25 -5 -54 -5q-32 0 -55.5 11t-36.5 29.5t-24 42t-17.5 47.5t-16.5 47.5t-22 42t-33 29.5t-50 11h-48l-31 -254h-91l81 660h191q209 0 209 -174q0 -79 -45 -135t-120 -80zM210 325h87
q36 0 67 10t54 28t36.5 47t13.5 64q0 109 -130 109h-96z" />
    <glyph glyph-name="S" unicode="S" horiz-adv-x="530" 
d="M457 484q0 36 -29 69t-93 33q-58 0 -94.5 -29.5t-36.5 -78.5q0 -34 31.5 -56t76.5 -37t90 -34t76.5 -58.5t31.5 -98.5q0 -91 -68.5 -145.5t-180.5 -54.5q-77 0 -134.5 23.5t-88.5 54.5l66 71q63 -69 167 -69q69 0 108.5 29t39.5 79q0 42 -31.5 69t-77 42t-91 32t-77 51.5
t-31.5 88.5q0 89 66.5 145t167.5 56q179 0 200 -161z" />
    <glyph glyph-name="T" unicode="T" horiz-adv-x="516" 
d="M212 0l72 583h-200l9 77h492l-9 -77h-201l-72 -583h-91z" />
    <glyph glyph-name="U" unicode="U" horiz-adv-x="649" 
d="M565 660h91l-50 -405q-14 -117 -92 -189t-190 -72q-113 0 -173 71.5t-46 189.5l50 405h91l-49 -403q-10 -86 27.5 -134.5t109.5 -48.5t121.5 48.5t59.5 132.5z" />
    <glyph glyph-name="V" unicode="V" horiz-adv-x="577" 
d="M191 660l100 -478q7 -32 11 -69h2q13 34 29 69l220 478h93l-313 -660h-90l-148 660h96z" />
    <glyph glyph-name="W" unicode="W" horiz-adv-x="860" 
d="M834 660h91l-260 -660h-100l-59 437q-9 61 -9 95h-2q-12 -46 -31 -95l-173 -437h-97l-97 660h94l57 -478l9 -79h2q11 36 27 79l185 478h84l67 -478q2 -17 5.5 -46.5t3.5 -32.5h2q3 9 27 79z" />
    <glyph glyph-name="X" unicode="X" horiz-adv-x="568" 
d="M636 660l-251 -334l171 -326h-104l-100 195q-23 46 -33 83h-2q-26 -48 -53 -83l-151 -195h-100l249 325l-168 335h109l96 -205q25 -57 30 -78h2q14 28 51 78l151 205h103z" />
    <glyph glyph-name="Y" unicode="Y" horiz-adv-x="551" 
d="M619 660l-267 -414l-30 -246h-91l29 239l-167 421h99l102 -261q20 -51 22 -83h2q9 32 41 83l167 261h93z" />
    <glyph glyph-name="Z" unicode="Z" horiz-adv-x="540" 
d="M33 0l10 77l377 454q19 22 49 52l-2 3q-39 -3 -69 -3h-284l9 77h462l-9 -77l-375 -454q-12 -14 -22.5 -24.5t-19 -18.5t-9.5 -9l2 -3q10 3 69 3h289l-9 -77h-468z" />
    <glyph glyph-name="bracketleft" unicode="[" horiz-adv-x="310" 
d="M50 -204l112 910h207l-10 -77h-120l-93 -756h120l-9 -77h-207z" />
    <glyph glyph-name="backslash" unicode="\" horiz-adv-x="397" 
d="M349 -204h-87l-152 910h86z" />
    <glyph glyph-name="bracketright" unicode="]" horiz-adv-x="310" 
d="M3 -204l9 77h120l93 756h-120l10 77h207l-112 -910h-207z" />
    <glyph glyph-name="asciicircum" unicode="^" horiz-adv-x="356" 
d="M102 518l116 205h98l66 -205h-78l-46 138l-78 -138h-78z" />
    <glyph glyph-name="underscore" unicode="_" horiz-adv-x="352" 
d="M-15 -125l8 65h352l-8 -65h-352z" />
    <glyph glyph-name="grave" unicode="`" horiz-adv-x="261" 
d="M209 543l-69 155h113l35 -150z" />
    <glyph glyph-name="a" unicode="a" horiz-adv-x="509" 
d="M467 73q8 0 16 2l-4 -74q-24 -6 -49 -6q-83 0 -73 78v1h-1q-53 -80 -165 -80q-66 0 -101.5 31.5t-35.5 83.5q0 84 75 122t234 38h13l4 30q6 49 -18 77t-78 28q-51 0 -80.5 -22t-29.5 -61q0 -7 2 -17l-83 -14q-2 12 -2 27q0 70 56.5 115.5t147.5 45.5q92 0 137.5 -48
t34.5 -130l-24 -191q-2 -20 3 -28t21 -8zM219 68q58 0 97.5 27.5t45.5 62.5l7 50h-13q-115 0 -163.5 -22t-48.5 -66q0 -52 75 -52z" />
    <glyph glyph-name="b" unicode="b" horiz-adv-x="560" 
d="M368 478q55 0 97 -26t64.5 -73.5t22.5 -109.5q0 -122 -70 -198.5t-179 -76.5q-63 0 -101 31t-50 81q-3 -38 -24 -106h-63l87 706h88l-39 -314q61 86 167 86zM305 68q70 0 113.5 54t43.5 139q0 65 -32 104t-88 39q-61 0 -103.5 -45.5t-53.5 -103.5l-5 -34
q-1 -18 0.5 -35.5t7 -35t16 -32.5t24.5 -26t33.5 -17.5t43.5 -6.5z" />
    <glyph glyph-name="c" unicode="c" horiz-adv-x="493" 
d="M323 478q78 0 123.5 -41t45.5 -104q0 -12 -2 -24t-4 -18l-2 -6l-82 -6q6 16 6 37q0 39 -24.5 63.5t-68.5 24.5q-69 0 -114.5 -54.5t-45.5 -140.5q0 -65 33 -103t94 -38q87 0 144 63l44 -56q-72 -81 -200 -81q-95 0 -150.5 57t-55.5 151q0 119 74.5 197.5t184.5 78.5z" />
    <glyph glyph-name="d" unicode="d" horiz-adv-x="560" 
d="M494 706h88l-87 -706l-66 -3q0 78 5 110h-2q-27 -51 -73.5 -82t-108.5 -31q-84 0 -134.5 57t-50.5 151q0 122 71 199t179 77q101 0 141 -79zM276 68q60 0 103 45.5t55 102.5l5 44q2 58 -29.5 101t-96.5 43q-68 0 -112.5 -54t-44.5 -139q0 -65 32 -104t88 -39z" />
    <glyph glyph-name="e" unicode="e" horiz-adv-x="503" 
d="M321 478q86 0 132.5 -53.5t46.5 -137.5q0 -18 -3 -37t-5 -28l-3 -10h-334v-1q0 -66 35 -104.5t99 -38.5q83 0 134 62l46 -49q-70 -87 -197 -87q-96 0 -151.5 57t-55.5 152q0 118 72 196.5t184 78.5zM312 404q-54 0 -93.5 -35.5t-55.5 -93.5h249q1 8 1 17q0 51 -27 81.5
t-74 30.5z" />
    <glyph glyph-name="f" unicode="f" horiz-adv-x="351" 
d="M355 638q-43 0 -70 -28.5t-33 -77.5l-7 -60h152l-9 -71h-152l-49 -401h-87l49 401h-67l9 71h67l7 58q10 82 62.5 132t128.5 50q33 0 60.5 -9t37.5 -16l-38 -70q-35 21 -61 21z" />
    <glyph glyph-name="g" unicode="g" horiz-adv-x="504" 
d="M562 533q-4 -32 -16 -57.5t-28 -40t-31 -22.5t-28 -10q20 -35 20 -79q0 -84 -61 -137.5t-155 -53.5q-44 0 -79 13q-45 -7 -45 -38q0 -21 22 -29t69 -8h94q74 0 115.5 -30.5t41.5 -86.5q0 -72 -61.5 -117.5t-193.5 -45.5q-74 0 -124 14.5t-73.5 40.5t-23.5 63q0 80 90 111
q-36 24 -36 69q0 34 20.5 57.5t51.5 34.5q-41 40 -41 104q0 85 60.5 138.5t154.5 53.5q78 0 125 -41q49 23 60 113zM271 206q53 0 85.5 31t32.5 80q0 26 -11 46t-31.5 30.5t-49.5 10.5q-52 0 -85 -31t-33 -80q0 -40 24.5 -63.5t67.5 -23.5zM299 -4h-90q-66 0 -91 -19
t-25 -50q0 -32 33.5 -47t108.5 -15q86 0 122.5 19t36.5 62q0 29 -22.5 39.5t-72.5 10.5z" />
    <glyph glyph-name="h" unicode="h" horiz-adv-x="537" 
d="M361 478q80 0 120.5 -51.5t29.5 -137.5l-35 -289h-89l35 289q7 53 -15.5 84t-71.5 31q-59 0 -98 -42.5t-50 -100.5l-33 -261h-89l87 706h87l-39 -317h2q59 89 159 89z" />
    <glyph glyph-name="i" unicode="i" horiz-adv-x="221" 
d="M251 631q0 -27 -21 -46t-49 -19q-23 0 -38 15t-15 38q0 27 20.5 46.5t47.5 19.5q24 0 39.5 -15.5t15.5 -38.5zM66 0l58 472l89 3l-58 -475h-89z" />
    <glyph glyph-name="j" unicode="j" horiz-adv-x="228" 
d="M257 631q0 -27 -20.5 -46t-48.5 -19q-23 0 -38.5 15t-15.5 38q0 27 20.5 46.5t48.5 19.5q23 0 38.5 -15.5t15.5 -38.5zM-72 -119q17 -15 50 -15q79 0 90 93l63 513l89 3l-61 -499q-11 -89 -56.5 -136.5t-125.5 -47.5q-26 0 -47 7t-28 14l-8 7z" />
    <glyph glyph-name="k" unicode="k" horiz-adv-x="482" 
d="M523 472l-215 -221l176 -251h-110l-148 217h-46l-27 -217h-88l87 706h88l-52 -418h59l176 184h100z" />
    <glyph glyph-name="l" unicode="l" horiz-adv-x="220" 
d="M66 0l87 706h88l-87 -706h-88z" />
    <glyph glyph-name="m" unicode="m" horiz-adv-x="842" 
d="M664 476q80 0 121.5 -52t30.5 -137l-35 -287h-89l35 287q7 53 -16 84t-72 31q-56 0 -94 -46.5t-47 -103.5l-31 -252h-89l35 287q7 53 -16 84t-72 31q-56 0 -94 -46.5t-47 -104.5l-31 -251h-88l58 472l63 3q5 -46 -1 -110h1q15 32 37 56t55.5 39.5t72.5 15.5q59 0 97 -29
t51 -80q25 49 66.5 79t98.5 30z" />
    <glyph glyph-name="n" unicode="n" horiz-adv-x="536" 
d="M360 478q80 0 120.5 -51.5t29.5 -137.5l-35 -289h-89l35 289q7 53 -15.5 84t-71.5 31q-61 0 -101 -47.5t-49 -105.5l-31 -251h-88l58 472l63 3q5 -46 -1 -110h2q27 49 70.5 81t102.5 32z" />
    <glyph glyph-name="o" unicode="o" horiz-adv-x="539" 
d="M328 478q93 0 148.5 -59t55.5 -154q0 -119 -74.5 -195t-189.5 -76q-94 0 -149 57.5t-55 151.5q0 119 74.5 197t189.5 78zM277 68q72 0 118.5 53.5t46.5 136.5q0 65 -33 105.5t-90 40.5q-71 0 -117.5 -56t-46.5 -138q0 -64 33 -103t89 -39z" />
    <glyph glyph-name="p" unicode="p" horiz-adv-x="560" 
d="M368 478q84 0 134.5 -57t50.5 -151q0 -122 -70.5 -199t-179.5 -77q-50 0 -86 22.5t-55 60.5l-34 -281h-88l83 676l63 3q6 -65 -1 -110h2q25 50 70.5 81.5t110.5 31.5zM305 68q70 0 113.5 54t43.5 139q0 65 -32 104t-88 39q-62 0 -105 -47t-54 -107l-3 -31q-2 -27 4 -53
t20 -48.5t40 -36t61 -13.5z" />
    <glyph glyph-name="q" unicode="q" horiz-adv-x="560" 
d="M490 472h63l-83 -676h-88l35 285q-60 -87 -166 -87q-85 0 -135.5 57t-50.5 152q0 121 70.5 198t179.5 77q41 0 73 -15t50.5 -40t25.5 -58h2q2 44 24 107zM276 68q32 0 60 13.5t47.5 35.5t32 48t17.5 52l4 33q4 38 -6.5 71.5t-41 58t-76.5 24.5q-68 0 -112.5 -54
t-44.5 -139q0 -65 32 -104t88 -39z" />
    <glyph glyph-name="r" unicode="r" horiz-adv-x="331" 
d="M324 478q29 0 58 -8l-33 -89q-16 11 -42 11q-40 0 -76.5 -36.5t-46.5 -101.5l-31 -254h-88l58 472l63 3q5 -46 -1 -110h3q20 51 54.5 82t81.5 31z" />
    <glyph glyph-name="s" unicode="s" horiz-adv-x="448" 
d="M354 303q7 16 7 32q0 32 -24 50.5t-64 18.5q-44 0 -69.5 -20t-25.5 -52q0 -27 25.5 -42t62 -23t72.5 -18.5t61.5 -37t25.5 -69.5q0 -69 -56.5 -108.5t-147.5 -39.5q-118 0 -186 71l59 60q16 -19 53.5 -38t83.5 -19q50 0 77 18t27 48q0 24 -25.5 38t-61.5 23t-72.5 20.5
t-62 39t-25.5 69.5q0 65 55.5 109.5t140.5 44.5q73 0 117 -34.5t44 -89.5q0 -11 -2.5 -22.5t-4.5 -17.5l-2 -5z" />
    <glyph glyph-name="t" unicode="t" horiz-adv-x="385" 
d="M233 401l-27 -218q-14 -114 71 -114q23 0 44.5 6.5t31.5 13.5l10 7l18 -71q-49 -31 -123 -31q-85 0 -119 46.5t-22 139.5l27 221h-71l9 71h71l17 140l89 5l-18 -145h173l-9 -71h-172z" />
    <glyph glyph-name="u" unicode="u" horiz-adv-x="526" 
d="M431 472h88l-58 -472l-65 -3q-5 45 0 100h-1q-25 -46 -66 -74.5t-95 -28.5q-80 0 -121 52t-30 137l35 289h89l-35 -289q-7 -53 16 -84t72 -31q37 0 68.5 24.5t49 58.5t22.5 70z" />
    <glyph glyph-name="v" unicode="v" horiz-adv-x="493" 
d="M446 472h89l-240 -472h-96l-126 472h98l80 -330q8 -32 9 -52h2q7 21 20 52z" />
    <glyph glyph-name="w" unicode="w" horiz-adv-x="728" 
d="M675 472h91l-195 -472h-105l-51 327q-3 16 -3 33h-2q-5 -20 -11 -33l-135 -327h-102l-87 472h96l47 -330q2 -15 6 -32t4 -20h2q14 37 20 52l131 330h89l50 -327q2 -13 4 -33.5t2 -21.5h2l7 20q7 19 13 35z" />
    <glyph glyph-name="x" unicode="x" horiz-adv-x="461" 
d="M503 472l-193 -233l138 -239h-102l-81 148q-11 20 -11 28h-2q-2 -9 -19 -28l-117 -148h-99l194 233l-139 239h103l74 -141q18 -36 18 -40h2q5 12 26 40l108 141h100z" />
    <glyph glyph-name="y" unicode="y" horiz-adv-x="493" 
d="M447 472h90l-279 -556q-61 -125 -169 -125q-19 0 -36.5 3.5t-24.5 7.5l-8 4l25 73q20 -12 48 -12q56 0 91 74l21 45l-130 486h98l80 -330q8 -32 9 -52h1q4 12 21 52z" />
    <glyph glyph-name="z" unicode="z" horiz-adv-x="440" 
d="M34 0l9 71l280 302q7 7 15 15.5t12 12.5l-1 2q-10 -2 -38 -2h-223l9 71h362l-9 -71l-264 -287q-21 -24 -40 -43v-2q10 2 43 2h228l-9 -71h-374z" />
    <glyph glyph-name="braceleft" unicode="{" horiz-adv-x="311" 
d="M256 -210q-78 0 -124 40.5t-34 135.5l21 172q4 33 -12 50t-40 17h-10l9 72h10q24 0 44 17t24 50l24 191q22 176 201 176l-9 -78q-98 0 -111 -112l-24 -196q-9 -69 -57 -84q7 -2 15.5 -9.5t16 -28t4.5 -46.5l-21 -177q-13 -112 83 -112z" />
    <glyph glyph-name="bar" unicode="|" horiz-adv-x="225" 
d="M50 -204l111 901h75l-111 -901h-75z" />
    <glyph glyph-name="braceright" unicode="}" horiz-adv-x="311" 
d="M13 -132q97 0 110 112l22 177q8 62 57 84q-8 2 -16.5 8t-16 26.5t-3.5 49.5l24 197q13 112 -83 112l9 78q36 0 65 -8.5t53.5 -27t35 -54.5t4.5 -86l-24 -192q-4 -33 12.5 -50t40.5 -17h10l-9 -72h-10q-24 0 -44.5 -17t-24.5 -50l-21 -172q-12 -95 -68 -135.5t-133 -40.5z
" />
    <glyph glyph-name="asciitilde" unicode="~" horiz-adv-x="538" 
d="M94 245l8 62q46 33 109 33q40 0 98.5 -20t99.5 -20q64 0 108 30l-8 -62q-51 -33 -108 -33q-41 0 -99.5 20t-98.5 20q-63 0 -109 -30z" />
    <glyph glyph-name="exclamdown" unicode="&#xa1;" horiz-adv-x="226" 
d="M159 367q-21 0 -35 14t-14 35q0 25 18.5 43.5t44.5 18.5q20 0 34 -14.5t14 -35.5q0 -24 -19 -42.5t-43 -18.5zM37 -203l71 468l76 3l-49 -471h-98z" />
    <glyph glyph-name="cent" unicode="&#xa2;" horiz-adv-x="500" 
d="M286 68q87 0 144 63l44 -56q-64 -72 -174 -80l-13 -99h-66l13 101q-78 12 -122 68t-44 139q0 107 62.5 181.5t162.5 87.5l11 95h66l-11 -93q108 -8 154 -80l-57 -56q-43 63 -129 63q-77 0 -122.5 -53.5t-45.5 -139.5q0 -65 33 -103t94 -38z" />
    <glyph glyph-name="sterling" unicode="&#xa3;" horiz-adv-x="562" 
d="M202 73q18 3 46 3h273l-9 -76h-443l7 56q2 1 6 3.5t16 11t22.5 18t23.5 24t22.5 30t16 35.5t6.5 41q0 16 -3 32h-115l7 61h87q-11 25 -16 36.5t-10.5 35.5t-5.5 47q0 100 73 167.5t185 67.5q36 0 66 -7t50.5 -18.5t36.5 -25.5t25 -28t15 -25.5t8 -18.5l2 -7l-82 -35
q-1 4 -3 9.5t-11 20.5t-22 26t-38.5 20.5t-56.5 9.5q-67 0 -111 -42.5t-44 -105.5q0 -13 2 -26t6 -28t7 -23.5t10 -26t9 -23.5h206l-7 -61h-181q2 -15 2 -30q0 -38 -19.5 -74t-36.5 -52t-24 -19z" />
    <glyph glyph-name="currency" unicode="&#xa4;" horiz-adv-x="567" 
d="M147 329q0 58 38 113l-69 82l51 46l67 -81q54 44 116 44t104 -44l87 81l40 -46l-89 -82q17 -39 17 -78q0 -57 -40 -110l67 -79l-51 -46l-66 78q-49 -43 -114 -43q-64 0 -105 44l-89 -83l-40 46l91 84q-15 35 -15 74zM216 336q0 -43 27.5 -73t70.5 -30q49 0 87.5 38
t38.5 89q0 44 -28 73.5t-70 29.5q-50 0 -88 -37.5t-38 -89.5z" />
    <glyph glyph-name="yen" unicode="&#xa5;" horiz-adv-x="603" 
d="M631 660l-227 -353h126l-8 -64h-158l-8 -66h158l-8 -64h-158l-14 -113h-91l14 113h-159l8 64h159l7 62l-1 4h-157l8 64h123l-140 353h99l102 -261q20 -51 22 -83h2q9 32 41 83l167 261h93z" />
    <glyph glyph-name="brokenbar" unicode="&#xa6;" horiz-adv-x="223" 
d="M113 317l47 380h75l-47 -380h-75zM49 -204l47 380h75l-47 -380h-75z" />
    <glyph glyph-name="section" unicode="&#xa7;" horiz-adv-x="541" 
d="M518 215q0 -91 -72 -130q43 -38 43 -102q0 -88 -69.5 -140.5t-179.5 -52.5q-54 0 -101 13t-75 29.5t-47 35.5l66 71q63 -69 167 -69q66 0 106 27.5t40 74.5q0 25 -13 43.5t-34.5 29t-49 19.5t-56 15.5t-56 17.5t-49 25t-34.5 38.5t-13 57.5q0 43 23.5 76.5t63.5 53.5
q-61 41 -61 124q0 88 66 141t167 53q48 0 85.5 -12.5t57.5 -29.5t33.5 -41.5t18 -41t6.5 -35.5l-88 -23q-1 37 -30 70t-93 33q-58 0 -94 -28.5t-36 -76.5q0 -39 31.5 -63t77 -37t91 -28t77 -49.5t31.5 -88.5zM177 232q0 -20 11.5 -35t33.5 -25t44 -16.5t55 -15t55 -16.5
q51 23 51 81q0 18 -8 32.5t-18.5 23.5t-30.5 17.5t-35.5 12.5t-41.5 11t-42 12q-33 -4 -53.5 -26t-20.5 -56z" />
    <glyph glyph-name="dieresis" unicode="&#xa8;" horiz-adv-x="344" 
d="M151 573q-20 0 -33 13.5t-13 33.5q0 24 18 41.5t41 17.5q19 0 32 -14t13 -34q0 -24 -17.5 -41t-40.5 -17zM334 573q-19 0 -32 13.5t-13 33.5q0 24 17.5 41.5t40.5 17.5q21 0 33.5 -13.5t12.5 -33.5q0 -25 -17 -42t-42 -17z" />
    <glyph glyph-name="copyright" unicode="&#xa9;" horiz-adv-x="728" 
d="M362 -5q-129 0 -204.5 79.5t-75.5 211.5q0 167 102.5 273t260.5 106q130 0 206 -79.5t76 -210.5q0 -167 -102.5 -273.5t-262.5 -106.5zM366 24q144 0 236.5 97.5t92.5 250.5q0 120 -68.5 192t-185.5 72q-142 0 -234.5 -97t-92.5 -249q0 -121 68 -193.5t184 -72.5z
M543 176q-2 -3 -6 -7.5t-19 -15.5t-32.5 -20t-46.5 -16t-61 -7q-77 0 -121.5 49t-44.5 131q0 111 62.5 183t157.5 72q72 0 111.5 -37t31.5 -97l-66 -11v8.5t-3.5 19t-11.5 23.5t-26 18.5t-44 8.5q-58 0 -96 -50.5t-38 -126.5q0 -57 28.5 -90.5t76.5 -33.5q36 0 66.5 12.5
t42.5 24.5l12 13z" />
    <glyph glyph-name="ordfeminine" unicode="&#xaa;" horiz-adv-x="447" 
d="M431 354q10 0 15 1l-6 -70q-20 -5 -45 -5q-69 0 -67 61h-1q-43 -62 -126 -62q-53 0 -81.5 25t-28.5 67q0 70 61.5 100t184.5 30h7l3 21q5 34 -13 54.5t-55 20.5q-36 0 -57.5 -15.5t-21.5 -41.5q0 -4 3 -13l-80 -14q-2 10 -2 22q0 58 46.5 94.5t123.5 36.5
q76 0 112.5 -38.5t28.5 -107.5l-17 -140q-2 -15 1.5 -20.5t14.5 -5.5zM232 348q40 0 67.5 19t34.5 45l4 37h-8q-80 0 -115.5 -15.5t-35.5 -47.5q0 -38 53 -38z" />
    <glyph glyph-name="guillemotleft" unicode="&#xab;" horiz-adv-x="453" 
d="M67 228l9 72l158 136l37 -50l-142 -122l113 -121l-51 -51zM251 228l9 72l158 136l37 -50l-142 -122l113 -121l-51 -51z" />
    <glyph glyph-name="registered" unicode="&#xae;" horiz-adv-x="421" 
d="M249 316q-66 0 -106.5 42t-40.5 110q0 86 54.5 142t135.5 56q66 0 106.5 -43t40.5 -111q0 -85 -54.5 -140.5t-135.5 -55.5zM252 340q70 0 115.5 48t45.5 122q0 59 -33.5 95.5t-90.5 36.5q-71 0 -116 -48t-45 -124q0 -59 33.5 -94.5t90.5 -35.5zM344 384q-5 -1 -12 -1
q-16 0 -25.5 12.5t-13 28t-15 28t-29.5 12.5h-20l-10 -80h-29l26 214h71q26 0 41.5 -15t15.5 -40t-13 -41.5t-24 -21.5t-17 -5q12 -5 19.5 -16.5t9.5 -22t7.5 -19t14.5 -8.5h4zM269 491q19 0 33 14.5t14 33.5q0 15 -10 24t-26 9h-38l-10 -81h37z" />
    <glyph glyph-name="macron" unicode="&#xaf;" horiz-adv-x="369" 
d="M123 592l8 65h269l-8 -65h-269z" />
    <glyph glyph-name="degree" unicode="&#xb0;" horiz-adv-x="324" 
d="M350 554q0 -62 -39 -101.5t-99 -39.5q-48 0 -77 30t-29 79q0 62 39.5 102t97.5 40q49 0 78 -30t29 -80zM300 548q0 30 -17.5 48.5t-45.5 18.5q-35 0 -58 -24.5t-23 -63.5q0 -29 17 -47t45 -18q36 0 59 24t23 62z" />
    <glyph glyph-name="plusminus" unicode="&#xb1;" horiz-adv-x="483" 
d="M319 359h149l-8 -65h-149l-16 -134h-67l16 134h-149l8 65h149l16 130h67zM64 40l8 65h365l-8 -65h-365z" />
    <glyph glyph-name="acute" unicode="&#xb4;" horiz-adv-x="261" 
d="M184 548l-80 -5l73 155h113z" />
    <glyph glyph-name="paragraph" unicode="&#xb6;" horiz-adv-x="545" 
d="M381 -199l100 814h-86l-100 -814h-54l61 502h-38q-83 0 -132.5 43t-49.5 114q0 88 63.5 144t162.5 56h233l-105 -859h-55z" />
    <glyph glyph-name="periodcentered" unicode="&#xb7;" horiz-adv-x="218" 
d="M95 350q0 26 19.5 45.5t46.5 19.5q21 0 35.5 -15.5t14.5 -37.5q0 -26 -19.5 -45t-45.5 -19q-22 0 -36.5 15t-14.5 37z" />
    <glyph glyph-name="cedilla" unicode="&#xb8;" horiz-adv-x="260" 
d="M148 -29q26 -4 46 -22t20 -50q0 -45 -33 -71.5t-80 -26.5q-26 0 -47.5 9.5t-29.5 19.5l-9 9l31 50q21 -27 61 -27q45 0 45 33q0 37 -82 37l44 83h58z" />
    <glyph glyph-name="ordmasculine" unicode="&#xba;" horiz-adv-x="452" 
d="M308 666q76 0 120.5 -47t44.5 -122q0 -95 -60.5 -156.5t-152.5 -61.5q-76 0 -120.5 46.5t-44.5 121.5q0 95 60 157t153 62zM269 352q50 0 82.5 39t32.5 99q0 47 -22.5 75.5t-62.5 28.5q-50 0 -82.5 -40t-32.5 -100q0 -46 23 -74t62 -28z" />
    <glyph glyph-name="guillemotright" unicode="&#xbb;" horiz-adv-x="453" 
d="M101 92l-38 51l141 121l-112 122l52 50l123 -136l-9 -72zM285 92l-38 51l141 121l-112 122l52 50l123 -136l-9 -72z" />
    <glyph glyph-name="onequarter" unicode="&#xbc;" horiz-adv-x="797" 
d="M185 0l369 666h83l-368 -666h-84zM179 296l34 274l-120 -24l10 79l190 34h14l-45 -363h-83zM747 363l-27 -219h67l-9 -71h-67l-9 -73h-85l9 73h-193l11 82l212 208h91zM638 144l13 104q1 18 5 32l-1 2q-3 -5 -22 -26l-84 -85q-10 -10 -30 -26l1 -2q7 1 40 1h78z" />
    <glyph glyph-name="onehalf" unicode="&#xbd;" horiz-adv-x="790" 
d="M185 0l369 666h83l-368 -666h-84zM179 296l34 274l-120 -24l10 79l190 34h14l-45 -363h-83zM595 71q4 1 34 1h137l-9 -72h-304l7 57q16 9 48.5 28t48.5 28.5t41 26t38 27t27 24.5t20 26.5t6 25.5q0 21 -15 34.5t-40 13.5q-30 0 -49.5 -15.5t-19.5 -37.5q0 -6 2 -8
l-86 -16q-2 6 -2 19q0 55 45 94.5t119 39.5q63 0 98.5 -29.5t35.5 -82.5q0 -31 -12 -56.5t-37.5 -47t-43 -33t-50.5 -29.5q-21 -12 -40 -16z" />
    <glyph glyph-name="threequarters" unicode="&#xbe;" horiz-adv-x="883" 
d="M272 0l369 666h83l-368 -666h-84zM277 663q62 0 99 -27.5t37 -72.5q0 -37 -25 -61t-62 -24v-1q33 0 56 -21t23 -54q0 -49 -46.5 -79.5t-125.5 -30.5q-37 0 -67.5 7.5t-47 19t-27.5 22.5t-15 19l-3 7l71 45q3 -5 9.5 -12.5t31.5 -19.5t55 -12q78 0 78 40q0 14 -18 23
t-49 9h-44l8 67h30q41 0 59.5 9.5t18.5 30.5q0 18 -14.5 29t-42.5 11q-30 0 -49 -10t-19 -25q0 -6 1 -7l-87 -14v15q0 53 46 85t119 32zM834 363l-27 -219h67l-9 -71h-67l-9 -73h-85l9 73h-194l11 82l213 208h91zM724 144l13 104q2 24 6 32l-2 2q-5 -8 -21 -26l-85 -85
q-18 -18 -30 -26l2 -2q7 1 40 1h77z" />
    <glyph glyph-name="questiondown" unicode="&#xbf;" horiz-adv-x="439" 
d="M288 367q-21 0 -35 14.5t-14 35.5q0 25 18.5 43t44.5 18q20 0 33.5 -14.5t13.5 -35.5q0 -24 -18.5 -42.5t-42.5 -18.5zM197 -223q-83 0 -131 45t-48 117q0 47 19.5 84.5t48.5 63t59 49.5t54.5 56.5t31.5 71.5q2 10 2 14l83 3q0 -2 -1 -9t-2 -9q-10 -50 -35 -89.5
t-52.5 -63t-54 -45.5t-43.5 -49.5t-17 -63.5q0 -42 26 -69t69 -27q49 0 80.5 29t31.5 74q0 7 -2 15l90 14q2 -12 2 -27q0 -80 -59.5 -132t-151.5 -52z" />
    <glyph glyph-name="Agrave" unicode="&#xc0;" horiz-adv-x="585" 
d="M422 696l-80 -5l-73 125h113zM479 0l-37 164h-259l-77 -164h-94l315 660h92l154 -660h-94zM218 239h208l-54 239q-7 27 -12 69h-2q-13 -37 -28 -69z" />
    <glyph glyph-name="Aacute" unicode="&#xc1;" horiz-adv-x="585" 
d="M516 816l-104 -120l-79 -5l69 125h114zM479 0l-37 164h-259l-77 -164h-94l315 660h92l154 -660h-94zM218 239h208l-54 239q-7 27 -12 69h-2q-13 -37 -28 -69z" />
    <glyph glyph-name="Acircumflex" unicode="&#xc2;" horiz-adv-x="585" 
d="M386 758l-72 -64l-77 -3l109 134h98l77 -134l-78 3zM479 0l-37 164h-259l-77 -164h-94l315 660h92l154 -660h-94zM218 239h208l-54 239q-7 27 -12 69h-2q-13 -37 -28 -69z" />
    <glyph glyph-name="Atilde" unicode="&#xc3;" horiz-adv-x="585" 
d="M280 678h-67q-2 10 -2 23q0 46 28.5 73.5t72.5 27.5q36 0 74.5 -27.5t49.5 -27.5q32 0 32 46l-1 18h69v-14q0 -50 -25.5 -83t-71.5 -33q-34 0 -74.5 27.5t-52.5 27.5q-15 0 -24.5 -10.5t-9.5 -28.5zM479 0l-37 164h-259l-77 -164h-94l315 660h92l154 -660h-94zM218 239
h208l-54 239q-7 27 -12 69h-2q-13 -37 -28 -69z" />
    <glyph glyph-name="Adieresis" unicode="&#xc4;" horiz-adv-x="585" 
d="M291 704q-19 0 -32 13.5t-13 33.5q0 22 17.5 39.5t40.5 17.5q19 0 31.5 -13.5t12.5 -33.5q0 -23 -17.5 -40t-39.5 -17zM475 704q-19 0 -32 13.5t-13 33.5q0 22 17.5 39.5t40.5 17.5q19 0 31.5 -13.5t12.5 -33.5q0 -23 -17 -40t-40 -17zM479 0l-37 164h-259l-77 -164h-94
l315 660h92l154 -660h-94zM218 239h208l-54 239q-7 27 -12 69h-2q-13 -37 -28 -69z" />
    <glyph glyph-name="Aring" unicode="&#xc5;" horiz-adv-x="585" 
d="M375 677q-31 0 -51 21t-20 52q0 37 27.5 63.5t63.5 26.5q30 0 50 -21t20 -52q0 -37 -27.5 -63.5t-62.5 -26.5zM389 789q-13 0 -23 -10t-10 -24q0 -12 7 -20t18 -8q12 0 22.5 10.5t10.5 23.5q0 12 -7 20t-18 8zM479 0l-37 164h-259l-77 -164h-94l315 660h92l154 -660h-94z
M218 239h208l-54 239q-7 27 -12 69h-2q-13 -37 -28 -69z" />
    <glyph glyph-name="AE" unicode="&#xc6;" horiz-adv-x="941" 
d="M918 583h-300l-25 -202h266l-10 -77h-266l-28 -227h300l-9 -77h-391l20 164h-258l-135 -164h-94l542 660h397zM278 239h206l37 295z" />
    <glyph glyph-name="Ccedilla" unicode="&#xc7;" horiz-adv-x="607" 
d="M623 443l-86 -14q3 25 -2.5 51t-19.5 50.5t-43 40t-69 15.5q-94 0 -161 -81.5t-67 -217.5q0 -107 51 -160t130 -53q56 0 104 29t81 71l48 -56q-93 -113 -222 -123l-13 -24q26 -4 46 -22t20 -50q0 -45 -33 -71.5t-80 -26.5q-12 0 -23 2t-19.5 5.5t-15.5 7.5t-12 8t-9 7.5
t-5 5.5l-2 2l31 50q2 -3 7 -7.5t20.5 -12t33.5 -7.5q21 0 33 8.5t12 24.5t-19.5 26.5t-62.5 10.5l34 64q-106 10 -166.5 85t-60.5 199q0 170 94.5 278t234.5 108q63 0 109 -22.5t68 -57.5t30 -71.5t4 -71.5z" />
    <glyph glyph-name="Egrave" unicode="&#xc8;" horiz-adv-x="519" 
d="M423 696l-80 -5l-73 125h113zM542 583h-300l-25 -202h266l-10 -77h-266l-28 -227h300l-9 -77h-391l81 660h391z" />
    <glyph glyph-name="Eacute" unicode="&#xc9;" horiz-adv-x="519" 
d="M517 816l-104 -120l-79 -5l69 125h114zM542 583h-300l-25 -202h266l-10 -77h-266l-28 -227h300l-9 -77h-391l81 660h391z" />
    <glyph glyph-name="Ecircumflex" unicode="&#xca;" horiz-adv-x="519" 
d="M387 758l-72 -64l-77 -3l109 134h98l77 -134l-78 3zM542 583h-300l-25 -202h266l-10 -77h-266l-28 -227h300l-9 -77h-391l81 660h391z" />
    <glyph glyph-name="Edieresis" unicode="&#xcb;" horiz-adv-x="519" 
d="M292 704q-19 0 -32 13.5t-13 33.5q0 22 17.5 39.5t40.5 17.5q19 0 31.5 -13.5t12.5 -33.5q0 -23 -17.5 -40t-39.5 -17zM476 704q-19 0 -32 13.5t-13 33.5q0 22 17.5 39.5t40.5 17.5q19 0 31.5 -13.5t12.5 -33.5q0 -23 -17 -40t-40 -17zM542 583h-300l-25 -202h266
l-10 -77h-266l-28 -227h300l-9 -77h-391l81 660h391z" />
    <glyph glyph-name="Igrave" unicode="&#xcc;" horiz-adv-x="249" 
d="M175 691l-73 125h113l40 -120zM79 0l81 660h91l-81 -660h-91z" />
    <glyph glyph-name="Iacute" unicode="&#xcd;" horiz-adv-x="249" 
d="M245 696l-79 -5l69 125h114zM79 0l81 660h91l-81 -660h-91z" />
    <glyph glyph-name="Icircumflex" unicode="&#xce;" horiz-adv-x="249" 
d="M277 825l77 -134l-78 3l-57 64l-72 -64l-77 -3l109 134h98zM79 0l81 660h91l-81 -660h-91z" />
    <glyph glyph-name="Idieresis" unicode="&#xcf;" horiz-adv-x="249" 
d="M124 704q-19 0 -32 13.5t-13 33.5q0 22 17.5 39.5t40.5 17.5q19 0 31.5 -13.5t12.5 -33.5q0 -23 -17.5 -40t-39.5 -17zM308 704q-19 0 -32 13.5t-13 33.5q0 22 17.5 39.5t40.5 17.5q19 0 31.5 -13.5t12.5 -33.5q0 -23 -17 -40t-40 -17zM79 0l81 660h91l-81 -660h-91z" />
    <glyph glyph-name="Eth" unicode="&#xd0;" horiz-adv-x="638" 
d="M353 660q137 0 210 -73.5t73 -206.5q0 -188 -89.5 -284t-242.5 -96h-225l36 290h-86l9 74h86l36 296h193zM310 77q105 0 169.5 75.5t64.5 221.5q0 69 -23.5 116t-68.5 70t-111 23h-99l-27 -219h168l-9 -74h-168l-27 -213h131z" />
    <glyph glyph-name="Ntilde" unicode="&#xd1;" horiz-adv-x="655" 
d="M601 811v-14q0 -50 -25.5 -83t-71.5 -33q-34 0 -74.5 27.5t-52.5 27.5q-15 0 -24.5 -10.5t-9.5 -28.5l2 -19h-67q-2 10 -2 23q0 46 28.5 73.5t72.5 27.5q36 0 74.5 -27.5t49.5 -27.5q32 0 32 46l-1 18h69zM657 660l-81 -660h-98l-193 414q-32 68 -52 122l-6 -3
q4 -16 -8 -118l-49 -415h-91l81 660h100l193 -418q23 -50 49 -120l6 3q8 110 9 119l49 416h91z" />
    <glyph glyph-name="Ograve" unicode="&#xd2;" horiz-adv-x="681" 
d="M390 691l-73 125h113l40 -120zM422 666q117 0 187.5 -78t70.5 -210q0 -171 -97 -277.5t-244 -106.5q-116 0 -186.5 78.5t-70.5 209.5q0 171 97.5 277.5t242.5 106.5zM349 74q103 0 171 82t68 214q0 99 -48 157.5t-128 58.5q-101 0 -169.5 -82.5t-68.5 -213.5
q0 -99 48 -157.5t127 -58.5z" />
    <glyph glyph-name="Oacute" unicode="&#xd3;" horiz-adv-x="681" 
d="M460 696l-79 -5l69 125h114zM422 666q117 0 187.5 -78t70.5 -210q0 -171 -97 -277.5t-244 -106.5q-116 0 -186.5 78.5t-70.5 209.5q0 171 97.5 277.5t242.5 106.5zM349 74q103 0 171 82t68 214q0 99 -48 157.5t-128 58.5q-101 0 -169.5 -82.5t-68.5 -213.5
q0 -99 48 -157.5t127 -58.5z" />
    <glyph glyph-name="Ocircumflex" unicode="&#xd4;" horiz-adv-x="681" 
d="M492 825l77 -134l-78 3l-57 64l-72 -64l-77 -3l109 134h98zM422 666q117 0 187.5 -78t70.5 -210q0 -171 -97 -277.5t-244 -106.5q-116 0 -186.5 78.5t-70.5 209.5q0 171 97.5 277.5t242.5 106.5zM349 74q103 0 171 82t68 214q0 99 -48 157.5t-128 58.5
q-101 0 -169.5 -82.5t-68.5 -213.5q0 -99 48 -157.5t127 -58.5z" />
    <glyph glyph-name="Otilde" unicode="&#xd5;" horiz-adv-x="681" 
d="M584 811v-14q0 -50 -25.5 -83t-71.5 -33q-34 0 -74.5 27.5t-52.5 27.5q-15 0 -24.5 -10.5t-9.5 -28.5l2 -19h-67q-2 10 -2 23q0 46 28.5 73.5t72.5 27.5q36 0 74.5 -27.5t49.5 -27.5q32 0 32 46l-1 18h69zM422 666q117 0 187.5 -78t70.5 -210q0 -171 -97 -277.5
t-244 -106.5q-116 0 -186.5 78.5t-70.5 209.5q0 171 97.5 277.5t242.5 106.5zM349 74q103 0 171 82t68 214q0 99 -48 157.5t-128 58.5q-101 0 -169.5 -82.5t-68.5 -213.5q0 -99 48 -157.5t127 -58.5z" />
    <glyph glyph-name="Odieresis" unicode="&#xd6;" horiz-adv-x="681" 
d="M339 704q-19 0 -32 13.5t-13 33.5q0 22 17.5 39.5t40.5 17.5q19 0 31.5 -13.5t12.5 -33.5q0 -23 -17.5 -40t-39.5 -17zM523 704q-19 0 -32 13.5t-13 33.5q0 22 17.5 39.5t40.5 17.5q19 0 31.5 -13.5t12.5 -33.5q0 -23 -17 -40t-40 -17zM422 666q117 0 187.5 -78
t70.5 -210q0 -171 -97 -277.5t-244 -106.5q-116 0 -186.5 78.5t-70.5 209.5q0 171 97.5 277.5t242.5 106.5zM349 74q103 0 171 82t68 214q0 99 -48 157.5t-128 58.5q-101 0 -169.5 -82.5t-68.5 -213.5q0 -99 48 -157.5t127 -58.5z" />
    <glyph glyph-name="multiply" unicode="&#xd7;" horiz-adv-x="428" 
d="M421 362l-133 -124l103 -124l-53 -46l-101 123l-132 -123l-40 46l133 124l-103 124l52 46l102 -123l131 123z" />
    <glyph glyph-name="Oslash" unicode="&#xd8;" horiz-adv-x="681" 
d="M697 688l-81 -108q64 -77 64 -202q0 -171 -97 -277.5t-244 -106.5q-77 0 -136 36l-56 -74h-90l91 121q-66 78 -66 205q0 85 26.5 157.5t72.5 122t108.5 77t132.5 27.5q80 0 140 -38l45 60h90zM174 290q0 -80 33 -135l302 402q-42 29 -97 29q-66 0 -120 -36.5t-86 -104.5
t-32 -155zM588 370q0 78 -31 132l-301 -401q40 -27 93 -27q103 0 171 82t68 214z" />
    <glyph glyph-name="Ugrave" unicode="&#xd9;" horiz-adv-x="649" 
d="M375 691l-73 125h113l40 -120zM565 660h91l-50 -405q-14 -117 -92 -189t-190 -72q-113 0 -173 71.5t-46 189.5l50 405h91l-49 -403q-10 -86 27.5 -134.5t109.5 -48.5t121.5 48.5t59.5 132.5z" />
    <glyph glyph-name="Uacute" unicode="&#xda;" horiz-adv-x="649" 
d="M445 696l-79 -5l69 125h114zM565 660h91l-50 -405q-14 -117 -92 -189t-190 -72q-113 0 -173 71.5t-46 189.5l50 405h91l-49 -403q-10 -86 27.5 -134.5t109.5 -48.5t121.5 48.5t59.5 132.5z" />
    <glyph glyph-name="Ucircumflex" unicode="&#xdb;" horiz-adv-x="649" 
d="M477 825l77 -134l-78 3l-57 64l-72 -64l-77 -3l109 134h98zM565 660h91l-50 -405q-14 -117 -92 -189t-190 -72q-113 0 -173 71.5t-46 189.5l50 405h91l-49 -403q-10 -86 27.5 -134.5t109.5 -48.5t121.5 48.5t59.5 132.5z" />
    <glyph glyph-name="Udieresis" unicode="&#xdc;" horiz-adv-x="649" 
d="M324 704q-19 0 -32 13.5t-13 33.5q0 22 17.5 39.5t40.5 17.5q19 0 31.5 -13.5t12.5 -33.5q0 -23 -17.5 -40t-39.5 -17zM508 704q-19 0 -32 13.5t-13 33.5q0 22 17.5 39.5t40.5 17.5q19 0 31.5 -13.5t12.5 -33.5q0 -23 -17 -40t-40 -17zM565 660h91l-50 -405
q-14 -117 -92 -189t-190 -72q-113 0 -173 71.5t-46 189.5l50 405h91l-49 -403q-10 -86 27.5 -134.5t109.5 -48.5t121.5 48.5t59.5 132.5z" />
    <glyph glyph-name="Yacute" unicode="&#xdd;" horiz-adv-x="551" 
d="M501 816l-104 -120l-79 -5l69 125h114zM619 660l-267 -414l-30 -246h-91l29 239l-167 421h99l102 -261q20 -51 22 -83h2q9 32 41 83l167 261h93z" />
    <glyph glyph-name="Thorn" unicode="&#xde;" horiz-adv-x="566" 
d="M353 558q108 0 166 -50t58 -142q0 -120 -71.5 -187.5t-196.5 -67.5h-125l-14 -111h-91l81 660h91l-13 -102h115zM303 188q85 0 132 44t47 123q0 60 -37.5 93t-108.5 33h-107l-36 -293h110z" />
    <glyph glyph-name="germandbls" unicode="&#xdf;" horiz-adv-x="534" 
d="M407 357q56 -17 85 -57t29 -97q0 -92 -58 -150.5t-166 -58.5q-27 0 -51.5 2.5t-35.5 5.5l-10 2l25 74q30 -10 80 -10q55 0 90.5 36.5t35.5 95.5q0 53 -34 83.5t-103 30.5h-31l8 72h14q54 0 94 45.5t40 108.5q0 44 -24.5 71t-64.5 27q-99 0 -114 -123l-63 -515h-88l65 530
q10 82 66 132t141 50q78 0 125 -46t47 -120q0 -55 -28 -105.5t-74 -83.5z" />
    <glyph glyph-name="agrave" unicode="&#xe0;" horiz-adv-x="509" 
d="M344 548l-79 -5l-69 155h113zM467 73q8 0 16 2l-4 -74q-24 -6 -49 -6q-83 0 -73 78v1h-1q-53 -80 -165 -80q-66 0 -101.5 31.5t-35.5 83.5q0 84 75 122t234 38h13l4 30q6 49 -18 77t-78 28q-51 0 -80.5 -22t-29.5 -61q0 -7 2 -17l-83 -14q-2 12 -2 27q0 70 56.5 115.5
t147.5 45.5q92 0 137.5 -48t34.5 -130l-24 -191q-2 -20 3 -28t21 -8zM219 68q58 0 97.5 27.5t45.5 62.5l7 50h-13q-115 0 -163.5 -22t-48.5 -66q0 -52 75 -52z" />
    <glyph glyph-name="aacute" unicode="&#xe1;" horiz-adv-x="509" 
d="M430 698l-106 -150l-80 -5l73 155h113zM467 73q8 0 16 2l-4 -74q-24 -6 -49 -6q-83 0 -73 78v1h-1q-53 -80 -165 -80q-66 0 -101.5 31.5t-35.5 83.5q0 84 75 122t234 38h13l4 30q6 49 -18 77t-78 28q-51 0 -80.5 -22t-29.5 -61q0 -7 2 -17l-83 -14q-2 12 -2 27
q0 70 56.5 115.5t147.5 45.5q92 0 137.5 -48t34.5 -130l-24 -191q-2 -20 3 -28t21 -8zM219 68q58 0 97.5 27.5t45.5 62.5l7 50h-13q-115 0 -163.5 -22t-48.5 -66q0 -52 75 -52z" />
    <glyph glyph-name="acircumflex" unicode="&#xe2;" horiz-adv-x="509" 
d="M314 630l-74 -84l-77 -3l112 154h96l76 -154l-78 3zM467 73q8 0 16 2l-4 -74q-24 -6 -49 -6q-83 0 -73 78v1h-1q-53 -80 -165 -80q-66 0 -101.5 31.5t-35.5 83.5q0 84 75 122t234 38h13l4 30q6 49 -18 77t-78 28q-51 0 -80.5 -22t-29.5 -61q0 -7 2 -17l-83 -14
q-2 12 -2 27q0 70 56.5 115.5t147.5 45.5q92 0 137.5 -48t34.5 -130l-24 -191q-2 -20 3 -28t21 -8zM219 68q58 0 97.5 27.5t45.5 62.5l7 50h-13q-115 0 -163.5 -22t-48.5 -66q0 -52 75 -52z" />
    <glyph glyph-name="atilde" unicode="&#xe3;" horiz-adv-x="509" 
d="M208 549h-67q-1 10 -1 23q0 43 28.5 75t72.5 32q36 0 75 -27.5t50 -27.5q32 0 32 46l-2 18h69q1 -6 1 -14q0 -50 -26 -83t-75 -33q-31 0 -71 27.5t-50 27.5q-15 0 -26 -11t-11 -34zM467 73q8 0 16 2l-4 -74q-24 -6 -49 -6q-83 0 -73 78v1h-1q-53 -80 -165 -80
q-66 0 -101.5 31.5t-35.5 83.5q0 84 75 122t234 38h13l4 30q6 49 -18 77t-78 28q-51 0 -80.5 -22t-29.5 -61q0 -7 2 -17l-83 -14q-2 12 -2 27q0 70 56.5 115.5t147.5 45.5q92 0 137.5 -48t34.5 -130l-24 -191q-2 -20 3 -28t21 -8zM219 68q58 0 97.5 27.5t45.5 62.5l7 50h-13
q-115 0 -163.5 -22t-48.5 -66q0 -52 75 -52z" />
    <glyph glyph-name="adieresis" unicode="&#xe4;" horiz-adv-x="509" 
d="M220 573q-20 0 -33 13.5t-13 33.5q0 24 18 41.5t41 17.5q19 0 32 -14t13 -34q0 -24 -17.5 -41t-40.5 -17zM403 573q-19 0 -32 13.5t-13 33.5q0 24 17.5 41.5t40.5 17.5q21 0 33.5 -13.5t12.5 -33.5q0 -25 -17 -42t-42 -17zM467 73q8 0 16 2l-4 -74q-24 -6 -49 -6
q-83 0 -73 78v1h-1q-53 -80 -165 -80q-66 0 -101.5 31.5t-35.5 83.5q0 84 75 122t234 38h13l4 30q6 49 -18 77t-78 28q-51 0 -80.5 -22t-29.5 -61q0 -7 2 -17l-83 -14q-2 12 -2 27q0 70 56.5 115.5t147.5 45.5q92 0 137.5 -48t34.5 -130l-24 -191q-2 -20 3 -28t21 -8z
M219 68q58 0 97.5 27.5t45.5 62.5l7 50h-13q-115 0 -163.5 -22t-48.5 -66q0 -52 75 -52z" />
    <glyph glyph-name="aring" unicode="&#xe5;" horiz-adv-x="509" 
d="M302 531q-34 0 -56 23t-22 57q0 41 30 70t70 29q33 0 55 -23t22 -57q0 -41 -29.5 -70t-69.5 -29zM317 654q-14 0 -25 -11t-11 -27q0 -13 7.5 -21.5t20.5 -8.5q14 0 25 11.5t11 26.5q0 13 -8 21.5t-20 8.5zM467 73q8 0 16 2l-4 -74q-24 -6 -49 -6q-83 0 -73 78v1h-1
q-53 -80 -165 -80q-66 0 -101.5 31.5t-35.5 83.5q0 84 75 122t234 38h13l4 30q6 49 -18 77t-78 28q-51 0 -80.5 -22t-29.5 -61q0 -7 2 -17l-83 -14q-2 12 -2 27q0 70 56.5 115.5t147.5 45.5q92 0 137.5 -48t34.5 -130l-24 -191q-2 -20 3 -28t21 -8zM219 68q58 0 97.5 27.5
t45.5 62.5l7 50h-13q-115 0 -163.5 -22t-48.5 -66q0 -52 75 -52z" />
    <glyph glyph-name="ae" unicode="&#xe6;" horiz-adv-x="806" 
d="M623 478q86 0 132.5 -53.5t46.5 -137.5q0 -18 -3 -37t-5 -28l-3 -10h-334v-1q0 -66 35 -104.5t99 -38.5q83 0 134 62l46 -49q-71 -87 -197 -87q-65 0 -110.5 27t-68.5 76h-4q-64 -103 -198 -103q-67 0 -103 31t-36 84q0 84 75 122t234 38h13l4 30q6 49 -18 77t-78 28
q-51 0 -80.5 -22t-29.5 -60q0 -14 3 -21l-85 -14q-2 11 -2 27q0 72 56.5 118t148.5 46q104 0 150 -75q70 75 178 75zM614 404q-54 0 -93.5 -35.5t-55.5 -93.5h249q1 8 1 17q0 51 -27 81.5t-74 30.5zM219 68q60 0 100 29.5t44 65.5l6 45h-13q-115 0 -163.5 -22t-48.5 -66
q0 -52 75 -52z" />
    <glyph glyph-name="ccedilla" unicode="&#xe7;" horiz-adv-x="493" 
d="M484 285l-82 -6q6 16 6 37q0 39 -24.5 63.5t-68.5 24.5q-69 0 -114.5 -54.5t-45.5 -140.5q0 -42 14.5 -73.5t43 -49.5t69.5 -18q87 0 144 63l44 -56q-68 -77 -188 -81l-13 -23q26 -4 46 -22t20 -50q0 -45 -33 -71.5t-80 -26.5q-12 0 -23 2t-19.5 5.5t-15.5 7.5t-12 8
t-9 7.5t-5 5.5l-2 2l31 50q2 -3 7 -7.5t20.5 -12t33.5 -7.5q21 0 33 8.5t12 24.5t-19.5 26.5t-62.5 10.5l35 66q-50 8 -87 36t-56 71t-19 97q0 119 74.5 197.5t184.5 78.5q78 0 123.5 -41t45.5 -104q0 -12 -2 -24t-4 -18z" />
    <glyph glyph-name="egrave" unicode="&#xe8;" horiz-adv-x="503" 
d="M367 548l-79 -5l-69 155h113zM321 478q86 0 132.5 -53.5t46.5 -137.5q0 -18 -3 -37t-5 -28l-3 -10h-334v-1q0 -66 35 -104.5t99 -38.5q83 0 134 62l46 -49q-70 -87 -197 -87q-96 0 -151.5 57t-55.5 152q0 118 72 196.5t184 78.5zM312 404q-54 0 -93.5 -35.5t-55.5 -93.5
h249q1 8 1 17q0 51 -27 81.5t-74 30.5z" />
    <glyph glyph-name="eacute" unicode="&#xe9;" horiz-adv-x="503" 
d="M453 698l-106 -150l-80 -5l73 155h113zM321 478q86 0 132.5 -53.5t46.5 -137.5q0 -18 -3 -37t-5 -28l-3 -10h-334v-1q0 -66 35 -104.5t99 -38.5q83 0 134 62l46 -49q-70 -87 -197 -87q-96 0 -151.5 57t-55.5 152q0 118 72 196.5t184 78.5zM312 404q-54 0 -93.5 -35.5
t-55.5 -93.5h249q1 8 1 17q0 51 -27 81.5t-74 30.5z" />
    <glyph glyph-name="ecircumflex" unicode="&#xea;" horiz-adv-x="503" 
d="M337 630l-74 -84l-77 -3l112 154h96l76 -154l-78 3zM321 478q86 0 132.5 -53.5t46.5 -137.5q0 -18 -3 -37t-5 -28l-3 -10h-334v-1q0 -66 35 -104.5t99 -38.5q83 0 134 62l46 -49q-70 -87 -197 -87q-96 0 -151.5 57t-55.5 152q0 118 72 196.5t184 78.5zM312 404
q-54 0 -93.5 -35.5t-55.5 -93.5h249q1 8 1 17q0 51 -27 81.5t-74 30.5z" />
    <glyph glyph-name="edieresis" unicode="&#xeb;" horiz-adv-x="503" 
d="M243 573q-20 0 -33 13.5t-13 33.5q0 24 18 41.5t41 17.5q19 0 32 -14t13 -34q0 -24 -17.5 -41t-40.5 -17zM426 573q-19 0 -32 13.5t-13 33.5q0 24 17.5 41.5t40.5 17.5q21 0 33.5 -13.5t12.5 -33.5q0 -25 -17 -42t-42 -17zM321 478q86 0 132.5 -53.5t46.5 -137.5
q0 -18 -3 -37t-5 -28l-3 -10h-334v-1q0 -66 35 -104.5t99 -38.5q83 0 134 62l46 -49q-70 -87 -197 -87q-96 0 -151.5 57t-55.5 152q0 118 72 196.5t184 78.5zM312 404q-54 0 -93.5 -35.5t-55.5 -93.5h249q1 8 1 17q0 51 -27 81.5t-74 30.5z" />
    <glyph glyph-name="igrave" unicode="&#xec;" horiz-adv-x="221" 
d="M137 543l-69 155h113l35 -150zM66 0l58 472l89 3l-58 -475h-89z" />
    <glyph glyph-name="iacute" unicode="&#xed;" horiz-adv-x="221" 
d="M213 548l-80 -5l73 155h113zM66 0l58 472l89 3l-58 -475h-89z" />
    <glyph glyph-name="icircumflex" unicode="&#xee;" horiz-adv-x="221" 
d="M35 543l112 154h96l76 -154l-78 3l-55 84l-74 -84zM66 0l58 472l89 3l-58 -475h-89z" />
    <glyph glyph-name="idieresis" unicode="&#xef;" horiz-adv-x="221" 
d="M92 573q-20 0 -33 13.5t-13 33.5q0 24 18 41.5t41 17.5q19 0 32 -14t13 -34q0 -24 -17.5 -41t-40.5 -17zM275 573q-19 0 -32 13.5t-13 33.5q0 24 17.5 41.5t40.5 17.5q21 0 33.5 -13.5t12.5 -33.5q0 -25 -17 -42t-42 -17zM66 0l58 472l89 3l-58 -475h-89z" />
    <glyph glyph-name="eth" unicode="&#xf0;" horiz-adv-x="539" 
d="M545 638l-88 -50q72 -102 72 -265q0 -154 -76 -241.5t-197 -87.5q-55 0 -99 23.5t-69 67.5t-25 102q0 113 69 183.5t169 70.5q34 0 61.5 -9t44 -23.5t26.5 -29t14 -27.5q1 106 -69 192l-103 -58l-24 58l81 45q-48 36 -100 40l59 75q71 -18 124 -68l105 59zM271 68
q65 0 109 43.5t53 108.5l1 11q3 62 -32 99t-93 37q-44 0 -80 -22t-57 -61t-21 -87q0 -38 16 -67.5t43 -45.5t61 -16z" />
    <glyph glyph-name="ntilde" unicode="&#xf1;" horiz-adv-x="536" 
d="M242 549h-67q-1 10 -1 23q0 43 28.5 75t72.5 32q36 0 75 -27.5t50 -27.5q32 0 32 46l-2 18h69q1 -6 1 -14q0 -50 -26 -83t-75 -33q-31 0 -71 27.5t-50 27.5q-15 0 -26 -11t-11 -34zM360 478q80 0 120.5 -51.5t29.5 -137.5l-35 -289h-89l35 289q7 53 -15.5 84t-71.5 31
q-61 0 -101 -47.5t-49 -105.5l-31 -251h-88l58 472l63 3q5 -46 -1 -110h2q27 49 70.5 81t102.5 32z" />
    <glyph glyph-name="ograve" unicode="&#xf2;" horiz-adv-x="539" 
d="M297 543l-69 155h113l35 -150zM328 478q93 0 148.5 -59t55.5 -154q0 -119 -74.5 -195t-189.5 -76q-94 0 -149 57.5t-55 151.5q0 119 74.5 197t189.5 78zM277 68q72 0 118.5 53.5t46.5 136.5q0 65 -33 105.5t-90 40.5q-71 0 -117.5 -56t-46.5 -138q0 -64 33 -103t89 -39z
" />
    <glyph glyph-name="oacute" unicode="&#xf3;" horiz-adv-x="539" 
d="M356 548l-80 -5l73 155h113zM328 478q93 0 148.5 -59t55.5 -154q0 -119 -74.5 -195t-189.5 -76q-94 0 -149 57.5t-55 151.5q0 119 74.5 197t189.5 78zM277 68q72 0 118.5 53.5t46.5 136.5q0 65 -33 105.5t-90 40.5q-71 0 -117.5 -56t-46.5 -138q0 -64 33 -103t89 -39z
" />
    <glyph glyph-name="ocircumflex" unicode="&#xf4;" horiz-adv-x="539" 
d="M195 543l112 154h96l76 -154l-78 3l-55 84l-74 -84zM328 478q93 0 148.5 -59t55.5 -154q0 -119 -74.5 -195t-189.5 -76q-94 0 -149 57.5t-55 151.5q0 119 74.5 197t189.5 78zM277 68q72 0 118.5 53.5t46.5 136.5q0 65 -33 105.5t-90 40.5q-71 0 -117.5 -56t-46.5 -138
q0 -64 33 -103t89 -39z" />
    <glyph glyph-name="otilde" unicode="&#xf5;" horiz-adv-x="539" 
d="M497 688q1 -6 1 -14q0 -50 -26 -83t-75 -33q-31 0 -71 27.5t-50 27.5q-15 0 -26 -11t-11 -34l1 -19h-67q-1 10 -1 23q0 43 28.5 75t72.5 32q36 0 75 -27.5t50 -27.5q32 0 32 46l-2 18h69zM328 478q93 0 148.5 -59t55.5 -154q0 -119 -74.5 -195t-189.5 -76
q-94 0 -149 57.5t-55 151.5q0 119 74.5 197t189.5 78zM277 68q72 0 118.5 53.5t46.5 136.5q0 65 -33 105.5t-90 40.5q-71 0 -117.5 -56t-46.5 -138q0 -64 33 -103t89 -39z" />
    <glyph glyph-name="odieresis" unicode="&#xf6;" horiz-adv-x="539" 
d="M252 573q-20 0 -33 13.5t-13 33.5q0 24 18 41.5t41 17.5q19 0 32 -14t13 -34q0 -24 -17.5 -41t-40.5 -17zM435 573q-19 0 -32 13.5t-13 33.5q0 24 17.5 41.5t40.5 17.5q21 0 33.5 -13.5t12.5 -33.5q0 -25 -17 -42t-42 -17zM328 478q93 0 148.5 -59t55.5 -154
q0 -119 -74.5 -195t-189.5 -76q-94 0 -149 57.5t-55 151.5q0 119 74.5 197t189.5 78zM277 68q72 0 118.5 53.5t46.5 136.5q0 65 -33 105.5t-90 40.5q-71 0 -117.5 -56t-46.5 -138q0 -64 33 -103t89 -39z" />
    <glyph glyph-name="divide" unicode="&#xf7;" horiz-adv-x="463" 
d="M200 426q0 21 15.5 36.5t36.5 15.5q11 0 20.5 -6t14.5 -15.5t5 -21.5q0 -20 -15.5 -35.5t-36.5 -15.5q-17 0 -28.5 12t-11.5 30zM80 213l8 65h355l-8 -65h-355zM190 35q0 21 15.5 36.5t37.5 15.5q17 0 28.5 -12.5t11.5 -30.5q0 -20 -15.5 -35.5t-36.5 -15.5
q-18 0 -29.5 12t-11.5 30z" />
    <glyph glyph-name="oslash" unicode="&#xf8;" horiz-adv-x="539" 
d="M471 424q61 -59 61 -159q0 -119 -74.5 -195t-189.5 -76q-55 0 -99 21l-30 -41h-68l53 72q-60 57 -60 157q0 119 74.5 197t189.5 78q56 0 99 -22l31 41h67zM155 210q0 -54 24 -90l199 269q-26 15 -59 15q-35 0 -65.5 -15t-52 -41t-34 -62t-12.5 -76zM277 68
q72 0 118.5 53.5t46.5 136.5q0 55 -24 93l-199 -269q25 -14 58 -14z" />
    <glyph glyph-name="ugrave" unicode="&#xf9;" horiz-adv-x="526" 
d="M368 548l-79 -5l-69 155h113zM431 472h88l-58 -472l-65 -3q-5 45 0 100h-1q-25 -46 -66 -74.5t-95 -28.5q-80 0 -121 52t-30 137l35 289h89l-35 -289q-7 -53 16 -84t72 -31q37 0 68.5 24.5t49 58.5t22.5 70z" />
    <glyph glyph-name="uacute" unicode="&#xfa;" horiz-adv-x="526" 
d="M454 698l-106 -150l-80 -5l73 155h113zM431 472h88l-58 -472l-65 -3q-5 45 0 100h-1q-25 -46 -66 -74.5t-95 -28.5q-80 0 -121 52t-30 137l35 289h89l-35 -289q-7 -53 16 -84t72 -31q37 0 68.5 24.5t49 58.5t22.5 70z" />
    <glyph glyph-name="ucircumflex" unicode="&#xfb;" horiz-adv-x="526" 
d="M338 630l-74 -84l-77 -3l112 154h96l76 -154l-78 3zM431 472h88l-58 -472l-65 -3q-5 45 0 100h-1q-25 -46 -66 -74.5t-95 -28.5q-80 0 -121 52t-30 137l35 289h89l-35 -289q-7 -53 16 -84t72 -31q37 0 68.5 24.5t49 58.5t22.5 70z" />
    <glyph glyph-name="udieresis" unicode="&#xfc;" horiz-adv-x="526" 
d="M244 573q-20 0 -33 13.5t-13 33.5q0 24 18 41.5t41 17.5q19 0 32 -14t13 -34q0 -24 -17.5 -41t-40.5 -17zM427 573q-19 0 -32 13.5t-13 33.5q0 24 17.5 41.5t40.5 17.5q21 0 33.5 -13.5t12.5 -33.5q0 -25 -17 -42t-42 -17zM431 472h88l-58 -472l-65 -3q-5 45 0 100h-1
q-25 -46 -66 -74.5t-95 -28.5q-80 0 -121 52t-30 137l35 289h89l-35 -289q-7 -53 16 -84t72 -31q37 0 68.5 24.5t49 58.5t22.5 70z" />
    <glyph glyph-name="yacute" unicode="&#xfd;" horiz-adv-x="493" 
d="M330 548l-80 -5l73 155h113zM447 472h90l-279 -556q-61 -125 -169 -125q-19 0 -36.5 3.5t-24.5 7.5l-8 4l25 73q20 -12 48 -12q56 0 91 74l21 45l-130 486h98l80 -330q8 -32 9 -52h1q4 12 21 52z" />
    <glyph glyph-name="thorn" unicode="&#xfe;" horiz-adv-x="591" 
d="M368 478q84 0 134.5 -57t50.5 -151q0 -122 -70.5 -199t-179.5 -77q-50 0 -86 22.5t-55 60.5l-34 -281h-88l111 901h86l-38 -308h2q58 89 167 89zM305 68q70 0 113.5 54t43.5 139q0 65 -32 104t-88 39q-62 0 -105 -47t-54 -107l-3 -31q-2 -27 4 -53t20 -48.5t40 -36
t61 -13.5z" />
    <glyph glyph-name="ydieresis" unicode="&#xff;" horiz-adv-x="493" 
d="M226 573q-20 0 -33 13.5t-13 33.5q0 24 18 41.5t41 17.5q19 0 32 -14t13 -34q0 -24 -17.5 -41t-40.5 -17zM409 573q-19 0 -32 13.5t-13 33.5q0 24 17.5 41.5t40.5 17.5q21 0 33.5 -13.5t12.5 -33.5q0 -25 -17 -42t-42 -17zM447 472h90l-279 -556q-61 -125 -169 -125
q-19 0 -36.5 3.5t-24.5 7.5l-8 4l25 73q20 -12 48 -12q56 0 91 74l21 45l-130 486h98l80 -330q8 -32 9 -52h1q4 12 21 52z" />
    <glyph glyph-name="Amacron" unicode="&#x100;" horiz-adv-x="585" 
d="M528 775l-8 -65h-273l8 65h273zM479 0l-37 164h-259l-77 -164h-94l315 660h92l154 -660h-94zM218 239h208l-54 239q-7 27 -12 69h-2q-13 -37 -28 -69z" />
    <glyph glyph-name="amacron" unicode="&#x101;" horiz-adv-x="509" 
d="M454 657l-8 -65h-269l8 65h269zM467 73q8 0 16 2l-4 -74q-24 -6 -49 -6q-83 0 -73 78v1h-1q-53 -80 -165 -80q-66 0 -101.5 31.5t-35.5 83.5q0 84 75 122t234 38h13l4 30q6 49 -18 77t-78 28q-51 0 -80.5 -22t-29.5 -61q0 -7 2 -17l-83 -14q-2 12 -2 27q0 70 56.5 115.5
t147.5 45.5q92 0 137.5 -48t34.5 -130l-24 -191q-2 -20 3 -28t21 -8zM219 68q58 0 97.5 27.5t45.5 62.5l7 50h-13q-115 0 -163.5 -22t-48.5 -66q0 -52 75 -52z" />
    <glyph glyph-name="Abreve" unicode="&#x102;" horiz-adv-x="585" 
d="M377 691q-56 0 -84 35t-22 88h67q-8 -61 45 -61q54 0 62 61h67q-6 -52 -42.5 -87.5t-92.5 -35.5zM479 0l-37 164h-259l-77 -164h-94l315 660h92l154 -660h-94zM218 239h208l-54 239q-7 27 -12 69h-2q-13 -37 -28 -69z" />
    <glyph glyph-name="abreve" unicode="&#x103;" horiz-adv-x="509" 
d="M304 543q-63 0 -92 40.5t-22 102.5h73q-4 -39 8.5 -60t38.5 -21q27 0 45.5 21.5t22.5 59.5h73q-7 -61 -46 -102t-101 -41zM467 73q8 0 16 2l-4 -74q-24 -6 -49 -6q-83 0 -73 78v1h-1q-53 -80 -165 -80q-66 0 -101.5 31.5t-35.5 83.5q0 84 75 122t234 38h13l4 30
q6 49 -18 77t-78 28q-51 0 -80.5 -22t-29.5 -61q0 -7 2 -17l-83 -14q-2 12 -2 27q0 70 56.5 115.5t147.5 45.5q92 0 137.5 -48t34.5 -130l-24 -191q-2 -20 3 -28t21 -8zM219 68q58 0 97.5 27.5t45.5 62.5l7 50h-13q-115 0 -163.5 -22t-48.5 -66q0 -52 75 -52z" />
    <glyph glyph-name="Aogonek" unicode="&#x104;" horiz-adv-x="585" 
d="M574 -112l18 -51q-4 -4 -11 -10t-30 -16.5t-47 -10.5q-39 0 -62.5 21.5t-23.5 57.5q0 73 69 121h-8l-37 164h-259l-77 -164h-94l315 660h92l154 -660l-9 -3t-21 -11t-26 -19t-20.5 -28.5t-9.5 -39.5q0 -18 9.5 -28t25.5 -10q14 0 27 6.5t19 13.5zM218 239h208l-54 239
q-7 27 -12 69h-2q-13 -37 -28 -69z" />
    <glyph glyph-name="aogonek" unicode="&#x105;" horiz-adv-x="509" 
d="M480 -111l18 -51q-4 -4 -11 -10t-30 -16.5t-47 -10.5q-39 0 -62.5 21.5t-23.5 57.5q0 73 69 121q-43 16 -36 72v1h-1q-53 -80 -165 -80q-66 0 -101.5 31.5t-35.5 83.5q0 84 75 122t234 38h13l4 30q6 49 -18 77t-78 28q-51 0 -80.5 -22t-29.5 -61q0 -7 2 -17l-83 -14
q-2 12 -2 27q0 70 56.5 115.5t147.5 45.5q92 0 137.5 -48t34.5 -130l-24 -191q-2 -20 3 -28t21 -8q8 0 16 2l-4 -74l-9 -3t-21 -11t-26 -19t-20.5 -28.5t-9.5 -39.5q0 -18 9.5 -28t25.5 -10q14 0 27 7t19 13zM219 68q58 0 97.5 27.5t45.5 62.5l7 50h-13q-115 0 -163.5 -22
t-48.5 -66q0 -52 75 -52z" />
    <glyph glyph-name="Cacute" unicode="&#x106;" horiz-adv-x="607" 
d="M451 696l-79 -5l69 125h114zM412 666q63 0 109 -22.5t68 -57.5t30 -71.5t4 -71.5l-86 -14q6 58 -26 107.5t-108 49.5q-94 0 -161 -81.5t-67 -217.5q0 -107 51 -160t130 -53q56 0 104 29t81 71l48 -56q-102 -124 -245 -124q-121 0 -191 76t-70 210q0 170 94.5 278
t234.5 108z" />
    <glyph glyph-name="cacute" unicode="&#x107;" horiz-adv-x="493" 
d="M351 548l-80 -5l73 155h113zM323 478q78 0 123.5 -41t45.5 -104q0 -12 -2 -24t-4 -18l-2 -6l-82 -6q6 16 6 37q0 39 -24.5 63.5t-68.5 24.5q-69 0 -114.5 -54.5t-45.5 -140.5q0 -65 33 -103t94 -38q87 0 144 63l44 -56q-72 -81 -200 -81q-95 0 -150.5 57t-55.5 151
q0 119 74.5 197.5t184.5 78.5z" />
    <glyph glyph-name="Ccircumflex" unicode="&#x108;" horiz-adv-x="607" 
d="M483 825l77 -134l-78 3l-57 64l-72 -64l-77 -3l109 134h98zM412 666q63 0 109 -22.5t68 -57.5t30 -71.5t4 -71.5l-86 -14q6 58 -26 107.5t-108 49.5q-94 0 -161 -81.5t-67 -217.5q0 -107 51 -160t130 -53q56 0 104 29t81 71l48 -56q-102 -124 -245 -124q-121 0 -191 76
t-70 210q0 170 94.5 278t234.5 108z" />
    <glyph glyph-name="ccircumflex" unicode="&#x109;" horiz-adv-x="493" 
d="M190 543l112 154h96l76 -154l-78 3l-55 84l-74 -84zM323 478q78 0 123.5 -41t45.5 -104q0 -12 -2 -24t-4 -18l-2 -6l-82 -6q6 16 6 37q0 39 -24.5 63.5t-68.5 24.5q-69 0 -114.5 -54.5t-45.5 -140.5q0 -65 33 -103t94 -38q87 0 144 63l44 -56q-72 -81 -200 -81
q-95 0 -150.5 57t-55.5 151q0 119 74.5 197.5t184.5 78.5z" />
    <glyph glyph-name="Cdotaccent" unicode="&#x10a;" horiz-adv-x="607" 
d="M415 694q-23 0 -38 15t-15 38q0 27 20.5 46.5t47.5 19.5q23 0 38.5 -15.5t15.5 -38.5q0 -27 -20.5 -46t-48.5 -19zM412 666q63 0 109 -22.5t68 -57.5t30 -71.5t4 -71.5l-86 -14q6 58 -26 107.5t-108 49.5q-94 0 -161 -81.5t-67 -217.5q0 -107 51 -160t130 -53
q56 0 104 29t81 71l48 -56q-102 -124 -245 -124q-121 0 -191 76t-70 210q0 170 94.5 278t234.5 108z" />
    <glyph glyph-name="cdotaccent" unicode="&#x10b;" horiz-adv-x="493" 
d="M403 631q0 -27 -21 -46t-49 -19q-23 0 -38 15t-15 38q0 27 20.5 46.5t47.5 19.5q24 0 39.5 -15.5t15.5 -38.5zM323 478q78 0 123.5 -41t45.5 -104q0 -12 -2 -24t-4 -18l-2 -6l-82 -6q6 16 6 37q0 39 -24.5 63.5t-68.5 24.5q-69 0 -114.5 -54.5t-45.5 -140.5
q0 -65 33 -103t94 -38q87 0 144 63l44 -56q-72 -81 -200 -81q-95 0 -150.5 57t-55.5 151q0 119 74.5 197.5t184.5 78.5z" />
    <glyph glyph-name="Ccaron" unicode="&#x10c;" horiz-adv-x="607" 
d="M293 830l76 -3l57 -64l72 64l79 3l-110 -134h-98zM412 666q63 0 109 -22.5t68 -57.5t30 -71.5t4 -71.5l-86 -14q6 58 -26 107.5t-108 49.5q-94 0 -161 -81.5t-67 -217.5q0 -107 51 -160t130 -53q56 0 104 29t81 71l48 -56q-102 -124 -245 -124q-121 0 -191 76t-70 210
q0 170 94.5 278t234.5 108z" />
    <glyph glyph-name="ccaron" unicode="&#x10d;" horiz-adv-x="493" 
d="M209 697l76 -3l54 -84l75 84l79 3l-112 -154h-96zM323 478q78 0 123.5 -41t45.5 -104q0 -12 -2 -24t-4 -18l-2 -6l-82 -6q6 16 6 37q0 39 -24.5 63.5t-68.5 24.5q-69 0 -114.5 -54.5t-45.5 -140.5q0 -65 33 -103t94 -38q87 0 144 63l44 -56q-72 -81 -200 -81
q-95 0 -150.5 57t-55.5 151q0 119 74.5 197.5t184.5 78.5z" />
    <glyph glyph-name="Dcaron" unicode="&#x10e;" horiz-adv-x="638" 
d="M407 696h-98l-76 134l76 -3l57 -64l72 64l79 3zM353 660q137 0 210 -73.5t73 -206.5q0 -188 -89.5 -284t-242.5 -96h-225l81 660h193zM310 77q105 0 169.5 75.5t64.5 221.5q0 103 -52 156t-151 53h-99l-63 -506h131z" />
    <glyph glyph-name="dcaron" unicode="&#x10f;" horiz-adv-x="575" 
d="M683 717q23 0 38 -15.5t15 -42.5q0 -34 -10.5 -65t-26 -52t-31 -37t-26.5 -23l-10 -8l-26 45q6 4 16 11.5t27 28.5t20 41q-22 0 -36.5 15t-14.5 37q0 27 19.5 46t45.5 19zM456 399l38 307h88l-87 -706l-66 -3q0 78 5 110h-2q-27 -51 -73.5 -82t-108.5 -31
q-84 0 -134.5 57t-50.5 151q0 122 71 199t179 77q101 0 141 -79zM276 68q60 0 103 45.5t55 102.5l5 44q2 58 -29.5 101t-96.5 43q-68 0 -112.5 -54t-44.5 -139q0 -65 32 -104t88 -39z" />
    <glyph glyph-name="Dcroat" unicode="&#x110;" horiz-adv-x="638" 
d="M353 660q137 0 210 -73.5t73 -206.5q0 -188 -89.5 -284t-242.5 -96h-225l36 290h-86l9 74h86l36 296h193zM310 77q105 0 169.5 75.5t64.5 221.5q0 69 -23.5 116t-68.5 70t-111 23h-99l-27 -219h168l-9 -74h-168l-27 -213h131z" />
    <glyph glyph-name="dcroat" unicode="&#x111;" horiz-adv-x="560" 
d="M626 613l-8 -64h-55l-68 -549l-66 -3q0 78 5 110h-2q-27 -51 -73.5 -82t-108.5 -31q-84 0 -134.5 57t-50.5 151q0 122 71 199t179 77q101 0 141 -79l19 150h-145l8 64h145l11 93h88l-11 -93h55zM276 68q60 0 103 45.5t55 102.5l5 44q2 58 -29.5 101t-96.5 43
q-68 0 -112.5 -54t-44.5 -139q0 -65 32 -104t88 -39z" />
    <glyph glyph-name="Emacron" unicode="&#x112;" horiz-adv-x="519" 
d="M529 775l-8 -65h-273l8 65h273zM542 583h-300l-25 -202h266l-10 -77h-266l-28 -227h300l-9 -77h-391l81 660h391z" />
    <glyph glyph-name="emacron" unicode="&#x113;" horiz-adv-x="503" 
d="M477 657l-8 -65h-269l8 65h269zM321 478q86 0 132.5 -53.5t46.5 -137.5q0 -18 -3 -37t-5 -28l-3 -10h-334v-1q0 -66 35 -104.5t99 -38.5q83 0 134 62l46 -49q-70 -87 -197 -87q-96 0 -151.5 57t-55.5 152q0 118 72 196.5t184 78.5zM312 404q-54 0 -93.5 -35.5
t-55.5 -93.5h249q1 8 1 17q0 51 -27 81.5t-74 30.5z" />
    <glyph glyph-name="Ebreve" unicode="&#x114;" horiz-adv-x="519" 
d="M378 691q-56 0 -84 35t-22 88h67q-8 -61 45 -61q54 0 62 61h67q-6 -52 -42.5 -87.5t-92.5 -35.5zM542 583h-300l-25 -202h266l-10 -77h-266l-28 -227h300l-9 -77h-391l81 660h391z" />
    <glyph glyph-name="ebreve" unicode="&#x115;" horiz-adv-x="503" 
d="M327 543q-63 0 -92 40.5t-22 102.5h73q-4 -39 8.5 -60t38.5 -21q27 0 45.5 21.5t22.5 59.5h73q-7 -61 -46 -102t-101 -41zM321 478q86 0 132.5 -53.5t46.5 -137.5q0 -18 -3 -37t-5 -28l-3 -10h-334v-1q0 -66 35 -104.5t99 -38.5q83 0 134 62l46 -49q-70 -87 -197 -87
q-96 0 -151.5 57t-55.5 152q0 118 72 196.5t184 78.5zM312 404q-54 0 -93.5 -35.5t-55.5 -93.5h249q1 8 1 17q0 51 -27 81.5t-74 30.5z" />
    <glyph glyph-name="Edotaccent" unicode="&#x116;" horiz-adv-x="519" 
d="M377 694q-23 0 -38 15t-15 38q0 27 20.5 46.5t47.5 19.5q23 0 38.5 -15.5t15.5 -38.5q0 -27 -20.5 -46t-48.5 -19zM542 583h-300l-25 -202h266l-10 -77h-266l-28 -227h300l-9 -77h-391l81 660h391z" />
    <glyph glyph-name="edotaccent" unicode="&#x117;" horiz-adv-x="503" 
d="M329 566q-23 0 -38 15t-15 38q0 27 20.5 46.5t47.5 19.5q24 0 39.5 -15.5t15.5 -38.5q0 -27 -21 -46t-49 -19zM321 478q86 0 132.5 -53.5t46.5 -137.5q0 -18 -3 -37t-5 -28l-3 -10h-334v-1q0 -66 35 -104.5t99 -38.5q83 0 134 62l46 -49q-70 -87 -197 -87
q-96 0 -151.5 57t-55.5 152q0 118 72 196.5t184 78.5zM312 404q-54 0 -93.5 -35.5t-55.5 -93.5h249q1 8 1 17q0 51 -27 81.5t-74 30.5z" />
    <glyph glyph-name="Eogonek" unicode="&#x118;" horiz-adv-x="519" 
d="M542 583h-300l-25 -202h266l-10 -77h-266l-28 -227h300l-9 -77q-2 -1 -5 -2t-12 -5t-17 -9t-18 -13.5t-17 -18.5t-12 -24t-5 -29q0 -18 9.5 -28t25.5 -10q9 0 17.5 3t14.5 6.5t10.5 7.5t7.5 7l2 3l18 -51q-4 -4 -11 -10t-30 -16.5t-47 -10.5q-39 0 -62.5 21.5t-23.5 57.5
q0 73 69 121h-305l81 660h391z" />
    <glyph glyph-name="eogonek" unicode="&#x119;" horiz-adv-x="503" 
d="M321 478q86 0 132.5 -53.5t46.5 -137.5q0 -18 -2.5 -37t-5.5 -28l-3 -10h-334v-1q0 -66 35 -104.5t99 -38.5q83 0 134 62l46 -49q-41 -51 -105 -72q-68 -33 -68 -94q0 -18 9.5 -28t25.5 -10q9 0 17.5 3t14.5 6.5t10.5 7.5t7.5 7l2 3l18 -51q-4 -4 -11 -10t-30 -16.5
t-47 -10.5q-39 0 -62.5 21.5t-23.5 57.5q0 57 42 99q-95 1 -149.5 58t-54.5 151q0 118 72 196.5t184 78.5zM312 404q-54 0 -93.5 -35.5t-55.5 -93.5h249q1 8 1 17q0 51 -27 81.5t-74 30.5z" />
    <glyph glyph-name="Ecaron" unicode="&#x11a;" horiz-adv-x="519" 
d="M429 696h-98l-76 134l76 -3l57 -64l72 64l79 3zM542 583h-300l-25 -202h266l-10 -77h-266l-28 -227h300l-9 -77h-391l81 660h391z" />
    <glyph glyph-name="ecaron" unicode="&#x11b;" horiz-adv-x="503" 
d="M377 543h-96l-76 154l76 -3l54 -84l75 84l79 3zM321 478q86 0 132.5 -53.5t46.5 -137.5q0 -18 -3 -37t-5 -28l-3 -10h-334v-1q0 -66 35 -104.5t99 -38.5q83 0 134 62l46 -49q-70 -87 -197 -87q-96 0 -151.5 57t-55.5 152q0 118 72 196.5t184 78.5zM312 404
q-54 0 -93.5 -35.5t-55.5 -93.5h249q1 8 1 17q0 51 -27 81.5t-74 30.5z" />
    <glyph glyph-name="Gcircumflex" unicode="&#x11c;" horiz-adv-x="633" 
d="M423 758l-72 -64l-77 -3l109 134h98l77 -134l-78 3zM625 453l-86 -14q3 25 -2.5 50t-20.5 47t-44.5 36t-69.5 14q-93 0 -160 -81.5t-67 -216.5q0 -97 45 -155.5t125 -58.5t130 46.5t59 115.5l2 14h-198l9 76h273l-40 -326h-56q-4 21 -2 90q-64 -96 -200 -96
q-110 0 -174.5 78t-64.5 207q0 171 94 279t234 108q63 0 109 -21t68.5 -54t31.5 -68.5t5 -69.5z" />
    <glyph glyph-name="gcircumflex" unicode="&#x11d;" horiz-adv-x="504" 
d="M330 630l-74 -84l-77 -3l112 154h96l76 -154l-78 3zM562 533q-4 -32 -16 -57.5t-28 -40t-31 -22.5t-28 -10q20 -35 20 -79q0 -84 -61 -137.5t-155 -53.5q-44 0 -79 13q-45 -7 -45 -38q0 -21 22 -29t69 -8h94q74 0 115.5 -30.5t41.5 -86.5q0 -72 -61.5 -117.5
t-193.5 -45.5q-74 0 -124 14.5t-73.5 40.5t-23.5 63q0 80 90 111q-36 24 -36 69q0 34 20.5 57.5t51.5 34.5q-41 40 -41 104q0 85 60.5 138.5t154.5 53.5q78 0 125 -41q49 23 60 113zM271 206q53 0 85.5 31t32.5 80q0 26 -11 46t-31.5 30.5t-49.5 10.5q-52 0 -85 -31t-33 -80
q0 -40 24.5 -63.5t67.5 -23.5zM299 -4h-90q-66 0 -91 -19t-25 -50q0 -32 33.5 -47t108.5 -15q86 0 122.5 19t36.5 62q0 29 -22.5 39.5t-72.5 10.5z" />
    <glyph glyph-name="Gbreve" unicode="&#x11e;" horiz-adv-x="633" 
d="M414 691q-56 0 -84 35t-22 88h67q-8 -61 45 -61q54 0 62 61h67q-6 -52 -42.5 -87.5t-92.5 -35.5zM625 453l-86 -14q3 25 -2.5 50t-20.5 47t-44.5 36t-69.5 14q-93 0 -160 -81.5t-67 -216.5q0 -97 45 -155.5t125 -58.5t130 46.5t59 115.5l2 14h-198l9 76h273l-40 -326h-56
q-4 21 -2 90q-64 -96 -200 -96q-110 0 -174.5 78t-64.5 207q0 171 94 279t234 108q63 0 109 -21t68.5 -54t31.5 -68.5t5 -69.5z" />
    <glyph glyph-name="gbreve" unicode="&#x11f;" horiz-adv-x="504" 
d="M320 543q-63 0 -92 40.5t-22 102.5h73q-4 -39 8.5 -60t38.5 -21q27 0 45.5 21.5t22.5 59.5h73q-7 -61 -46 -102t-101 -41zM562 533q-4 -32 -16 -57.5t-28 -40t-31 -22.5t-28 -10q20 -35 20 -79q0 -84 -61 -137.5t-155 -53.5q-44 0 -79 13q-45 -7 -45 -38q0 -21 22 -29
t69 -8h94q74 0 115.5 -30.5t41.5 -86.5q0 -72 -61.5 -117.5t-193.5 -45.5q-74 0 -124 14.5t-73.5 40.5t-23.5 63q0 80 90 111q-36 24 -36 69q0 34 20.5 57.5t51.5 34.5q-41 40 -41 104q0 85 60.5 138.5t154.5 53.5q78 0 125 -41q49 23 60 113zM271 206q53 0 85.5 31t32.5 80
q0 26 -11 46t-31.5 30.5t-49.5 10.5q-52 0 -85 -31t-33 -80q0 -40 24.5 -63.5t67.5 -23.5zM299 -4h-90q-66 0 -91 -19t-25 -50q0 -32 33.5 -47t108.5 -15q86 0 122.5 19t36.5 62q0 29 -22.5 39.5t-72.5 10.5z" />
    <glyph glyph-name="Gdotaccent" unicode="&#x120;" horiz-adv-x="633" 
d="M413 694q-23 0 -38 15t-15 38q0 27 20.5 46.5t47.5 19.5q23 0 38.5 -15.5t15.5 -38.5q0 -27 -20.5 -46t-48.5 -19zM625 453l-86 -14q3 25 -2.5 50t-20.5 47t-44.5 36t-69.5 14q-93 0 -160 -81.5t-67 -216.5q0 -97 45 -155.5t125 -58.5t130 46.5t59 115.5l2 14h-198l9 76
h273l-40 -326h-56q-4 21 -2 90q-64 -96 -200 -96q-110 0 -174.5 78t-64.5 207q0 171 94 279t234 108q63 0 109 -21t68.5 -54t31.5 -68.5t5 -69.5z" />
    <glyph glyph-name="gdotaccent" unicode="&#x121;" horiz-adv-x="504" 
d="M322 566q-23 0 -38 15t-15 38q0 27 20.5 46.5t47.5 19.5q24 0 39.5 -15.5t15.5 -38.5q0 -27 -21 -46t-49 -19zM562 533q-4 -32 -16 -57.5t-28 -40t-31 -22.5t-28 -10q20 -35 20 -79q0 -84 -61 -137.5t-155 -53.5q-44 0 -79 13q-45 -7 -45 -38q0 -21 22 -29t69 -8h94
q74 0 115.5 -30.5t41.5 -86.5q0 -72 -61.5 -117.5t-193.5 -45.5q-74 0 -124 14.5t-73.5 40.5t-23.5 63q0 80 90 111q-36 24 -36 69q0 34 20.5 57.5t51.5 34.5q-41 40 -41 104q0 85 60.5 138.5t154.5 53.5q78 0 125 -41q49 23 60 113zM271 206q53 0 85.5 31t32.5 80
q0 26 -11 46t-31.5 30.5t-49.5 10.5q-52 0 -85 -31t-33 -80q0 -40 24.5 -63.5t67.5 -23.5zM299 -4h-90q-66 0 -91 -19t-25 -50q0 -32 33.5 -47t108.5 -15q86 0 122.5 19t36.5 62q0 29 -22.5 39.5t-72.5 10.5z" />
    <glyph glyph-name="Gcommaaccent" unicode="&#x122;" horiz-adv-x="633" 
d="M625 453l-86 -14q3 25 -2.5 50t-20.5 47t-44.5 36t-69.5 14q-93 0 -160 -81.5t-67 -216.5q0 -97 45 -155.5t125 -58.5t130 46.5t59 115.5l2 14h-198l9 76h273l-40 -326h-56q-4 21 -2 90q-64 -96 -200 -96q-110 0 -174.5 78t-64.5 207q0 171 94 279t234 108q63 0 109 -21
t68.5 -54t31.5 -68.5t5 -69.5zM319 -39q23 0 38 -15.5t15 -42.5q0 -32 -11 -59.5t-26 -44t-30.5 -28.5t-26.5 -16l-11 -5l-20 41q6 3 15 8t25 19t18 26q-22 0 -36 15t-14 37q0 27 19 46t45 19z" />
    <glyph glyph-name="gcommaaccent" unicode="&#x123;" horiz-adv-x="504" 
d="M316 511q-23 0 -38 15.5t-15 42.5q0 32 11 59.5t26 44t30.5 28.5t26.5 17l11 4l20 -41q-54 -26 -58 -53q22 0 36 -15t14 -37q0 -27 -19 -46t-45 -19zM562 533q-4 -32 -16 -57.5t-28 -40t-31 -22.5t-28 -10q20 -35 20 -79q0 -84 -61 -137.5t-155 -53.5q-44 0 -79 13
q-45 -7 -45 -38q0 -21 22 -29t69 -8h94q74 0 115.5 -30.5t41.5 -86.5q0 -72 -61.5 -117.5t-193.5 -45.5q-74 0 -124 14.5t-73.5 40.5t-23.5 63q0 80 90 111q-36 24 -36 69q0 34 20.5 57.5t51.5 34.5q-41 40 -41 104q0 85 60.5 138.5t154.5 53.5q78 0 125 -41q49 23 60 113z
M271 206q53 0 85.5 31t32.5 80q0 26 -11 46t-31.5 30.5t-49.5 10.5q-52 0 -85 -31t-33 -80q0 -40 24.5 -63.5t67.5 -23.5zM299 -4h-90q-66 0 -91 -19t-25 -50q0 -32 33.5 -47t108.5 -15q86 0 122.5 19t36.5 62q0 29 -22.5 39.5t-72.5 10.5z" />
    <glyph glyph-name="Hcircumflex" unicode="&#x124;" horiz-adv-x="671" 
d="M437 758l-72 -64l-77 -3l109 134h98l77 -134l-78 3zM582 660h91l-81 -660h-91l37 304h-331l-37 -304h-91l81 660h91l-34 -279h331z" />
    <glyph glyph-name="Hbar" unicode="&#x126;" horiz-adv-x="671" 
d="M710 577l-8 -74h-48l-62 -503h-91l37 304h-331l-37 -304h-91l62 503h-60l8 74h61l10 83h91l-10 -83h331l10 83h91l-10 -83h47zM548 381l15 122h-331l-15 -122h331z" />
    <glyph glyph-name="hbar" unicode="&#x127;" horiz-adv-x="537" 
d="M361 478q80 0 120.5 -51.5t29.5 -137.5l-35 -289h-89l35 289q7 53 -15.5 84t-71.5 31q-59 0 -98 -42.5t-50 -100.5l-33 -261h-89l68 549h-57l8 64h57l11 93h87l-11 -93h144l-8 -64h-144l-20 -160h2q59 89 159 89z" />
    <glyph glyph-name="Itilde" unicode="&#x128;" horiz-adv-x="249" 
d="M369 811v-14q0 -50 -25.5 -83t-71.5 -33q-34 0 -74.5 27.5t-52.5 27.5q-15 0 -24.5 -10.5t-9.5 -28.5l2 -19h-67q-2 10 -2 23q0 46 28.5 73.5t72.5 27.5q36 0 74.5 -27.5t49.5 -27.5q32 0 32 46l-1 18h69zM79 0l81 660h91l-81 -660h-91z" />
    <glyph glyph-name="itilde" unicode="&#x129;" horiz-adv-x="221" 
d="M337 688q1 -6 1 -14q0 -50 -26 -83t-75 -33q-32 0 -71.5 27.5t-49.5 27.5q-15 0 -26 -11t-11 -34l1 -19h-67q-1 10 -1 23q0 43 28.5 75t72.5 32q36 0 75 -27.5t50 -27.5q32 0 32 46l-2 18h69zM66 0l58 472l89 3l-58 -475h-89z" />
    <glyph glyph-name="Imacron" unicode="&#x12a;" horiz-adv-x="249" 
d="M80 710l8 65h273l-8 -65h-273zM79 0l81 660h91l-81 -660h-91z" />
    <glyph glyph-name="imacron" unicode="&#x12b;" horiz-adv-x="221" 
d="M49 592l8 65h269l-8 -65h-269zM66 0l58 472l89 3l-58 -475h-89z" />
    <glyph glyph-name="Ibreve" unicode="&#x12c;" horiz-adv-x="249" 
d="M345 814q-6 -52 -42.5 -87.5t-92.5 -35.5t-84 35t-22 88h67q-8 -61 45 -61q54 0 62 61h67zM79 0l81 660h91l-81 -660h-91z" />
    <glyph glyph-name="ibreve" unicode="&#x12d;" horiz-adv-x="221" 
d="M323 686q-7 -61 -46 -102t-101 -41q-63 0 -92 40.5t-22 102.5h73q-4 -39 8.5 -60t38.5 -21q27 0 45.5 21.5t22.5 59.5h73zM66 0l58 472l89 3l-58 -475h-89z" />
    <glyph glyph-name="Iogonek" unicode="&#x12e;" horiz-adv-x="249" 
d="M119 -139q6 0 12.5 1.5t11.5 4t9.5 5.5t8 5.5t6 5t3.5 4.5l1 1l18 -51q-1 -2 -3.5 -4t-11.5 -8.5t-18.5 -11.5t-24.5 -9t-30 -4q-39 0 -62.5 21.5t-23.5 57.5q0 73 69 121h-5l81 660h91l-81 -660l-9 -3t-21 -11t-26 -19t-20.5 -28.5t-9.5 -39.5q0 -18 9.5 -28t25.5 -10z
" />
    <glyph glyph-name="iogonek" unicode="&#x12f;" horiz-adv-x="221" 
d="M196 685q24 0 39.5 -15.5t15.5 -38.5q0 -27 -21 -46t-49 -19q-23 0 -38 15t-15 38q0 27 20.5 46.5t47.5 19.5zM155 0l-9 -3t-21 -11t-26 -19t-20.5 -28.5t-9.5 -39.5q0 -18 9.5 -28t25.5 -10q9 0 17.5 3t14.5 6.5t10.5 7.5t7.5 7l2 3l18 -51q-1 -2 -3.5 -4t-11.5 -8.5
t-18.5 -11.5t-24.5 -9t-30 -4q-39 0 -62.5 21.5t-23.5 57.5q0 73 69 121h-3l58 472l89 3z" />
    <glyph glyph-name="Idotaccent" unicode="&#x130;" horiz-adv-x="249" 
d="M209 694q-23 0 -38 15t-15 38q0 27 20.5 46.5t47.5 19.5q23 0 38.5 -15.5t15.5 -38.5q0 -27 -20.5 -46t-48.5 -19zM79 0l81 660h91l-81 -660h-91z" />
    <glyph glyph-name="dotlessi" unicode="&#x131;" horiz-adv-x="221" 
d="M66 0l58 472l89 3l-58 -475h-89z" />
    <glyph glyph-name="IJ" unicode="&#x132;" horiz-adv-x="691" 
d="M79 0l81 660h91l-81 -660h-91zM325 130q45 -56 102 -56q107 0 121 115l58 471h91l-57 -466q-12 -98 -72 -149t-151 -51q-94 0 -156 69z" />
    <glyph glyph-name="ij" unicode="&#x133;" horiz-adv-x="442" 
d="M476 625q0 -27 -20.5 -46t-47.5 -19q-24 0 -39 15t-15 38q0 27 20.5 46.5t47.5 19.5q23 0 38.5 -15.5t15.5 -38.5zM248 624q0 -27 -20.5 -46t-48.5 -19q-23 0 -38.5 15t-15.5 38q0 27 20.5 46.5t47.5 19.5q24 0 39.5 -15.5t15.5 -38.5zM66 0l58 472l89 3l-58 -475h-89z
M142 -119q18 -15 50 -15q79 0 90 93l63 513l89 3l-61 -499q-11 -89 -56.5 -136.5t-125.5 -47.5q-26 0 -47 7t-28 14l-8 7z" />
    <glyph glyph-name="Jcircumflex" unicode="&#x134;" horiz-adv-x="442" 
d="M471 825l77 -134l-78 3l-57 64l-72 -64l-77 -3l109 134h98zM76 130q45 -56 102 -56q107 0 121 115l58 471h91l-57 -466q-12 -98 -72 -149t-151 -51q-94 0 -156 69z" />
    <glyph glyph-name="jcircumflex" unicode="&#x135;" horiz-adv-x="228" 
d="M45 553l111 154h98l74 -154l-77 3l-54 84l-75 -84zM-72 -119q17 -15 50 -15q79 0 90 93l63 513l89 3l-61 -499q-11 -89 -56.5 -136.5t-125.5 -47.5q-26 0 -47 7t-28 14l-8 7z" />
    <glyph glyph-name="Kcommaaccent" unicode="&#x136;" horiz-adv-x="557" 
d="M630 660l-286 -338l207 -321h-99l-179 283h-68l-35 -284h-91l81 660h91l-37 -299h69l250 299h97zM292 -39q23 0 38 -15.5t15 -42.5q0 -32 -11 -59.5t-26.5 -44t-30.5 -28.5t-26 -16l-11 -5l-20 41l6 3t13.5 8t17 12t14 14t7.5 16q-22 0 -36 15t-14 37q0 27 19 46t45 19z
" />
    <glyph glyph-name="kcommaaccent" unicode="&#x137;" horiz-adv-x="482" 
d="M523 472l-215 -221l176 -251h-110l-148 217h-46l-27 -217h-88l87 706h88l-52 -418h59l176 184h100zM246 -39q23 0 38 -15.5t15 -42.5q0 -32 -11 -59.5t-26 -44t-30.5 -28.5t-26.5 -17l-11 -4l-20 41q54 26 58 53q-22 0 -36 15t-14 37q0 27 19 46t45 19z" />
    <glyph glyph-name="kgreenlandic" unicode="&#x138;" horiz-adv-x="481" 
d="M523 472l-218 -241l179 -231h-110l-148 197h-49l-24 -197h-88l58 472h88l-25 -204h56l181 204h100z" />
    <glyph glyph-name="Lacute" unicode="&#x139;" horiz-adv-x="492" 
d="M351 816l-104 -120l-79 -5l69 125h114zM179 77h310l-9 -77h-401l81 660h91z" />
    <glyph glyph-name="lacute" unicode="&#x13a;" horiz-adv-x="220" 
d="M241 782l-80 -5l73 155h113zM66 0l87 706h88l-87 -706h-88z" />
    <glyph glyph-name="Lcommaaccent" unicode="&#x13b;" horiz-adv-x="492" 
d="M179 77h310l-9 -77h-401l81 660h91zM292 -39q23 0 38 -15.5t15 -42.5q0 -32 -11 -59.5t-26 -44t-30.5 -28.5t-26.5 -17l-11 -4l-20 41q54 26 58 53q-22 0 -36 15t-14 37q0 27 19 46t45 19z" />
    <glyph glyph-name="lcommaaccent" unicode="&#x13c;" horiz-adv-x="220" 
d="M66 0l87 706h88l-87 -706h-88zM41 -104q0 27 19 46t45 19q23 0 38 -15.5t15 -42.5q0 -32 -11 -59.5t-26 -44t-30.5 -28.5t-26.5 -17l-11 -4l-20 41q54 26 58 53q-22 0 -36 15t-14 37z" />
    <glyph glyph-name="Lcaron" unicode="&#x13d;" horiz-adv-x="492" 
d="M389 499q6 4 16 11.5t27 28.5t20 41q-22 0 -36.5 15t-14.5 37q0 27 19.5 46t45.5 19q22 0 37 -15.5t15 -42.5q0 -34 -10.5 -65t-26 -52t-31 -37t-26.5 -23l-10 -8zM251 660l-72 -583h310l-9 -77h-401l81 660h91z" />
    <glyph glyph-name="lcaron" unicode="&#x13e;" horiz-adv-x="233" 
d="M274 652q0 26 20 45.5t45 19.5q23 0 38 -15.5t15 -42.5q0 -34 -10.5 -65t-26 -52t-31 -37t-26.5 -23l-10 -8l-26 45q6 4 16 11.5t27 28.5t20 41q-22 0 -36.5 15t-14.5 37zM66 0l87 706h88l-87 -706h-88z" />
    <glyph glyph-name="Ldot" unicode="&#x13f;" horiz-adv-x="492" 
d="M179 77h310l-9 -77h-401l81 660h91zM353 255q-22 0 -36.5 15t-14.5 37q0 26 19.5 45.5t46.5 19.5q21 0 35.5 -15.5t14.5 -37.5q0 -26 -19.5 -45t-45.5 -19z" />
    <glyph glyph-name="ldot" unicode="&#x140;" horiz-adv-x="314" 
d="M66 0l87 706h88l-87 -706h-88zM372 356q0 -27 -20.5 -46t-48.5 -19q-23 0 -38 15t-15 38q0 27 20 46.5t47 19.5q24 0 39.5 -15.5t15.5 -38.5z" />
    <glyph glyph-name="Lslash" unicode="&#x141;" horiz-adv-x="492" 
d="M179 77h310l-9 -77h-401l28 228l-74 -42l-25 58l108 61l44 355h91l-37 -300l143 81l26 -57l-178 -101z" />
    <glyph glyph-name="lslash" unicode="&#x142;" horiz-adv-x="305" 
d="M350 429l-106 -60l-46 -369h-88l39 316l-70 -39l-24 58l103 58l39 313h88l-32 -260l72 40z" />
    <glyph glyph-name="Nacute" unicode="&#x143;" horiz-adv-x="655" 
d="M445 696l-79 -5l69 125h114zM657 660l-81 -660h-98l-193 414q-32 68 -52 122l-6 -3q4 -16 -8 -118l-49 -415h-91l81 660h100l193 -418q23 -50 49 -120l6 3q8 110 9 119l49 416h91z" />
    <glyph glyph-name="nacute" unicode="&#x144;" horiz-adv-x="536" 
d="M464 698l-106 -150l-80 -5l73 155h113zM360 478q80 0 120.5 -51.5t29.5 -137.5l-35 -289h-89l35 289q7 53 -15.5 84t-71.5 31q-61 0 -101 -47.5t-49 -105.5l-31 -251h-88l58 472l63 3q5 -46 -1 -110h2q27 49 70.5 81t102.5 32z" />
    <glyph glyph-name="Ncommaaccent" unicode="&#x145;" horiz-adv-x="655" 
d="M657 660l-81 -660h-98l-193 414q-32 68 -52 122l-6 -3q4 -16 -8 -118l-49 -415h-91l81 660h100l193 -418q23 -50 49 -120l6 3q8 110 9 119l49 416h91zM256 -104q0 27 19 46t45 19q23 0 38 -15.5t15 -42.5q0 -32 -11 -59.5t-26 -44t-30.5 -28.5t-26.5 -17l-11 -4l-20 41
q54 26 58 53q-22 0 -36 15t-14 37z" />
    <glyph glyph-name="ncommaaccent" unicode="&#x146;" horiz-adv-x="536" 
d="M360 478q80 0 120.5 -51.5t29.5 -137.5l-35 -289h-89l35 289q7 53 -15.5 84t-71.5 31q-61 0 -101 -47.5t-49 -105.5l-31 -251h-88l58 472l63 3q5 -46 -1 -110h2q27 49 70.5 81t102.5 32zM266 -39q23 0 38 -15.5t15 -42.5q0 -32 -11 -59.5t-26 -44t-30.5 -28.5t-26.5 -17
l-11 -4l-20 41q54 26 58 53q-22 0 -36 15t-14 37q0 27 19 46t45 19z" />
    <glyph glyph-name="Ncaron" unicode="&#x147;" horiz-adv-x="655" 
d="M287 830l76 -3l57 -64l72 64l79 3l-110 -134h-98zM657 660l-81 -660h-98l-193 414q-32 68 -52 122l-6 -3q4 -16 -8 -118l-49 -415h-91l81 660h100l193 -418q23 -50 49 -120l6 3q8 110 9 119l49 416h91z" />
    <glyph glyph-name="ncaron" unicode="&#x148;" horiz-adv-x="536" 
d="M388 543h-96l-76 154l76 -3l54 -84l75 84l79 3zM360 478q80 0 120.5 -51.5t29.5 -137.5l-35 -289h-89l35 289q7 53 -15.5 84t-71.5 31q-61 0 -101 -47.5t-49 -105.5l-31 -251h-88l58 472l63 3q5 -46 -1 -110h2q27 49 70.5 81t102.5 32z" />
    <glyph glyph-name="napostrophe" unicode="&#x149;" horiz-adv-x="536" 
d="M153 662q0 -34 -10.5 -65t-26 -52t-31 -37t-25.5 -24l-11 -7l-25 45q6 4 16 11.5t27 28.5t20 41q-22 0 -36.5 15t-14.5 37q0 27 19.5 46t45.5 19q22 0 37 -15.5t15 -42.5zM360 478q80 0 120.5 -51.5t29.5 -137.5l-35 -289h-89l35 289q7 53 -15.5 84t-71.5 31
q-61 0 -101 -47.5t-49 -105.5l-31 -251h-88l58 472l63 3q5 -46 -1 -110h2q27 49 70.5 81t102.5 32z" />
    <glyph glyph-name="Eng" unicode="&#x14a;" horiz-adv-x="689" 
d="M566 660h91l-84 -686q-12 -108 -75.5 -164t-152.5 -56q-49 0 -87.5 18t-53.5 36l-14 18l65 63q4 -6 11 -15.5t32.5 -25.5t55.5 -16q53 0 86 34t41 102l4 32h-7l-193 414q-32 68 -52 122l-6 -3q4 -16 -8 -118l-49 -415h-91l81 660h100l193 -418q23 -50 49 -120l6 3
q8 110 9 119z" />
    <glyph glyph-name="eng" unicode="&#x14b;" horiz-adv-x="537" 
d="M360 478q80 0 120.5 -51.5t29.5 -137.5l-37 -313q-11 -89 -56.5 -136.5t-125.5 -47.5q-26 0 -47 7t-28 14l-8 7l34 61q17 -15 50 -15q79 0 90 93l39 330q7 53 -15.5 84t-71.5 31q-61 0 -101 -47.5t-49 -105.5l-31 -251h-88l58 472l63 3q5 -46 -1 -110h2q26 49 70 81
t103 32z" />
    <glyph glyph-name="Omacron" unicode="&#x14c;" horiz-adv-x="681" 
d="M295 710l8 65h273l-8 -65h-273zM422 666q117 0 187.5 -78t70.5 -210q0 -171 -97 -277.5t-244 -106.5q-116 0 -186.5 78.5t-70.5 209.5q0 171 97.5 277.5t242.5 106.5zM349 74q103 0 171 82t68 214q0 99 -48 157.5t-128 58.5q-101 0 -169.5 -82.5t-68.5 -213.5
q0 -99 48 -157.5t127 -58.5z" />
    <glyph glyph-name="omacron" unicode="&#x14d;" horiz-adv-x="539" 
d="M209 592l8 65h269l-8 -65h-269zM328 478q93 0 148.5 -59t55.5 -154q0 -119 -74.5 -195t-189.5 -76q-94 0 -149 57.5t-55 151.5q0 119 74.5 197t189.5 78zM277 68q72 0 118.5 53.5t46.5 136.5q0 65 -33 105.5t-90 40.5q-71 0 -117.5 -56t-46.5 -138q0 -64 33 -103t89 -39z
" />
    <glyph glyph-name="Obreve" unicode="&#x14e;" horiz-adv-x="681" 
d="M560 814q-6 -52 -42.5 -87.5t-92.5 -35.5t-84 35t-22 88h67q-8 -61 45 -61q54 0 62 61h67zM422 666q117 0 187.5 -78t70.5 -210q0 -171 -97 -277.5t-244 -106.5q-116 0 -186.5 78.5t-70.5 209.5q0 171 97.5 277.5t242.5 106.5zM349 74q103 0 171 82t68 214
q0 99 -48 157.5t-128 58.5q-101 0 -169.5 -82.5t-68.5 -213.5q0 -99 48 -157.5t127 -58.5z" />
    <glyph glyph-name="obreve" unicode="&#x14f;" horiz-adv-x="539" 
d="M483 686q-7 -61 -46 -102t-101 -41q-63 0 -92 40.5t-22 102.5h73q-4 -39 8.5 -60t38.5 -21q27 0 45.5 21.5t22.5 59.5h73zM328 478q93 0 148.5 -59t55.5 -154q0 -119 -74.5 -195t-189.5 -76q-94 0 -149 57.5t-55 151.5q0 119 74.5 197t189.5 78zM277 68q72 0 118.5 53.5
t46.5 136.5q0 65 -33 105.5t-90 40.5q-71 0 -117.5 -56t-46.5 -138q0 -64 33 -103t89 -39z" />
    <glyph glyph-name="Ohungarumlaut" unicode="&#x150;" horiz-adv-x="681" 
d="M362 696l-78 -5l69 125h112zM531 696l-78 -5l70 125h112zM422 666q117 0 187.5 -78t70.5 -210q0 -171 -97 -277.5t-244 -106.5q-116 0 -186.5 78.5t-70.5 209.5q0 171 97.5 277.5t242.5 106.5zM349 74q103 0 171 82t68 214q0 99 -48 157.5t-128 58.5q-101 0 -169.5 -82.5
t-68.5 -213.5q0 -99 48 -157.5t127 -58.5z" />
    <glyph glyph-name="ohungarumlaut" unicode="&#x151;" horiz-adv-x="539" 
d="M290 548l-79 -5l73 155h114zM445 548l-79 -5l73 155h113zM328 478q93 0 148.5 -59t55.5 -154q0 -119 -74.5 -195t-189.5 -76q-94 0 -149 57.5t-55 151.5q0 119 74.5 197t189.5 78zM277 68q72 0 118.5 53.5t46.5 136.5q0 65 -33 105.5t-90 40.5q-71 0 -117.5 -56
t-46.5 -138q0 -64 33 -103t89 -39z" />
    <glyph glyph-name="OE" unicode="&#x152;" horiz-adv-x="987" 
d="M1010 583h-300l-25 -202h266l-10 -77h-266l-28 -227h300l-9 -77h-391l9 74q-91 -80 -217 -80q-116 0 -186.5 78.5t-70.5 209.5q0 171 97.5 277.5t242.5 106.5q125 0 196 -88l10 82h391zM349 74q67 0 121.5 36.5t86 104.5t31.5 155q0 99 -48 157.5t-128 58.5
q-66 0 -120 -36.5t-86 -104.5t-32 -155q0 -99 48 -157.5t127 -58.5z" />
    <glyph glyph-name="oe" unicode="&#x153;" horiz-adv-x="878" 
d="M696 478q86 0 132.5 -53.5t46.5 -137.5q0 -18 -3 -37t-5 -28l-3 -10h-334v-1q0 -66 35 -104.5t99 -38.5q83 0 134 62l46 -49q-71 -87 -197 -87q-123 0 -177 90q-75 -90 -202 -90q-94 0 -149 57.5t-55 151.5q0 119 74.5 197t189.5 78q58 0 102.5 -24t70.5 -67
q74 91 195 91zM277 68q72 0 118.5 53.5t46.5 136.5q0 65 -33 105.5t-90 40.5q-71 0 -117.5 -56t-46.5 -138q0 -64 33 -103t89 -39zM687 404q-36 0 -66.5 -16.5t-51.5 -45.5t-31 -67h249q1 8 1 17q0 34 -12 59t-35 39t-54 14z" />
    <glyph glyph-name="Racute" unicode="&#x154;" horiz-adv-x="571" 
d="M494 816l-104 -120l-79 -5l69 125h114zM395 271q20 -13 34.5 -39.5t23.5 -53.5t19 -52.5t26.5 -42t41.5 -16.5l19 2l-1 -70q-25 -5 -54 -5q-32 0 -55.5 11t-36.5 29.5t-24 42t-17.5 47.5t-16.5 47.5t-22 42t-33 29.5t-50 11h-48l-31 -254h-91l81 660h191q209 0 209 -174
q0 -79 -45 -135t-120 -80zM210 325h87q36 0 67 10t54 28t36.5 47t13.5 64q0 109 -130 109h-96z" />
    <glyph glyph-name="racute" unicode="&#x155;" horiz-adv-x="331" 
d="M379 698l-106 -150l-80 -5l73 155h113zM324 478q29 0 58 -8l-33 -89q-16 11 -42 11q-40 0 -76.5 -36.5t-46.5 -101.5l-31 -254h-88l58 472l63 3q5 -46 -1 -110h3q20 51 54.5 82t81.5 31z" />
    <glyph glyph-name="Rcommaaccent" unicode="&#x156;" horiz-adv-x="571" 
d="M395 271q20 -13 34.5 -39.5t23.5 -53.5t19 -52.5t26.5 -42t41.5 -16.5l19 2l-1 -70q-25 -5 -54 -5q-32 0 -55.5 11t-36.5 29.5t-24 42t-17.5 47.5t-16.5 47.5t-22 42t-33 29.5t-50 11h-48l-31 -254h-91l81 660h191q209 0 209 -174q0 -79 -45 -135t-120 -80zM210 325h87
q36 0 67 10t54 28t36.5 47t13.5 64q0 109 -130 109h-96zM294 -39q23 0 38 -15.5t15 -42.5q0 -32 -11 -59.5t-26 -44t-30.5 -28.5t-26.5 -16l-11 -5l-20 41l6 3t13.5 8t17 12t14 14t7.5 16q-22 0 -36 15t-14 37q0 27 19 46t45 19z" />
    <glyph glyph-name="rcommaaccent" unicode="&#x157;" horiz-adv-x="331" 
d="M324 478q29 0 58 -8l-33 -89q-16 11 -42 11q-40 0 -76.5 -36.5t-46.5 -101.5l-31 -254h-88l58 472l63 3q5 -46 -1 -110h3q20 51 54.5 82t81.5 31zM110 -39q23 0 38 -15.5t15 -42.5q0 -32 -11 -59.5t-26 -44t-30.5 -28.5t-26.5 -16l-11 -5l-20 41q6 3 15 8t25 19t18 26
q-22 0 -36 15t-14 37q0 27 19 46t45 19z" />
    <glyph glyph-name="Rcaron" unicode="&#x158;" horiz-adv-x="571" 
d="M406 696h-98l-76 134l76 -3l57 -64l72 64l79 3zM395 271q20 -13 34.5 -39.5t23.5 -53.5t19 -52.5t26.5 -42t41.5 -16.5l19 2l-1 -70q-25 -5 -54 -5q-32 0 -55.5 11t-36.5 29.5t-24 42t-17.5 47.5t-16.5 47.5t-22 42t-33 29.5t-50 11h-48l-31 -254h-91l81 660h191
q209 0 209 -174q0 -79 -45 -135t-120 -80zM210 325h87q36 0 67 10t54 28t36.5 47t13.5 64q0 109 -130 109h-96z" />
    <glyph glyph-name="rcaron" unicode="&#x159;" horiz-adv-x="331" 
d="M303 543h-96l-76 154l76 -3l54 -84l75 84l79 3zM188 365q20 51 54.5 82t81.5 31q29 0 58 -8l-33 -89q-17 11 -42 11q-40 0 -76.5 -36.5t-46.5 -101.5l-31 -254h-88l58 472l63 3q5 -46 -1 -110h3z" />
    <glyph glyph-name="Sacute" unicode="&#x15a;" horiz-adv-x="530" 
d="M369 696l-79 -5l69 125h114zM457 484q0 36 -29 69t-93 33q-58 0 -94.5 -29.5t-36.5 -78.5q0 -34 31.5 -56t76.5 -37t90 -34t76.5 -58.5t31.5 -98.5q0 -91 -68.5 -145.5t-180.5 -54.5q-77 0 -134.5 23.5t-88.5 54.5l66 71q63 -69 167 -69q69 0 108.5 29t39.5 79
q0 42 -31.5 69t-77 42t-91 32t-77 51.5t-31.5 88.5q0 89 66.5 145t167.5 56q179 0 200 -161z" />
    <glyph glyph-name="sacute" unicode="&#x15b;" horiz-adv-x="448" 
d="M310 548l-80 -5l73 155h113zM354 303q7 16 7 32q0 32 -24 50.5t-64 18.5q-44 0 -69.5 -20t-25.5 -52q0 -27 25.5 -42t62 -23t72.5 -18.5t61.5 -37t25.5 -69.5q0 -69 -56.5 -108.5t-147.5 -39.5q-118 0 -186 71l59 60q16 -19 53.5 -38t83.5 -19q50 0 77 18t27 48
q0 24 -25.5 38t-61.5 23t-72.5 20.5t-62 39t-25.5 69.5q0 65 55.5 109.5t140.5 44.5q73 0 117 -34.5t44 -89.5q0 -11 -2.5 -22.5t-4.5 -17.5l-2 -5z" />
    <glyph glyph-name="Scircumflex" unicode="&#x15c;" horiz-adv-x="530" 
d="M401 825l77 -134l-78 3l-57 64l-72 -64l-77 -3l109 134h98zM457 484q0 36 -29 69t-93 33q-58 0 -94.5 -29.5t-36.5 -78.5q0 -34 31.5 -56t76.5 -37t90 -34t76.5 -58.5t31.5 -98.5q0 -91 -68.5 -145.5t-180.5 -54.5q-77 0 -134.5 23.5t-88.5 54.5l66 71q63 -69 167 -69
q69 0 108.5 29t39.5 79q0 42 -31.5 69t-77 42t-91 32t-77 51.5t-31.5 88.5q0 89 66.5 145t167.5 56q179 0 200 -161z" />
    <glyph glyph-name="scircumflex" unicode="&#x15d;" horiz-adv-x="448" 
d="M149 543l112 154h96l76 -154l-78 3l-55 84l-74 -84zM354 303q7 16 7 32q0 32 -24 50.5t-64 18.5q-44 0 -69.5 -20t-25.5 -52q0 -27 25.5 -42t62 -23t72.5 -18.5t61.5 -37t25.5 -69.5q0 -69 -56.5 -108.5t-147.5 -39.5q-118 0 -186 71l59 60q16 -19 53.5 -38t83.5 -19
q50 0 77 18t27 48q0 24 -25.5 38t-61.5 23t-72.5 20.5t-62 39t-25.5 69.5q0 65 55.5 109.5t140.5 44.5q73 0 117 -34.5t44 -89.5q0 -11 -2.5 -22.5t-4.5 -17.5l-2 -5z" />
    <glyph glyph-name="Scedilla" unicode="&#x15e;" horiz-adv-x="530" 
d="M204 478q0 -22 13 -39t34.5 -27.5t49 -21.5t56.5 -20.5t56.5 -25t49 -34t34.5 -48.5t13 -68q0 -85 -61 -139t-162 -60l-13 -24q26 -4 46 -22t20 -50q0 -45 -33 -71.5t-80 -26.5q-26 0 -47.5 9.5t-29.5 19.5l-9 9l31 50q21 -27 61 -27q45 0 45 33q0 37 -82 37l33 63
q-65 5 -114 27t-77 50l66 71q63 -69 167 -69q69 0 108.5 29t39.5 79q0 42 -31.5 69t-77 42t-91 32t-77 51.5t-31.5 88.5q0 89 66.5 145t167.5 56q179 0 200 -161l-88 -21q0 36 -29 69t-93 33q-58 0 -94.5 -29.5t-36.5 -78.5z" />
    <glyph glyph-name="scedilla" unicode="&#x15f;" horiz-adv-x="448" 
d="M436 309l-82 -6q7 16 7 32q0 32 -24 50.5t-64 18.5q-22 0 -40 -5.5t-30 -15t-18.5 -22.5t-6.5 -29q0 -23 18.5 -37.5t45.5 -20.5t59.5 -15t59.5 -19.5t45.5 -35.5t18.5 -62q0 -42 -22.5 -74t-61 -50t-90.5 -23l-13 -24q26 -4 46 -22t20 -50q0 -45 -33 -71.5t-80 -26.5
q-26 0 -47.5 9.5t-29.5 19.5l-9 9l31 50q21 -27 61 -27q45 0 45 33q0 37 -82 37l33 63q-98 8 -158 70l59 60q16 -19 53.5 -38t83.5 -19q50 0 77 18t27 48q0 24 -25.5 38t-61.5 23t-72.5 20.5t-62 39t-25.5 69.5q0 65 55.5 109.5t140.5 44.5q73 0 117 -34.5t44 -89.5
q0 -11 -2.5 -22.5t-4.5 -17.5z" />
    <glyph glyph-name="Scaron" unicode="&#x160;" horiz-adv-x="530" 
d="M211 830l76 -3l57 -64l72 64l79 3l-110 -134h-98zM457 484q0 36 -29 69t-93 33q-58 0 -94.5 -29.5t-36.5 -78.5q0 -34 31.5 -56t76.5 -37t90 -34t76.5 -58.5t31.5 -98.5q0 -91 -68.5 -145.5t-180.5 -54.5q-77 0 -134.5 23.5t-88.5 54.5l66 71q63 -69 167 -69
q69 0 108.5 29t39.5 79q0 42 -31.5 69t-77 42t-91 32t-77 51.5t-31.5 88.5q0 89 66.5 145t167.5 56q179 0 200 -161z" />
    <glyph glyph-name="scaron" unicode="&#x161;" horiz-adv-x="448" 
d="M168 697l76 -3l54 -84l75 84l79 3l-112 -154h-96zM354 303q7 16 7 32q0 32 -24 50.5t-64 18.5q-44 0 -69.5 -20t-25.5 -52q0 -27 25.5 -42t62 -23t72.5 -18.5t61.5 -37t25.5 -69.5q0 -69 -56.5 -108.5t-147.5 -39.5q-118 0 -186 71l59 60q16 -19 53.5 -38t83.5 -19
q50 0 77 18t27 48q0 24 -25.5 38t-61.5 23t-72.5 20.5t-62 39t-25.5 69.5q0 65 55.5 109.5t140.5 44.5q73 0 117 -34.5t44 -89.5q0 -11 -2.5 -22.5t-4.5 -17.5l-2 -5z" />
    <glyph glyph-name="uni0162" unicode="&#x162;" horiz-adv-x="516" 
d="M93 660h492l-9 -77h-201l-72 -583h-19l-16 -29q26 -4 46 -22t20 -50q0 -45 -33 -71.5t-80 -26.5q-26 0 -47.5 9.5t-29.5 19.5l-9 9l31 50q21 -27 61 -27q45 0 45 33q0 37 -82 37l36 68h-14l72 583h-200z" />
    <glyph glyph-name="uni0163" unicode="&#x163;" horiz-adv-x="385" 
d="M233 401l-27 -218q-14 -114 71 -114q23 0 44.5 6.5t31.5 13.5l10 7l18 -71q-49 -31 -123 -31l-13 -23q26 -4 46 -22t20 -50q0 -45 -33 -71.5t-80 -26.5q-26 0 -47.5 9.5t-30.5 19.5l-8 9l31 50q21 -27 61 -27q45 0 45 33q0 37 -82 37l36 68q-105 27 -86 180l27 221h-71
l9 71h71l17 140l89 5l-18 -145h173l-9 -71h-172z" />
    <glyph glyph-name="Tcaron" unicode="&#x164;" horiz-adv-x="516" 
d="M222 830l76 -3l57 -64l72 64l79 3l-110 -134h-98zM212 0l72 583h-200l9 77h492l-9 -77h-201l-72 -583h-91z" />
    <glyph glyph-name="tcaron" unicode="&#x165;" horiz-adv-x="385" 
d="M298 540q52 16 57 43q-22 0 -36.5 15t-14.5 37q0 27 19.5 46t45.5 19q22 0 37 -15.5t15 -42.5q0 -32 -10.5 -59t-25.5 -42t-30.5 -25t-26.5 -14l-10 -3zM259 617l-18 -145h173l-9 -71h-172l-27 -218q-14 -114 71 -114q23 0 44.5 6.5t31.5 13.5l10 7l18 -71
q-49 -31 -123 -31q-85 0 -119 46.5t-22 139.5l27 221h-71l9 71h71l17 140z" />
    <glyph glyph-name="Tbar" unicode="&#x166;" horiz-adv-x="516" 
d="M576 583h-201l-25 -201h123l-9 -74h-123l-38 -308h-91l38 308h-131l9 74h131l25 201h-200l9 77h492z" />
    <glyph glyph-name="tbar" unicode="&#x167;" horiz-adv-x="385" 
d="M405 401h-172l-15 -120h136l-8 -64h-136l-4 -34q-7 -58 10 -86t61 -28q23 0 44.5 6.5t31.5 13.5l10 7l18 -71q-5 -3 -15.5 -8.5t-42.5 -14t-65 -8.5q-85 0 -118.5 46.5t-22.5 139.5l5 37h-64l8 64h63l15 120h-71l9 71h71l17 140l89 5l-18 -145h173z" />
    <glyph glyph-name="Utilde" unicode="&#x168;" horiz-adv-x="649" 
d="M589 811v-14q0 -50 -25.5 -83t-71.5 -33q-34 0 -74.5 27.5t-52.5 27.5q-15 0 -24.5 -10.5t-9.5 -28.5l2 -19h-67q-2 10 -2 23q0 46 28.5 73.5t72.5 27.5q36 0 74.5 -27.5t49.5 -27.5q32 0 32 46l-1 18h69zM565 660h91l-50 -405q-14 -117 -92 -189t-190 -72
q-113 0 -173 71.5t-46 189.5l50 405h91l-49 -403q-10 -86 27.5 -134.5t109.5 -48.5t121.5 48.5t59.5 132.5z" />
    <glyph glyph-name="utilde" unicode="&#x169;" horiz-adv-x="526" 
d="M232 549h-67q-1 10 -1 23q0 43 28.5 75t72.5 32q36 0 75 -27.5t50 -27.5q32 0 32 46l-2 18h69q1 -6 1 -14q0 -50 -26 -83t-75 -33q-31 0 -71 27.5t-50 27.5q-15 0 -26 -11t-11 -34zM431 472h88l-58 -472l-65 -3q-5 45 0 100h-1q-25 -46 -66 -74.5t-95 -28.5
q-80 0 -121 52t-30 137l35 289h89l-35 -289q-7 -53 16 -84t72 -31q37 0 68.5 24.5t49 58.5t22.5 70z" />
    <glyph glyph-name="Umacron" unicode="&#x16a;" horiz-adv-x="649" 
d="M280 710l8 65h273l-8 -65h-273zM565 660h91l-50 -405q-14 -117 -92 -189t-190 -72q-113 0 -173 71.5t-46 189.5l50 405h91l-49 -403q-10 -86 27.5 -134.5t109.5 -48.5t121.5 48.5t59.5 132.5z" />
    <glyph glyph-name="umacron" unicode="&#x16b;" horiz-adv-x="526" 
d="M478 657l-8 -65h-269l8 65h269zM431 472h88l-58 -472l-65 -3q-5 45 0 100h-1q-25 -46 -66 -74.5t-95 -28.5q-80 0 -121 52t-30 137l35 289h89l-35 -289q-7 -53 16 -84t72 -31q37 0 68.5 24.5t49 58.5t22.5 70z" />
    <glyph glyph-name="Ubreve" unicode="&#x16c;" horiz-adv-x="649" 
d="M545 814q-6 -52 -42.5 -87.5t-92.5 -35.5t-84 35t-22 88h67q-8 -61 45 -61q54 0 62 61h67zM565 660h91l-50 -405q-14 -117 -92 -189t-190 -72q-113 0 -173 71.5t-46 189.5l50 405h91l-49 -403q-10 -86 27.5 -134.5t109.5 -48.5t121.5 48.5t59.5 132.5z" />
    <glyph glyph-name="ubreve" unicode="&#x16d;" horiz-adv-x="526" 
d="M328 543q-63 0 -92 40.5t-22 102.5h73q-4 -39 8.5 -60t38.5 -21q27 0 45.5 21.5t22.5 59.5h73q-7 -61 -46 -102t-101 -41zM431 472h88l-58 -472l-65 -3q-5 45 0 100h-1q-25 -46 -66 -74.5t-95 -28.5q-80 0 -121 52t-30 137l35 289h89l-35 -289q-7 -53 16 -84t72 -31
q37 0 68.5 24.5t49 58.5t22.5 70z" />
    <glyph glyph-name="Uring" unicode="&#x16e;" horiz-adv-x="649" 
d="M408 677q-31 0 -51 21t-20 52q0 37 27.5 63.5t63.5 26.5q30 0 50 -21t20 -52q0 -37 -27.5 -63.5t-62.5 -26.5zM447 761q0 12 -7 20t-18 8q-13 0 -23 -10t-10 -24q0 -12 7 -20t18 -8q12 0 22.5 10.5t10.5 23.5zM565 660h91l-50 -405q-14 -117 -92 -189t-190 -72
q-113 0 -173 71.5t-46 189.5l50 405h91l-49 -403q-10 -86 27.5 -134.5t109.5 -48.5t121.5 48.5t59.5 132.5z" />
    <glyph glyph-name="uring" unicode="&#x16f;" horiz-adv-x="526" 
d="M326 531q-34 0 -56 23t-22 57q0 41 30 70t70 29q33 0 55 -23t22 -57q0 -41 -29.5 -70t-69.5 -29zM341 654q-14 0 -25 -11t-11 -27q0 -13 7.5 -21.5t20.5 -8.5q14 0 25 11.5t11 26.5q0 13 -8 21.5t-20 8.5zM431 472h88l-58 -472l-65 -3q-5 45 0 100h-1q-25 -46 -66 -74.5
t-95 -28.5q-80 0 -121 52t-30 137l35 289h89l-35 -289q-7 -53 16 -84t72 -31q37 0 68.5 24.5t49 58.5t22.5 70z" />
    <glyph glyph-name="Uhungarumlaut" unicode="&#x170;" horiz-adv-x="649" 
d="M347 696l-78 -5l69 125h112zM516 696l-78 -5l70 125h112zM565 660h91l-50 -405q-14 -117 -92 -189t-190 -72q-113 0 -173 71.5t-46 189.5l50 405h91l-49 -403q-10 -86 27.5 -134.5t109.5 -48.5t121.5 48.5t59.5 132.5z" />
    <glyph glyph-name="uhungarumlaut" unicode="&#x171;" horiz-adv-x="526" 
d="M390 698l-108 -150l-79 -5l73 155h114zM437 548l-79 -5l73 155h113zM400 221l31 251h88l-58 -472l-65 -3q-5 45 0 100h-1q-25 -46 -66 -74.5t-95 -28.5q-80 0 -121 52t-30 137l35 289h89l-35 -289q-7 -53 16 -84t72 -31q37 0 68.5 24.5t49 58.5t22.5 70z" />
    <glyph glyph-name="Uogonek" unicode="&#x172;" horiz-adv-x="649" 
d="M565 660h91l-50 -405q-11 -93 -64 -159t-134 -90q-16 -7 -30.5 -16.5t-29.5 -31.5t-15 -49q0 -18 9.5 -28t25.5 -10q14 0 27 6.5t19 13.5l6 7l18 -51q-33 -37 -88 -37q-39 0 -62.5 21.5t-23.5 57.5q0 61 49 105q-108 4 -165 75t-43 186l50 405h91l-49 -403
q-10 -86 27.5 -134.5t109.5 -48.5t121.5 48.5t59.5 132.5z" />
    <glyph glyph-name="uogonek" unicode="&#x173;" horiz-adv-x="526" 
d="M410 -139q14 0 27 6.5t19 13.5l6 7l18 -51q-4 -4 -11 -10t-30 -16.5t-47 -10.5q-39 0 -62.5 21.5t-23.5 57.5q0 84 89 133q-3 44 1 85h-1q-25 -46 -66 -74.5t-95 -28.5q-80 0 -121 52t-30 137l35 289h89l-35 -289q-7 -53 16 -84t72 -31q37 0 68.5 24.5t49 58.5t22.5 70
l31 251h88l-58 -472l-9 -3t-21 -11t-26 -19t-20.5 -28.5t-9.5 -39.5q0 -18 9.5 -28t25.5 -10z" />
    <glyph glyph-name="Wcircumflex" unicode="&#x174;" horiz-adv-x="860" 
d="M583 825l77 -134l-78 3l-57 64l-72 -64l-77 -3l109 134h98zM834 660h91l-260 -660h-100l-59 437q-9 61 -9 95h-2q-12 -46 -31 -95l-173 -437h-97l-97 660h94l57 -478l9 -79h2q11 36 27 79l185 478h84l67 -478q2 -17 5.5 -46.5t3.5 -32.5h2q3 9 27 79z" />
    <glyph glyph-name="wcircumflex" unicode="&#x175;" horiz-adv-x="728" 
d="M443 630l-74 -84l-77 -3l112 154h96l76 -154l-78 3zM675 472h91l-195 -472h-105l-51 327q-3 16 -3 33h-2q-5 -20 -11 -33l-135 -327h-102l-87 472h96l47 -330q2 -15 6 -32t4 -20h2q14 37 20 52l131 330h89l50 -327q2 -13 4 -33.5t2 -21.5h2l7 20q7 19 13 35z" />
    <glyph glyph-name="Ycircumflex" unicode="&#x176;" horiz-adv-x="551" 
d="M371 758l-72 -64l-77 -3l109 134h98l77 -134l-78 3zM619 660l-267 -414l-30 -246h-91l29 239l-167 421h99l102 -261q20 -51 22 -83h2q9 32 41 83l167 261h93z" />
    <glyph glyph-name="ycircumflex" unicode="&#x177;" horiz-adv-x="493" 
d="M169 543l112 154h96l76 -154l-78 3l-55 84l-74 -84zM447 472h90l-279 -556q-61 -125 -169 -125q-19 0 -36.5 3.5t-24.5 7.5l-8 4l25 73q20 -12 48 -12q56 0 91 74l21 45l-130 486h98l80 -330q8 -32 9 -52h1q4 12 21 52z" />
    <glyph glyph-name="Ydieresis" unicode="&#x178;" horiz-adv-x="551" 
d="M276 704q-19 0 -32 13.5t-13 33.5q0 22 17.5 39.5t40.5 17.5q19 0 31.5 -13.5t12.5 -33.5q0 -23 -17.5 -40t-39.5 -17zM460 704q-19 0 -32 13.5t-13 33.5q0 22 17.5 39.5t40.5 17.5q19 0 31.5 -13.5t12.5 -33.5q0 -23 -17 -40t-40 -17zM619 660l-267 -414l-30 -246h-91
l29 239l-167 421h99l102 -261q20 -51 22 -83h2q9 32 41 83l167 261h93z" />
    <glyph glyph-name="Zacute" unicode="&#x179;" horiz-adv-x="540" 
d="M389 696l-79 -5l69 125h114zM33 0l10 77l377 454q19 22 49 52l-2 3q-39 -3 -69 -3h-284l9 77h462l-9 -77l-375 -454q-12 -14 -22.5 -24.5t-19 -18.5t-9.5 -9l2 -3q10 3 69 3h289l-9 -77h-468z" />
    <glyph glyph-name="zacute" unicode="&#x17a;" horiz-adv-x="440" 
d="M316 548l-80 -5l73 155h113zM34 0l9 71l280 302q7 7 15 15.5t12 12.5l-1 2q-10 -2 -38 -2h-223l9 71h362l-9 -71l-264 -287q-21 -24 -40 -43v-2q10 2 43 2h228l-9 -71h-374z" />
    <glyph glyph-name="Zdotaccent" unicode="&#x17b;" horiz-adv-x="540" 
d="M353 694q-23 0 -38 15t-15 38q0 27 20.5 46.5t47.5 19.5q23 0 38.5 -15.5t15.5 -38.5q0 -27 -20.5 -46t-48.5 -19zM33 0l10 77l377 454q19 22 49 52l-2 3q-39 -3 -69 -3h-284l9 77h462l-9 -77l-375 -454q-12 -14 -22.5 -24.5t-19 -18.5t-9.5 -9l2 -3q10 3 69 3h289
l-9 -77h-468z" />
    <glyph glyph-name="zdotaccent" unicode="&#x17c;" horiz-adv-x="440" 
d="M368 631q0 -27 -21 -46t-49 -19q-23 0 -38 15t-15 38q0 27 20.5 46.5t47.5 19.5q24 0 39.5 -15.5t15.5 -38.5zM34 0l9 71l280 302q7 7 15 15.5t12 12.5l-1 2q-10 -2 -38 -2h-223l9 71h362l-9 -71l-264 -287q-21 -24 -40 -43v-2q10 2 43 2h228l-9 -71h-374z" />
    <glyph glyph-name="Zcaron" unicode="&#x17d;" horiz-adv-x="540" 
d="M231 830l76 -3l57 -64l72 64l79 3l-110 -134h-98zM33 0l10 77l377 454q19 22 49 52l-2 3q-39 -3 -69 -3h-284l9 77h462l-9 -77l-375 -454q-12 -14 -22.5 -24.5t-19 -18.5t-9.5 -9l2 -3q10 3 69 3h289l-9 -77h-468z" />
    <glyph glyph-name="zcaron" unicode="&#x17e;" horiz-adv-x="440" 
d="M174 697l76 -3l54 -84l75 84l79 3l-112 -154h-96zM34 0l9 71l280 302q7 7 15 15.5t12 12.5l-1 2q-10 -2 -38 -2h-223l9 71h362l-9 -71l-264 -287q-21 -24 -40 -43v-2q10 2 43 2h228l-9 -71h-374z" />
    <glyph glyph-name="uni01EA" unicode="&#x1ea;" horiz-adv-x="681" 
d="M403 0q-16 -7 -30.5 -16.5t-29.5 -31.5t-15 -49q0 -18 9.5 -28t25.5 -10q9 0 17.5 3t14.5 7t10.5 7.5t7.5 6.5l2 3l18 -51q-4 -4 -11 -10t-30 -16.5t-47 -10.5q-39 0 -62.5 21.5t-23.5 57.5q0 66 57 112q-107 8 -170.5 85.5t-63.5 201.5q0 85 26.5 157.5t72.5 122
t108.5 77t132.5 27.5q117 0 187.5 -78t70.5 -210q0 -151 -77 -253t-200 -125zM174 290q0 -65 22 -114t61.5 -75.5t91.5 -26.5q67 0 121.5 36.5t86 104.5t31.5 155q0 99 -48 157.5t-128 58.5q-66 0 -120 -36.5t-86 -104.5t-32 -155z" />
    <glyph glyph-name="uni01EB" unicode="&#x1eb;" horiz-adv-x="539" 
d="M337 2q-61 -33 -61 -90q0 -18 9.5 -28t25.5 -10q6 0 12.5 1.5t11.5 4t9.5 5.5t8 5.5t6 5t3.5 4.5l1 1l18 -51q-4 -4 -11 -10t-30 -16.5t-47 -10.5q-39 0 -62.5 21.5t-23.5 57.5q0 59 46 102q-88 5 -138.5 62t-50.5 147q0 119 74.5 197t189.5 78q93 0 148.5 -59t55.5 -154
q0 -66 -24.5 -121t-68.5 -91.5t-102 -50.5zM155 210q0 -64 33 -103t89 -39q72 0 118.5 53.5t46.5 136.5q0 65 -33 105.5t-90 40.5q-71 0 -117.5 -56t-46.5 -138z" />
    <glyph glyph-name="AEacute" unicode="&#x1fc;" horiz-adv-x="941" 
d="M733 816l-104 -120l-79 -5l69 125h114zM918 583h-300l-25 -202h266l-10 -77h-266l-28 -227h300l-9 -77h-391l20 164h-258l-135 -164h-94l542 660h397zM278 239h206l37 295z" />
    <glyph glyph-name="aeacute" unicode="&#x1fd;" horiz-adv-x="806" 
d="M590 698l-106 -150l-80 -5l73 155h113zM623 478q86 0 132.5 -53.5t46.5 -137.5q0 -18 -3 -37t-5 -28l-3 -10h-334v-1q0 -66 35 -104.5t99 -38.5q83 0 134 62l46 -49q-71 -87 -197 -87q-65 0 -110.5 27t-68.5 76h-4q-64 -103 -198 -103q-67 0 -103 31t-36 84q0 84 75 122
t234 38h13l4 30q6 49 -18 77t-78 28q-51 0 -80.5 -22t-29.5 -60q0 -14 3 -21l-85 -14q-2 11 -2 27q0 72 56.5 118t148.5 46q104 0 150 -75q70 75 178 75zM614 404q-54 0 -93.5 -35.5t-55.5 -93.5h249q1 8 1 17q0 51 -27 81.5t-74 30.5zM219 68q60 0 100 29.5t44 65.5l6 45
h-13q-115 0 -163.5 -22t-48.5 -66q0 -52 75 -52z" />
    <glyph glyph-name="Oslashacute" unicode="&#x1fe;" horiz-adv-x="681" 
d="M560 814l-104 -120l-79 -5l69 125h114zM697 688l-81 -108q64 -77 64 -202q0 -171 -97 -277.5t-244 -106.5q-77 0 -136 36l-56 -74h-90l91 121q-66 78 -66 205q0 85 26.5 157.5t72.5 122t108.5 77t132.5 27.5q80 0 140 -38l45 60h90zM174 290q0 -80 33 -135l302 402
q-42 29 -97 29q-66 0 -120 -36.5t-86 -104.5t-32 -155zM588 370q0 78 -31 132l-301 -401q40 -27 93 -27q103 0 171 82t68 214z" />
    <glyph glyph-name="oslashacute" unicode="&#x1ff;" horiz-adv-x="539" 
d="M463 698l-106 -150l-80 -5l73 155h113zM471 424q61 -59 61 -159q0 -119 -74.5 -195t-189.5 -76q-55 0 -99 21l-30 -41h-68l53 72q-60 57 -60 157q0 119 74.5 197t189.5 78q56 0 99 -22l31 41h67zM155 210q0 -54 24 -90l199 269q-26 15 -59 15q-35 0 -65.5 -15t-52 -41
t-34 -62t-12.5 -76zM277 68q72 0 118.5 53.5t46.5 136.5q0 55 -24 93l-199 -269q25 -14 58 -14z" />
    <glyph glyph-name="Scommaaccent" unicode="&#x218;" horiz-adv-x="530" 
d="M457 484q0 36 -29 69t-93 33q-58 0 -94.5 -29.5t-36.5 -78.5q0 -34 31.5 -56t76.5 -37t90 -34t76.5 -58.5t31.5 -98.5q0 -91 -68.5 -145.5t-180.5 -54.5q-77 0 -134.5 23.5t-88.5 54.5l66 71q63 -69 167 -69q69 0 108.5 29t39.5 79q0 42 -31.5 69t-77 42t-91 32t-77 51.5
t-31.5 88.5q0 89 66.5 145t167.5 56q179 0 200 -161zM192 -104q0 27 19 46t45 19q23 0 38 -15.5t15 -42.5q0 -32 -11 -59.5t-26 -44t-30.5 -28.5t-26.5 -17l-11 -4l-20 41q54 26 58 53q-22 0 -36 15t-14 37z" />
    <glyph glyph-name="scommaaccent" unicode="&#x219;" horiz-adv-x="448" 
d="M354 303q7 16 7 32q0 32 -24 50.5t-64 18.5q-44 0 -69.5 -20t-25.5 -52q0 -27 25.5 -42t62 -23t72.5 -18.5t61.5 -37t25.5 -69.5q0 -69 -56.5 -108.5t-147.5 -39.5q-118 0 -186 71l59 60q16 -19 53.5 -38t83.5 -19q50 0 77 18t27 48q0 24 -25.5 38t-61.5 23t-72.5 20.5
t-62 39t-25.5 69.5q0 65 55.5 109.5t140.5 44.5q73 0 117 -34.5t44 -89.5q0 -11 -2.5 -22.5t-4.5 -17.5l-2 -5zM156 -104q0 27 19 46t45 19q23 0 38 -15.5t15 -42.5q0 -32 -11 -59.5t-26 -44t-30.5 -28.5t-26.5 -17l-11 -4l-20 41q54 26 58 53q-22 0 -36 15t-14 37z" />
    <glyph glyph-name="uni021A" unicode="&#x21a;" horiz-adv-x="516" 
d="M212 0l72 583h-200l9 77h492l-9 -77h-201l-72 -583h-91zM186 -104q0 27 19 46t45 19q23 0 38 -15.5t15 -42.5q0 -32 -11 -59.5t-26 -44t-30.5 -28.5t-26.5 -17l-11 -4l-20 41q54 26 58 53q-22 0 -36 15t-14 37z" />
    <glyph glyph-name="uni021B" unicode="&#x21b;" horiz-adv-x="385" 
d="M233 401l-27 -218q-14 -114 71 -114q23 0 44.5 6.5t31.5 13.5l10 7l18 -71q-49 -31 -123 -31q-85 0 -119 46.5t-22 139.5l27 221h-71l9 71h71l17 140l89 5l-18 -145h173l-9 -71h-172zM227 -39q23 0 38 -15.5t15 -42.5q0 -32 -11 -59.5t-26 -44t-30.5 -28.5t-26.5 -17
l-11 -4l-20 41q54 26 58 53q-22 0 -36 15t-14 37q0 27 19 46t45 19z" />
    <glyph glyph-name="uni0237" unicode="&#x237;" horiz-adv-x="228" 
d="M-72 -119q17 -15 50 -15q79 0 90 93l63 513l89 3l-61 -499q-11 -89 -56.5 -136.5t-125.5 -47.5q-26 0 -47 7t-28 14l-8 7z" />
    <glyph glyph-name="circumflex" unicode="&#x2c6;" horiz-adv-x="338" 
d="M93 543l112 154h96l76 -154l-78 3l-55 84l-74 -84z" />
    <glyph glyph-name="caron" unicode="&#x2c7;" horiz-adv-x="324" 
d="M112 697l76 -3l54 -84l75 84l79 3l-112 -154h-96z" />
    <glyph glyph-name="breve" unicode="&#x2d8;" horiz-adv-x="313" 
d="M371 686q-7 -61 -46 -102t-101 -41q-63 0 -92 40.5t-22 102.5h73q-4 -39 8.5 -60t38.5 -21q27 0 45.5 21.5t22.5 59.5h73z" />
    <glyph glyph-name="dotaccent" unicode="&#x2d9;" horiz-adv-x="197" 
d="M237 631q0 -27 -21 -46t-49 -19q-23 0 -38 15t-15 38q0 27 20.5 46.5t47.5 19.5q24 0 39.5 -15.5t15.5 -38.5z" />
    <glyph glyph-name="ring" unicode="&#x2da;" horiz-adv-x="252" 
d="M191 531q-34 0 -56 23t-22 57q0 41 30 70t70 29q33 0 55 -23t22 -57q0 -41 -29.5 -70t-69.5 -29zM234 624q0 13 -8 21.5t-20 8.5q-14 0 -25 -11t-11 -27q0 -13 7.5 -21.5t20.5 -8.5q14 0 25 11.5t11 26.5z" />
    <glyph glyph-name="ogonek" unicode="&#x2db;" horiz-adv-x="252" 
d="M190 -162q-33 -37 -88 -37q-39 0 -62.5 21.5t-23.5 57.5q0 34 15 62.5t36.5 45t43 28.5t36.5 16l15 5l9 -36l-9 -3t-21 -11t-26 -19t-20.5 -28.5t-9.5 -39.5q0 -18 9.5 -28t25.5 -10q14 0 27 7t19 13l6 7z" />
    <glyph glyph-name="tilde" unicode="&#x2dc;" horiz-adv-x="389" 
d="M429 688q1 -6 1 -14q0 -50 -26 -83t-75 -33q-31 0 -71 27.5t-50 27.5q-15 0 -26 -11t-11 -34l1 -19h-67q-1 10 -1 23q0 43 28.5 75t72.5 32q36 0 75 -27.5t50 -27.5q32 0 32 46l-2 18h69z" />
    <glyph glyph-name="hungarumlaut" unicode="&#x2dd;" horiz-adv-x="397" 
d="M183 548l-79 -5l73 155h114zM338 548l-79 -5l73 155h113z" />
    <glyph glyph-name="gravecomb" unicode="&#x300;" 
d="M-52 543l-69 155h113l35 -150z" />
    <glyph glyph-name="acutecomb" unicode="&#x301;" 
d="M-76 548l-80 -5l73 155h113z" />
    <glyph glyph-name="uni0302" unicode="&#x302;" 
d="M-245 543l112 154h96l76 -154l-78 3l-55 84l-74 -84z" />
    <glyph glyph-name="tildecomb" unicode="&#x303;" 
d="M41 688q1 -6 1 -14q0 -50 -26 -83t-75 -33q-31 0 -71 27.5t-50 27.5q-15 0 -26 -11t-11 -34l1 -19h-67q-1 10 -1 23q0 43 28.5 75t72.5 32q36 0 75 -27.5t50 -27.5q32 0 32 46l-2 18h69z" />
    <glyph glyph-name="uni0304" unicode="&#x304;" 
d="M-246 592l8 65h269l-8 -65h-269z" />
    <glyph glyph-name="uni0306" unicode="&#x306;" 
d="M58 686q-7 -61 -46 -102t-101 -41q-63 0 -92 40.5t-22 102.5h73q-4 -39 8.5 -60t38.5 -21q27 0 45.5 21.5t22.5 59.5h73z" />
    <glyph glyph-name="uni0307" unicode="&#x307;" 
d="M39 631q0 -27 -21 -46t-49 -19q-23 0 -38 15t-15 38q0 27 20.5 46.5t47.5 19.5q24 0 39.5 -15.5t15.5 -38.5z" />
    <glyph glyph-name="uni0308" unicode="&#x308;" 
d="M-193 573q-20 0 -33 13.5t-13 33.5q0 24 18 41.5t41 17.5q19 0 32 -14t13 -34q0 -24 -17.5 -41t-40.5 -17zM-10 573q-19 0 -32 13.5t-13 33.5q0 24 17.5 41.5t40.5 17.5q21 0 33.5 -13.5t12.5 -33.5q0 -25 -17 -42t-42 -17z" />
    <glyph glyph-name="uni030A" unicode="&#x30a;" 
d="M-61 531q-34 0 -56 23t-22 57q0 41 30 70t70 29q33 0 55 -23t22 -57q0 -41 -29.5 -70t-69.5 -29zM-18 624q0 13 -8 21.5t-20 8.5q-14 0 -25 -11t-11 -27q0 -13 7.5 -21.5t20.5 -8.5q14 0 25 11.5t11 26.5z" />
    <glyph glyph-name="uni030B" unicode="&#x30b;" 
d="M-214 548l-79 -5l73 155h114zM-59 548l-79 -5l73 155h113z" />
    <glyph glyph-name="uni030C" unicode="&#x30c;" 
d="M-212 697l76 -3l54 -84l75 84l79 3l-112 -154h-96z" />
    <glyph glyph-name="uni0326" unicode="&#x326;" 
d="M-167 -104q0 27 19 46t45 19q23 0 38 -15.5t15 -42.5q0 -32 -11 -59.5t-26 -44t-30.5 -28.5t-26.5 -17l-11 -4l-20 41q54 26 58 53q-22 0 -36 15t-14 37z" />
    <glyph glyph-name="uni0327" unicode="&#x327;" 
d="M-113 -29q26 -4 46 -22t20 -50q0 -45 -33 -71.5t-80 -26.5q-26 0 -47.5 9.5t-30.5 19.5l-8 9l31 50q21 -27 61 -27q45 0 45 33q0 37 -82 37l44 83h58z" />
    <glyph glyph-name="uni0328" unicode="&#x328;" 
d="M-62 -162q-33 -37 -88 -37q-39 0 -62.5 21.5t-23.5 57.5q0 34 15 62.5t36.5 45t43 28.5t36.5 16l15 5l9 -36l-9 -3t-21 -11t-26 -19t-20.5 -28.5t-9.5 -39.5q0 -18 9.5 -28t25.5 -10q14 0 27 7t19 13l6 7z" />
    <glyph glyph-name="uni0335" unicode="&#x335;" 
d="M-281 222h288l-8 -64h-288z" />
    <glyph glyph-name="uni0336" unicode="&#x336;" 
d="M-336 232h345l-9 -74h-345z" />
    <glyph glyph-name="uni0337" unicode="&#x337;" 
d="M-260 341l269 151l25 -57l-270 -152z" />
    <glyph glyph-name="uni0338" unicode="&#x338;" 
d="M-125 503h67l-386 -523h-68z" />
    <glyph glyph-name="Wgrave" unicode="&#x1e80;" horiz-adv-x="860" 
d="M481 691l-73 125h113l40 -120zM834 660h91l-260 -660h-100l-59 437q-9 61 -9 95h-2q-12 -46 -31 -95l-173 -437h-97l-97 660h94l57 -478l9 -79h2q11 36 27 79l185 478h84l67 -478q2 -17 5.5 -46.5t3.5 -32.5h2q3 9 27 79z" />
    <glyph glyph-name="wgrave" unicode="&#x1e81;" horiz-adv-x="728" 
d="M473 548l-79 -5l-69 155h113zM675 472h91l-195 -472h-105l-51 327q-3 16 -3 33h-2q-5 -20 -11 -33l-135 -327h-102l-87 472h96l47 -330q2 -15 6 -32t4 -20h2q14 37 20 52l131 330h89l50 -327q2 -13 4 -33.5t2 -21.5h2l7 20q7 19 13 35z" />
    <glyph glyph-name="Wacute" unicode="&#x1e82;" horiz-adv-x="860" 
d="M551 696l-79 -5l69 125h114zM834 660h91l-260 -660h-100l-59 437q-9 61 -9 95h-2q-12 -46 -31 -95l-173 -437h-97l-97 660h94l57 -478l9 -79h2q11 36 27 79l185 478h84l67 -478q2 -17 5.5 -46.5t3.5 -32.5h2q3 9 27 79z" />
    <glyph glyph-name="wacute" unicode="&#x1e83;" horiz-adv-x="728" 
d="M584 698l-106 -150l-80 -5l73 155h113zM675 472h91l-195 -472h-105l-51 327q-3 16 -3 33h-2q-5 -20 -11 -33l-135 -327h-102l-87 472h96l47 -330q2 -15 6 -32t4 -20h2q14 37 20 52l131 330h89l50 -327q2 -13 4 -33.5t2 -21.5h2l7 20q7 19 13 35z" />
    <glyph glyph-name="Wdieresis" unicode="&#x1e84;" horiz-adv-x="860" 
d="M430 704q-19 0 -32 13.5t-13 33.5q0 22 17.5 39.5t40.5 17.5q19 0 31.5 -13.5t12.5 -33.5q0 -23 -17.5 -40t-39.5 -17zM614 704q-19 0 -32 13.5t-13 33.5q0 22 17.5 39.5t40.5 17.5q19 0 31.5 -13.5t12.5 -33.5q0 -23 -17 -40t-40 -17zM834 660h91l-260 -660h-100
l-59 437q-9 61 -9 95h-2q-12 -46 -31 -95l-173 -437h-97l-97 660h94l57 -478l9 -79h2q11 36 27 79l185 478h84l67 -478q2 -17 5.5 -46.5t3.5 -32.5h2q3 9 27 79z" />
    <glyph glyph-name="wdieresis" unicode="&#x1e85;" horiz-adv-x="728" 
d="M349 573q-20 0 -33 13.5t-13 33.5q0 24 18 41.5t41 17.5q19 0 32 -14t13 -34q0 -24 -17.5 -41t-40.5 -17zM532 573q-19 0 -32 13.5t-13 33.5q0 24 17.5 41.5t40.5 17.5q21 0 33.5 -13.5t12.5 -33.5q0 -25 -17 -42t-42 -17zM675 472h91l-195 -472h-105l-51 327
q-3 16 -3 33h-2q-5 -20 -11 -33l-135 -327h-102l-87 472h96l47 -330q2 -15 6 -32t4 -20h2q14 37 20 52l131 330h89l50 -327q2 -13 4 -33.5t2 -21.5h2l7 20q7 19 13 35z" />
    <glyph glyph-name="Ygrave" unicode="&#x1ef2;" horiz-adv-x="551" 
d="M407 696l-80 -5l-73 125h113zM619 660l-267 -414l-30 -246h-91l29 239l-167 421h99l102 -261q20 -51 22 -83h2q9 32 41 83l167 261h93z" />
    <glyph glyph-name="ygrave" unicode="&#x1ef3;" horiz-adv-x="493" 
d="M271 543l-69 155h113l35 -150zM447 472h90l-279 -556q-61 -125 -169 -125q-19 0 -36.5 3.5t-24.5 7.5l-8 4l25 73q20 -12 48 -12q56 0 91 74l21 45l-130 486h98l80 -330q8 -32 9 -52h1q4 12 21 52z" />
    <glyph glyph-name="uni1EF8" unicode="&#x1ef8;" horiz-adv-x="551" 
d="M275 678h-67q-2 10 -2 23q0 46 28.5 73.5t72.5 27.5q36 0 74.5 -27.5t49.5 -27.5q32 0 32 46l-1 18h69v-14q0 -50 -25.5 -83t-71.5 -33q-34 0 -74.5 27.5t-52.5 27.5q-15 0 -24.5 -10.5t-9.5 -28.5zM619 660l-267 -414l-30 -246h-91l29 239l-167 421h99l102 -261
q20 -51 22 -83h2q9 32 41 83l167 261h93z" />
    <glyph glyph-name="uni1EF9" unicode="&#x1ef9;" horiz-adv-x="493" 
d="M471 688q1 -6 1 -14q0 -50 -26 -83t-75 -33q-31 0 -71 27.5t-50 27.5q-15 0 -26 -11t-11 -34l1 -19h-67q-1 10 -1 23q0 43 28.5 75t72.5 32q36 0 75 -27.5t50 -27.5q32 0 32 46l-2 18h69zM447 472h90l-279 -556q-61 -125 -169 -125q-19 0 -36.5 3.5t-24.5 7.5l-8 4l25 73
q20 -12 48 -12q56 0 91 74l21 45l-130 486h98l80 -330q8 -32 9 -52h1q4 12 21 52z" />
    <glyph glyph-name="endash" unicode="&#x2013;" horiz-adv-x="441" 
d="M74 240l9 66h351l-9 -66h-351z" />
    <glyph glyph-name="emdash" unicode="&#x2014;" horiz-adv-x="674" 
d="M74 240l9 66h584l-9 -66h-584z" />
    <glyph glyph-name="quoteleft" unicode="&#x2018;" horiz-adv-x="222" 
d="M227 466q0 -28 -18.5 -45t-49.5 -17q-27 0 -43 18.5t-16 47.5q0 36 12.5 69t30.5 55.5t35.5 39.5t29.5 25l13 8l33 -48q-8 -5 -20 -14.5t-33.5 -37t-24.5 -52.5q22 0 36.5 -13.5t14.5 -35.5z" />
    <glyph glyph-name="quoteright" unicode="&#x2019;" horiz-adv-x="220" 
d="M128 605q0 28 18.5 45t49.5 17q27 0 43 -18.5t16 -47.5q0 -36 -12.5 -69t-30.5 -55.5t-35.5 -39.5t-30.5 -25l-12 -8l-33 48q8 5 20 14.5t33.5 37t24.5 52.5q-22 0 -36.5 13.5t-14.5 35.5z" />
    <glyph glyph-name="quotesinglbase" unicode="&#x201a;" horiz-adv-x="226" 
d="M55 43q0 28 18.5 45t49.5 17q27 0 43 -18.5t16 -47.5q0 -36 -12.5 -69t-30.5 -55.5t-35.5 -39.5t-29.5 -25l-13 -8l-33 48q8 5 20 14.5t33.5 37t24.5 52.5q-22 0 -36.5 13.5t-14.5 35.5z" />
    <glyph glyph-name="quotedblleft" unicode="&#x201c;" horiz-adv-x="387" 
d="M175 466q0 -28 -18.5 -45t-49.5 -17q-27 0 -43 18.5t-16 47.5q0 36 12.5 69t30.5 55.5t35.5 39.5t29.5 25l13 8l33 -48q-8 -5 -20 -14.5t-33.5 -37t-24.5 -52.5q22 0 36.5 -13.5t14.5 -35.5zM329 466q0 -28 -18.5 -45t-49.5 -17q-27 0 -43 18.5t-16 47.5q0 36 12.5 69
t30 55.5t35.5 39.5t30 25l13 8l33 -48q-8 -5 -20 -14.5t-33.5 -37t-24.5 -52.5q22 0 36.5 -13.5t14.5 -35.5z" />
    <glyph glyph-name="quotedblright" unicode="&#x201d;" horiz-adv-x="384" 
d="M195 667q27 0 43 -18.5t16 -47.5q0 -36 -12.5 -69t-30.5 -55.5t-35.5 -39.5t-29.5 -25l-13 -8l-33 48q8 5 20 14.5t33.5 37t24.5 52.5q-22 0 -36.5 13.5t-14.5 35.5q0 28 18.5 45t49.5 17zM359 667q27 0 43 -18.5t16 -47.5q0 -36 -12.5 -69t-30 -55.5t-35.5 -39.5
t-30 -25l-13 -8l-33 48q8 5 20 14.5t33.5 37t24.5 52.5q-22 0 -36.5 13.5t-14.5 35.5q0 28 18.5 45t49.5 17z" />
    <glyph glyph-name="quotedblbase" unicode="&#x201e;" horiz-adv-x="391" 
d="M55 43q0 28 18.5 45t49.5 17q27 0 43 -18.5t16 -47.5q0 -36 -12.5 -69t-30.5 -55.5t-35.5 -39.5t-29.5 -25l-13 -8l-33 48q8 5 20 14.5t33.5 37t24.5 52.5q-22 0 -36.5 13.5t-14.5 35.5zM225 43q0 28 18.5 45t49.5 17q27 0 43 -18.5t16 -47.5q0 -36 -12.5 -69t-30 -55.5
t-35.5 -39.5t-30 -25l-13 -8l-33 48q8 5 20 14.5t33.5 37t24.5 52.5q-22 0 -36.5 13.5t-14.5 35.5z" />
    <glyph glyph-name="dagger" unicode="&#x2020;" horiz-adv-x="392" 
d="M402 472l-9 -70l-113 3l-26 -183l-45 -426h-77l58 426l20 183l-115 -3l9 70l113 -3l21 188h77l-26 -188z" />
    <glyph glyph-name="daggerdbl" unicode="&#x2021;" horiz-adv-x="392" 
d="M393 395l-113 3l-23 -156l-16 -169l113 4l-8 -67l-113 3l-24 -217h-78l31 217l-114 -3l8 67l112 -4l25 169l15 156l-113 -3l9 70l113 -3l20 198h78l-27 -198l114 3z" />
    <glyph glyph-name="bullet" unicode="&#x2022;" horiz-adv-x="339" 
d="M305 300q0 -45 -34 -79t-79 -34q-38 0 -62.5 26.5t-24.5 64.5q0 46 33.5 80t78.5 34q38 0 63 -26.5t25 -65.5z" />
    <glyph glyph-name="ellipsis" unicode="&#x2026;" horiz-adv-x="561" 
d="M54 46q0 26 19.5 45.5t46.5 19.5q21 0 35.5 -15.5t14.5 -37.5q0 -26 -19.5 -45t-45.5 -19q-22 0 -36.5 15t-14.5 37zM229 46q0 26 19.5 45.5t46.5 19.5q21 0 35.5 -15.5t14.5 -37.5q0 -26 -19.5 -45t-45.5 -19q-22 0 -36.5 15t-14.5 37zM404 46q0 26 19.5 45.5t46.5 19.5
q21 0 35.5 -15.5t14.5 -37.5q0 -26 -19.5 -45t-45.5 -19q-22 0 -36.5 15t-14.5 37z" />
    <glyph glyph-name="perthousand" unicode="&#x2030;" horiz-adv-x="1205" 
d="M243 0l369 666h83l-368 -666h-84zM228 290q-66 0 -105 43t-39 114q0 94 53.5 154t135.5 60q67 0 106 -44t39 -117q0 -93 -53.5 -151.5t-136.5 -58.5zM237 367q44 0 71 35t27 90q0 42 -19 67t-52 25q-40 0 -68 -36.5t-28 -91.5q0 -41 19 -65t50 -24zM648 -4q-67 0 -106 43
t-39 114q0 94 53.5 154t136.5 60q67 0 106 -44t39 -117q0 -93 -53.5 -151.5t-136.5 -58.5zM1012 -4q-66 0 -105 43t-39 114q0 94 53.5 154t135.5 60q67 0 106 -44t39 -117q0 -93 -53.5 -151.5t-136.5 -58.5zM657 73q42 0 69.5 34.5t27.5 89.5q0 42 -18.5 67.5t-51.5 25.5
q-41 0 -69 -36.5t-28 -91.5q0 -41 19 -65t51 -24zM1021 73q43 0 70 34.5t27 90.5q0 42 -18.5 67t-51.5 25q-40 0 -68 -36.5t-28 -91.5q0 -41 19 -65t50 -24z" />
    <glyph glyph-name="guilsinglleft" unicode="&#x2039;" horiz-adv-x="269" 
d="M67 228l9 72l158 136l37 -50l-142 -122l113 -121l-51 -51z" />
    <glyph glyph-name="guilsinglright" unicode="&#x203a;" horiz-adv-x="269" 
d="M101 92l-38 51l141 121l-112 122l52 50l123 -136l-9 -72z" />
    <glyph glyph-name="fraction" unicode="&#x2044;" horiz-adv-x="319" 
d="M12 0l298 726h87l-298 -726h-87z" />
    <glyph glyph-name="Euro" unicode="&#x20ac;" horiz-adv-x="677" 
d="M420 74q58 0 105.5 24.5t79.5 63.5l48 -56q-10 -14 -28.5 -30t-49 -36t-74.5 -33t-93 -13q-100 0 -165.5 61.5t-78.5 170.5h-103l22 64h78q1 44 8 84h-90l22 64h85q37 107 119 167.5t187 60.5q39 0 74 -9.5t57.5 -23t41.5 -31t28 -30t14 -23.5l-61 -56q-24 40 -65 66.5
t-97 26.5q-61 0 -117 -37.5t-87 -110.5h263l-22 -64h-260q-8 -39 -8 -84h244l-23 -64h-216q14 -75 59.5 -113.5t102.5 -38.5z" />
    <glyph glyph-name="trademark" unicode="&#x2122;" horiz-adv-x="672" 
d="M107 608l6 52h244l-6 -52h-90l-28 -225h-63l28 225h-91zM628 660h58l-34 -277h-54l20 159l-92 -159h-40l-50 159l-19 -159h-56l34 277h62l61 -187z" />
    <glyph glyph-name="minus" unicode="&#x2212;" horiz-adv-x="479" 
d="M88 213l8 65h355l-8 -65h-355z" />
    <glyph glyph-name="uni2215" unicode="&#x2215;" horiz-adv-x="389" 
d="M4 0l386 726h86l-385 -726h-87z" />
    <glyph glyph-name="uni2219" unicode="&#x2219;" horiz-adv-x="315" 
d="M186 227q-19 0 -31 12.5t-12 30.5q0 22 16.5 38t38.5 16q19 0 30 -12t11 -31q0 -22 -15.5 -38t-37.5 -16z" />
    <glyph glyph-name="approxequal" unicode="&#x2248;" horiz-adv-x="537" 
d="M98 289l8 62q48 33 109 33q40 0 98.5 -20t99.5 -20q64 0 108 30l-8 -62q-49 -33 -108 -33q-41 0 -99.5 20t-98.5 20q-63 0 -109 -30zM78 119l7 62q48 33 109 33q40 0 98.5 -20t99.5 -20q64 0 108 30l-8 -62q-50 -33 -108 -33q-41 0 -99.5 20t-98.5 20q-64 0 -108 -30z
" />
    <glyph glyph-name="notequal" unicode="&#x2260;" horiz-adv-x="486" 
d="M463 314h-125l-54 -133h162l-8 -64h-180l-48 -117h-69l48 117h-113l8 64h131l54 133h-168l8 65h187l38 93h68l-38 -93h107z" />
    <glyph glyph-name="uniF8FF" unicode="&#xf8ff;" horiz-adv-x="1468" 
d="M725 583q0 26 17.5 44t43.5 18t44 -18t18 -44t-18 -43.5t-44 -17.5t-43.5 18t-17.5 43zM253 270h-119q0 134 9 314h100q10 -200 10 -314zM728 270q0 92 3 147h-61l3 -65q4 -4 15 -4q13 0 18 5v-74q-14 -15 -68 -15q-82 0 -82 66q0 12 2 49t2 38h-22v79l119 30l1 -17h178
q10 -64 10 -239h-118zM362 265q-92 0 -92 114q0 135 134 135q124 0 124 -117v-127h-83l-8 61q-6 -33 -23.5 -49.5t-51.5 -16.5zM1124 270h-114q0 26 1 56t1 37q0 29 -15 29q-18 0 -18 -29q0 -7 1.5 -37t1.5 -56h-114q0 175 10 239h80q6 -44 6 -76q2 15 6.5 30t24 33t49.5 18
q42 0 58.5 -25t18.5 -81zM1385 391q0 -126 -123 -126q-122 0 -122 124q0 125 124 125q121 0 121 -123zM424 375q0 26 -24 26q-22 0 -22 -26q0 -30 22 -30q24 0 24 30zM1285 375q0 26 -23 26q-21 0 -21 -26q0 -30 21 -30q23 0 23 30zM462 238h104q10 -52 10 -138
q0 -81 -33.5 -115.5t-118.5 -34.5q-61 0 -88 17v83q24 -16 70 -16q21 0 34 6t16.5 11.5t3.5 10.5q-17 -11 -49 -11q-90 0 -90 83v13h-55l3 -65q6 -4 15 -4q13 0 18 5v-73q-19 -15 -68 -15q-45 0 -63 17t-18 54q0 39 3 81h-18v80l117 29l-1 -18h177v-119q0 -16 3 -21.5
t12 -5.5q16 0 16 27v119zM767 243q37 0 58.5 -29t21.5 -84q0 -135 -137 -135q1 -15 1 -39h-119q0 142 10 282h78q7 -42 7 -76q17 81 80 81zM1104 127q0 -21 -3 -35h-124q11 -18 50 -18q34 0 55 12v-75q-23 -16 -78 -16q-141 0 -141 122q0 59 32.5 92.5t92.5 33.5
q55 0 85.5 -30t30.5 -86zM1012 109q3 27 -17 27q-23 0 -23 -27h40zM704 72q5 0 12.5 2.5t16 11.5t8.5 23q0 23 -20 23q-22 0 -22 -31q0 -14 5 -29zM1108 13q0 -23 24 -23t24 23t-24 23t-24 -23zM1114 13q0 18 18 18t18 -18t-18 -18t-18 18zM1142 2l-6 9q7 0 7 7t-10 7h-11
v-23h5v9h5l4 -9h6zM1134 15h-7v6h7q4 0 4 -3t-4 -3z" />
    <glyph glyph-name="i.loclTRK" horiz-adv-x="221" 
d="M248 631q0 -27 -21 -46t-49 -19q-23 0 -38 15t-15 38q0 27 20.5 46.5t47.5 19.5q24 0 39.5 -15.5t15.5 -38.5zM66 0l58 472l89 3l-58 -475h-89z" />
    <glyph glyph-name="napostrophe.s001" horiz-adv-x="552" 
d="M153 662q0 -34 -10.5 -65t-26 -52t-31 -37t-25.5 -24l-11 -7l-25 45q6 4 16 11.5t27 28.5t20 41q-22 0 -36.5 15t-14.5 37q0 27 19.5 46t45.5 19q22 0 37 -15.5t15 -42.5zM510 73q12 0 18 2l-4 -75q-24 -6 -57 -6q-40 0 -58 24.5t-13 60.5l25 210q6 53 -16.5 84t-70.5 31
q-61 0 -101 -47.5t-49 -105.5l-31 -251h-88l58 472l63 3q5 -46 -1 -110h2q27 49 70.5 81t102.5 32q80 0 120.5 -51.5t29.5 -137.5l-23 -189q-3 -27 23 -27z" />
    <glyph glyph-name="ncommaaccent.s001" horiz-adv-x="552" 
d="M510 73q12 0 18 2l-4 -75q-24 -6 -57 -6q-40 0 -58 24.5t-13 60.5l25 210q6 53 -16.5 84t-70.5 31q-61 0 -101 -47.5t-49 -105.5l-31 -251h-88l58 472l63 3q5 -46 -1 -110h2q27 49 70.5 81t102.5 32q80 0 120.5 -51.5t29.5 -137.5l-23 -189q-3 -27 23 -27zM266 -39
q23 0 38 -15.5t15 -42.5q0 -32 -11 -59.5t-26 -44t-30.5 -28.5t-26.5 -17l-11 -4l-20 41q54 26 58 53q-22 0 -36 15t-14 37q0 27 19 46t45 19z" />
    <glyph glyph-name="uni0306.case.001" 
d="M46 666q-6 -52 -42.5 -87.5t-92.5 -35.5t-84 35t-22 88h67q-8 -61 45 -61q54 0 62 61h67z" />
    <glyph glyph-name="caroncomb.alt" 
d="M-90 382q0 27 19.5 46t45.5 19q22 0 37 -15.5t15 -42.5q0 -34 -10.5 -65t-26 -52t-31 -37t-25.5 -23l-11 -8l-25 45q6 4 16 11.5t27 28.5t20 41q-22 0 -36.5 15t-14.5 37z" />
    <glyph glyph-name="acutecomb.case" 
d="M-78 548l-79 -5l69 125h114z" />
    <glyph glyph-name="uni0306.case" 
d="M46 666q-6 -52 -42.5 -87.5t-92.5 -35.5t-84 35t-22 88h67q-8 -61 45 -61q54 0 62 61h67z" />
    <glyph glyph-name="uni030C.case" 
d="M-228 682l76 -3l57 -64l72 64l79 3l-110 -134h-98z" />
    <glyph glyph-name="uni0302.case" 
d="M-38 677l77 -134l-78 3l-57 64l-72 -64l-77 -3l109 134h98z" />
    <glyph glyph-name="uni0308.case" 
d="M-195 556q-19 0 -32 13.5t-13 33.5q0 22 17.5 39.5t40.5 17.5q19 0 31.5 -13.5t12.5 -33.5q0 -23 -17.5 -40t-39.5 -17zM-11 556q-19 0 -32 13.5t-13 33.5q0 22 17.5 39.5t40.5 17.5q19 0 31.5 -13.5t12.5 -33.5q0 -23 -17 -40t-40 -17z" />
    <glyph glyph-name="uni0307.case" 
d="M-32 546q-23 0 -38 15t-15 38q0 27 20.5 46.5t47.5 19.5q23 0 38.5 -15.5t15.5 -38.5q0 -27 -20.5 -46t-48.5 -19z" />
    <glyph glyph-name="gravecomb.case" 
d="M-52 543l-73 125h113l40 -120z" />
    <glyph glyph-name="uni030B.case" 
d="M-202 548l-78 -5l69 125h112zM-33 548l-78 -5l70 125h112z" />
    <glyph glyph-name="uni0304.case" 
d="M-252 562l8 65h273l-8 -65h-273z" />
    <glyph glyph-name="uni030A.case" 
d="M-61 529q-31 0 -51 21t-20 52q0 37 27.5 63.5t63.5 26.5q30 0 50 -21t20 -52q0 -37 -27.5 -63.5t-62.5 -26.5zM-22 613q0 12 -7 20t-18 8q-13 0 -23 -10t-10 -24q0 -12 7 -20t18 -8q12 0 22.5 10.5t10.5 23.5z" />
    <glyph glyph-name="uni0338.case" 
d="M126 716l-550 -732h-90l550 732h90z" />
    <glyph glyph-name="uni0337.case" 
d="M-335 341l349 197l26 -57l-350 -198z" />
    <glyph glyph-name="tildecomb.case" 
d="M38 659v-14q0 -50 -25.5 -83t-71.5 -33q-34 0 -74.5 27.5t-52.5 27.5q-15 0 -24.5 -10.5t-9.5 -28.5l2 -19h-67q-2 10 -2 23q0 46 28.5 73.5t72.5 27.5q36 0 74.5 -27.5t49.5 -27.5q32 0 32 46l-1 18h69z" />
    <glyph glyph-name="caron.alt" horiz-adv-x="157" 
d="M184 389q0 -32 -10.5 -59t-26 -42t-30.5 -25t-25 -13l-11 -4l-20 41q52 16 57 43q-22 0 -36.5 15t-14.5 37q0 27 19.5 46t45.5 19q22 0 37 -15.5t15 -42.5z" />
    <glyph glyph-name="acute.case" horiz-adv-x="261" 
d="M183 548l-79 -5l69 125h114z" />
    <glyph glyph-name="breve.case" horiz-adv-x="313" 
d="M359 666q-6 -52 -42.5 -87.5t-92.5 -35.5t-84 35t-22 88h67q-8 -61 45 -61q54 0 62 61h67z" />
    <glyph glyph-name="caron.case" horiz-adv-x="325" 
d="M110 682l76 -3l57 -64l72 64l79 3l-110 -134h-98z" />
    <glyph glyph-name="circumflex.case" horiz-adv-x="338" 
d="M300 677l77 -134l-78 3l-57 64l-72 -64l-77 -3l109 134h98z" />
    <glyph glyph-name="dieresis.case" horiz-adv-x="344" 
d="M149 556q-19 0 -32 13.5t-13 33.5q0 22 17.5 39.5t40.5 17.5q19 0 31.5 -13.5t12.5 -33.5q0 -23 -17.5 -40t-39.5 -17zM333 556q-19 0 -32 13.5t-13 33.5q0 22 17.5 39.5t40.5 17.5q19 0 31.5 -13.5t12.5 -33.5q0 -23 -17 -40t-40 -17z" />
    <glyph glyph-name="dotaccent.case" horiz-adv-x="197" 
d="M165 546q-23 0 -38 15t-15 38q0 27 20.5 46.5t47.5 19.5q23 0 38.5 -15.5t15.5 -38.5q0 -27 -20.5 -46t-48.5 -19z" />
    <glyph glyph-name="grave.case" horiz-adv-x="261" 
d="M209 543l-73 125h113l40 -120z" />
    <glyph glyph-name="hungarumlaut.case" horiz-adv-x="392" 
d="M191 548l-78 -5l69 125h112zM360 548l-78 -5l70 125h112z" />
    <glyph glyph-name="macron.case" horiz-adv-x="369" 
d="M117 562l8 65h273l-8 -65h-273z" />
    <glyph glyph-name="ring.case" horiz-adv-x="252" 
d="M191 529q-31 0 -51 21t-20 52q0 37 27.5 63.5t63.5 26.5q30 0 50 -21t20 -52q0 -37 -27.5 -63.5t-62.5 -26.5zM230 613q0 12 -7 20t-18 8q-13 0 -23 -10t-10 -24q0 -12 7 -20t18 -8q12 0 22.5 10.5t10.5 23.5z" />
    <glyph glyph-name="tilde.case" horiz-adv-x="389" 
d="M426 659v-14q0 -50 -25.5 -83t-71.5 -33q-34 0 -74.5 27.5t-52.5 27.5q-15 0 -24.5 -10.5t-9.5 -28.5l2 -19h-67q-2 10 -2 23q0 46 28.5 73.5t72.5 27.5q36 0 74.5 -27.5t49.5 -27.5q32 0 32 46l-1 18h69z" />
    <glyph glyph-name="Rem" horiz-adv-x="474" 
 />
    <glyph glyph-name="IJacute" horiz-adv-x="726" 
d="M688 696l-79 -5l69 125h114zM239 695l-79 -5l69 125h114zM79 0l81 660h91l-81 -660h-91zM325 130q45 -56 102 -56q107 0 121 115l58 471h91l-57 -466q-12 -98 -72 -149t-151 -51q-94 0 -156 69z" />
    <glyph glyph-name="ijacute" horiz-adv-x="442" 
d="M437 542l-80 -5l73 155h113zM213 541l-79 -5l73 155h113zM66 0l58 472l89 3l-58 -475h-89zM142 -119q18 -15 50 -15q79 0 90 93l63 513l89 3l-61 -499q-11 -89 -56.5 -136.5t-125.5 -47.5q-26 0 -47 7t-28 14l-8 7z" />
    <glyph glyph-name="commaccent" horiz-adv-x="570" 
 />
    </font>
</defs>
</svg>
