<?xml version="1.0" standalone="no"?>
<!DOCTYPE svg PUBLIC "-//W3C//DTD SVG 1.1//EN" "http://www.w3.org/Graphics/SVG/1.1/DTD/svg11.dtd" >
<svg xmlns="http://www.w3.org/2000/svg" xmlns:xlink="http://www.w3.org/1999/xlink" version="1.1">
<metadata>
Created by FontForge 20201107 at Mon Jul 18 17:13:41 2016
 By 
Copyright (c) 2016 by Daniel Hernandez. All rights reserved.
</metadata>
<defs>
<font id="BasicSansAlt-SemiBoldIt" horiz-adv-x="0" >
  <font-face 
    font-family="BasicSansAlt-SemiBoldIt"
    font-weight="400"
    font-style="italic"
    font-stretch="normal"
    units-per-em="1000"
    panose-1="0 0 7 0 0 0 0 0 0 0"
    ascent="772"
    descent="-228"
    x-height="472"
    cap-height="660"
    bbox="-520 -279 1385 936"
    underline-thickness="50"
    underline-position="-100"
    slope="-7"
    unicode-range="U+0020-FB02"
  />
<missing-glyph horiz-adv-x="396" 
 />
    <glyph glyph-name="fi" unicode="fi" horiz-adv-x="628" 
d="M274 472h197l122 4l-58 -476h-122l46 378h-197l-46 -378h-121l46 378h-67l12 94h67l5 42q6 45 24 82.5t46 62.5t64.5 39t76.5 14q26 0 50 -5.5t35 -10.5t15 -9l-48 -97q-1 1 -4.5 3.5l-7 5t-9 5t-13 4.5t-16.5 2q-38 0 -62.5 -25.5t-29.5 -68.5zM560 701q20 0 36.5 -9
t25.5 -24.5t9 -35.5q0 -36 -27 -60.5t-63 -24.5q-31 0 -50.5 19t-19.5 49q0 18 7 34t19.5 27.5t29 18t33.5 6.5z" />
    <glyph glyph-name="fl" unicode="fl" horiz-adv-x="605" 
d="M371 610q-38 0 -62.5 -25.5t-29.5 -68.5l-5 -44h144l-12 -94h-144l-46 -378h-121l46 378h-67l12 94h67l5 42q6 45 24 82.5t46 62.5t64.5 39t76.5 14q21 0 40.5 -3t32.5 -8t20.5 -8.5t10.5 -5.5l-48 -97q-1 0 -5 3t-8 5.5t-10.5 5t-14 4.5t-16.5 2zM514 706h121l-87 -706
h-121z" />
    <glyph glyph-name=".notdef" horiz-adv-x="396" 
 />
    <glyph glyph-name=".null" 
 />
    <glyph glyph-name="nonmarkingreturn" horiz-adv-x="333" 
 />
    <glyph glyph-name="space" unicode=" " horiz-adv-x="199" 
 />
    <glyph glyph-name="exclam" unicode="!" horiz-adv-x="246" 
d="M273 669l-74 -462l-101 -4l43 466h132zM95 92q13 16 33.5 17t35.5 -14q14 -15 13.5 -35t-14.5 -33q-12 -16 -33 -17t-36 13q-14 16 -13.5 35.5t14.5 33.5z" />
    <glyph glyph-name="quotedbl" unicode="&#x22;" horiz-adv-x="303" 
d="M114 504l21 202h81l-30 -202h-72zM241 504l21 202h81l-29 -202h-73z" />
    <glyph glyph-name="numbersign" unicode="#" horiz-adv-x="618" 
d="M611 296h-115l-33 -102h116l-24 -71h-115l-41 -123h-91l41 123h-98l-40 -123h-91l41 123h-118l25 71h116l34 102h-119l26 71h116l41 124h90l-41 -124h97l41 124h92l-41 -124h116zM372 194l33 102h-97l-33 -102h97z" />
    <glyph glyph-name="dollar" unicode="$" horiz-adv-x="568" 
d="M238 473q0 -20 13 -35.5t34 -25t47.5 -19.5t54.5 -19t54.5 -24t47.5 -33.5t34 -48.5t13 -68q0 -83 -57 -138.5t-159 -65.5l-13 -100h-85l13 99q-71 6 -121.5 31.5t-79.5 54.5l87 92q15 -17 35 -32t57 -29.5t76 -14.5t66 10.5t40.5 29.5t13.5 45q0 23 -13 40.5t-34 28
t-48 21t-55 19t-54.5 22.5t-47.5 31t-34 45t-13 63q0 82 57.5 141t148.5 71l13 99h85l-13 -99q47 -6 81 -24t51 -44t25 -49.5t11 -49.5l-118 -28q2 33 -24 62.5t-79 29.5q-50 0 -80 -24t-30 -64z" />
    <glyph glyph-name="percent" unicode="%" horiz-adv-x="868" 
d="M238 0l373 667h101l-372 -667h-102zM234 290q-46 0 -80.5 20t-52.5 56t-18 83q0 94 55.5 154t140.5 60q70 0 111 -44.5t41 -118.5q0 -93 -55.5 -151.5t-141.5 -58.5zM245 381q37 0 61.5 30.5t24.5 79.5q0 36 -17 58t-46 22q-36 0 -60 -31.5t-24 -79.5q0 -24 7.5 -41.5
t21 -27.5t32.5 -10zM669 -4q-69 0 -110 43.5t-41 115.5q0 94 55.5 154t141.5 60q46 0 80.5 -20.5t52.5 -57t18 -85.5q0 -61 -25.5 -109t-70 -74.5t-101.5 -26.5zM680 87q37 0 61.5 30.5t24.5 78.5q0 37 -17 59t-45 22q-37 0 -61 -31.5t-24 -79.5q0 -36 16.5 -57.5
t44.5 -21.5z" />
    <glyph glyph-name="ampersand" unicode="&#x26;" horiz-adv-x="583" 
d="M595 293q-15 -117 -87 -195l45 -66l-85 -59l-43 61q-73 -38 -162 -38q-96 0 -152.5 45.5t-56.5 119.5q0 135 148 191q-38 61 -38 121q0 81 56.5 134t140.5 53q46 0 81 -18t53.5 -49t18.5 -71q0 -128 -165 -197l102 -146q38 54 49 140zM350 569q-34 0 -56.5 -25t-22.5 -65
q0 -43 34 -91q61 24 82 50.5t21 66.5q0 29 -16 46.5t-42 17.5zM279 97q51 0 91 16l-121 173q-72 -33 -72 -103q0 -38 27.5 -62t74.5 -24z" />
    <glyph glyph-name="quotesingle" unicode="'" horiz-adv-x="175" 
d="M114 504l21 202h81l-30 -202h-72z" />
    <glyph glyph-name="parenleft" unicode="(" horiz-adv-x="293" 
d="M151 -244q-4 6 -10 16.5t-22 47.5t-28 78.5t-22 107.5t-10 136q0 60 7.5 119t19.5 107t28 93t33 80t34.5 65.5t33.5 52t28 37t19 23.5l8 7l94 -45q-4 -4 -11 -11.5t-26.5 -33.5t-37 -55.5t-39.5 -77t-37.5 -98t-26 -118.5t-10.5 -139q0 -46 4.5 -90t11.5 -77.5
t15.5 -63.5t17 -50.5t15.5 -36t11 -22.5l5 -7z" />
    <glyph glyph-name="parenright" unicode=")" horiz-adv-x="292" 
d="M293 341q0 -77 -11.5 -151t-30 -130.5t-41 -107t-45 -85.5t-40.5 -61t-30 -38l-11 -12l-96 45q8 7 20.5 22t45 65.5t57.5 108t45 149t20 188.5q0 63 -8 122t-20 98t-23.5 69t-19.5 44l-8 14l106 45q3 -6 9 -16.5t21.5 -47.5t27.5 -78.5t22 -107t10 -135.5z" />
    <glyph glyph-name="asterisk" unicode="*" horiz-adv-x="410" 
d="M282 339l-28 127l-85 -107l-47 38l102 103l-128 12l15 63l123 -31l-38 122l60 26l25 -130l90 114l46 -39l-102 -104l127 -11l-14 -64l-127 29l41 -122z" />
    <glyph glyph-name="plus" unicode="+" horiz-adv-x="441" 
d="M443 283l-10 -82h-145l-20 -167h-86l20 167h-145l10 82h146l18 149h86l-19 -149h145z" />
    <glyph glyph-name="comma" unicode="," horiz-adv-x="238" 
d="M48 55q0 34 22.5 55.5t59.5 21.5q15 0 28 -5t23 -15t15.5 -25t5.5 -34q0 -43 -14 -81t-34.5 -62t-41 -42t-34.5 -26l-14 -8l-38 56l5 2.5t11 7.5t16 12.5t17.5 16t17 19.5t13 22t7.5 24q-29 0 -47 17t-18 44z" />
    <glyph glyph-name="hyphen" unicode="-" horiz-adv-x="370" 
d="M86 281l11 85h266l-10 -85h-267z" />
    <glyph glyph-name="period" unicode="." horiz-adv-x="222" 
d="M47 58q0 32 24 56t57 24q27 0 45 -19t18 -46q0 -32 -24.5 -55.5t-56.5 -23.5q-27 0 -45 18.5t-18 45.5z" />
    <glyph glyph-name="slash" unicode="/" horiz-adv-x="422" 
d="M-4 -204l377 910h115l-376 -910h-116z" />
    <glyph glyph-name="zero" unicode="0" horiz-adv-x="616" 
d="M306 -7q-112 0 -171 71.5t-59 201.5q0 118 37 208t108 141.5t168 51.5q112 0 171.5 -73.5t59.5 -204.5q0 -179 -83.5 -287.5t-230.5 -108.5zM319 103q79 0 126.5 75t47.5 200q0 57 -13.5 97t-40.5 61t-64 21q-78 0 -125 -78t-47 -202q0 -85 30 -129.5t86 -44.5z" />
    <glyph glyph-name="one" unicode="1" horiz-adv-x="373" 
d="M180 0l65 530l-167 -44l14 115l273 59h20l-81 -660h-124z" />
    <glyph glyph-name="two" unicode="2" horiz-adv-x="545" 
d="M246 100q17 3 51 3h222l-12 -103h-462l11 88q28 20 73 50.5t74.5 51t67 48.5t61 51.5t46 52t33 58.5t10.5 61q0 44 -24 70t-66 26q-48 0 -79.5 -27.5t-31.5 -70.5q0 -11 2 -17l-124 -21q-3 9 -3 30q0 95 71 155.5t181 60.5q62 0 108 -24t70 -67t24 -100q0 -54 -21 -104
t-60.5 -93.5t-79 -76t-93.5 -69.5q-32 -22 -50 -29z" />
    <glyph glyph-name="three" unicode="3" horiz-adv-x="551" 
d="M350 667q62 0 107.5 -21.5t69 -60.5t23.5 -90q0 -46 -21 -84t-53.5 -58t-69.5 -20v-2q50 0 90 -38t40 -100q0 -87 -72.5 -143.5t-193.5 -56.5q-40 0 -73.5 7.5t-56.5 19t-41.5 25t-29 27.5t-17.5 25.5t-10 18.5l-2 7l102 61q2 -3 5 -8.5t15 -19.5t26.5 -25t39 -20
t52.5 -9q56 0 90.5 24.5t38.5 67.5q3 26 -8 44t-37 28.5t-65 12.5l-59 1l11 96l44 1q59 2 92.5 26.5t33.5 69.5q0 37 -24 60.5t-64 23.5q-46 0 -74 -23.5t-28 -59.5q0 -13 1 -16l-124 -19q-2 3 -2 28q0 88 68.5 144t175.5 56z" />
    <glyph glyph-name="four" unicode="4" horiz-adv-x="582" 
d="M544 660l-51 -413h92l-12 -102h-92l-18 -145h-122l18 145h-321l12 102l334 413h160zM375 247l30 240q6 50 9 58l-3 3q-13 -22 -39 -55l-152 -186q-5 -7 -16 -21t-19.5 -24t-11.5 -13l1 -4q11 2 56 2h145z" />
    <glyph glyph-name="five" unicode="5" horiz-adv-x="548" 
d="M172 660h381l-13 -104h-279l-32 -155l3 -2q13 11 31 20t42 14.5t48 5.5q88 0 140.5 -53t52.5 -139q0 -112 -80 -183t-202 -71q-48 0 -89 13t-65 31t-41.5 36.5t-23.5 31.5l-7 13l104 68l18 -26q48 -57 117 -57q60 0 100 37t40 95q0 46 -27 74t-72 28q-15 0 -29.5 -3
t-24.5 -7.5t-19 -10t-14.5 -10.5t-8.5 -8.5t-4 -4.5h-117z" />
    <glyph glyph-name="six" unicode="6" horiz-adv-x="565" 
d="M377 420q54 0 94.5 -23t63 -64.5t22.5 -95.5q0 -107 -73 -175.5t-184 -68.5q-104 0 -164.5 72.5t-60.5 201.5q0 176 91.5 287.5t230.5 111.5q130 0 188 -87l-88 -76q-11 20 -38.5 37t-69.5 17q-76 0 -127.5 -63.5t-62.5 -174.5l5 -1q7 16 19.5 31.5t33 32t52 27.5
t68.5 11zM312 102q36 0 65 16t45 45t16 65q0 42 -26.5 67.5t-72.5 25.5q-54 0 -91.5 -31.5t-46.5 -82.5q18 -105 111 -105z" />
    <glyph glyph-name="seven" unicode="7" horiz-adv-x="498" 
d="M109 660h451l-12 -100l-305 -560h-138l289 508q27 46 30 50l-1 3q-13 -2 -47 -2h-168l-11 -90h-113l24 191h1z" />
    <glyph glyph-name="eight" unicode="8" horiz-adv-x="577" 
d="M477 347q40 -18 63.5 -54.5t23.5 -85.5q0 -95 -77 -154.5t-200 -59.5q-105 0 -166.5 48t-61.5 127q0 63 34.5 109.5t92.5 69.5v3q-28 13 -44.5 44t-16.5 71q0 89 69 145.5t176 56.5q92 0 146.5 -45t54.5 -119q0 -54 -26.5 -95t-67.5 -58v-3zM337 396q49 0 80 28t31 70
q0 36 -24 56t-66 20q-49 0 -79.5 -26t-30.5 -70q0 -34 24 -56t65 -22zM300 94q63 0 103 32t40 83q0 27 -14.5 46.5t-41 30t-62.5 10.5q-63 0 -103 -29.5t-40 -77.5q0 -43 32 -69t86 -26z" />
    <glyph glyph-name="nine" unicode="9" horiz-adv-x="562" 
d="M348 666q104 0 161.5 -70.5t57.5 -201.5q0 -179 -88.5 -290t-228.5 -111q-136 0 -192 85l90 75q35 -51 109 -51q46 0 85.5 26.5t67 78.5t36.5 122l-6 1q-6 -14 -17.5 -28.5t-31.5 -30.5t-51.5 -26t-68.5 -10q-82 0 -132 49.5t-50 132.5q0 71 34 128.5t93 89t132 31.5z
M308 338q54 0 91 31.5t46 82.5q-17 106 -110 106q-36 0 -64.5 -16t-45.5 -45t-17 -65q0 -42 27.5 -68t72.5 -26z" />
    <glyph glyph-name="colon" unicode=":" horiz-adv-x="241" 
d="M99 399q0 21 11 39.5t29.5 29.5t40.5 11q26 0 44 -19t18 -46q0 -32 -24 -55.5t-57 -23.5q-27 0 -44.5 18.5t-17.5 45.5zM58 57q0 33 24 56.5t57 23.5q26 0 44 -19t18 -46q0 -32 -24 -55.5t-57 -23.5q-27 0 -44.5 18.5t-17.5 45.5z" />
    <glyph glyph-name="semicolon" unicode=";" horiz-adv-x="257" 
d="M107 399q0 21 11 39.5t29.5 29.5t40.5 11q26 0 44 -19t18 -46q0 -32 -24 -55.5t-57 -23.5q-27 0 -44.5 18.5t-17.5 45.5zM60 54q0 34 23 56t59 22q31 0 52 -21t21 -59q0 -42 -14.5 -80.5t-35 -62.5t-40.5 -42t-35 -26l-14 -7l-37 55q3 2 8.5 5.5t19.5 14.5t25 22.5
t21 28.5t12 33q-28 0 -46.5 17.5t-18.5 43.5z" />
    <glyph glyph-name="less" unicode="&#x3c;" horiz-adv-x="405" 
d="M55 226l12 93l351 197l-12 -102l-242 -142l207 -140l-13 -103z" />
    <glyph glyph-name="equal" unicode="=" horiz-adv-x="487" 
d="M92 301l10 82h378l-10 -82h-378zM67 100l10 81h377l-9 -81h-378z" />
    <glyph glyph-name="greater" unicode="&#x3e;" horiz-adv-x="405" 
d="M54 29l12 103l242 140l-207 142l12 102l304 -197l-12 -93z" />
    <glyph glyph-name="question" unicode="?" horiz-adv-x="455" 
d="M307 691q91 0 138.5 -47t47.5 -117q0 -41 -14 -73.5t-35.5 -53.5t-48 -42t-49.5 -38.5t-41.5 -43.5t-23.5 -56q-1 -3 -1.5 -8t-0.5 -7l-106 -4q1 13 4 31q8 45 31 81t49.5 58t51.5 41.5t42 43.5t17 53q0 33 -20 54t-54 21q-39 0 -64.5 -23.5t-25.5 -60.5q0 -11 1 -17
l-114 -18q-2 14 -2 30q0 42 16 78.5t45 62.5t69.5 40.5t87.5 14.5zM219 130q26 0 43.5 -18.5t17.5 -44.5q0 -32 -23.5 -54.5t-55.5 -22.5q-17 0 -31 8t-22 22.5t-8 31.5q0 32 24 55t55 23z" />
    <glyph glyph-name="at" unicode="@" horiz-adv-x="816" 
d="M600 39q-46 0 -71.5 25t-25.5 66q-43 -89 -137 -89q-67 0 -105 47.5t-38 123.5q0 107 58.5 171.5t139.5 64.5q76 0 104 -54l6 48h113l-35 -289q-3 -22 7 -35.5t30 -13.5q48 0 86 64t38 159q0 121 -75 194.5t-203 73.5q-79 0 -150 -30t-122.5 -82t-81.5 -126.5t-30 -159.5
q0 -133 81 -216t214 -83q24 0 47.5 2.5t44.5 7.5t38.5 10.5t34.5 13.5t29 14t25.5 15t20 13.5t16.5 12.5t12 9l22 -30q-133 -109 -295 -109q-151 0 -243 93.5t-92 242.5q0 95 34 178t92.5 141t138.5 91t168 33q146 -1 232.5 -85t86.5 -220q0 -67 -18 -122.5t-47.5 -92
t-68.5 -57t-81 -20.5zM410 138q34 0 60.5 25t33.5 60l5 38q2 35 -18 62.5t-57 27.5q-40 0 -66.5 -35.5t-26.5 -89.5q0 -40 18.5 -64t50.5 -24z" />
    <glyph glyph-name="A" unicode="A" horiz-adv-x="597" 
d="M464 0l-29 148h-236l-65 -148h-129l307 660h135l145 -660h-128zM242 245h174l-41 210q-7 33 -10 73h-3q-9 -32 -28 -74z" />
    <glyph glyph-name="B" unicode="B" horiz-adv-x="589" 
d="M467 344q16 -3 33.5 -12t35.5 -25.5t29.5 -44t11.5 -62.5q0 -94 -63 -147t-177 -53h-267l81 660h242q92 0 143.5 -41t51.5 -115q0 -41 -13 -72t-33 -48t-38.5 -25.5t-36.5 -11.5v-3zM342 382q55 0 86 28t31 74q0 78 -103 78h-93l-22 -180h101zM327 98q36 0 63.5 11.5
t44 36t16.5 60.5q0 28 -14 48t-38 30t-56 10h-113l-24 -196h121z" />
    <glyph glyph-name="C" unicode="C" horiz-adv-x="619" 
d="M416 667q54 0 96 -15.5t67.5 -40t40.5 -56.5t19.5 -64t0.5 -63l-119 -18q3 15 1 32t-6 33.5t-13.5 31t-22.5 26t-32.5 18t-43.5 6.5q-83 0 -142 -73t-59 -192q0 -94 46 -141.5t117 -47.5q55 0 100.5 28.5t75.5 66.5l65 -77q-15 -19 -34.5 -36.5t-52 -40.5t-77.5 -37
t-94 -14q-127 0 -200 77t-73 212q0 85 26.5 157t72 122t108 78t133.5 28z" />
    <glyph glyph-name="D" unicode="D" horiz-adv-x="642" 
d="M366 660q136 0 208.5 -75t72.5 -206q0 -181 -88.5 -280t-244.5 -99h-244l81 660h215zM313 101q96 0 151 68t55 202q0 93 -46 140.5t-133 47.5h-76l-56 -458h105z" />
    <glyph glyph-name="E" unicode="E" horiz-adv-x="527" 
d="M551 556h-287l-21 -168h250l-12 -100h-250l-23 -184h287l-12 -104h-413l81 660h413z" />
    <glyph glyph-name="F" unicode="F" horiz-adv-x="498" 
d="M542 556h-278l-22 -178h239l-13 -103h-239l-33 -275h-126l81 660h404z" />
    <glyph glyph-name="G" unicode="G" horiz-adv-x="643" 
d="M642 438l-119 -18q2 19 0.5 38t-10.5 37t-22.5 31.5t-36 22t-51.5 8.5q-82 0 -140.5 -72.5t-58.5 -192.5q0 -88 40 -140.5t112 -52.5q70 0 113 38.5t51 100.5h-174l10 85h280l-40 -323h-84q-3 19 -1 76q-66 -83 -189 -83q-114 0 -180 78t-66 208q0 86 26.5 159t72 123
t108 78t132.5 28q54 0 96.5 -15t68 -38.5t41.5 -54t20.5 -61t0.5 -60.5z" />
    <glyph glyph-name="H" unicode="H" horiz-adv-x="679" 
d="M564 660h126l-81 -660h-126l35 286h-287l-35 -286h-126l81 660h126l-34 -270h288z" />
    <glyph glyph-name="I" unicode="I" horiz-adv-x="263" 
d="M70 0l81 660h124l-81 -660h-124z" />
    <glyph glyph-name="J" unicode="J" horiz-adv-x="451" 
d="M92 153q35 -49 87 -49q48 0 74 24t32 78l56 454h126l-55 -451q-13 -105 -78 -160t-167 -55q-98 0 -161 70z" />
    <glyph glyph-name="K" unicode="K" horiz-adv-x="579" 
d="M656 660l-266 -338l187 -321h-133l-149 266h-67l-32 -267h-126l81 660h126l-36 -292h60l224 292h131z" />
    <glyph glyph-name="L" unicode="L" horiz-adv-x="498" 
d="M208 104h292l-13 -104h-417l81 660h126z" />
    <glyph glyph-name="M" unicode="M" horiz-adv-x="815" 
d="M827 660l-81 -660h-125l46 366q6 52 14 81l-3 2q-1 -2 -3 -7t-4.5 -10.5t-5.5 -12.5t-5.5 -13.5t-5.5 -12.5l-5 -10l-206 -386h-69l-115 390q-11 38 -11 62l-5 -2q3 -11 -6 -81l-43 -366h-124l81 660h134l116 -377q23 -76 29 -109h3q7 22 56 109l207 377h131z" />
    <glyph glyph-name="N" unicode="N" horiz-adv-x="668" 
d="M680 660l-81 -660h-123l-170 348q-10 21 -57 123l-6 -3q3 -20 -9 -119l-41 -349h-123l81 660h116l177 -360q33 -69 54 -124l7 3q-1 42 9 122l43 359h123z" />
    <glyph glyph-name="O" unicode="O" horiz-adv-x="687" 
d="M425 667q122 0 195 -79t73 -212q0 -172 -99.5 -277t-251.5 -105q-121 0 -194 78.5t-73 212.5q0 171 99.5 276.5t250.5 105.5zM356 103q89 0 149 72.5t60 191.5q0 88 -42 139t-112 51q-88 0 -148 -72.5t-60 -190.5q0 -88 42 -139.5t111 -51.5z" />
    <glyph glyph-name="P" unicode="P" horiz-adv-x="577" 
d="M372 660q113 0 174.5 -51t61.5 -148q0 -125 -76.5 -193.5t-200.5 -68.5h-111l-24 -199h-126l81 660h221zM321 300q50 0 85.5 17t54 50.5t18.5 79.5q0 53 -33.5 82.5t-97.5 29.5h-84l-32 -259h89z" />
    <glyph glyph-name="Q" unicode="Q" horiz-adv-x="717" 
d="M693 376q0 -134 -62.5 -229.5t-167.5 -132.5q88 -20 170 -25l-38 -97q-91 13 -154 35.5t-137 68.5q-106 12 -167.5 89t-61.5 200q0 171 99.5 276.5t250.5 105.5q122 0 195 -79t73 -212zM203 294q0 -88 42 -139.5t111 -51.5q89 0 149 72.5t60 191.5q0 88 -42 139t-112 51
q-88 0 -148 -72.5t-60 -190.5z" />
    <glyph glyph-name="R" unicode="R" horiz-adv-x="594" 
d="M429 257q15 -8 27 -24.5t19 -34t15 -36.5t16.5 -34t23 -24.5t33.5 -9.5l20 2l-4 -96q-26 -7 -67 -7q-38 0 -65.5 13.5t-42.5 34.5t-25.5 47t-19 51.5t-19.5 47t-31.5 35t-50.5 13.5h-34l-28 -235h-126l81 660h209q224 0 224 -184q0 -81 -40.5 -136.5t-114.5 -82.5z
M236 326h66q45 0 80.5 15t56 45.5t20.5 72.5q0 49 -30.5 74.5t-87.5 25.5h-77z" />
    <glyph glyph-name="S" unicode="S" horiz-adv-x="546" 
d="M448 469q2 33 -24 62.5t-80 29.5q-49 0 -79 -24t-30 -64q0 -20 13 -35.5t33.5 -25t47.5 -19.5t55 -19t54.5 -24t47.5 -33.5t34 -48.5t13 -68q0 -92 -69.5 -149.5t-193.5 -57.5q-84 0 -145 27t-94 61l87 92q26 -28 69 -52t99 -24q58 0 89 22.5t31 62.5q0 23 -13 40.5
t-34 28t-48 21t-55 19t-54.5 22.5t-47.5 31t-34 45t-13 63q0 92 70.5 153.5t177.5 61.5q41 0 74 -8t55 -22t37.5 -30.5t24.5 -37t13.5 -37.5t5.5 -35z" />
    <glyph glyph-name="T" unicode="T" horiz-adv-x="538" 
d="M205 0l69 556h-194l12 104h515l-12 -104h-195l-69 -556h-126z" />
    <glyph glyph-name="U" unicode="U" horiz-adv-x="650" 
d="M542 660h126l-50 -401q-14 -121 -95 -193.5t-198 -72.5q-118 0 -181.5 72.5t-48.5 193.5l50 401h126l-49 -400q-9 -74 23 -115.5t94 -41.5q60 0 102 41.5t51 114.5z" />
    <glyph glyph-name="V" unicode="V" horiz-adv-x="590" 
d="M218 660l83 -454q8 -47 10 -74h2q11 32 29 73l195 455h128l-303 -660h-134l-140 660h130z" />
    <glyph glyph-name="W" unicode="W" horiz-adv-x="880" 
d="M826 660h127l-258 -660h-142l-46 370q-6 54 -6 107h-3q-17 -65 -32 -107l-141 -370h-142l-93 660h129l46 -454q1 -8 4 -38t4 -42h2q12 37 27 79l165 455h111l53 -455q5 -41 8 -79h3q3 9 7 22t10 30.5t9 27.5z" />
    <glyph glyph-name="X" unicode="X" horiz-adv-x="588" 
d="M659 660l-238 -336l162 -324h-142l-89 191q-20 44 -25 68h-2q-20 -38 -42 -68l-141 -191h-133l235 322l-157 338h149l82 -203q20 -50 23 -65h3q8 18 41 65l140 203h134z" />
    <glyph glyph-name="Y" unicode="Y" horiz-adv-x="567" 
d="M642 660l-265 -417l-30 -243h-126l30 239l-165 421h136l84 -234q18 -51 21 -82h3q11 36 40 82l141 234h131z" />
    <glyph glyph-name="Z" unicode="Z" horiz-adv-x="555" 
d="M31 0l13 101l338 394q30 33 60 60l-2 4q-28 -3 -82 -3h-249l13 104h481l-13 -101l-335 -394q-23 -25 -63 -60l2 -4q16 3 82 3h255l-13 -104h-487z" />
    <glyph glyph-name="bracketleft" unicode="[" horiz-adv-x="342" 
d="M40 -204l112 910h252l-13 -99h-135l-87 -712h135l-12 -99h-252z" />
    <glyph glyph-name="backslash" unicode="\" horiz-adv-x="422" 
d="M376 -204h-116l-152 910h115z" />
    <glyph glyph-name="bracketright" unicode="]" horiz-adv-x="342" 
d="M0 -204l12 99h135l87 712h-135l13 99h252l-112 -910h-252z" />
    <glyph glyph-name="asciicircum" unicode="^" horiz-adv-x="373" 
d="M96 511l116 218h128l63 -218h-102l-36 131l-67 -131h-102z" />
    <glyph glyph-name="underscore" unicode="_" horiz-adv-x="375" 
d="M-17 -141l10 85h376l-11 -85h-375z" />
    <glyph glyph-name="grave" unicode="`" horiz-adv-x="281" 
d="M199 538l-76 164h150l36 -159z" />
    <glyph glyph-name="a" unicode="a" horiz-adv-x="519" 
d="M484 95q8 0 17 2l-7 -95q-28 -7 -61 -7q-90 0 -91 74q-50 -75 -157 -75q-66 0 -102 31t-36 83q0 46 21.5 78.5t62.5 51t95.5 27t127.5 8.5h8l3 23q5 41 -15 64.5t-63 23.5q-29 0 -49.5 -8t-31 -23.5t-10.5 -35.5q0 -6 2 -14l-109 -18q-2 12 -2 28q0 74 59 119.5
t156.5 45.5t144 -49t35.5 -136l-20 -167q-2 -11 0 -18t7.5 -10t14.5 -3zM230 87q46 0 78.5 21.5t39.5 51.5l5 46h-7q-93 0 -135.5 -18t-42.5 -57q0 -21 16 -32.5t46 -11.5z" />
    <glyph glyph-name="b" unicode="b" horiz-adv-x="558" 
d="M381 478q79 0 127 -55.5t48 -150.5q0 -124 -69 -201t-173 -77q-56 0 -92.5 27.5t-50.5 73.5q-3 -37 -23 -95h-92l87 706h121l-37 -307q55 79 154 79zM305 96q56 0 91.5 45t35.5 118q0 54 -25 85.5t-70 31.5q-49 0 -84 -36.5t-44 -82.5l-5 -39q-3 -31 7 -58t34.5 -45.5
t59.5 -18.5z" />
    <glyph glyph-name="c" unicode="c" horiz-adv-x="490" 
d="M323 478q53 0 92.5 -19.5t59 -53t19.5 -75.5q0 -13 -2.5 -25.5t-4.5 -18.5l-2 -6l-109 -7q6 15 6 33q0 31 -18.5 51.5t-53.5 20.5q-55 0 -91 -46t-36 -118q0 -55 27.5 -87.5t79.5 -32.5q81 0 133 57l52 -76q-30 -35 -83 -58t-121 -23q-100 0 -156.5 57t-56.5 152
q0 119 75.5 197t189.5 78z" />
    <glyph glyph-name="d" unicode="d" horiz-adv-x="558" 
d="M468 706h121l-87 -706l-98 -4q-3 70 1 99h-2q-56 -101 -168 -101q-81 0 -128.5 56.5t-47.5 148.5q0 126 70.5 202.5t172.5 76.5q93 0 129 -68zM280 96q46 0 81.5 35.5t45.5 81.5l6 49q1 46 -25.5 80t-76.5 34q-36 0 -65.5 -20.5t-45.5 -58t-16 -84.5q0 -53 25.5 -85
t70.5 -32z" />
    <glyph glyph-name="e" unicode="e" horiz-adv-x="503" 
d="M321 478q87 0 134.5 -53t47.5 -139q0 -20 -3 -39.5t-6 -29.5l-3 -10h-311q2 -54 32.5 -86t85.5 -32q74 0 126 56l52 -67q-30 -37 -83 -60.5t-120 -23.5q-101 0 -157.5 57.5t-56.5 152.5q0 118 73.5 196t188.5 78zM309 383q-29 0 -53.5 -13t-42.5 -37t-26 -57h204v13
q0 28 -9.5 49t-28 33t-44.5 12z" />
    <glyph glyph-name="f" unicode="f" horiz-adv-x="370" 
d="M371 610q-38 0 -62.5 -25.5t-29.5 -68.5l-5 -44h144l-12 -94h-144l-46 -378h-121l46 378h-67l12 94h67l5 42q6 45 24 82.5t46 62.5t64.5 39t76.5 14q21 0 40.5 -3t32.5 -8t20.5 -8.5t10.5 -5.5l-48 -97q-1 0 -5 3t-8 5.5t-10.5 5t-14 4.5t-16.5 2z" />
    <glyph glyph-name="g" unicode="g" horiz-adv-x="507" 
d="M574 535q-6 -54 -39.5 -87.5t-68.5 -40.5q25 -36 25 -84q0 -24 -5.5 -46t-16 -41t-25.5 -35.5t-34 -29t-41.5 -21.5t-48 -13.5t-53.5 -4.5q-44 0 -80 13q-39 -7 -39 -36q0 -11 8 -17.5t24 -9.5t42 -3h101q51 0 88 -13t58 -40.5t21 -67.5q0 -33 -12.5 -61t-40.5 -53
t-82 -39t-129 -14q-113 0 -169.5 30t-56.5 84q0 78 90 107q-41 27 -41 75q0 37 21.5 61.5t55.5 35.5q-39 40 -39 101q0 85 62.5 138.5t159.5 53.5q71 0 118 -31q47 24 58 113zM375 312q2 33 -18 53.5t-56 21.5q-28 0 -49.5 -11.5t-34.5 -31.5t-14 -46q-1 -34 19 -54.5
t56 -20.5q42 0 69 24.5t28 64.5zM298 -15h-83q-103 0 -103 -55q0 -26 29 -38.5t95 -12.5q77 0 109 15.5t32 49.5q0 23 -19 32t-60 9z" />
    <glyph glyph-name="h" unicode="h" horiz-adv-x="541" 
d="M377 478q82 0 120 -52t27 -136l-35 -290h-122l33 273q4 31 -2.5 53t-24.5 35t-46 13q-47 0 -77.5 -35t-39.5 -83l-32 -256h-122l87 706h120l-39 -313h3q52 85 150 85z" />
    <glyph glyph-name="i" unicode="i" horiz-adv-x="235" 
d="M275 632q0 -36 -27 -60.5t-63 -24.5q-31 0 -50.5 19t-19.5 49q0 36 26.5 61t62.5 25q31 0 51 -19.5t20 -49.5zM57 0l58 472l122 4l-58 -476h-122z" />
    <glyph glyph-name="j" unicode="j" horiz-adv-x="242" 
d="M285 635q0 -23 -12.5 -43t-33 -30.5t-44.5 -10.5q-31 0 -50.5 19t-19.5 49q0 36 26.5 61t62.5 25q20 0 36.5 -9t25.5 -25t9 -36zM-63 -94q15 -12 43 -12q71 0 81 90l61 488l122 4l-59 -484q-6 -47 -21 -83.5t-39.5 -63t-60.5 -40.5t-81 -14q-30 0 -53 7.5t-31 15.5l-8 7z
" />
    <glyph glyph-name="k" unicode="k" horiz-adv-x="510" 
d="M556 472l-202 -224l163 -248h-148l-125 203h-42l-25 -203h-121l87 706h121l-50 -409h53l151 175h138z" />
    <glyph glyph-name="l" unicode="l" horiz-adv-x="235" 
d="M57 0l87 706h121l-87 -706h-121z" />
    <glyph glyph-name="m" unicode="m" horiz-adv-x="838" 
d="M674 477q81 0 119.5 -52t27.5 -137l-35 -288h-122l33 272q4 30 -2.5 52.5t-24.5 35t-45 12.5q-46 0 -75 -36t-38 -84l-30 -252h-123l34 272q6 46 -12.5 73t-59.5 27q-47 0 -76.5 -37.5t-36.5 -86.5l-31 -248h-121l58 472l95 4q8 -49 2 -103h3q49 104 156 104
q59 0 95.5 -28.5t48.5 -78.5q51 107 160 107z" />
    <glyph glyph-name="n" unicode="n" horiz-adv-x="540" 
d="M377 478q81 0 119 -52t28 -136l-36 -290h-122l33 273q7 46 -12 73.5t-60 27.5q-48 0 -79.5 -37.5t-39.5 -86.5l-31 -250h-121l58 472l95 4q7 -50 2 -103h4q54 105 162 105z" />
    <glyph glyph-name="o" unicode="o" horiz-adv-x="537" 
d="M327 478q96 0 152.5 -59t56.5 -154q0 -118 -75.5 -194.5t-193.5 -76.5q-96 0 -152.5 58t-56.5 153q0 118 76 195.5t193 77.5zM280 94q59 0 96 46t37 118q0 26 -6.5 48t-19 38t-31 25t-41.5 9q-58 0 -95 -47t-37 -118q0 -27 6.5 -48.5t18.5 -37t30.5 -24.5t41.5 -9z" />
    <glyph glyph-name="p" unicode="p" horiz-adv-x="558" 
d="M381 478q82 0 129 -56.5t47 -149.5q0 -126 -69.5 -202t-172.5 -76q-93 0 -130 71l-33 -269h-121l83 676l95 4q3 -21 4 -55t-1 -44h2q53 101 167 101zM305 96q56 0 91.5 45t35.5 117q0 36 -11 62.5t-33 41t-51 14.5q-33 0 -61 -18t-45 -46t-22 -59l-5 -39q-1 -30 8.5 -56
t33.5 -44t59 -18z" />
    <glyph glyph-name="q" unicode="q" horiz-adv-x="558" 
d="M466 472h94l-83 -676h-121l33 271q-54 -73 -150 -73q-81 0 -130.5 55.5t-49.5 151.5q0 120 67 198.5t172 78.5q57 0 92 -27.5t48 -73.5h2q1 13 9 43.5t17 51.5zM280 96q49 0 83.5 36.5t43.5 83.5l5 37q5 49 -21.5 86t-79.5 37q-55 0 -91 -45t-36 -117q0 -54 25.5 -86
t70.5 -32z" />
    <glyph glyph-name="r" unicode="r" horiz-adv-x="357" 
d="M349 478q33 0 63 -12l-46 -119q-19 15 -48 15q-39 0 -70.5 -31t-40.5 -88l-30 -243h-121l58 472l95 4q8 -52 2 -106h3q44 108 135 108z" />
    <glyph glyph-name="s" unicode="s" horiz-adv-x="459" 
d="M343 306q6 12 6 27q0 27 -19 43t-52 16q-37 0 -58 -16.5t-21 -43.5q0 -20 18 -33t45 -18.5t58.5 -14.5t58.5 -20t45 -36t18 -62q0 -70 -58 -112t-155 -42q-46 0 -83.5 8.5t-61.5 22t-35 22.5t-19 18l69 75q13 -15 53 -36t84 -21q40 0 60.5 13t20.5 36q0 17 -17 29
t-43.5 18t-56.5 16t-56.5 22.5t-43.5 38t-17 60.5q0 72 58.5 117t151.5 45q75 0 121.5 -34t46.5 -88q0 -11 -2 -21.5t-5 -16.5l-2 -5z" />
    <glyph glyph-name="t" unicode="t" horiz-adv-x="402" 
d="M257 378l-22 -183q-4 -33 1.5 -55t21 -32.5t41.5 -10.5q21 0 40.5 6.5t28.5 13.5l10 6l23 -96q-1 0 -3 -1.5t-9.5 -5t-15 -6.5t-20 -7t-25 -6.5t-29.5 -4.5t-34 -2q-177 0 -153 197l23 187h-70l12 94h73l17 135l119 5l-17 -140h162l-12 -94h-162z" />
    <glyph glyph-name="u" unicode="u" horiz-adv-x="533" 
d="M413 472h122l-58 -472l-97 -4q-7 53 -3 96h-1q-52 -98 -155 -98q-81 0 -119.5 52t-27.5 136l35 290h122l-33 -273q-4 -30 3 -53t25 -35.5t45 -12.5q43 0 73 37.5t38 85.5z" />
    <glyph glyph-name="v" unicode="v" horiz-adv-x="506" 
d="M432 472h122l-233 -472h-135l-118 472h132l63 -295q7 -33 7 -60h3q9 31 21 60z" />
    <glyph glyph-name="w" unicode="w" horiz-adv-x="739" 
d="M659 472h123l-190 -472h-140l-38 267q-4 24 -3 47h-2q-7 -29 -14 -47l-106 -267h-139l-79 472h127l34 -295q6 -55 6 -60h3q7 24 20 60l114 294l-1 1h111l40 -293q4 -26 6 -62h2q10 32 20 62z" />
    <glyph glyph-name="x" unicode="x" horiz-adv-x="482" 
d="M531 472l-193 -237l138 -235h-132l-67 123q-14 27 -15 37h-2q-3 -9 -24 -37l-96 -123h-132l197 238l-138 234h134l59 -115q19 -39 20 -48h2q5 13 29 48l85 115h135z" />
    <glyph glyph-name="y" unicode="y" horiz-adv-x="502" 
d="M428 472h123l-263 -541q-66 -140 -195 -140q-22 0 -42 4t-29 9l-9 4l31 95q22 -13 52 -13q54 0 87 61l14 30l-128 491h132l62 -295q7 -33 7 -60h2q7 21 22 60z" />
    <glyph glyph-name="z" unicode="z" horiz-adv-x="452" 
d="M30 0l12 90l257 262q24 24 27 26l-1 3q-15 -3 -50 -3h-192l11 94h380l-11 -90l-245 -253q-18 -20 -34 -35l1 -3q14 3 49 3h200l-11 -94h-393z" />
    <glyph glyph-name="braceleft" unicode="{" horiz-adv-x="333" 
d="M279 -211q-42 0 -75.5 9t-61.5 30t-40.5 61t-6.5 95l18 142q4 34 -12.5 50.5t-40.5 16.5h-10l12 96h10q24 0 44.5 16.5t24.5 50.5l20 160q6 56 28.5 96t55.5 61t69 30t78 9l-12 -103q-47 0 -76 -28t-36 -84l-20 -168q-4 -30 -16 -50.5t-21.5 -27.5t-19.5 -10
q6 -2 14.5 -10.5t16 -30t4.5 -47.5l-18 -149q-13 -112 84 -112z" />
    <glyph glyph-name="bar" unicode="|" horiz-adv-x="230" 
d="M40 -204l112 904h99l-111 -904h-100z" />
    <glyph glyph-name="braceright" unicode="}" horiz-adv-x="333" 
d="M14 -107q47 0 76 27.5t36 84.5l18 148q1 12 4.5 23t6.5 19t8 15t8.5 11t9.5 8t8 5.5t7 4t6 2.5q-6 2 -12 6.5t-13.5 13.5t-10.5 26.5t0 41.5l20 168q5 38 -4 63.5t-29 37t-51 11.5l13 104q42 0 75.5 -9.5t61.5 -30.5t40.5 -60.5t5.5 -95.5l-20 -161q-4 -34 12.5 -50.5
t41.5 -16.5h9l-11 -96h-10q-24 0 -44.5 -16.5t-24.5 -50.5l-18 -141q-7 -55 -29 -95t-55.5 -61t-69.5 -30.5t-77 -9.5z" />
    <glyph glyph-name="asciitilde" unicode="~" horiz-adv-x="527" 
d="M85 231l10 82q47 33 110 33q40 0 99.5 -20t100.5 -20q24 0 55.5 8t53.5 22l-11 -82q-51 -33 -109 -33q-41 0 -100 20t-99 20q-25 0 -56.5 -7.5t-53.5 -22.5z" />
    <glyph glyph-name="exclamdown" unicode="&#xa1;" horiz-adv-x="236" 
d="M162 343q-26 0 -43 17.5t-17 43.5q0 30 23 52.5t54 22.5q25 0 42 -17.5t17 -43.5q0 -30 -23 -52.5t-53 -22.5zM25 -206l74 459l101 3l-43 -462h-132z" />
    <glyph glyph-name="cent" unicode="&#xa2;" horiz-adv-x="502" 
d="M295 94q82 0 134 57l52 -76q-26 -30 -70 -52t-100 -27l-13 -99h-85l13 101q-77 15 -119.5 70t-42.5 136q0 70 26.5 127.5t77 94.5t116.5 47l13 101h85l-12 -98q55 -6 93.5 -27.5t56.5 -52.5l-70 -76q-38 58 -120 58q-66 0 -104 -46t-38 -119q0 -55 27.5 -87t79.5 -32z
" />
    <glyph glyph-name="sterling" unicode="&#xa3;" horiz-adv-x="574" 
d="M234 97q13 3 44 3h259l-12 -100h-462l9 72q4 3 11.5 7.5t27 20t34.5 32.5t27 44t12 55q0 9 -1 17h-115l9 73h80q-29 64 -29 110q0 102 76 169t193 67q51 0 91.5 -14t62 -35t35.5 -41.5t18 -34.5l5 -15l-110 -46q-1 3 -2.5 8t-10 18.5t-19.5 23.5t-32.5 18.5t-48.5 8.5
q-37 0 -67 -16.5t-46.5 -46t-16.5 -66.5q0 -8 0.5 -16t2.5 -17.5t3.5 -14.5t5.5 -16t5 -14t6.5 -15.5t5.5 -14.5h198l-8 -73h-169q1 -7 1 -15q0 -49 -27 -85.5t-48 -46.5z" />
    <glyph glyph-name="currency" unicode="&#xa4;" horiz-adv-x="571" 
d="M138 329q0 59 38 116l-68 81l67 60l66 -81q53 39 112 39q58 0 102 -38l86 80l52 -60l-87 -81q16 -36 16 -78q0 -61 -40 -116l66 -77l-67 -59l-65 76q-50 -37 -110 -37q-61 0 -103 38l-89 -82l-52 59l90 83q-14 37 -14 77zM228 337q0 -39 25 -66t64 -27q45 0 80 34.5
t35 80.5q0 40 -25.5 67t-63.5 27q-46 0 -80.5 -34t-34.5 -82z" />
    <glyph glyph-name="yen" unicode="&#xa5;" horiz-adv-x="627" 
d="M661 660l-249 -390h144l-9 -75l-4 -31h-157l-21 -164h-126l21 164h-159l9 75l4 31h143l-153 390h136l84 -234q19 -51 21 -82h3q12 36 40 82l141 234h132z" />
    <glyph glyph-name="brokenbar" unicode="&#xa6;" horiz-adv-x="229" 
d="M104 313l47 387h100l-48 -387h-99zM40 -204l48 387h99l-48 -387h-99z" />
    <glyph glyph-name="section" unicode="&#xa7;" horiz-adv-x="563" 
d="M542 217q0 -90 -75 -127q48 -40 48 -107q0 -89 -72 -141t-189 -52q-59 0 -111.5 16t-80 33.5t-47.5 37.5l87 93q26 -29 69 -52.5t99 -23.5t87 21.5t31 58.5q0 27 -22 46t-55 28.5t-72 22.5t-72 27t-55 43.5t-22 71.5q0 45 24 78t65 51q-61 44 -61 123q0 91 69.5 146.5
t177.5 55.5q48 0 86 -12t60 -29t37 -41t20.5 -44.5t7.5 -42.5l-117 -29q0 20 -9 40t-34 36t-62 16q-49 0 -79 -23.5t-30 -63.5q0 -26 16.5 -44.5t42.5 -29.5t58 -20.5t63.5 -21.5t57.5 -28.5t42.5 -45t16.5 -67.5zM203 232q0 -17 9.5 -30t30.5 -22.5t40 -15.5t51 -15t51 -16
q40 22 40 67q0 15 -7 27.5t-17 20.5t-28.5 16.5t-32 13t-39 12.5t-39.5 13q-28 -4 -43.5 -23.5t-15.5 -47.5z" />
    <glyph glyph-name="dieresis" unicode="&#xa8;" horiz-adv-x="367" 
d="M156 557q-15 0 -28 7.5t-20.5 21t-7.5 29.5q0 28 22 49.5t50 21.5q24 0 40 -17t16 -42q0 -28 -21.5 -49t-50.5 -21zM350 557q-23 0 -39 16.5t-16 41.5q0 28 21.5 49.5t49.5 21.5q12 0 22.5 -5t18 -12.5t11.5 -18t4 -22.5q0 -29 -21 -50t-51 -21z" />
    <glyph glyph-name="copyright" unicode="&#xa9;" horiz-adv-x="720" 
d="M358 -5q-130 0 -206.5 79.5t-76.5 211.5q0 167 103.5 273t262.5 106q131 0 208 -79.5t77 -210.5q0 -168 -103.5 -274t-264.5 -106zM363 29q142 0 233 96t91 246q0 78 -30 136.5t-87 91t-134 32.5q-140 0 -231 -95.5t-91 -244.5q0 -119 67 -190.5t182 -71.5zM543 181
q-3 -2 -7 -7t-19.5 -16.5t-33 -21t-47 -16.5t-61.5 -7q-52 0 -90.5 22.5t-58.5 63t-20 95.5q0 109 63 180.5t160 71.5q74 0 114 -39.5t32 -103.5l-82 -15v4.5t-0.5 10.5t-2.5 15.5t-7 16t-12.5 15t-20.5 10.5t-30 4q-34 0 -61 -20t-42 -56t-15 -80q0 -52 25.5 -83.5
t69.5 -31.5q32 0 59.5 12t39.5 25l11 12z" />
    <glyph glyph-name="ordfeminine" unicode="&#xaa;" horiz-adv-x="454" 
d="M445 367q8 0 14 2l-7 -86q-23 -6 -54 -6q-77 0 -81 59h-1q-39 -60 -121 -60q-53 0 -82.5 25t-29.5 67q0 39 18 66t52.5 41.5t77.5 21t99 6.5h3l2 16q4 29 -10 46t-45 17q-30 0 -47.5 -12.5t-17.5 -33.5q0 -5 2 -11l-100 -17q-1 10 -1 23q0 62 48.5 99t131.5 37
q54 0 89.5 -18.5t50 -52.5t8.5 -82l-15 -123q-3 -24 16 -24zM238 360q22 0 40.5 7t29 19t14.5 26l4 34h-4q-43 0 -70.5 -5.5t-42 -17t-14.5 -30.5q0 -33 43 -33z" />
    <glyph glyph-name="guillemotleft" unicode="&#xab;" horiz-adv-x="493" 
d="M62 217l11 95l168 138l50 -65l-144 -121l115 -120l-67 -66zM273 217l12 95l168 138l50 -65l-144 -121l115 -120l-67 -66z" />
    <glyph glyph-name="registered" unicode="&#xae;" horiz-adv-x="418" 
d="M247 314q-69 0 -110.5 42.5t-41.5 111.5q0 86 55.5 142.5t140.5 56.5q68 0 109.5 -43t41.5 -112q0 -57 -25.5 -102.5t-70 -70.5t-99.5 -25zM251 342q70 0 115.5 47t45.5 120q0 59 -34 94.5t-91 35.5q-71 0 -115.5 -47t-44.5 -122q0 -58 33.5 -93t90.5 -35zM343 383
q-7 -1 -15 -1q-17 0 -27.5 11.5t-15 25t-14.5 25t-26 11.5h-15l-9 -72h-39l26 213h75q18 0 32 -7t21.5 -20t7.5 -30q0 -24 -12.5 -41t-24 -22t-17.5 -5q11 -5 18 -14t9.5 -18t7.5 -15.5t14 -6.5h6zM264 491q18 0 30.5 12t12.5 30q0 13 -9 20.5t-23 7.5h-32l-9 -70h30z" />
    <glyph glyph-name="macron" unicode="&#xaf;" horiz-adv-x="391" 
d="M120 579l11 84h292l-11 -84h-292z" />
    <glyph glyph-name="degree" unicode="&#xb0;" horiz-adv-x="321" 
d="M354 551q0 -64 -40.5 -105t-103.5 -41q-50 0 -80.5 31.5t-30.5 81.5q0 65 40.5 106t102.5 41q51 0 81.5 -31t30.5 -83zM289 544q0 26 -15 42t-40 16q-20 0 -36.5 -9.5t-25.5 -27t-9 -40.5q0 -25 15 -40.5t40 -15.5q31 0 51 20.5t20 54.5z" />
    <glyph glyph-name="plusminus" unicode="&#xb1;" horiz-adv-x="478" 
d="M328 371h145l-10 -82h-145l-16 -131h-86l16 131h-145l9 82h146l15 125h86zM54 26l10 81h377l-11 -81h-376z" />
    <glyph glyph-name="acute" unicode="&#xb4;" horiz-adv-x="281" 
d="M214 543l-110 -5l76 164h149z" />
    <glyph glyph-name="paragraph" unicode="&#xb6;" horiz-adv-x="575" 
d="M403 -200l99 803h-87l-98 -803h-70l59 484h-38q-86 0 -137.5 45t-51.5 119q0 93 66 152.5t169 59.5h265l-105 -860h-71z" />
    <glyph glyph-name="periodcentered" unicode="&#xb7;" horiz-adv-x="226" 
d="M85 347q0 16 6.5 31t17.5 26t26 17t31 6q27 0 45 -19t18 -46q0 -32 -24.5 -55.5t-56.5 -23.5q-27 0 -45 18.5t-18 45.5z" />
    <glyph glyph-name="cedilla" unicode="&#xb8;" horiz-adv-x="271" 
d="M161 -27q27 -4 46.5 -22.5t19.5 -51.5q0 -48 -35.5 -75t-84.5 -27q-28 0 -51 10t-32 20l-10 11l38 56q2 -3 7 -8t21 -12.5t34 -7.5q42 0 42 31q0 36 -81 36l44 81h65z" />
    <glyph glyph-name="ordmasculine" unicode="&#xba;" horiz-adv-x="449" 
d="M307 667q78 0 124 -47.5t46 -123.5q0 -95 -62 -157.5t-157 -62.5q-78 0 -124 47.5t-46 123.5q0 95 61.5 157.5t157.5 62.5zM270 369q41 0 66.5 34t25.5 86q0 38 -17.5 61.5t-49.5 23.5q-41 0 -66.5 -33.5t-25.5 -86.5q0 -38 17.5 -61.5t49.5 -23.5z" />
    <glyph glyph-name="guillemotright" unicode="&#xbb;" horiz-adv-x="493" 
d="M105 78l-50 66l143 120l-114 121l67 65l134 -138l-12 -95zM317 78l-50 66l143 120l-114 121l67 65l133 -138l-12 -95z" />
    <glyph glyph-name="onequarter" unicode="&#xbc;" horiz-adv-x="832" 
d="M193 0l372 667h101l-372 -667h-101zM177 295l32 256l-119 -24l12 95l207 37h19l-45 -364h-106zM788 363l-27 -214h63l-10 -82h-63l-8 -67h-106l9 67h-193l11 85l210 211h114zM663 149l11 91q2 19 4 27l-2 2q-3 -5 -16 -20l-75 -78q-14 -14 -24 -21l1 -2q7 1 33 1h68z" />
    <glyph glyph-name="onehalf" unicode="&#xbd;" horiz-adv-x="828" 
d="M193 0l372 667h101l-372 -667h-101zM177 295l32 256l-119 -24l12 95l207 37h19l-45 -364h-106zM647 83q4 1 33 1h128l-11 -84h-326l9 68q8 5 24 14q28 14 41.5 21.5t37 21t35.5 21t29 19.5t26 20.5t18 18.5t13 20t4 19q0 17 -12 28t-32 11q-16 0 -29 -6.5t-20 -16.5
t-7 -23q0 -4 1 -6l-109 -21q-3 8 -3 23q0 37 21.5 68t62.5 50t94 19q67 0 104.5 -31t37.5 -83q0 -23 -8.5 -44t-20.5 -36t-32 -30t-36.5 -24.5t-39.5 -22.5q-19 -10 -34 -13z" />
    <glyph glyph-name="threequarters" unicode="&#xbe;" horiz-adv-x="906" 
d="M274 0l373 667h101l-372 -667h-102zM280 664q67 0 105 -28.5t38 -75.5q0 -37 -24.5 -60t-61.5 -23v-1q23 0 40.5 -9t28 -26t10.5 -38q0 -49 -49 -81.5t-132 -32.5q-39 0 -70 8t-48 19t-28 22t-14 19l-3 8l79 54q3 -4 9.5 -10.5t30 -17.5t50.5 -11q67 0 67 33q0 25 -50 25
h-55l9 72h37q64 0 64 36q0 10 -5 17t-16 11.5t-26 4.5q-24 0 -39 -9t-15 -23q0 -5 1 -6l-106 -17v3t-0.5 7t-0.5 8q0 55 48 88.5t126 33.5zM862 363l-27 -214h63l-10 -82h-63l-8 -67h-105l8 67h-193l11 85l210 211h114zM736 149l12 91q1 21 4 27l-2 2q-4 -7 -16 -20l-76 -78
q-15 -16 -23 -21l2 -2q6 1 33 1h66z" />
    <glyph glyph-name="questiondown" unicode="&#xbf;" horiz-adv-x="451" 
d="M292 339q-18 0 -32.5 8t-22 22.5t-7.5 32.5q0 15 6.5 29.5t17 24.5t25.5 16.5t30 6.5q26 0 43 -18t17 -45q0 -31 -23 -54t-54 -23zM203 -223q-91 0 -138.5 47t-47.5 118q0 30 8 56.5t21.5 45t31 36t36.5 31t37.5 29t34.5 30.5t27.5 35.5t15.5 43.5q2 10 2 15l107 4
q-1 -4 -2 -9.5t-1.5 -11t-1.5 -10.5q-8 -46 -31 -81.5t-49.5 -57.5t-52 -42t-42 -44t-16.5 -53q0 -33 19.5 -54t54.5 -21q40 0 65.5 24t25.5 63q0 5 -2 14l115 18q1 -14 1 -29q0 -87 -61 -142t-157 -55z" />
    <glyph glyph-name="Agrave" unicode="&#xc0;" horiz-adv-x="597" 
d="M446 699l-113 -6l-80 130h153zM464 0l-29 148h-236l-65 -148h-129l307 660h135l145 -660h-128zM242 245h174l-41 210q-7 33 -10 73h-3q-9 -31 -28 -74z" />
    <glyph glyph-name="Aacute" unicode="&#xc1;" horiz-adv-x="597" 
d="M546 823l-112 -124l-113 -6l72 130h153zM464 0l-29 148h-236l-65 -148h-129l307 660h135l145 -660h-128zM242 245h174l-41 210q-7 33 -10 73h-3q-9 -31 -28 -74z" />
    <glyph glyph-name="Acircumflex" unicode="&#xc2;" horiz-adv-x="597" 
d="M394 755l-68 -58l-94 -4l107 139h129l75 -139l-95 4zM464 0l-29 148h-235l-66 -148h-129l307 660h135l145 -660h-128zM242 245h174l-41 210q-7 33 -10 73h-3q-9 -32 -28 -74z" />
    <glyph glyph-name="Atilde" unicode="&#xc3;" horiz-adv-x="597" 
d="M289 684h-83q-2 10 -2 25q0 51 32 82t81 31q30 0 57 -13t46 -26t31 -13q29 0 29 44l-1 19h83v-18q0 -57 -30 -92t-81 -35q-26 0 -51 13t-45 26.5t-33 13.5q-10 0 -18 -4.5t-13 -13.5t-5 -21zM464 0l-29 148h-236l-65 -148h-129l307 660h135l145 -660h-128zM242 245h174
l-41 210q-7 33 -10 73h-3q-9 -31 -28 -74z" />
    <glyph glyph-name="Adieresis" unicode="&#xc4;" horiz-adv-x="597" 
d="M293 703q-15 0 -27.5 7t-19.5 20t-7 29q0 18 10 34t26 25.5t34 9.5q23 0 38.5 -16.5t15.5 -40.5q0 -28 -21 -48t-49 -20zM488 703q-15 0 -27.5 7t-19.5 20t-7 29q0 18 9.5 34t26 25.5t34.5 9.5q23 0 38.5 -16.5t15.5 -40.5q0 -28 -21 -48t-49 -20zM464 0l-29 148h-236
l-65 -148h-129l307 660h135l145 -660h-128zM242 245h174l-41 210q-7 33 -10 73h-3q-9 -32 -28 -74z" />
    <glyph glyph-name="Aring" unicode="&#xc5;" horiz-adv-x="597" 
d="M384 679q-34 0 -57 23t-23 57q0 40 31 69t71 29q33 0 56 -23t23 -57q0 -40 -31 -69t-70 -29zM398 798q-13 0 -22.5 -10t-9.5 -23q0 -6 1.5 -11t5 -9t8 -6t10.5 -2q13 0 23 10t10 24q0 12 -7 19.5t-19 7.5zM464 0l-29 148h-236l-65 -148h-129l307 660h135l145 -660h-128z
M242 245h174l-41 210q-7 33 -10 73h-3q-9 -32 -28 -74z" />
    <glyph glyph-name="AE" unicode="&#xc6;" horiz-adv-x="948" 
d="M933 556h-287l-21 -168h250l-12 -100h-250l-23 -184h287l-12 -104h-414l19 148h-238l-118 -148h-130l530 660h432zM310 245h171l32 253z" />
    <glyph glyph-name="Ccedilla" unicode="&#xc7;" horiz-adv-x="619" 
d="M640 428l-119 -18q3 15 1 32t-6 33.5t-13.5 31t-22.5 26t-32.5 18t-43.5 6.5q-83 0 -142 -73t-59 -192q0 -95 46 -142t117 -47q55 0 100.5 28.5t75.5 66.5l65 -77q-11 -14 -23 -26.5t-35 -30.5t-47 -31.5t-58 -24.5t-70 -14l-12 -21q27 -4 46.5 -22.5t19.5 -51.5
q0 -48 -35.5 -75t-84.5 -27q-27 0 -50.5 10t-32.5 20l-9 11l37 56q3 -3 7.5 -8t20.5 -12.5t34 -7.5q42 0 42 31q0 36 -80 36l33 62q-109 12 -171.5 87.5t-62.5 199.5q0 85 26.5 157t72 122t108 78t133.5 28q45 0 82 -11t61.5 -29t43 -42t26.5 -50.5t12 -54t-1 -52.5z" />
    <glyph glyph-name="Egrave" unicode="&#xc8;" horiz-adv-x="527" 
d="M433 699l-113 -6l-80 130h152zM551 556h-287l-21 -168h250l-12 -100h-250l-23 -184h287l-12 -104h-413l81 660h413z" />
    <glyph glyph-name="Eacute" unicode="&#xc9;" horiz-adv-x="527" 
d="M533 823l-112 -124l-113 -6l71 130h154zM551 556h-287l-21 -168h250l-12 -100h-250l-23 -184h287l-12 -104h-413l81 660h413z" />
    <glyph glyph-name="Ecircumflex" unicode="&#xca;" horiz-adv-x="527" 
d="M381 755l-68 -58l-94 -4l107 139h129l74 -139l-94 4zM551 556h-287l-21 -168h250l-12 -100h-250l-23 -184h287l-12 -104h-413l81 660h413z" />
    <glyph glyph-name="Edieresis" unicode="&#xcb;" horiz-adv-x="527" 
d="M280 703q-15 0 -27.5 7t-20 20t-7.5 29q0 18 10 34t26.5 25.5t34.5 9.5q23 0 38.5 -16.5t15.5 -40.5q0 -28 -21 -48t-49 -20zM475 703q-15 0 -27.5 7t-20 20t-7.5 29q0 18 10 34t26.5 25.5t33.5 9.5q24 0 39.5 -16.5t15.5 -40.5q0 -28 -21 -48t-49 -20zM551 556h-287
l-21 -168h250l-12 -100h-250l-23 -184h287l-12 -104h-413l81 660h413z" />
    <glyph glyph-name="Igrave" unicode="&#xcc;" horiz-adv-x="263" 
d="M165 693l-81 130h153l41 -124zM70 0l81 660h124l-81 -660h-124z" />
    <glyph glyph-name="Iacute" unicode="&#xcd;" horiz-adv-x="263" 
d="M265 699l-112 -6l71 130h153zM70 0l81 660h124l-81 -660h-124z" />
    <glyph glyph-name="Icircumflex" unicode="&#xce;" horiz-adv-x="263" 
d="M300 832l74 -139l-95 4l-53 58l-68 -58l-95 -4l108 139h129zM70 0l81 660h124l-81 -660h-124z" />
    <glyph glyph-name="Idieresis" unicode="&#xcf;" horiz-adv-x="263" 
d="M125 703q-16 0 -28.5 7t-19.5 20t-7 29q0 18 10 34t26 25.5t34 9.5q16 0 28.5 -7.5t19 -20.5t6.5 -29q0 -28 -21 -48t-48 -20zM320 703q-16 0 -28.5 7t-19.5 20t-7 29q0 18 10 34t26 25.5t34 9.5q24 0 39 -16.5t15 -40.5q0 -18 -9.5 -34t-25.5 -25t-34 -9zM70 0l81 660
h124l-81 -660h-124z" />
    <glyph glyph-name="Eth" unicode="&#xd0;" horiz-adv-x="642" 
d="M366 660q136 0 208.5 -75t72.5 -206q0 -181 -88.5 -280t-244.5 -99h-244l35 287h-88l10 84h88l36 289h215zM313 101q96 0 151 68t55 202q0 93 -46 140.5t-133 47.5h-76l-23 -188h159l-10 -84h-159l-23 -186h105z" />
    <glyph glyph-name="Ntilde" unicode="&#xd1;" horiz-adv-x="668" 
d="M624 833v-18q0 -57 -30 -92t-81 -35q-26 0 -51 13t-45 26.5t-33 13.5q-11 0 -19 -4.5t-12.5 -13.5t-4.5 -21l2 -18h-82q-2 10 -2 25q0 34 14.5 60t40 39.5t58.5 13.5q30 0 57 -13t46 -26t31 -13q29 0 29 44l-1 19h83zM680 660l-81 -660h-123l-170 348q-10 21 -57 123
l-6 -3q3 -20 -9 -119l-41 -349h-123l81 660h116l177 -360q33 -69 54 -124l7 3q-1 42 9 122l43 359h123z" />
    <glyph glyph-name="Ograve" unicode="&#xd2;" horiz-adv-x="687" 
d="M376 693l-81 130h153l41 -124zM425 667q122 0 195 -79t73 -212q0 -172 -99.5 -277t-251.5 -105q-121 0 -194 78.5t-73 212.5q0 171 99.5 276.5t250.5 105.5zM356 103q25 0 48.5 6t44 18t38.5 29t32.5 39.5t24.5 48.5t15.5 57.5t5.5 65.5q0 88 -42 139t-112 51
q-88 0 -148 -72.5t-60 -190.5q0 -88 42 -139.5t111 -51.5z" />
    <glyph glyph-name="Oacute" unicode="&#xd3;" horiz-adv-x="687" 
d="M476 699l-112 -6l71 130h153zM425 667q122 0 195 -79t73 -212q0 -172 -99.5 -277t-251.5 -105q-121 0 -194 78.5t-73 212.5q0 171 99.5 276.5t250.5 105.5zM356 103q89 0 149 72.5t60 191.5q0 88 -42 139t-112 51q-88 0 -148 -72.5t-60 -190.5q0 -88 42 -139.5t111 -51.5
z" />
    <glyph glyph-name="Ocircumflex" unicode="&#xd4;" horiz-adv-x="687" 
d="M511 832l74 -139l-95 4l-53 58l-68 -58l-95 -4l108 139h129zM425 667q122 0 195 -79t73 -212q0 -172 -99.5 -277t-251.5 -105q-121 0 -194 78.5t-73 212.5q0 171 99.5 276.5t250.5 105.5zM356 103q25 0 48.5 6t44 18t38.5 29t32.5 39.5t24.5 48.5t15.5 57.5t5.5 65.5
q0 88 -42 139t-112 51q-88 0 -148 -72.5t-60 -190.5q0 -88 42 -139.5t111 -51.5z" />
    <glyph glyph-name="Otilde" unicode="&#xd5;" horiz-adv-x="687" 
d="M604 833q1 -8 1 -18q0 -57 -30 -92t-81 -35q-26 0 -51 13t-45 26.5t-34 13.5q-10 0 -18 -4.5t-12.5 -13.5t-4.5 -21l2 -18h-82q-2 10 -2 25q0 34 14.5 60t40 39.5t58.5 13.5q30 0 57 -13t46 -26t30 -13q30 0 30 44l-1 19h82zM425 667q122 0 195 -79t73 -212
q0 -172 -99.5 -277t-251.5 -105q-121 0 -194 78.5t-73 212.5q0 171 99.5 276.5t250.5 105.5zM356 103q25 0 48.5 6t44 18t38.5 29t32.5 39.5t24.5 48.5t15.5 57.5t5.5 65.5q0 88 -42 139t-112 51q-88 0 -148 -72.5t-60 -190.5q0 -88 42 -139.5t111 -51.5z" />
    <glyph glyph-name="Odieresis" unicode="&#xd6;" horiz-adv-x="687" 
d="M336 703q-16 0 -28.5 7t-19.5 20t-7 29q0 18 10 34t26 25.5t34 9.5q23 0 38.5 -16.5t15.5 -40.5q0 -28 -21 -48t-48 -20zM531 703q-16 0 -28.5 7t-19.5 20t-7 29q0 18 10 34t26 25.5t34 9.5q24 0 39 -16.5t15 -40.5q0 -28 -20.5 -48t-48.5 -20zM425 667q122 0 195 -79
t73 -212q0 -172 -99.5 -277t-251.5 -105q-121 0 -194 78.5t-73 212.5q0 171 99.5 276.5t250.5 105.5zM356 103q25 0 48.5 6t44 18t38.5 29t32.5 39.5t24.5 48.5t15.5 57.5t5.5 65.5q0 88 -42 139t-112 51q-88 0 -148 -72.5t-60 -190.5q0 -88 42 -139.5t111 -51.5z" />
    <glyph glyph-name="multiply" unicode="&#xd7;" horiz-adv-x="427" 
d="M427 353l-128 -118l99 -117l-67 -59l-96 117l-126 -117l-51 59l127 117l-98 118l65 59l97 -117l126 117z" />
    <glyph glyph-name="Oslash" unicode="&#xd8;" horiz-adv-x="687" 
d="M711 688l-83 -110q65 -78 65 -202q0 -172 -99.5 -277t-251.5 -105q-73 0 -130 29l-50 -67h-106l89 119q-70 79 -70 210q0 171 99.5 276.5t250.5 105.5q78 0 138 -34l42 55h106zM203 294q0 -65 23 -111l264 352q-34 22 -79 22q-88 0 -148 -72.5t-60 -190.5zM565 367
q0 58 -19 101l-261 -348q31 -17 71 -17q58 0 105.5 32t75.5 92.5t28 139.5z" />
    <glyph glyph-name="Ugrave" unicode="&#xd9;" horiz-adv-x="650" 
d="M359 693l-80 130h152l41 -124zM542 660h126l-50 -401q-14 -121 -95 -193.5t-198 -72.5q-118 0 -181.5 72.5t-48.5 193.5l50 401h126l-49 -400q-6 -49 7 -85t41 -54t69 -18q40 0 72.5 18t53.5 53.5t27 84.5z" />
    <glyph glyph-name="Uacute" unicode="&#xda;" horiz-adv-x="650" 
d="M460 699l-113 -6l71 130h154zM542 660h126l-50 -401q-14 -121 -95 -193.5t-198 -72.5q-118 0 -181.5 72.5t-48.5 193.5l50 401h126l-49 -400q-9 -74 23 -115.5t94 -41.5q60 0 102 41.5t51 114.5z" />
    <glyph glyph-name="Ucircumflex" unicode="&#xdb;" horiz-adv-x="650" 
d="M494 832l74 -139l-95 4l-53 58l-68 -58l-94 -4l107 139h129zM542 660h126l-50 -401q-14 -121 -95 -193.5t-198 -72.5q-118 0 -181.5 72.5t-48.5 193.5l50 401h126l-49 -400q-6 -49 7 -85t41 -54t69 -18q60 0 102 41.5t51 114.5z" />
    <glyph glyph-name="Udieresis" unicode="&#xdc;" horiz-adv-x="650" 
d="M319 703q-15 0 -27.5 7t-20 20t-7.5 29q0 18 10 34t26.5 25.5t33.5 9.5q24 0 39.5 -16.5t15.5 -40.5q0 -28 -21.5 -48t-48.5 -20zM514 703q-15 0 -27.5 7t-20 20t-7.5 29q0 18 10 34t26.5 25.5t33.5 9.5q24 0 39.5 -16.5t15.5 -40.5q0 -28 -21 -48t-49 -20zM542 660h126
l-50 -401q-14 -121 -95 -193.5t-198 -72.5q-118 0 -181.5 72.5t-48.5 193.5l50 401h126l-49 -400q-6 -49 7 -85t41 -54t69 -18q40 0 72.5 18t53.5 53.5t27 84.5z" />
    <glyph glyph-name="Yacute" unicode="&#xdd;" horiz-adv-x="567" 
d="M531 823l-112 -124l-113 -6l72 130h153zM642 660l-265 -417l-30 -243h-126l30 239l-165 421h136l84 -234q18 -50 21 -82h3q11 36 40 82l141 234h131z" />
    <glyph glyph-name="Thorn" unicode="&#xde;" horiz-adv-x="583" 
d="M364 563q113 0 174.5 -51t61.5 -147q0 -125 -76.5 -194t-200.5 -69h-115l-12 -102h-126l81 660h126l-12 -97h99zM311 203q76 0 117.5 38.5t41.5 108.5q0 53 -33.5 82.5t-97.5 29.5h-87l-32 -259h91z" />
    <glyph glyph-name="germandbls" unicode="&#xdf;" horiz-adv-x="552" 
d="M436 356q54 -18 81.5 -58.5t27.5 -96.5q0 -94 -57.5 -151t-162.5 -57q-28 0 -53.5 2.5t-36.5 5.5l-11 2l29 99q23 -9 65 -9q47 0 76 30t29 82q0 45 -28.5 70.5t-83.5 25.5h-32l2 14h-4l9 84h13q45 0 77 38.5t32 93.5q0 24 -9 43t-26 29.5t-39 10.5q-39 0 -63.5 -26
t-30.5 -76l-63 -512h-121l63 519q11 87 72 140.5t152 53.5q86 0 137.5 -47.5t51.5 -125.5q0 -55 -26 -103.5t-70 -80.5z" />
    <glyph glyph-name="agrave" unicode="&#xe0;" horiz-adv-x="519" 
d="M367 543l-110 -5l-76 164h150zM484 95q8 0 17 2l-7 -95q-28 -7 -61 -7q-90 0 -91 74q-50 -75 -157 -75q-66 0 -102 31t-36 83q0 46 21.5 78.5t62.5 51t95.5 27t127.5 8.5h8l3 23q5 41 -15 64.5t-63 23.5q-29 0 -49.5 -8t-31 -23.5t-10.5 -35.5q0 -6 2 -14l-109 -18
q-2 12 -2 28q0 74 59 119.5t156.5 45.5t144 -49t35.5 -136l-20 -167q-2 -11 0 -18t7.5 -10t14.5 -3zM230 87q46 0 78.5 21.5t39.5 51.5l5 46h-7q-93 0 -135.5 -18t-42.5 -57q0 -21 16 -32.5t46 -11.5z" />
    <glyph glyph-name="aacute" unicode="&#xe1;" horiz-adv-x="519" 
d="M464 702l-115 -159l-109 -5l75 164h149zM484 94q8 0 17 3l-7 -95q-28 -7 -61 -7q-90 0 -91 74q-50 -75 -157 -75q-66 0 -102 31t-36 83q0 46 21.5 78.5t62.5 51t95.5 27t127.5 8.5h8l3 23q5 41 -15 64.5t-63 23.5q-29 0 -49.5 -8t-31 -23.5t-10.5 -35.5q0 -6 2 -14
l-109 -18q-2 12 -2 28q0 74 59 119.5t156.5 45.5t144 -49t35.5 -136l-20 -167q-2 -11 0 -18t7.5 -10.5t14.5 -3.5zM230 87q46 0 78.5 21.5t39.5 51.5l5 46h-7q-93 0 -135.5 -18t-42.5 -57q0 -21 16 -32.5t46 -11.5z" />
    <glyph glyph-name="acircumflex" unicode="&#xe2;" horiz-adv-x="519" 
d="M321 620l-71 -79l-94 -3l111 163h128l72 -163l-95 3zM484 95q8 0 17 2l-7 -95q-28 -7 -61 -7q-90 0 -91 74q-50 -75 -157 -75q-66 0 -102 31t-36 83q0 46 21 78.5t62.5 51t96 27t127.5 8.5h8l3 23q5 41 -15 64.5t-63 23.5q-29 0 -49.5 -8t-31 -23.5t-10.5 -35.5
q0 -6 2 -14l-109 -18q-2 12 -2 28q0 74 59 119.5t156.5 45.5t144 -49t35.5 -136l-20 -167q-2 -11 0 -18t7.5 -10t14.5 -3zM230 87q46 0 78.5 21.5t39.5 51.5l5 46h-7q-93 0 -135.5 -18t-42.5 -57q0 -21 16 -32.5t46 -11.5z" />
    <glyph glyph-name="atilde" unicode="&#xe3;" horiz-adv-x="519" 
d="M214 538h-82q-1 11 -1 25q0 51 32 85.5t81 34.5q29 0 56 -13t46.5 -26t31.5 -13q29 0 29 44l-2 19h83q1 -8 1 -18q0 -37 -13.5 -65.5t-39.5 -45t-61 -16.5q-24 0 -48.5 13.5t-44 26.5t-32.5 13q-16 0 -27 -11t-11 -33zM484 95q8 0 17 2l-7 -95q-28 -7 -61 -7
q-90 0 -91 74q-50 -75 -157 -75q-66 0 -102 31t-36 83q0 46 21 78.5t62.5 51t96 27t127.5 8.5h8l3 23q5 41 -15 64.5t-63 23.5q-29 0 -49.5 -8t-31 -23.5t-10.5 -35.5q0 -6 2 -14l-109 -18q-2 12 -2 28q0 74 59 119.5t156.5 45.5t144 -49t35.5 -136l-20 -166q-2 -18 3 -25
t19 -7zM230 87q46 0 78.5 21.5t39.5 51.5l5 46h-7q-93 0 -135.5 -18t-42.5 -57q0 -21 16 -32.5t46 -11.5z" />
    <glyph glyph-name="adieresis" unicode="&#xe4;" horiz-adv-x="519" 
d="M220 557q-24 0 -40.5 16.5t-16.5 41.5q0 28 22 49.5t51 21.5q23 0 39 -17t16 -42q0 -28 -21.5 -49t-49.5 -21zM413 557q-23 0 -39 16.5t-16 41.5q0 28 21.5 49.5t49.5 21.5q16 0 29 -8t20 -21t7 -29q0 -29 -21 -50t-51 -21zM484 95q8 0 17 2l-7 -95q-28 -7 -61 -7
q-90 0 -91 74q-50 -75 -157 -75q-66 0 -102 31t-36 83q0 46 21 78.5t62.5 51t96 27t127.5 8.5h8l3 23q5 41 -15 64.5t-63 23.5q-29 0 -49.5 -8t-31 -23.5t-10.5 -35.5q0 -6 2 -14l-109 -18q-2 12 -2 28q0 74 59 119.5t156.5 45.5t144 -49t35.5 -136l-20 -166q-2 -18 3 -25
t19 -7zM230 87q46 0 78.5 21.5t39.5 51.5l5 46h-7q-93 0 -135.5 -18t-42.5 -57q0 -21 16 -32.5t46 -11.5z" />
    <glyph glyph-name="aring" unicode="&#xe5;" horiz-adv-x="519" 
d="M309 525q-36 0 -60 24.5t-24 60.5q0 42 32 72.5t75 30.5q17 0 32.5 -6.5t26.5 -17.5t17 -26.5t6 -33.5q0 -43 -32 -73.5t-73 -30.5zM324 651q-9 0 -17 -4.5t-13 -13t-5 -18.5q0 -6 2 -11.5t5.5 -9t8.5 -6t11 -2.5q14 0 24.5 11t10.5 26q0 8 -3.5 14.5t-9.5 10t-14 3.5z
M484 95q8 0 17 2l-7 -95q-28 -7 -61 -7q-90 0 -91 74q-50 -75 -157 -75q-66 0 -102 31t-36 83q0 46 21.5 78.5t62.5 51t95.5 27t127.5 8.5h8l3 23q5 41 -15 64.5t-63 23.5q-29 0 -49.5 -8t-31 -23.5t-10.5 -35.5q0 -6 2 -14l-109 -18q-2 12 -2 28q0 74 59 119.5t156.5 45.5
t144 -49t35.5 -136l-20 -166q-2 -18 3 -25t19 -7zM230 87q46 0 78.5 21.5t39.5 51.5l5 46h-7q-93 0 -135.5 -18t-42.5 -57q0 -21 16 -32.5t46 -11.5z" />
    <glyph glyph-name="ae" unicode="&#xe6;" horiz-adv-x="798" 
d="M615 478q87 0 135 -53t48 -139q0 -20 -3 -39.5t-6 -29.5l-3 -10h-312q2 -35 15.5 -61.5t40 -41.5t63.5 -15q74 0 126 56l52 -67q-20 -24 -48.5 -42.5t-69 -30t-85.5 -11.5q-130 0 -178 97h-6q-61 -97 -198 -97q-67 0 -103 31t-36 83q0 46 21 78.5t62.5 51t96 27
t127.5 8.5h8l3 23q5 41 -15 64.5t-63 23.5t-67 -18t-24 -48q0 -11 2 -17l-110 -18q-2 12 -2 28q0 75 59.5 121t157.5 46q97 0 144 -64q67 64 168 64zM604 383q-29 0 -53.5 -13t-42.5 -37t-27 -57h204q1 6 1 13q0 28 -9.5 49t-28 33t-44.5 12zM230 87q48 0 82 25.5t38 58.5
l4 35h-8q-93 0 -135.5 -18t-42.5 -57q0 -21 16 -32.5t46 -11.5z" />
    <glyph glyph-name="ccedilla" unicode="&#xe7;" horiz-adv-x="490" 
d="M485 280l-109 -7q6 15 6 33q0 31 -18.5 51.5t-53.5 20.5q-55 0 -91 -46t-36 -118q0 -55 27.5 -87.5t79.5 -32.5q81 0 133 57l52 -76q-28 -33 -77.5 -55.5t-113.5 -25.5l-12 -21q27 -4 46.5 -22.5t19.5 -51.5q0 -48 -35 -75t-84 -27q-28 0 -51 10t-33 20l-9 11l37 56
q3 -3 7.5 -8t20.5 -12.5t34 -7.5q42 0 42 31q0 36 -80 36l35 65q-52 9 -89 37t-56 71t-19 97q0 47 13 89.5t37 76t56.5 58.5t73 38t85.5 13q80 0 125.5 -41.5t45.5 -106.5q0 -13 -2.5 -25.5t-4.5 -18.5z" />
    <glyph glyph-name="egrave" unicode="&#xe8;" horiz-adv-x="503" 
d="M383 543l-110 -5l-75 164h149zM321 478q87 0 134.5 -53t47.5 -139q0 -20 -3 -39.5t-6 -29.5l-3 -10h-311q2 -54 32.5 -86t85.5 -32q74 0 126 56l52 -67q-30 -37 -83 -60.5t-120 -23.5q-101 0 -157.5 57.5t-56.5 152.5q0 118 73.5 196t188.5 78zM309 383q-43 0 -76 -28.5
t-46 -78.5h204v13q0 28 -9.5 49t-28 33t-44.5 12z" />
    <glyph glyph-name="eacute" unicode="&#xe9;" horiz-adv-x="503" 
d="M480 702l-115 -159l-109 -5l75 164h149zM321 478q87 0 134.5 -53t47.5 -139q0 -20 -3 -39.5t-6 -29.5l-3 -10h-311q1 -35 14.5 -61.5t40 -41.5t63.5 -15q74 0 126 56l52 -67q-30 -37 -83 -60.5t-120 -23.5q-101 0 -157.5 57.5t-56.5 152.5q0 118 73.5 196t188.5 78z
M309 383q-29 0 -53.5 -13t-42.5 -37t-26 -57h204v13q0 12 -1.5 22.5t-5.5 20t-9 17.5t-11.5 14.5t-15 11t-18.5 6.5t-21 2z" />
    <glyph glyph-name="ecircumflex" unicode="&#xea;" horiz-adv-x="503" 
d="M337 620l-71 -79l-94 -3l111 163h128l72 -163l-95 3zM321 478q87 0 134.5 -53t47.5 -139q0 -20 -3 -39.5t-6 -29.5l-3 -10h-311q2 -54 32.5 -86t85.5 -32q74 0 126 56l52 -67q-30 -37 -83 -60.5t-120 -23.5q-101 0 -157.5 57.5t-56.5 152.5q0 118 73.5 196t188.5 78z
M309 383q-29 0 -53.5 -13t-42.5 -37t-26 -57h204v13q0 28 -9.5 49t-28 33t-44.5 12z" />
    <glyph glyph-name="edieresis" unicode="&#xeb;" horiz-adv-x="503" 
d="M236 557q-24 0 -40 16.5t-16 41.5q0 28 21.5 49.5t50.5 21.5q23 0 39 -17t16 -42q0 -14 -6 -27t-15.5 -22.5t-22.5 -15t-27 -5.5zM429 557q-23 0 -39 16.5t-16 41.5q0 28 21.5 49.5t49.5 21.5q17 0 29.5 -8t19.5 -21t7 -29q0 -29 -21 -50t-51 -21zM321 478q86 0 134 -53
t48 -139q0 -20 -3 -39.5t-6 -29.5l-3 -10h-311q1 -35 14.5 -61.5t40 -41.5t63.5 -15q74 0 126 56l52 -67q-30 -37 -83 -60.5t-120 -23.5q-101 0 -157.5 57.5t-56.5 152.5q0 118 73.5 196t188.5 78zM309 383q-29 0 -53.5 -13t-42.5 -37t-26 -57h204v13q0 42 -21.5 68
t-60.5 26z" />
    <glyph glyph-name="igrave" unicode="&#xec;" horiz-adv-x="235" 
d="M128 538l-76 164h150l36 -159zM57 0l58 472l122 4l-58 -476h-122z" />
    <glyph glyph-name="iacute" unicode="&#xed;" horiz-adv-x="235" 
d="M236 543l-109 -5l75 164h149zM57 0l58 472l122 4l-58 -476h-122z" />
    <glyph glyph-name="icircumflex" unicode="&#xee;" horiz-adv-x="235" 
d="M26 538l110 163h128l72 -163l-95 3l-51 79l-70 -79zM57 0l58 472l122 4l-58 -476h-122z" />
    <glyph glyph-name="idieresis" unicode="&#xef;" horiz-adv-x="235" 
d="M89 557q-24 0 -40 16.5t-16 41.5q0 28 21.5 49.5t50.5 21.5q24 0 39.5 -17t15.5 -42q0 -28 -21 -49t-50 -21zM283 557q-24 0 -40 16.5t-16 41.5q0 28 22 49.5t50 21.5q16 0 29 -8t20 -21t7 -29q0 -29 -21.5 -50t-50.5 -21zM56 0l58 472l123 4l-58 -476h-123z" />
    <glyph glyph-name="eth" unicode="&#xf0;" horiz-adv-x="546" 
d="M464 604q82 -100 82 -266q0 -159 -76.5 -251.5t-212.5 -92.5q-91 0 -145.5 55t-54.5 141q0 114 69.5 185.5t172.5 71.5q53 0 87 -22.5t46 -51.5q-4 101 -65 170l-100 -64l-33 64l74 46q-44 24 -97 26l71 91q72 -11 128 -52l100 63l33 -62zM279 94q37 0 67 17.5t48.5 47
t23.5 66.5l1 7q2 52 -27.5 83.5t-80.5 31.5q-58 0 -97 -41t-39 -103q0 -32 13.5 -57t37 -38.5t53.5 -13.5z" />
    <glyph glyph-name="ntilde" unicode="&#xf1;" horiz-adv-x="540" 
d="M242 538h-82q-1 11 -1 25q0 51 32 85.5t81 34.5q30 0 57 -13t46.5 -26t30.5 -13q29 0 29 44l-1 19h82q1 -8 1 -18q0 -37 -13 -65.5t-39 -45t-61 -16.5q-25 0 -49.5 13.5t-44 26.5t-31.5 13q-16 0 -27 -11t-11 -33zM377 478q81 0 119 -52t28 -136l-36 -290h-122l33 273
q7 46 -12 73.5t-60 27.5q-48 0 -79.5 -37.5t-39.5 -86.5l-31 -250h-121l58 472l95 4q7 -50 2 -103h4q54 105 162 105z" />
    <glyph glyph-name="ograve" unicode="&#xf2;" horiz-adv-x="537" 
d="M281 538l-76 164h150l36 -159zM327 478q96 0 152.5 -59t56.5 -154q0 -118 -75.5 -194.5t-193.5 -76.5q-96 0 -152.5 58t-56.5 153q0 118 76 195.5t193 77.5zM280 94q59 0 96 46t37 118q0 26 -6.5 48t-19 38t-31 25t-41.5 9q-58 0 -95 -47t-37 -118q0 -36 11 -62.5
t33 -41.5t53 -15z" />
    <glyph glyph-name="oacute" unicode="&#xf3;" horiz-adv-x="537" 
d="M373 543l-109 -5l75 164h149zM327 478q96 0 152.5 -59t56.5 -154q0 -118 -75.5 -194.5t-193.5 -76.5q-96 0 -152.5 58t-56.5 153q0 118 76 195.5t193 77.5zM280 94q59 0 96 46t37 118q0 26 -6.5 48t-19 38t-31 25t-41.5 9q-58 0 -95 -47t-37 -118q0 -27 6.5 -48.5
t18.5 -37t30.5 -24.5t41.5 -9z" />
    <glyph glyph-name="ocircumflex" unicode="&#xf4;" horiz-adv-x="537" 
d="M180 538l111 163h128l72 -163l-95 3l-51 79l-71 -79zM327 478q96 0 152.5 -59t56.5 -154q0 -118 -75.5 -194.5t-193.5 -76.5q-96 0 -152.5 58t-56.5 153q0 118 76 195.5t193 77.5zM280 94q59 0 96 46t37 118q0 54 -26 87t-72 33q-58 0 -95 -47t-37 -118q0 -27 6.5 -48.5
t18.5 -37t30.5 -24.5t41.5 -9z" />
    <glyph glyph-name="otilde" unicode="&#xf5;" horiz-adv-x="537" 
d="M512 694q1 -8 1 -18q0 -37 -13.5 -65.5t-39.5 -45t-61 -16.5q-24 0 -48.5 13.5t-44 26.5t-32.5 13q-16 0 -27 -11t-11 -33l2 -20h-82q-1 11 -1 25q0 51 32 85.5t81 34.5q29 0 56 -13t46.5 -26t31.5 -13q29 0 29 44l-2 19h83zM327 478q96 0 152.5 -59t56.5 -154
q0 -118 -75.5 -194.5t-193.5 -76.5q-96 0 -152.5 58t-56.5 153q0 118 76 195.5t193 77.5zM280 94q59 0 96 46t37 118q0 26 -6.5 48t-19 38t-31 25t-41.5 9q-58 0 -95 -47t-37 -118q0 -27 6.5 -48.5t18.5 -37t30.5 -24.5t41.5 -9z" />
    <glyph glyph-name="odieresis" unicode="&#xf6;" horiz-adv-x="537" 
d="M244 557q-24 0 -40.5 16.5t-16.5 41.5q0 28 22 49.5t51 21.5q23 0 39 -17t16 -42q0 -14 -6 -27t-15.5 -22.5t-22.5 -15t-27 -5.5zM437 557q-23 0 -39 16.5t-16 41.5q0 28 21.5 49.5t49.5 21.5q16 0 29 -8t20 -21t7 -29q0 -29 -21 -50t-51 -21zM327 478q96 0 152.5 -59
t56.5 -154q0 -118 -75.5 -194.5t-193.5 -76.5q-96 0 -152.5 58t-56.5 153q0 118 76 195.5t193 77.5zM280 94q59 0 96 46t37 118q0 26 -6.5 48t-19 38t-31 25t-41.5 9q-58 0 -95 -47t-37 -118q0 -36 11 -62.5t33 -41.5t53 -15z" />
    <glyph glyph-name="divide" unicode="&#xf7;" horiz-adv-x="448" 
d="M181 415q0 26 19.5 45t45.5 19q21 0 35.5 -15t14.5 -37q0 -17 -9 -31.5t-24 -23t-31 -8.5q-15 0 -26.5 6.5t-18 18.5t-6.5 26zM67 201l10 82h363l-10 -82h-363zM173 44q0 26 19.5 45t45.5 19q11 0 20 -4t16 -11t10.5 -16.5t3.5 -20.5q0 -26 -19.5 -44.5t-44.5 -18.5
q-22 0 -36.5 14.5t-14.5 36.5z" />
    <glyph glyph-name="oslash" unicode="&#xf8;" horiz-adv-x="537" 
d="M475 424q61 -59 61 -159q0 -118 -75.5 -194.5t-193.5 -76.5q-54 0 -97 20l-31 -42h-76l56 75q-61 58 -61 158q0 118 76 195.5t193 77.5q55 0 99 -21l28 39h75zM183 213q0 -37 12 -64l164 219q-20 10 -44 10q-58 0 -95 -47t-37 -118zM280 94q59 0 96 46t37 118
q0 37 -13 65l-163 -219q19 -10 43 -10z" />
    <glyph glyph-name="ugrave" unicode="&#xf9;" horiz-adv-x="533" 
d="M388 543l-110 -5l-76 164h150zM413 472h122l-58 -472l-97 -4q-7 53 -3 96h-1q-52 -98 -155 -98q-81 0 -119.5 52t-27.5 136l35 290h122l-33 -273q-4 -30 3 -53t25 -35.5t45 -12.5q43 0 73 37.5t38 85.5z" />
    <glyph glyph-name="uacute" unicode="&#xfa;" horiz-adv-x="533" 
d="M484 702l-115 -159l-109 -5l76 164h148zM413 472h122l-58 -472l-97 -4q-7 53 -3 96h-1q-52 -98 -155 -98q-81 0 -119.5 52t-27.5 136l35 290h122l-33 -273q-4 -30 3 -53t25 -35.5t45 -12.5q43 0 73 37.5t38 85.5z" />
    <glyph glyph-name="ucircumflex" unicode="&#xfb;" horiz-adv-x="533" 
d="M341 620l-70 -79l-95 -3l111 163h128l72 -163l-95 3zM413 472h122l-58 -472l-97 -4q-7 53 -3 96h-1q-52 -98 -155 -98q-81 0 -119.5 52t-27.5 136l35 290h122l-33 -273q-4 -30 3 -53t25 -35.5t45 -12.5q43 0 73 37.5t38 85.5z" />
    <glyph glyph-name="udieresis" unicode="&#xfc;" horiz-adv-x="533" 
d="M240 557q-24 0 -40 16.5t-16 41.5q0 28 21.5 49.5t50.5 21.5q24 0 39.5 -17t15.5 -42q0 -14 -6 -27t-15.5 -22.5t-22.5 -15t-27 -5.5zM434 557q-24 0 -40 16.5t-16 41.5q0 28 21.5 49.5t49.5 21.5q13 0 23.5 -5t17.5 -12.5t11.5 -18t4.5 -22.5q0 -29 -21.5 -50t-50.5 -21
zM413 472h122l-58 -472l-97 -4q-7 53 -3 96h-1q-52 -98 -155 -98q-81 0 -119.5 52t-27.5 136l35 290h122l-33 -273q-4 -30 3 -53t25 -35.5t45 -12.5q43 0 73 37.5t38 85.5z" />
    <glyph glyph-name="yacute" unicode="&#xfd;" horiz-adv-x="502" 
d="M355 543l-109 -5l76 164h148zM428 472h123l-263 -541q-66 -140 -195 -140q-22 0 -42 4t-29 9l-9 4l31 95q22 -13 52 -13q54 0 87 61l14 30l-128 491h132l62 -295q7 -33 7 -60h2q7 21 22 60z" />
    <glyph glyph-name="thorn" unicode="&#xfe;" horiz-adv-x="585" 
d="M381 478q82 0 129 -56.5t47 -149.5q0 -126 -69.5 -202t-172.5 -76q-92 0 -129 71l-33 -269h-122l112 904h118l-37 -304h1q55 82 156 82zM305 96q56 0 91.5 45t35.5 117q0 36 -11 62.5t-32.5 41t-51.5 14.5q-49 0 -84.5 -37t-43.5 -86l-5 -38q-2 -48 24 -83.5t77 -35.5z
" />
    <glyph glyph-name="ydieresis" unicode="&#xff;" horiz-adv-x="502" 
d="M226 557q-24 0 -40 16.5t-16 41.5q0 28 21.5 49.5t50.5 21.5q24 0 39.5 -17t15.5 -42q0 -28 -21 -49t-50 -21zM420 557q-24 0 -40 16.5t-16 41.5q0 28 21.5 49.5t49.5 21.5q17 0 30 -8t20 -21t7 -29q0 -29 -21.5 -50t-50.5 -21zM428 472h123l-263 -541
q-66 -140 -195 -140q-22 0 -42 4t-29 9l-9 4l31 95q22 -13 52 -13q54 0 87 61l14 30l-128 491h132l62 -295q7 -33 7 -60h2q7 21 22 60z" />
    <glyph glyph-name="Amacron" unicode="&#x100;" horiz-adv-x="597" 
d="M553 794l-11 -84h-302l11 84h302zM464 0l-29 148h-236l-65 -148h-129l307 660h135l145 -660h-128zM242 245h174l-41 210q-7 33 -10 73h-3q-9 -32 -28 -74z" />
    <glyph glyph-name="amacron" unicode="&#x101;" horiz-adv-x="519" 
d="M474 663l-11 -84h-291l10 84h292zM484 95q8 0 17 2l-7 -95q-28 -7 -61 -7q-90 0 -91 74q-50 -75 -157 -75q-66 0 -102 31t-36 83q0 46 21 78.5t62.5 51t96 27t127.5 8.5h8l3 23q5 41 -15 64.5t-63 23.5q-29 0 -49.5 -8t-31 -23.5t-10.5 -35.5q0 -6 2 -14l-109 -18
q-2 12 -2 28q0 74 59 119.5t156.5 45.5t144 -49t35.5 -136l-20 -167q-2 -11 0 -18t7.5 -10t14.5 -3zM230 87q46 0 78.5 21.5t39.5 51.5l5 46h-7q-93 0 -135.5 -18t-42.5 -57q0 -21 16 -32.5t46 -11.5z" />
    <glyph glyph-name="Abreve" unicode="&#x102;" horiz-adv-x="597" 
d="M385 691q-42 0 -71.5 18t-42.5 48.5t-8 68.5h88q-7 -57 43 -57t57 57h88q-7 -58 -49 -96.5t-105 -38.5zM464 0l-29 148h-236l-65 -148h-129l307 660h135l145 -660h-128zM242 245h174l-41 210q-7 33 -10 73h-3q-9 -32 -28 -74z" />
    <glyph glyph-name="abreve" unicode="&#x103;" horiz-adv-x="519" 
d="M311 537q-68 0 -101.5 42.5t-25.5 111.5h92q-9 -76 43 -76q53 0 62 76h92q-9 -68 -52.5 -111t-109.5 -43zM484 95q8 0 17 2l-7 -95q-28 -7 -61 -7q-90 0 -91 74q-50 -75 -157 -75q-66 0 -102 31t-36 83q0 46 21 78.5t62.5 51t96 27t127.5 8.5h8l3 23q5 41 -15 64.5
t-63 23.5q-29 0 -49.5 -8t-31 -23.5t-10.5 -35.5q0 -6 2 -14l-109 -18q-2 12 -2 28q0 74 59 119.5t156.5 45.5t144 -49t35.5 -136l-20 -167q-2 -17 3 -24t19 -7zM230 87q46 0 78.5 21.5t39.5 51.5l5 46h-7q-93 0 -135.5 -18t-42.5 -57q0 -21 16 -32.5t46 -11.5z" />
    <glyph glyph-name="Aogonek" unicode="&#x104;" horiz-adv-x="597" 
d="M596 -104l23 -60q-5 -5 -13 -12t-34 -18.5t-53 -11.5q-41 0 -65 23t-24 60q0 74 70 123h-36l-29 148h-236l-65 -148h-129l307 660h135l145 -660q-3 -1 -8.5 -3.5t-20 -11t-25.5 -19t-19.5 -27.5t-8.5 -36q0 -12 4 -20.5t11.5 -12.5t18.5 -4q14 0 27 7.5t19 14.5zM242 245
h174l-41 210q-7 33 -10 73h-3q-9 -31 -28 -74z" />
    <glyph glyph-name="aogonek" unicode="&#x105;" horiz-adv-x="519" 
d="M498 -102l23 -60q-5 -5 -13 -12t-34 -18.5t-53 -11.5q-41 0 -65 23t-24 60q0 71 65 119q-54 13 -55 72q-50 -76 -157 -76q-66 0 -102 31t-36 83q0 46 21.5 78.5t62.5 51t95.5 27t127.5 8.5h8l3 23q5 41 -15 64.5t-63 23.5q-29 0 -49.5 -8t-31 -23.5t-10.5 -35.5
q0 -6 2 -14l-109 -18q-2 12 -2 28q0 74 59 119.5t156.5 45.5t144 -49t35.5 -136l-20 -166q-2 -18 3 -25t19 -7q8 0 17 2l-7 -95q-3 -1 -8.5 -3.5t-20 -11t-25.5 -19t-19.5 -27.5t-8.5 -36q0 -18 9 -27.5t25 -9.5q6 0 12.5 1.5t11.5 4.5t9.5 6t8 6t5.5 5.5t4 4.5zM230 87
q46 0 78.5 21.5t39.5 51.5l5 46h-7q-93 0 -135.5 -18t-42.5 -57q0 -21 16 -32.5t46 -11.5z" />
    <glyph glyph-name="Cacute" unicode="&#x106;" horiz-adv-x="619" 
d="M468 699l-113 -6l71 130h154zM416 667q54 0 96 -15.5t67.5 -40t40.5 -56.5t19.5 -64t0.5 -63l-119 -18q3 15 1 32t-6 33.5t-13.5 31t-22.5 26t-32.5 18t-43.5 6.5q-83 0 -142 -73t-59 -192q0 -94 46 -141.5t117 -47.5q55 0 100.5 28.5t75.5 66.5l65 -77
q-15 -19 -34.5 -36.5t-52 -40.5t-77.5 -37t-94 -14q-127 0 -200 77t-73 212q0 85 26.5 157t72 122t108 78t133.5 28z" />
    <glyph glyph-name="cacute" unicode="&#x107;" horiz-adv-x="490" 
d="M369 543l-109 -5l75 164h149zM323 478q53 0 92.5 -19.5t59 -53t19.5 -75.5q0 -13 -2.5 -25.5t-4.5 -18.5l-2 -6l-109 -7q6 15 6 33q0 31 -18.5 51.5t-53.5 20.5q-55 0 -91 -46t-36 -118q0 -55 27.5 -87.5t79.5 -32.5q81 0 133 57l52 -76q-30 -35 -83 -58t-121 -23
q-100 0 -156.5 57t-56.5 152q0 119 75.5 197t189.5 78z" />
    <glyph glyph-name="Ccircumflex" unicode="&#x108;" horiz-adv-x="619" 
d="M502 832l74 -139l-94 4l-54 58l-68 -58l-94 -4l107 139h129zM416 667q54 0 96 -15.5t67.5 -40t40.5 -56.5t19.5 -64t0.5 -63l-119 -18q3 15 1 32t-6 33.5t-13.5 31t-22.5 26t-32.5 18t-43.5 6.5q-83 0 -142 -73t-59 -192q0 -94 46 -141.5t117 -47.5q55 0 100.5 28.5
t75.5 66.5l65 -77q-15 -19 -34.5 -36.5t-52 -40.5t-77.5 -37t-94 -14q-127 0 -200 77t-73 212q0 85 26.5 157t72 122t108 78t133.5 28z" />
    <glyph glyph-name="ccircumflex" unicode="&#x109;" horiz-adv-x="490" 
d="M176 538l111 163h128l72 -163l-95 3l-51 79l-71 -79zM323 478q53 0 92.5 -19.5t59 -53t19.5 -75.5q0 -13 -2.5 -25.5t-4.5 -18.5l-2 -6l-109 -7q6 15 6 33q0 31 -18.5 51.5t-53.5 20.5q-55 0 -91 -46t-36 -118q0 -55 27.5 -87.5t79.5 -32.5q81 0 133 57l52 -76
q-30 -35 -83 -58t-121 -23q-100 0 -156.5 57t-56.5 152q0 119 75.5 197t189.5 78z" />
    <glyph glyph-name="Cdotaccent" unicode="&#x10a;" horiz-adv-x="619" 
d="M418 694q-18 0 -33.5 8t-24 23t-8.5 34q0 34 25 57.5t60 23.5q28 0 47.5 -18.5t19.5 -47.5q0 -34 -25.5 -57t-60.5 -23zM416 667q54 0 96 -15.5t67.5 -40t40.5 -56.5t19.5 -64t0.5 -63l-119 -18q3 15 1 32t-6 33.5t-13.5 31t-22.5 26t-32.5 18t-43.5 6.5q-83 0 -142 -73
t-59 -192q0 -94 46 -141.5t117 -47.5q55 0 100.5 28.5t75.5 66.5l65 -77q-15 -19 -34.5 -36.5t-52 -40.5t-77.5 -37t-94 -14q-127 0 -200 77t-73 212q0 85 26.5 157t72 122t108 78t133.5 28z" />
    <glyph glyph-name="cdotaccent" unicode="&#x10b;" horiz-adv-x="490" 
d="M422 632q0 -18 -7.5 -34t-20 -27t-29 -17.5t-33.5 -6.5q-31 0 -51 19t-20 49q0 36 27 61t63 25q31 0 51 -19.5t20 -49.5zM323 478q53 0 92.5 -19.5t59 -53t19.5 -75.5q0 -13 -2.5 -25.5t-4.5 -18.5l-2 -6l-109 -7q6 15 6 33q0 31 -18.5 51.5t-53.5 20.5q-55 0 -91 -46
t-36 -118q0 -55 27.5 -87.5t79.5 -32.5q81 0 133 57l52 -76q-30 -35 -83 -58t-121 -23q-100 0 -156.5 57t-56.5 152q0 119 75.5 197t189.5 78z" />
    <glyph glyph-name="Ccaron" unicode="&#x10c;" horiz-adv-x="619" 
d="M284 837l93 -3l54 -59l67 59l96 3l-108 -139h-129zM416 667q54 0 96 -15.5t67.5 -40t40.5 -56.5t19.5 -64t0.5 -63l-119 -18q3 15 1 32t-6 33.5t-13.5 31t-22.5 26t-32.5 18t-43.5 6.5q-83 0 -142 -73t-59 -192q0 -94 46 -141.5t117 -47.5q55 0 100.5 28.5t75.5 66.5
l65 -77q-15 -19 -34.5 -36.5t-52 -40.5t-77.5 -37t-94 -14q-127 0 -200 77t-73 212q0 85 26.5 157t72 122t108 78t133.5 28z" />
    <glyph glyph-name="ccaron" unicode="&#x10d;" horiz-adv-x="490" 
d="M196 701l93 -4l52 -79l70 79l96 4l-111 -163h-128zM323 478q53 0 92.5 -19.5t59 -53t19.5 -75.5q0 -13 -2.5 -25.5t-4.5 -18.5l-2 -6l-109 -7q6 15 6 33q0 31 -18.5 51.5t-53.5 20.5q-55 0 -91 -46t-36 -118q0 -55 27.5 -87.5t79.5 -32.5q81 0 133 57l52 -76
q-30 -35 -83 -58t-121 -23q-100 0 -156.5 57t-56.5 152q0 119 75.5 197t189.5 78z" />
    <glyph glyph-name="Dcaron" unicode="&#x10e;" horiz-adv-x="642" 
d="M424 698h-128l-74 139l94 -3l54 -59l67 59l96 3zM366 660q136 0 208.5 -75t72.5 -206q0 -181 -88.5 -280t-244.5 -99h-244l81 660h215zM313 101q96 0 151 68t55 202q0 93 -46 140.5t-133 47.5h-76l-56 -458h105z" />
    <glyph glyph-name="dcaron" unicode="&#x10f;" horiz-adv-x="594" 
d="M692 718q26 0 43 -17t17 -49q0 -36 -11 -69t-27.5 -54.5t-32.5 -38t-28 -23.5l-11 -7l-28 49q7 4 16.5 12t27 29t20.5 39q-25 0 -41 16.5t-16 40.5q0 29 21 50.5t50 21.5zM431 410l37 296h121l-87 -706l-98 -4q-3 70 1 99h-2q-56 -101 -168 -101q-54 0 -94 26t-61 72.5
t-21 106.5q0 126 70.5 202.5t172.5 76.5q93 0 129 -68zM280 96q46 0 81.5 35.5t45.5 81.5l6 49q1 46 -25.5 80t-76.5 34q-36 0 -65.5 -20.5t-45.5 -58t-16 -84.5q0 -53 25.5 -85t70.5 -32z" />
    <glyph glyph-name="Dcroat" unicode="&#x110;" horiz-adv-x="642" 
d="M366 660q136 0 208.5 -75t72.5 -206q0 -181 -88.5 -280t-244.5 -99h-244l35 287h-88l10 84h88l36 289h215zM313 101q96 0 151 68t55 202q0 93 -46 140.5t-133 47.5h-76l-23 -188h159l-10 -84h-159l-23 -186h105z" />
    <glyph glyph-name="dcroat" unicode="&#x111;" horiz-adv-x="558" 
d="M638 621l-9 -73h-59l-68 -548l-98 -4q-3 70 1 99h-2q-56 -101 -168 -101q-81 0 -128.5 56.5t-47.5 148.5q0 126 70.5 202.5t172.5 76.5q93 0 129 -68l17 138h-131l9 73h131l11 85h121l-10 -85h59zM280 96q46 0 81.5 35.5t45.5 81.5l6 49q1 46 -25.5 80t-76.5 34
q-55 0 -91 -45.5t-36 -117.5q0 -53 25.5 -85t70.5 -32z" />
    <glyph glyph-name="Emacron" unicode="&#x112;" horiz-adv-x="527" 
d="M540 794l-11 -84h-302l11 84h302zM551 556h-287l-21 -168h250l-12 -100h-250l-23 -184h287l-12 -104h-413l81 660h413z" />
    <glyph glyph-name="emacron" unicode="&#x113;" horiz-adv-x="503" 
d="M490 663l-11 -84h-291l10 84h292zM321 478q87 0 134.5 -53t47.5 -139q0 -20 -3 -39.5t-6 -29.5l-3 -10h-311q2 -54 32.5 -86t85.5 -32q74 0 126 56l52 -67q-30 -37 -83 -60.5t-120 -23.5q-101 0 -157.5 57.5t-56.5 152.5q0 118 73.5 196t188.5 78zM309 383
q-29 0 -53.5 -13t-42.5 -37t-26 -57h204v13q0 28 -9.5 49t-28 33t-44.5 12z" />
    <glyph glyph-name="Ebreve" unicode="&#x114;" horiz-adv-x="527" 
d="M372 691q-42 0 -71.5 18t-42.5 48.5t-8 68.5h88q-7 -57 42 -57q50 0 58 57h88q-7 -58 -49.5 -96.5t-104.5 -38.5zM551 556h-287l-21 -168h250l-12 -100h-250l-23 -184h287l-12 -104h-413l81 660h413z" />
    <glyph glyph-name="ebreve" unicode="&#x115;" horiz-adv-x="503" 
d="M327 537q-68 0 -101.5 42.5t-25.5 111.5h92q-9 -76 43 -76q53 0 62 76h92q-8 -68 -52 -111t-110 -43zM321 478q87 0 134.5 -53t47.5 -139q0 -20 -3 -39.5t-6 -29.5l-3 -10h-311q2 -54 32.5 -86t85.5 -32q74 0 126 56l52 -67q-30 -37 -83 -60.5t-120 -23.5
q-101 0 -157.5 57.5t-56.5 152.5q0 118 73.5 196t188.5 78zM309 383q-44 0 -76.5 -28.5t-45.5 -78.5h204v13q0 28 -9.5 49t-28 33t-44.5 12z" />
    <glyph glyph-name="Edotaccent" unicode="&#x116;" horiz-adv-x="527" 
d="M371 694q-18 0 -33.5 8t-24 23t-8.5 34q0 34 25 57.5t59 23.5q29 0 48.5 -18.5t19.5 -47.5q0 -34 -25.5 -57t-60.5 -23zM551 556h-287l-21 -168h250l-12 -100h-250l-23 -184h287l-12 -104h-413l81 660h413z" />
    <glyph glyph-name="edotaccent" unicode="&#x117;" horiz-adv-x="503" 
d="M328 547q-20 0 -36 8.5t-25.5 24.5t-9.5 35q0 36 27 61t63 25q31 0 51 -19.5t20 -49.5q0 -36 -27 -60.5t-63 -24.5zM321 478q87 0 134.5 -53t47.5 -139q0 -20 -3 -39.5t-6 -29.5l-3 -10h-311q1 -35 14.5 -61.5t40 -41.5t63.5 -15q74 0 126 56l52 -67q-30 -37 -83 -60.5
t-120 -23.5q-101 0 -157.5 57.5t-56.5 152.5q0 118 73.5 196t188.5 78zM309 383q-29 0 -53.5 -13t-42.5 -37t-26 -57h204v13q0 42 -21.5 68t-60.5 26z" />
    <glyph glyph-name="Eogonek" unicode="&#x118;" horiz-adv-x="527" 
d="M551 556h-287l-21 -168h250l-12 -100h-250l-23 -184h287l-12 -104q-4 -1 -9.5 -3.5t-19.5 -11t-25 -19t-20 -27.5t-9 -36q0 -18 9.5 -27.5t24.5 -9.5q14 0 27 7.5t19 14.5l6 8l23 -60l-4.5 -4.5t-12.5 -10t-21 -13t-27.5 -10t-33.5 -4.5q-41 0 -65.5 23t-24.5 60
q0 74 70 123h-320l81 660h413z" />
    <glyph glyph-name="eogonek" unicode="&#x119;" horiz-adv-x="503" 
d="M321 478q58 0 99.5 -25t62 -68t20.5 -99q0 -20 -3 -39.5t-6 -29.5l-3 -10h-311q1 -35 14.5 -61.5t40 -41.5t63.5 -15q74 0 126 56l52 -67q-34 -42 -93 -65q-63 -34 -63 -88q0 -17 9 -27t25 -10q6 0 12.5 2t11.5 4.5t9.5 5.5t8 6t6 6t3.5 4l1 2l23 -60l-2.5 -2.5t-7 -5.5
l-11 -8t-14.5 -9t-18.5 -8.5t-21.5 -6t-25 -2.5q-41 0 -65 23t-24 60q0 54 38 95h-5q-101 0 -157.5 57.5t-56.5 152.5q0 118 73.5 196t188.5 78zM309 383q-29 0 -53.5 -12.5t-42.5 -37t-26 -57.5h204v13q0 28 -9.5 49t-28 33t-44.5 12z" />
    <glyph glyph-name="Ecaron" unicode="&#x11a;" horiz-adv-x="527" 
d="M438 698h-129l-73 139l94 -3l54 -59l67 59l96 3zM551 556h-287l-21 -168h250l-12 -100h-250l-23 -184h287l-12 -104h-413l81 660h413z" />
    <glyph glyph-name="ecaron" unicode="&#x11b;" horiz-adv-x="503" 
d="M392 538h-128l-72 163l93 -4l52 -79l70 79l96 4zM321 478q87 0 134.5 -53t47.5 -139q0 -20 -3 -39.5t-6 -29.5l-3 -10h-311q2 -54 32.5 -86t85.5 -32q74 0 126 56l52 -67q-30 -37 -83 -60.5t-120 -23.5q-101 0 -157.5 57.5t-56.5 152.5q0 118 73.5 196t188.5 78zM309 383
q-29 0 -53.5 -13t-42.5 -37t-26 -57h204v13q0 28 -9.5 49t-28 33t-44.5 12z" />
    <glyph glyph-name="Gcircumflex" unicode="&#x11c;" horiz-adv-x="643" 
d="M427 755l-69 -58l-94 -4l108 139h129l74 -139l-95 4zM642 438l-119 -18q2 19 0.5 38t-10.5 37t-22.5 31.5t-36 22t-51.5 8.5q-82 0 -140.5 -72.5t-58.5 -192.5q0 -88 40 -140.5t112 -52.5q70 0 113 38.5t51 100.5h-174l10 85h280l-40 -323h-84q-3 19 -1 76
q-66 -83 -189 -83q-114 0 -180 78t-66 208q0 86 26.5 159t72 123t108 78t132.5 28q54 0 96.5 -15t68 -38.5t41.5 -54t20.5 -61t0.5 -60.5z" />
    <glyph glyph-name="gcircumflex" unicode="&#x11d;" horiz-adv-x="507" 
d="M336 620l-70 -79l-94 -3l111 163h128l72 -163l-95 3zM570 519q-6 -53 -35.5 -83t-63.5 -36q20 -34 20 -77q0 -24 -5.5 -46t-16.5 -41t-25.5 -35.5t-34 -29t-41.5 -21.5t-47.5 -13.5t-53.5 -4.5q-44 0 -80 13q-39 -7 -39 -36q0 -17 17.5 -23.5t56.5 -6.5h101q77 0 122 -31
t45 -90q0 -33 -12.5 -61t-41 -53t-82 -39t-128.5 -14q-113 0 -169.5 30t-56.5 84q0 78 90 107q-41 27 -41 75q0 37 21.5 61.5t55.5 35.5q-39 40 -39 101q0 85 62.5 138.5t159.5 53.5q75 0 123 -35q43 26 51 95zM375 312q1 13 -2 24.5t-9 20.5t-15.5 15.5t-21.5 10t-26 4.5
q-42 0 -69 -25t-29 -64q-1 -34 19 -54.5t56 -20.5q42 0 68.5 24.5t28.5 64.5zM298 -15h-83q-103 0 -103 -55q0 -26 29 -38.5t95 -12.5q77 0 108.5 15.5t31.5 49.5q0 23 -18.5 32t-59.5 9z" />
    <glyph glyph-name="Gbreve" unicode="&#x11e;" horiz-adv-x="643" 
d="M418 691q-42 0 -72 18t-42.5 48.5t-8.5 68.5h88q-7 -57 43 -57t57 57h88q-7 -58 -49 -96.5t-104 -38.5zM642 438l-119 -18q2 19 0.5 38t-10.5 37t-22.5 31.5t-36 22t-51.5 8.5q-82 0 -140.5 -72.5t-58.5 -192.5q0 -88 40 -140.5t112 -52.5q70 0 113 38.5t51 100.5h-174
l10 85h280l-40 -323h-84q-3 19 -1 76q-66 -83 -189 -83q-114 0 -180 78t-66 208q0 86 26.5 159t72 123t108 78t132.5 28q54 0 96.5 -15t68 -38.5t41.5 -54t20.5 -61t0.5 -60.5z" />
    <glyph glyph-name="gbreve" unicode="&#x11f;" horiz-adv-x="507" 
d="M324 537q-67 0 -100.5 42.5t-25.5 111.5h91q-9 -76 43 -76q53 0 62 76h92q-8 -68 -52 -111t-110 -43zM574 535q-6 -54 -39.5 -87.5t-68.5 -40.5q25 -36 25 -84q0 -84 -63 -137.5t-161 -53.5q-44 0 -80 13q-39 -7 -39 -36q0 -11 8 -17.5t24 -9.5t42 -3h101q51 0 88 -13
t58 -40.5t21 -67.5q0 -33 -12.5 -61t-40.5 -53t-82 -39t-129 -14q-113 0 -169.5 30t-56.5 84q0 78 90 107q-41 27 -41 75q0 37 21.5 61.5t55.5 35.5q-39 40 -39 101q0 85 62.5 138.5t159.5 53.5q71 0 118 -31q47 24 58 113zM375 312q1 16 -4 30t-14.5 23.5t-23.5 15t-32 6.5
q-28 0 -49.5 -11.5t-34.5 -31.5t-14 -46q-1 -34 19 -54.5t56 -20.5q42 0 69 24.5t28 64.5zM298 -15h-83q-103 0 -103 -55q0 -26 29 -38.5t95 -12.5q77 0 109 15.5t32 49.5q0 23 -19 32t-60 9z" />
    <glyph glyph-name="Gdotaccent" unicode="&#x120;" horiz-adv-x="643" 
d="M417 694q-19 0 -34 8t-23.5 23t-8.5 34q0 34 25 57.5t59 23.5q29 0 48.5 -18.5t19.5 -47.5q0 -34 -26 -57t-60 -23zM642 438l-119 -18q5 33 -4.5 63t-39 52t-76.5 22q-82 0 -140.5 -72.5t-58.5 -192.5q0 -88 40 -140.5t112 -52.5q70 0 113 38.5t51 100.5h-174l10 85h280
l-40 -323h-84q-3 19 -1 76q-66 -83 -189 -83q-114 0 -180 78t-66 208q0 86 26.5 159t72 123t108 78t132.5 28q54 0 96.5 -15t68 -38.5t41.5 -54t20.5 -61t0.5 -60.5z" />
    <glyph glyph-name="gdotaccent" unicode="&#x121;" horiz-adv-x="507" 
d="M325 547q-20 0 -36 8.5t-25 24.5t-9 35q0 36 26.5 61t62.5 25q31 0 51 -19.5t20 -49.5q0 -36 -26.5 -60.5t-63.5 -24.5zM574 535q-6 -54 -39.5 -87.5t-68.5 -40.5q25 -36 25 -84q0 -41 -17 -77t-46.5 -61t-71 -39t-89.5 -14q-44 0 -80 13q-39 -7 -39 -36q0 -11 8 -17.5
t24 -9.5t42 -3h101q51 0 88 -13t58 -40.5t21 -67.5q0 -33 -12.5 -61t-40.5 -53t-82 -39t-129 -14q-113 0 -169.5 30t-56.5 84q0 78 90 107q-41 27 -41 75q0 37 21.5 61.5t55.5 35.5q-39 40 -39 101q0 85 62.5 138.5t159.5 53.5q71 0 118 -31q47 24 58 113zM375 312
q2 33 -18 53.5t-56 21.5q-28 0 -49.5 -11.5t-34.5 -31.5t-14 -46q-1 -34 19 -54.5t56 -20.5q42 0 69 24.5t28 64.5zM298 -15h-83q-103 0 -103 -55q0 -26 29 -38.5t95 -12.5q77 0 109 15.5t32 49.5q0 23 -19 32t-60 9z" />
    <glyph glyph-name="Gcommaaccent" unicode="&#x122;" horiz-adv-x="643" 
d="M642 438l-119 -18q2 19 0.5 38t-10.5 37t-22.5 31.5t-36 22t-51.5 8.5q-82 0 -140.5 -72.5t-58.5 -192.5q0 -88 40 -140.5t112 -52.5q70 0 113 38.5t51 100.5h-174l10 85h280l-40 -323h-84q-3 19 -1 76q-66 -83 -189 -83q-114 0 -180 78t-66 208q0 86 26.5 159t72 123
t108 78t132.5 28q54 0 96.5 -15t68 -38.5t41.5 -54t20.5 -61t0.5 -60.5zM323 -39q27 0 45 -17.5t18 -49.5q0 -36 -12.5 -67t-30 -50t-35 -32.5t-29.5 -18.5l-13 -5l-23 48q6 3 16.5 8.5t28 21t19.5 27.5q-25 0 -41.5 17t-16.5 43q0 20 10.5 37.5t27.5 27.5t36 10z" />
    <glyph glyph-name="gcommaaccent" unicode="&#x123;" horiz-adv-x="507" 
d="M322 511q-26 0 -44 17.5t-18 49.5q0 26 6.5 50t17 41t23.5 31.5t25.5 23.5t23 15.5t17.5 8.5l6 3l24 -48q-7 -3 -17 -8.5t-28 -21t-20 -27.5q26 0 42 -17t16 -43q0 -20 -10 -37.5t-27 -27.5t-37 -10zM574 535q-6 -54 -39.5 -87.5t-68.5 -40.5q25 -36 25 -84
q0 -24 -5.5 -46t-16.5 -41t-25.5 -35.5t-34 -29t-41.5 -21.5t-47.5 -13.5t-53.5 -4.5q-44 0 -80 13q-39 -7 -39 -36q0 -5 2 -9.5t6 -8t10 -6t14.5 -3.5t18.5 -2t23 -1h101q51 0 88 -13t58 -40.5t21 -67.5q0 -33 -12.5 -61t-41 -53t-82 -39t-128.5 -14q-113 0 -169.5 30
t-56.5 84q0 78 90 107q-41 27 -41 75q0 37 21.5 61.5t55.5 35.5q-39 40 -39 101q0 85 62.5 138.5t159.5 53.5q71 0 118 -31q47 24 58 113zM375 312q2 33 -18 53.5t-56 21.5q-42 0 -69 -25t-29 -64q-1 -34 19 -54.5t56 -20.5q42 0 68.5 24.5t28.5 64.5zM298 -15h-83
q-103 0 -103 -55q0 -26 29 -38.5t95 -12.5q77 0 108.5 15.5t31.5 49.5q0 23 -18.5 32t-59.5 9z" />
    <glyph glyph-name="Hcircumflex" unicode="&#x124;" horiz-adv-x="679" 
d="M440 755l-69 -58l-94 -4l108 139h129l74 -139l-95 4zM564 660h126l-81 -660h-126l35 286h-287l-35 -286h-126l81 660h126l-34 -270h288z" />
    <glyph glyph-name="Hbar" unicode="&#x126;" horiz-adv-x="679" 
d="M730 584l-11 -84h-48l-62 -500h-126l35 286h-287l-35 -286h-126l61 500h-56l10 84h56l10 76h126l-10 -76h288l9 76h126l-9 -76h49zM531 390l14 110h-288l-14 -110h288z" />
    <glyph glyph-name="hbar" unicode="&#x127;" horiz-adv-x="541" 
d="M377 478q82 0 120 -52t27 -136l-35 -290h-122l33 273q6 46 -12.5 73.5t-60.5 27.5q-47 0 -77.5 -35t-39.5 -83l-32 -256h-122l67 548h-61l9 73h61l11 85h120l-11 -85h131l-9 -73h-131l-19 -155h3q52 85 150 85z" />
    <glyph glyph-name="Itilde" unicode="&#x128;" horiz-adv-x="263" 
d="M393 833q1 -8 1 -18q0 -37 -13.5 -66t-38.5 -45t-59 -16q-26 0 -51 13t-45 26.5t-34 13.5q-15 0 -25 -10.5t-10 -28.5l2 -18h-82q-2 10 -2 25q0 34 14.5 60t40 39.5t58.5 13.5q30 0 57 -13t46 -26t31 -13q29 0 29 44l-1 19h82zM70 0l81 660h124l-81 -660h-124z" />
    <glyph glyph-name="itilde" unicode="&#x129;" horiz-adv-x="235" 
d="M357 694q1 -8 1 -18q0 -37 -13 -65.5t-39 -45t-61 -16.5q-25 0 -49.5 13.5t-44 26.5t-31.5 13q-11 0 -19 -4t-13.5 -14.5t-5.5 -25.5l1 -20h-82q-1 11 -1 25q0 51 32 85.5t81 34.5q30 0 56.5 -13t46.5 -26t31 -13q29 0 29 44l-1 19h82zM57 0l58 472l122 4l-58 -476h-122z
" />
    <glyph glyph-name="Imacron" unicode="&#x12a;" horiz-adv-x="263" 
d="M72 710l11 84h301l-10 -84h-302zM70 0l81 660h124l-81 -660h-124z" />
    <glyph glyph-name="imacron" unicode="&#x12b;" horiz-adv-x="235" 
d="M41 579l11 84h291l-10 -84h-292zM57 0l58 472l122 4l-58 -476h-122z" />
    <glyph glyph-name="Ibreve" unicode="&#x12c;" horiz-adv-x="263" 
d="M371 826q-7 -58 -49.5 -96.5t-104.5 -38.5q-42 0 -71.5 18t-42.5 48.5t-8 68.5h88q-8 -57 42 -57t57 57h89zM70 0l81 660h124l-81 -660h-124z" />
    <glyph glyph-name="ibreve" unicode="&#x12d;" horiz-adv-x="235" 
d="M342 691q-8 -68 -52 -111t-110 -43q-67 0 -100.5 42.5t-25.5 111.5h91q-9 -76 43 -76q53 0 62 76h92zM57 0l58 472l122 4l-58 -476h-122z" />
    <glyph glyph-name="Iogonek" unicode="&#x12e;" horiz-adv-x="263" 
d="M145 -134q9 0 17.5 3t14.5 7.5t11 9t7 7.5l2 3l23 -60q-4 -5 -12 -12t-34 -18.5t-53 -11.5q-41 0 -65.5 23t-24.5 60q0 74 70 123h-31l81 660h124l-81 -660q-2 -1 -5 -2t-11.5 -5.5t-16.5 -9.5t-17.5 -13.5t-16.5 -17.5t-11.5 -22t-4.5 -27q0 -18 9.5 -27.5t24.5 -9.5z
" />
    <glyph glyph-name="iogonek" unicode="&#x12f;" horiz-adv-x="235" 
d="M204 701q15 0 28.5 -5t22.5 -14.5t14.5 -22t5.5 -27.5q0 -36 -27 -60.5t-63 -24.5q-31 0 -50.5 19t-19.5 49q0 36 26.5 61t62.5 25zM179 0q-2 -1 -5 -2t-11.5 -5.5t-16.5 -9.5t-17.5 -13.5t-16.5 -17.5t-11.5 -22t-4.5 -27q0 -18 9.5 -27.5t24.5 -9.5q6 0 12.5 1.5
t11.5 4.5l10 6t8 6l5.5 5.5t3.5 4.5l1 2l23 -60l-4.5 -4.5t-12.5 -10t-21 -13t-27.5 -10t-33.5 -4.5q-41 0 -65.5 23t-24.5 60q0 74 70 123h-29l58 472l122 4z" />
    <glyph glyph-name="Idotaccent" unicode="&#x130;" horiz-adv-x="263" 
d="M216 694q-19 0 -34 8t-23.5 23t-8.5 34q0 34 25 57.5t59 23.5q29 0 48.5 -18.5t19.5 -47.5q0 -34 -25.5 -57t-60.5 -23zM70 0l81 660h124l-81 -660h-124z" />
    <glyph glyph-name="dotlessi" unicode="&#x131;" horiz-adv-x="235" 
d="M57 0l58 472l122 4l-58 -476h-122z" />
    <glyph glyph-name="IJ" unicode="&#x132;" horiz-adv-x="714" 
d="M70 0l81 660h124l-81 -660h-124zM355 153q35 -49 87 -49q48 0 74 24t32 78l56 454h126l-55 -451q-13 -105 -78 -160t-167 -55q-98 0 -161 70z" />
    <glyph glyph-name="ij" unicode="&#x133;" horiz-adv-x="477" 
d="M519 627q0 -23 -12.5 -43t-33 -30.5t-43.5 -10.5q-32 0 -51.5 19t-19.5 49q0 36 26.5 61t62.5 25q31 0 51 -20t20 -50zM271 627q0 -36 -26.5 -60.5t-62.5 -24.5q-16 0 -29 5t-22.5 14t-14.5 21.5t-5 27.5q0 36 26.5 61t62.5 25q31 0 51 -19.5t20 -49.5zM57 0l58 472
l122 4l-58 -476h-122zM172 -94q15 -12 43 -12q71 0 82 90l60 488l121 4l-59 -484q-5 -47 -20 -83.5t-39.5 -63t-60.5 -40.5t-81 -14q-30 0 -53 7.5t-31 15.5l-8 7z" />
    <glyph glyph-name="Jcircumflex" unicode="&#x134;" horiz-adv-x="451" 
d="M490 832l74 -139l-95 4l-53 58l-68 -58l-95 -4l108 139h129zM92 153q35 -49 87 -49q32 0 53.5 10t35 33t17.5 59l56 454h126l-55 -451q-13 -105 -78 -160t-167 -55q-98 0 -161 70z" />
    <glyph glyph-name="jcircumflex" unicode="&#x135;" horiz-adv-x="242" 
d="M40 548l110 163h129l71 -163l-94 3l-51 79l-71 -79zM-63 -94q15 -12 43 -12q71 0 81 90l61 488l122 4l-59 -484q-12 -95 -62.5 -148t-139.5 -53q-30 0 -53 7.5t-31 15.5l-8 7z" />
    <glyph glyph-name="Kcommaaccent" unicode="&#x136;" horiz-adv-x="579" 
d="M656 660l-266 -338l187 -321h-133l-149 266h-67l-32 -267h-126l81 660h126l-36 -292h60l224 292h131zM300 -39q26 0 44 -17.5t18 -49.5q0 -36 -12 -67t-29.5 -50t-35.5 -32.5t-30 -18.5l-12 -5l-24 48q7 3 17 8.5t28 21t20 27.5q-25 0 -41.5 17t-16.5 43q0 30 22 52.5
t52 22.5z" />
    <glyph glyph-name="kcommaaccent" unicode="&#x137;" horiz-adv-x="510" 
d="M556 472l-202 -224l163 -248h-148l-125 203h-42l-25 -203h-121l87 706h121l-50 -409h53l151 175h138zM256 -39q26 0 44 -17.5t18 -49.5q0 -36 -12.5 -67t-30 -50t-35 -32.5t-29.5 -18.5l-12 -5l-24 48q7 3 17 8.5t28 21t20 27.5q-26 0 -42 17t-16 43q0 30 22 52.5
t52 22.5z" />
    <glyph glyph-name="kgreenlandic" unicode="&#x138;" horiz-adv-x="510" 
d="M556 472l-205 -243l166 -229h-148l-124 183h-45l-23 -183h-121l58 472h121l-24 -195h50l157 195h138z" />
    <glyph glyph-name="Lacute" unicode="&#x139;" horiz-adv-x="498" 
d="M381 823l-113 -124l-112 -6l71 130h154zM208 104h292l-13 -104h-417l81 660h126z" />
    <glyph glyph-name="lacute" unicode="&#x13a;" horiz-adv-x="235" 
d="M263 777l-109 -5l76 164h148zM57 0l87 706h121l-87 -706h-121z" />
    <glyph glyph-name="Lcommaaccent" unicode="&#x13b;" horiz-adv-x="498" 
d="M208 104h292l-13 -104h-417l81 660h126zM287 -39q26 0 44 -17.5t18 -49.5q0 -36 -12.5 -67t-30 -50t-35 -32.5t-29.5 -18.5l-13 -5l-23 48l6 3t15 9t19 13.5t15.5 15t8.5 16.5q-25 0 -41.5 17t-16.5 43q0 12 4 23.5t11 20.5t16.5 16t20.5 11t23 4z" />
    <glyph glyph-name="lcommaaccent" unicode="&#x13c;" horiz-adv-x="235" 
d="M57 0l87 706h121l-87 -706h-121zM37 -114q0 20 10 37.5t27.5 27.5t36.5 10q26 0 44 -17.5t18 -49.5q0 -36 -12.5 -67t-30 -50t-35 -32.5t-29.5 -18.5l-12 -5l-24 48q7 3 17 8.5t28 21t20 27.5q-26 0 -42 17t-16 43z" />
    <glyph glyph-name="Lcaron" unicode="&#x13d;" horiz-adv-x="498" 
d="M393 489q7 4 16.5 12t27.5 29t20 39q-25 0 -41 16.5t-16 40.5q0 29 21.5 50.5t49.5 21.5q25 0 42.5 -17t17.5 -49q0 -36 -11.5 -69t-27.5 -54.5t-32.5 -38t-27.5 -23.5l-11 -7zM277 660l-69 -556h292l-13 -104h-417l81 660h126z" />
    <glyph glyph-name="lcaron" unicode="&#x13e;" horiz-adv-x="270" 
d="M295 646q0 29 22 50.5t50 21.5q25 0 42.5 -17t17.5 -49q0 -36 -11.5 -69t-27.5 -54.5t-32.5 -38t-27.5 -23.5l-12 -7l-27 49q6 4 16 12t27.5 29t19.5 39q-24 0 -40.5 16.5t-16.5 40.5zM57 0l87 706h121l-87 -706h-121z" />
    <glyph glyph-name="Ldot" unicode="&#x13f;" horiz-adv-x="498" 
d="M208 104h292l-13 -104h-417l81 660h126zM372 247q-27 0 -45 18.5t-18 45.5q0 33 24.5 56.5t56.5 23.5q27 0 45 -19t18 -46q0 -21 -11.5 -39.5t-30 -29t-39.5 -10.5z" />
    <glyph glyph-name="ldot" unicode="&#x140;" horiz-adv-x="372" 
d="M57 0l87 706h121l-87 -706h-121zM426 360q0 -36 -26.5 -60.5t-63.5 -24.5q-30 0 -49.5 19.5t-19.5 49.5q0 36 26 60.5t62 24.5q31 0 51 -19.5t20 -49.5z" />
    <glyph glyph-name="Lslash" unicode="&#x141;" horiz-adv-x="498" 
d="M208 104h292l-13 -104h-417l25 207l-62 -34l-33 73l107 58l44 356h126l-35 -281l137 75l33 -72l-182 -100z" />
    <glyph glyph-name="lslash" unicode="&#x142;" horiz-adv-x="326" 
d="M377 424l-107 -58l-45 -366h-121l36 294l-65 -36l-28 66l104 56l40 326h121l-31 -254l67 37z" />
    <glyph glyph-name="Nacute" unicode="&#x143;" horiz-adv-x="668" 
d="M464 699l-113 -6l72 130h153zM680 660l-81 -660h-123l-170 348q-10 21 -57 123l-6 -3q3 -20 -9 -119l-41 -349h-123l81 660h116l177 -360q33 -69 54 -124l7 3q-1 42 9 122l43 359h123z" />
    <glyph glyph-name="nacute" unicode="&#x144;" horiz-adv-x="540" 
d="M492 702l-115 -159l-109 -5l76 164h148zM377 478q81 0 119 -52t28 -136l-36 -290h-122l33 273q7 46 -12 73.5t-60 27.5q-48 0 -79.5 -37.5t-39.5 -86.5l-31 -250h-121l58 472l95 4q7 -50 2 -103h4q54 105 162 105z" />
    <glyph glyph-name="Ncommaaccent" unicode="&#x145;" horiz-adv-x="668" 
d="M680 660l-81 -660h-123l-170 348q-10 21 -57 123l-6 -3q3 -20 -9 -119l-41 -349h-123l81 660h116l177 -360q33 -69 54 -124l7 3q-1 42 9 122l43 359h123zM252 -114q0 30 22.5 52.5t52.5 22.5q26 0 44 -17.5t18 -49.5q0 -36 -12.5 -67t-30 -50t-35 -32.5t-29.5 -18.5
l-13 -5l-23 48q7 3 17 8.5t27.5 21t19.5 27.5q-25 0 -41.5 17t-16.5 43z" />
    <glyph glyph-name="ncommaaccent" unicode="&#x146;" horiz-adv-x="540" 
d="M377 478q81 0 119 -52t28 -136l-36 -290h-122l33 273q7 46 -12 73.5t-60 27.5q-48 0 -79.5 -37.5t-39.5 -86.5l-31 -250h-121l58 472l95 4q7 -50 2 -103h4q54 105 162 105zM266 -39q27 0 44.5 -17.5t17.5 -49.5q0 -36 -12 -67t-29.5 -50t-35 -32.5t-29.5 -18.5l-13 -5
l-23 48q6 3 16.5 8.5t28 21t19.5 27.5q-25 0 -41.5 17t-16.5 43q0 30 22.5 52.5t51.5 22.5z" />
    <glyph glyph-name="Ncaron" unicode="&#x147;" horiz-adv-x="668" 
d="M280 837l93 -3l54 -59l68 59l95 3l-108 -139h-129zM680 660l-81 -660h-123l-170 348q-10 21 -57 123l-6 -3q3 -20 -9 -119l-41 -349h-123l81 660h116l177 -360q33 -69 54 -124l7 3q-1 42 9 122l43 359h123z" />
    <glyph glyph-name="ncaron" unicode="&#x148;" horiz-adv-x="540" 
d="M404 538h-127l-72 163l93 -4l51 -79l71 79l95 4zM377 478q81 0 119 -52t28 -136l-36 -290h-122l33 273q7 46 -12 73.5t-60 27.5q-48 0 -79.5 -37.5t-39.5 -86.5l-31 -250h-121l58 472l95 4q7 -50 2 -103h4q54 105 162 105z" />
    <glyph glyph-name="napostrophe" unicode="&#x149;" horiz-adv-x="540" 
d="M146 655q0 -36 -11 -69.5t-27.5 -55t-32.5 -37.5t-27 -24l-12 -7l-27 49q6 5 16 12.5t27.5 28.5t20.5 39q-25 0 -41 16.5t-16 40.5q0 30 21 51t50 21q25 0 42 -17t17 -48zM377 478q81 0 119 -52t28 -136l-36 -290h-122l33 273q7 46 -12 73.5t-60 27.5q-48 0 -79.5 -37.5
t-39.5 -86.5l-31 -250h-121l58 472l95 4q7 -50 2 -103h4q54 105 162 105z" />
    <glyph glyph-name="Eng" unicode="&#x14a;" horiz-adv-x="697" 
d="M557 660h123l-83 -679q-15 -115 -85 -175.5t-166 -60.5q-32 0 -60 7.5t-46 18t-31 21.5t-18 18l-6 8l87 87q0 -1 3.5 -5.5t11 -12t17 -14.5t24.5 -12t31 -5q47 0 76.5 30.5t36.5 89.5l4 32h-4l-166 340q-10 21 -57 123l-6 -3q3 -20 -9 -119l-41 -349h-123l81 660h116
l177 -360q33 -69 54 -124l7 3q-1 42 9 122z" />
    <glyph glyph-name="eng" unicode="&#x14b;" horiz-adv-x="547" 
d="M377 478q81 0 119 -52t28 -136l-36 -298q-7 -63 -31 -107t-67 -69t-103 -25q-30 0 -53 7.5t-31 15.5l-8 7l46 85q14 -12 43 -12q71 0 81 90l35 289q6 46 -13 73.5t-60 27.5q-49 0 -80.5 -38.5t-38.5 -87.5l-31 -248h-121l58 472l95 4q7 -50 2 -103h3q54 105 163 105z" />
    <glyph glyph-name="Omacron" unicode="&#x14c;" horiz-adv-x="687" 
d="M283 710l11 84h301l-10 -84h-302zM425 667q122 0 195 -79t73 -212q0 -172 -99.5 -277t-251.5 -105q-121 0 -194 78.5t-73 212.5q0 171 99.5 276.5t250.5 105.5zM356 103q89 0 149 72.5t60 191.5q0 88 -42 139t-112 51q-88 0 -148 -72.5t-60 -190.5q0 -88 42 -139.5
t111 -51.5z" />
    <glyph glyph-name="omacron" unicode="&#x14d;" horiz-adv-x="537" 
d="M196 579l10 84h292l-11 -84h-291zM327 478q96 0 152.5 -59t56.5 -154q0 -118 -75.5 -194.5t-193.5 -76.5q-96 0 -152.5 58t-56.5 153q0 118 76 195.5t193 77.5zM280 94q59 0 96 46t37 118q0 54 -26 87t-72 33q-58 0 -95 -47t-37 -118q0 -27 6.5 -48.5t18.5 -37
t30.5 -24.5t41.5 -9z" />
    <glyph glyph-name="Obreve" unicode="&#x14e;" horiz-adv-x="687" 
d="M582 826q-7 -58 -49.5 -96.5t-104.5 -38.5q-42 0 -71.5 18t-42.5 48.5t-8 68.5h88q-8 -57 42 -57t57 57h89zM425 667q122 0 195 -79t73 -212q0 -172 -99.5 -277t-251.5 -105q-121 0 -194 78.5t-73 212.5q0 171 99.5 276.5t250.5 105.5zM356 103q89 0 149 72.5t60 191.5
q0 88 -42 139t-112 51q-88 0 -148 -72.5t-60 -190.5q0 -88 42 -139.5t111 -51.5z" />
    <glyph glyph-name="obreve" unicode="&#x14f;" horiz-adv-x="537" 
d="M496 691q-8 -68 -51.5 -111t-109.5 -43q-68 0 -101.5 42.5t-25.5 111.5h92q-9 -76 43 -76q53 0 62 76h91zM327 478q96 0 152.5 -59t56.5 -154q0 -118 -75.5 -194.5t-193.5 -76.5q-96 0 -152.5 58t-56.5 153q0 118 76 195.5t193 77.5zM280 94q59 0 96 46t37 118
q0 26 -6.5 48t-19 38t-31 25t-41.5 9q-58 0 -95 -47t-37 -118q0 -27 6.5 -48.5t18.5 -37t30.5 -24.5t41.5 -9z" />
    <glyph glyph-name="Ohungarumlaut" unicode="&#x150;" horiz-adv-x="687" 
d="M366 699l-100 -6l71 130h141zM553 699l-101 -6l72 130h141zM425 667q122 0 195 -79t73 -212q0 -172 -99.5 -277t-251.5 -105q-121 0 -194 78.5t-73 212.5q0 171 99.5 276.5t250.5 105.5zM356 103q25 0 48.5 6t44 18t38.5 29t32.5 39.5t24.5 48.5t15.5 57.5t5.5 65.5
q0 88 -42 139t-112 51q-88 0 -148 -72.5t-60 -190.5q0 -88 42 -139.5t111 -51.5z" />
    <glyph glyph-name="ohungarumlaut" unicode="&#x151;" horiz-adv-x="537" 
d="M282 543l-112 -5l75 165h154zM473 543l-112 -5l75 165h153zM327 478q96 0 152.5 -59t56.5 -154q0 -118 -75.5 -194.5t-193.5 -76.5q-96 0 -152.5 58t-56.5 153q0 118 76 195.5t193 77.5zM280 94q59 0 96 46t37 118q0 26 -6.5 48t-19 38t-31 25t-41.5 9q-58 0 -95 -47
t-37 -118q0 -36 11 -62.5t33 -41.5t53 -15z" />
    <glyph glyph-name="OE" unicode="&#x152;" horiz-adv-x="982" 
d="M1006 556h-287l-21 -168h250l-12 -100h-250l-23 -184h288l-13 -104h-413l5 46q-83 -52 -188 -52q-121 0 -194 78.5t-73 212.5q0 171 99.5 276.5t250.5 105.5q105 0 174 -59l7 52h413zM356 103q89 0 149 72.5t60 191.5q0 88 -42 139t-112 51q-88 0 -148 -72.5t-60 -190.5
q0 -88 42 -139.5t111 -51.5z" />
    <glyph glyph-name="oe" unicode="&#x153;" horiz-adv-x="856" 
d="M674 478q87 0 135 -53t48 -139q0 -20 -3 -39.5t-6 -29.5l-3 -10h-312q2 -35 15.5 -61.5t40 -41.5t63.5 -15q74 0 126 56l52 -67q-30 -37 -83 -60.5t-120 -23.5q-113 0 -171 72q-75 -72 -189 -72q-96 0 -152.5 58t-56.5 153q0 118 76 195.5t193 77.5q107 0 165 -72
q73 72 182 72zM663 383q-29 0 -53.5 -13t-42.5 -37t-27 -57h204q1 6 1 13q0 42 -21.5 68t-60.5 26zM280 94q59 0 96 46t37 118q0 26 -6.5 48t-19 38t-31 25t-41.5 9q-58 0 -95 -47t-37 -118q0 -27 6.5 -48.5t18.5 -37t30.5 -24.5t41.5 -9z" />
    <glyph glyph-name="Racute" unicode="&#x154;" horiz-adv-x="594" 
d="M525 823l-112 -124l-113 -6l71 130h154zM429 257q15 -8 27 -24.5t19 -34t15 -36.5t16.5 -34t23 -24.5t33.5 -9.5l20 2l-4 -96q-26 -7 -67 -7q-38 0 -65.5 13.5t-42.5 34.5t-25.5 47t-19 51.5t-19.5 47t-31.5 35t-50.5 13.5h-34l-28 -235h-126l81 660h209q224 0 224 -184
q0 -81 -40.5 -136.5t-114.5 -82.5zM236 326h66q45 0 80.5 15t56 45.5t20.5 72.5q0 49 -30.5 74.5t-87.5 25.5h-77z" />
    <glyph glyph-name="racute" unicode="&#x155;" horiz-adv-x="357" 
d="M417 702l-115 -159l-109 -5l75 164h149zM214 370q44 108 135 108q33 0 63 -12l-46 -119q-19 15 -48 15q-39 0 -70.5 -31t-40.5 -88l-30 -243h-121l58 472l95 4q8 -52 2 -106h3z" />
    <glyph glyph-name="Rcommaaccent" unicode="&#x156;" horiz-adv-x="594" 
d="M429 257q15 -8 27 -24.5t19 -34t15 -36.5t16.5 -34t23 -24.5t33.5 -9.5l20 2l-4 -96q-26 -7 -67 -7q-38 0 -65.5 13.5t-42.5 34.5t-25.5 47t-19 51.5t-19.5 47t-31.5 35t-50.5 13.5h-34l-28 -235h-126l81 660h209q224 0 224 -184q0 -81 -40.5 -136.5t-114.5 -82.5z
M236 326h66q45 0 80.5 15t56 45.5t20.5 72.5q0 49 -30.5 74.5t-87.5 25.5h-77zM306 -39q26 0 44 -17.5t18 -49.5q0 -36 -12 -67t-29.5 -50t-35 -32.5t-30.5 -18.5l-12 -5l-24 48q7 3 17 8.5t28 21t20 27.5q-25 0 -41.5 17t-16.5 43q0 12 4 23.5t11 20.5t16 16t20 11t23 4z
" />
    <glyph glyph-name="rcommaaccent" unicode="&#x157;" horiz-adv-x="357" 
d="M349 478q33 0 63 -12l-46 -119q-19 15 -48 15q-39 0 -70.5 -31t-40.5 -88l-30 -243h-121l58 472l95 4q8 -52 2 -106h3q44 108 135 108zM115 -39q26 0 44 -17.5t18 -49.5q0 -26 -6.5 -50t-17 -41t-23 -31.5t-25.5 -23.5t-23.5 -15.5t-16.5 -8.5l-7 -3l-24 48q2 0 4 1.5
t8.5 5t12 7t13 9t13 11t9.5 11.5t5 12q-17 0 -30 8t-20.5 21.5t-7.5 30.5q0 30 22 52.5t52 22.5z" />
    <glyph glyph-name="Rcaron" unicode="&#x158;" horiz-adv-x="594" 
d="M430 698h-129l-73 139l93 -3l55 -59l67 59l96 3zM429 257q15 -8 27 -24.5t19 -34t15 -36.5t16.5 -34t23 -24.5t33.5 -9.5l20 2l-4 -96q-26 -7 -67 -7q-38 0 -65.5 13.5t-42.5 34.5t-25.5 47t-19 51.5t-19.5 47t-31.5 35t-50.5 13.5h-34l-28 -235h-126l81 660h209
q224 0 224 -184q0 -81 -40.5 -136.5t-114.5 -82.5zM236 326h66q45 0 80.5 15t56 45.5t20.5 72.5q0 49 -30.5 74.5t-87.5 25.5h-77z" />
    <glyph glyph-name="rcaron" unicode="&#x159;" horiz-adv-x="357" 
d="M329 538h-128l-72 163l93 -4l52 -79l70 79l96 4zM214 370q44 108 135 108q33 0 63 -12l-46 -119q-19 15 -48 15q-39 0 -70.5 -31t-40.5 -88l-30 -243h-121l58 472l95 4q8 -52 2 -106h3z" />
    <glyph glyph-name="Sacute" unicode="&#x15a;" horiz-adv-x="546" 
d="M397 699l-112 -6l71 130h153zM448 469q2 33 -24 62.5t-80 29.5q-49 0 -79 -24t-30 -64q0 -20 13 -35.5t33.5 -25t47.5 -19.5t55 -19t54.5 -24t47.5 -33.5t34 -48.5t13 -68q0 -92 -69.5 -149.5t-193.5 -57.5q-84 0 -145 27t-94 61l87 92q26 -28 69 -52t99 -24
q58 0 88.5 22.5t30.5 62.5q0 23 -12.5 40.5t-33.5 28t-48 21t-55 19t-54.5 22.5t-47.5 31t-34 45t-13 63q0 92 70.5 153.5t177.5 61.5q41 0 74 -8t55 -22t37.5 -30.5t24.5 -37t13.5 -37.5t5.5 -35z" />
    <glyph glyph-name="sacute" unicode="&#x15b;" horiz-adv-x="459" 
d="M334 543l-109 -5l75 164h149zM343 306q6 12 6 27q0 18 -8.5 31t-24.5 20.5t-38 7.5q-37 0 -58 -16.5t-21 -43.5q0 -20 18 -33t45 -18.5t58.5 -14.5t58.5 -20t45 -36t18 -62q0 -70 -58 -112t-155 -42q-46 0 -83.5 8.5t-61.5 22t-35 22.5t-19 18l69 75q13 -15 53 -36
t84 -21q40 0 61 13t21 36q0 17 -17.5 29t-44 18t-56.5 16t-56.5 22.5t-43.5 38t-17 60.5q0 72 58.5 117t151.5 45q50 0 88.5 -15.5t59 -43.5t20.5 -63q0 -11 -2 -21.5t-5 -16.5l-2 -5z" />
    <glyph glyph-name="Scircumflex" unicode="&#x15c;" horiz-adv-x="546" 
d="M432 832l74 -139l-95 4l-53 58l-68 -58l-95 -4l108 139h129zM448 469q2 33 -24 62.5t-80 29.5q-49 0 -79 -24t-30 -64q0 -20 13 -35.5t33.5 -25t47.5 -19.5t55 -19t54.5 -24t47.5 -33.5t34 -48.5t13 -68q0 -92 -69.5 -149.5t-193.5 -57.5q-84 0 -145 27t-94 61l87 92
q26 -28 69 -52t99 -24q39 0 66 10.5t40.5 29.5t13.5 45q0 23 -13 40.5t-34 28t-48 21t-55 19t-54.5 22.5t-47.5 31t-34 45t-13 63q0 92 70.5 153.5t177.5 61.5q41 0 74 -8t55 -22t37.5 -30.5t24.5 -37t13.5 -37.5t5.5 -35z" />
    <glyph glyph-name="scircumflex" unicode="&#x15d;" horiz-adv-x="459" 
d="M141 538l111 163h128l72 -163l-95 3l-51 79l-71 -79zM343 306q6 12 6 27q0 18 -8.5 31t-24.5 20.5t-38 7.5q-37 0 -58 -16.5t-21 -43.5q0 -20 18 -33t45 -18.5t58.5 -14.5t58.5 -20t45 -36t18 -62q0 -70 -58 -112t-155 -42q-46 0 -83.5 8.5t-61.5 22t-35 22.5t-19 18
l69 75q13 -15 53 -36t84 -21q40 0 60.5 13t20.5 36q0 17 -17 29t-43.5 18t-56.5 16t-56.5 22.5t-43.5 38t-17 60.5q0 72 58.5 117t151.5 45q75 0 121.5 -34t46.5 -88q0 -11 -2 -21.5t-5 -16.5l-2 -5z" />
    <glyph glyph-name="Scedilla" unicode="&#x15e;" horiz-adv-x="546" 
d="M235 473q0 -20 13 -35.5t33.5 -25t47.5 -19.5t55 -19t54.5 -24t47.5 -33.5t34 -48.5t13 -68q0 -85 -60.5 -141.5t-168.5 -64.5l-12 -21q27 -4 46.5 -22.5t19.5 -51.5q0 -48 -35.5 -75t-84.5 -27q-27 0 -50.5 10t-32.5 20l-10 11l38 56q1 -1 2.5 -3t7.5 -7t12.5 -8.5
t17 -6.5t22.5 -3q42 0 42 31q0 36 -80 36l33 61q-74 6 -126.5 31.5t-82.5 55.5l87 92q15 -17 35 -32t57 -29.5t76 -14.5q58 0 89 22.5t31 62.5q0 23 -13 40.5t-34 28t-48 21t-55 19t-54.5 22.5t-47.5 31t-34 45t-13 63q0 92 70.5 153.5t177.5 61.5q41 0 74 -8t55 -22
t37.5 -30.5t24.5 -37t13.5 -37.5t5.5 -35l-117 -28q2 33 -24 62.5t-80 29.5q-49 0 -79 -24t-30 -64z" />
    <glyph glyph-name="scedilla" unicode="&#x15f;" horiz-adv-x="459" 
d="M452 313l-109 -7q6 12 6 27q0 18 -8.5 31t-24.5 20.5t-38 7.5q-37 0 -58 -16.5t-21 -43.5q0 -20 18 -33t45 -18.5t58.5 -14.5t58.5 -20t45 -36t18 -62q0 -64 -48 -104.5t-131 -48.5l-13 -22q27 -4 46.5 -22.5t19.5 -51.5q0 -48 -35.5 -75t-84.5 -27q-27 0 -50.5 10
t-32.5 20l-9 11l37 56q1 -1 2.5 -3t7.5 -7t12.5 -8.5t17.5 -6.5t22 -3q42 0 42 31q0 36 -80 36l33 62q-112 8 -168 70l69 75q13 -15 53 -36t84 -21q40 0 60.5 13t20.5 36q0 17 -17 29t-43.5 18t-56.5 16t-56.5 22.5t-43.5 38t-17 60.5q0 72 58.5 117t151.5 45
q75 0 121.5 -34t46.5 -88q0 -11 -2 -21.5t-5 -16.5z" />
    <glyph glyph-name="Scaron" unicode="&#x160;" horiz-adv-x="546" 
d="M213 837l93 -3l54 -59l68 59l96 3l-109 -139h-129zM448 469q1 20 -8 40t-34 36t-62 16q-49 0 -79 -24t-30 -64q0 -20 13 -35.5t33.5 -25t47.5 -19.5t55 -19t54.5 -24t47.5 -33.5t34 -48.5t13 -68q0 -92 -69.5 -149.5t-193.5 -57.5q-84 0 -145 27t-94 61l87 92
q15 -17 35 -32t57 -29.5t76 -14.5t66 10.5t40.5 29.5t13.5 45q0 23 -13 40.5t-34 28t-48 21t-55 19t-54.5 22.5t-47.5 31t-34 45t-13 63q0 92 70.5 153.5t177.5 61.5q41 0 74 -8t55 -22t37.5 -30.5t24.5 -37t13.5 -37.5t5.5 -35z" />
    <glyph glyph-name="scaron" unicode="&#x161;" horiz-adv-x="459" 
d="M161 701l94 -4l51 -79l70 79l96 4l-111 -163h-128zM343 306q6 12 6 27q0 18 -8.5 31t-24.5 20.5t-38 7.5q-37 0 -58 -16.5t-21 -43.5q0 -20 18 -33t45 -18.5t58.5 -14.5t58.5 -20t45 -36t18 -62q0 -70 -58 -112t-155 -42q-46 0 -83.5 8.5t-61.5 22t-35 22.5t-19 18l69 75
q13 -15 53 -36t84 -21q40 0 61 13t21 36q0 17 -17.5 29t-44 18t-56.5 16t-56.5 22.5t-43.5 38t-17 60.5q0 72 58.5 117t151.5 45q75 0 121.5 -34t46.5 -88q0 -11 -2 -21.5t-5 -16.5l-2 -5z" />
    <glyph glyph-name="uni0162" unicode="&#x162;" horiz-adv-x="538" 
d="M92 660h515l-12 -104h-195l-69 -556h-33l-15 -27q27 -4 46.5 -22.5t19.5 -51.5q0 -48 -35.5 -75t-84.5 -27q-27 0 -50.5 10t-32.5 20l-10 11l38 56q2 -3 7 -8t21 -12.5t34 -7.5q42 0 42 31q0 36 -80 36l36 67h-29l69 556h-194z" />
    <glyph glyph-name="uni0163" unicode="&#x163;" horiz-adv-x="402" 
d="M257 378l-22 -183q-4 -34 1.5 -55.5t21 -32t41.5 -10.5q13 0 26 2.5t22 6.5t16.5 8t10.5 6l4 3l23 -96q-6 -3 -16.5 -8.5t-44.5 -14.5t-71 -10l-12 -21q27 -4 46.5 -22.5t19.5 -51.5q0 -48 -35 -75t-84 -27q-28 0 -51 10t-33 20l-9 11l37 56l3 -3t8 -7t12.5 -8.5t17 -6.5
t21.5 -3q42 0 42 31q0 36 -80 36l36 67q-116 29 -96 191l23 187h-70l12 94h73l17 135l119 5l-17 -140h162l-12 -94h-162z" />
    <glyph glyph-name="Tcaron" unicode="&#x164;" horiz-adv-x="538" 
d="M220 837l93 -3l54 -59l68 59l95 3l-108 -139h-129zM205 0l69 556h-194l12 104h515l-12 -104h-195l-69 -556h-126z" />
    <glyph glyph-name="tcaron" unicode="&#x165;" horiz-adv-x="402" 
d="M323 544q6 3 15.5 6.5t26.5 15.5t19 24q-24 0 -40 16.5t-16 40.5q0 30 21 51t50 21q16 0 29 -7t21 -21.5t8 -34.5q0 -36 -11.5 -65t-28 -45.5t-33 -27.5t-27.5 -15l-12 -4zM286 612l-17 -140h162l-12 -94h-162l-22 -183q-4 -33 1.5 -55t20.5 -32.5t42 -10.5
q21 0 40.5 6.5t28.5 13.5l10 6l23 -96q-1 0 -3.5 -1.5t-9.5 -5t-14.5 -6.5t-20 -7t-25.5 -6.5t-29.5 -4.5t-33.5 -2q-177 0 -153 197l23 187h-70l12 94h73l17 135z" />
    <glyph glyph-name="Tbar" unicode="&#x166;" horiz-adv-x="538" 
d="M595 556h-195l-22 -180h120l-10 -84h-121l-36 -292h-126l36 292h-126l10 84h127l22 180h-194l12 104h515z" />
    <glyph glyph-name="tbar" unicode="&#x167;" horiz-adv-x="402" 
d="M419 378h-162l-11 -90h126l-9 -73h-126l-2 -20q-4 -33 1.5 -55t21 -32.5t41.5 -10.5q13 0 26 2.5t22 6.5t16.5 8t10.5 6l4 3l23 -96q-6 -4 -17 -9.5t-46.5 -14.5t-72.5 -9q-177 0 -153 197l3 24h-64l9 73h64l11 90h-70l12 94h73l17 135l119 5l-17 -140h162z" />
    <glyph glyph-name="Utilde" unicode="&#x168;" horiz-adv-x="650" 
d="M608 833v-18q0 -57 -30 -92t-81 -35q-25 0 -50.5 13t-45.5 26.5t-33 13.5q-10 0 -18 -4.5t-13 -13.5t-5 -21l3 -18h-82q-2 10 -2 25q0 34 14.5 60t40 39.5t57.5 13.5q31 0 57.5 -13t45.5 -26t31 -13q29 0 29 44l-1 19h83zM542 660h126l-50 -401q-14 -121 -95 -193.5
t-198 -72.5q-118 0 -181.5 72.5t-48.5 193.5l50 401h126l-49 -400q-6 -49 7 -85t41 -54t69 -18q60 0 102 41.5t51 114.5z" />
    <glyph glyph-name="utilde" unicode="&#x169;" horiz-adv-x="533" 
d="M234 538h-82q-1 11 -1 25q0 51 32 85.5t81 34.5q29 0 56 -13t46.5 -26t31.5 -13q29 0 29 44l-2 19h83q1 -8 1 -18q0 -37 -13 -65.5t-39 -45t-61 -16.5q-25 0 -49.5 13.5t-44 26.5t-31.5 13q-17 0 -27.5 -11t-10.5 -33zM413 472h122l-58 -472l-97 -4q-7 53 -3 96h-1
q-52 -98 -155 -98q-81 0 -119.5 52t-27.5 136l35 290h122l-33 -273q-6 -46 13 -73.5t60 -27.5q43 0 73 37.5t38 85.5z" />
    <glyph glyph-name="Umacron" unicode="&#x16a;" horiz-adv-x="650" 
d="M266 710l11 84h301l-10 -84h-302zM542 660h126l-50 -401q-14 -121 -95 -193.5t-198 -72.5q-118 0 -181.5 72.5t-48.5 193.5l50 401h126l-49 -400q-9 -74 23 -115.5t94 -41.5q60 0 102 41.5t51 114.5z" />
    <glyph glyph-name="umacron" unicode="&#x16b;" horiz-adv-x="533" 
d="M494 663l-10 -84h-292l10 84h292zM413 472h122l-58 -472l-97 -4q-7 53 -3 96h-1q-52 -98 -155 -98q-81 0 -119.5 52t-27.5 136l35 290h122l-33 -273q-4 -30 3 -53t25 -35.5t45 -12.5q43 0 73 37.5t38 85.5z" />
    <glyph glyph-name="Ubreve" unicode="&#x16c;" horiz-adv-x="650" 
d="M565 826q-7 -58 -49.5 -96.5t-104.5 -38.5q-42 0 -71.5 18t-42.5 48.5t-8 68.5h88q-7 -57 42 -57q50 0 58 57h88zM542 660h126l-50 -401q-14 -121 -95 -193.5t-198 -72.5q-118 0 -181.5 72.5t-48.5 193.5l50 401h126l-49 -400q-9 -74 23 -115.5t94 -41.5q60 0 102 41.5
t51 114.5z" />
    <glyph glyph-name="ubreve" unicode="&#x16d;" horiz-adv-x="533" 
d="M331 537q-67 0 -101 42.5t-25 111.5h91q-9 -76 43 -76q53 0 62 76h92q-8 -68 -52 -111t-110 -43zM413 472h122l-58 -472l-97 -4q-7 53 -3 96h-1q-52 -98 -155 -98q-81 0 -119.5 52t-27.5 136l35 290h122l-33 -273q-4 -30 3 -53t25 -35.5t45 -12.5q43 0 73 37.5t38 85.5z
" />
    <glyph glyph-name="Uring" unicode="&#x16e;" horiz-adv-x="650" 
d="M409 679q-33 0 -56 23t-23 57q0 40 31 69t70 29q17 0 31.5 -6t25 -17t16.5 -25.5t6 -31.5q0 -40 -30.5 -69t-70.5 -29zM450 771q0 12 -7.5 19.5t-18.5 7.5q-13 0 -22.5 -10t-9.5 -23q0 -6 1.5 -11t5 -9t8 -6t10.5 -2q12 0 22.5 10t10.5 24zM542 660h126l-50 -401
q-14 -121 -95 -193.5t-198 -72.5q-118 0 -181.5 72.5t-48.5 193.5l50 401h126l-49 -400q-9 -74 23 -115.5t94 -41.5q60 0 102 41.5t51 114.5z" />
    <glyph glyph-name="uring" unicode="&#x16f;" horiz-adv-x="533" 
d="M329 525q-36 0 -60 24.5t-24 60.5q0 42 32.5 72.5t74.5 30.5q35 0 59 -24t24 -60q0 -43 -32 -73.5t-74 -30.5zM344 651q-14 0 -24.5 -10.5t-10.5 -25.5q0 -6 2 -11.5t5.5 -9t9 -6t11.5 -2.5q13 0 24 11t11 26q0 8 -4 14.5t-10 10t-14 3.5zM413 472h122l-58 -472l-97 -4
q-7 53 -3 96h-1q-52 -98 -155 -98q-81 0 -119.5 52t-27.5 136l35 290h122l-33 -273q-4 -30 3 -53t25 -35.5t45 -12.5q43 0 73 37.5t38 85.5z" />
    <glyph glyph-name="Uhungarumlaut" unicode="&#x170;" horiz-adv-x="650" 
d="M350 699l-101 -6l71 130h141zM536 699l-101 -6l72 130h141zM542 660h126l-50 -401q-14 -121 -95 -193.5t-198 -72.5q-118 0 -181.5 72.5t-48.5 193.5l50 401h126l-49 -400q-6 -49 7 -85t41 -54t69 -18q40 0 72.5 18t53.5 53.5t27 84.5z" />
    <glyph glyph-name="uhungarumlaut" unicode="&#x171;" horiz-adv-x="533" 
d="M395 703l-116 -160l-113 -5l76 165h153zM469 543l-112 -5l75 165h153zM382 221l31 251h122l-58 -472l-97 -4q-7 53 -3 96h-1q-52 -98 -155 -98q-81 0 -119.5 52t-27.5 136l35 290h122l-33 -273q-6 -46 13 -73.5t60 -27.5q43 0 73 37.5t38 85.5z" />
    <glyph glyph-name="Uogonek" unicode="&#x172;" horiz-adv-x="650" 
d="M542 660h126l-50 -401q-11 -96 -65.5 -162.5t-138.5 -90.5q-15 -8 -29 -17.5t-28.5 -30.5t-14.5 -45q0 -18 9 -27.5t25 -9.5q6 0 12.5 1.5t11.5 4.5t9.5 6t8 6t6 5.5t3.5 4.5l1 2l23 -60q-5 -5 -13 -12t-34 -18.5t-53 -11.5q-41 0 -65 23t-24 60q0 62 49 107
q-112 4 -171 76t-45 189l50 401h126l-49 -400q-9 -74 23 -115.5t94 -41.5q60 0 102 41.5t51 114.5z" />
    <glyph glyph-name="uogonek" unicode="&#x173;" horiz-adv-x="533" 
d="M428 -134q9 0 17.5 3t14.5 7.5t11 9t7 7.5l2 3l23 -60l-2.5 -2.5t-6.5 -6t-11 -8.5t-15 -8.5t-18 -8t-21.5 -6t-24.5 -2.5q-41 0 -65.5 23t-24.5 60q0 71 66 120q-7 52 -3 95h-1q-52 -98 -155 -98q-81 0 -119.5 52t-27.5 136l35 290h122l-33 -273q-4 -30 3 -53t25 -35.5
t45 -12.5q43 0 73 37.5t38 85.5l31 251h122l-58 -472q-4 -1 -9.5 -3.5t-19.5 -11t-25 -19t-20 -27.5t-9 -36q0 -18 9.5 -27.5t24.5 -9.5z" />
    <glyph glyph-name="Wcircumflex" unicode="&#x174;" horiz-adv-x="880" 
d="M611 832l75 -139l-95 4l-54 58l-68 -58l-94 -4l107 139h129zM826 660h127l-258 -660h-142l-46 370q-6 54 -6 107h-3q-17 -65 -32 -107l-141 -370h-142l-93 660h129l46 -454q1 -8 4 -38t4 -42h2q12 37 27 79l165 455h111l53 -455q5 -41 8 -79h3q3 9 7 22t10 30.5t9 27.5z
" />
    <glyph glyph-name="wcircumflex" unicode="&#x175;" horiz-adv-x="739" 
d="M447 620l-70 -79l-94 -3l110 163h128l72 -163l-95 3zM659 472h123l-190 -472h-140l-38 267q-4 24 -3 47h-2q-7 -29 -14 -47l-106 -267h-139l-79 472h127l34 -295q6 -55 6 -60h3q7 24 20 60l114 294l-1 1h111l40 -293q4 -26 6 -62h2q10 32 20 62z" />
    <glyph glyph-name="Ycircumflex" unicode="&#x176;" horiz-adv-x="567" 
d="M379 755l-68 -58l-94 -4l107 139h129l75 -139l-95 4zM642 660l-265 -417l-30 -243h-126l30 239l-165 421h136l84 -234q18 -51 21 -82h3q11 36 40 82l141 234h131z" />
    <glyph glyph-name="ycircumflex" unicode="&#x177;" horiz-adv-x="502" 
d="M162 538l111 163h128l72 -163l-95 3l-51 79l-70 -79zM428 472h123l-263 -541q-66 -140 -195 -140q-22 0 -42 4t-29 9l-9 4l31 95q22 -13 52 -13q54 0 87 61l14 30l-128 491h132l62 -295q7 -33 7 -60h2q7 21 22 60z" />
    <glyph glyph-name="Ydieresis" unicode="&#x178;" horiz-adv-x="567" 
d="M278 703q-15 0 -27.5 7t-19.5 20t-7 29q0 18 10 34t26 25.5t34 9.5q23 0 38.5 -16.5t15.5 -40.5q0 -28 -21 -48t-49 -20zM473 703q-15 0 -27.5 7t-19.5 20t-7 29q0 18 9.5 34t26 25.5t34.5 9.5q23 0 38.5 -16.5t15.5 -40.5q0 -28 -21 -48t-49 -20zM642 660l-265 -417
l-30 -243h-126l30 239l-165 421h136l84 -234q18 -51 21 -82h3q11 36 40 82l141 234h131z" />
    <glyph glyph-name="Zacute" unicode="&#x179;" horiz-adv-x="555" 
d="M412 699l-112 -6l71 130h153zM31 0l13 101l338 394q30 33 60 60l-2 4q-28 -3 -82 -3h-249l13 104h481l-13 -101l-335 -394q-23 -25 -63 -60l2 -4q16 3 82 3h255l-13 -104h-487z" />
    <glyph glyph-name="zacute" unicode="&#x17a;" horiz-adv-x="452" 
d="M337 543l-109 -5l75 164h149zM30 0l12 90l257 262q24 24 27 26l-1 3q-15 -3 -50 -3h-192l11 94h380l-11 -90l-245 -253q-18 -20 -34 -35l1 -3q14 3 49 3h200l-11 -94h-393z" />
    <glyph glyph-name="Zdotaccent" unicode="&#x17b;" horiz-adv-x="555" 
d="M363 694q-19 0 -34 8t-23.5 23t-8.5 34q0 34 25 57.5t59 23.5q29 0 48.5 -18.5t19.5 -47.5q0 -34 -25.5 -57t-60.5 -23zM31 0l13 101l338 394q30 33 60 60l-2 4q-28 -3 -82 -3h-249l13 104h481l-13 -101l-335 -394q-23 -25 -63 -60l2 -4q16 3 82 3h255l-13 -104h-487z
" />
    <glyph glyph-name="zdotaccent" unicode="&#x17c;" horiz-adv-x="452" 
d="M390 632q0 -18 -7.5 -34t-20 -27t-29 -17.5t-34.5 -6.5q-19 0 -35 8.5t-25.5 24.5t-9.5 35q0 36 27 61t63 25q31 0 51 -19.5t20 -49.5zM30 0l12 90l257 262q24 24 27 26l-1 3q-15 -3 -50 -3h-192l11 94h380l-11 -90l-245 -253q-18 -20 -34 -35l1 -3q14 3 49 3h200
l-11 -94h-393z" />
    <glyph glyph-name="Zcaron" unicode="&#x17d;" horiz-adv-x="555" 
d="M228 837l93 -3l54 -59l68 59l96 3l-109 -139h-129zM31 0l13 101l338 394q30 33 60 60l-2 4q-28 -3 -82 -3h-249l13 104h481l-13 -101l-335 -394q-23 -25 -63 -60l2 -4q16 3 82 3h255l-13 -104h-487z" />
    <glyph glyph-name="zcaron" unicode="&#x17e;" horiz-adv-x="452" 
d="M164 701l93 -4l52 -79l70 79l96 4l-111 -163h-128zM30 0l12 90l257 262q24 24 27 26l-1 3q-15 -3 -50 -3h-192l11 94h380l-11 -90l-245 -253q-18 -20 -34 -35l1 -3q14 3 49 3h200l-11 -94h-393z" />
    <glyph glyph-name="uni01EA" unicode="&#x1ea;" horiz-adv-x="687" 
d="M417 1q-69 -34 -69 -91q0 -12 4 -20.5t12 -12.5t18 -4q6 0 12.5 1.5t11.5 4t9.5 6t8 6.5t6 5.5t3.5 4.5l1 2l23 -60l-2.5 -2.5t-7 -6t-11 -8.5t-14.5 -8.5t-18.5 -8t-21.5 -6t-25 -2.5q-41 0 -65 23t-24 60q0 64 54 110q-113 7 -180 85t-67 206q0 171 99.5 276.5
t250.5 105.5q122 0 195 -79t73 -212q0 -99 -35.5 -179t-97.5 -130t-143 -66zM203 294q0 -88 42 -139.5t111 -51.5q25 0 48.5 6t44 18t38.5 29t32.5 39.5t24.5 48.5t15.5 57.5t5.5 65.5q0 88 -42 139t-112 51q-88 0 -148 -72.5t-60 -190.5z" />
    <glyph glyph-name="uni01EB" unicode="&#x1eb;" horiz-adv-x="537" 
d="M348 5q-64 -34 -64 -89q0 -17 9.5 -27t24.5 -10q6 0 12.5 2t11.5 4.5t10 5.5t8 6.5t5.5 6l3.5 3.5l1 2l23 -60l-2.5 -2.5t-6.5 -5.5t-11 -8t-15 -9t-18 -8.5t-21.5 -5.5t-24.5 -2q-27 0 -47.5 10t-31.5 29t-11 43q0 60 47 104q-59 4 -103 31.5t-67 73.5t-23 106
q0 118 76 195.5t193 77.5q96 0 152.5 -59t56.5 -154q0 -96 -51 -166t-137 -94zM183 213q0 -54 25.5 -86.5t71.5 -32.5q59 0 96 46t37 118q0 26 -6.5 48t-19 38t-31 25t-41.5 9q-58 0 -95 -47t-37 -118z" />
    <glyph glyph-name="AEacute" unicode="&#x1fc;" horiz-adv-x="948" 
d="M759 823l-112 -124l-112 -6l71 130h153zM933 556h-287l-21 -168h250l-12 -100h-250l-23 -184h287l-12 -104h-414l19 148h-238l-118 -148h-130l530 660h432zM310 245h171l32 253z" />
    <glyph glyph-name="aeacute" unicode="&#x1fd;" horiz-adv-x="798" 
d="M616 702l-115 -159l-109 -5l75 164h149zM615 478q87 0 135 -53t48 -139q0 -20 -3 -39.5t-6 -29.5l-3 -10h-312q2 -35 15.5 -61.5t40 -41.5t63.5 -15q74 0 126 56l52 -67q-30 -37 -83 -60.5t-120 -23.5q-130 0 -178 97h-6q-61 -97 -198 -97q-67 0 -103 31t-36 83
q0 46 21.5 78.5t62.5 51t95.5 27t127.5 8.5h8l3 23q5 41 -15 64.5t-63 23.5t-67 -18t-24 -48q0 -11 2 -17l-110 -18q-2 12 -2 28q0 75 59.5 121t157.5 46q97 0 144 -64q67 64 168 64zM604 383q-44 0 -77 -28.5t-46 -78.5h204q1 6 1 13q0 28 -9.5 49t-28 33t-44.5 12zM230 87
q48 0 82 25.5t38 58.5l4 35h-8q-93 0 -135.5 -18t-42.5 -57q0 -21 16 -32.5t46 -11.5z" />
    <glyph glyph-name="Oslashacute" unicode="&#x1fe;" horiz-adv-x="687" 
d="M586 822l-112 -125l-112 -5l71 130h153zM711 688l-83 -110q65 -78 65 -202q0 -172 -99.5 -277t-251.5 -105q-73 0 -130 29l-50 -67h-106l89 119q-70 79 -70 210q0 171 99.5 276.5t250.5 105.5q78 0 138 -34l42 55h106zM203 294q0 -65 23 -111l264 352q-34 22 -79 22
q-88 0 -148 -72.5t-60 -190.5zM565 367q0 58 -19 101l-261 -348q31 -17 71 -17q58 0 105.5 32t75.5 92.5t28 139.5z" />
    <glyph glyph-name="oslashacute" unicode="&#x1ff;" horiz-adv-x="537" 
d="M493 702l-116 -159l-109 -5l76 164h149zM475 424q61 -59 61 -159q0 -118 -75.5 -194.5t-193.5 -76.5q-54 0 -97 20l-31 -42h-76l56 75q-61 58 -61 158q0 118 76 195.5t193 77.5q55 0 99 -21l28 39h75zM183 213q0 -37 12 -64l164 219q-20 10 -44 10q-58 0 -95 -47
t-37 -118zM280 94q59 0 96 46t37 118q0 37 -13 65l-163 -219q19 -10 43 -10z" />
    <glyph glyph-name="Scommaaccent" unicode="&#x218;" horiz-adv-x="546" 
d="M448 469q2 33 -24 62.5t-80 29.5q-49 0 -79 -24t-30 -64q0 -20 13 -35.5t33.5 -25t47.5 -19.5t55 -19t54.5 -24t47.5 -33.5t34 -48.5t13 -68q0 -92 -69.5 -149.5t-193.5 -57.5q-84 0 -145 27t-94 61l87 92q26 -28 69 -52t99 -24q58 0 89 22.5t31 62.5q0 23 -13 40.5
t-34 28t-48 21t-55 19t-54.5 22.5t-47.5 31t-34 45t-13 63q0 92 70.5 153.5t177.5 61.5q41 0 74 -8t55 -22t37.5 -30.5t24.5 -37t13.5 -37.5t5.5 -35zM192 -114q0 30 22.5 52.5t52.5 22.5q26 0 44 -17.5t18 -49.5q0 -36 -12.5 -67t-30 -50t-35 -32.5t-29.5 -18.5l-13 -5
l-23 48q1 0 3 1.5t8.5 5t12.5 7t13 9t12.5 11t9.5 11.5t5 12q-25 0 -41.5 17t-16.5 43z" />
    <glyph glyph-name="scommaaccent" unicode="&#x219;" horiz-adv-x="459" 
d="M343 306q6 12 6 27q0 27 -19 43t-52 16q-37 0 -58 -16.5t-21 -43.5q0 -20 18 -33t45 -18.5t58.5 -14.5t58.5 -20t45 -36t18 -62q0 -70 -58 -112t-155 -42q-46 0 -83.5 8.5t-61.5 22t-35 22.5t-19 18l69 75q13 -15 53 -36t84 -21q40 0 60.5 13t20.5 36q0 17 -17 29
t-43.5 18t-56.5 16t-56.5 22.5t-43.5 38t-17 60.5q0 72 58.5 117t151.5 45q75 0 121.5 -34t46.5 -88q0 -11 -2 -21.5t-5 -16.5l-2 -5zM151 -114q0 20 10 37.5t27 27.5t37 10q26 0 44 -17.5t18 -49.5q0 -26 -6.5 -50t-17 -41t-23.5 -31.5t-25.5 -23.5t-23 -15.5t-17.5 -8.5
l-6 -3l-24 48q7 3 17 8.5t28 21t20 27.5q-26 0 -42 17t-16 43z" />
    <glyph glyph-name="uni021A" unicode="&#x21a;" horiz-adv-x="538" 
d="M205 0l69 556h-194l12 104h515l-12 -104h-195l-69 -556h-126zM183 -114q0 30 22.5 52.5t52.5 22.5q26 0 44 -17.5t18 -49.5q0 -36 -12.5 -67t-30 -50t-35 -32.5t-29.5 -18.5l-12 -5l-24 48q7 3 17 8.5t28 21t19 27.5q-25 0 -41.5 17t-16.5 43z" />
    <glyph glyph-name="uni021B" unicode="&#x21b;" horiz-adv-x="402" 
d="M257 378l-22 -183q-4 -33 1.5 -55t21 -32.5t41.5 -10.5q21 0 40.5 6.5t28.5 13.5l10 6l23 -96q-1 0 -3 -1.5t-9.5 -5t-15 -6.5t-20 -7t-25 -6.5t-29.5 -4.5t-34 -2q-177 0 -153 197l23 187h-70l12 94h73l17 135l119 5l-17 -140h162l-12 -94h-162zM232 -39q17 0 31 -7.5
t22.5 -22.5t8.5 -37q0 -26 -6.5 -50t-17 -41t-23 -31.5t-25.5 -23.5t-23.5 -15.5t-16.5 -8.5l-7 -3l-24 48q7 3 17 8.5t28 21t20 27.5q-25 0 -41.5 17t-16.5 43q0 30 22.5 52.5t51.5 22.5z" />
    <glyph glyph-name="uni0237" unicode="&#x237;" horiz-adv-x="242" 
d="M-63 -94q15 -12 43 -12q71 0 81 90l61 488l122 4l-59 -484q-12 -95 -62.5 -148t-139.5 -53q-30 0 -53 7.5t-31 15.5l-8 7z" />
    <glyph glyph-name="circumflex" unicode="&#x2c6;" horiz-adv-x="360" 
d="M90 538l111 163h127l72 -163l-94 3l-52 79l-70 -79z" />
    <glyph glyph-name="caron" unicode="&#x2c7;" horiz-adv-x="340" 
d="M110 701l93 -4l51 -79l71 79l95 4l-110 -163h-128z" />
    <glyph glyph-name="breve" unicode="&#x2d8;" horiz-adv-x="333" 
d="M395 691q-8 -68 -51.5 -111t-110.5 -43t-100.5 42.5t-25.5 111.5h92q-9 -76 43 -76t61 76h92z" />
    <glyph glyph-name="dotaccent" unicode="&#x2d9;" horiz-adv-x="216" 
d="M265 632q0 -36 -27 -60.5t-63 -24.5q-20 0 -36 8.5t-25 24.5t-9 35q0 36 26.5 61t62.5 25q31 0 51 -19.5t20 -49.5z" />
    <glyph glyph-name="ring" unicode="&#x2da;" horiz-adv-x="266" 
d="M198 525q-36 0 -60 24.5t-24 60.5q0 42 32 72.5t75 30.5q17 0 32.5 -6.5t26.5 -17.5t17 -26.5t6 -33.5q0 -43 -32 -73.5t-73 -30.5zM240 623q0 12 -7.5 20t-19.5 8q-14 0 -24.5 -10.5t-10.5 -25.5q0 -6 2 -11.5t5.5 -9t8.5 -6t11 -2.5q14 0 24.5 11t10.5 26z" />
    <glyph glyph-name="ogonek" unicode="&#x2db;" horiz-adv-x="266" 
d="M206 -163q-5 -5 -13 -12t-34 -18.5t-53 -11.5q-41 0 -65 22.5t-24 59.5q0 25 8 47.5t21 38t29 29t32 21.5t29 14t21 8l8 3l14 -37q-3 -2 -8.5 -4t-20 -11t-25 -19t-19.5 -27.5t-9 -36.5q0 -11 4 -19.5t12 -12.5t18 -4q6 0 12.5 1.5t11.5 4t9.5 6t8 6.5t6 5.5t3.5 4.5l1 1
z" />
    <glyph glyph-name="tilde" unicode="&#x2dc;" horiz-adv-x="414" 
d="M457 694q1 -8 1 -18q0 -37 -13 -65.5t-39 -45t-61 -16.5q-25 0 -49.5 13.5t-44 26.5t-31.5 13q-16 0 -27 -11t-11 -33l1 -20h-82q-1 11 -1 25q0 51 32 85.5t81 34.5q30 0 56.5 -13t46.5 -26t31 -13q29 0 29 44l-1 19h82z" />
    <glyph glyph-name="hungarumlaut" unicode="&#x2dd;" horiz-adv-x="467" 
d="M213 543l-113 -5l76 165h153zM404 543l-113 -5l76 165h152z" />
    <glyph glyph-name="gravecomb" unicode="&#x300;" 
d="M-82 538l-76 164h150l36 -159z" />
    <glyph glyph-name="acutecomb" unicode="&#x301;" 
d="M-67 543l-109 -5l76 164h148z" />
    <glyph glyph-name="uni0302" unicode="&#x302;" 
d="M-270 538l111 163h127l72 -163l-94 3l-52 79l-70 -79z" />
    <glyph glyph-name="tildecomb" unicode="&#x303;" 
d="M45 694q1 -8 1 -18q0 -56 -30.5 -91.5t-83.5 -35.5q-25 0 -49.5 13.5t-44 26.5t-31.5 13q-16 0 -27 -11t-11 -33l2 -20h-83q-1 11 -1 25q0 51 32.5 85.5t80.5 34.5q30 0 57 -13t46.5 -26t30.5 -13q29 0 29 44l-1 19h83z" />
    <glyph glyph-name="uni0304" unicode="&#x304;" 
d="M-270 579l11 84h291l-10 -84h-292z" />
    <glyph glyph-name="uni0306" unicode="&#x306;" 
d="M62 691q-8 -68 -51.5 -111t-110.5 -43t-100.5 42.5t-25.5 111.5h92q-9 -76 43 -76t61 76h92z" />
    <glyph glyph-name="uni0307" unicode="&#x307;" 
d="M48 632q0 -36 -27 -60.5t-63 -24.5q-31 0 -50.5 19t-19.5 49q0 36 26.5 61t62.5 25q31 0 51 -19.5t20 -49.5z" />
    <glyph glyph-name="uni0308" unicode="&#x308;" 
d="M-211 557q-24 0 -40 16.5t-16 41.5q0 28 21.5 49.5t50.5 21.5q24 0 39.5 -17t15.5 -42q0 -28 -21 -49t-50 -21zM-17 557q-24 0 -40 16.5t-16 41.5q0 28 22 49.5t50 21.5q16 0 29 -8t20 -21t7 -29q0 -29 -21.5 -50t-50.5 -21z" />
    <glyph glyph-name="uni030A" unicode="&#x30a;" 
d="M-69 525q-35 0 -59 24.5t-24 60.5q0 42 32 72.5t74 30.5q35 0 59 -24t24 -60q0 -43 -32 -73.5t-74 -30.5zM-26 623q0 12 -8 20t-19 8q-14 0 -24.5 -10.5t-10.5 -25.5q0 -6 2 -11.5t5.5 -9t8.5 -6t11 -2.5q14 0 24.5 11t10.5 26z" />
    <glyph glyph-name="uni030B" unicode="&#x30b;" 
d="M-255 543l-112 -5l75 165h154zM-64 543l-113 -5l76 165h153z" />
    <glyph glyph-name="uni030C" unicode="&#x30c;" 
d="M-231 701l94 -4l51 -79l70 79l96 4l-111 -163h-128z" />
    <glyph glyph-name="uni0326" unicode="&#x326;" 
d="M-187 -114q0 15 6.5 29t16.5 24t23.5 16t28.5 6q26 0 44 -17.5t18 -49.5q0 -36 -12.5 -67t-30 -50t-35 -32.5t-29.5 -18.5l-13 -5l-23 48q7 3 17 8.5t27.5 21t19.5 27.5q-25 0 -41.5 17t-16.5 43z" />
    <glyph glyph-name="uni0327" unicode="&#x327;" 
d="M-111 -27q27 -4 46.5 -22.5t19.5 -51.5q0 -48 -35 -75t-84 -27q-28 0 -51.5 10t-32.5 20l-9 11l37 56q3 -3 7.5 -8t20.5 -12.5t34 -7.5q42 0 42 31q0 36 -80 36l43 81h65z" />
    <glyph glyph-name="uni0328" unicode="&#x328;" 
d="M-60 -163q-1 -2 -4 -5t-13 -10t-21 -12.5t-27.5 -10t-33.5 -4.5q-27 0 -47.5 10.5t-31.5 29t-11 42.5q0 35 15.5 64t37.5 46t43.5 29t37.5 17l15 5l14 -37q-3 -2 -9 -4t-20 -11t-25 -19t-20 -27.5t-9 -36.5q0 -11 4.5 -19.5t12 -12.5t17.5 -4q14 0 27.5 7.5t18.5 14.5
l6 7z" />
    <glyph glyph-name="uni0335" unicode="&#x335;" 
d="M-315 230h312l-9 -73h-312z" />
    <glyph glyph-name="uni0336" unicode="&#x336;" 
d="M-363 240h373l-10 -83h-373z" />
    <glyph glyph-name="uni0337" unicode="&#x337;" 
d="M-295 342l300 165l28 -65l-301 -165z" />
    <glyph glyph-name="uni0338" unicode="&#x338;" 
d="M-93 503h74l-390 -523h-75z" />
    <glyph glyph-name="Wgrave" unicode="&#x1e80;" horiz-adv-x="880" 
d="M476 693l-80 130h153l40 -124zM826 660h127l-258 -660h-142l-46 370q-6 54 -6 107h-3q-17 -65 -32 -107l-141 -370h-142l-93 660h129l46 -454q1 -11 2.5 -28t3 -30t2.5 -22h2q12 37 27 79l165 455h111l53 -455q5 -41 8 -79h3q3 9 7 22t10 30.5t9 27.5z" />
    <glyph glyph-name="wgrave" unicode="&#x1e81;" horiz-adv-x="739" 
d="M494 543l-110 -5l-76 164h150zM659 472h123l-190 -472h-140l-38 267q-4 24 -3 47h-2q-7 -29 -14 -47l-106 -267h-139l-79 472h127l34 -295q6 -55 6 -60h3q7 24 20 60l114 294l-1 1h111l40 -293q4 -26 6 -62h2q10 32 20 62z" />
    <glyph glyph-name="Wacute" unicode="&#x1e82;" horiz-adv-x="880" 
d="M577 699l-113 -6l72 130h153zM826 660h127l-258 -660h-142l-46 370q-6 54 -6 107h-3q-17 -65 -32 -107l-141 -370h-142l-93 660h129l46 -454q1 -8 4 -38t4 -42h2q12 37 27 79l165 455h111l53 -455q5 -41 8 -79h3q3 9 7 22t10 30.5t9 27.5z" />
    <glyph glyph-name="wacute" unicode="&#x1e83;" horiz-adv-x="739" 
d="M609 702l-115 -159l-109 -5l75 164h149zM659 472h123l-190 -472h-140l-38 267q-4 24 -3 47h-2q-7 -29 -14 -47l-106 -267h-139l-79 472h127l34 -295q6 -55 6 -60h3q7 24 20 60l114 294l-1 1h111l40 -293q4 -26 6 -62h2q10 32 20 62z" />
    <glyph glyph-name="Wdieresis" unicode="&#x1e84;" horiz-adv-x="880" 
d="M436 703q-15 0 -27.5 7t-19.5 20t-7 29q0 18 10 34t26 25.5t34 9.5q23 0 38.5 -16.5t15.5 -40.5q0 -28 -21 -48t-49 -20zM631 703q-15 0 -27.5 7t-19.5 20t-7 29q0 18 9.5 34t26 25.5t34.5 9.5q23 0 38.5 -16.5t15.5 -40.5q0 -28 -21 -48t-49 -20zM826 660h127l-258 -660
h-142l-46 370q-6 54 -6 107h-3q-17 -65 -32 -107l-141 -370h-142l-93 660h129l46 -454q1 -11 2.5 -28t3 -30t2.5 -22h2q12 37 27 79l165 455h111l53 -455q5 -41 8 -79h3q3 9 7 22t10 30.5t9 27.5z" />
    <glyph glyph-name="wdieresis" unicode="&#x1e85;" horiz-adv-x="739" 
d="M346 557q-24 0 -40 16.5t-16 41.5q0 28 21.5 49.5t50.5 21.5q24 0 39.5 -17t15.5 -42q0 -14 -5.5 -27t-15.5 -22.5t-23 -15t-27 -5.5zM540 557q-24 0 -40 16.5t-16 41.5q0 18 10 34.5t26.5 26.5t35.5 10q16 0 29 -8t20 -21t7 -29q0 -29 -21.5 -50t-50.5 -21zM659 472h123
l-190 -472h-140l-38 267q-4 24 -3 47h-3q-6 -29 -13 -47l-106 -267h-139l-79 472h127l34 -295q6 -55 6 -60h3q7 24 20 60l114 294l-1 1h111l40 -293q4 -26 6 -62h2q10 32 20 62z" />
    <glyph glyph-name="Ygrave" unicode="&#x1ef2;" horiz-adv-x="567" 
d="M431 699l-113 -6l-80 130h153zM642 660l-265 -417l-30 -243h-126l30 239l-165 421h136l84 -234q18 -50 21 -82h3q11 36 40 82l141 234h131z" />
    <glyph glyph-name="ygrave" unicode="&#x1ef3;" horiz-adv-x="502" 
d="M264 538l-76 164h150l36 -159zM428 472h123l-263 -541q-66 -140 -195 -140q-22 0 -42 4t-29 9l-9 4l31 95q22 -13 52 -13q54 0 87 61l14 30l-128 491h132l62 -295q7 -33 7 -60h2q7 21 22 60z" />
    <glyph glyph-name="uni1EF8" unicode="&#x1ef8;" horiz-adv-x="567" 
d="M289 684h-82q-2 10 -2 25q0 51 31.5 82t80.5 31q31 0 57.5 -13t46 -26t30.5 -13q29 0 29 44l-1 19h83v-18q0 -57 -30 -92t-81 -35q-25 0 -50.5 13t-45.5 26.5t-33 13.5q-10 0 -18 -4.5t-13 -13.5t-5 -21zM642 660l-265 -417l-30 -243h-126l30 239l-165 421h136l84 -234
q18 -50 21 -82h3q11 36 40 82l141 234h131z" />
    <glyph glyph-name="uni1EF9" unicode="&#x1ef9;" horiz-adv-x="502" 
d="M494 694q1 -8 1 -18q0 -37 -13 -65.5t-39 -45t-61 -16.5q-25 0 -49.5 13.5t-44 26.5t-31.5 13q-17 0 -27.5 -11t-10.5 -33l1 -20h-82q-1 11 -1 25q0 51 32 85.5t81 34.5q29 0 56 -13t46.5 -26t31.5 -13q29 0 29 44l-2 19h83zM428 472h123l-263 -541q-66 -140 -195 -140
q-22 0 -42 4t-29 9l-9 4l31 95q22 -13 52 -13q54 0 87 61l14 30l-128 491h132l62 -295q7 -33 7 -60h2q7 21 22 60z" />
    <glyph glyph-name="endash" unicode="&#x2013;" horiz-adv-x="454" 
d="M74 229l12 86h361l-11 -86h-362z" />
    <glyph glyph-name="emdash" unicode="&#x2014;" horiz-adv-x="700" 
d="M74 229l12 86h607l-11 -86h-608z" />
    <glyph glyph-name="quoteleft" unicode="&#x2018;" horiz-adv-x="233" 
d="M244 445q0 -34 -22.5 -55.5t-58.5 -21.5q-32 0 -52.5 21t-20.5 58q0 31 7.5 60t20 50t27 39.5t29.5 31t27 21.5t20 13l8 4l37 -56q-2 -1 -4.5 -3t-11 -7.5t-16.5 -12t-17.5 -16t-17 -19.5t-13 -22t-6.5 -24q18 0 33 -8t23 -22t8 -31z" />
    <glyph glyph-name="quoteright" unicode="&#x2019;" horiz-adv-x="231" 
d="M116 590q0 17 6 31t16.5 24.5t26 16t33.5 5.5q20 0 36.5 -8.5t26 -27t9.5 -43.5q0 -31 -7.5 -60t-19.5 -50t-27 -39.5t-29.5 -31t-27 -21.5t-20.5 -13l-7 -4l-38 56q4 2 9 5.5t19.5 14.5t25.5 22.5t21 28.5t12 33q-28 0 -46.5 17t-18.5 44z" />
    <glyph glyph-name="quotesinglbase" unicode="&#x201a;" horiz-adv-x="237" 
d="M48 55q0 34 22.5 55.5t59.5 21.5q15 0 28 -5t23 -15t15.5 -25t5.5 -34q0 -43 -14 -81t-34.5 -62t-41 -42t-34.5 -26l-14 -8l-38 56l5 2.5t11 7.5t16 12.5t17.5 16t17 19.5t13 22t7.5 24q-29 0 -47 17t-18 44z" />
    <glyph glyph-name="quotedblleft" unicode="&#x201c;" horiz-adv-x="419" 
d="M192 447q0 -34 -22.5 -56t-59.5 -22q-31 0 -51.5 21t-20.5 59q0 31 7.5 59.5t19.5 50t27 40t30 31t27 21t20 12.5l7 4l38 -55q-4 -2 -9 -5.5t-19 -14.5t-25.5 -22.5t-21.5 -28.5t-12 -33q19 0 34 -8t23 -22t8 -31zM369 447q0 -34 -22.5 -56t-58.5 -22q-32 0 -52.5 21
t-20.5 59q0 42 14.5 80.5t34.5 62.5t40.5 42t34.5 26l15 7l37 -55q-1 -1 -3 -2t-7.5 -4.5t-10.5 -7.5t-12.5 -10.5t-14 -12.5t-13.5 -14t-12 -16.5t-8.5 -18t-4.5 -18.5q18 0 33 -8t23 -22t8 -31z" />
    <glyph glyph-name="quotedblright" unicode="&#x201d;" horiz-adv-x="416" 
d="M197 667q31 0 51.5 -21t20.5 -58q0 -43 -14.5 -81t-34.5 -62t-40.5 -42t-34.5 -26l-14 -8l-38 56q1 1 3 2t7.5 4.5t11 7.5t12.5 10t13.5 12.5t13.5 14.5t12 16t9 18t5 19q-29 0 -47 17t-18 44q0 34 22.5 55.5t59.5 21.5zM383 667q31 0 51.5 -21t20.5 -58q0 -43 -14 -81
t-34.5 -62t-40.5 -42t-35 -26l-14 -8l-38 56q4 2 9 5.5t19.5 14.5t25.5 22.5t21 28.5t12 33q-28 0 -46.5 17t-18.5 44q0 34 22.5 55.5t59.5 21.5z" />
    <glyph glyph-name="quotedblbase" unicode="&#x201e;" horiz-adv-x="427" 
d="M48 55q0 34 22.5 55.5t59.5 21.5q15 0 28 -5t23 -15t15.5 -25t5.5 -34q0 -43 -14 -81t-34.5 -62t-41 -42t-34.5 -26l-14 -8l-38 56l5 2.5t11 7.5t16 12.5t17.5 16t17 19.5t13 22t7.5 24q-29 0 -47 17t-18 44zM242 55q0 34 23 55.5t59 21.5q32 0 52.5 -21t20.5 -58
q0 -43 -14.5 -81t-34.5 -62t-40.5 -42t-34.5 -26l-15 -8l-37 56q3 2 8.5 5.5t19.5 14.5t25 22.5t21 28.5t12 33q-28 0 -46.5 17t-18.5 44z" />
    <glyph glyph-name="dagger" unicode="&#x2020;" horiz-adv-x="394" 
d="M409 472l-10 -85l-111 4l-24 -169l-43 -426h-99l61 426l17 169l-111 -4l10 85l110 -4l20 190h98l-27 -190z" />
    <glyph glyph-name="daggerdbl" unicode="&#x2021;" horiz-adv-x="394" 
d="M398 383l-110 4l-22 -149l-15 -153l112 5l-10 -83l-111 4l-21 -215h-99l32 215l-111 -4l10 83l110 -5l22 153l15 149l-112 -4l11 85l111 -4l18 196h99l-30 -196l112 4z" />
    <glyph glyph-name="bullet" unicode="&#x2022;" horiz-adv-x="360" 
d="M336 302q0 -54 -41 -94t-95 -40q-45 0 -75 31.5t-30 77.5q0 54 40.5 94.5t94.5 40.5q45 0 75.5 -32t30.5 -78z" />
    <glyph glyph-name="ellipsis" unicode="&#x2026;" horiz-adv-x="617" 
d="M47 58q0 32 24 56t57 24q27 0 45 -19t18 -46q0 -32 -24.5 -55.5t-56.5 -23.5q-27 0 -45 18.5t-18 45.5zM245 58q0 32 24 56t57 24q26 0 44 -19t18 -46q0 -32 -24.5 -55.5t-56.5 -23.5q-27 0 -44.5 18.5t-17.5 45.5zM443 58q0 32 24 56t57 24q26 0 44 -19t18 -46
q0 -32 -24.5 -55.5t-56.5 -23.5q-27 0 -44.5 18.5t-17.5 45.5z" />
    <glyph glyph-name="perthousand" unicode="&#x2030;" horiz-adv-x="1253" 
d="M244 0l373 667h101l-372 -667h-102zM233 290q-69 0 -110 43.5t-41 115.5q0 94 55.5 154t141.5 60q70 0 111 -44.5t41 -118.5q0 -93 -56 -151.5t-142 -58.5zM244 381q38 0 62 30.5t24 79.5q0 36 -16.5 58t-45.5 22q-36 0 -60.5 -31.5t-24.5 -79.5q0 -36 16.5 -57.5
t44.5 -21.5zM674 -4q-71 0 -111.5 43.5t-40.5 115.5q0 94 55.5 154t141.5 60q70 0 111 -44.5t41 -118.5q0 -93 -56 -151.5t-141 -58.5zM1054 -4q-69 0 -110 43.5t-41 115.5q0 62 25.5 111t70 76t101.5 27q46 0 80.5 -20.5t52.5 -57t18 -85.5q0 -93 -55.5 -151.5
t-141.5 -58.5zM684 87q37 0 61.5 30.5t24.5 78.5q0 37 -16.5 59t-45.5 22q-36 0 -60.5 -31.5t-24.5 -79.5q0 -24 7 -41.5t21 -27.5t33 -10zM1065 87q38 0 61.5 30.5t23.5 79.5q0 18 -4 33t-12 25.5t-19.5 16t-26.5 5.5q-35 0 -59.5 -31.5t-24.5 -79.5q0 -36 16.5 -57.5
t44.5 -21.5z" />
    <glyph glyph-name="guilsinglleft" unicode="&#x2039;" horiz-adv-x="281" 
d="M62 217l11 95l168 138l50 -65l-144 -121l115 -120l-67 -66z" />
    <glyph glyph-name="guilsinglright" unicode="&#x203a;" horiz-adv-x="281" 
d="M105 78l-50 66l143 120l-114 121l67 65l134 -138l-12 -95z" />
    <glyph glyph-name="fraction" unicode="&#x2044;" horiz-adv-x="337" 
d="M6 0l300 726h115l-299 -726h-116z" />
    <glyph glyph-name="Euro" unicode="&#x20ac;" horiz-adv-x="692" 
d="M432 103q30 0 57.5 7.5t49.5 21t39 28t30 31.5l65 -78q-13 -17 -33.5 -35t-52.5 -38.5t-77 -33.5t-94 -13q-105 0 -173.5 61t-84.5 169h-101l26 75h72q1 32 6 63h-87l26 75h79q25 72 72.5 124t111 79.5t136.5 27.5q34 0 64 -6.5t53 -17t41.5 -23t32.5 -26.5t22.5 -25.5
t14.5 -22.5l-85 -77q-20 36 -58 62t-94 26q-53 0 -102 -30.5t-77 -90.5h241l-25 -75h-239q-5 -30 -6 -63h226l-26 -75h-192q15 -60 54.5 -90t87.5 -30z" />
    <glyph glyph-name="trademark" unicode="&#x2122;" horiz-adv-x="684" 
d="M111 660h247l-8 -66h-86l-26 -211h-75l27 211h-87zM624 660h81l-34 -277h-70l21 152l-83 -152h-53l-42 152l-17 -152h-71l34 277h83l53 -179z" />
    <glyph glyph-name="minus" unicode="&#x2212;" horiz-adv-x="474" 
d="M80 201l10 82h363l-10 -82h-363z" />
    <glyph glyph-name="uni2215" unicode="&#x2215;" horiz-adv-x="405" 
d="M-1 0l384 726h115l-383 -726h-116z" />
    <glyph glyph-name="uni2219" unicode="&#x2219;" horiz-adv-x="322" 
d="M188 216q-23 0 -38 15.5t-15 38.5q0 27 20.5 47t47.5 20q11 0 21 -4t16.5 -11.5t10.5 -17.5t4 -21q0 -28 -20 -47.5t-47 -19.5z" />
    <glyph glyph-name="approxequal" unicode="&#x2248;" horiz-adv-x="530" 
d="M91 274l10 82q48 33 110 33q40 0 99.5 -20t99.5 -20q25 0 56.5 8t53.5 22l-11 -82q-50 -33 -109 -33q-41 0 -100 20t-100 20q-24 0 -55.5 -7.5t-53.5 -22.5zM70 102l10 82q48 33 110 33q40 0 99 -20t100 -20q25 0 56 7.5t53 22.5l-10 -82q-51 -33 -109 -33q-41 0 -100 20
t-100 20q-24 0 -55.5 -8t-53.5 -22z" />
    <glyph glyph-name="notequal" unicode="&#x2260;" horiz-adv-x="487" 
d="M470 301h-134l-49 -120h167l-9 -81h-191l-41 -100h-75l41 100h-112l10 81h136l49 120h-170l10 82h193l37 89h74l-37 -89h111z" />
    <glyph glyph-name="uniF8FF" unicode="&#xf8ff;" horiz-adv-x="1468" 
d="M725 583q0 26 17.5 44t43.5 18t44 -18t18 -44t-18 -43.5t-44 -17.5t-43.5 18t-17.5 43zM253 270h-119q0 134 9 314h100q10 -200 10 -314zM728 270q0 92 3 147h-61l3 -65q4 -4 15 -4q13 0 18 5v-74q-14 -15 -68 -15q-82 0 -82 66q0 12 2 49t2 38h-22v79l119 30l1 -17h178
q10 -64 10 -239h-118zM362 265q-92 0 -92 114q0 135 134 135q124 0 124 -117v-127h-83l-8 61q-6 -33 -23.5 -49.5t-51.5 -16.5zM1124 270h-114q0 26 1 56t1 37q0 29 -15 29q-18 0 -18 -29q0 -7 1.5 -37t1.5 -56h-114q0 175 10 239h80q6 -44 6 -76q2 15 6.5 30t24 33t49.5 18
q42 0 58.5 -25t18.5 -81zM1385 391q0 -126 -123 -126q-122 0 -122 124q0 125 124 125q121 0 121 -123zM424 375q0 26 -24 26q-22 0 -22 -26q0 -30 22 -30q24 0 24 30zM1285 375q0 26 -23 26q-21 0 -21 -26q0 -30 21 -30q23 0 23 30zM462 238h104q10 -52 10 -138
q0 -81 -33.5 -115.5t-118.5 -34.5q-61 0 -88 17v83q24 -16 70 -16q21 0 34 6t16.5 11.5t3.5 10.5q-17 -11 -49 -11q-90 0 -90 83v13h-55l3 -65q6 -4 15 -4q13 0 18 5v-73q-19 -15 -68 -15q-45 0 -63 17t-18 54q0 39 3 81h-18v80l117 29l-1 -18h177v-119q0 -16 3 -21.5
t12 -5.5q16 0 16 27v119zM767 243q37 0 58.5 -29t21.5 -84q0 -135 -137 -135q1 -15 1 -39h-119q0 142 10 282h78q7 -42 7 -76q17 81 80 81zM1104 127q0 -21 -3 -35h-124q11 -18 50 -18q34 0 55 12v-75q-23 -16 -78 -16q-141 0 -141 122q0 59 32.5 92.5t92.5 33.5
q55 0 85.5 -30t30.5 -86zM1012 109q3 27 -17 27q-23 0 -23 -27h40zM704 72q5 0 12.5 2.5t16 11.5t8.5 23q0 23 -20 23q-22 0 -22 -31q0 -14 5 -29zM1108 13q0 -23 24 -23t24 23t-24 23t-24 -23zM1114 13q0 18 18 18t18 -18t-18 -18t-18 18zM1142 2l-6 9q7 0 7 7t-10 7h-11
v-23h5v9h5l4 -9h6zM1134 15h-7v6h7q4 0 4 -3t-4 -3z" />
    <glyph glyph-name="i.loclTRK" horiz-adv-x="235" 
d="M271 632q0 -36 -26.5 -60.5t-63.5 -24.5q-30 0 -50 19t-20 49q0 36 26.5 61t62.5 25q31 0 51 -19.5t20 -49.5zM57 0l58 472l122 4l-58 -476h-122z" />
    <glyph glyph-name="napostrophe.s001" horiz-adv-x="560" 
d="M146 655q0 -36 -11 -69.5t-27.5 -55t-32.5 -37.5t-27 -24l-12 -7l-27 49q6 5 16 12.5t27.5 28.5t20.5 39q-25 0 -41 16.5t-16 40.5q0 30 21 51t50 21q25 0 42 -17t17 -48zM525 94q9 0 18 3l-7 -96q-28 -7 -72 -7q-49 0 -70.5 26.5t-15.5 70.5l22 182q1 18 0 33.5t-6.5 28
t-14.5 21t-22 13.5t-30 5q-48 0 -79.5 -37t-39.5 -87l-31 -250h-121l58 472l95 4q7 -50 2 -103h4q54 105 162 105q81 0 119 -52t28 -136l-21 -170q-3 -26 22 -26z" />
    <glyph glyph-name="ncommaaccent.s001" horiz-adv-x="560" 
d="M525 95q9 0 18 2l-7 -96q-28 -7 -72 -7q-49 0 -70.5 26.5t-15.5 70.5l22 182q1 18 0 33.5t-6.5 28t-14.5 21t-22 13.5t-30 5q-48 0 -79.5 -37t-39.5 -87l-31 -250h-121l58 472l95 4q7 -50 2 -103h4q54 105 162 105q81 0 119 -52t28 -136l-21 -170q-3 -25 22 -25zM273 -39
q27 0 44.5 -17.5t17.5 -49.5q0 -36 -12 -67t-29.5 -50t-35 -32.5t-30.5 -18.5l-12 -5l-23 48q6 3 16.5 8.5t28 21t19.5 27.5q-25 0 -41.5 17t-16.5 43q0 30 22.5 52.5t51.5 22.5z" />
    <glyph glyph-name="uni0306.case.001" 
d="M54 671q-7 -58 -49 -96.5t-105 -38.5t-96 38.5t-26 96.5h88q-7 -57 43 -57t57 57h88z" />
    <glyph glyph-name="caroncomb.alt" 
d="M-112 376q0 29 21.5 50t50.5 21q16 0 29 -7t21.5 -22t8.5 -36q0 -26 -6 -51t-16 -43.5t-21.5 -35t-23.5 -28t-21.5 -19.5t-15.5 -12l-6 -4l-28 49q7 5 17 12.5t27.5 29t19.5 38.5q-24 0 -40.5 16.5t-16.5 41.5z" />
    <glyph glyph-name="acutecomb.case" 
d="M-68 543l-113 -5l71 130h154z" />
    <glyph glyph-name="uni0306.case" 
d="M54 671q-7 -58 -49 -96.5t-105 -38.5t-96 38.5t-26 96.5h88q-7 -57 43 -57t57 57h88z" />
    <glyph glyph-name="uni030C.case" 
d="M-252 682l93 -4l54 -59l67 59l96 4l-108 -139h-129z" />
    <glyph glyph-name="uni0302.case" 
d="M-34 677l74 -139l-94 3l-54 59l-68 -59l-94 -3l107 139h129z" />
    <glyph glyph-name="uni0308.case" 
d="M-212 547q-16 0 -28.5 7.5t-19.5 20.5t-7 29q0 27 21.5 48t48.5 21q15 0 27.5 -7.5t19.5 -21t7 -28.5q0 -28 -21 -48.5t-48 -20.5zM-18 547q-15 0 -27.5 7.5t-19.5 20.5t-7 29q0 27 21.5 48t48.5 21q24 0 39 -16.5t15 -40.5q0 -28 -20.5 -48.5t-49.5 -20.5z" />
    <glyph glyph-name="uni0307.case" 
d="M-43 538q-28 0 -47 18.5t-19 47.5q0 22 11.5 41t31 29.5t41.5 10.5q29 0 48.5 -19t19.5 -47q0 -34 -25.5 -57.5t-60.5 -23.5z" />
    <glyph glyph-name="gravecomb.case" 
d="M-82 538l-80 130h153l41 -125z" />
    <glyph glyph-name="uni030B.case" 
d="M-222 543l-101 -5l71 130h141zM-36 543l-101 -5l72 130h141z" />
    <glyph glyph-name="uni0304.case" 
d="M-278 554l10 85h302l-10 -85h-302z" />
    <glyph glyph-name="uni030A.case" 
d="M-69 524q-34 0 -56.5 23t-22.5 57q0 40 30.5 69t70.5 29q33 0 56 -23t23 -57q0 -40 -31 -69t-70 -29zM-29 616q0 12 -7 19.5t-18 7.5q-14 0 -23.5 -10t-9.5 -23t7 -20.5t18 -7.5q13 0 23 10t10 24z" />
    <glyph glyph-name="uni0338.case" 
d="M135 716l-549 -732h-106l549 732h106z" />
    <glyph glyph-name="uni0337.case" 
d="M-375 340l378 209l34 -72l-379 -209z" />
    <glyph glyph-name="tildecomb.case" 
d="M42 672q1 -8 1 -18q0 -56 -30 -91.5t-81 -35.5q-21 0 -41 8.5t-33.5 18.5t-29 18t-26.5 8q-7 0 -13.5 -2.5t-11.5 -7.5t-7.5 -12.5t-2.5 -16.5l2 -18h-82q-2 10 -2 25q0 52 31.5 82.5t81.5 30.5q30 0 57 -13t46 -26t30 -13q30 0 30 44l-1 19h82z" />
    <glyph glyph-name="caron.alt" horiz-adv-x="186" 
d="M204 384q0 -35 -11.5 -64t-28 -45.5t-33 -28t-28.5 -15.5l-11 -4l-23 46q6 2 15.5 6t26.5 15.5t19 23.5q-24 0 -40 16.5t-16 41.5q0 29 21.5 50t49.5 21q25 0 42 -16.5t17 -46.5z" />
    <glyph glyph-name="acute.case" horiz-adv-x="281" 
d="M213 543l-113 -5l72 130h153z" />
    <glyph glyph-name="breve.case" horiz-adv-x="333" 
d="M387 671q-7 -58 -49.5 -96.5t-104.5 -38.5q-63 0 -96 38.5t-26 96.5h88q-7 -57 42 -57q50 0 58 57h88z" />
    <glyph glyph-name="caron.case" horiz-adv-x="352" 
d="M107 682l94 -4l54 -59l67 59l96 4l-108 -139h-129z" />
    <glyph glyph-name="circumflex.case" horiz-adv-x="360" 
d="M326 677l74 -139l-94 3l-54 59l-68 -59l-94 -3l107 139h129z" />
    <glyph glyph-name="dieresis.case" horiz-adv-x="367" 
d="M155 547q-15 0 -27.5 7.5t-20 20.5t-7.5 29q0 27 21.5 48t48.5 21q16 0 28.5 -7.5t19.5 -21t7 -28.5q0 -28 -21.5 -48.5t-48.5 -20.5zM350 547q-16 0 -28.5 7.5t-19.5 20.5t-7 29q0 27 21.5 48t48.5 21q24 0 39.5 -16.5t15.5 -40.5q0 -14 -6 -26.5t-15.5 -22t-22 -15
t-26.5 -5.5z" />
    <glyph glyph-name="dotaccent.case" horiz-adv-x="216" 
d="M173 538q-18 0 -33 8.5t-24 23.5t-9 34q0 22 12 41t31 29.5t42 10.5q29 0 48.5 -19t19.5 -47q0 -23 -12.5 -41.5t-32 -29t-42.5 -10.5z" />
    <glyph glyph-name="grave.case" horiz-adv-x="281" 
d="M199 538l-80 130h153l40 -125z" />
    <glyph glyph-name="hungarumlaut.case" horiz-adv-x="428" 
d="M206 543l-100 -5l71 130h141zM392 543l-100 -5l72 130h140z" />
    <glyph glyph-name="macron.case" horiz-adv-x="391" 
d="M112 554l11 85h302l-11 -85h-302z" />
    <glyph glyph-name="ring.case" horiz-adv-x="266" 
d="M197 524q-33 0 -56 23t-23 57q0 40 30.5 69t70.5 29q16 0 31 -6.5t25.5 -17t16.5 -25.5t6 -31q0 -40 -31 -69t-70 -29zM237 616q0 12 -7 19.5t-18 7.5q-13 0 -23 -10t-10 -23t7 -20.5t18 -7.5q13 0 23 10t10 24z" />
    <glyph glyph-name="tilde.case" horiz-adv-x="414" 
d="M455 672q1 -8 1 -18q0 -56 -30 -91.5t-82 -35.5q-25 0 -50.5 13.5t-45.5 26.5t-33 13q-7 0 -13.5 -2.5t-11.5 -7.5t-7.5 -12.5t-2.5 -16.5l2 -18h-82q-2 10 -2 25q0 52 31.5 82.5t80.5 30.5q31 0 57.5 -13t46 -26t30.5 -13q29 0 29 44l-1 19h83z" />
    <glyph glyph-name="Rem" horiz-adv-x="490" 
 />
    <glyph glyph-name="IJacute" horiz-adv-x="751" 
d="M719 699l-113 -6l71 130h154zM263 698l-112 -6l71 130h153zM70 0l81 660h124l-81 -660h-124zM355 153q35 -49 87 -49q48 0 74 24t32 78l56 454h126l-55 -451q-13 -105 -78 -160t-167 -55q-98 0 -161 70z" />
    <glyph glyph-name="ijacute" horiz-adv-x="477" 
d="M476 539l-109 -6l75 164h149zM230 538l-108 -6l76 165h148zM57 0l58 472l122 4l-58 -476h-122zM172 -94q15 -12 43 -12q71 0 82 90l60 488l122 4l-59 -484q-12 -95 -62.5 -148t-139.5 -53q-30 0 -53 7.5t-31 15.5l-8 7z" />
    <glyph glyph-name="commaccent" horiz-adv-x="574" 
 />
    </font>
</defs>
</svg>
