<?xml version="1.0" standalone="no"?>
<!DOCTYPE svg PUBLIC "-//W3C//DTD SVG 1.1//EN" "http://www.w3.org/Graphics/SVG/1.1/DTD/svg11.dtd" >
<svg xmlns="http://www.w3.org/2000/svg" xmlns:xlink="http://www.w3.org/1999/xlink" version="1.1">
<metadata>
Created by FontForge 20201107 at Thu Jan 16 15:03:13 2014
 By Jimmy Wärting
Stabilized, developed and produced by Malou Verlomme &#38; Yoan De Roeck
</metadata>
<defs>
<font id="BritoTri-Regular" horiz-adv-x="645" >
  <font-face 
    font-family="Brito Tri"
    font-weight="400"
    font-stretch="normal"
    units-per-em="1000"
    panose-1="2 0 5 0 0 0 0 0 0 0"
    ascent="800"
    descent="-200"
    x-height="496"
    cap-height="684"
    bbox="-33 -287 1307 935"
    underline-thickness="80"
    underline-position="-100"
    stemh="84"
    stemv="95"
    unicode-range="U+0020-FB04"
  />
<missing-glyph horiz-adv-x="0" 
 />
    <glyph glyph-name="fi" unicode="fi" horiz-adv-x="601" 
d="M348 714v-78c-27 13 -54 19 -81 19c-40 0 -71 -13 -90 -33v-126h153v-70h-153v-426h-89v426h-50l50 71v155c34 43 95 78 172 78c32 0 59 -4 88 -16zM512 496v-496h-88v441l-30 55h118zM414 676c0 29 22 53 51 53c30 0 53 -24 53 -53s-23 -51 -53 -51c-29 0 -51 22 -51 51
z" />
    <glyph glyph-name="f_f_i" unicode="ffi" horiz-adv-x="936" 
d="M847 496v-496h-88v441l-31 55h119zM749 676c0 29 22 53 51 53c30 0 53 -24 53 -53s-23 -51 -53 -51c-29 0 -51 22 -51 51zM348 713v-78c-27 13 -54 19 -81 19c-40 0 -71 -13 -90 -33v-125h153v-70h-153v-426h-89v426h-50l50 71v154c34 43 95 78 172 78c32 0 59 -4 88 -16
zM683 714v-78c-27 13 -54 19 -81 19c-41 0 -71 -13 -91 -33v-126h154v-70h-154v-426h-88v652c34 43 95 78 172 78c32 0 59 -4 88 -16z" />
    <glyph glyph-name="fl" unicode="fl" horiz-adv-x="618" 
d="M348 714v-78c-27 13 -54 19 -81 19c-40 0 -71 -13 -90 -33v-126h153v-70h-153v-426h-89v426h-50l50 71v155c34 43 95 78 172 78c32 0 59 -4 88 -16zM559 -7c-107 0 -136 57 -136 143v583h88v-579c0 -52 18 -75 66 -75c5 0 10 0 17 1v-71c-13 -1 -24 -2 -35 -2z" />
    <glyph glyph-name="f_f_l" unicode="ffl" horiz-adv-x="952" 
d="M348 713v-78c-27 13 -54 19 -81 19c-40 0 -71 -13 -90 -33v-125h153v-70h-153v-426h-89v426h-50l50 71v154c34 43 95 78 172 78c32 0 59 -4 88 -16zM683 714v-78c-27 13 -54 19 -81 19c-41 0 -71 -13 -91 -33v-126h154v-70h-154v-426h-88v652c34 43 95 78 172 78
c32 0 59 -4 88 -16zM894 -7c-108 0 -137 57 -137 143v583h89v-579c0 -52 18 -75 65 -75c6 0 11 0 18 1v-71c-13 -1 -25 -2 -35 -2z" />
    <glyph glyph-name="ff" unicode="ff" horiz-adv-x="679" 
d="M348 713v-78c-27 13 -54 19 -81 19c-40 0 -71 -13 -90 -33v-125h153v-70h-153v-426h-89v426h-50l50 71v154c34 43 95 78 172 78c32 0 59 -4 88 -16zM683 714v-78c-27 13 -54 19 -81 19c-41 0 -71 -13 -91 -33v-126h154v-70h-154v-426h-88v652c34 43 95 78 172 78
c32 0 59 -4 88 -16z" />
    <glyph glyph-name=".notdef" horiz-adv-x="0" 
 />
    <glyph glyph-name="A" unicode="A" 
d="M314 142c-53 0 -100 9 -146 25l-64 -167h-91l244 628l-23 56h102l297 -684h-103l-72 169c-45 -18 -92 -27 -144 -27zM314 225c41 0 78 6 115 18l-123 288l-112 -287c39 -13 77 -19 120 -19z" />
    <glyph glyph-name="B" unicode="B" horiz-adv-x="593" 
d="M95 0v629l-31 55h210c149 0 224 -76 223 -181c0 -60 -43 -117 -83 -140c71 -23 125 -79 125 -167c0 -135 -97 -196 -253 -196h-191zM306 307h-116v-228h96c103 0 159 40 159 117c0 95 -91 111 -139 111zM276 607h-86v-221h130c48 23 80 60 80 112c1 66 -39 109 -124 109z
" />
    <glyph glyph-name="C" unicode="C" horiz-adv-x="568" 
d="M500 562l-61 45c-7 2 -20 3 -34 3c-149 0 -250 -118 -250 -262c0 -150 93 -274 244 -274c42 0 77 6 114 23v-88c-34 -14 -81 -20 -119 -20c-207 0 -339 155 -336 353c0 195 148 353 349 353c32 0 64 -4 93 -13v-120z" />
    <glyph glyph-name="D" unicode="D" horiz-adv-x="652" 
d="M95 0v629l-31 55h195c225 0 332 -128 332 -319c0 -146 -75 -277 -176 -365h-320zM259 604h-69v-524h179c73 68 124 171 124 285c0 143 -82 239 -234 239z" />
    <glyph glyph-name="E" unicode="E" horiz-adv-x="523" 
d="M473 84v-84h-383v630l-31 54h404v-83h-278v-210h234v-84h-234v-223h288z" />
    <glyph glyph-name="F" unicode="F" horiz-adv-x="518" 
d="M420 370v-83h-230v-287h-95v629l-31 55h409v-84h-283v-230h230z" />
    <glyph glyph-name="G" unicode="G" horiz-adv-x="628" 
d="M397 86h67v202h-132v84h227v-372h-162c-213 0 -342 149 -338 341c0 195 155 354 363 354c32 0 64 -4 93 -13v-120l-61 45c-7 2 -20 3 -34 3c-156 0 -264 -118 -264 -262c-1 -145 85 -262 241 -262z" />
    <glyph glyph-name="H" unicode="H" horiz-adv-x="673" 
d="M190 684v-299h293v299h95v-684h-95v302h-293v-302h-95v629l-31 55h126z" />
    <glyph glyph-name="I" unicode="I" horiz-adv-x="294" 
d="M195 684v-684h-95v629l-31 55h126z" />
    <glyph glyph-name="J" unicode="J" horiz-adv-x="363" 
d="M11 11l1 85c30 -15 60 -26 94 -26c43 0 73 22 73 91v465l-32 58h127v-523c0 -115 -52 -172 -165 -172c-35 0 -70 9 -98 22z" />
    <glyph glyph-name="K" unicode="K" horiz-adv-x="606" 
d="M190 684v-338l271 338h116l-244 -288c129 -77 212 -217 228 -396h-103c-19 145 -76 258 -184 325l-84 -99v-226h-95v629l-31 55h126z" />
    <glyph glyph-name="L" unicode="L" horiz-adv-x="480" 
d="M190 684v-600h264v-84h-359v629l-31 55h126z" />
    <glyph glyph-name="M" unicode="M" horiz-adv-x="782" 
d="M391 187l-207 324v-511h-89v627l-32 57h115l217 -352l208 352h84v-684h-92v513z" />
    <glyph glyph-name="N" unicode="N" horiz-adv-x="714" 
d="M619 24l-83 -35l-352 525v-514h-89v629l-31 55h112l354 -528v528h89v-660z" />
    <glyph glyph-name="O" unicode="O" horiz-adv-x="782" 
d="M391 74c133 0 237 118 237 262c0 145 -103 274 -239 274c-132 0 -234 -118 -234 -262s101 -274 236 -274zM391 -11c-190 0 -336 159 -333 353c0 194 150 353 333 353c185 0 334 -159 334 -353s-151 -353 -334 -353z" />
    <glyph glyph-name="P" unicode="P" horiz-adv-x="577" 
d="M95 629l-31 55h196c188 0 267 -98 267 -226c0 -176 -126 -234 -264 -234c-27 0 -52 1 -73 3v-227h-95v629zM259 605h-69v-295c25 -3 49 -4 71 -4c115 0 169 45 169 151c0 113 -81 148 -171 148z" />
    <glyph glyph-name="Q" unicode="Q" horiz-adv-x="782" 
d="M391 -11c-190 0 -336 159 -333 353c0 194 150 353 333 353c185 0 334 -159 334 -353c0 -102 -42 -195 -108 -259l51 -65l69 -23l-98 -77l-90 113c-47 -27 -101 -42 -158 -42zM391 74c37 0 72 9 104 26l-80 102l68 54l79 -102c41 47 66 111 66 182
c0 145 -103 274 -239 274c-132 0 -234 -118 -234 -262s101 -274 236 -274z" />
    <glyph glyph-name="R" unicode="R" horiz-adv-x="600" 
d="M95 629l-31 55h196c187 0 265 -89 265 -205c0 -78 -42 -141 -104 -182l154 -297h-107l-130 263h-148v-263h-95v629zM259 605h-69v-262h139c51 19 99 70 99 135c0 97 -79 127 -169 127z" />
    <glyph glyph-name="S" unicode="S" horiz-adv-x="538" 
d="M38 83l48 74c53 -53 107 -79 170 -79c59 0 113 33 130 82l-335 334c19 108 103 201 241 201c78 0 133 -20 196 -66l-47 -110l-34 62c-33 18 -67 32 -115 32c-71 0 -117 -43 -132 -89l341 -340c-20 -95 -99 -195 -247 -195c-91 0 -162 35 -216 94z" />
    <glyph glyph-name="T" unicode="T" horiz-adv-x="549" 
d="M73 600l-60 -41v125h486v-84h-216v-477c21 -28 60 -48 109 -48c33 0 61 7 97 25v-87c-32 -15 -71 -24 -105 -24c-106 0 -167 55 -196 102v509h-115z" />
    <glyph glyph-name="U" unicode="U" horiz-adv-x="655" 
d="M393 0c-232 0 -312 102 -312 343c0 42 3 88 7 139l14 151l-29 51h127l-17 -202c-4 -47 -6 -89 -6 -139c0 -190 61 -259 216 -259h72v600h96v-684h-168z" />
    <glyph glyph-name="V" unicode="V" horiz-adv-x="602" 
d="M589 684l-227 -684h-95l-254 684h104l200 -567l156 525l-18 42h134z" />
    <glyph glyph-name="W" unicode="W" horiz-adv-x="908" 
d="M887 684l-212 -684h-94l-101 328l-106 -328h-96l-257 684h101l209 -579l108 353l-69 226h96l167 -572l141 525l-17 47h130z" />
    <glyph glyph-name="X" unicode="X" horiz-adv-x="634" 
d="M40 684h115l167 -265l146 225l-19 40h150l-224 -333l234 -351h-115l-178 281l-186 -281h-105l238 349z" />
    <glyph glyph-name="Y" unicode="Y" horiz-adv-x="584" 
d="M572 684l-221 -419v-265h-95v263h-1l-242 421h106l186 -342l152 302l-17 40h132z" />
    <glyph glyph-name="Z" unicode="Z" horiz-adv-x="512" 
d="M33 0v84l332 516h-269l-60 -41v125h439v-81l-334 -519h338v-84h-446z" />
    <glyph glyph-name="AE" unicode="&#xc6;" horiz-adv-x="801" 
d="M715 266l-60 41h-145v-223h239v-84h-332v148h-216l-84 -148h-104l376 636l-21 48h371v-84h-229v-209h205v-125zM247 229h170v300z" />
    <glyph glyph-name="OE" unicode="&#x152;" horiz-adv-x="946" 
d="M896 84v-84h-362v40c-45 -32 -97 -51 -153 -51c-183 0 -326 159 -323 353c0 194 146 353 323 353c56 0 108 -19 153 -51v40h352v-83h-257v-210h213v-84h-213v-223h267zM381 74c60 0 113 27 153 70v390c-40 46 -94 76 -155 76c-125 0 -224 -118 -224 -262
s97 -274 226 -274z" />
    <glyph glyph-name="Lslash" unicode="&#x141;" horiz-adv-x="482" 
d="M191 684v-291l175 59v-82l-175 -59v-227h264v-84h-359v279l-80 -26v82l80 26v268l-31 55h126z" />
    <glyph glyph-name="Oslash" unicode="&#xd8;" horiz-adv-x="782" 
d="M391 -11c-68 0 -130 20 -182 55l-54 -71l-64 44l59 77c-59 64 -94 152 -92 248c0 194 150 353 333 353c66 0 127 -20 179 -55l55 71l63 -44l-59 -77c59 -64 96 -152 96 -248c0 -194 -151 -353 -334 -353zM391 74c133 0 237 118 237 262c0 66 -21 129 -58 178l-305 -398
c36 -27 79 -42 126 -42zM155 348c0 -65 20 -127 55 -176l305 396c-36 26 -79 42 -126 42c-132 0 -234 -118 -234 -262z" />
    <glyph glyph-name="Aacute" unicode="&#xc1;" 
d="M314 142c-53 0 -100 9 -146 25l-64 -167h-91l244 628l-23 56h102l297 -684h-103l-72 169c-45 -18 -92 -27 -144 -27zM314 225c41 0 78 6 115 18l-123 288l-112 -287c39 -13 77 -19 120 -19zM246 747l97 152h101l-109 -152h-89z" />
    <glyph glyph-name="Acircumflex" unicode="&#xc2;" 
d="M151 747l103 153h99l102 -153h-84l-68 100l-67 -100h-85zM314 142c-53 0 -100 9 -146 25l-64 -167h-91l244 628l-23 56h102l297 -684h-103l-72 169c-45 -18 -92 -27 -144 -27zM314 225c41 0 78 6 115 18l-123 288l-112 -287c39 -13 77 -19 120 -19z" />
    <glyph glyph-name="Adieresis" unicode="&#xc4;" 
d="M156 811c0 28 21 52 56 52c33 0 51 -21 51 -50c0 -30 -21 -54 -55 -54c-33 0 -52 22 -52 52zM343 811c0 28 22 52 55 52c34 0 51 -21 51 -50c0 -30 -20 -54 -55 -54c-32 0 -51 22 -51 52zM314 142c-53 0 -100 9 -146 25l-64 -167h-91l244 628l-23 56h102l297 -684h-103
l-72 169c-45 -18 -92 -27 -144 -27zM314 225c41 0 78 6 115 18l-123 288l-112 -287c39 -13 77 -19 120 -19z" />
    <glyph glyph-name="Agrave" unicode="&#xc0;" 
d="M314 142c-53 0 -100 9 -146 25l-64 -167h-91l244 628l-23 56h102l297 -684h-103l-72 169c-45 -18 -92 -27 -144 -27zM314 225c41 0 78 6 115 18l-123 288l-112 -287c39 -13 77 -19 120 -19zM265 899l97 -152h-89l-109 152h101z" />
    <glyph glyph-name="Amacron" unicode="&#x100;" 
d="M314 142c-53 0 -100 9 -146 25l-64 -167h-91l244 628l-23 56h102l297 -684h-103l-72 169c-45 -18 -92 -27 -144 -27zM314 225c41 0 78 6 115 18l-123 288l-112 -287c39 -13 77 -19 120 -19zM174 778v73h254v-73h-254z" />
    <glyph glyph-name="Aogonek" unicode="&#x104;" 
d="M314 142c-53 0 -100 9 -146 25l-64 -167h-91l244 628l-23 56h102l297 -684h-53c-75 -46 -90 -93 -99 -135c9 -12 26 -29 63 -29c11 0 24 2 33 5v-59c-12 -6 -32 -9 -47 -9c-87 0 -117 49 -131 84c11 50 33 108 121 166l-62 146c-45 -18 -92 -27 -144 -27zM314 225
c41 0 78 6 115 18l-123 288l-112 -287c39 -13 77 -19 120 -19z" />
    <glyph glyph-name="Aring" unicode="&#xc5;" 
d="M314 142c-53 0 -100 9 -146 25l-64 -167h-91l244 628l-23 56h102l297 -684h-103l-72 169c-45 -18 -92 -27 -144 -27zM314 225c41 0 78 6 115 18l-123 288l-112 -287c39 -13 77 -19 120 -19zM301 731c-65 0 -106 44 -106 102c0 57 43 102 109 102c64 0 106 -45 106 -102
c0 -58 -44 -102 -109 -102zM301 781c32 0 53 22 53 52s-19 52 -52 52c-32 0 -53 -22 -53 -52s19 -52 52 -52z" />
    <glyph glyph-name="Atilde" unicode="&#xc3;" 
d="M314 142c-53 0 -100 9 -146 25l-64 -167h-91l244 628l-23 56h102l297 -684h-103l-72 169c-45 -18 -92 -27 -144 -27zM314 225c41 0 78 6 115 18l-123 288l-112 -287c39 -13 77 -19 120 -19zM356 750l-120 76c-13 -6 -33 -26 -38 -76h-55c5 98 58 142 107 148l119 -77
c14 6 34 27 38 76h55c-4 -98 -57 -142 -106 -147z" />
    <glyph glyph-name="Bdotaccent" unicode="&#x1e02;" horiz-adv-x="593" 
d="M95 0v629l-31 55h210c149 0 224 -76 223 -181c0 -60 -43 -117 -83 -140c71 -23 125 -79 125 -167c0 -135 -97 -196 -253 -196h-191zM306 307h-116v-228h96c103 0 159 40 159 117c0 95 -91 111 -139 111zM276 607h-86v-221h130c48 23 80 60 80 112c1 66 -39 109 -124 109z
M231 806c0 28 23 52 56 52c34 0 51 -21 51 -50c0 -30 -21 -54 -56 -54c-32 0 -51 22 -51 52z" />
    <glyph glyph-name="Ccedilla" unicode="&#xc7;" horiz-adv-x="568" 
d="M287 -287v58c74 21 104 48 104 78c0 24 -20 38 -63 38h-38l11 113c-153 39 -246 175 -243 342c0 195 148 353 349 353c32 0 64 -4 93 -13v-120l-61 45c-7 2 -20 3 -34 3c-149 0 -250 -118 -250 -262c0 -150 93 -274 244 -274c42 0 77 6 114 23v-88
c-34 -14 -81 -20 -119 -20c-7 0 -14 0 -20 1l-5 -49c76 -4 104 -41 104 -84c0 -61 -56 -113 -186 -144z" />
    <glyph glyph-name="Cdotaccent" unicode="&#x10a;" horiz-adv-x="568" 
d="M500 562l-61 45c-7 2 -20 3 -34 3c-149 0 -250 -118 -250 -262c0 -150 93 -274 244 -274c42 0 77 6 114 23v-88c-34 -14 -81 -20 -119 -20c-207 0 -339 155 -336 353c0 195 148 353 349 353c32 0 64 -4 93 -13v-120zM304 811c0 28 23 52 56 52c34 0 51 -21 51 -50
c0 -30 -21 -54 -56 -54c-32 0 -51 22 -51 52z" />
    <glyph glyph-name="Ddotaccent" unicode="&#x1e0a;" horiz-adv-x="652" 
d="M95 0v629l-31 55h195c225 0 332 -128 332 -319c0 -146 -75 -277 -176 -365h-320zM259 604h-69v-524h179c73 68 124 171 124 285c0 143 -82 239 -234 239zM247 806c0 28 23 52 56 52c34 0 51 -21 51 -50c0 -30 -21 -54 -56 -54c-32 0 -51 22 -51 52z" />
    <glyph glyph-name="Eacute" unicode="&#xc9;" horiz-adv-x="523" 
d="M208 747l97 152h101l-109 -152h-89zM473 84v-84h-383v630l-31 54h404v-83h-278v-210h234v-84h-234v-223h288z" />
    <glyph glyph-name="Ecircumflex" unicode="&#xca;" horiz-adv-x="523" 
d="M123 747l103 153h99l102 -153h-84l-68 100l-67 -100h-85zM473 84v-84h-383v630l-31 54h404v-83h-278v-210h234v-84h-234v-223h288z" />
    <glyph glyph-name="Edieresis" unicode="&#xcb;" horiz-adv-x="523" 
d="M129 811c0 28 21 52 56 52c33 0 51 -21 51 -50c0 -30 -21 -54 -55 -54c-33 0 -52 22 -52 52zM316 811c0 28 22 52 55 52c34 0 51 -21 51 -50c0 -30 -20 -54 -55 -54c-32 0 -51 22 -51 52zM473 84v-84h-383v630l-31 54h404v-83h-278v-210h234v-84h-234v-223h288z" />
    <glyph glyph-name="Egrave" unicode="&#xc8;" horiz-adv-x="523" 
d="M473 84v-84h-383v630l-31 54h404v-83h-278v-210h234v-84h-234v-223h288zM246 899l97 -152h-89l-109 152h101z" />
    <glyph glyph-name="Emacron" unicode="&#x112;" horiz-adv-x="523" 
d="M473 84v-84h-383v630l-31 54h404v-83h-278v-210h234v-84h-234v-223h288zM152 773v73h254v-73h-254z" />
    <glyph glyph-name="Eogonek" unicode="&#x118;" horiz-adv-x="523" 
d="M473 84v-84c-75 -46 -90 -93 -99 -135c9 -12 26 -29 63 -29c11 0 24 2 33 5v-59c-12 -6 -32 -9 -47 -9c-87 0 -117 49 -131 84c10 43 27 93 88 143h-290v630l-31 54h404v-83h-278v-210h234v-84h-234v-223h288z" />
    <glyph glyph-name="Fdotaccent" unicode="&#x1e1e;" horiz-adv-x="518" 
d="M225 806c0 28 23 52 56 52c34 0 51 -21 51 -50c0 -30 -21 -54 -56 -54c-32 0 -51 22 -51 52zM420 370v-83h-230v-287h-95v629l-31 55h409v-84h-283v-230h230z" />
    <glyph glyph-name="Gdotaccent" unicode="&#x120;" horiz-adv-x="628" 
d="M397 86h67v202h-132v84h227v-372h-162c-213 0 -342 149 -338 341c0 195 155 354 363 354c32 0 64 -4 93 -13v-120l-61 45c-7 2 -20 3 -34 3c-156 0 -264 -118 -264 -262c-1 -145 85 -262 241 -262zM312 811c0 28 23 52 56 52c34 0 51 -21 51 -50c0 -30 -21 -54 -56 -54
c-32 0 -51 22 -51 52z" />
    <glyph glyph-name="Iacute" unicode="&#xcd;" horiz-adv-x="294" 
d="M195 684v-684h-95v629l-31 55h126zM77 742l97 152h101l-109 -152h-89z" />
    <glyph glyph-name="Icircumflex" unicode="&#xce;" horiz-adv-x="294" 
d="M195 684v-684h-95v629l-31 55h126zM-19 742l103 153h99l102 -153h-84l-68 100l-67 -100h-85z" />
    <glyph glyph-name="Idieresis" unicode="&#xcf;" horiz-adv-x="294" 
d="M195 684v-684h-95v629l-31 55h126zM-13 806c0 28 21 52 56 52c33 0 51 -21 51 -50c0 -30 -21 -54 -55 -54c-33 0 -52 22 -52 52zM174 806c0 28 22 52 55 52c34 0 51 -21 51 -50c0 -30 -20 -54 -55 -54c-32 0 -51 22 -51 52z" />
    <glyph glyph-name="Igrave" unicode="&#xcc;" horiz-adv-x="294" 
d="M195 684v-684h-95v629l-31 55h126zM92 894l97 -152h-89l-109 152h101z" />
    <glyph glyph-name="Imacron" unicode="&#x12a;" horiz-adv-x="294" 
d="M195 684v-684h-95v629l-31 55h126zM6 773v73h254v-73h-254z" />
    <glyph glyph-name="Iogonek" unicode="&#x12e;" horiz-adv-x="294" 
d="M195 684v-684h-2c-75 -46 -90 -93 -99 -135c9 -12 26 -29 63 -29c11 0 24 2 33 5v-59c-12 -6 -32 -9 -47 -9c-87 0 -117 49 -131 84c10 43 27 93 88 143v629l-31 55h126z" />
    <glyph glyph-name="uniA742" unicode="&#xa742;" horiz-adv-x="615" 
d="M190 684v-315l289 315h115l-285 -299c51 -24 96 -54 135 -91l82 80l51 -59l-81 -79c49 -66 81 -146 91 -236h-102c-10 62 -30 117 -61 166l-91 -89l-52 59l94 92c-35 36 -78 66 -130 90l-55 -59v-259h-95v629l-31 55h126z" />
    <glyph glyph-name="Mdotaccent" unicode="&#x1e40;" horiz-adv-x="782" 
d="M391 187l-207 324v-511h-89v627l-32 57h115l217 -352l208 352h84v-684h-92v513zM331 811c0 28 23 52 56 52c34 0 51 -21 51 -50c0 -30 -21 -54 -56 -54c-32 0 -51 22 -51 52z" />
    <glyph glyph-name="Ntilde" unicode="&#xd1;" horiz-adv-x="714" 
d="M619 24l-83 -35l-352 525v-514h-89v629l-31 55h112l354 -528v528h89v-660zM424 740l-120 76c-13 -6 -33 -26 -38 -76h-55c5 98 58 142 107 148l119 -77c14 6 34 27 38 76h55c-4 -98 -57 -142 -106 -147z" />
    <glyph glyph-name="Oacute" unicode="&#xd3;" horiz-adv-x="782" 
d="M335 747l97 152h101l-109 -152h-89zM391 74c133 0 237 118 237 262c0 145 -103 274 -239 274c-132 0 -234 -118 -234 -262s101 -274 236 -274zM391 -11c-190 0 -336 159 -333 353c0 194 150 353 333 353c185 0 334 -159 334 -353s-151 -353 -334 -353z" />
    <glyph glyph-name="Ocircumflex" unicode="&#xd4;" horiz-adv-x="782" 
d="M238 747l103 153h99l102 -153h-84l-68 100l-67 -100h-85zM391 74c133 0 237 118 237 262c0 145 -103 274 -239 274c-132 0 -234 -118 -234 -262s101 -274 236 -274zM391 -11c-190 0 -336 159 -333 353c0 194 150 353 333 353c185 0 334 -159 334 -353
s-151 -353 -334 -353z" />
    <glyph glyph-name="Odieresis" unicode="&#xd6;" horiz-adv-x="782" 
d="M244 811c0 28 21 52 56 52c33 0 51 -21 51 -50c0 -30 -21 -54 -55 -54c-33 0 -52 22 -52 52zM431 811c0 28 22 52 55 52c34 0 51 -21 51 -50c0 -30 -20 -54 -55 -54c-32 0 -51 22 -51 52zM391 74c133 0 237 118 237 262c0 145 -103 274 -239 274
c-132 0 -234 -118 -234 -262s101 -274 236 -274zM391 -11c-190 0 -336 159 -333 353c0 194 150 353 333 353c185 0 334 -159 334 -353s-151 -353 -334 -353z" />
    <glyph glyph-name="Ograve" unicode="&#xd2;" horiz-adv-x="782" 
d="M391 74c133 0 237 118 237 262c0 145 -103 274 -239 274c-132 0 -234 -118 -234 -262s101 -274 236 -274zM391 -11c-190 0 -336 159 -333 353c0 194 150 353 333 353c185 0 334 -159 334 -353s-151 -353 -334 -353zM351 899l97 -152h-89l-109 152h101z" />
    <glyph glyph-name="Omacron" unicode="&#x14c;" horiz-adv-x="782" 
d="M264 778v73h254v-73h-254zM391 74c133 0 237 118 237 262c0 145 -103 274 -239 274c-132 0 -234 -118 -234 -262s101 -274 236 -274zM391 -11c-190 0 -336 159 -333 353c0 194 150 353 333 353c185 0 334 -159 334 -353s-151 -353 -334 -353z" />
    <glyph glyph-name="Otilde" unicode="&#xd5;" horiz-adv-x="782" 
d="M391 74c133 0 237 118 237 262c0 145 -103 274 -239 274c-132 0 -234 -118 -234 -262s101 -274 236 -274zM391 -11c-190 0 -336 159 -333 353c0 194 150 353 333 353c185 0 334 -159 334 -353s-151 -353 -334 -353zM445 750l-120 76c-13 -6 -33 -26 -38 -76h-55
c5 98 58 142 107 148l119 -77c14 6 34 27 38 76h55c-4 -98 -57 -142 -106 -147z" />
    <glyph glyph-name="Pdotaccent" unicode="&#x1e56;" horiz-adv-x="577" 
d="M95 629l-31 55h196c188 0 267 -98 267 -226c0 -176 -126 -234 -264 -234c-27 0 -52 1 -73 3v-227h-95v629zM259 605h-69v-295c25 -3 49 -4 71 -4c115 0 169 45 169 151c0 113 -81 148 -171 148zM220 806c0 28 23 52 56 52c34 0 51 -21 51 -50c0 -30 -21 -54 -56 -54
c-32 0 -51 22 -51 52z" />
    <glyph glyph-name="Sdotaccent" unicode="&#x1e60;" horiz-adv-x="538" 
d="M38 83l48 74c53 -53 107 -79 170 -79c59 0 113 33 130 82l-335 334c19 108 103 201 241 201c78 0 133 -20 196 -66l-47 -110l-34 62c-33 18 -67 32 -115 32c-71 0 -117 -43 -132 -89l341 -340c-20 -95 -99 -195 -247 -195c-91 0 -162 35 -216 94zM231 811
c0 28 23 52 56 52c34 0 51 -21 51 -50c0 -30 -21 -54 -56 -54c-32 0 -51 22 -51 52z" />
    <glyph glyph-name="Tdotaccent" unicode="&#x1e6a;" horiz-adv-x="549" 
d="M73 600l-60 -41v125h486v-84h-216v-477c21 -28 60 -48 109 -48c33 0 61 7 97 25v-87c-32 -15 -71 -24 -105 -24c-106 0 -167 55 -196 102v509h-115zM182 806c0 28 23 52 56 52c34 0 51 -21 51 -50c0 -30 -21 -54 -56 -54c-32 0 -51 22 -51 52z" />
    <glyph glyph-name="Uacute" unicode="&#xda;" horiz-adv-x="655" 
d="M268 737l97 152h101l-109 -152h-89zM393 0c-232 0 -312 102 -312 343c0 42 3 88 7 139l14 151l-29 51h127l-17 -202c-4 -47 -6 -89 -6 -139c0 -190 61 -259 216 -259h72v600h96v-684h-168z" />
    <glyph glyph-name="Ucircumflex" unicode="&#xdb;" horiz-adv-x="655" 
d="M174 737l103 153h99l102 -153h-84l-68 100l-67 -100h-85zM393 0c-232 0 -312 102 -312 343c0 42 3 88 7 139l14 151l-29 51h127l-17 -202c-4 -47 -6 -89 -6 -139c0 -190 61 -259 216 -259h72v600h96v-684h-168z" />
    <glyph glyph-name="Udieresis" unicode="&#xdc;" horiz-adv-x="655" 
d="M179 801c0 28 21 52 56 52c33 0 51 -21 51 -50c0 -30 -21 -54 -55 -54c-33 0 -52 22 -52 52zM366 801c0 28 22 52 55 52c34 0 51 -21 51 -50c0 -30 -20 -54 -55 -54c-32 0 -51 22 -51 52zM393 0c-232 0 -312 102 -312 343c0 42 3 88 7 139l14 151l-29 51h127l-17 -202
c-4 -47 -6 -89 -6 -139c0 -190 61 -259 216 -259h72v600h96v-684h-168z" />
    <glyph glyph-name="Ugrave" unicode="&#xd9;" horiz-adv-x="655" 
d="M393 0c-232 0 -312 102 -312 343c0 42 3 88 7 139l14 151l-29 51h127l-17 -202c-4 -47 -6 -89 -6 -139c0 -190 61 -259 216 -259h72v600h96v-684h-168zM286 889l97 -152h-89l-109 152h101z" />
    <glyph glyph-name="Umacron" unicode="&#x16a;" horiz-adv-x="655" 
d="M393 0c-232 0 -312 102 -312 343c0 42 3 88 7 139l14 151l-29 51h127l-17 -202c-4 -47 -6 -89 -6 -139c0 -190 61 -259 216 -259h72v600h96v-684h-168zM198 768v73h254v-73h-254z" />
    <glyph glyph-name="Uogonek" unicode="&#x172;" horiz-adv-x="655" 
d="M393 0c-232 0 -312 102 -312 343c0 42 3 88 7 139l14 151l-29 51h127l-17 -202c-4 -47 -6 -89 -6 -139c0 -190 61 -259 216 -259h72v600h96v-684h-3c-75 -46 -90 -93 -99 -135c9 -12 26 -29 63 -29c11 0 24 2 33 5v-59c-12 -6 -32 -9 -47 -9c-87 0 -117 49 -131 84
c10 43 27 93 88 143h-72z" />
    <glyph glyph-name="Wacute" unicode="&#x1e82;" horiz-adv-x="908" 
d="M391 737l97 152h101l-109 -152h-89zM887 684l-212 -684h-94l-101 328l-106 -328h-96l-257 684h101l209 -579l108 353l-69 226h96l167 -572l141 525l-17 47h130z" />
    <glyph glyph-name="Wcircumflex" unicode="&#x174;" horiz-adv-x="908" 
d="M293 737l103 153h99l102 -153h-84l-68 100l-67 -100h-85zM887 684l-212 -684h-94l-101 328l-106 -328h-96l-257 684h101l209 -579l108 353l-69 226h96l167 -572l141 525l-17 47h130z" />
    <glyph glyph-name="Wdieresis" unicode="&#x1e84;" horiz-adv-x="908" 
d="M300 801c0 28 21 52 56 52c33 0 51 -21 51 -50c0 -30 -21 -54 -55 -54c-33 0 -52 22 -52 52zM487 801c0 28 22 52 55 52c34 0 51 -21 51 -50c0 -30 -20 -54 -55 -54c-32 0 -51 22 -51 52zM887 684l-212 -684h-94l-101 328l-106 -328h-96l-257 684h101l209 -579l108 353
l-69 226h96l167 -572l141 525l-17 47h130z" />
    <glyph glyph-name="Wgrave" unicode="&#x1e80;" horiz-adv-x="908" 
d="M887 684l-212 -684h-94l-101 328l-106 -328h-96l-257 684h101l209 -579l108 353l-69 226h96l167 -572l141 525l-17 47h130zM408 889l97 -152h-89l-109 152h101z" />
    <glyph glyph-name="Yacute" unicode="&#xdd;" horiz-adv-x="584" 
d="M572 684l-221 -419v-265h-95v263h-1l-242 421h106l186 -342l152 302l-17 40h132zM231 737l97 152h101l-109 -152h-89z" />
    <glyph glyph-name="Ycircumflex" unicode="&#x176;" horiz-adv-x="584" 
d="M572 684l-221 -419v-265h-95v263h-1l-242 421h106l186 -342l152 302l-17 40h132zM136 737l103 153h99l102 -153h-84l-68 100l-67 -100h-85z" />
    <glyph glyph-name="Ydieresis" unicode="&#x178;" horiz-adv-x="584" 
d="M572 684l-221 -419v-265h-95v263h-1l-242 421h106l186 -342l152 302l-17 40h132zM143 801c0 28 21 52 56 52c33 0 51 -21 51 -50c0 -30 -21 -54 -55 -54c-33 0 -52 22 -52 52zM330 801c0 28 22 52 55 52c34 0 51 -21 51 -50c0 -30 -20 -54 -55 -54c-32 0 -51 22 -51 52z
" />
    <glyph glyph-name="Ygrave" unicode="&#x1ef2;" horiz-adv-x="584" 
d="M572 684l-221 -419v-265h-95v263h-1l-242 421h106l186 -342l152 302l-17 40h132zM249 889l97 -152h-89l-109 152h101z" />
    <glyph glyph-name="Cacute" unicode="&#x106;" horiz-adv-x="568" 
d="M289 737l97 152h101l-109 -152h-89zM500 562l-61 45c-7 2 -20 3 -34 3c-149 0 -250 -118 -250 -262c0 -150 93 -274 244 -274c42 0 77 6 114 23v-88c-34 -14 -81 -20 -119 -20c-207 0 -339 155 -336 353c0 195 148 353 349 353c32 0 64 -4 93 -13v-120z" />
    <glyph glyph-name="Nacute" unicode="&#x143;" horiz-adv-x="714" 
d="M317 737l97 152h101l-109 -152h-89zM619 24l-83 -35l-352 525v-514h-89v629l-31 55h112l354 -528v528h89v-660z" />
    <glyph glyph-name="Sacute" unicode="&#x15a;" horiz-adv-x="538" 
d="M206 737l97 152h101l-109 -152h-89zM38 83l48 74c53 -53 107 -79 170 -79c59 0 113 33 130 82l-335 334c19 108 103 201 241 201c78 0 133 -20 196 -66l-47 -110l-34 62c-33 18 -67 32 -115 32c-71 0 -117 -43 -132 -89l341 -340c-20 -95 -99 -195 -247 -195
c-91 0 -162 35 -216 94z" />
    <glyph glyph-name="Zdot" unicode="&#x17b;" horiz-adv-x="512" 
d="M33 84v-84h446v84h-338l334 519v81h-439v-125l60 41h269zM212 811c0 28 23 52 56 52c34 0 51 -21 51 -50c0 -30 -21 -54 -56 -54c-32 0 -51 22 -51 52z" />
    <glyph glyph-name="Zacute" unicode="&#x179;" horiz-adv-x="512" 
d="M206 737l97 152h101l-109 -152h-89zM33 84v-84h446v84h-338l334 519v81h-439v-125l60 41h269z" />
    <glyph glyph-name="a" unicode="a" horiz-adv-x="537" 
d="M95 383v103c29 9 75 21 131 21c148 0 232 -63 232 -188v-319h-85v64l-232 -75c-44 38 -81 90 -81 165c0 90 56 156 203 156h107v9c0 83 -62 112 -144 112c-41 0 -61 -6 -71 -9zM150 155c0 -33 14 -58 29 -73l191 56v98h-107c-84 1 -113 -35 -113 -81z" />
    <glyph glyph-name="b" unicode="b" horiz-adv-x="564" 
d="M177 719v-223h67c170 0 263 -109 263 -250c0 -147 -106 -257 -248 -257c-70 0 -138 24 -171 41v635l-30 54h119zM177 416v-338c21 -8 48 -15 82 -15c93 0 158 72 158 183c0 99 -63 170 -173 170h-67z" />
    <glyph glyph-name="c" unicode="c" horiz-adv-x="477" 
d="M417 492v-108l-62 47c-3 1 -16 3 -28 3c-108 0 -180 -82 -180 -186c0 -110 71 -185 181 -185c34 0 66 8 96 21l1 -77c-29 -11 -66 -18 -100 -18c-155 0 -268 102 -268 258c0 144 120 260 265 260c33 0 65 -5 95 -15z" />
    <glyph glyph-name="d" unicode="d" horiz-adv-x="565" 
d="M476 719v-687c-33 -19 -102 -43 -168 -43c-155 0 -251 96 -251 257c0 141 101 250 257 250h74v169l-30 54h118zM388 81v335h-74c-104 0 -167 -63 -167 -170c0 -112 70 -181 161 -181c31 0 58 6 80 16z" />
    <glyph glyph-name="e" unicode="e" horiz-adv-x="568" 
d="M519 228h-371c8 -95 71 -164 172 -164c52 0 90 11 129 30v-77c-37 -19 -77 -28 -132 -28c-157 0 -260 107 -260 258c0 135 104 260 242 260c152 0 225 -143 220 -279zM299 431c-74 0 -131 -58 -147 -134h279c-15 77 -66 134 -132 134z" />
    <glyph glyph-name="f" unicode="f" horiz-adv-x="352" 
d="M88 497v145c30 54 98 88 174 88c37 0 61 -5 94 -17v-77c-31 12 -55 19 -85 19c-47 0 -76 -15 -94 -36v-123h153v-70h-153v-426h-89v426h-50z" />
    <glyph glyph-name="g" unicode="g" horiz-adv-x="590" 
d="M418 496h114l-31 -55v-567c-60 -64 -141 -89 -221 -89c-53 0 -100 9 -147 26v87c43 -16 88 -30 145 -30c59 0 104 16 135 42v127c-33 -31 -77 -48 -129 -48c-139 0 -227 115 -227 255c0 141 111 263 244 263c43 0 83 -15 117 -40v29zM292 64c44 0 89 22 121 64v260
c-29 28 -67 44 -107 44c-89 0 -159 -83 -159 -183c0 -105 58 -185 145 -185z" />
    <glyph glyph-name="h" unicode="h" horiz-adv-x="585" 
d="M58 719h116v-318l120 101c130 -5 213 -80 213 -214v-288h-89v276c0 81 -31 134 -108 146l-133 -107v-315h-89v664z" />
    <glyph glyph-name="i" unicode="i" horiz-adv-x="266" 
d="M177 496v-496h-88v441l-30 55h118zM79 676c0 29 22 53 51 53c30 0 53 -24 53 -53s-23 -51 -53 -51c-29 0 -51 22 -51 51z" />
    <glyph glyph-name="j" unicode="j" horiz-adv-x="266" 
d="M59 496h118v-540c0 -103 -54 -161 -177 -158v75c61 -1 89 21 89 91v477zM79 676c0 29 22 53 51 53c30 0 53 -24 53 -53s-23 -51 -53 -51c-29 0 -51 22 -51 51z" />
    <glyph glyph-name="k" unicode="k" horiz-adv-x="535" 
d="M178 0h-88v664l-31 55h119v-439l194 216h107l-177 -184c104 -59 170 -166 177 -312h-88c-10 121 -62 207 -144 254l-69 -72v-182z" />
    <glyph glyph-name="l" unicode="l" horiz-adv-x="278" 
d="M220 -7c-108 0 -137 57 -137 143v528l-30 55h119v-579c0 -52 18 -75 65 -75c6 0 11 0 17 1v-71c-12 -1 -24 -2 -34 -2z" />
    <glyph glyph-name="m" unicode="m" horiz-adv-x="854" 
d="M174 496v-93l105 99c87 -4 150 -43 179 -114l121 114c123 -5 197 -80 197 -214v-288h-88v276c0 81 -23 134 -93 146l-120 -106c1 -9 1 -19 1 -28v-288h-88v276c0 81 -23 134 -92 146l-119 -105v-317h-89v441l-30 55h116z" />
    <glyph glyph-name="n" unicode="n" horiz-adv-x="585" 
d="M174 496v-95l120 101c130 -5 213 -80 213 -214v-288h-89v276c0 81 -31 134 -108 146l-133 -107v-315h-89v441l-30 55h116z" />
    <glyph glyph-name="o" unicode="o" horiz-adv-x="630" 
d="M316 431c-100 0 -169 -85 -169 -183c0 -99 68 -183 168 -183s168 85 168 183s-67 183 -167 183zM313 -11c-149 0 -256 118 -256 258c0 142 116 260 261 260c149 0 255 -118 255 -258c0 -142 -115 -260 -260 -260z" />
    <glyph glyph-name="p" unicode="p" horiz-adv-x="595" 
d="M88 -201v642l-30 55h114v-42c34 33 82 53 137 53c141 0 229 -115 229 -255c0 -141 -111 -263 -247 -263c-41 0 -81 13 -114 36v-226h-89zM301 432c-45 0 -91 -22 -124 -63v-262c29 -28 69 -44 109 -44c92 0 162 84 162 184c0 105 -58 185 -147 185z" />
    <glyph glyph-name="q" unicode="q" horiz-adv-x="595" 
d="M507 441v-642h-89v238c-34 -31 -80 -48 -132 -48c-141 0 -229 115 -229 255c0 141 111 263 247 263c43 0 85 -15 119 -40v29h114zM294 64c45 0 91 22 124 63v261c-30 28 -69 44 -109 44c-92 0 -162 -83 -162 -183c0 -105 58 -185 147 -185z" />
    <glyph glyph-name="r" unicode="r" horiz-adv-x="427" 
d="M58 496h116v-92l95 100c58 -8 103 -32 137 -71l-54 -63c-24 29 -54 44 -75 48l-100 -99v-319h-89v441z" />
    <glyph glyph-name="s" unicode="s" horiz-adv-x="473" 
d="M375 360l-29 54c-24 15 -51 23 -83 23c-58 0 -95 -29 -108 -69l268 -199c-14 -97 -82 -180 -204 -180c-77 0 -131 29 -178 78l42 63c45 -44 87 -66 139 -66c47 0 90 24 103 71l-268 200c16 93 87 172 201 172c50 0 103 -13 158 -52z" />
    <glyph glyph-name="t" unicode="t" horiz-adv-x="340" 
d="M88 649h88v-153h122v-70h-122v-257c0 -75 29 -105 89 -105c12 0 22 1 32 3v-71c-16 -2 -31 -2 -46 -2c-124 0 -163 63 -163 171v261h-51l51 71v152z" />
    <glyph glyph-name="u" unicode="u" horiz-adv-x="585" 
d="M48 496h119v-276c0 -81 31 -134 107 -146l134 107v315h89v-496h-86v94l-120 -100c-130 5 -213 80 -213 214v233z" />
    <glyph glyph-name="v" unicode="v" horiz-adv-x="497" 
d="M215 0l-204 496h99l153 -394l117 366l-12 28h118l-180 -496h-91z" />
    <glyph glyph-name="w" unicode="w" horiz-adv-x="745" 
d="M734 496l-169 -496h-90l-81 239l-85 -239h-87l-211 496h97l161 -405l84 248l-60 157h97l133 -396l107 366l-13 30h117z" />
    <glyph glyph-name="x" unicode="x" horiz-adv-x="493" 
d="M473 0h-105l-125 194l-128 -194h-92l173 257l-160 239h105l109 -173l89 138l-16 35h131l-157 -237z" />
    <glyph glyph-name="y" unicode="y" horiz-adv-x="518" 
d="M500 496l-220 -697h-90l65 201c-151 109 -207 288 -221 496h88c14 -190 55 -320 163 -411l113 372l-19 39h121z" />
    <glyph glyph-name="z" unicode="z" horiz-adv-x="457" 
d="M47 392v104h362v-68l-256 -353h258v-75h-365v67l257 355h-202z" />
    <glyph glyph-name="dotlessi" unicode="&#x131;" horiz-adv-x="266" 
d="M177 496v-496h-88v441l-30 55h118z" />
    <glyph glyph-name="ae" unicode="&#xe6;" horiz-adv-x="829" 
d="M675 78v-75c-31 -9 -66 -14 -100 -14c-80 0 -146 32 -190 85l-320 -85c-8 32 -16 77 -16 110c0 132 90 209 270 210c-15 73 -64 121 -159 121c-24 0 -44 -2 -60 -5v74c19 4 39 6 64 6c106 0 174 -43 210 -112c37 67 98 114 185 114c158 0 228 -139 223 -270h-367
c5 -99 64 -173 163 -173c37 0 73 5 97 14zM559 431c-70 0 -120 -55 -138 -126l273 1c-15 72 -64 125 -135 125zM131 111c0 -4 2 -20 4 -22l211 51c-12 30 -19 64 -21 101h-2c-128 0 -192 -42 -192 -130z" />
    <glyph glyph-name="oe" unicode="&#x153;" horiz-adv-x="857" 
d="M799 220h-372c11 -91 72 -156 170 -156c33 0 66 5 88 14v-75c-28 -9 -59 -14 -91 -14c-60 0 -112 16 -154 44c-39 -28 -86 -44 -137 -44c-143 0 -246 118 -246 258c0 142 112 260 252 260c51 0 97 -17 135 -43c37 27 81 43 130 43c158 0 231 -148 225 -287zM335 247
c0 57 19 114 52 159c-23 16 -50 25 -81 25c-94 0 -159 -85 -159 -183c0 -99 64 -183 159 -183c29 0 55 8 77 23c-31 43 -48 97 -48 159zM574 431c-76 0 -132 -63 -146 -142h284c-16 82 -68 142 -138 142z" />
    <glyph glyph-name="germandbls" unicode="&#xdf;" horiz-adv-x="608" 
d="M217 52l44 59c37 -33 66 -47 109 -47c52 0 90 36 101 85l-167 235c62 63 84 112 84 159c0 78 -58 114 -125 114c-29 0 -59 -6 -87 -19v-638h-88v685c54 31 119 45 180 45c111 0 210 -59 210 -183c0 -60 -35 -116 -74 -163l154 -217c-11 -92 -77 -178 -189 -178
c-67 0 -109 21 -152 63z" />
    <glyph glyph-name="lslash" unicode="&#x142;" horiz-adv-x="303" 
d="M35 272v78l62 25v289l-30 55h119v-307l96 39v-77l-96 -40v-194c0 -52 18 -75 65 -75c6 0 11 0 17 1v-71c-12 -1 -24 -2 -34 -2c-108 0 -137 57 -137 143v161z" />
    <glyph glyph-name="oslash" unicode="&#xf8;" horiz-adv-x="630" 
d="M313 -11c-51 0 -96 13 -135 37l-40 -52l-48 33l43 54c-48 48 -76 114 -76 186c0 142 116 260 261 260c51 0 96 -14 135 -38l38 49l47 -32l-41 -52c48 -47 76 -113 76 -185c0 -142 -115 -260 -260 -260zM316 431c-100 0 -169 -85 -169 -183c0 -45 14 -87 39 -119l217 277
c-25 16 -54 25 -87 25zM315 65c100 0 168 85 168 183c0 44 -14 86 -38 119l-217 -278c24 -15 54 -24 87 -24z" />
    <glyph glyph-name="aacute" unicode="&#xe1;" horiz-adv-x="537" 
d="M95 383v103c29 9 75 21 131 21c148 0 232 -63 232 -188v-319h-85v64l-232 -75c-44 38 -81 90 -81 165c0 90 56 156 203 156h107v9c0 83 -62 112 -144 112c-41 0 -61 -6 -71 -9zM150 155c0 -33 14 -58 29 -73l191 56v98h-107c-84 1 -113 -35 -113 -81zM183 577l97 152h101
l-109 -152h-89z" />
    <glyph glyph-name="acircumflex" unicode="&#xe2;" horiz-adv-x="537" 
d="M95 383v103c29 9 75 21 131 21c148 0 232 -63 232 -188v-319h-85v64l-232 -75c-44 38 -81 90 -81 165c0 90 56 156 203 156h107v9c0 83 -62 112 -144 112c-41 0 -61 -6 -71 -9zM150 155c0 -33 14 -58 29 -73l191 56v98h-107c-84 1 -113 -35 -113 -81zM106 577l103 153h99
l102 -153h-84l-68 100l-67 -100h-85z" />
    <glyph glyph-name="adieresis" unicode="&#xe4;" horiz-adv-x="537" 
d="M95 383v103c29 9 75 21 131 21c148 0 232 -63 232 -188v-319h-85v64l-232 -75c-44 38 -81 90 -81 165c0 90 56 156 203 156h107v9c0 83 -62 112 -144 112c-41 0 -61 -6 -71 -9zM150 155c0 -33 14 -58 29 -73l191 56v98h-107c-84 1 -113 -35 -113 -81zM103 641
c0 28 21 52 56 52c33 0 51 -21 51 -50c0 -30 -21 -54 -55 -54c-33 0 -52 22 -52 52zM290 641c0 28 22 52 55 52c34 0 51 -21 51 -50c0 -30 -20 -54 -55 -54c-32 0 -51 22 -51 52z" />
    <glyph glyph-name="agrave" unicode="&#xe0;" horiz-adv-x="537" 
d="M95 383v103c29 9 75 21 131 21c148 0 232 -63 232 -188v-319h-85v64l-232 -75c-44 38 -81 90 -81 165c0 90 56 156 203 156h107v9c0 83 -62 112 -144 112c-41 0 -61 -6 -71 -9zM150 155c0 -33 14 -58 29 -73l191 56v98h-107c-84 1 -113 -35 -113 -81zM212 729l97 -152
h-89l-109 152h101z" />
    <glyph glyph-name="amacron" unicode="&#x101;" horiz-adv-x="537" 
d="M95 383v103c29 9 75 21 131 21c148 0 232 -63 232 -188v-319h-85v64l-232 -75c-44 38 -81 90 -81 165c0 90 56 156 203 156h107v9c0 83 -62 112 -144 112c-41 0 -61 -6 -71 -9zM150 155c0 -33 14 -58 29 -73l191 56v98h-107c-84 1 -113 -35 -113 -81zM131 608v73h254v-73
h-254z" />
    <glyph glyph-name="aogonek" unicode="&#x105;" horiz-adv-x="537" 
d="M95 383v103c29 9 75 21 131 21c148 0 232 -63 232 -188v-319c-75 -46 -90 -93 -99 -135c9 -12 26 -29 63 -29c11 0 24 2 33 5v-59c-12 -6 -32 -9 -47 -9c-87 0 -117 49 -131 84c10 45 28 97 96 149v58l-232 -75c-44 38 -81 90 -81 165c0 90 56 156 203 156h107v9
c0 83 -62 112 -144 112c-41 0 -61 -6 -71 -9zM150 155c0 -33 14 -58 29 -73l191 56v98h-107c-84 1 -113 -35 -113 -81z" />
    <glyph glyph-name="aring" unicode="&#xe5;" horiz-adv-x="537" 
d="M95 383v103c29 9 75 21 131 21c148 0 232 -63 232 -188v-319h-85v64l-232 -75c-44 38 -81 90 -81 165c0 90 56 156 203 156h107v9c0 83 -62 112 -144 112c-41 0 -61 -6 -71 -9zM150 155c0 -33 14 -58 29 -73l191 56v98h-107c-84 1 -113 -35 -113 -81zM230 561
c-65 0 -106 44 -106 102c0 57 43 102 109 102c64 0 106 -45 106 -102c0 -58 -44 -102 -109 -102zM230 611c32 0 53 22 53 52s-19 52 -52 52c-32 0 -53 -22 -53 -52s19 -52 52 -52z" />
    <glyph glyph-name="atilde" unicode="&#xe3;" horiz-adv-x="537" 
d="M95 383v103c29 9 75 21 131 21c148 0 232 -63 232 -188v-319h-85v64l-232 -75c-44 38 -81 90 -81 165c0 90 56 156 203 156h107v9c0 83 -62 112 -144 112c-41 0 -61 -6 -71 -9zM150 155c0 -33 14 -58 29 -73l191 56v98h-107c-84 1 -113 -35 -113 -81zM311 580l-120 76
c-13 -6 -33 -26 -38 -76h-55c5 98 58 142 107 148l119 -77c14 6 34 27 38 76h55c-4 -98 -57 -142 -106 -147z" />
    <glyph glyph-name="bdotaccent" unicode="&#x1e03;" horiz-adv-x="564" 
d="M177 719v-223h67c170 0 263 -109 263 -250c0 -147 -106 -257 -248 -257c-70 0 -138 24 -171 41v635l-30 54h119zM177 416v-338c21 -8 48 -15 82 -15c93 0 158 72 158 183c0 99 -63 170 -173 170h-67zM275 641c0 28 23 52 56 52c34 0 51 -21 51 -50c0 -30 -21 -54 -56 -54
c-32 0 -51 22 -51 52z" />
    <glyph glyph-name="ccedilla" unicode="&#xe7;" horiz-adv-x="477" 
d="M223 -287v58c74 21 104 48 104 78c0 24 -20 38 -63 38h-38l11 114c-108 31 -180 121 -180 246c0 144 120 260 265 260c33 0 65 -5 95 -15v-108l-62 47c-3 1 -16 3 -28 3c-108 0 -180 -82 -180 -186c0 -110 71 -185 181 -185c34 0 66 8 96 21l1 -77
c-29 -11 -66 -18 -100 -18h-15l-5 -48c76 -4 104 -41 104 -84c0 -61 -56 -113 -186 -144z" />
    <glyph glyph-name="cdotaccent" unicode="&#x10b;" horiz-adv-x="477" 
d="M417 492v-108l-62 47c-3 1 -16 3 -28 3c-108 0 -180 -82 -180 -186c0 -110 71 -185 181 -185c34 0 66 8 96 21l1 -77c-29 -11 -66 -18 -100 -18c-155 0 -268 102 -268 258c0 144 120 260 265 260c33 0 65 -5 95 -15zM240 641c0 28 23 52 56 52c34 0 51 -21 51 -50
c0 -30 -21 -54 -56 -54c-32 0 -51 22 -51 52z" />
    <glyph glyph-name="ddotaccent" unicode="&#x1e0b;" horiz-adv-x="565" 
d="M476 719v-687c-33 -19 -102 -43 -168 -43c-155 0 -251 96 -251 257c0 141 101 250 257 250h74v169l-30 54h118zM388 81v335h-74c-104 0 -167 -63 -167 -170c0 -112 70 -181 161 -181c31 0 58 6 80 16zM184 641c0 28 23 52 56 52c34 0 51 -21 51 -50
c0 -30 -21 -54 -56 -54c-32 0 -51 22 -51 52z" />
    <glyph glyph-name="eacute" unicode="&#xe9;" horiz-adv-x="568" 
d="M224 577l97 152h101l-109 -152h-89zM519 228h-371c8 -95 71 -164 172 -164c52 0 90 11 129 30v-77c-37 -19 -77 -28 -132 -28c-157 0 -260 107 -260 258c0 135 104 260 242 260c152 0 225 -143 220 -279zM299 431c-74 0 -131 -58 -147 -134h279c-15 77 -66 134 -132 134z
" />
    <glyph glyph-name="ecircumflex" unicode="&#xea;" horiz-adv-x="568" 
d="M146 577l103 153h99l102 -153h-84l-68 100l-67 -100h-85zM519 228h-371c8 -95 71 -164 172 -164c52 0 90 11 129 30v-77c-37 -19 -77 -28 -132 -28c-157 0 -260 107 -260 258c0 135 104 260 242 260c152 0 225 -143 220 -279zM299 431c-74 0 -131 -58 -147 -134h279
c-15 77 -66 134 -132 134z" />
    <glyph glyph-name="edieresis" unicode="&#xeb;" horiz-adv-x="568" 
d="M152 641c0 28 21 52 56 52c33 0 51 -21 51 -50c0 -30 -21 -54 -55 -54c-33 0 -52 22 -52 52zM339 641c0 28 22 52 55 52c34 0 51 -21 51 -50c0 -30 -20 -54 -55 -54c-32 0 -51 22 -51 52zM519 228h-371c8 -95 71 -164 172 -164c52 0 90 11 129 30v-77
c-37 -19 -77 -28 -132 -28c-157 0 -260 107 -260 258c0 135 104 260 242 260c152 0 225 -143 220 -279zM299 431c-74 0 -131 -58 -147 -134h279c-15 77 -66 134 -132 134z" />
    <glyph glyph-name="egrave" unicode="&#xe8;" horiz-adv-x="568" 
d="M519 228h-371c8 -95 71 -164 172 -164c52 0 90 11 129 30v-77c-37 -19 -77 -28 -132 -28c-157 0 -260 107 -260 258c0 135 104 260 242 260c152 0 225 -143 220 -279zM299 431c-74 0 -131 -58 -147 -134h279c-15 77 -66 134 -132 134zM261 729l97 -152h-89l-109 152h101z
" />
    <glyph glyph-name="emacron" unicode="&#x113;" horiz-adv-x="568" 
d="M519 228h-371c8 -95 71 -164 172 -164c52 0 90 11 129 30v-77c-37 -19 -77 -28 -132 -28c-157 0 -260 107 -260 258c0 135 104 260 242 260c152 0 225 -143 220 -279zM299 431c-74 0 -131 -58 -147 -134h279c-15 77 -66 134 -132 134zM171 608v73h254v-73h-254z" />
    <glyph glyph-name="eogonek" unicode="&#x119;" horiz-adv-x="568" 
d="M519 228h-371c8 -95 71 -164 172 -164c52 0 90 11 129 30v-77c-18 -9 -37 -16 -57 -20c-70 -45 -84 -91 -93 -132c9 -12 26 -29 63 -29c11 0 24 2 33 5v-59c-12 -6 -32 -9 -47 -9c-87 0 -117 49 -131 84c9 40 25 86 76 133c-143 10 -236 113 -236 257
c0 135 104 260 242 260c152 0 225 -143 220 -279zM299 431c-74 0 -131 -58 -147 -134h279c-15 77 -66 134 -132 134z" />
    <glyph glyph-name="fdotaccent" unicode="&#x1e1f;" horiz-adv-x="352" 
d="M196 830c0 28 23 52 56 52c34 0 51 -21 51 -50c0 -30 -21 -54 -56 -54c-32 0 -51 22 -51 52zM88 497v145c30 54 98 88 174 88c37 0 61 -5 94 -17v-77c-31 12 -55 19 -85 19c-47 0 -76 -15 -94 -36v-123h153v-70h-153v-426h-89v426h-50z" />
    <glyph glyph-name="gdotaccent" unicode="&#x121;" horiz-adv-x="590" 
d="M418 496h114l-31 -55v-567c-60 -64 -141 -89 -221 -89c-53 0 -100 9 -147 26v87c43 -16 88 -30 145 -30c59 0 104 16 135 42v127c-33 -31 -77 -48 -129 -48c-139 0 -227 115 -227 255c0 141 111 263 244 263c43 0 83 -15 117 -40v29zM292 64c44 0 89 22 121 64v260
c-29 28 -67 44 -107 44c-89 0 -159 -83 -159 -183c0 -105 58 -185 145 -185zM238 641c0 28 23 52 56 52c34 0 51 -21 51 -50c0 -30 -21 -54 -56 -54c-32 0 -51 22 -51 52z" />
    <glyph glyph-name="iacute" unicode="&#xed;" horiz-adv-x="266" 
d="M63 577l97 152h101l-109 -152h-89zM177 496v-496h-88v441l-30 55h118z" />
    <glyph glyph-name="icircumflex" unicode="&#xee;" horiz-adv-x="266" 
d="M-33 577l103 153h99l102 -153h-84l-68 100l-67 -100h-85zM177 496v-496h-88v441l-30 55h118z" />
    <glyph glyph-name="idieresis" unicode="&#xef;" horiz-adv-x="266" 
d="M-28 641c0 28 21 52 56 52c33 0 51 -21 51 -50c0 -30 -21 -54 -55 -54c-33 0 -52 22 -52 52zM159 641c0 28 22 52 55 52c34 0 51 -21 51 -50c0 -30 -20 -54 -55 -54c-32 0 -51 22 -51 52zM177 496v-496h-88v441l-30 55h118z" />
    <glyph glyph-name="igrave" unicode="&#xec;" horiz-adv-x="266" 
d="M177 496v-496h-88v441l-30 55h118zM78 729l97 -152h-89l-109 152h101z" />
    <glyph glyph-name="imacron" unicode="&#x12b;" horiz-adv-x="266" 
d="M177 496v-496h-88v441l-30 55h118zM-8 608v73h254v-73h-254z" />
    <glyph glyph-name="iogonek" unicode="&#x12f;" horiz-adv-x="266" 
d="M177 496v-496h-3c-75 -46 -90 -93 -99 -135c9 -12 26 -29 63 -29c11 0 24 2 33 5v-59c-12 -6 -32 -9 -47 -9c-87 0 -117 49 -131 84c10 45 28 97 96 149v435l-30 55h118z" />
    <glyph glyph-name="uniA743" unicode="&#xa743;" horiz-adv-x="541" 
d="M178 0h-88v664l-31 55h119v-428l215 205h113l-220 -201c40 -19 76 -44 108 -76l79 69l40 -57l-75 -65c29 -44 52 -99 67 -166h-88c-11 42 -25 78 -44 110l-67 -59l-41 56l67 58c-30 33 -65 57 -105 76l-49 -45v-196z" />
    <glyph glyph-name="mdotaccent" unicode="&#x1e41;" horiz-adv-x="854" 
d="M174 496v-93l105 99c87 -4 150 -43 179 -114l121 114c123 -5 197 -80 197 -214v-288h-88v276c0 81 -23 134 -93 146l-120 -106c1 -9 1 -19 1 -28v-288h-88v276c0 81 -23 134 -92 146l-119 -105v-317h-89v441l-30 55h116zM379 641c0 28 23 52 56 52c34 0 51 -21 51 -50
c0 -30 -21 -54 -56 -54c-32 0 -51 22 -51 52z" />
    <glyph glyph-name="ntilde" unicode="&#xf1;" horiz-adv-x="585" 
d="M174 496v-95l120 101c130 -5 213 -80 213 -214v-288h-89v276c0 81 -31 134 -108 146l-133 -107v-315h-89v441l-30 55h116zM335 580l-120 76c-13 -6 -33 -26 -38 -76h-55c5 98 58 142 107 148l119 -77c14 6 34 27 38 76h55c-4 -98 -57 -142 -106 -147z" />
    <glyph glyph-name="oacute" unicode="&#xf3;" horiz-adv-x="630" 
d="M258 577l97 152h101l-109 -152h-89zM316 431c100 0 167 -85 167 -183s-68 -183 -168 -183s-168 84 -168 183c0 98 69 183 169 183zM313 -11c145 0 260 118 260 260c0 140 -106 258 -255 258c-145 0 -261 -118 -261 -260c0 -140 107 -258 256 -258z" />
    <glyph glyph-name="ocircumflex" unicode="&#xf4;" horiz-adv-x="630" 
d="M162 577l103 153h99l102 -153h-84l-68 100l-67 -100h-85zM316 431c100 0 167 -85 167 -183s-68 -183 -168 -183s-168 84 -168 183c0 98 69 183 169 183zM313 -11c145 0 260 118 260 260c0 140 -106 258 -255 258c-145 0 -261 -118 -261 -260c0 -140 107 -258 256 -258z
" />
    <glyph glyph-name="odieresis" unicode="&#xf6;" horiz-adv-x="630" 
d="M168 641c0 28 21 52 56 52c33 0 51 -21 51 -50c0 -30 -21 -54 -55 -54c-33 0 -52 22 -52 52zM355 641c0 28 22 52 55 52c34 0 51 -21 51 -50c0 -30 -20 -54 -55 -54c-32 0 -51 22 -51 52zM316 431c100 0 167 -85 167 -183s-68 -183 -168 -183s-168 84 -168 183
c0 98 69 183 169 183zM313 -11c145 0 260 118 260 260c0 140 -106 258 -255 258c-145 0 -261 -118 -261 -260c0 -140 107 -258 256 -258z" />
    <glyph glyph-name="ograve" unicode="&#xf2;" horiz-adv-x="630" 
d="M316 431c100 0 167 -85 167 -183s-68 -183 -168 -183s-168 84 -168 183c0 98 69 183 169 183zM313 -11c145 0 260 118 260 260c0 140 -106 258 -255 258c-145 0 -261 -118 -261 -260c0 -140 107 -258 256 -258zM275 729l97 -152h-89l-109 152h101z" />
    <glyph glyph-name="omacron" unicode="&#x14d;" horiz-adv-x="630" 
d="M188 608v73h254v-73h-254zM316 431c100 0 167 -85 167 -183s-68 -183 -168 -183s-168 84 -168 183c0 98 69 183 169 183zM313 -11c145 0 260 118 260 260c0 140 -106 258 -255 258c-145 0 -261 -118 -261 -260c0 -140 107 -258 256 -258z" />
    <glyph glyph-name="otilde" unicode="&#xf5;" horiz-adv-x="630" 
d="M316 431c100 0 167 -85 167 -183s-68 -183 -168 -183s-168 84 -168 183c0 98 69 183 169 183zM313 -11c145 0 260 118 260 260c0 140 -106 258 -255 258c-145 0 -261 -118 -261 -260c0 -140 107 -258 256 -258zM369 580l-120 76c-13 -6 -33 -26 -38 -76h-55
c5 98 58 142 107 148l119 -77c14 6 34 27 38 76h55c-4 -98 -57 -142 -106 -147z" />
    <glyph glyph-name="pdotaccent" unicode="&#x1e57;" horiz-adv-x="595" 
d="M88 -201v642l-30 55h114v-42c34 33 82 53 137 53c141 0 229 -115 229 -255c0 -141 -111 -263 -247 -263c-41 0 -81 13 -114 36v-226h-89zM301 432c-45 0 -91 -22 -124 -63v-262c29 -28 69 -44 109 -44c92 0 162 84 162 184c0 105 -58 185 -147 185zM251 641
c0 28 23 52 56 52c34 0 51 -21 51 -50c0 -30 -21 -54 -56 -54c-32 0 -51 22 -51 52z" />
    <glyph glyph-name="uni027C" unicode="&#x27c;" horiz-adv-x="427" 
d="M58 496h116v-92l95 100c58 -8 103 -32 137 -71l-54 -63c-24 29 -54 44 -75 48l-100 -99v-520h-89v642z" />
    <glyph glyph-name="longs" unicode="&#x17f;" horiz-adv-x="308" 
d="M88 341v311c38 43 107 78 191 78c37 0 71 -5 104 -17v-78c-31 13 -67 20 -97 20c-49 0 -87 -13 -109 -33v-622h-89v270h-50z" />
    <glyph glyph-name="uni1E9B" unicode="&#x1e9b;" horiz-adv-x="308" 
d="M88 341v311c38 43 107 78 191 78c37 0 71 -5 104 -17v-78c-31 13 -67 20 -97 20c-49 0 -87 -13 -109 -33v-622h-89v270h-50zM196 830c0 28 23 52 56 52c34 0 51 -21 51 -50c0 -30 -21 -54 -56 -54c-32 0 -51 22 -51 52z" />
    <glyph glyph-name="sdotaccent" unicode="&#x1e61;" horiz-adv-x="473" 
d="M375 360l-29 54c-24 15 -51 23 -83 23c-58 0 -95 -29 -108 -69l268 -199c-14 -97 -82 -180 -204 -180c-77 0 -131 29 -178 78l42 63c45 -44 87 -66 139 -66c47 0 90 24 103 71l-268 200c16 93 87 172 201 172c50 0 103 -13 158 -52zM188 641c0 28 23 52 56 52
c34 0 51 -21 51 -50c0 -30 -21 -54 -56 -54c-32 0 -51 22 -51 52z" />
    <glyph glyph-name="tdotaccent" unicode="&#x1e6b;" horiz-adv-x="340" 
d="M88 649h88v-153h122v-70h-122v-257c0 -75 29 -105 89 -105c12 0 22 1 32 3v-71c-16 -2 -31 -2 -46 -2c-124 0 -163 63 -163 171v261h-51l51 71v152zM83 755c0 28 23 52 56 52c34 0 51 -21 51 -50c0 -30 -21 -54 -56 -54c-32 0 -51 22 -51 52z" />
    <glyph glyph-name="uacute" unicode="&#xfa;" horiz-adv-x="585" 
d="M225 577l97 152h101l-109 -152h-89zM48 496h119v-276c0 -81 31 -134 107 -146l134 107v315h89v-496h-86v94l-120 -100c-130 5 -213 80 -213 214v233z" />
    <glyph glyph-name="ucircumflex" unicode="&#xfb;" horiz-adv-x="585" 
d="M130 577l103 153h99l102 -153h-84l-68 100l-67 -100h-85zM48 496h119v-276c0 -81 31 -134 107 -146l134 107v315h89v-496h-86v94l-120 -100c-130 5 -213 80 -213 214v233z" />
    <glyph glyph-name="udieresis" unicode="&#xfc;" horiz-adv-x="585" 
d="M134 641c0 28 21 52 56 52c33 0 51 -21 51 -50c0 -30 -21 -54 -55 -54c-33 0 -52 22 -52 52zM321 641c0 28 22 52 55 52c34 0 51 -21 51 -50c0 -30 -20 -54 -55 -54c-32 0 -51 22 -51 52zM48 496h119v-276c0 -81 31 -134 107 -146l134 107v315h89v-496h-86v94l-120 -100
c-130 5 -213 80 -213 214v233z" />
    <glyph glyph-name="ugrave" unicode="&#xf9;" horiz-adv-x="585" 
d="M48 496h119v-276c0 -81 31 -134 107 -146l134 107v315h89v-496h-86v94l-120 -100c-130 5 -213 80 -213 214v233zM243 729l97 -152h-89l-109 152h101z" />
    <glyph glyph-name="umacron" unicode="&#x16b;" horiz-adv-x="585" 
d="M48 496h119v-276c0 -81 31 -134 107 -146l134 107v315h89v-496h-86v94l-120 -100c-130 5 -213 80 -213 214v233zM154 608v73h254v-73h-254z" />
    <glyph glyph-name="uogonek" unicode="&#x173;" horiz-adv-x="585" 
d="M48 496h119v-276c0 -81 31 -134 107 -146l134 107v315h89v-496h-3c-75 -46 -90 -93 -99 -135c9 -12 26 -29 63 -29c11 0 24 2 33 5v-59c-12 -6 -32 -9 -47 -9c-87 0 -117 49 -131 84c10 45 28 98 98 151v86l-120 -100c-130 5 -213 80 -213 214v233z" />
    <glyph glyph-name="wacute" unicode="&#x1e83;" horiz-adv-x="745" 
d="M317 577l97 152h101l-109 -152h-89zM734 496l-169 -496h-90l-81 239l-85 -239h-87l-211 496h97l161 -405l84 248l-60 157h97l133 -396l107 366l-13 30h117z" />
    <glyph glyph-name="wcircumflex" unicode="&#x175;" horiz-adv-x="745" 
d="M219 577l103 153h99l102 -153h-84l-68 100l-67 -100h-85zM734 496l-169 -496h-90l-81 239l-85 -239h-87l-211 496h97l161 -405l84 248l-60 157h97l133 -396l107 366l-13 30h117z" />
    <glyph glyph-name="wdieresis" unicode="&#x1e85;" horiz-adv-x="745" 
d="M227 641c0 28 21 52 56 52c33 0 51 -21 51 -50c0 -30 -21 -54 -55 -54c-33 0 -52 22 -52 52zM414 641c0 28 22 52 55 52c34 0 51 -21 51 -50c0 -30 -20 -54 -55 -54c-32 0 -51 22 -51 52zM734 496l-169 -496h-90l-81 239l-85 -239h-87l-211 496h97l161 -405l84 248
l-60 157h97l133 -396l107 366l-13 30h117z" />
    <glyph glyph-name="wgrave" unicode="&#x1e81;" horiz-adv-x="745" 
d="M734 496l-169 -496h-90l-81 239l-85 -239h-87l-211 496h97l161 -405l84 248l-60 157h97l133 -396l107 366l-13 30h117zM334 729l97 -152h-89l-109 152h101z" />
    <glyph glyph-name="yacute" unicode="&#xfd;" horiz-adv-x="518" 
d="M500 496l-220 -697h-90l65 201c-151 109 -207 288 -221 496h88c14 -190 55 -320 163 -411l113 372l-19 39h121zM204 577l97 152h101l-109 -152h-89z" />
    <glyph glyph-name="ycircumflex" unicode="&#x177;" horiz-adv-x="518" 
d="M500 496l-220 -697h-90l65 201c-151 109 -207 288 -221 496h88c14 -190 55 -320 163 -411l113 372l-19 39h121zM107 577l103 153h99l102 -153h-84l-68 100l-67 -100h-85z" />
    <glyph glyph-name="ydieresis" unicode="&#xff;" horiz-adv-x="518" 
d="M500 496l-220 -697h-90l65 201c-151 109 -207 288 -221 496h88c14 -190 55 -320 163 -411l113 372l-19 39h121zM112 641c0 28 21 52 56 52c33 0 51 -21 51 -50c0 -30 -21 -54 -55 -54c-33 0 -52 22 -52 52zM299 641c0 28 22 52 55 52c34 0 51 -21 51 -50
c0 -30 -20 -54 -55 -54c-32 0 -51 22 -51 52z" />
    <glyph glyph-name="ygrave" unicode="&#x1ef3;" horiz-adv-x="518" 
d="M500 496l-220 -697h-90l65 201c-151 109 -207 288 -221 496h88c14 -190 55 -320 163 -411l113 372l-19 39h121zM220 729l97 -152h-89l-109 152h101z" />
    <glyph glyph-name="ymacron" unicode="&#x233;" horiz-adv-x="518" 
d="M500 496l-220 -697h-90l65 201c-151 109 -207 288 -221 496h88c14 -190 55 -320 163 -411l113 372l-19 39h121zM131 608v73h254v-73h-254z" />
    <glyph glyph-name="cacute" unicode="&#x107;" horiz-adv-x="477" 
d="M225 577l97 152h101l-109 -152h-89zM417 492v-108l-62 47c-3 1 -16 3 -28 3c-108 0 -180 -82 -180 -186c0 -110 71 -185 181 -185c34 0 66 8 96 21l1 -77c-29 -11 -66 -18 -100 -18c-155 0 -268 102 -268 258c0 144 120 260 265 260c33 0 65 -5 95 -15z" />
    <glyph glyph-name="nacute" unicode="&#x144;" horiz-adv-x="585" 
d="M223 577l97 152h101l-109 -152h-89zM174 496v-95l120 101c130 -5 213 -80 213 -214v-288h-89v276c0 81 -31 134 -108 146l-133 -107v-315h-89v441l-30 55h116z" />
    <glyph glyph-name="sacute" unicode="&#x15b;" horiz-adv-x="473" 
d="M186 577l97 152h101l-109 -152h-89zM375 360l-29 54c-24 15 -51 23 -83 23c-58 0 -95 -29 -108 -69l268 -199c-14 -97 -82 -180 -204 -180c-77 0 -131 29 -178 78l42 63c45 -44 87 -66 139 -66c47 0 90 24 103 71l-268 200c16 93 87 172 201 172c50 0 103 -13 158 -52z
" />
    <glyph glyph-name="zdot" unicode="&#x17c;" horiz-adv-x="457" 
d="M47 392v104h362v-68l-256 -353h258v-75h-365v67l257 355h-202zM177 641c0 28 23 52 56 52c34 0 51 -21 51 -50c0 -30 -21 -54 -56 -54c-32 0 -51 22 -51 52z" />
    <glyph glyph-name="zacute" unicode="&#x17a;" horiz-adv-x="457" 
d="M170 577l97 152h101l-109 -152h-89zM47 392v104h362v-68l-256 -353h258v-75h-365v67l257 355h-202z" />
    <glyph glyph-name="C_H" horiz-adv-x="1131" 
d="M1036 684v-684h-95v302h-276v-302h-203c-272 0 -407 139 -404 368c0 180 134 327 314 327c32 0 64 -4 93 -13v-120l-61 45c-7 2 -20 3 -34 3c-128 0 -215 -105 -215 -236c0 -184 88 -290 310 -290h105v600h95v-299h276v299h95z" />
    <glyph glyph-name="C_h" horiz-adv-x="1064" 
d="M568 84v635h86v-318l119 101c130 -5 213 -80 213 -214v-288h-88v276c0 81 -31 134 -108 146l-134 -107v-315h-194c-272 0 -407 139 -404 368c0 180 134 327 314 327c32 0 64 -4 93 -13v-120l-61 45c-7 2 -20 3 -34 3c-128 0 -215 -105 -215 -236c0 -184 88 -290 310 -290
h103z" />
    <glyph glyph-name="c_h" horiz-adv-x="971" 
d="M457 719h116v-317l113 100c126 -5 206 -80 206 -214v-288h-88v276c0 81 -28 134 -101 146l-127 -106v-316h-222c-174 0 -297 84 -297 264c0 133 111 243 236 243c33 0 65 -6 95 -15v-108l-62 47c-3 1 -16 3 -28 3c-87 0 -151 -75 -151 -169c0 -125 80 -192 209 -192h131
v591z" />
    <glyph glyph-name="C_quoteright_H" horiz-adv-x="1248" 
d="M782 684v-299h276v299h95v-684h-95v302h-276v-302h-95v684h95zM402 684v-87c-9 3 -18 2 -23 2c-128 0 -224 -108 -224 -259c0 -156 92 -266 262 -266c45 0 82 6 122 23v-88c-36 -14 -87 -20 -127 -20c-227 0 -354 141 -354 351c0 174 126 344 323 344h21zM451 396l-38 46
c49 44 95 103 99 153l-38 88h129v-26c0 -113 -58 -191 -152 -261z" />
    <glyph glyph-name="C_quoteright_h" horiz-adv-x="1150" 
d="M755 0h-88v719h86v-317l113 100c126 -5 206 -80 206 -214v-288h-88v276c0 81 -29 134 -101 146l-128 -107v-315zM402 684v-87c-9 3 -18 2 -23 2c-128 0 -224 -108 -224 -259c0 -156 92 -266 262 -266c45 0 82 6 122 23v-88c-36 -14 -87 -20 -127 -20
c-227 0 -354 141 -354 351c0 174 126 344 323 344h21zM451 396l-38 46c49 44 95 103 99 153l-38 88h129v-26c0 -113 -58 -191 -152 -261z" />
    <glyph glyph-name="c_quoteright_h" horiz-adv-x="1126" 
d="M731 0h-88v719h86v-317l113 100c126 -5 206 -80 206 -214v-288h-88v276c0 81 -29 134 -101 146l-128 -107v-315zM334 505v-73c-4 1 -12 2 -19 2c-98 0 -168 -77 -168 -181c0 -110 76 -190 186 -190c38 0 72 8 105 21l1 -77c-32 -11 -72 -18 -109 -18
c-154 0 -273 107 -273 263c0 144 117 254 253 254c8 0 16 0 24 -1zM426 396l-38 46c49 44 95 103 99 153l-38 88h129v-26c0 -113 -58 -191 -152 -261z" />
    <glyph glyph-name="F_F" horiz-adv-x="987" 
d="M942 684v-84h-283v-230h230v-83h-230v-287h-95v684h378zM417 370v-83h-227v-287h-95v629l-31 55h398v-84h-272v-230h227z" />
    <glyph glyph-name="F_f" horiz-adv-x="857" 
d="M416 370v-83h-226v-287h-95v629l-31 55h391v-84h-265v-230h226zM554 497v155c38 43 106 78 191 78c36 0 71 -5 103 -17v-77c-31 12 -66 19 -96 19c-49 0 -87 -13 -110 -33v-126h154v-70h-154v-426h-88v426h-50z" />
    <glyph glyph-name="G_h" horiz-adv-x="1213" 
d="M686 719h116v-318l120 101c130 -5 213 -80 213 -214v-288h-89v276c0 81 -31 134 -108 146l-133 -107v-315h-89v664zM397 86h67v202h-132v84h227v-372h-162c-213 0 -342 149 -338 341c0 195 155 354 363 354c32 0 64 -4 93 -13v-120l-61 45c-7 2 -20 3 -34 3
c-156 0 -264 -118 -264 -262c-1 -145 85 -262 241 -262z" />
    <glyph glyph-name="g_h" horiz-adv-x="1026" 
d="M512 719h116v-317l113 100c126 -5 206 -80 206 -214v-288h-88v276c0 81 -28 134 -101 146l-127 -106v-316h-89v420h-151c-153 -78 -228 -205 -228 -340h274v-69c0 -194 -116 -232 -222 -232c-54 0 -106 5 -153 16v87c44 -12 92 -20 150 -20c80 0 136 40 133 138h-269
c-14 189 53 336 182 420h-140l-54 -30v106h478v168z" />
    <glyph glyph-name="G_w" horiz-adv-x="1318" 
d="M1307 496l-169 -496h-89l-81 239l-86 -239h-87l-137 318h-99v-318h-162c-213 0 -342 149 -338 341c0 195 155 354 363 354c32 0 64 -4 93 -13v-120l-61 45c-7 2 -20 3 -34 3c-156 0 -264 -118 -264 -262c-1 -145 85 -262 241 -262h67l-1 232h-131v84h388l123 -312l83 250
l-59 156h97l134 -399l110 359l-18 40h117z" />
    <glyph glyph-name="g_w" horiz-adv-x="1148" 
d="M1037 455l-18 41h117l-164 -496h-90l-76 237l-81 -237h-88l-174 420h-78c-145 -78 -222 -205 -222 -340h275v-69c0 -194 -117 -232 -223 -232c-54 0 -106 5 -153 16v87c44 -12 92 -20 150 -20c80 0 137 40 134 138h-270c-14 189 54 336 174 420h-132l-54 -30v106h465
l155 -406l80 249l-59 157h97l129 -396z" />
    <glyph glyph-name="L_L" horiz-adv-x="899" 
d="M190 684v-600h216v-84h-311v629l-31 55h126zM608 684v-600h265v-84h-360v629l-30 55h125z" />
    <glyph glyph-name="L_l" horiz-adv-x="694" 
d="M190 684v-600h216v-84h-311v629l-31 55h126zM635 -7c-107 0 -136 57 -136 143v528l-30 55h118v-579c0 -52 18 -75 66 -75c5 0 11 0 17 1v-71c-12 -1 -24 -2 -35 -2z" />
    <glyph glyph-name="l_l" horiz-adv-x="540" 
d="M481 -7c-107 0 -136 57 -136 143v528l-31 55h119v-579c0 -52 18 -75 66 -75c5 0 10 0 17 1v-71c-13 -1 -24 -2 -35 -2zM218 -7c-107 0 -135 57 -135 143v528l-30 55h119v-579c0 -44 16 -73 52 -73h2v-74h-8z" />
    <glyph glyph-name="T_H" horiz-adv-x="1110" 
d="M73 600l-60 -41v125h632v-299h275v299h96v-684h-96v302h-275v-302h-96v600h-266v-480c17 -25 48 -45 97 -45c22 0 41 3 70 15v-86c-28 -11 -55 -15 -82 -15c-99 0 -153 51 -180 99v512h-115z" />
    <glyph glyph-name="T_h" horiz-adv-x="1061" 
d="M73 600l-60 -41v125h552l86 31v-314l119 101c130 -5 213 -80 213 -214v-288h-88v276c0 81 -31 134 -108 146l-134 -107v-315h-88v600h-282v-480c17 -25 48 -45 90 -45c29 0 53 6 85 20v-87c-29 -11 -63 -19 -94 -19c-95 0 -149 51 -176 99v512h-115z" />
    <glyph glyph-name="t_h" horiz-adv-x="902" 
d="M375 719h116v-318l120 101c130 -5 213 -80 213 -214v-288h-88v276c0 81 -32 134 -108 146l-134 -107v-315h-196c-156 0 -210 61 -210 213v213h-51l51 71v152h88v-153h120v-70h-120v-213c0 -104 22 -143 126 -143h104v594z" />
    <glyph glyph-name="Z_H" horiz-adv-x="1121" 
d="M1026 684v-684h-95v302h-276v-302h-622v80l309 520h-246l-60 -41v125h412v-81l-308 -519h420v600h95v-299h276v299h95z" />
    <glyph glyph-name="z_h" horiz-adv-x="988" 
d="M475 719h116v-317l113 100c126 -5 206 -80 206 -214v-288h-88v276c0 81 -29 134 -101 146l-128 -107v-315h-547v61l245 361h-190l-54 -30v104h344v-68l-240 -353h354v589z" />
    <glyph glyph-name="acute" unicode="&#xb4;" horiz-adv-x="560" 
d="M189 577l97 152h101l-109 -152h-89z" />
    <glyph glyph-name="grave" unicode="`" horiz-adv-x="560" 
d="M273 729l97 -152h-89l-109 152h101z" />
    <glyph glyph-name="circumflex" unicode="&#x2c6;" horiz-adv-x="560" 
d="M128 577l103 153h99l102 -153h-84l-68 100l-67 -100h-85z" />
    <glyph glyph-name="dieresis" unicode="&#xa8;" horiz-adv-x="560" 
d="M133 641c0 28 21 52 56 52c33 0 51 -21 51 -50c0 -30 -21 -54 -55 -54c-33 0 -52 22 -52 52zM320 641c0 28 22 52 55 52c34 0 51 -21 51 -50c0 -30 -20 -54 -55 -54c-32 0 -51 22 -51 52z" />
    <glyph glyph-name="dotaccent" unicode="&#x2d9;" horiz-adv-x="560" 
d="M226 641c0 28 23 52 56 52c34 0 51 -21 51 -50c0 -30 -21 -54 -56 -54c-32 0 -51 22 -51 52z" />
    <glyph glyph-name="tilde" unicode="&#x2dc;" horiz-adv-x="560" 
d="M320 580l-120 76c-13 -6 -33 -26 -38 -76h-55c5 98 58 142 107 148l119 -77c14 6 34 27 38 76h55c-4 -98 -57 -142 -106 -147z" />
    <glyph glyph-name="ring" unicode="&#x2da;" horiz-adv-x="560" 
d="M278 561c-65 0 -106 44 -106 102c0 57 43 102 109 102c64 0 106 -45 106 -102c0 -58 -44 -102 -109 -102zM278 611c32 0 53 22 53 52s-19 52 -52 52c-32 0 -53 -22 -53 -52s19 -52 52 -52z" />
    <glyph glyph-name="cedilla" unicode="&#xb8;" horiz-adv-x="560" 
d="M206 -287v58c74 21 104 48 104 78c0 24 -20 38 -63 38h-38l12 121h74l-7 -67c76 -4 104 -41 104 -84c0 -61 -56 -113 -186 -144z" />
    <glyph glyph-name="macron" unicode="&#xaf;" horiz-adv-x="560" 
d="M153 608v73h254v-73h-254z" />
    <glyph glyph-name="ogonek" unicode="&#x2db;" horiz-adv-x="560" 
d="M350 58v-58c-75 -46 -90 -93 -99 -135c9 -12 26 -29 63 -29c11 0 24 2 33 5v-59c-12 -6 -32 -9 -47 -9c-87 0 -117 49 -131 84c14 59 41 132 181 201z" />
    <glyph glyph-name="zero" unicode="0" horiz-adv-x="683" 
d="M341 74c115 0 192 118 192 262c0 145 -76 274 -194 274c-113 0 -187 -118 -187 -262c0 -145 73 -274 189 -274zM341 -11c-171 0 -290 159 -286 353c0 195 121 353 286 353c167 0 289 -158 289 -353c0 -194 -123 -353 -289 -353z" />
    <glyph glyph-name="one" unicode="1" horiz-adv-x="299" 
d="M209 684v-684h-95v576h-59l59 108h95z" />
    <glyph glyph-name="two" unicode="2" horiz-adv-x="568" 
d="M86 84l318 462c-22 34 -66 65 -129 65c-50 0 -98 -17 -134 -48l-25 -66l-63 98c60 66 142 100 227 100c124 0 204 -66 236 -152l-319 -459h320v-84h-431v84z" />
    <glyph glyph-name="three" unicode="3" horiz-adv-x="521" 
d="M155 323v73l182 204h-217l-60 -41v125h389v-82l-194 -209c157 -6 213 -101 213 -189c0 -131 -104 -215 -249 -215c-52 0 -106 10 -156 29v89c56 -27 101 -37 156 -37c87 0 152 47 152 130c0 79 -45 138 -216 123z" />
    <glyph glyph-name="four" unicode="4" horiz-adv-x="549" 
d="M427 409v-174h107v-84h-107v-151h-96v151h-307v84l220 449h107l-228 -449h208v120l-30 54h126z" />
    <glyph glyph-name="five" unicode="5" horiz-adv-x="509" 
d="M86 350v334h354v-125l-60 41h-209v-172h34c211 0 269 -111 269 -216c0 -137 -105 -223 -243 -223c-63 0 -113 10 -166 29v89c57 -25 110 -37 161 -37c91 0 151 48 151 139c0 83 -42 141 -196 141h-95z" />
    <glyph glyph-name="six" unicode="6" horiz-adv-x="633" 
d="M389 615c-127 0 -209 -75 -227 -229c45 39 102 63 172 63c173 0 238 -112 238 -222c0 -137 -103 -238 -250 -238c-170 0 -259 127 -259 313c0 237 121 393 315 393c37 0 81 -5 115 -15v-117l-60 48c-13 2 -30 4 -44 4zM326 365c-77 0 -129 -27 -168 -68
c5 -140 58 -227 164 -227c90 0 153 61 153 154c0 75 -46 141 -149 141z" />
    <glyph glyph-name="seven" unicode="7" horiz-adv-x="539" 
d="M215 0h-109l281 600h-277l-60 -41v125h439v-81z" />
    <glyph glyph-name="eight" unicode="8" horiz-adv-x="601" 
d="M297 -11c-148 0 -243 82 -243 201c0 79 46 140 121 173c-54 31 -92 82 -92 147c0 98 84 185 221 185c140 0 215 -85 215 -184c0 -65 -38 -115 -96 -146c73 -31 124 -92 124 -176c0 -115 -101 -200 -250 -200zM299 73c92 0 152 57 152 129s-63 118 -150 118
c-85 0 -151 -43 -151 -119c0 -71 57 -128 149 -128zM301 397c74 0 129 41 129 106c0 57 -43 113 -127 113s-131 -57 -131 -115c0 -61 54 -104 129 -104z" />
    <glyph glyph-name="nine" unicode="9" horiz-adv-x="633" 
d="M244 69c127 0 209 75 227 229c-45 -39 -102 -63 -172 -63c-173 0 -238 112 -238 222c0 137 103 238 250 238c170 0 259 -127 259 -313c0 -237 -121 -393 -315 -393c-37 0 -81 5 -115 15v117l60 -48c13 -2 30 -4 44 -4zM307 319c77 0 129 27 168 68
c-5 140 -58 227 -164 227c-90 0 -153 -61 -153 -154c0 -75 46 -141 149 -141z" />
    <glyph glyph-name="Euro" unicode="&#x20ac;" horiz-adv-x="623" 
d="M51 297h66c-1 14 -1 30 -1 45c0 13 0 26 2 39h-67v62h79c41 146 170 252 335 252c32 0 64 -4 93 -13v-120l-61 45c-7 2 -20 3 -34 3c-115 0 -201 -70 -235 -167h244v-62h-258c-1 -11 -1 -22 -1 -33c0 -18 1 -35 4 -51h255v-62h-240c35 -95 114 -161 225 -161
c42 0 77 6 114 23v-88c-34 -14 -81 -20 -119 -20c-168 0 -286 102 -324 246h-77v62z" />
    <glyph glyph-name="dollar" unicode="$" horiz-adv-x="520" 
d="M30 83l48 74c53 -53 107 -79 170 -79c59 0 113 33 130 82l-335 334c16 93 82 176 189 196v116h78v-112c64 -4 114 -25 170 -65l-47 -110l-34 62c-33 18 -67 32 -115 32c-71 0 -117 -43 -132 -89l341 -340c-17 -80 -76 -164 -183 -188v-111h-78v105c-85 3 -151 37 -202 93
z" />
    <glyph glyph-name="cent" unicode="&#xa2;" horiz-adv-x="480" 
d="M257 -126v122c-119 26 -199 119 -199 251c0 121 85 223 199 252v124h78v-116c29 -1 56 -6 83 -15v-108l-62 47c-3 1 -16 3 -28 3c-108 0 -180 -82 -180 -186c0 -110 71 -185 181 -185c34 0 66 8 96 21l1 -77c-27 -10 -60 -17 -91 -18v-115h-78z" />
    <glyph glyph-name="sterling" unicode="&#xa3;" horiz-adv-x="533" 
d="M48 411h50v152c28 64 96 132 213 132c67 0 112 -19 167 -64l-47 -110l-35 64c-24 18 -53 28 -88 28c-56 0 -98 -25 -120 -59v-143h208v-62h-208v-82h208v-62h-208v-121h270v-84h-407v84h47v121h-50v62h50v82h-50v62z" />
    <glyph glyph-name="yen" unicode="&#xa5;" horiz-adv-x="581" 
d="M95 164h160v80h-160v62h134l-217 378h106l186 -342l152 302l-17 40h132l-200 -378h138v-62h-159v-80h159v-62h-159v-102h-95v102h-160v62z" />
    <glyph glyph-name="ampersand" unicode="&#x26;" horiz-adv-x="615" 
d="M509 0l-61 79c-75 -69 -134 -90 -203 -90c-124 0 -185 73 -185 169c0 80 42 161 136 250l-87 114c27 79 93 173 231 173c65 0 110 -16 166 -55l-47 -110l-35 61c-26 13 -49 22 -84 22c-65 0 -108 -43 -122 -79l409 -533zM248 78c51 0 92 21 148 69l-149 195
c-69 -67 -90 -120 -90 -173s30 -91 91 -91z" />
    <glyph glyph-name="at" unicode="@" horiz-adv-x="857" 
d="M591 2l26 -68c-56 -31 -119 -47 -204 -47c-217 0 -348 124 -348 365c0 216 152 397 384 397c207 0 343 -134 343 -328c0 -118 -56 -213 -192 -260l-34 83l-296 -71c-7 30 -12 73 -12 105c0 138 67 233 183 275l-24 60l89 1l137 -344c41 29 69 74 69 149
c0 148 -93 257 -263 257c-184 0 -305 -144 -305 -324c0 -188 102 -288 272 -288c70 0 126 12 175 38zM468 391c-85 -35 -127 -100 -127 -207c0 -4 0 -14 1 -18l198 48z" />
    <glyph glyph-name="asterisk" unicode="*" horiz-adv-x="526" 
d="M154 360l-61 44l109 151l-177 58l24 72l177 -58l-1 186h76v-186l178 58l22 -72l-177 -58l109 -151l-61 -43l-109 151z" />
    <glyph glyph-name="parenleft" unicode="(" horiz-adv-x="378" 
d="M55 307c0 245 96 476 328 531v-79c-162 -58 -237 -243 -237 -442v-21c0 -198 75 -383 237 -441v-80c-232 55 -328 287 -328 532z" />
    <glyph glyph-name="parenright" unicode=")" horiz-adv-x="378" 
d="M323 307c0 -245 -97 -477 -328 -532v80c162 58 237 243 237 441v21c0 199 -75 384 -237 442v79c231 -55 328 -286 328 -531z" />
    <glyph glyph-name="braceleft" unicode="{" horiz-adv-x="361" 
d="M174 310c53 -16 87 -58 87 -113c0 -93 -63 -200 -93 -290c19 -22 71 -58 167 -42v-66c-149 -23 -229 41 -256 97c42 154 93 225 93 302c0 44 -45 72 -98 72h-37v79h37c53 0 98 28 98 72c0 77 -51 148 -93 302c27 56 107 120 256 97v-66c-96 16 -148 -20 -167 -42
c30 -90 93 -197 93 -290c0 -55 -34 -97 -87 -112z" />
    <glyph glyph-name="braceright" unicode="}" horiz-adv-x="361" 
d="M186 310c-53 15 -87 57 -87 112c0 93 62 200 93 290c-19 22 -69 58 -166 42v66c149 23 230 -41 257 -97c-43 -154 -93 -225 -93 -302c0 -44 44 -72 97 -72h37v-79h-37c-53 0 -97 -28 -97 -72c0 -77 50 -148 93 -302c-27 -56 -108 -120 -257 -97v66c97 -16 147 20 166 42
c-31 90 -93 197 -93 290c0 55 34 97 87 113z" />
    <glyph glyph-name="bracketleft" unicode="[" horiz-adv-x="347" 
d="M81 -220v1053h263v-78h-168v-896h168v-79h-263z" />
    <glyph glyph-name="bracketright" unicode="]" horiz-adv-x="347" 
d="M266 833v-1053h-262v79h167v896h-167v78h262z" />
    <glyph glyph-name="bar" unicode="|" horiz-adv-x="256" 
d="M81 -218v1117h95v-1117h-95z" />
    <glyph glyph-name="slash" unicode="/" horiz-adv-x="412" 
d="M-30 -140l362 931h96l-362 -931h-96z" />
    <glyph glyph-name="backslash" unicode="\" horiz-adv-x="413" 
d="M80 791l363 -931h-97l-361 931h95z" />
    <glyph glyph-name="colon" unicode=":" horiz-adv-x="260" 
d="M66 54c0 35 25 65 66 65c40 0 62 -28 62 -63s-26 -63 -66 -63c-41 0 -62 26 -62 61zM66 417c0 35 25 65 66 65c40 0 62 -28 62 -63s-26 -63 -66 -63c-41 0 -62 26 -62 61z" />
    <glyph glyph-name="period" unicode="." horiz-adv-x="260" 
d="M66 54c0 35 25 65 66 65c40 0 62 -28 62 -63s-26 -63 -66 -63c-41 0 -62 26 -62 61z" />
    <glyph glyph-name="periodcentered" unicode="&#xb7;" horiz-adv-x="260" 
d="M66 297c0 35 25 65 66 65c40 0 62 -28 62 -63s-26 -63 -66 -63c-41 0 -62 26 -62 61z" />
    <glyph glyph-name="semicolon" unicode=";" horiz-adv-x="246" 
d="M39 -204l-38 46c49 44 95 103 99 153l-38 88h129v-26c0 -113 -58 -191 -152 -261zM59 417c0 35 25 65 66 65c40 0 62 -28 62 -63s-26 -63 -66 -63c-41 0 -62 26 -62 61z" />
    <glyph glyph-name="comma" unicode="," horiz-adv-x="246" 
d="M39 -204l-38 46c49 44 95 103 99 153l-38 88h129v-26c0 -113 -58 -191 -152 -261z" />
    <glyph glyph-name="ellipsis" unicode="&#x2026;" horiz-adv-x="774" 
d="M66 54c0 35 25 65 66 65c40 0 62 -28 62 -63s-26 -63 -66 -63c-41 0 -62 26 -62 61zM323 54c0 35 25 65 66 65c40 0 62 -28 62 -63s-26 -63 -66 -63c-41 0 -62 26 -62 61zM580 54c0 35 25 65 66 65c40 0 62 -28 62 -63s-26 -63 -66 -63c-41 0 -62 26 -62 61z" />
    <glyph glyph-name="bullet" unicode="&#x2022;" horiz-adv-x="354" 
d="M172 183c-74 0 -117 52 -117 118c0 67 49 123 126 123c75 0 118 -51 118 -118c0 -66 -49 -123 -127 -123z" />
    <glyph glyph-name="hyphen" unicode="-" horiz-adv-x="377" 
d="M50 262v82h280v-82h-280z" />
    <glyph glyph-name="endash" unicode="&#x2013;" horiz-adv-x="346" 
d="M16 262v82h314v-82h-314z" />
    <glyph glyph-name="emdash" unicode="&#x2014;" horiz-adv-x="682" 
d="M16 262v82h650v-82h-650z" />
    <glyph glyph-name="underscore" unicode="_" horiz-adv-x="498" 
d="M15 -145v81h468v-81h-468z" />
    <glyph glyph-name="exclam" unicode="!" horiz-adv-x="279" 
d="M165 198h-72l-14 443v44h100v-44zM64 49c0 34 26 63 68 63c41 0 63 -25 63 -60s-25 -63 -67 -63c-41 0 -64 26 -64 60z" />
    <glyph glyph-name="exclamdown" unicode="&#xa1;" horiz-adv-x="252" 
d="M146 298l14 -443v-44h-99v44c5 175 9 324 14 443h71zM44 444c0 35 26 63 68 63c40 0 63 -26 63 -60s-26 -63 -68 -63c-41 0 -63 25 -63 60z" />
    <glyph glyph-name="question" unicode="?" horiz-adv-x="507" 
d="M279 268v-74h-95v84l191 269c-21 33 -66 64 -127 64c-51 0 -98 -18 -135 -49l-25 -66l-63 98c61 66 142 101 229 101c117 0 198 -59 228 -145zM171 50c0 34 25 64 68 64c41 0 63 -27 63 -61c0 -35 -27 -64 -68 -64c-40 0 -63 26 -63 61z" />
    <glyph glyph-name="questiondown" unicode="&#xbf;" horiz-adv-x="507" 
d="M228 228v74h95v-84l-191 -269c21 -33 66 -64 127 -64c51 0 98 18 135 49l25 66l63 -98c-61 -66 -142 -101 -229 -101c-117 0 -198 59 -228 145zM337 446c0 -34 -26 -64 -69 -64c-40 0 -63 26 -63 61s27 64 68 64c40 0 64 -26 64 -61z" />
    <glyph glyph-name="guillemotleft" unicode="&#xab;" horiz-adv-x="463" 
d="M227 277l110 189h85l-93 -189l93 -190h-85zM25 277l119 189h85l-102 -189l102 -190h-85z" />
    <glyph glyph-name="guillemotright" unicode="&#xbb;" horiz-adv-x="463" 
d="M236 277l-110 -190h-86l94 190l-94 189h86zM438 277l-119 -190h-86l102 190l-102 189h86z" />
    <glyph glyph-name="guilsinglleft" unicode="&#x2039;" horiz-adv-x="261" 
d="M25 276l110 190h86l-94 -190l94 -189h-86z" />
    <glyph glyph-name="guilsinglright" unicode="&#x203a;" horiz-adv-x="261" 
d="M236 276l-110 -189h-86l94 189l-94 190h86z" />
    <glyph glyph-name="quotesingle" unicode="'" horiz-adv-x="196" 
d="M55 417v267h86v-267h-86z" />
    <glyph glyph-name="quotedbl" unicode="&#x22;" horiz-adv-x="370" 
d="M55 417v267h86v-267h-86zM315 684v-267h-86v267h86z" />
    <glyph glyph-name="quotedblleft" unicode="&#x201c;" horiz-adv-x="458" 
d="M207 694l38 -46c-49 -44 -95 -103 -99 -153l38 -88h-129v26c0 113 58 191 152 261zM412 694l38 -46c-49 -44 -95 -103 -99 -153l38 -88h-129v26c0 113 58 191 152 261z" />
    <glyph glyph-name="quotedblright" unicode="&#x201d;" horiz-adv-x="458" 
d="M44 396l-38 46c49 44 95 103 99 153l-38 88h129v-26c0 -113 -58 -191 -152 -261zM250 396l-38 46c49 44 95 103 99 153l-38 88h129v-26c0 -113 -58 -191 -152 -261z" />
    <glyph glyph-name="quoteleft" unicode="&#x2018;" horiz-adv-x="252" 
d="M207 694l38 -46c-49 -44 -95 -103 -99 -153l38 -88h-129v26c0 113 58 191 152 261z" />
    <glyph glyph-name="quoteright" unicode="&#x2019;" horiz-adv-x="252" 
d="M44 396l-38 46c49 44 95 103 99 153l-38 88h129v-26c0 -113 -58 -191 -152 -261z" />
    <glyph glyph-name="quotedblbase" unicode="&#x201e;" horiz-adv-x="452" 
d="M39 -204l-38 46c49 44 95 103 99 153l-38 88h129v-26c0 -113 -58 -191 -152 -261zM244 -204l-38 46c49 44 95 103 99 153l-38 88h129v-26c0 -113 -58 -191 -152 -261z" />
    <glyph glyph-name="quotesinglbase" unicode="&#x201a;" horiz-adv-x="246" 
d="M39 -204l-38 46c49 44 95 103 99 153l-38 88h129v-26c0 -113 -58 -191 -152 -261z" />
    <glyph glyph-name="copyright" unicode="&#xa9;" horiz-adv-x="782" 
d="M474 489l-1 -83l-40 32c-2 1 -11 3 -18 3c-72 0 -122 -53 -122 -123c0 -75 49 -118 122 -118c21 0 43 4 62 12l1 -63c-20 -6 -45 -11 -69 -11c-108 0 -188 71 -188 180c0 101 85 182 186 182c23 0 46 -4 67 -11zM387 -7c-196 0 -322 143 -322 324s134 325 330 325
s322 -144 322 -325s-134 -324 -330 -324zM387 60c152 0 255 113 255 257s-96 258 -247 258s-254 -114 -254 -258s96 -257 246 -257z" />
    <glyph glyph-name="registered" unicode="&#xae;" horiz-adv-x="468" 
d="M231 336c-126 0 -207 93 -207 211s85 211 212 211c125 0 208 -93 208 -211s-87 -211 -213 -211zM231 382c97 0 163 70 163 165s-61 166 -158 166c-96 0 -164 -71 -164 -166s64 -165 159 -165zM227 676c64 0 93 -32 93 -73c0 -28 -16 -50 -39 -65l57 -104h-38l-49 92h-55
v-92h-34v222l-10 20h75zM286 603c0 35 -29 45 -59 45h-31v-93h53c19 6 37 25 37 48z" />
    <glyph glyph-name="paragraph" unicode="&#xb6;" horiz-adv-x="735" 
d="M313 684h161v-684h-96v237c-18 -2 -46 -3 -68 -3c-130 0 -255 56 -255 229c0 125 75 221 258 221zM544 0v684h126l-30 -55v-629h-96z" />
    <glyph glyph-name="section" unicode="&#xa7;" horiz-adv-x="501" 
d="M102 413l327 -242c-13 -98 -81 -183 -205 -183c-79 0 -135 29 -182 80l42 63c46 -46 88 -68 142 -68c49 0 93 26 105 75l-280 206zM265 696c49 0 103 -12 157 -51l-40 -95l-29 53c-25 15 -52 24 -84 24c-59 0 -98 -32 -110 -74l291 -217l-47 -69l-342 253
c15 95 87 176 204 176z" />
    <glyph glyph-name="numbersign" unicode="#" horiz-adv-x="659" 
d="M60 360l12 72h110l18 124h84l-18 -124h158l18 124h84l-18 -124h123l-12 -72h-121l-22 -153h123l-12 -71h-121l-18 -136h-85l20 136h-159l-19 -136h-84l20 136h-113l12 71h110l23 153h-113zM256 360l-22 -153h158l23 153h-159z" />
    <glyph glyph-name="degree" unicode="&#xb0;" horiz-adv-x="328" 
d="M164 442c-75 0 -124 53 -124 123s51 125 126 125c74 0 122 -55 122 -125s-51 -123 -124 -123zM164 497c39 0 66 30 66 68c0 40 -26 69 -64 69c-41 0 -68 -29 -68 -69c0 -38 25 -68 66 -68z" />
    <glyph glyph-name="plus" unicode="+" horiz-adv-x="501" 
d="M31 264v83h172v168h94v-168h173v-83h-173v-168h-94v168h-172z" />
    <glyph glyph-name="minus" unicode="&#x2212;" horiz-adv-x="501" 
d="M31 264v83h439v-83h-439z" />
    <glyph glyph-name="plusminus" unicode="&#xb1;" horiz-adv-x="512" 
d="M37 367v82h172v164h94v-164h172v-82h-172v-164h-94v164h-172zM37 42v82h438v-82h-438z" />
    <glyph glyph-name="divide" unicode="&#xf7;" horiz-adv-x="501" 
d="M31 264v82h439v-82h-439zM186 107c0 35 24 63 67 63c40 0 62 -27 62 -62c0 -34 -24 -62 -66 -62c-40 0 -63 26 -63 61zM186 503c0 35 23 63 67 63c39 0 62 -27 62 -62s-24 -63 -67 -63c-39 0 -62 27 -62 62z" />
    <glyph glyph-name="equal" unicode="=" horiz-adv-x="512" 
d="M37 361v82h438v-82h-438zM37 170v82h438v-82h-438z" />
    <glyph glyph-name="multiply" unicode="&#xd7;" horiz-adv-x="485" 
d="M36 451l58 58l149 -148l149 149l57 -58l-147 -147l147 -148l-59 -59l-147 148l-148 -148l-60 60l147 147z" />
    <glyph glyph-name="less" unicode="&#x3c;" horiz-adv-x="404" 
d="M365 67l-332 195v88l332 194v-100l-243 -138l243 -136v-103z" />
    <glyph glyph-name="greater" unicode="&#x3e;" horiz-adv-x="404" 
d="M39 544l332 -194v-89l-332 -194v100l243 138l-243 137v102z" />
    <glyph glyph-name="percent" unicode="%" horiz-adv-x="1016" 
d="M228 352c58 0 96 58 96 135s-37 141 -97 141c-57 0 -94 -58 -94 -135s37 -141 95 -141zM228 287c-103 0 -173 93 -171 203c0 111 72 204 171 204s172 -93 172 -204c0 -110 -73 -203 -172 -203zM273 0l379 685h92l-379 -685h-92zM788 332c-57 0 -95 -58 -95 -134
s37 -141 97 -141c56 0 93 59 93 136c0 75 -37 139 -95 139zM788 399c103 0 174 -93 172 -204c0 -111 -73 -205 -172 -205c-100 0 -173 94 -173 205s73 204 173 204z" />
    <glyph glyph-name="space" unicode=" " horiz-adv-x="300" 
 />
    <glyph glyph-name="A.alt" 
d="M530 0l-74 173l-145 -177l-142 174l-65 -170h-91l244 628l-23 56h102l297 -684h-103zM306 531l-106 -274l113 -140l111 139z" />
    <glyph glyph-name="B.alt" horiz-adv-x="616" 
d="M497 502c0 -60 -32 -96 -66 -117h98v-385h-434v629l-31 55h210c149 0 223 -72 223 -182zM436 306h-246v-227h246v227zM190 607v-222h131c49 26 79 56 79 113c0 66 -39 109 -124 109h-86z" />
    <glyph glyph-name="E.alt" horiz-adv-x="572" 
d="M483 266l-60 41h-266c16 -131 109 -233 247 -233c41 0 75 5 112 21v-88c-34 -13 -74 -18 -112 -18c-208 0 -349 155 -346 353c0 195 152 353 349 353c36 0 69 -3 96 -11v-92c-21 9 -52 18 -94 18c-136 0 -234 -92 -252 -220h326v-124z" />
    <glyph glyph-name="a.alt" horiz-adv-x="551" 
d="M530 12l-80 -31l-36 89l-347 -81c-8 36 -14 85 -14 124c0 161 81 272 218 321l-26 66h94zM138 119c0 -5 1 -28 2 -33l249 57l-88 222c-107 -39 -163 -115 -163 -246z" />
    <glyph glyph-name="e.alt" horiz-adv-x="589" 
d="M541 220h-392c11 -91 76 -156 180 -156c33 0 66 5 88 14v-75c-29 -9 -59 -14 -91 -14c-163 0 -269 107 -269 258c0 133 106 260 249 260c165 0 240 -148 235 -287zM306 431c-82 0 -141 -63 -156 -142h303c-16 82 -71 142 -147 142z" />
    <glyph glyph-name="f.alt" horiz-adv-x="392" 
d="M88 341v311c38 43 107 78 191 78c37 0 71 -5 104 -17v-78c-31 13 -67 20 -97 20c-49 0 -87 -13 -109 -33v-282h153v-70h-153v-270h-89v270h-50z" />
    <glyph glyph-name="g.alt" horiz-adv-x="535" 
d="M64 487h421v-80h-104c-146 -78 -218 -199 -218 -327h310v-69c0 -194 -134 -232 -258 -232c-54 0 -106 5 -153 16v87c44 -12 92 -20 150 -20c101 0 172 40 169 138h-305c-13 181 51 325 175 407h-133l-54 -31v111z" />
    <glyph glyph-name="Aacute.alt" 
d="M246 747l97 152h101l-109 -152h-89zM530 0l-74 173l-145 -177l-142 174l-65 -170h-91l244 628l-23 56h102l297 -684h-103zM306 531l-106 -274l113 -140l111 139z" />
    <glyph glyph-name="Acircumflex.alt" 
d="M151 747l103 153h99l102 -153h-84l-68 100l-67 -100h-85zM530 0l-74 173l-145 -177l-142 174l-65 -170h-91l244 628l-23 56h102l297 -684h-103zM306 531l-106 -274l113 -140l111 139z" />
    <glyph glyph-name="Adieresis.alt" 
d="M156 811c0 28 21 52 56 52c33 0 51 -21 51 -50c0 -30 -21 -54 -55 -54c-33 0 -52 22 -52 52zM343 811c0 28 22 52 55 52c34 0 51 -21 51 -50c0 -30 -20 -54 -55 -54c-32 0 -51 22 -51 52zM530 0l-74 173l-145 -177l-142 174l-65 -170h-91l244 628l-23 56h102l297 -684
h-103zM306 531l-106 -274l113 -140l111 139z" />
    <glyph glyph-name="Agrave.alt" 
d="M530 0l-74 173l-145 -177l-142 174l-65 -170h-91l244 628l-23 56h102l297 -684h-103zM306 531l-106 -274l113 -140l111 139zM265 899l97 -152h-89l-109 152h101z" />
    <glyph glyph-name="Amacron.alt" 
d="M530 0l-74 173l-145 -177l-142 174l-65 -170h-91l244 628l-23 56h102l297 -684h-103zM306 531l-106 -274l113 -140l111 139zM174 778v73h254v-73h-254z" />
    <glyph glyph-name="Aogonek.alt" 
d="M633 0h-53c-75 -46 -90 -93 -99 -135c9 -12 26 -29 63 -29c11 0 24 2 33 5v-59c-12 -6 -32 -9 -47 -9c-87 0 -117 49 -131 84c11 50 33 108 121 166l-64 150l-145 -177l-142 174l-65 -170h-91l244 628l-23 56h102zM306 531l-106 -274l113 -140l111 139z" />
    <glyph glyph-name="Aring.alt" 
d="M301 731c-65 0 -106 44 -106 102c0 57 43 102 109 102c64 0 106 -45 106 -102c0 -58 -44 -102 -109 -102zM301 781c32 0 53 22 53 52s-19 52 -52 52c-32 0 -53 -22 -53 -52s19 -52 52 -52zM530 0l-74 173l-145 -177l-142 174l-65 -170h-91l244 628l-23 56h102l297 -684
h-103zM306 531l-106 -274l113 -140l111 139z" />
    <glyph glyph-name="Atilde.alt" 
d="M530 0l-74 173l-145 -177l-142 174l-65 -170h-91l244 628l-23 56h102l297 -684h-103zM306 531l-106 -274l113 -140l111 139zM356 750l-120 76c-13 -6 -33 -26 -38 -76h-55c5 98 58 142 107 148l119 -77c14 6 34 27 38 76h55c-4 -98 -57 -142 -106 -147z" />
    <glyph glyph-name="Bdotaccent.alt" horiz-adv-x="616" 
d="M497 502c0 -60 -32 -96 -66 -117h98v-385h-434v629l-31 55h210c149 0 223 -72 223 -182zM436 306h-246v-227h246v227zM190 607v-222h131c49 26 79 56 79 113c0 66 -39 109 -124 109h-86zM231 806c0 28 23 52 56 52c34 0 51 -21 51 -50c0 -30 -21 -54 -56 -54
c-32 0 -51 22 -51 52z" />
    <glyph glyph-name="Eacute.alt" horiz-adv-x="572" 
d="M300 747l97 152h101l-109 -152h-89zM483 266l-60 41h-266c16 -131 109 -233 247 -233c41 0 75 5 112 21v-88c-34 -13 -74 -18 -112 -18c-208 0 -349 155 -346 353c0 195 152 353 349 353c36 0 69 -3 96 -11v-92c-21 9 -52 18 -94 18c-136 0 -234 -92 -252 -220h326v-124z
" />
    <glyph glyph-name="Ecircumflex.alt" horiz-adv-x="572" 
d="M206 747l103 153h99l102 -153h-84l-68 100l-67 -100h-85zM483 266l-60 41h-266c16 -131 109 -233 247 -233c41 0 75 5 112 21v-88c-34 -13 -74 -18 -112 -18c-208 0 -349 155 -346 353c0 195 152 353 349 353c36 0 69 -3 96 -11v-92c-21 9 -52 18 -94 18
c-136 0 -234 -92 -252 -220h326v-124z" />
    <glyph glyph-name="Edieresis.alt" horiz-adv-x="572" 
d="M212 811c0 28 21 52 56 52c33 0 51 -21 51 -50c0 -30 -21 -54 -55 -54c-33 0 -52 22 -52 52zM399 811c0 28 22 52 55 52c34 0 51 -21 51 -50c0 -30 -20 -54 -55 -54c-32 0 -51 22 -51 52zM483 266l-60 41h-266c16 -131 109 -233 247 -233c41 0 75 5 112 21v-88
c-34 -13 -74 -18 -112 -18c-208 0 -349 155 -346 353c0 195 152 353 349 353c36 0 69 -3 96 -11v-92c-21 9 -52 18 -94 18c-136 0 -234 -92 -252 -220h326v-124z" />
    <glyph glyph-name="Egrave.alt" horiz-adv-x="572" 
d="M320 899l97 -152h-89l-109 152h101zM483 266l-60 41h-266c16 -131 109 -233 247 -233c41 0 75 5 112 21v-88c-34 -13 -74 -18 -112 -18c-208 0 -349 155 -346 353c0 195 152 353 349 353c36 0 69 -3 96 -11v-92c-21 9 -52 18 -94 18c-136 0 -234 -92 -252 -220h326v-124z
" />
    <glyph glyph-name="Emacron.alt" horiz-adv-x="572" 
d="M230 773v73h254v-73h-254zM483 266l-60 41h-266c16 -131 109 -233 247 -233c41 0 75 5 112 21v-88c-34 -13 -74 -18 -112 -18c-208 0 -349 155 -346 353c0 195 152 353 349 353c36 0 69 -3 96 -11v-92c-21 9 -52 18 -94 18c-136 0 -234 -92 -252 -220h326v-124z" />
    <glyph glyph-name="Eogonek.alt" horiz-adv-x="572" 
d="M483 266l-60 41h-266c16 -131 109 -233 247 -233c41 0 75 5 112 21v-88c-13 -5 -27 -8 -42 -11c-68 -45 -83 -90 -91 -131c9 -12 26 -29 63 -29c11 0 24 2 33 5v-59c-12 -6 -32 -9 -47 -9c-87 0 -117 49 -131 84c9 40 25 86 76 133c-193 12 -322 162 -319 352
c0 195 152 353 349 353c36 0 69 -3 96 -11v-92c-21 9 -52 18 -94 18c-136 0 -234 -92 -252 -220h326v-124z" />
    <glyph glyph-name="OE.alt" horiz-adv-x="957" 
d="M868 266l-60 41h-244c15 -131 100 -233 225 -233c41 0 75 5 112 21v-88c-34 -13 -74 -18 -112 -18c-83 0 -155 28 -210 76c-55 -47 -124 -76 -198 -76c-183 0 -326 159 -323 353c0 194 146 353 323 353c77 0 147 -31 202 -80c56 50 129 80 209 80c36 0 69 -3 96 -11v-92
c-21 9 -52 18 -93 18c-123 0 -214 -92 -231 -220h304v-124zM381 74c54 0 102 21 140 57c-37 59 -58 131 -56 211c0 76 21 146 59 203c-39 40 -89 65 -145 65c-125 0 -224 -118 -224 -262s97 -274 226 -274z" />
    <glyph glyph-name="aacute.alt" horiz-adv-x="551" 
d="M530 12l-80 -31l-36 89l-347 -81c-8 36 -14 85 -14 124c0 161 81 272 218 321l-26 66h94zM138 119c0 -5 1 -28 2 -33l249 57l-88 222c-107 -39 -163 -115 -163 -246zM227 577l97 152h101l-109 -152h-89z" />
    <glyph glyph-name="acircumflex.alt" horiz-adv-x="551" 
d="M530 12l-80 -31l-36 89l-347 -81c-8 36 -14 85 -14 124c0 161 81 272 218 321l-26 66h94zM138 119c0 -5 1 -28 2 -33l249 57l-88 222c-107 -39 -163 -115 -163 -246zM129 577l103 153h99l102 -153h-84l-68 100l-67 -100h-85z" />
    <glyph glyph-name="adieresis.alt" horiz-adv-x="551" 
d="M530 12l-80 -31l-36 89l-347 -81c-8 36 -14 85 -14 124c0 161 81 272 218 321l-26 66h94zM138 119c0 -5 1 -28 2 -33l249 57l-88 222c-107 -39 -163 -115 -163 -246zM137 641c0 28 21 52 56 52c33 0 51 -21 51 -50c0 -30 -21 -54 -55 -54c-33 0 -52 22 -52 52zM324 641
c0 28 22 52 55 52c34 0 51 -21 51 -50c0 -30 -20 -54 -55 -54c-32 0 -51 22 -51 52z" />
    <glyph glyph-name="agrave.alt" horiz-adv-x="551" 
d="M530 12l-80 -31l-36 89l-347 -81c-8 36 -14 85 -14 124c0 161 81 272 218 321l-26 66h94zM138 119c0 -5 1 -28 2 -33l249 57l-88 222c-107 -39 -163 -115 -163 -246zM244 729l97 -152h-89l-109 152h101z" />
    <glyph glyph-name="amacron.alt" horiz-adv-x="551" 
d="M530 12l-80 -31l-36 89l-347 -81c-8 36 -14 85 -14 124c0 161 81 272 218 321l-26 66h94zM138 119c0 -5 1 -28 2 -33l249 57l-88 222c-107 -39 -163 -115 -163 -246zM154 608v73h254v-73h-254z" />
    <glyph glyph-name="aogonek.alt" horiz-adv-x="551" 
d="M530 12l-58 -22c-62 -43 -75 -86 -83 -125c9 -12 26 -29 63 -29c11 0 24 2 33 5v-59c-12 -6 -32 -9 -47 -9c-87 0 -117 49 -131 84c12 50 33 110 124 169l-17 44l-347 -81c-8 36 -14 85 -14 124c0 161 81 272 218 321l-26 66h94zM138 119c0 -5 1 -28 2 -33l249 57
l-88 222c-107 -39 -163 -115 -163 -246z" />
    <glyph glyph-name="aring.alt" horiz-adv-x="551" 
d="M530 12l-80 -31l-36 89l-347 -81c-8 36 -14 85 -14 124c0 161 81 272 218 321l-26 66h94zM138 119c0 -5 1 -28 2 -33l249 57l-88 222c-107 -39 -163 -115 -163 -246zM281 561c-65 0 -106 44 -106 102c0 57 43 102 109 102c64 0 106 -45 106 -102
c0 -58 -44 -102 -109 -102zM281 611c32 0 53 22 53 52s-19 52 -52 52c-32 0 -53 -22 -53 -52s19 -52 52 -52z" />
    <glyph glyph-name="atilde.alt" horiz-adv-x="551" 
d="M530 12l-80 -31l-36 89l-347 -81c-8 36 -14 85 -14 124c0 161 81 272 218 321l-26 66h94zM138 119c0 -5 1 -28 2 -33l249 57l-88 222c-107 -39 -163 -115 -163 -246zM337 580l-120 76c-13 -6 -33 -26 -38 -76h-55c5 98 58 142 107 148l119 -77c14 6 34 27 38 76h55
c-4 -98 -57 -142 -106 -147z" />
    <glyph glyph-name="eacute.alt" horiz-adv-x="598" 
d="M541 220h-392c11 -91 76 -156 180 -156c33 0 66 5 88 14v-75c-29 -9 -59 -14 -91 -14c-163 0 -269 107 -269 258c0 133 106 260 249 260c165 0 240 -148 235 -287zM306 431c-82 0 -141 -63 -156 -142h303c-16 82 -71 142 -147 142zM254 577l97 152h101l-109 -152h-89z
" />
    <glyph glyph-name="ecircumflex.alt" horiz-adv-x="598" 
d="M541 220h-392c11 -91 76 -156 180 -156c33 0 66 5 88 14v-75c-29 -9 -59 -14 -91 -14c-163 0 -269 107 -269 258c0 133 106 260 249 260c165 0 240 -148 235 -287zM306 431c-82 0 -141 -63 -156 -142h303c-16 82 -71 142 -147 142zM157 577l103 153h99l102 -153h-84
l-68 100l-67 -100h-85z" />
    <glyph glyph-name="edieresis.alt" horiz-adv-x="598" 
d="M541 220h-392c11 -91 76 -156 180 -156c33 0 66 5 88 14v-75c-29 -9 -59 -14 -91 -14c-163 0 -269 107 -269 258c0 133 106 260 249 260c165 0 240 -148 235 -287zM306 431c-82 0 -141 -63 -156 -142h303c-16 82 -71 142 -147 142zM163 641c0 28 21 52 56 52
c33 0 51 -21 51 -50c0 -30 -21 -54 -55 -54c-33 0 -52 22 -52 52zM350 641c0 28 22 52 55 52c34 0 51 -21 51 -50c0 -30 -20 -54 -55 -54c-32 0 -51 22 -51 52z" />
    <glyph glyph-name="egrave.alt" horiz-adv-x="598" 
d="M541 220h-392c11 -91 76 -156 180 -156c33 0 66 5 88 14v-75c-29 -9 -59 -14 -91 -14c-163 0 -269 107 -269 258c0 133 106 260 249 260c165 0 240 -148 235 -287zM306 431c-82 0 -141 -63 -156 -142h303c-16 82 -71 142 -147 142zM271 729l97 -152h-89l-109 152h101z
" />
    <glyph glyph-name="emacron.alt" horiz-adv-x="598" 
d="M541 220h-392c11 -91 76 -156 180 -156c33 0 66 5 88 14v-75c-29 -9 -59 -14 -91 -14c-163 0 -269 107 -269 258c0 133 106 260 249 260c165 0 240 -148 235 -287zM306 431c-82 0 -141 -63 -156 -142h303c-16 82 -71 142 -147 142zM180 608v73h254v-73h-254z" />
    <glyph glyph-name="eogonek.alt" horiz-adv-x="598" 
d="M541 220h-392c11 -91 76 -156 180 -156c33 0 66 5 88 14v-75l-9 -3c-75 -46 -90 -93 -99 -135c9 -12 26 -29 63 -29c11 0 24 2 33 5v-59c-12 -6 -32 -9 -47 -9c-87 0 -117 49 -131 84c9 40 25 86 76 133c-150 10 -246 113 -246 257c0 133 106 260 249 260
c165 0 240 -148 235 -287zM306 431c-82 0 -141 -63 -156 -142h303c-16 82 -71 142 -147 142z" />
    <glyph glyph-name="fdotaccent.alt" horiz-adv-x="392" 
d="M88 341v311c38 43 107 78 191 78c37 0 71 -5 104 -17v-78c-31 13 -67 20 -97 20c-49 0 -87 -13 -109 -33v-282h153v-70h-153v-270h-89v270h-50zM196 830c0 28 23 52 56 52c34 0 51 -21 51 -50c0 -30 -21 -54 -56 -54c-32 0 -51 22 -51 52z" />
    <glyph glyph-name="gdotaccent.alt" horiz-adv-x="535" 
d="M64 487h421v-80h-104c-146 -78 -218 -199 -218 -327h310v-69c0 -194 -134 -232 -258 -232c-54 0 -106 5 -153 16v87c44 -12 92 -20 150 -20c101 0 172 40 169 138h-305c-13 181 51 325 175 407h-133l-54 -31v111zM229 641c0 28 23 52 56 52c34 0 51 -21 51 -50
c0 -30 -21 -54 -56 -54c-32 0 -51 22 -51 52z" />
    <glyph glyph-name="fi.alt" horiz-adv-x="601" 
d="M349 714v-78c-28 13 -54 19 -82 19c-40 0 -71 -13 -90 -33v-282h153v-70h-153v-270h-89v270h-50l50 71v311c34 43 95 78 172 78c32 0 60 -4 89 -16zM512 496v-496h-88v441l-30 55h118zM414 676c0 29 23 53 51 53c30 0 53 -24 53 -53s-23 -51 -53 -51c-28 0 -51 22 -51 51
z" />
    <glyph glyph-name="f_f_i.alt" horiz-adv-x="936" 
d="M848 496v-496h-89v441l-30 55h119zM750 676c0 29 22 53 51 53s53 -24 53 -53s-24 -51 -53 -51s-51 22 -51 51zM349 714v-78c-28 13 -54 19 -82 19c-40 0 -71 -13 -90 -33v-282h153v-70h-153v-270h-89v270h-50l50 71v311c34 43 95 78 172 78c32 0 60 -4 89 -16zM684 714
v-78c-27 13 -54 19 -81 19c-41 0 -72 -13 -91 -33v-282h154v-70h-154v-270h-88v652c34 43 94 78 172 78c31 0 59 -4 88 -16z" />
    <glyph glyph-name="fl.alt" horiz-adv-x="618" 
d="M559 -7c-107 0 -136 57 -136 143v583h88v-579c0 -52 18 -75 66 -75c5 0 11 0 17 1v-71c-12 -1 -24 -2 -35 -2zM349 714v-78c-28 13 -54 19 -82 19c-40 0 -71 -13 -90 -33v-282h153v-70h-153v-270h-89v270h-50l50 71v311c34 43 95 78 172 78c32 0 60 -4 89 -16z" />
    <glyph glyph-name="f_f_l.alt" horiz-adv-x="953" 
d="M349 714v-78c-28 13 -54 19 -82 19c-40 0 -71 -13 -90 -33v-282h153v-70h-153v-270h-89v270h-50l50 71v311c34 43 95 78 172 78c32 0 60 -4 89 -16zM684 714v-78c-27 13 -54 19 -81 19c-41 0 -72 -13 -91 -33v-282h154v-70h-154v-270h-88v652c34 43 94 78 172 78
c31 0 59 -4 88 -16zM895 -7c-108 0 -137 57 -137 143v583h88v-579c0 -52 19 -75 66 -75c6 0 11 0 17 1v-71c-12 -1 -24 -2 -34 -2z" />
    <glyph glyph-name="F_f.alt" horiz-adv-x="862" 
d="M417 363v-84h-227v-279h-95v629l-31 55h393v-84h-267v-237h227zM559 0v276h-50l50 71v305c38 43 106 78 191 78c36 0 71 -5 104 -17v-78c-32 13 -67 20 -97 20c-49 0 -87 -13 -110 -33v-276h154v-70h-154v-276h-88z" />
    <glyph glyph-name="f.alt_f.alt" horiz-adv-x="726" 
d="M348 713v-78c-28 13 -54 19 -81 19c-40 0 -71 -13 -90 -33v-281h153v-70h-153v-270h-89v270h-50l50 71v310c34 43 95 78 172 78c32 0 59 -4 88 -16zM717 713v-78c-31 13 -67 20 -97 20c-49 0 -87 -13 -109 -33v-282h153v-70h-153v-270h-89v652c38 43 107 78 191 78
c37 0 71 -5 104 -17z" />
    </font>
</defs>
</svg>
