<?xml version="1.0" standalone="no"?>
<!DOCTYPE svg PUBLIC "-//W3C//DTD SVG 1.1//EN" "http://www.w3.org/Graphics/SVG/1.1/DTD/svg11.dtd" >
<svg xmlns="http://www.w3.org/2000/svg" xmlns:xlink="http://www.w3.org/1999/xlink" version="1.1">
<metadata>
Created by FontForge 20201107 at Tue Oct 15 22:39:05 2019
 By 
Copyright (c) 2019 by Hoefler &#38; Co. All rights reserved.
</metadata>
<defs>
<font id="DecimalBlack" horiz-adv-x="724" >
  <font-face 
    font-family="Decimal Black"
    font-weight="900"
    font-stretch="normal"
    units-per-em="1000"
    panose-1="2 0 9 0 0 0 0 0 0 0"
    ascent="800"
    descent="-200"
    x-height="553"
    cap-height="700"
    bbox="-220 -316 1971 1318"
    underline-thickness="0"
    underline-position="0"
    unicode-range="U+0020-FEFF"
  />
<missing-glyph horiz-adv-x="448" 
d="M-1 -180v900h450v-900h-450zM224 324l161 351h-322zM44 -68l155 338l-155 338v-676zM404 -68v676l-155 -338zM63 -135h322l-161 351z" />
    <glyph glyph-name=".notdef" horiz-adv-x="448" 
d="M-1 -180v900h450v-900h-450zM224 324l161 351h-322zM44 -68l155 338l-155 338v-676zM404 -68v676l-155 -338zM63 -135h322l-161 351z" />
    <glyph glyph-name=".null" horiz-adv-x="0" 
 />
    <glyph glyph-name="uni000D" horiz-adv-x="250" 
 />
    <glyph glyph-name="space" unicode=" " horiz-adv-x="274" 
 />
    <glyph glyph-name="exclam" unicode="!" horiz-adv-x="423" 
d="M136 280l-52 401v19h254v-19l-51 -401h-151zM121 21q-33 32 -33 80v1q0 50 33 81q34 32 90 32t91 -32q33 -31 33 -80v-1q0 -49 -33 -81q-35 -32 -91 -32t-90 32z" />
    <glyph glyph-name="quotedbl" unicode="&#x22;" horiz-adv-x="645" 
d="M88 366v334h217v-42l-110 -292h-107zM374 366v334h217v-42l-111 -292h-106z" />
    <glyph glyph-name="numbersign" unicode="#" horiz-adv-x="957" 
d="M132 0l31 127h-105v144h141l38 158h-117v144h153l31 127h173l-31 -127h174l31 127h174l-31 -127h105v-144h-141l-38 -158h117v-144h-153l-31 -127h-174l31 127h-174l-31 -127h-173zM372 271h174l38 158h-174z" />
    <glyph glyph-name="dollar" unicode="$" horiz-adv-x="725" 
d="M275 -120v134q-81 11 -190 54v176h1q157 -82 299 -82q95 0 95 50q0 24 -27 37t-123 31q-121 19 -178 58q-70 48 -70 140q0 73 50 128q54 57 149 76v123h185v-119q43 -5 84 -17t81 -29v-174h-1q-123 72 -257 72q-95 0 -95 -49q0 -23 26 -34q12 -5 43 -12.5t82 -18.5
q121 -20 176 -60q70 -49 70 -143q0 -77 -49 -129q-56 -62 -166 -79v-118z" />
    <glyph glyph-name="percent" unicode="%" horiz-adv-x="1089" 
d="M94 373q-57 53 -57 144q0 94 57 146q58 52 159 52t159 -52q57 -52 57 -145q0 -91 -58 -143q-59 -53 -158 -53q-100 0 -159 51zM143 1l311 349l302 350h190v-1l-311 -349l-302 -350h-190v1zM321 517q0 75 -68 75q-69 0 -69 -74q0 -75 69 -75q68 0 68 74zM996 327
q57 -52 57 -144q0 -93 -58 -145q-59 -53 -159 -53q-101 0 -159 52q-57 53 -57 145q0 91 58 143q59 53 159 53q101 0 159 -51zM768 183q0 -75 69 -75q68 0 68 74q0 75 -69 75q-68 0 -68 -74z" />
    <glyph glyph-name="ampersand" unicode="&#x26;" horiz-adv-x="853" 
d="M105 32q-64 53 -66 141q0 77 56 139q48 54 157 113l-103 113v162h524l8 -155h-301l210 -235l198 167l1 -1v-203l-97 -82l170 -191h-227l-76 83q-150 -102 -283 -102q-106 0 -171 51zM304 142q64 0 150 62l-99 107q-66 -37 -92 -61q-27 -25 -27 -53q0 -55 68 -55z" />
    <glyph glyph-name="quotesingle" unicode="'" horiz-adv-x="362" 
d="M88 366v334h220v-42l-111 -292h-109z" />
    <glyph glyph-name="parenleft" unicode="(" horiz-adv-x="480" 
d="M482 -206h-213q-210 215 -210 491q0 274 210 491h213q-218 -236 -218 -491t218 -491z" />
    <glyph glyph-name="parenright" unicode=")" horiz-adv-x="480" 
d="M-2 775h213q210 -214 210 -491q0 -273 -210 -491h-213q218 236 218 491t-218 491z" />
    <glyph glyph-name="asterisk" unicode="*" horiz-adv-x="575" 
d="M408 302l-96 41l-66 -78l-31 7l-28 100l-103 3l-14 28l62 85l-62 83l14 29l103 4l26 100l31 8l69 -79l95 42l25 -20l-19 -102l92 -49v-32l-93 -49l20 -101z" />
    <glyph glyph-name="plus" unicode="+" horiz-adv-x="746" 
d="M81 267v167h203v205h178v-205h203v-167h-203v-205h-178v205h-203z" />
    <glyph glyph-name="comma" unicode="," horiz-adv-x="397" 
d="M59 -160l47 349h228v-42l-162 -307h-113z" />
    <glyph glyph-name="hyphen" unicode="-" horiz-adv-x="448" 
d="M47 237v177h353v-177h-353z" />
    <glyph glyph-name="period" unicode="." horiz-adv-x="413" 
d="M116 21q-33 32 -33 80v1q0 50 33 81q34 32 90 32t91 -32q33 -31 33 -80v-1q0 -49 -33 -81q-35 -32 -91 -32t-90 32z" />
    <glyph glyph-name="slash" unicode="/" horiz-adv-x="595" 
d="M40 -206l331 982h189l-331 -982h-189z" />
    <glyph glyph-name="zero" unicode="0" horiz-adv-x="779" 
d="M127 84q-86 98 -86 265q0 169 86 267q92 104 263 104q168 0 261 -103q88 -98 88 -266q0 -167 -89 -267q-95 -104 -261 -104q-170 0 -262 104zM537 350q0 197 -148 197q-147 0 -147 -197t148 -197q147 0 147 197z" />
    <glyph glyph-name="one" unicode="1" horiz-adv-x="482" 
d="M168 0v538h-131l24 162h312v-700h-205z" />
    <glyph glyph-name="two" unicode="2" horiz-adv-x="682" 
d="M47 0v163l180 131q133 97 163 124q39 35 39 67q0 62 -88 62q-126 0 -264 -102h-1v188q131 87 287 87q127 0 200 -58q71 -56 71 -153q0 -82 -55 -143q-45 -50 -191 -149l-67 -48l319 1v-170h-593z" />
    <glyph glyph-name="three" unicode="3" horiz-adv-x="692" 
d="M53 28v180h1q132 -61 256 -61q135 0 135 70q0 40 -51 56q-49 16 -182 16h-22v93l192 150h-322l8 168h553v-153l-187 -141q218 -30 218 -193q0 -109 -91 -172q-88 -61 -231 -61q-151 0 -277 48z" />
    <glyph glyph-name="four" unicode="4" horiz-adv-x="776" 
d="M434 0v141h-399v145l226 414h365v-396h119l-8 -163h-111v-141h-192zM438 540h-63l-129 -239h192v239z" />
    <glyph glyph-name="five" unicode="5" horiz-adv-x="690" 
d="M62 23v177h1q138 -52 268 -52q73 0 96 26t23 47t-15 36q-31 31 -232 31h-125l10 412h516l8 -165h-347l-3 -96h20q129 0 198 -15q82 -18 126 -64q51 -52 51 -141q0 -107 -85 -173t-232 -66q-149 0 -278 43z" />
    <glyph glyph-name="six" unicode="6" horiz-adv-x="717" 
d="M131 68q-90 92 -90 266q0 182 102 285q101 101 275 101q117 0 220 -42v-172h-1q-120 50 -206 50q-178 0 -196 -150q82 54 196 52q115 -1 181 -54q73 -55 73 -164q0 -119 -89 -191q-87 -69 -222 -69q-158 0 -243 88zM234 271q5 -75 47 -103q40 -28 96 -28q52 0 85 24
q34 25 34 70q0 47 -36 63q-40 17 -83 17q-70 0 -143 -43z" />
    <glyph glyph-name="seven" unicode="7" horiz-adv-x="698" 
d="M41 423v277h622v-217l-294 -483h-222l307 503v34h-231v-114h-182z" />
    <glyph glyph-name="eight" unicode="8" horiz-adv-x="750" 
d="M128 31q-84 54 -84 152q0 120 138 172q-121 46 -121 156q0 96 80 152q83 59 235 59q150 0 233 -59q80 -56 80 -152q0 -110 -121 -156q138 -52 138 -172q0 -98 -82 -152q-85 -55 -248 -55t-248 55zM495 492q0 37 -31 58t-88 21q-121 0 -121 -79q0 -78 121 -78
q119 0 119 78zM505 211q0 80 -129 80q-131 0 -131 -80q0 -83 131 -83q129 0 129 83z" />
    <glyph glyph-name="nine" unicode="9" horiz-adv-x="717" 
d="M586 632q90 -91 90 -266q0 -181 -101 -284q-100 -102 -276 -102q-116 0 -220 42v172h1q120 -50 206 -50q178 0 196 150q-82 -54 -196 -52q-115 1 -181 54q-73 55 -73 164q0 119 90 191q86 69 221 69q158 0 243 -88zM258 403q39 -17 82 -17q70 0 143 43q-5 75 -47 103
q-40 28 -96 28q-52 0 -85 -24q-34 -25 -34 -70q0 -47 37 -63z" />
    <glyph glyph-name="colon" unicode=":" horiz-adv-x="422" 
d="M119 368q-32 32 -32 81v1q0 50 32 80q35 32 92 32q56 0 91 -32q33 -30 33 -80v-1q0 -49 -33 -81q-35 -32 -91 -32q-57 0 -92 32zM119 21q-32 32 -32 80v1q0 49 32 81q35 32 92 32q56 0 91 -32q33 -31 33 -80v-1q0 -49 -33 -81q-35 -32 -91 -32q-57 0 -92 32z" />
    <glyph glyph-name="semicolon" unicode=";" horiz-adv-x="422" 
d="M119 368q-32 32 -32 81v1q0 50 32 80q35 32 92 32q56 0 91 -32q33 -30 33 -80v-1q0 -49 -33 -81q-35 -32 -91 -32q-57 0 -92 32zM58 -160l47 349h228v-42l-162 -307h-113z" />
    <glyph glyph-name="less" unicode="&#x3c;" horiz-adv-x="664" 
d="M568 34l-493 221v191l493 220v-193l-278 -122l278 -124v-193z" />
    <glyph glyph-name="equal" unicode="=" horiz-adv-x="747" 
d="M93 404v163h561v-163h-561zM93 134v163h561v-163h-561z" />
    <glyph glyph-name="greater" unicode="&#x3e;" horiz-adv-x="664" 
d="M96 666l493 -221v-191l-493 -220v193l278 122l-278 124v193z" />
    <glyph glyph-name="question" unicode="?" horiz-adv-x="610" 
d="M53 661q144 61 268 61q120 0 193 -45q83 -51 83 -147q0 -112 -113 -180q-98 -57 -296 -87h-1v151q116 27 160 50q40 21 40 49q0 47 -91 47q-118 0 -242 -74h-1v175zM180 21q-32 32 -32 80v1q0 49 32 81q34 32 91 32q56 0 91 -32q33 -31 33 -80v-1q0 -49 -33 -81
q-35 -32 -91 -32q-57 0 -91 32z" />
    <glyph glyph-name="at" unicode="@" horiz-adv-x="1115" 
d="M656 190q-68 -71 -158 -71q-64 0 -102 32q-36 32 -36 83q0 48 33 81q56 59 236 71q-1 54 -67 54q-80 0 -163 -51v131q87 45 189 45q192 0 192 -175v-96q0 -58 50 -58q70 0 70 153q0 128 -74 199q-79 75 -240 75q-175 0 -266 -88q-93 -88 -93 -256q0 -310 355 -310
q143 0 283 58l-2 -141q-60 -23 -126 -36q-85 -17 -163 -17q-246 0 -373 115q-127 114 -127 330q0 222 138 352q138 129 374 129q222 0 343 -111q116 -107 116 -291q0 -124 -54 -201q-54 -76 -170 -76q-113 0 -165 70zM598 232q20 9 31 20v58q-91 -11 -113 -33q-6 -4 -7 -10
q-2 -8 -2 -13q0 -32 44 -32q24 0 47 10z" />
    <glyph glyph-name="A" unicode="A" horiz-adv-x="864" 
d="M20 0l243 700h338l243 -700h-220l-49 145h-289l-50 -145h-216zM412 522l-75 -220h188l-75 220h-38z" />
    <glyph glyph-name="B" unicode="B" horiz-adv-x="816" 
d="M85 0v700h441q109 0 171 -44q63 -46 63 -132q0 -124 -118 -161q70 -29 100 -65q33 -40 33 -101q0 -197 -265 -197h-425zM292 420h178q82 0 82 63q0 60 -82 60h-178v-123zM292 158l188 1q86 0 86 66q0 65 -86 65h-188v-132z" />
    <glyph glyph-name="C" unicode="C" horiz-adv-x="778" 
d="M146 85q-100 97 -100 262q0 164 107 266q111 105 298 105q151 0 266 -75v-197h-2q-140 92 -250 92q-96 0 -151 -52q-56 -53 -56 -137q0 -86 55 -135q55 -52 151 -52q127 0 251 92h2v-200q-46 -30 -110 -48q-79 -24 -164 -24q-191 0 -297 103z" />
    <glyph glyph-name="D" unicode="D" horiz-adv-x="860" 
d="M85 0v700h377q164 0 258 -91t94 -259q0 -167 -94 -258q-95 -92 -258 -92h-377zM295 174h144q163 0 163 176q0 177 -163 177h-144v-353z" />
    <glyph glyph-name="E" unicode="E" horiz-adv-x="767" 
d="M85 0v700h612l8 -170h-411v-96h323v-155h-323v-109h423l-8 -170h-624z" />
    <glyph glyph-name="F" unicode="F" horiz-adv-x="736" 
d="M85 0v700h602l8 -171h-400v-126h330v-161h-330v-242h-210z" />
    <glyph glyph-name="G" unicode="G" horiz-adv-x="862" 
d="M150 80q-105 98 -105 260q0 164 111 269q117 111 316 111q159 0 268 -67v-187h-1q-145 77 -258 77q-107 0 -165 -55q-57 -54 -57 -150q0 -88 52 -137q53 -52 153 -52q66 0 115 30q49 29 53 86h-213v148h404l1 -18l1 -19q1 -12 1.5 -22.5t0.5 -20.5q0 -176 -111 -269
q-100 -84 -271 -84q-188 0 -295 100z" />
    <glyph glyph-name="H" unicode="H" horiz-adv-x="889" 
d="M85 0v700h210v-253h298v253h211v-700h-211v269h-298v-269h-210z" />
    <glyph glyph-name="I" unicode="I" horiz-adv-x="382" 
d="M86 0v700h211v-700h-211z" />
    <glyph glyph-name="J" unicode="J" horiz-adv-x="711" 
d="M58 49v191h1q110 -77 229 -77q134 0 134 115v252h-250l8 170h452v-455q0 -263 -315 -263q-147 0 -259 67z" />
    <glyph glyph-name="K" unicode="K" horiz-adv-x="844" 
d="M85 0v700h210v-258h86l205 258h236l1 -1l-268 -335l283 -363l-1 -1h-245l-212 269h-85v-269h-210z" />
    <glyph glyph-name="L" unicode="L" horiz-adv-x="700" 
d="M85 0v700h210v-519h371l-8 -181h-573z" />
    <glyph glyph-name="M" unicode="M" horiz-adv-x="1029" 
d="M85 0v700h246l186 -328l182 328h245v-700h-204v414h-3l-218 -372h-12l-216 371h-3v-413h-203z" />
    <glyph glyph-name="N" unicode="N" horiz-adv-x="892" 
d="M85 0v700h218l301 -397h3v397h200v-700h-211l-308 407h-3v-407h-200z" />
    <glyph glyph-name="O" unicode="O" horiz-adv-x="892" 
d="M154 79q-108 101 -108 271q0 171 108 271q107 100 292 100t292 -100q108 -100 108 -271q0 -170 -108 -271q-107 -100 -292 -100t-292 100zM586 209q51 51 51 141q0 89 -50 142q-51 51 -141 51t-140 -51q-51 -52 -51 -142q0 -89 50 -141q49 -52 140 -52q90 0 141 52z" />
    <glyph glyph-name="P" unicode="P" horiz-adv-x="794" 
d="M85 0v700h413q127 0 196 -70q67 -68 67 -191q0 -132 -79 -202q-74 -65 -200 -65h-187v-172h-210zM295 337h166q93 0 93 97t-95 97h-164v-194z" />
    <glyph glyph-name="Q" unicode="Q" horiz-adv-x="907" 
d="M738 621q108 -100 108 -271q0 -90 -39 -165l61 -40v-186h-1l-157 101q-103 -81 -264 -81q-185 0 -292 100q-108 101 -108 271q0 171 108 271q107 100 292 100t292 -100zM307 490q-52 -52 -52 -145q0 -92 52 -144q53 -54 144 -54q56 0 101 20l-157 95l81 123l165 -102
q7 25 7 62q0 93 -52 145q-53 53 -145 53q-93 0 -144 -53z" />
    <glyph glyph-name="R" unicode="R" horiz-adv-x="822" 
d="M85 0v700h408q277 0 277 -251q0 -169 -136 -224l166 -225h-238l-129 184h-138v-184h-210zM295 348h171q95 0 95 92q0 91 -95 91h-171v-183z" />
    <glyph glyph-name="S" unicode="S" horiz-adv-x="758" 
d="M69 46v192h1q172 -88 330 -88q113 0 113 53q0 26 -32 38q-30 12 -143 30q-122 19 -197 65q-76 46 -76 151q0 102 86 165q91 67 254 67q138 0 271 -56v-190l-1 -1q-135 78 -285 78q-112 0 -112 -51q0 -31 40 -40q14 -4 47 -10t85 -16q137 -22 198 -66q75 -52 75 -156
q0 -96 -74 -158q-88 -72 -259 -72q-156 0 -321 65z" />
    <glyph glyph-name="T" unicode="T" horiz-adv-x="765" 
d="M277 0v520h-245l8 180h685l8 -180h-245v-520h-211z" />
    <glyph glyph-name="U" unicode="U" horiz-adv-x="869" 
d="M79 275v425h210v-409q0 -73 44 -100t101 -27q59 0 103 26q43 25 43 98v412h210v-423q0 -299 -357 -299q-354 0 -354 297z" />
    <glyph glyph-name="V" unicode="V" horiz-adv-x="846" 
d="M257 0l-238 700h228l164 -508h27l164 508h225l-237 -700h-333z" />
    <glyph glyph-name="W" unicode="W" horiz-adv-x="1246" 
d="M216 0l-185 700h224l114 -486h11l148 486h205l145 -486h11l112 486h214l-184 -700h-275l-128 422h-6l-130 -422h-276z" />
    <glyph glyph-name="X" unicode="X" horiz-adv-x="859" 
d="M255 0h-247v1l287 359l-270 339v1h251l156 -202l156 202h247v-1l-269 -338l286 -360v-1h-252l-172 223z" />
    <glyph glyph-name="Y" unicode="Y" horiz-adv-x="823" 
d="M306 0v224l-307 476h236l173 -279h10l175 279h230l-306 -475v-225h-211z" />
    <glyph glyph-name="Z" unicode="Z" horiz-adv-x="782" 
d="M62 0v177l379 350h-369l8 173h641v-163l-395 -363h397v-174h-661z" />
    <glyph glyph-name="bracketleft" unicode="[" horiz-adv-x="482" 
d="M66 -206v982h375v-153h-188v-676h188v-153h-375z" />
    <glyph glyph-name="backslash" unicode="\" horiz-adv-x="596" 
d="M556 -206h-190l-331 982h191z" />
    <glyph glyph-name="bracketright" unicode="]" horiz-adv-x="482" 
d="M416 775v-982h-375v153h188v676h-188v153h375z" />
    <glyph glyph-name="asciicircum" unicode="^" horiz-adv-x="745" 
d="M55 334l181 366h270l184 -366h-202l-98 196h-39l-95 -196h-201z" />
    <glyph glyph-name="underscore" unicode="_" horiz-adv-x="712" 
d="M-6 -198v133h724v-133h-724z" />
    <glyph glyph-name="grave" unicode="`" horiz-adv-x="500" 
d="M403 624h-175l-176 164v14h227z" />
    <glyph glyph-name="a" unicode="a" horiz-adv-x="643" 
d="M81 25q-46 40 -46 110q0 63 42 105q78 78 312 93q-1 75 -90 75q-102 0 -212 -66h-1v171q115 58 247 58q252 0 252 -230v-341h-186l-3 61q-76 -78 -179 -78q-86 0 -136 42zM348 131q26 11 41 26v79q-121 -12 -152 -43q-13 -13 -13 -31q0 -44 62 -44q32 0 62 13z" />
    <glyph glyph-name="b" unicode="b" horiz-adv-x="727" 
d="M273 776v-287q65 81 170 81q108 0 177 -74q70 -76 70 -199q0 -142 -88 -229q-88 -85 -230 -85q-85 0 -170 35h-133v758h204zM273 381v-220q45 -21 85 -21q57 0 91 36q37 38 37 108q0 59 -32 93q-31 33 -82 33q-53 0 -99 -29z" />
    <glyph glyph-name="c" unicode="c" horiz-adv-x="603" 
d="M128 56q-91 76 -91 212q0 133 91 218t233 85q114 0 193 -51v-172h-1q-79 58 -168 58q-62 0 -103 -36q-41 -38 -41 -97t40 -93q39 -33 103 -33q90 0 169 57h1v-172q-82 -51 -194 -51q-145 0 -232 75z" />
    <glyph glyph-name="d" unicode="d" horiz-adv-x="728" 
d="M659 776v-776h-198l-2 73q-69 -91 -178 -91q-108 0 -176 75q-68 77 -68 203q0 138 84 223q82 85 208 85q69 0 126 -28v236h204zM276 374q-35 -38 -35 -102q0 -61 33 -96q31 -34 83 -34q55 0 98 35v207q-41 26 -87 26q-57 0 -92 -36z" />
    <glyph glyph-name="e" unicode="e" horiz-adv-x="665" 
d="M558 492q71 -77 71 -206q0 -5 -0.5 -12.5t-1.5 -16.5l-2 -29h-387q18 -93 153 -93q103 0 201 53h1v-155q-101 -52 -228 -52q-157 0 -242 76q-86 75 -86 208q0 136 86 222t223 86t212 -81zM239 327h212q-5 45 -31 70q-28 28 -74 28q-87 0 -107 -98z" />
    <glyph glyph-name="f" unicode="f" horiz-adv-x="488" 
d="M128 0v401h-112l27 152h85q0 107 51 173q51 65 178 65q54 0 105 -14v-147h-1q-29 10 -63 10q-70 0 -70 -76v-11h143v-152h-143v-401h-200z" />
    <glyph glyph-name="g" unicode="g" horiz-adv-x="637" 
d="M282 169l-7 -46q199 -18 283 -60q81 -40 81 -117q0 -70 -67 -118q-85 -60 -256 -60q-148 0 -230 41q-76 37 -76 103q0 71 104 118l35 169q-107 50 -107 161q0 96 76 153q75 57 199 57q38 0 75 -8l48 92h203v-14l-128 -130q80 -53 80 -144q0 -94 -76 -146t-200 -52h-22
t-15 1zM408 368q0 37 -24 59q-25 20 -64 20q-41 0 -65 -21q-25 -21 -25 -59q0 -79 90 -79q88 0 88 80zM429 -101q33 12 33 31t-63 36q-31 8 -84.5 14.5t-131.5 10.5q-20 -20 -20 -36q0 -69 174 -69q59 0 92 13z" />
    <glyph glyph-name="h" unicode="h" horiz-adv-x="714" 
d="M67 0v776h204v-303q84 99 194 99q88 0 137 -52q50 -53 50 -148v-372h-205v318q0 81 -71 81q-55 0 -104 -43v-356h-205z" />
    <glyph glyph-name="i" unicode="i" horiz-adv-x="341" 
d="M81 644q-31 25 -31 70v1q0 45 31 70q31 28 90 28t90 -28q30 -25 30 -70v-1q0 -44 -30 -70q-31 -28 -90 -28t-90 28zM68 0v553h205v-553h-205z" />
    <glyph glyph-name="j" unicode="j" horiz-adv-x="355" 
d="M94 644q-30 26 -30 70v1q0 45 30 70q31 28 90 28t91 -28q30 -25 30 -70v-1q0 -44 -30 -70q-32 -28 -91 -28t-90 28zM-48 -210v150h1q40 -13 68 -13q61 0 61 67v559h205v-568q0 -215 -210 -215q-67 0 -125 20z" />
    <glyph glyph-name="k" unicode="k" horiz-adv-x="693" 
d="M67 0v776h205v-420h56l124 197h227v-1l-174 -261l189 -290v-1h-233l-130 209h-59v-209h-205z" />
    <glyph glyph-name="l" unicode="l" horiz-adv-x="341" 
d="M68 0v776h205v-776h-205z" />
    <glyph glyph-name="m" unicode="m" horiz-adv-x="1070" 
d="M67 0v553h202l2 -83q83 102 188 102q124 0 166 -108q98 108 202 108q82 0 131 -52t49 -148v-372h-204v318q0 81 -66 81q-48 0 -97 -43v-356h-205v318q0 81 -65 81q-49 0 -98 -43v-356h-205z" />
    <glyph glyph-name="n" unicode="n" horiz-adv-x="714" 
d="M67 0v553h202l1 -80q84 99 195 99q88 0 137 -52q50 -53 50 -148v-372h-205v318q0 81 -71 81q-55 0 -104 -43v-356h-205z" />
    <glyph glyph-name="o" unicode="o" horiz-adv-x="707" 
d="M122 63q-85 81 -85 213t85 214q86 83 231 83t233 -83q84 -81 84 -214q0 -132 -84 -213q-88 -83 -233 -83t-231 83zM439 176q32 38 32 100q0 63 -32 101q-31 37 -86 37q-54 0 -85 -37q-32 -38 -32 -101q0 -62 32 -100t85 -38q54 0 86 38z" />
    <glyph glyph-name="p" unicode="p" horiz-adv-x="727" 
d="M67 -208v761h199l2 -73q69 91 178 91t176 -75q68 -77 68 -203q0 -137 -84 -224q-82 -84 -209 -84q-68 0 -125 27v-220h-205zM451 178q35 38 35 102q0 62 -32 97q-31 33 -84 33q-55 0 -98 -34v-207q41 -27 87 -27q58 0 92 36z" />
    <glyph glyph-name="q" unicode="q" horiz-adv-x="726" 
d="M454 -208v271q-64 -81 -170 -81q-108 0 -177 74q-70 76 -70 200q0 142 89 228q86 85 229 85q86 0 171 -35h132v-742h-204zM454 172v219q-45 22 -85 22q-56 0 -91 -36q-37 -38 -37 -108q0 -60 32 -94q30 -32 82 -32q53 0 99 29z" />
    <glyph glyph-name="r" unicode="r" horiz-adv-x="470" 
d="M67 0v553h204v-101q71 114 157 114h10q8 0 12 -1v-206q-5 1 -11 1.5t-12 1.5h-20q-98 0 -135 -55v-307h-205z" />
    <glyph glyph-name="s" unicode="s" horiz-adv-x="597" 
d="M58 38v163h1q127 -77 253 -77q68 0 68 35q0 16 -17 24q-11 5 -34 11.5t-60 14.5q-108 23 -163 58q-52 34 -52 116q0 90 72 139q68 49 186 49q133 0 215 -49v-157h-1q-106 63 -217 63q-65 0 -65 -32q0 -16 20 -24q11 -5 36 -12.5t65 -15.5q113 -24 156 -63q44 -41 44 -112
q0 -90 -67 -139t-193 -49q-134 0 -247 57z" />
    <glyph glyph-name="t" unicode="t" horiz-adv-x="476" 
d="M135 0v401h-118l27 152h91v126l202 24v-150h119v-152h-119v-401h-202z" />
    <glyph glyph-name="u" unicode="u" horiz-adv-x="714" 
d="M647 553v-553h-202l-1 80q-84 -99 -195 -99q-87 0 -136 52q-50 53 -50 147v373h204v-319q0 -80 72 -80q54 0 103 43v356h205z" />
    <glyph glyph-name="v" unicode="v" horiz-adv-x="672" 
d="M193 0l-184 553h211l111 -378h14l110 378h208l-185 -553h-285z" />
    <glyph glyph-name="w" unicode="w" horiz-adv-x="1028" 
d="M176 0l-158 553h211l82 -354h13l93 351h202l93 -351h14l83 354h201l-159 -553h-247l-82 314h-14l-85 -314h-247z" />
    <glyph glyph-name="x" unicode="x" horiz-adv-x="671" 
d="M3 0l-1 1l210 285l-198 266l1 1h221l105 -143l102 143h214l1 -1l-199 -269l209 -282v-1h-221l-116 159l-114 -159h-214z" />
    <glyph glyph-name="y" unicode="y" horiz-adv-x="664" 
d="M176 -208l66 183l-231 578h204l127 -346l117 346h200l-289 -761h-194z" />
    <glyph glyph-name="z" unicode="z" horiz-adv-x="618" 
d="M53 0v144l270 252h-267l10 157h504v-141l-276 -255h276v-157h-517z" />
    <glyph glyph-name="braceleft" unicode="{" horiz-adv-x="575" 
d="M12 270v30l161 153l-7 59l-2 25q-1 8 -1 13.5v10.5q0 116 72 177q68 57 183 57q67 0 121 -17v-158h-1q-40 15 -80 15q-111 0 -111 -116v-8.5t1 -10.5l2 -20l12 -88l-132 -107l132 -107l-12 -88l-2 -20q-1 -6 -1 -10.5v-8.5q0 -115 111 -115q40 0 80 15h1v-160
q-59 -17 -121 -17q-115 0 -183 57q-72 61 -72 177v10.5t1 13.5l2 25l7 60z" />
    <glyph glyph-name="bar" unicode="|" horiz-adv-x="557" 
d="M186 -206v982h185v-982h-185z" />
    <glyph glyph-name="braceright" unicode="}" horiz-adv-x="575" 
d="M563 295v-30l-161 -153l7 -59l2 -25q1 -8 1 -13.5v-10.5q0 -116 -72 -177q-67 -57 -183 -57q-67 0 -121 17v158h1q41 -15 80 -15q111 0 111 116v8.5t-1 10.5l-2 20l-12 88l132 107l-132 107l12 88l2 20q1 6 1 10.5v8.5q0 115 -111 115q-39 0 -80 -15h-1v160q59 17 121 17
q116 0 183 -57q72 -61 72 -177v-10.5t-1 -13.5l-2 -25l-7 -60z" />
    <glyph glyph-name="asciitilde" unicode="~" horiz-adv-x="756" 
d="M79 410q80 86 166 86q63 0 166 -58q65 -38 105 -38q63 0 159 110h1v-219q-80 -86 -165 -86q-63 0 -167 58q-65 38 -104 38q-64 0 -160 -110h-1v219z" />
    <glyph glyph-name="asciitilde" unicode="&#x223c;" horiz-adv-x="756" 
d="M79 410q80 86 166 86q63 0 166 -58q65 -38 105 -38q63 0 159 110h1v-219q-80 -86 -165 -86q-63 0 -167 58q-65 38 -104 38q-64 0 -160 -110h-1v219z" />
    <glyph glyph-name="uni00A0" unicode="&#xa0;" horiz-adv-x="274" 
 />
    <glyph glyph-name="exclamdown" unicode="&#xa1;" horiz-adv-x="423" 
d="M302 541q33 -31 33 -81v-1q0 -50 -33 -80q-34 -32 -90 -32q-57 0 -92 32q-33 30 -33 80v1q0 50 33 81q35 32 92 32q56 0 90 -32zM287 282l51 -402v-18h-254v18l52 402h151z" />
    <glyph glyph-name="cent" unicode="&#xa2;" horiz-adv-x="603" 
d="M243 -42v138q-89 26 -138 89q-52 65 -52 159q0 93 54 162q51 66 141 92v123h181v-116q61 -11 109 -41v-158h-1q-79 54 -160 54q-61 0 -98 -31q-38 -32 -38 -85q0 -51 39 -81q38 -29 101 -29q77 0 156 54h1v-158q-49 -31 -114 -42v-115z" />
    <glyph glyph-name="sterling" unicode="&#xa3;" 
d="M52 287l23 138h113q47 149 117 222t202 73q77 0 141 -30v-164h-1q-64 30 -118 30t-86 -29q-31 -30 -54 -102h232v-138h-271l-34 -124h350v-163h-601l83 287h-96z" />
    <glyph glyph-name="yen" unicode="&#xa5;" horiz-adv-x="835" 
d="M84 133l6 124h220l-34 59h-183l5 123h108l-150 261h215l144 -266h8l146 266h210l-150 -261h107l6 -123h-184l-34 -59h221l5 -124h-231v-133h-204v133h-231z" />
    <glyph glyph-name="section" unicode="&#xa7;" horiz-adv-x="814" 
d="M95 -160v164h1q127 -71 257 -71q93 0 151 34q-215 45 -331 158q-98 98 -98 246q0 156 104 252q110 99 296 99q122 0 224 -47v-164h-1q-103 58 -224 58q-95 0 -152 -33q219 -46 329 -159q99 -99 99 -245q0 -156 -104 -252q-109 -99 -294 -99q-150 0 -257 59zM574 88
q1 5 1 11.5v15.5q0 92 -77 169q-84 85 -248 131q-1 -3 -1 -13v-14q0 -93 78 -170q85 -83 247 -130z" />
    <glyph glyph-name="dieresis" unicode="&#xa8;" horiz-adv-x="500" 
d="M41 643q-27 26 -27 68t27 69q29 26 75 26t75 -26q27 -25 27 -69q0 -42 -27 -68q-28 -27 -75 -27q-46 0 -75 27zM310 643q-27 26 -27 68t27 69q29 26 75 26t75 -26q27 -25 27 -69q0 -42 -27 -68q-28 -27 -75 -27q-46 0 -75 27z" />
    <glyph glyph-name="copyright" unicode="&#xa9;" horiz-adv-x="986" 
d="M165 50q-124 112 -124 303q0 190 124 302t328 112q205 0 327 -112q124 -112 124 -302q0 -191 -124 -303q-122 -112 -327 -112q-204 0 -328 112zM722 133q83 78 83 220t-83 220q-82 76 -229 76t-229 -76q-83 -78 -83 -220t83 -220q83 -77 229 -77t229 77zM359 216
q-55 51 -55 138q0 85 58 137q56 52 153 52q80 0 137 -36v-113h-1q-64 39 -119 39q-43 0 -69 -21q-26 -23 -26 -57q0 -80 94 -80q59 0 120 40h1v-115q-26 -14 -57 -23q-40 -12 -82 -12q-98 0 -154 51z" />
    <glyph glyph-name="ordfeminine" unicode="&#xaa;" horiz-adv-x="552" 
d="M72 277q-37 33 -37 88q0 51 35 86q64 64 255 76q-1 52 -70 52q-91 0 -179 -52h-1v144q95 46 205 46q210 0 210 -186v-274h-157l-2 54q-63 -68 -150 -68q-71 0 -109 34zM292 369q17 8 33 23v55q-99 -11 -119 -34q-10 -10 -10 -23q0 -32 45 -32q24 0 51 11z" />
    <glyph glyph-name="guillemotleft" unicode="&#xab;" horiz-adv-x="792" 
d="M417 513l-181 -237l181 -236h-209l-176 228v17l176 228h209zM749 513l-181 -237l181 -236h-208l-177 228v17l177 228h208z" />
    <glyph glyph-name="uni00AD" unicode="&#xad;" horiz-adv-x="0" 
 />
    <glyph glyph-name="registered" unicode="&#xae;" horiz-adv-x="733" 
d="M130 251q-89 83 -89 219t89 217t236 81t237 -81t90 -217t-90 -219q-90 -81 -237 -81t-236 81zM524 319q57 53 57 151q0 99 -57 151q-55 52 -158 52q-102 0 -157 -52q-57 -52 -57 -151q0 -98 57 -151q56 -53 157 -53q102 0 158 53zM242 348v253h153q111 0 111 -97
q0 -54 -42 -77l52 -68v-11h-102l-42 63h-36v-63h-94zM336 475h44q33 0 33 27q0 28 -33 28h-44v-55z" />
    <glyph glyph-name="macron" unicode="&#xaf;" horiz-adv-x="500" 
d="M43 645v133h414v-133h-414z" />
    <glyph glyph-name="degree" unicode="&#xb0;" horiz-adv-x="583" 
d="M113 328q-67 61 -67 164t67 164t178 61q112 0 179 -61q66 -61 66 -164q0 -102 -66 -164q-67 -61 -179 -61q-111 0 -178 61zM360 423q24 26 24 69q0 44 -24 69q-26 26 -69 26q-44 0 -68 -26q-24 -25 -24 -69q0 -43 24 -69t68 -26q43 0 69 26z" />
    <glyph glyph-name="plusminus" unicode="&#xb1;" horiz-adv-x="726" 
d="M103 382v158h171v160h178v-160h172v-158h-172v-161h-178v161h-171zM103 0v154h521v-154h-521z" />
    <glyph glyph-name="uni00B2" unicode="&#xb2;" horiz-adv-x="453" 
d="M52 357v113l96 70q79 54 99 73q17 17 17 29q0 24 -44 24q-67 0 -150 -53h-1v130q89 47 176 47q78 0 122 -32q44 -33 44 -93q0 -51 -36 -86q-36 -36 -117 -90l-21 -15h170v-117h-355z" />
    <glyph glyph-name="uni00B3" unicode="&#xb3;" horiz-adv-x="453" 
d="M57 367v120h1q89 -27 150 -27q71 0 71 31q0 18 -23 26q-21 7 -103 7h-17v61l112 75h-189l3 115h335v-106l-105 -71q127 -13 127 -115q0 -67 -56 -105q-54 -36 -144 -36q-87 0 -162 25z" />
    <glyph glyph-name="acute" unicode="&#xb4;" horiz-adv-x="500" 
d="M99 624l124 178h226v-14l-176 -164h-174z" />
    <glyph glyph-name="paragraph" unicode="&#xb6;" horiz-adv-x="887" 
d="M595 0v535h-125v-375h-38q-185 0 -271 51q-97 58 -97 201q0 288 353 288h365v-700h-187z" />
    <glyph glyph-name="periodcentered" unicode="&#xb7;" horiz-adv-x="413" 
d="M116 256q-33 32 -33 80v1q0 50 33 81q34 32 90 32t91 -32q33 -31 33 -80v-1q0 -49 -33 -81q-35 -32 -91 -32t-90 32z" />
    <glyph glyph-name="cedilla" unicode="&#xb8;" horiz-adv-x="500" 
d="M357 0l-85 -192h-232v18l158 174h159z" />
    <glyph glyph-name="uni00B9" unicode="&#xb9;" horiz-adv-x="345" 
d="M118 357v301h-89l18 117h219v-418h-148z" />
    <glyph glyph-name="ordmasculine" unicode="&#xba;" horiz-adv-x="589" 
d="M103 307q-70 67 -70 172q0 106 70 173q69 66 191 66t192 -66q70 -67 70 -173q0 -105 -70 -172t-192 -67q-124 0 -191 67zM386 479q0 47 -23 76q-26 29 -69 29q-91 0 -91 -105t91 -105q92 0 92 105z" />
    <glyph glyph-name="guillemotright" unicode="&#xbb;" horiz-adv-x="792" 
d="M375 40l181 237l-181 236h209l176 -228v-17l-176 -228h-209zM43 40l181 237l-181 236h208l177 -228v-17l-177 -228h-208z" />
    <glyph glyph-name="onequarter" unicode="&#xbc;" horiz-adv-x="1012" 
d="M118 282v301h-89l18 117h219v-418h-148zM133 1l517 699h142v-1l-517 -699h-142v1zM808 0v75h-227v104l100 239h261v-233h54l-7 -110h-47v-75h-134zM715 181h99v129h-48z" />
    <glyph glyph-name="onehalf" unicode="&#xbd;" horiz-adv-x="1028" 
d="M118 282v301h-89l18 117h219v-418h-148zM133 1l517 699h142v-1l-517 -699h-142v1zM626 0v113l96 70q79 54 99 73q17 17 17 29q0 24 -44 24q-67 0 -150 -53h-1v130q89 47 176 47q78 0 122 -32q44 -33 44 -93q0 -51 -36 -86q-36 -36 -117 -90l-21 -15h170v-117h-355z" />
    <glyph glyph-name="threequarters" unicode="&#xbe;" horiz-adv-x="1113" 
d="M57 292v120h1q89 -27 150 -27q71 0 71 31q0 18 -23 26q-21 7 -103 7h-17v61l112 75h-189l3 115h335v-106l-105 -71q127 -13 127 -115q0 -67 -56 -105q-54 -36 -144 -36q-87 0 -162 25zM234 1l517 699h142v-1l-517 -699h-142v1zM909 0v75h-227v104l100 239h261v-233h54
l-7 -110h-47v-75h-134zM816 181h99v129h-48z" />
    <glyph glyph-name="questiondown" unicode="&#xbf;" horiz-adv-x="610" 
d="M431 541q32 -32 32 -81v-1q0 -50 -32 -80q-35 -32 -92 -32q-56 0 -91 32q-33 30 -33 80v1q0 50 33 81q35 32 91 32q57 0 92 -32zM557 -99q-148 -62 -268 -62q-119 0 -193 45q-83 51 -83 148q0 113 113 179q97 57 296 88h1v-152q-115 -26 -160 -49q-40 -21 -40 -49
q0 -48 91 -48q118 0 242 75h1v-175z" />
    <glyph glyph-name="Agrave" unicode="&#xc0;" horiz-adv-x="864" 
d="M20 0l243 700h338l243 -700h-220l-49 145h-289l-50 -145h-216zM412 522l-75 -220h188l-75 220h-38zM533 771h-175l-176 164v14h227z" />
    <glyph glyph-name="Aacute" unicode="&#xc1;" horiz-adv-x="864" 
d="M20 0l243 700h338l243 -700h-220l-49 145h-289l-50 -145h-216zM412 522l-75 -220h188l-75 220h-38zM334 771l124 178h226v-14l-176 -164h-174z" />
    <glyph glyph-name="Acircumflex" unicode="&#xc2;" horiz-adv-x="864" 
d="M20 0l243 700h338l243 -700h-220l-49 145h-289l-50 -145h-216zM412 522l-75 -220h188l-75 220h-38zM185 771l131 195h232l131 -195h-174l-55 79h-37l-55 -79h-173z" />
    <glyph glyph-name="Atilde" unicode="&#xc3;" horiz-adv-x="864" 
d="M20 0l243 700h338l243 -700h-220l-49 145h-289l-50 -145h-216zM412 522l-75 -220h188l-75 220h-38zM639 816q-24 -24 -50 -38q-32 -17 -66 -17q-42 0 -116 34q-54 24 -76 24q-46 0 -106 -66h-1v153q55 55 117 55q42 0 116 -34q54 -24 76 -24q48 0 105 67h1v-154z" />
    <glyph glyph-name="Adieresis" unicode="&#xc4;" horiz-adv-x="864" 
d="M20 0l243 700h338l243 -700h-220l-49 145h-289l-50 -145h-216zM412 522l-75 -220h188l-75 220h-38zM223 790q-27 26 -27 68t27 69q29 26 75 26t75 -26q27 -25 27 -69q0 -42 -27 -68q-28 -27 -75 -27q-46 0 -75 27zM492 790q-27 26 -27 68t27 69q29 26 75 26t75 -26
q27 -25 27 -69q0 -42 -27 -68q-28 -27 -75 -27q-46 0 -75 27z" />
    <glyph glyph-name="Aring" unicode="&#xc5;" horiz-adv-x="864" 
d="M20 0l243 700h338l243 -700h-220l-49 145h-289l-50 -145h-216zM412 522l-75 -220h188l-75 220h-38zM293 804q-51 42 -51 118q0 77 52 120q50 42 138 42q87 0 139 -41q52 -43 52 -120q0 -75 -53 -119q-52 -41 -140 -41q-87 0 -137 41zM501 923q0 60 -70 60t-70 -60
q0 -58 71 -58q69 0 69 58z" />
    <glyph glyph-name="AE" unicode="&#xc6;" horiz-adv-x="1273" 
d="M591 0v145h-272l-81 -145h-235l401 700h798l8 -170h-411v-96h324v-155h-324v-109h424l-8 -170h-624zM530 527l-125 -226h186v226h-61z" />
    <glyph glyph-name="Ccedilla" unicode="&#xc7;" horiz-adv-x="778" 
d="M717 54q-82 -54 -210 -69l-79 -179h-232v18l150 166q-144 22 -224 122q-76 92 -76 235q0 164 107 266q111 105 298 105q151 0 266 -75v-197h-2q-140 92 -250 92q-96 0 -151 -52q-56 -53 -56 -137q0 -86 55 -135q55 -52 151 -52q127 0 251 92h2v-200z" />
    <glyph glyph-name="Egrave" unicode="&#xc8;" horiz-adv-x="767" 
d="M85 0v700h612l8 -170h-411v-96h323v-155h-323v-109h423l-8 -170h-624zM498 771h-175l-176 164v14h227z" />
    <glyph glyph-name="Eacute" unicode="&#xc9;" horiz-adv-x="767" 
d="M85 0v700h612l8 -170h-411v-96h323v-155h-323v-109h423l-8 -170h-624zM299 771l124 178h226v-14l-176 -164h-174z" />
    <glyph glyph-name="Ecircumflex" unicode="&#xca;" horiz-adv-x="767" 
d="M85 0v700h612l8 -170h-411v-96h323v-155h-323v-109h423l-8 -170h-624zM150 771l131 195h232l131 -195h-174l-55 79h-37l-55 -79h-173z" />
    <glyph glyph-name="Edieresis" unicode="&#xcb;" horiz-adv-x="767" 
d="M85 0v700h612l8 -170h-411v-96h323v-155h-323v-109h423l-8 -170h-624zM188 790q-27 26 -27 68t27 69q29 26 75 26t75 -26q27 -25 27 -69q0 -42 -27 -68q-28 -27 -75 -27q-46 0 -75 27zM457 790q-27 26 -27 68t27 69q29 26 75 26t75 -26q27 -25 27 -69q0 -42 -27 -68
q-28 -27 -75 -27q-46 0 -75 27z" />
    <glyph glyph-name="Igrave" unicode="&#xcc;" horiz-adv-x="382" 
d="M86 0v700h211v-700h-211zM278 771h-175l-176 164v14h227z" />
    <glyph glyph-name="Iacute" unicode="&#xcd;" horiz-adv-x="382" 
d="M86 0v700h211v-700h-211zM107 771l124 178h226v-14l-176 -164h-174z" />
    <glyph glyph-name="Icircumflex" unicode="&#xce;" horiz-adv-x="382" 
d="M86 0v700h211v-700h-211zM-56 771l131 195h232l131 -195h-174l-55 79h-37l-55 -79h-173z" />
    <glyph glyph-name="Idieresis" unicode="&#xcf;" horiz-adv-x="382" 
d="M86 0v700h211v-700h-211zM-18 790q-27 26 -27 68t27 69q29 26 75 26t75 -26q27 -25 27 -69q0 -42 -27 -68q-28 -27 -75 -27q-46 0 -75 27zM251 790q-27 26 -27 68t27 69q29 26 75 26t75 -26q27 -25 27 -69q0 -42 -27 -68q-28 -27 -75 -27q-46 0 -75 27z" />
    <glyph glyph-name="Eth" unicode="&#xd0;" horiz-adv-x="907" 
d="M132 0v278h-99l11 147h88v275h378q163 0 257 -91t94 -259q0 -167 -94 -258q-95 -92 -257 -92h-378zM342 172h145q162 0 162 178t-162 178h-145v-110h170v-134h-170v-112z" />
    <glyph glyph-name="Ntilde" unicode="&#xd1;" horiz-adv-x="892" 
d="M85 0v700h218l301 -397h3v397h200v-700h-211l-308 407h-3v-407h-200zM673 816q-24 -24 -50 -38q-32 -17 -66 -17q-42 0 -116 34q-54 24 -76 24q-46 0 -106 -66h-1v153q55 55 117 55q42 0 116 -34q54 -24 76 -24q48 0 105 67h1v-154z" />
    <glyph glyph-name="Ograve" unicode="&#xd2;" horiz-adv-x="892" 
d="M154 79q-108 101 -108 271q0 171 108 271q107 100 292 100t292 -100q108 -100 108 -271q0 -170 -108 -271q-107 -100 -292 -100t-292 100zM586 209q51 51 51 141q0 89 -50 142q-51 51 -141 51t-140 -51q-51 -52 -51 -142q0 -89 50 -141q49 -52 140 -52q90 0 141 52z
M547 793h-175l-176 164v14h227z" />
    <glyph glyph-name="Oacute" unicode="&#xd3;" horiz-adv-x="892" 
d="M154 79q-108 101 -108 271q0 171 108 271q107 100 292 100t292 -100q108 -100 108 -271q0 -170 -108 -271q-107 -100 -292 -100t-292 100zM586 209q51 51 51 141q0 89 -50 142q-51 51 -141 51t-140 -51q-51 -52 -51 -142q0 -89 50 -141q49 -52 140 -52q90 0 141 52z
M348 793l124 178h226v-14l-176 -164h-174z" />
    <glyph glyph-name="Ocircumflex" unicode="&#xd4;" horiz-adv-x="892" 
d="M154 79q-108 101 -108 271q0 171 108 271q107 100 292 100t292 -100q108 -100 108 -271q0 -170 -108 -271q-107 -100 -292 -100t-292 100zM586 209q51 51 51 141q0 89 -50 142q-51 51 -141 51t-140 -51q-51 -52 -51 -142q0 -89 50 -141q49 -52 140 -52q90 0 141 52z
M199 793l131 195h232l131 -195h-174l-55 79h-37l-55 -79h-173z" />
    <glyph glyph-name="Otilde" unicode="&#xd5;" horiz-adv-x="892" 
d="M154 79q-108 101 -108 271q0 171 108 271q107 100 292 100t292 -100q108 -100 108 -271q0 -170 -108 -271q-107 -100 -292 -100t-292 100zM586 209q51 51 51 141q0 89 -50 142q-51 51 -141 51t-140 -51q-51 -52 -51 -142q0 -89 50 -141q49 -52 140 -52q90 0 141 52z
M653 838q-24 -24 -50 -38q-32 -17 -66 -17q-42 0 -116 34q-54 24 -76 24q-46 0 -106 -66h-1v153q55 55 117 55q42 0 116 -34q54 -24 76 -24q48 0 105 67h1v-154z" />
    <glyph glyph-name="Odieresis" unicode="&#xd6;" horiz-adv-x="892" 
d="M154 79q-108 101 -108 271q0 171 108 271q107 100 292 100t292 -100q108 -100 108 -271q0 -170 -108 -271q-107 -100 -292 -100t-292 100zM586 209q51 51 51 141q0 89 -50 142q-51 51 -141 51t-140 -51q-51 -52 -51 -142q0 -89 50 -141q49 -52 140 -52q90 0 141 52z
M237 812q-27 26 -27 68t27 69q29 26 75 26t75 -26q27 -25 27 -69q0 -42 -27 -68q-28 -27 -75 -27q-46 0 -75 27zM506 812q-27 26 -27 68t27 69q29 26 75 26t75 -26q27 -25 27 -69q0 -42 -27 -68q-28 -27 -75 -27q-46 0 -75 27z" />
    <glyph glyph-name="multiply" unicode="&#xd7;" horiz-adv-x="747" 
d="M81 517l118 122l175 -170l174 170l118 -122l-171 -166l171 -167l-118 -122l-174 170l-175 -170l-118 122l171 167z" />
    <glyph glyph-name="Oslash" unicode="&#xd8;" horiz-adv-x="892" 
d="M19 -59l119 155q-92 98 -92 254q0 171 108 271q107 100 292 100q101 0 177 -30l54 68h196l-118 -155q91 -100 91 -254q0 -170 -108 -271q-107 -100 -292 -100q-99 0 -177 30l-53 -68h-197zM273 239l238 302q-34 8 -65 8q-92 0 -145 -53t-53 -146q0 -68 25 -111zM591 204
q53 53 53 146q0 67 -25 111l-238 -303q27 -7 64 -7q93 0 146 53z" />
    <glyph glyph-name="Ugrave" unicode="&#xd9;" horiz-adv-x="869" 
d="M79 275v425h210v-409q0 -73 44 -100t101 -27q59 0 103 26q43 25 43 98v412h210v-423q0 -299 -357 -299q-354 0 -354 297zM535 747h-175l-176 164v14h227z" />
    <glyph glyph-name="Uacute" unicode="&#xda;" horiz-adv-x="869" 
d="M79 275v425h210v-409q0 -73 44 -100t101 -27q59 0 103 26q43 25 43 98v412h210v-423q0 -299 -357 -299q-354 0 -354 297zM336 747l124 178h226v-14l-176 -164h-174z" />
    <glyph glyph-name="Ucircumflex" unicode="&#xdb;" horiz-adv-x="869" 
d="M79 275v425h210v-409q0 -73 44 -100t101 -27q59 0 103 26q43 25 43 98v412h210v-423q0 -299 -357 -299q-354 0 -354 297zM187 771l131 195h232l131 -195h-174l-55 79h-37l-55 -79h-173z" />
    <glyph glyph-name="Udieresis" unicode="&#xdc;" horiz-adv-x="869" 
d="M79 275v425h210v-409q0 -73 44 -100t101 -27q59 0 103 26q43 25 43 98v412h210v-423q0 -299 -357 -299q-354 0 -354 297zM225 790q-27 26 -27 68t27 69q29 26 75 26t75 -26q27 -25 27 -69q0 -42 -27 -68q-28 -27 -75 -27q-46 0 -75 27zM494 790q-27 26 -27 68t27 69
q29 26 75 26t75 -26q27 -25 27 -69q0 -42 -27 -68q-28 -27 -75 -27q-46 0 -75 27z" />
    <glyph glyph-name="Yacute" unicode="&#xdd;" horiz-adv-x="823" 
d="M306 0v224l-307 476h236l173 -279h10l175 279h230l-306 -475v-225h-211zM313 747l124 178h226v-14l-176 -164h-174z" />
    <glyph glyph-name="Thorn" unicode="&#xde;" horiz-adv-x="804" 
d="M85 0v700h210v-89h207q131 0 201 -69q68 -68 68 -186q0 -130 -80 -198q-73 -64 -204 -64h-192v-94h-210zM295 259h171q97 0 97 92t-100 92h-168v-184z" />
    <glyph glyph-name="germandbls" unicode="&#xdf;" horiz-adv-x="811" 
d="M16 401l27 152h93q21 117 103 178q80 60 204 60q126 0 202 -57q78 -59 119 -145l-162 -174l24 -12q82 -41 116 -84q38 -49 38 -117q0 -101 -67 -159q-65 -58 -174 -58q-77 0 -143 20v157h1q56 -24 106 -24q37 0 59 21q20 20 20 51t-24 50q-23 19 -83 42l-55 23l-3 104
l131 148q-37 49 -97 49q-51 0 -86 -36q-36 -37 -36 -137v-453h-201v401h-112z" />
    <glyph glyph-name="agrave" unicode="&#xe0;" horiz-adv-x="643" 
d="M81 25q-46 40 -46 110q0 63 42 105q78 78 312 93q-1 75 -90 75q-102 0 -212 -66h-1v171q115 58 247 58q252 0 252 -230v-341h-186l-3 61q-76 -78 -179 -78q-86 0 -136 42zM348 131q26 11 41 26v79q-121 -12 -152 -43q-13 -13 -13 -31q0 -44 62 -44q32 0 62 13zM433 632
h-175l-176 164v14h227z" />
    <glyph glyph-name="aacute" unicode="&#xe1;" horiz-adv-x="643" 
d="M81 25q-46 40 -46 110q0 63 42 105q78 78 312 93q-1 75 -90 75q-102 0 -212 -66h-1v171q115 58 247 58q252 0 252 -230v-341h-186l-3 61q-76 -78 -179 -78q-86 0 -136 42zM348 131q26 11 41 26v79q-121 -12 -152 -43q-13 -13 -13 -31q0 -44 62 -44q32 0 62 13zM234 632
l124 178h226v-14l-176 -164h-174z" />
    <glyph glyph-name="acircumflex" unicode="&#xe2;" horiz-adv-x="643" 
d="M81 25q-46 40 -46 110q0 63 42 105q78 78 312 93q-1 75 -90 75q-102 0 -212 -66h-1v171q115 58 247 58q252 0 252 -230v-341h-186l-3 61q-76 -78 -179 -78q-86 0 -136 42zM348 131q26 11 41 26v79q-121 -12 -152 -43q-13 -13 -13 -31q0 -44 62 -44q32 0 62 13zM85 632
l131 195h232l131 -195h-174l-55 79h-37l-55 -79h-173z" />
    <glyph glyph-name="atilde" unicode="&#xe3;" horiz-adv-x="643" 
d="M81 25q-46 40 -46 110q0 63 42 105q78 78 312 93q-1 75 -90 75q-102 0 -212 -66h-1v171q115 58 247 58q252 0 252 -230v-341h-186l-3 61q-76 -78 -179 -78q-86 0 -136 42zM348 131q26 11 41 26v79q-121 -12 -152 -43q-13 -13 -13 -31q0 -44 62 -44q32 0 62 13zM539 677
q-24 -24 -50 -38q-32 -17 -66 -17q-42 0 -116 34q-54 24 -76 24q-46 0 -106 -66h-1v153q55 55 117 55q42 0 116 -34q54 -24 76 -24q48 0 105 67h1v-154z" />
    <glyph glyph-name="adieresis" unicode="&#xe4;" horiz-adv-x="643" 
d="M81 25q-46 40 -46 110q0 63 42 105q78 78 312 93q-1 75 -90 75q-102 0 -212 -66h-1v171q115 58 247 58q252 0 252 -230v-341h-186l-3 61q-76 -78 -179 -78q-86 0 -136 42zM348 131q26 11 41 26v79q-121 -12 -152 -43q-13 -13 -13 -31q0 -44 62 -44q32 0 62 13zM122 651
q-27 26 -27 68t27 69q29 26 75 26t75 -26q27 -25 27 -69q0 -42 -27 -68q-28 -27 -75 -27q-46 0 -75 27zM391 651q-27 26 -27 68t27 69q29 26 75 26t75 -26q27 -25 27 -69q0 -42 -27 -68q-28 -27 -75 -27q-46 0 -75 27z" />
    <glyph glyph-name="aring" unicode="&#xe5;" horiz-adv-x="643" 
d="M81 25q-46 40 -46 110q0 63 42 105q78 78 312 93q-1 75 -90 75q-102 0 -212 -66h-1v171q115 58 247 58q252 0 252 -230v-341h-186l-3 61q-76 -78 -179 -78q-86 0 -136 42zM348 131q26 11 41 26v79q-121 -12 -152 -43q-13 -13 -13 -31q0 -44 62 -44q32 0 62 13zM193 665
q-51 42 -51 118q0 77 52 120q50 42 138 42q87 0 139 -41q52 -43 52 -120q0 -75 -53 -119q-52 -41 -140 -41q-87 0 -137 41zM401 784q0 60 -70 60t-70 -60q0 -58 71 -58q69 0 69 58z" />
    <glyph glyph-name="ae" unicode="&#xe6;" horiz-adv-x="1017" 
d="M944 33q-101 -52 -228 -52q-174 0 -258 95q-99 -93 -239 -93q-89 0 -137 42q-47 41 -47 110q0 63 42 105q77 77 314 94q-2 74 -92 74q-102 0 -212 -66h-1v171q115 58 245 58q128 0 184 -71q73 73 191 73q132 0 205 -81q69 -76 69 -206q0 -5 -0.5 -12.5t-1.5 -16.5l-2 -29
h-387q18 -93 153 -93q103 0 201 53h1v-155zM590 327h212q-5 45 -31 70q-28 28 -74 28q-87 0 -107 -98zM286 118q37 0 74 14q27 10 50 28q-14 43 -16 76q-123 -12 -157 -43q-13 -13 -13 -31q0 -44 62 -44z" />
    <glyph glyph-name="ccedilla" unicode="&#xe7;" horiz-adv-x="603" 
d="M554 32q-59 -37 -134 -47l-80 -180h-232v18l153 168q-105 24 -163 94q-61 73 -61 183q0 133 91 218t233 85q114 0 193 -51v-172h-1q-79 58 -168 58q-62 0 -103 -36q-41 -38 -41 -97t40 -93q39 -33 103 -33q90 0 169 57h1v-172z" />
    <glyph glyph-name="egrave" unicode="&#xe8;" horiz-adv-x="665" 
d="M558 492q71 -77 71 -206q0 -5 -0.5 -12.5t-1.5 -16.5l-2 -29h-387q18 -93 153 -93q103 0 201 53h1v-155q-101 -52 -228 -52q-157 0 -242 76q-86 75 -86 208q0 136 86 222t223 86t212 -81zM239 327h212q-5 45 -31 70q-28 28 -74 28q-87 0 -107 -98zM449 632h-175l-176 164
v14h227z" />
    <glyph glyph-name="eacute" unicode="&#xe9;" horiz-adv-x="665" 
d="M558 492q71 -77 71 -206q0 -5 -0.5 -12.5t-1.5 -16.5l-2 -29h-387q18 -93 153 -93q103 0 201 53h1v-155q-101 -52 -228 -52q-157 0 -242 76q-86 75 -86 208q0 136 86 222t223 86t212 -81zM239 327h212q-5 45 -31 70q-28 28 -74 28q-87 0 -107 -98zM250 632l124 178h226
v-14l-176 -164h-174z" />
    <glyph glyph-name="ecircumflex" unicode="&#xea;" horiz-adv-x="665" 
d="M558 492q71 -77 71 -206q0 -5 -0.5 -12.5t-1.5 -16.5l-2 -29h-387q18 -93 153 -93q103 0 201 53h1v-155q-101 -52 -228 -52q-157 0 -242 76q-86 75 -86 208q0 136 86 222t223 86t212 -81zM239 327h212q-5 45 -31 70q-28 28 -74 28q-87 0 -107 -98zM101 632l131 195h232
l131 -195h-174l-55 79h-37l-55 -79h-173z" />
    <glyph glyph-name="edieresis" unicode="&#xeb;" horiz-adv-x="665" 
d="M558 492q71 -77 71 -206q0 -5 -0.5 -12.5t-1.5 -16.5l-2 -29h-387q18 -93 153 -93q103 0 201 53h1v-155q-101 -52 -228 -52q-157 0 -242 76q-86 75 -86 208q0 136 86 222t223 86t212 -81zM239 327h212q-5 45 -31 70q-28 28 -74 28q-87 0 -107 -98zM139 651q-27 26 -27 68
t27 69q29 26 75 26t75 -26q27 -25 27 -69q0 -42 -27 -68q-28 -27 -75 -27q-46 0 -75 27zM408 651q-27 26 -27 68t27 69q29 26 75 26t75 -26q27 -25 27 -69q0 -42 -27 -68q-28 -27 -75 -27q-46 0 -75 27z" />
    <glyph glyph-name="igrave" unicode="&#xec;" horiz-adv-x="341" 
d="M68 0v553h205v-553h-205zM258 624h-175l-176 164v14h227z" />
    <glyph glyph-name="iacute" unicode="&#xed;" horiz-adv-x="341" 
d="M68 0v553h205v-553h-205zM87 624l124 178h226v-14l-176 -164h-174z" />
    <glyph glyph-name="icircumflex" unicode="&#xee;" horiz-adv-x="341" 
d="M68 0v553h205v-553h-205zM-76 624l131 195h232l131 -195h-174l-55 79h-37l-55 -79h-173z" />
    <glyph glyph-name="idieresis" unicode="&#xef;" horiz-adv-x="341" 
d="M68 0v553h205v-553h-205zM-38 643q-27 26 -27 68t27 69q29 26 75 26t75 -26q27 -25 27 -69q0 -42 -27 -68q-28 -27 -75 -27t-75 27zM231 643q-27 26 -27 68t27 69q29 26 75 26t75 -26q27 -25 27 -69q0 -42 -27 -68q-28 -27 -75 -27q-46 0 -75 27z" />
    <glyph glyph-name="eth" unicode="&#xf0;" horiz-adv-x="702" 
d="M116 52q-84 71 -84 191q0 127 85 200q73 64 183 64q96 0 158 -58q-25 68 -84 136l-187 -54v111l96 28q-59 49 -146 96v10h241q55 -33 81 -55l190 55v-112l-101 -29q116 -137 116 -311q0 -171 -92 -261q-86 -83 -234 -83q-139 0 -222 72zM264 168q32 -29 80 -29
q62 0 93 43q30 39 30 108l-1 20l-2 19q-42 42 -112 42q-51 0 -84 -30q-36 -33 -36 -90q0 -51 32 -83z" />
    <glyph glyph-name="ntilde" unicode="&#xf1;" horiz-adv-x="714" 
d="M67 0v553h202l1 -80q84 99 195 99q88 0 137 -52q50 -53 50 -148v-372h-205v318q0 81 -71 81q-55 0 -104 -43v-356h-205zM572 677q-24 -24 -50 -38q-32 -17 -66 -17q-42 0 -116 34q-54 24 -76 24q-46 0 -106 -66h-1v153q55 55 117 55q42 0 116 -34q54 -24 76 -24
q48 0 105 67h1v-154z" />
    <glyph glyph-name="ograve" unicode="&#xf2;" horiz-adv-x="707" 
d="M122 63q-85 81 -85 213t85 214q86 83 231 83t233 -83q84 -81 84 -214q0 -132 -84 -213q-88 -83 -233 -83t-231 83zM439 176q32 38 32 100q0 63 -32 101q-31 37 -86 37q-54 0 -85 -37q-32 -38 -32 -101q0 -62 32 -100t85 -38q54 0 86 38zM454 632h-175l-176 164v14h227z
" />
    <glyph glyph-name="oacute" unicode="&#xf3;" horiz-adv-x="707" 
d="M122 63q-85 81 -85 213t85 214q86 83 231 83t233 -83q84 -81 84 -214q0 -132 -84 -213q-88 -83 -233 -83t-231 83zM439 176q32 38 32 100q0 63 -32 101q-31 37 -86 37q-54 0 -85 -37q-32 -38 -32 -101q0 -62 32 -100t85 -38q54 0 86 38zM255 632l124 178h226v-14
l-176 -164h-174z" />
    <glyph glyph-name="ocircumflex" unicode="&#xf4;" horiz-adv-x="707" 
d="M122 63q-85 81 -85 213t85 214q86 83 231 83t233 -83q84 -81 84 -214q0 -132 -84 -213q-88 -83 -233 -83t-231 83zM439 176q32 38 32 100q0 63 -32 101q-31 37 -86 37q-54 0 -85 -37q-32 -38 -32 -101q0 -62 32 -100t85 -38q54 0 86 38zM106 632l131 195h232l131 -195
h-174l-55 79h-37l-55 -79h-173z" />
    <glyph glyph-name="otilde" unicode="&#xf5;" horiz-adv-x="707" 
d="M122 63q-85 81 -85 213t85 214q86 83 231 83t233 -83q84 -81 84 -214q0 -132 -84 -213q-88 -83 -233 -83t-231 83zM439 176q32 38 32 100q0 63 -32 101q-31 37 -86 37q-54 0 -85 -37q-32 -38 -32 -101q0 -62 32 -100t85 -38q54 0 86 38zM561 677q-24 -24 -50 -38
q-32 -17 -66 -17q-42 0 -116 34q-54 24 -76 24q-46 0 -106 -66h-1v153q55 55 117 55q42 0 116 -34q54 -24 76 -24q48 0 105 67h1v-154z" />
    <glyph glyph-name="odieresis" unicode="&#xf6;" horiz-adv-x="707" 
d="M122 63q-85 81 -85 213t85 214q86 83 231 83t233 -83q84 -81 84 -214q0 -132 -84 -213q-88 -83 -233 -83t-231 83zM439 176q32 38 32 100q0 63 -32 101q-31 37 -86 37q-54 0 -85 -37q-32 -38 -32 -101q0 -62 32 -100t85 -38q54 0 86 38zM144 651q-27 26 -27 68t27 69
q29 26 75 26t75 -26q27 -25 27 -69q0 -42 -27 -68q-28 -27 -75 -27q-46 0 -75 27zM413 651q-27 26 -27 68t27 69q29 26 75 26t75 -26q27 -25 27 -69q0 -42 -27 -68q-28 -27 -75 -27q-46 0 -75 27z" />
    <glyph glyph-name="divide" unicode="&#xf7;" horiz-adv-x="766" 
d="M465 644q29 -27 29 -70t-30 -70t-81 -27t-81 27q-30 26 -30 69v1q0 43 30 70t80 27q52 0 83 -27zM80 272v157h605v-157h-605zM302 58q-30 26 -30 69t30 70t81 27t81 -27q30 -25 30 -69v-1q0 -43 -30 -69q-29 -28 -81 -28t-81 28z" />
    <glyph glyph-name="oslash" unicode="&#xf8;" horiz-adv-x="707" 
d="M211 5l-40 -54h-165l97 131q-66 78 -66 194q0 132 85 214q86 83 231 83q79 0 142 -25l41 54h165l-97 -132q66 -75 66 -194q0 -132 -84 -213q-88 -83 -233 -83q-79 0 -142 25zM237 210l161 206q-17 7 -45 7q-58 0 -93 -39q-33 -39 -33 -108q0 -30 10 -66zM447 169
q33 39 33 107q0 31 -10 67l-162 -206q17 -7 45 -7q60 0 94 39z" />
    <glyph glyph-name="ugrave" unicode="&#xf9;" horiz-adv-x="714" 
d="M647 553v-553h-202l-1 80q-84 -99 -195 -99q-87 0 -136 52q-50 53 -50 147v373h204v-319q0 -80 72 -80q54 0 103 43v356h205zM452 607h-175l-176 164v14h227z" />
    <glyph glyph-name="uacute" unicode="&#xfa;" horiz-adv-x="714" 
d="M647 553v-553h-202l-1 80q-84 -99 -195 -99q-87 0 -136 52q-50 53 -50 147v373h204v-319q0 -80 72 -80q54 0 103 43v356h205zM253 607l124 178h226v-14l-176 -164h-174z" />
    <glyph glyph-name="ucircumflex" unicode="&#xfb;" horiz-adv-x="714" 
d="M647 553v-553h-202l-1 80q-84 -99 -195 -99q-87 0 -136 52q-50 53 -50 147v373h204v-319q0 -80 72 -80q54 0 103 43v356h205zM104 624l131 195h232l131 -195h-174l-55 79h-37l-55 -79h-173z" />
    <glyph glyph-name="udieresis" unicode="&#xfc;" horiz-adv-x="714" 
d="M647 553v-553h-202l-1 80q-84 -99 -195 -99q-87 0 -136 52q-50 53 -50 147v373h204v-319q0 -80 72 -80q54 0 103 43v356h205zM142 643q-27 26 -27 68t27 69q29 26 75 26t75 -26q27 -25 27 -69q0 -42 -27 -68q-28 -27 -75 -27q-46 0 -75 27zM411 643q-27 26 -27 68t27 69
q29 26 75 26t75 -26q27 -25 27 -69q0 -42 -27 -68q-28 -27 -75 -27q-46 0 -75 27z" />
    <glyph glyph-name="yacute" unicode="&#xfd;" horiz-adv-x="664" 
d="M176 -208l66 183l-231 578h204l127 -346l117 346h200l-289 -761h-194zM241 608l124 178h226v-14l-176 -164h-174z" />
    <glyph glyph-name="thorn" unicode="&#xfe;" horiz-adv-x="727" 
d="M67 -208v984h204v-290q65 84 175 84q109 0 176 -75q68 -77 68 -202q0 -137 -84 -224q-82 -84 -209 -84q-74 0 -125 27v-220h-205zM451 178q35 38 35 102q-2 63 -33 97q-31 33 -83 33q-54 0 -98 -33v-208q41 -27 87 -27q58 0 92 36z" />
    <glyph glyph-name="ydieresis" unicode="&#xff;" horiz-adv-x="664" 
d="M176 -208l66 183l-231 578h204l127 -346l117 346h200l-289 -761h-194zM130 643q-27 26 -27 68t27 69q29 26 75 26t75 -26q27 -25 27 -69q0 -42 -27 -68q-28 -27 -75 -27q-46 0 -75 27zM399 643q-27 26 -27 68t27 69q29 26 75 26t75 -26q27 -25 27 -69q0 -42 -27 -68
q-28 -27 -75 -27q-46 0 -75 27z" />
    <glyph glyph-name="Amacron" unicode="&#x100;" horiz-adv-x="864" 
d="M20 0l243 700h338l243 -700h-220l-49 145h-289l-50 -145h-216zM412 522l-75 -220h188l-75 220h-38zM225 792v133h414v-133h-414z" />
    <glyph glyph-name="amacron" unicode="&#x101;" horiz-adv-x="643" 
d="M81 25q-46 40 -46 110q0 63 42 105q78 78 312 93q-1 75 -90 75q-102 0 -212 -66h-1v171q115 58 247 58q252 0 252 -230v-341h-186l-3 61q-76 -78 -179 -78q-86 0 -136 42zM348 131q26 11 41 26v79q-121 -12 -152 -43q-13 -13 -13 -31q0 -44 62 -44q32 0 62 13zM125 653
v133h414v-133h-414z" />
    <glyph glyph-name="Abreve" unicode="&#x102;" horiz-adv-x="864" 
d="M20 0l243 700h338l243 -700h-220l-49 145h-289l-50 -145h-216zM412 522l-75 -220h188l-75 220h-38zM275 802q-58 40 -58 117q0 23 8 63h138l-1 -8l-1 -8q-1 -4 -1 -7.5v-5.5q0 -57 72 -57q71 0 71 57q0 2 -0.5 9.5t-1.5 19.5h138q8 -40 8 -63q0 -77 -58 -117
q-57 -39 -157 -39t-157 39z" />
    <glyph glyph-name="abreve" unicode="&#x103;" horiz-adv-x="643" 
d="M81 25q-46 40 -46 110q0 63 42 105q78 78 312 93q-1 75 -90 75q-102 0 -212 -66h-1v171q115 58 247 58q252 0 252 -230v-341h-186l-3 61q-76 -78 -179 -78q-86 0 -136 42zM348 131q26 11 41 26v79q-121 -12 -152 -43q-13 -13 -13 -31q0 -44 62 -44q32 0 62 13zM175 663
q-58 40 -58 117q0 23 8 63h138l-1 -8l-1 -8q-1 -4 -1 -7.5v-5.5q0 -57 72 -57q71 0 71 57q0 2 -0.5 9.5t-1.5 19.5h138q8 -40 8 -63q0 -77 -58 -117q-57 -39 -157 -39t-157 39z" />
    <glyph glyph-name="Aogonek" unicode="&#x104;" horiz-adv-x="864" 
d="M20 0l243 700h338l243 -700h-220l-49 145h-289l-50 -145h-216zM412 522l-75 -220h188l-75 220h-38zM776 50l68 -50l-53 -49q-67 -63 -67 -87q0 -35 59 -35q18 0 36 3q26 5 45 13v-134q-61 -19 -122 -19q-109 0 -155 43q-35 30 -35 79q0 90 150 186z" />
    <glyph glyph-name="aogonek" unicode="&#x105;" horiz-adv-x="643" 
d="M81 25q-46 40 -46 110q0 63 42 105q78 78 312 93q-1 75 -90 75q-102 0 -212 -66h-1v171q115 58 247 58q252 0 252 -230v-341h-186l-3 61q-76 -78 -179 -78q-86 0 -136 42zM348 131q26 11 41 26v79q-121 -12 -152 -43q-13 -13 -13 -31q0 -44 62 -44q32 0 62 13zM517 50
l68 -50l-53 -49q-67 -63 -67 -87q0 -35 59 -35q18 0 36 3q26 5 45 13v-134q-61 -19 -122 -19q-109 0 -155 43q-35 30 -35 79q0 90 150 186z" />
    <glyph glyph-name="Cacute" unicode="&#x106;" horiz-adv-x="778" 
d="M146 85q-100 97 -100 262q0 164 107 266q111 105 298 105q151 0 266 -75v-197h-2q-140 92 -250 92q-96 0 -151 -52q-56 -53 -56 -137q0 -86 55 -135q55 -52 151 -52q127 0 251 92h2v-200q-46 -30 -110 -48q-79 -24 -164 -24q-191 0 -297 103zM341 790l124 178h226v-14
l-176 -164h-174z" />
    <glyph glyph-name="cacute" unicode="&#x107;" horiz-adv-x="603" 
d="M128 56q-91 76 -91 212q0 133 91 218t233 85q114 0 193 -51v-172h-1q-79 58 -168 58q-62 0 -103 -36q-41 -38 -41 -97t40 -93q39 -33 103 -33q90 0 169 57h1v-172q-82 -51 -194 -51q-145 0 -232 75zM250 632l124 178h226v-14l-176 -164h-174z" />
    <glyph glyph-name="Cdotaccent" unicode="&#x10a;" horiz-adv-x="778" 
d="M146 85q-100 97 -100 262q0 164 107 266q111 105 298 105q151 0 266 -75v-197h-2q-140 92 -250 92q-96 0 -151 -52q-56 -53 -56 -137q0 -86 55 -135q55 -52 151 -52q127 0 251 92h2v-200q-46 -30 -110 -48q-79 -24 -164 -24q-191 0 -297 103zM348 810q-30 26 -30 70v1
q0 45 31 70q31 28 90 28t90 -28q30 -25 30 -70v-1q0 -44 -30 -70q-32 -28 -91 -28t-90 28z" />
    <glyph glyph-name="cdotaccent" unicode="&#x10b;" horiz-adv-x="603" 
d="M128 56q-91 76 -91 212q0 133 91 218t233 85q114 0 193 -51v-172h-1q-79 58 -168 58q-62 0 -103 -36q-41 -38 -41 -97t40 -93q39 -33 103 -33q90 0 169 57h1v-172q-82 -51 -194 -51q-145 0 -232 75zM257 652q-30 26 -30 70v1q0 45 31 70q31 28 90 28t90 -28
q30 -25 30 -70v-1q0 -44 -30 -70q-32 -28 -91 -28t-90 28z" />
    <glyph glyph-name="Ccaron" unicode="&#x10c;" horiz-adv-x="778" 
d="M146 85q-100 97 -100 262q0 164 107 266q111 105 298 105q151 0 266 -75v-197h-2q-140 92 -250 92q-96 0 -151 -52q-56 -53 -56 -137q0 -86 55 -135q55 -52 151 -52q127 0 251 92h2v-200q-46 -30 -110 -48q-79 -24 -164 -24q-191 0 -297 103zM686 985l-131 -195h-232
l-131 195h174l55 -78h37l55 78h173z" />
    <glyph glyph-name="ccaron" unicode="&#x10d;" horiz-adv-x="603" 
d="M128 56q-91 76 -91 212q0 133 91 218t233 85q114 0 193 -51v-172h-1q-79 58 -168 58q-62 0 -103 -36q-41 -38 -41 -97t40 -93q39 -33 103 -33q90 0 169 57h1v-172q-82 -51 -194 -51q-145 0 -232 75zM595 827l-131 -195h-232l-131 195h174l55 -78h37l55 78h173z" />
    <glyph glyph-name="Dcaron" unicode="&#x10e;" horiz-adv-x="860" 
d="M85 0v700h377q164 0 258 -91t94 -259q0 -167 -94 -258q-95 -92 -258 -92h-377zM295 174h144q163 0 163 176q0 177 -163 177h-144v-353zM664 966l-131 -195h-232l-131 195h174l55 -78h37l55 78h173z" />
    <glyph glyph-name="dcaron" unicode="&#x10f;" horiz-adv-x="728" 
d="M659 776v-776h-198l-2 73q-69 -91 -178 -91q-108 0 -176 75q-68 77 -68 203q0 138 84 223q82 85 208 85q69 0 126 -28v236h204zM276 374q-35 -38 -35 -102q0 -61 33 -96q31 -34 83 -34q55 0 98 35v207q-41 26 -87 26q-57 0 -92 -36zM732 594v182h184v-24l-78 -158h-106z
" />
    <glyph glyph-name="Dcroat" unicode="&#x110;" horiz-adv-x="907" 
d="M132 0v278h-99l11 147h88v275h378q163 0 257 -91t94 -259q0 -167 -94 -258q-95 -92 -257 -92h-378zM342 172h145q162 0 162 178t-162 178h-145v-110h170v-134h-170v-112z" />
    <glyph glyph-name="dcroat" unicode="&#x111;" horiz-adv-x="739" 
d="M750 581h-91v-581h-198l-2 72q-66 -90 -178 -90q-108 0 -176 71q-68 73 -68 189q0 128 84 210q83 81 208 81q69 0 126 -27v75h-166v114h166v81h204v-81h83zM276 342q-35 -33 -35 -87q0 -51 33 -83q32 -30 83 -30q55 0 98 35v172q-38 26 -87 26q-57 0 -92 -33z" />
    <glyph glyph-name="Emacron" unicode="&#x112;" horiz-adv-x="767" 
d="M85 0v700h612l8 -170h-411v-96h323v-155h-323v-109h423l-8 -170h-624zM190 792v133h414v-133h-414z" />
    <glyph glyph-name="emacron" unicode="&#x113;" horiz-adv-x="665" 
d="M558 492q71 -77 71 -206q0 -5 -0.5 -12.5t-1.5 -16.5l-2 -29h-387q18 -93 153 -93q103 0 201 53h1v-155q-101 -52 -228 -52q-157 0 -242 76q-86 75 -86 208q0 136 86 222t223 86t212 -81zM239 327h212q-5 45 -31 70q-28 28 -74 28q-87 0 -107 -98zM141 653v133h414v-133
h-414z" />
    <glyph glyph-name="Ebreve" unicode="&#x114;" horiz-adv-x="767" 
d="M85 0v700h612l8 -170h-411v-96h323v-155h-323v-109h423l-8 -170h-624zM240 802q-58 40 -58 117q0 23 8 63h138l-1 -8l-1 -8q-1 -4 -1 -7.5v-5.5q0 -57 72 -57q71 0 71 57q0 2 -0.5 9.5t-1.5 19.5h138q8 -40 8 -63q0 -77 -58 -117q-57 -39 -157 -39t-157 39z" />
    <glyph glyph-name="ebreve" unicode="&#x115;" horiz-adv-x="665" 
d="M558 492q71 -77 71 -206q0 -5 -0.5 -12.5t-1.5 -16.5l-2 -29h-387q18 -93 153 -93q103 0 201 53h1v-155q-101 -52 -228 -52q-157 0 -242 76q-86 75 -86 208q0 136 86 222t223 86t212 -81zM239 327h212q-5 45 -31 70q-28 28 -74 28q-87 0 -107 -98zM191 663
q-58 40 -58 117q0 23 8 63h138l-1 -8l-1 -8q-1 -4 -1 -7.5v-5.5q0 -57 72 -57q71 0 71 57q0 2 -0.5 9.5t-1.5 19.5h138q8 -40 8 -63q0 -77 -58 -117q-57 -39 -157 -39t-157 39z" />
    <glyph glyph-name="Edotaccent" unicode="&#x116;" horiz-adv-x="767" 
d="M85 0v700h612l8 -170h-411v-96h323v-155h-323v-109h423l-8 -170h-624zM307 791q-30 26 -30 70v1q0 45 31 70q31 28 90 28t90 -28q30 -25 30 -70v-1q0 -44 -30 -70q-32 -28 -91 -28t-90 28z" />
    <glyph glyph-name="edotaccent" unicode="&#x117;" horiz-adv-x="665" 
d="M558 492q71 -77 71 -206q0 -5 -0.5 -12.5t-1.5 -16.5l-2 -29h-387q18 -93 153 -93q103 0 201 53h1v-155q-101 -52 -228 -52q-157 0 -242 76q-86 75 -86 208q0 136 86 222t223 86t212 -81zM239 327h212q-5 45 -31 70q-28 28 -74 28q-87 0 -107 -98zM257 652q-30 26 -30 70
v1q0 45 31 70q31 28 90 28t90 -28q30 -25 30 -70v-1q0 -44 -30 -70q-32 -28 -91 -28t-90 28z" />
    <glyph glyph-name="Eogonek" unicode="&#x118;" horiz-adv-x="767" 
d="M85 0v700h612l8 -170h-411v-96h323v-155h-323v-109h423l-8 -170h-624zM641 50l68 -50l-53 -49q-67 -63 -67 -87q0 -35 59 -35q18 0 36 3q26 5 45 13v-134q-61 -19 -122 -19q-109 0 -155 43q-35 30 -35 79q0 90 150 186z" />
    <glyph glyph-name="eogonek" unicode="&#x119;" horiz-adv-x="665" 
d="M123 57q-86 75 -86 208q0 136 86 222t223 86t212 -81q71 -77 71 -206q0 -5 -0.5 -12.5t-1.5 -16.5l-2 -29h-387q18 -93 153 -93q103 0 201 53h1v-155l-63 -70q-39 -45 -54 -68q-12 -20 -12 -38q0 -36 59 -36q19 0 36 4q26 5 45 13v-134q-68 -20 -122 -20q-106 0 -155 44
q-36 31 -36 79q0 47 36 89q32 37 111 90q-20 -2 -38 -3.5t-35 -1.5q-157 0 -242 76zM239 327h212q-5 45 -31 70q-28 28 -74 28q-87 0 -107 -98z" />
    <glyph glyph-name="Ecaron" unicode="&#x11a;" horiz-adv-x="767" 
d="M85 0v700h612l8 -170h-411v-96h323v-155h-323v-109h423l-8 -170h-624zM644 966l-131 -195h-232l-131 195h174l55 -78h37l55 78h173z" />
    <glyph glyph-name="ecaron" unicode="&#x11b;" horiz-adv-x="665" 
d="M558 492q71 -77 71 -206q0 -5 -0.5 -12.5t-1.5 -16.5l-2 -29h-387q18 -93 153 -93q103 0 201 53h1v-155q-101 -52 -228 -52q-157 0 -242 76q-86 75 -86 208q0 136 86 222t223 86t212 -81zM239 327h212q-5 45 -31 70q-28 28 -74 28q-87 0 -107 -98zM595 827l-131 -195
h-232l-131 195h174l55 -78h37l55 78h173z" />
    <glyph glyph-name="Gbreve" unicode="&#x11e;" horiz-adv-x="862" 
d="M150 80q-105 98 -105 260q0 164 111 269q117 111 316 111q159 0 268 -67v-187h-1q-145 77 -258 77q-107 0 -165 -55q-57 -54 -57 -150q0 -88 52 -137q53 -52 153 -52q66 0 115 30q49 29 53 86h-213v148h404l1 -18l1 -19q1 -12 1.5 -22.5t0.5 -20.5q0 -176 -111 -269
q-100 -84 -271 -84q-188 0 -295 100zM298 822q-58 40 -58 117q0 23 8 63h138l-1 -8l-1 -8q-1 -4 -1 -7.5v-5.5q0 -57 72 -57q71 0 71 57q0 2 -0.5 9.5t-1.5 19.5h138q8 -40 8 -63q0 -77 -58 -117q-57 -39 -157 -39t-157 39z" />
    <glyph glyph-name="gbreve" unicode="&#x11f;" horiz-adv-x="637" 
d="M282 169l-7 -46q199 -18 283 -60q81 -40 81 -117q0 -70 -67 -118q-85 -60 -256 -60q-148 0 -230 41q-76 37 -76 103q0 71 104 118l35 169q-107 50 -107 161q0 96 76 153q75 57 199 57q38 0 75 -8l48 92h203v-14l-128 -130q80 -53 80 -144q0 -94 -76 -146t-200 -52h-22
t-15 1zM408 368q0 37 -24 59q-25 20 -64 20q-41 0 -65 -21q-25 -21 -25 -59q0 -79 90 -79q88 0 88 80zM429 -101q33 12 33 31t-63 36q-31 8 -84.5 14.5t-131.5 10.5q-20 -20 -20 -36q0 -69 174 -69q59 0 92 13zM157 700q-58 40 -58 117q0 23 8 63h138l-1 -8l-1 -8
q-1 -4 -1 -7.5v-5.5q0 -57 72 -57q71 0 71 57q0 2 -0.5 9.5t-1.5 19.5h138q8 -40 8 -63q0 -77 -58 -117q-57 -39 -157 -39t-157 39z" />
    <glyph glyph-name="Gdotaccent" unicode="&#x120;" horiz-adv-x="862" 
d="M150 80q-105 98 -105 260q0 164 111 269q117 111 316 111q159 0 268 -67v-187h-1q-145 77 -258 77q-107 0 -165 -55q-57 -54 -57 -150q0 -88 52 -137q53 -52 153 -52q66 0 115 30q49 29 53 86h-213v148h404l1 -18l1 -19q1 -12 1.5 -22.5t0.5 -20.5q0 -176 -111 -269
q-100 -84 -271 -84q-188 0 -295 100zM364 811q-30 26 -30 70v1q0 45 31 70q31 28 90 28t90 -28q30 -25 30 -70v-1q0 -44 -30 -70q-32 -28 -91 -28t-90 28z" />
    <glyph glyph-name="gdotaccent" unicode="&#x121;" horiz-adv-x="637" 
d="M282 169l-7 -46q199 -18 283 -60q81 -40 81 -117q0 -70 -67 -118q-85 -60 -256 -60q-148 0 -230 41q-76 37 -76 103q0 71 104 118l35 169q-107 50 -107 161q0 96 76 153q75 57 199 57q38 0 75 -8l48 92h203v-14l-128 -130q80 -53 80 -144q0 -94 -76 -146t-200 -52h-22
t-15 1zM408 368q0 37 -24 59q-25 20 -64 20q-41 0 -65 -21q-25 -21 -25 -59q0 -79 90 -79q88 0 88 80zM429 -101q33 12 33 31t-63 36q-31 8 -84.5 14.5t-131.5 10.5q-20 -20 -20 -36q0 -69 174 -69q59 0 92 13zM223 689q-30 26 -30 70v1q0 45 31 70q31 28 90 28t90 -28
q30 -25 30 -70v-1q0 -44 -30 -70q-32 -28 -91 -28t-90 28z" />
    <glyph glyph-name="uni0122" unicode="&#x122;" horiz-adv-x="862" 
d="M150 80q-105 98 -105 260q0 164 111 269q117 111 316 111q159 0 268 -67v-187h-1q-145 77 -258 77q-107 0 -165 -55q-57 -54 -57 -150q0 -88 52 -137q53 -52 153 -52q66 0 115 30q49 29 53 86h-213v148h404l1 -18l1 -19q1 -12 1.5 -22.5t0.5 -20.5q0 -176 -111 -269
q-100 -84 -271 -84q-188 0 -295 100zM295 -314l55 218h206v-20l-142 -198h-119z" />
    <glyph glyph-name="uni0123" unicode="&#x123;" horiz-adv-x="637" 
d="M282 169l-7 -46q199 -18 283 -60q81 -40 81 -117q0 -70 -67 -118q-85 -60 -256 -60q-148 0 -230 41q-76 37 -76 103q0 71 104 118l35 169q-107 50 -107 161q0 96 76 153q75 57 199 57q38 0 75 -8l48 92h203v-14l-128 -130q80 -53 80 -144q0 -94 -76 -146t-200 -52h-22
t-15 1zM408 368q0 37 -24 59q-25 20 -64 20q-41 0 -65 -21q-25 -21 -25 -59q0 -79 90 -79q88 0 88 80zM429 -101q33 12 33 31t-63 36q-31 8 -84.5 14.5t-131.5 10.5q-20 -20 -20 -36q0 -69 174 -69q59 0 92 13zM476 886l-55 -218h-206v20l142 198h119z" />
    <glyph glyph-name="Hbar" unicode="&#x126;" horiz-adv-x="983" 
d="M132 0v476h-99l8 147h91v77h210v-85h300v85h209v-77h91l8 -147h-99v-476h-209v226h-300v-226h-210zM342 404h300v80h-300v-80z" />
    <glyph glyph-name="hbar" unicode="&#x127;" horiz-adv-x="726" 
d="M79 0v581h-91l8 114h83v81h204v-81h166v-114h-166v-139q84 97 194 97q88 0 137 -52q50 -53 50 -148v-339h-205v285q0 81 -72 81q-54 0 -103 -43v-323h-205z" />
    <glyph glyph-name="Imacron" unicode="&#x12a;" horiz-adv-x="382" 
d="M86 0v700h211v-700h-211zM-16 792v133h414v-133h-414z" />
    <glyph glyph-name="imacron" unicode="&#x12b;" horiz-adv-x="341" 
d="M68 0v553h205v-553h-205zM-36 645v133h414v-133h-414z" />
    <glyph glyph-name="Ibreve" unicode="&#x12c;" horiz-adv-x="382" 
d="M86 0v700h211v-700h-211zM34 802q-58 40 -58 117q0 23 8 63h138l-1 -8l-1 -8q-1 -4 -1 -7.5v-5.5q0 -57 72 -57q71 0 71 57q0 2 -0.5 9.5t-1.5 19.5h138q8 -40 8 -63q0 -77 -58 -117q-57 -39 -157 -39t-157 39z" />
    <glyph glyph-name="ibreve" unicode="&#x12d;" horiz-adv-x="341" 
d="M68 0v553h205v-553h-205zM14 655q-58 40 -58 117q0 23 8 63h138l-1 -8l-1 -8q-1 -4 -1 -7.5v-5.5q0 -57 72 -57q71 0 71 57q0 2 -0.5 9.5t-1.5 19.5h138q8 -40 8 -63q0 -77 -58 -117q-57 -39 -157 -39t-157 39z" />
    <glyph glyph-name="Iogonek" unicode="&#x12e;" horiz-adv-x="382" 
d="M86 0v700h211v-700h-211zM229 50l68 -50l-53 -49q-67 -63 -67 -87q0 -35 59 -35q18 0 36 3q26 5 45 13v-134q-61 -19 -122 -19q-109 0 -155 43q-35 30 -35 79q0 90 150 186z" />
    <glyph glyph-name="iogonek" unicode="&#x12f;" horiz-adv-x="341" 
d="M81 644q-31 25 -31 70v1q0 45 31 70q31 28 90 28t90 -28q30 -25 30 -70v-1q0 -44 -30 -70q-31 -28 -90 -28t-90 28zM68 0v553h205v-553h-205zM205 50l68 -50l-53 -49q-67 -63 -67 -87q0 -35 59 -35q18 0 36 3q26 5 45 13v-134q-61 -19 -122 -19q-109 0 -155 43
q-35 30 -35 79q0 90 150 186z" />
    <glyph glyph-name="Idotaccent" unicode="&#x130;" horiz-adv-x="382" 
d="M86 0v700h211v-700h-211zM101 791q-30 26 -30 70v1q0 45 31 70q31 28 90 28t90 -28q30 -25 30 -70v-1q0 -44 -30 -70q-32 -28 -91 -28t-90 28z" />
    <glyph glyph-name="dotlessi" unicode="&#x131;" horiz-adv-x="341" 
d="M68 0v553h205v-553h-205z" />
    <glyph glyph-name="uni0136" unicode="&#x136;" horiz-adv-x="844" 
d="M85 0v700h210v-258h86l205 258h236l1 -1l-268 -335l283 -363l-1 -1h-245l-212 269h-85v-269h-210zM267 -270l55 218h206v-20l-142 -198h-119z" />
    <glyph glyph-name="uni0137" unicode="&#x137;" horiz-adv-x="693" 
d="M67 0v776h205v-420h56l124 197h227v-1l-174 -261l189 -290v-1h-233l-130 209h-59v-209h-205zM199 -272l55 218h206v-20l-142 -198h-119z" />
    <glyph glyph-name="Lacute" unicode="&#x139;" horiz-adv-x="700" 
d="M85 0v700h210v-519h371l-8 -181h-573zM105 771l124 178h226v-14l-176 -164h-174z" />
    <glyph glyph-name="lacute" unicode="&#x13a;" horiz-adv-x="341" 
d="M68 0v776h205v-776h-205zM87 847l124 178h226v-14l-176 -164h-174z" />
    <glyph glyph-name="uni013B" unicode="&#x13b;" horiz-adv-x="700" 
d="M85 0v700h210v-519h371l-8 -181h-573zM220 -294l55 218h206v-20l-142 -198h-119z" />
    <glyph glyph-name="uni013C" unicode="&#x13c;" horiz-adv-x="341" 
d="M68 0v776h205v-776h-205zM8 -294l55 218h206v-20l-142 -198h-119z" />
    <glyph glyph-name="Lcaron" unicode="&#x13d;" horiz-adv-x="700" 
d="M85 0v700h210v-519h371l-8 -181h-573zM367 519v182h184v-24l-78 -158h-106z" />
    <glyph glyph-name="lcaron" unicode="&#x13e;" horiz-adv-x="341" 
d="M68 0v776h205v-776h-205zM345 594v182h184v-24l-78 -158h-106z" />
    <glyph glyph-name="Ldot" unicode="&#x13f;" horiz-adv-x="700" 
d="M85 0v700h210v-519h371l-8 -181h-573zM463 365q-29 29 -29 71t29 71q28 28 77 28t77 -28q29 -29 29 -71t-29 -71q-28 -28 -77 -28t-77 28z" />
    <glyph glyph-name="ldot" unicode="&#x140;" horiz-adv-x="541" 
d="M68 0v776h205v-776h-205zM364 321q-29 29 -29 71t29 71q28 28 77 28t77 -28q29 -29 29 -71t-29 -71q-28 -28 -77 -28t-77 28z" />
    <glyph glyph-name="Lslash" unicode="&#x141;" horiz-adv-x="742" 
d="M126 0v214l-93 -43v165l93 42v322h211v-224l210 97v-165l-210 -97v-130h370l-8 -181h-573z" />
    <glyph glyph-name="lslash" unicode="&#x142;" horiz-adv-x="441" 
d="M118 0v258l-102 -57v155l102 57v363h205v-248l102 57v-155l-102 -57v-373h-205z" />
    <glyph glyph-name="Nacute" unicode="&#x143;" horiz-adv-x="892" 
d="M85 0v700h218l301 -397h3v397h200v-700h-211l-308 407h-3v-407h-200zM368 746l124 178h226v-14l-176 -164h-174z" />
    <glyph glyph-name="nacute" unicode="&#x144;" horiz-adv-x="714" 
d="M67 0v553h202l1 -80q84 99 195 99q88 0 137 -52q50 -53 50 -148v-372h-205v318q0 81 -71 81q-55 0 -104 -43v-356h-205zM267 632l124 178h226v-14l-176 -164h-174z" />
    <glyph glyph-name="uni0145" unicode="&#x145;" horiz-adv-x="892" 
d="M85 0v700h218l301 -397h3v397h200v-700h-211l-308 407h-3v-407h-200zM280 -269l55 218h206v-20l-142 -198h-119z" />
    <glyph glyph-name="uni0146" unicode="&#x146;" horiz-adv-x="714" 
d="M67 0v553h202l1 -80q84 99 195 99q88 0 137 -52q50 -53 50 -148v-372h-205v318q0 81 -71 81q-55 0 -104 -43v-356h-205zM212 -277l55 218h206v-20l-142 -198h-119z" />
    <glyph glyph-name="Ncaron" unicode="&#x147;" horiz-adv-x="892" 
d="M85 0v700h218l301 -397h3v397h200v-700h-211l-308 407h-3v-407h-200zM713 941l-131 -195h-232l-131 195h174l55 -78h37l55 78h173z" />
    <glyph glyph-name="ncaron" unicode="&#x148;" horiz-adv-x="714" 
d="M67 0v553h202l1 -80q84 99 195 99q88 0 137 -52q50 -53 50 -148v-372h-205v318q0 81 -71 81q-55 0 -104 -43v-356h-205zM612 827l-131 -195h-232l-131 195h174l55 -78h37l55 78h173z" />
    <glyph glyph-name="Omacron" unicode="&#x14c;" horiz-adv-x="892" 
d="M154 79q-108 101 -108 271q0 171 108 271q107 100 292 100t292 -100q108 -100 108 -271q0 -170 -108 -271q-107 -100 -292 -100t-292 100zM586 209q51 51 51 141q0 89 -50 142q-51 51 -141 51t-140 -51q-51 -52 -51 -142q0 -89 50 -141q49 -52 140 -52q90 0 141 52z
M239 814v133h414v-133h-414z" />
    <glyph glyph-name="omacron" unicode="&#x14d;" horiz-adv-x="707" 
d="M122 63q-85 81 -85 213t85 214q86 83 231 83t233 -83q84 -81 84 -214q0 -132 -84 -213q-88 -83 -233 -83t-231 83zM439 176q32 38 32 100q0 63 -32 101q-31 37 -86 37q-54 0 -85 -37q-32 -38 -32 -101q0 -62 32 -100t85 -38q54 0 86 38zM146 653v133h414v-133h-414z" />
    <glyph glyph-name="Obreve" unicode="&#x14e;" horiz-adv-x="892" 
d="M154 79q-108 101 -108 271q0 171 108 271q107 100 292 100t292 -100q108 -100 108 -271q0 -170 -108 -271q-107 -100 -292 -100t-292 100zM586 209q51 51 51 141q0 89 -50 142q-51 51 -141 51t-140 -51q-51 -52 -51 -142q0 -89 50 -141q49 -52 140 -52q90 0 141 52z
M289 824q-58 40 -58 117q0 23 8 63h138l-1 -8l-1 -8q-1 -4 -1 -7.5v-5.5q0 -57 72 -57q71 0 71 57q0 2 -0.5 9.5t-1.5 19.5h138q8 -40 8 -63q0 -77 -58 -117q-57 -39 -157 -39t-157 39z" />
    <glyph glyph-name="obreve" unicode="&#x14f;" horiz-adv-x="707" 
d="M122 63q-85 81 -85 213t85 214q86 83 231 83t233 -83q84 -81 84 -214q0 -132 -84 -213q-88 -83 -233 -83t-231 83zM439 176q32 38 32 100q0 63 -32 101q-31 37 -86 37q-54 0 -85 -37q-32 -38 -32 -101q0 -62 32 -100t85 -38q54 0 86 38zM196 663q-58 40 -58 117
q0 23 8 63h138l-1 -8l-1 -8q-1 -4 -1 -7.5v-5.5q0 -57 72 -57q71 0 71 57q0 2 -0.5 9.5t-1.5 19.5h138q8 -40 8 -63q0 -77 -58 -117q-57 -39 -157 -39t-157 39z" />
    <glyph glyph-name="Ohungarumlaut" unicode="&#x150;" horiz-adv-x="892" 
d="M154 79q-108 101 -108 271q0 171 108 271q107 100 292 100t292 -100q108 -100 108 -271q0 -170 -108 -271q-107 -100 -292 -100t-292 100zM586 209q51 51 51 141q0 89 -50 142q-51 51 -141 51t-140 -51q-51 -52 -51 -142q0 -89 50 -141q49 -52 140 -52q90 0 141 52z
M507 793l107 178h197v-14l-165 -164h-139zM261 793l107 178h196v-14l-165 -164h-138z" />
    <glyph glyph-name="ohungarumlaut" unicode="&#x151;" horiz-adv-x="707" 
d="M122 63q-85 81 -85 213t85 214q86 83 231 83t233 -83q84 -81 84 -214q0 -132 -84 -213q-88 -83 -233 -83t-231 83zM439 176q32 38 32 100q0 63 -32 101q-31 37 -86 37q-54 0 -85 -37q-32 -38 -32 -101q0 -62 32 -100t85 -38q54 0 86 38zM414 632l107 178h197v-14
l-165 -164h-139zM168 632l107 178h196v-14l-165 -164h-138z" />
    <glyph glyph-name="OE" unicode="&#x152;" horiz-adv-x="1247" 
d="M140 608q95 92 257 92h780l8 -170h-411v-96h323v-155h-323v-109h423l-8 -170h-792q-163 0 -257 91t-94 259q0 167 94 258zM564 527h-144q-162 0 -162 -177q0 -176 162 -176h144v353z" />
    <glyph glyph-name="oe" unicode="&#x153;" horiz-adv-x="1099" 
d="M568 73q-76 -93 -222 -93q-140 0 -226 83q-83 83 -83 213q0 131 83 214q86 83 226 83q151 0 227 -100q76 100 215 100q132 0 205 -81q70 -76 70 -206q0 -5 -0.5 -12.5t-1.5 -16.5l-2 -29h-387q18 -93 153 -93q103 0 201 53h1v-155q-101 -52 -223 -52q-161 0 -236 92z
M673 327h212q-5 45 -31 70q-28 28 -74 28q-89 0 -107 -98zM440 176q31 35 31 100q0 64 -31 101t-87 37q-54 0 -85 -37q-32 -38 -32 -101q0 -62 32 -100t85 -38q55 0 87 38z" />
    <glyph glyph-name="Racute" unicode="&#x154;" horiz-adv-x="822" 
d="M85 0v700h408q277 0 277 -251q0 -169 -136 -224l166 -225h-238l-129 184h-138v-184h-210zM295 348h171q95 0 95 92q0 91 -95 91h-171v-183zM312 771l124 178h226v-14l-176 -164h-174z" />
    <glyph glyph-name="racute" unicode="&#x155;" horiz-adv-x="470" 
d="M67 0v553h204v-101q71 114 157 114h10q8 0 12 -1v-206q-5 1 -11 1.5t-12 1.5h-20q-98 0 -135 -55v-307h-205zM157 630l124 178h226v-14l-176 -164h-174z" />
    <glyph glyph-name="uni0156" unicode="&#x156;" horiz-adv-x="822" 
d="M85 0v700h408q277 0 277 -251q0 -169 -136 -224l166 -225h-238l-129 184h-138v-184h-210zM295 348h171q95 0 95 92q0 91 -95 91h-171v-183zM273 -270l55 218h206v-20l-142 -198h-119z" />
    <glyph glyph-name="uni0157" unicode="&#x157;" horiz-adv-x="470" 
d="M67 0v553h204v-101q71 114 157 114h10q8 0 12 -1v-206q-5 1 -11 1.5t-12 1.5h-20q-98 0 -135 -55v-307h-205zM5 -294l55 218h206v-20l-142 -198h-119z" />
    <glyph glyph-name="Rcaron" unicode="&#x158;" horiz-adv-x="822" 
d="M85 0v700h408q277 0 277 -251q0 -169 -136 -224l166 -225h-238l-129 184h-138v-184h-210zM295 348h171q95 0 95 92q0 91 -95 91h-171v-183zM657 966l-131 -195h-232l-131 195h174l55 -78h37l55 78h173z" />
    <glyph glyph-name="rcaron" unicode="&#x159;" horiz-adv-x="470" 
d="M67 0v553h204v-101q71 114 157 114h10q8 0 12 -1v-206q-5 1 -11 1.5t-12 1.5h-20q-98 0 -135 -55v-307h-205zM502 825l-131 -195h-232l-131 195h174l55 -78h37l55 78h173z" />
    <glyph glyph-name="Sacute" unicode="&#x15a;" horiz-adv-x="758" 
d="M69 46v192h1q172 -88 330 -88q113 0 113 53q0 26 -32 38q-30 12 -143 30q-122 19 -197 65q-76 46 -76 151q0 102 86 165q91 67 254 67q138 0 271 -56v-190l-1 -1q-135 78 -285 78q-112 0 -112 -51q0 -31 40 -40q14 -4 47 -10t85 -16q137 -22 198 -66q75 -52 75 -156
q0 -96 -74 -158q-88 -72 -259 -72q-156 0 -321 65zM298 790l124 178h226v-14l-176 -164h-174z" />
    <glyph glyph-name="sacute" unicode="&#x15b;" horiz-adv-x="597" 
d="M58 38v163h1q127 -77 253 -77q68 0 68 35q0 16 -17 24q-11 5 -34 11.5t-60 14.5q-108 23 -163 58q-52 34 -52 116q0 90 72 139q68 49 186 49q133 0 215 -49v-157h-1q-106 63 -217 63q-65 0 -65 -32q0 -16 20 -24q11 -5 36 -12.5t65 -15.5q113 -24 156 -63q44 -41 44 -112
q0 -90 -67 -139t-193 -49q-134 0 -247 57zM201 632l124 178h226v-14l-176 -164h-174z" />
    <glyph glyph-name="Scedilla" unicode="&#x15e;" horiz-adv-x="758" 
d="M667 70q-64 -67 -194 -84l-80 -180h-232v18l146 161q-120 14 -238 61v192h1q172 -88 330 -88q113 0 113 53q0 26 -32 38q-30 12 -143 30q-122 19 -197 65q-76 46 -76 151q0 102 86 165q91 67 254 67q138 0 271 -56v-190l-1 -1q-135 78 -285 78q-112 0 -112 -51
q0 -31 40 -40q14 -4 47 -10t85 -16q137 -22 198 -66q75 -52 75 -156q0 -83 -56 -141z" />
    <glyph glyph-name="scedilla" unicode="&#x15f;" horiz-adv-x="597" 
d="M402 -10l-82 -185h-232v18l147 162q-49 7 -93 20t-84 33v163h1q127 -77 253 -77q68 0 68 35q0 16 -17 24q-11 5 -34 11.5t-60 14.5q-108 23 -163 58q-52 34 -52 116q0 90 72 139q68 49 186 49q133 0 215 -49v-157h-1q-106 63 -217 63q-65 0 -65 -32q0 -16 20 -24
q11 -5 36 -12.5t65 -15.5q113 -24 156 -63q44 -41 44 -112q0 -145 -163 -179z" />
    <glyph glyph-name="Scaron" unicode="&#x160;" horiz-adv-x="758" 
d="M69 46v192h1q172 -88 330 -88q113 0 113 53q0 26 -32 38q-30 12 -143 30q-122 19 -197 65q-76 46 -76 151q0 102 86 165q91 67 254 67q138 0 271 -56v-190l-1 -1q-135 78 -285 78q-112 0 -112 -51q0 -31 40 -40q14 -4 47 -10t85 -16q137 -22 198 -66q75 -52 75 -156
q0 -96 -74 -158q-88 -72 -259 -72q-156 0 -321 65zM643 985l-131 -195h-232l-131 195h174l55 -78h37l55 78h173z" />
    <glyph glyph-name="scaron" unicode="&#x161;" horiz-adv-x="597" 
d="M58 38v163h1q127 -77 253 -77q68 0 68 35q0 16 -17 24q-11 5 -34 11.5t-60 14.5q-108 23 -163 58q-52 34 -52 116q0 90 72 139q68 49 186 49q133 0 215 -49v-157h-1q-106 63 -217 63q-65 0 -65 -32q0 -16 20 -24q11 -5 36 -12.5t65 -15.5q113 -24 156 -63q44 -41 44 -112
q0 -90 -67 -139t-193 -49q-134 0 -247 57zM546 827l-131 -195h-232l-131 195h174l55 -78h37l55 78h173z" />
    <glyph glyph-name="uni0162" unicode="&#x162;" horiz-adv-x="765" 
d="M277 0v520h-245l8 180h685l8 -180h-245v-520h-211zM220 -294l55 218h206v-20l-142 -198h-119z" />
    <glyph glyph-name="uni0162" unicode="&#x21a;" horiz-adv-x="765" 
d="M277 0v520h-245l8 180h685l8 -180h-245v-520h-211zM220 -294l55 218h206v-20l-142 -198h-119z" />
    <glyph glyph-name="uni0163" unicode="&#x163;" horiz-adv-x="483" 
d="M135 0v401h-118l27 152h91v126l202 24v-150h119v-152h-119v-401h-202zM73 -294l55 218h206v-20l-142 -198h-119z" />
    <glyph glyph-name="uni0163" unicode="&#x21b;" horiz-adv-x="483" 
d="M135 0v401h-118l27 152h91v126l202 24v-150h119v-152h-119v-401h-202zM73 -294l55 218h206v-20l-142 -198h-119z" />
    <glyph glyph-name="Tcaron" unicode="&#x164;" horiz-adv-x="765" 
d="M277 0v520h-245l8 180h685l8 -180h-245v-520h-211zM630 966l-131 -195h-232l-131 195h174l55 -78h37l55 78h173z" />
    <glyph glyph-name="tcaron" unicode="&#x165;" horiz-adv-x="483" 
d="M135 0v401h-118l27 152h91v126l202 24v-150h119v-152h-119v-401h-202zM408 636v182h184v-24l-78 -158h-106z" />
    <glyph glyph-name="Umacron" unicode="&#x16a;" horiz-adv-x="869" 
d="M79 275v425h210v-409q0 -73 44 -100t101 -27q59 0 103 26q43 25 43 98v412h210v-423q0 -299 -357 -299q-354 0 -354 297zM227 792v133h414v-133h-414z" />
    <glyph glyph-name="umacron" unicode="&#x16b;" horiz-adv-x="714" 
d="M647 553v-553h-202l-1 80q-84 -99 -195 -99q-87 0 -136 52q-50 53 -50 147v373h204v-319q0 -80 72 -80q54 0 103 43v356h205zM144 645v133h414v-133h-414z" />
    <glyph glyph-name="Ubreve" unicode="&#x16c;" horiz-adv-x="869" 
d="M79 275v425h210v-409q0 -73 44 -100t101 -27q59 0 103 26q43 25 43 98v412h210v-423q0 -299 -357 -299q-354 0 -354 297zM277 778q-58 40 -58 117q0 23 8 63h138l-1 -8l-1 -8q-1 -4 -1 -7.5v-5.5q0 -57 72 -57q71 0 71 57q0 2 -0.5 9.5t-1.5 19.5h138q8 -40 8 -63
q0 -77 -58 -117q-57 -39 -157 -39t-157 39z" />
    <glyph glyph-name="ubreve" unicode="&#x16d;" horiz-adv-x="714" 
d="M647 553v-553h-202l-1 80q-84 -99 -195 -99q-87 0 -136 52q-50 53 -50 147v373h204v-319q0 -80 72 -80q54 0 103 43v356h205zM194 638q-58 40 -58 117q0 23 8 63h138l-1 -8l-1 -8q-1 -4 -1 -7.5v-5.5q0 -57 72 -57q71 0 71 57q0 2 -0.5 9.5t-1.5 19.5h138q8 -40 8 -63
q0 -77 -58 -117q-57 -39 -157 -39t-157 39z" />
    <glyph glyph-name="Uring" unicode="&#x16e;" horiz-adv-x="869" 
d="M79 275v425h210v-409q0 -73 44 -100t101 -27q59 0 103 26q43 25 43 98v412h210v-423q0 -299 -357 -299q-354 0 -354 297zM295 780q-51 42 -51 118q0 77 52 120q50 42 138 42q87 0 139 -41q52 -43 52 -120q0 -75 -53 -119q-52 -41 -140 -41q-87 0 -137 41zM503 899
q0 60 -70 60t-70 -60q0 -58 71 -58q69 0 69 58z" />
    <glyph glyph-name="uring" unicode="&#x16f;" horiz-adv-x="714" 
d="M647 553v-553h-202l-1 80q-84 -99 -195 -99q-87 0 -136 52q-50 53 -50 147v373h204v-319q0 -80 72 -80q54 0 103 43v356h205zM212 640q-51 42 -51 118q0 77 52 120q50 42 138 42q87 0 139 -41q52 -43 52 -120q0 -75 -53 -119q-52 -41 -140 -41q-87 0 -137 41zM420 759
q0 60 -70 60t-70 -60q0 -58 71 -58q69 0 69 58z" />
    <glyph glyph-name="Uhungarumlaut" unicode="&#x170;" horiz-adv-x="869" 
d="M79 275v425h210v-409q0 -73 44 -100t101 -27q59 0 103 26q43 25 43 98v412h210v-423q0 -299 -357 -299q-354 0 -354 297zM474 771l107 178h197v-14l-165 -164h-139zM228 771l107 178h196v-14l-165 -164h-138z" />
    <glyph glyph-name="uhungarumlaut" unicode="&#x171;" horiz-adv-x="714" 
d="M647 553v-553h-202l-1 80q-84 -99 -195 -99q-87 0 -136 52q-50 53 -50 147v373h204v-319q0 -80 72 -80q54 0 103 43v356h205zM412 624l107 178h197v-14l-165 -164h-139zM166 624l107 178h196v-14l-165 -164h-138z" />
    <glyph glyph-name="Uogonek" unicode="&#x172;" horiz-adv-x="869" 
d="M592 -291q-61 -19 -122 -19q-109 0 -155 43q-35 30 -35 79q0 82 121 167q-322 13 -322 296v425h210v-409q0 -73 44 -100t101 -27q59 0 103 26q43 25 43 98v412h210v-423q0 -239 -226 -287l-45 -41q-67 -63 -67 -87q0 -35 59 -35q18 0 36 3q26 5 45 13v-134z" />
    <glyph glyph-name="uogonek" unicode="&#x173;" horiz-adv-x="714" 
d="M647 553v-553h-202l-1 80q-84 -99 -195 -99q-87 0 -136 52q-50 53 -50 147v373h204v-319q0 -80 72 -80q54 0 103 43v356h205zM579 50l68 -50l-53 -49q-67 -63 -67 -87q0 -35 59 -35q18 0 36 3q26 5 45 13v-134q-61 -19 -122 -19q-109 0 -155 43q-35 30 -35 79
q0 90 150 186z" />
    <glyph glyph-name="Wcircumflex" unicode="&#x174;" horiz-adv-x="1246" 
d="M216 0l-185 700h224l114 -486h11l148 486h205l145 -486h11l112 486h214l-184 -700h-275l-128 422h-6l-130 -422h-276zM376 771l131 195h232l131 -195h-174l-55 79h-37l-55 -79h-173z" />
    <glyph glyph-name="wcircumflex" unicode="&#x175;" horiz-adv-x="1028" 
d="M176 0l-158 553h211l82 -354h13l93 351h202l93 -351h14l83 354h201l-159 -553h-247l-82 314h-14l-85 -314h-247zM270 624l131 195h232l131 -195h-174l-55 79h-37l-55 -79h-173z" />
    <glyph glyph-name="Ycircumflex" unicode="&#x176;" horiz-adv-x="823" 
d="M306 0v224l-307 476h236l173 -279h10l175 279h230l-306 -475v-225h-211zM164 771l131 195h232l131 -195h-174l-55 79h-37l-55 -79h-173z" />
    <glyph glyph-name="ycircumflex" unicode="&#x177;" horiz-adv-x="664" 
d="M176 -208l66 183l-231 578h204l127 -346l117 346h200l-289 -761h-194zM92 624l131 195h232l131 -195h-174l-55 79h-37l-55 -79h-173z" />
    <glyph glyph-name="Ydieresis" unicode="&#x178;" horiz-adv-x="823" 
d="M306 0v224l-307 476h236l173 -279h10l175 279h230l-306 -475v-225h-211zM202 790q-27 26 -27 68t27 69q29 26 75 26t75 -26q27 -25 27 -69q0 -42 -27 -68q-28 -27 -75 -27q-46 0 -75 27zM471 790q-27 26 -27 68t27 69q29 26 75 26t75 -26q27 -25 27 -69q0 -42 -27 -68
q-28 -27 -75 -27q-46 0 -75 27z" />
    <glyph glyph-name="Zacute" unicode="&#x179;" horiz-adv-x="782" 
d="M62 0v177l379 350h-369l8 173h641v-163l-395 -363h397v-174h-661zM298 771l124 178h226v-14l-176 -164h-174z" />
    <glyph glyph-name="zacute" unicode="&#x17a;" horiz-adv-x="618" 
d="M53 0v144l270 252h-267l10 157h504v-141l-276 -255h276v-157h-517zM222 624l124 178h226v-14l-176 -164h-174z" />
    <glyph glyph-name="Zdotaccent" unicode="&#x17b;" horiz-adv-x="782" 
d="M62 0v177l379 350h-369l8 173h641v-163l-395 -363h397v-174h-661zM306 791q-30 26 -30 70v1q0 45 31 70q31 28 90 28t90 -28q30 -25 30 -70v-1q0 -44 -30 -70q-32 -28 -91 -28t-90 28z" />
    <glyph glyph-name="zdotaccent" unicode="&#x17c;" horiz-adv-x="618" 
d="M53 0v144l270 252h-267l10 157h504v-141l-276 -255h276v-157h-517zM229 644q-30 26 -30 70v1q0 45 31 70q31 28 90 28t90 -28q30 -25 30 -70v-1q0 -44 -30 -70q-32 -28 -91 -28t-90 28z" />
    <glyph glyph-name="Zcaron" unicode="&#x17d;" horiz-adv-x="782" 
d="M62 0v177l379 350h-369l8 173h641v-163l-395 -363h397v-174h-661zM643 966l-131 -195h-232l-131 195h174l55 -78h37l55 78h173z" />
    <glyph glyph-name="zcaron" unicode="&#x17e;" horiz-adv-x="618" 
d="M53 0v144l270 252h-267l10 157h504v-141l-276 -255h276v-157h-517zM567 819l-131 -195h-232l-131 195h174l55 -78h37l55 78h173z" />
    <glyph glyph-name="Aringacute" unicode="&#x1fa;" horiz-adv-x="864" 
d="M20 0l243 700h338l243 -700h-220l-49 145h-289l-50 -145h-216zM412 522l-75 -220h188l-75 220h-38zM293 804q-51 42 -51 118q0 77 52 120q50 42 138 42q87 0 139 -41q52 -43 52 -120q0 -75 -53 -119q-52 -41 -140 -41q-87 0 -137 41zM501 923q0 60 -70 60t-70 -60
q0 -58 71 -58q69 0 69 58zM340 1140l124 178h226v-14l-176 -164h-174z" />
    <glyph glyph-name="aringacute" unicode="&#x1fb;" horiz-adv-x="643" 
d="M81 25q-46 40 -46 110q0 63 42 105q78 78 312 93q-1 75 -90 75q-102 0 -212 -66h-1v171q115 58 247 58q252 0 252 -230v-341h-186l-3 61q-76 -78 -179 -78q-86 0 -136 42zM348 131q26 11 41 26v79q-121 -12 -152 -43q-13 -13 -13 -31q0 -44 62 -44q32 0 62 13zM193 665
q-51 42 -51 118q0 77 52 120q50 42 138 42q87 0 139 -41q52 -43 52 -120q0 -75 -53 -119q-52 -41 -140 -41q-87 0 -137 41zM401 784q0 60 -70 60t-70 -60q0 -58 71 -58q69 0 69 58zM240 1000l124 178h226v-14l-176 -164h-174z" />
    <glyph glyph-name="AEacute" unicode="&#x1fc;" horiz-adv-x="1273" 
d="M591 0v145h-272l-81 -145h-235l401 700h798l8 -170h-411v-96h324v-155h-324v-109h424l-8 -170h-624zM530 527l-125 -226h186v226h-61zM608 771l124 178h226v-14l-176 -164h-174z" />
    <glyph glyph-name="aeacute" unicode="&#x1fd;" horiz-adv-x="1017" 
d="M944 33q-101 -52 -228 -52q-174 0 -258 95q-99 -93 -239 -93q-89 0 -137 42q-47 41 -47 110q0 63 42 105q77 77 314 94q-2 74 -92 74q-102 0 -212 -66h-1v171q115 58 245 58q128 0 184 -71q73 73 191 73q132 0 205 -81q69 -76 69 -206q0 -5 -0.5 -12.5t-1.5 -16.5l-2 -29
h-387q18 -93 153 -93q103 0 201 53h1v-155zM590 327h212q-5 45 -31 70q-28 28 -74 28q-87 0 -107 -98zM286 118q37 0 74 14q27 10 50 28q-14 43 -16 76q-123 -12 -157 -43q-13 -13 -13 -31q0 -44 62 -44zM425 628l124 178h226v-14l-176 -164h-174z" />
    <glyph glyph-name="Oslashacute" unicode="&#x1fe;" horiz-adv-x="892" 
d="M19 -59l119 155q-92 98 -92 254q0 171 108 271q107 100 292 100q101 0 177 -30l54 68h196l-118 -155q91 -100 91 -254q0 -170 -108 -271q-107 -100 -292 -100q-99 0 -177 30l-53 -68h-197zM273 239l238 302q-34 8 -65 8q-92 0 -145 -53t-53 -146q0 -68 25 -111zM591 204
q53 53 53 146q0 67 -25 111l-238 -303q27 -7 64 -7q93 0 146 53zM349 783l124 178h226v-14l-176 -164h-174z" />
    <glyph glyph-name="oslashacute" unicode="&#x1ff;" horiz-adv-x="707" 
d="M211 5l-40 -54h-165l97 131q-66 78 -66 194q0 132 85 214q86 83 231 83q79 0 142 -25l41 54h165l-97 -132q66 -75 66 -194q0 -132 -84 -213q-88 -83 -233 -83q-79 0 -142 25zM237 210l161 206q-17 7 -45 7q-58 0 -93 -39q-33 -39 -33 -108q0 -30 10 -66zM447 169
q33 39 33 107q0 31 -10 67l-162 -206q17 -7 45 -7q60 0 94 39zM255 644l124 178h226v-14l-176 -164h-174z" />
    <glyph glyph-name="uni0218" unicode="&#x218;" horiz-adv-x="758" 
d="M69 46v192h1q172 -88 330 -88q113 0 113 53q0 26 -32 38q-30 12 -143 30q-122 19 -197 65q-76 46 -76 151q0 102 86 165q91 67 254 67q138 0 271 -56v-190l-1 -1q-135 78 -285 78q-112 0 -112 -51q0 -31 40 -40q14 -4 47 -10t85 -16q137 -22 198 -66q75 -52 75 -156
q0 -96 -74 -158q-88 -72 -259 -72q-156 0 -321 65zM229 -313l55 218h206v-20l-142 -198h-119z" />
    <glyph glyph-name="uni0219" unicode="&#x219;" horiz-adv-x="597" 
d="M58 38v163h1q127 -77 253 -77q68 0 68 35q0 16 -17 24q-11 5 -34 11.5t-60 14.5q-108 23 -163 58q-52 34 -52 116q0 90 72 139q68 49 186 49q133 0 215 -49v-157h-1q-106 63 -217 63q-65 0 -65 -32q0 -16 20 -24q11 -5 36 -12.5t65 -15.5q113 -24 156 -63q44 -41 44 -112
q0 -90 -67 -139t-193 -49q-134 0 -247 57zM146 -313l55 218h206v-20l-142 -198h-119z" />
    <glyph glyph-name="uni0259" unicode="&#x259;" horiz-adv-x="665" 
d="M107 62q-71 77 -71 206q0 5 0.5 12.5t1.5 16.5l2 29h387q-18 93 -153 93q-103 0 -201 -53h-1v155q101 52 228 52q157 0 242 -76q86 -75 86 -208q0 -136 -85 -221q-87 -87 -224 -87t-212 81zM426 227h-212q5 -46 32 -70q28 -28 73 -28q87 0 107 98z" />
    <glyph glyph-name="uni02BB" unicode="&#x2bb;" horiz-adv-x="383" 
d="M63 366v42l153 292h111l-46 -334h-218z" />
    <glyph glyph-name="circumflex" unicode="&#x2c6;" horiz-adv-x="500" 
d="M3 624l131 195h232l131 -195h-174l-55 79h-37l-55 -79h-173z" />
    <glyph glyph-name="caron" unicode="&#x2c7;" horiz-adv-x="500" 
d="M497 819l-131 -195h-232l-131 195h174l55 -78h37l55 78h173z" />
    <glyph glyph-name="breve" unicode="&#x2d8;" horiz-adv-x="500" 
d="M93 655q-58 40 -58 117q0 23 8 63h138l-1 -8l-1 -8q-1 -4 -1 -7.5v-5.5q0 -57 72 -57q71 0 71 57q0 2 -0.5 9.5t-1.5 19.5h138q8 -40 8 -63q0 -77 -58 -117q-57 -39 -157 -39t-157 39z" />
    <glyph glyph-name="dotaccent" unicode="&#x2d9;" horiz-adv-x="500" 
d="M158 644q-30 26 -30 70v1q0 45 31 70q31 28 90 28t90 -28q30 -25 30 -70v-1q0 -44 -30 -70q-32 -28 -91 -28t-90 28z" />
    <glyph glyph-name="ring" unicode="&#x2da;" horiz-adv-x="611" 
d="M167 657q-51 42 -51 118q0 77 52 120q50 42 138 42q87 0 139 -41q52 -43 52 -120q0 -75 -53 -119q-52 -41 -140 -41q-87 0 -137 41zM375 776q0 60 -70 60t-70 -60q0 -58 71 -58q69 0 69 58z" />
    <glyph glyph-name="ogonek" unicode="&#x2db;" horiz-adv-x="500" 
d="M334 50l68 -50l-53 -49q-67 -63 -67 -87q0 -35 59 -35q18 0 36 3q26 5 45 13v-134q-61 -19 -122 -19q-109 0 -155 43q-35 30 -35 79q0 90 150 186z" />
    <glyph glyph-name="tilde" unicode="&#x2dc;" horiz-adv-x="500" 
d="M454 669q-24 -24 -50 -38q-32 -17 -66 -17q-42 0 -116 34q-54 24 -76 24q-46 0 -106 -66h-1v153q55 55 117 55q42 0 116 -34q54 -24 76 -24q48 0 105 67h1v-154z" />
    <glyph glyph-name="hungarumlaut" unicode="&#x2dd;" horiz-adv-x="500" 
d="M238 624l107 178h197v-14l-165 -164h-139zM-8 624l107 178h196v-14l-165 -164h-138z" />
    <glyph glyph-name="uni0326" unicode="&#x326;" horiz-adv-x="500" 
d="M115 -294l55 218h206v-20l-142 -198h-119z" />
    <glyph glyph-name="Wgrave" unicode="&#x1e80;" horiz-adv-x="1246" 
d="M216 0l-185 700h224l114 -486h11l148 486h205l145 -486h11l112 486h214l-184 -700h-275l-128 422h-6l-130 -422h-276zM717 771h-175l-176 164v14h227z" />
    <glyph glyph-name="wgrave" unicode="&#x1e81;" horiz-adv-x="1028" 
d="M176 0l-158 553h211l82 -354h13l93 351h202l93 -351h14l83 354h201l-159 -553h-247l-82 314h-14l-85 -314h-247zM604 624h-175l-176 164v14h227z" />
    <glyph glyph-name="Wacute" unicode="&#x1e82;" horiz-adv-x="1246" 
d="M216 0l-185 700h224l114 -486h11l148 486h205l145 -486h11l112 486h214l-184 -700h-275l-128 422h-6l-130 -422h-276zM546 771l124 178h226v-14l-176 -164h-174z" />
    <glyph glyph-name="wacute" unicode="&#x1e83;" horiz-adv-x="1028" 
d="M176 0l-158 553h211l82 -354h13l93 351h202l93 -351h14l83 354h201l-159 -553h-247l-82 314h-14l-85 -314h-247zM433 624l124 178h226v-14l-176 -164h-174z" />
    <glyph glyph-name="Wdieresis" unicode="&#x1e84;" horiz-adv-x="1246" 
d="M216 0l-185 700h224l114 -486h11l148 486h205l145 -486h11l112 486h214l-184 -700h-275l-128 422h-6l-130 -422h-276zM414 790q-27 26 -27 68t27 69q29 26 75 26t75 -26q27 -25 27 -69q0 -42 -27 -68q-28 -27 -75 -27q-46 0 -75 27zM683 790q-27 26 -27 68t27 69
q29 26 75 26t75 -26q27 -25 27 -69q0 -42 -27 -68q-28 -27 -75 -27q-46 0 -75 27z" />
    <glyph glyph-name="wdieresis" unicode="&#x1e85;" horiz-adv-x="1028" 
d="M176 0l-158 553h211l82 -354h13l93 351h202l93 -351h14l83 354h201l-159 -553h-247l-82 314h-14l-85 -314h-247zM308 643q-27 26 -27 68t27 69q29 26 75 26t75 -26q27 -25 27 -69q0 -42 -27 -68q-28 -27 -75 -27q-46 0 -75 27zM577 643q-27 26 -27 68t27 69q29 26 75 26
t75 -26q27 -25 27 -69q0 -42 -27 -68q-28 -27 -75 -27q-46 0 -75 27z" />
    <glyph glyph-name="uni1E9E" unicode="&#x1e9e;" horiz-adv-x="875" 
d="M295 0h-210v700h709v-171l-162 -135l34 -11q95 -29 136 -77q40 -44 40 -117q0 -208 -276 -208q-100 0 -192 29v171h1q81 -36 173 -36q89 0 89 56q0 28 -32 45q-29 14 -119 38l-60 15v105l154 129h-285v-533z" />
    <glyph glyph-name="Ygrave" unicode="&#x1ef2;" horiz-adv-x="823" 
d="M306 0v224l-307 476h236l173 -279h10l175 279h230l-306 -475v-225h-211zM512 747h-175l-176 164v14h227z" />
    <glyph glyph-name="ygrave" unicode="&#x1ef3;" horiz-adv-x="664" 
d="M176 -208l66 183l-231 578h204l127 -346l117 346h200l-289 -761h-194zM440 608h-175l-176 164v14h227z" />
    <glyph glyph-name="uni2002" unicode="&#x2002;" horiz-adv-x="500" 
 />
    <glyph glyph-name="uni2003" unicode="&#x2003;" horiz-adv-x="1000" 
 />
    <glyph glyph-name="uni2004" unicode="&#x2004;" horiz-adv-x="333" 
 />
    <glyph glyph-name="uni2005" unicode="&#x2005;" horiz-adv-x="250" 
 />
    <glyph glyph-name="uni2007" unicode="&#x2007;" 
 />
    <glyph glyph-name="uni2008" unicode="&#x2008;" horiz-adv-x="413" 
 />
    <glyph glyph-name="uni2009" unicode="&#x2009;" horiz-adv-x="133" 
 />
    <glyph glyph-name="uni200A" unicode="&#x200a;" horiz-adv-x="75" 
 />
    <glyph glyph-name="uni200B" unicode="&#x200b;" horiz-adv-x="0" 
 />
    <glyph glyph-name="uni200C" unicode="&#x200c;" horiz-adv-x="0" 
 />
    <glyph glyph-name="uni200D" unicode="&#x200d;" horiz-adv-x="0" 
 />
    <glyph glyph-name="endash" unicode="&#x2013;" horiz-adv-x="692" 
d="M66 238v173h559v-173h-559z" />
    <glyph glyph-name="emdash" unicode="&#x2014;" horiz-adv-x="868" 
d="M66 238v173h736v-173h-736z" />
    <glyph glyph-name="quoteleft" unicode="&#x2018;" horiz-adv-x="395" 
d="M63 366v42l153 292h111l-46 -334h-218z" />
    <glyph glyph-name="quoteright" unicode="&#x2019;" horiz-adv-x="395" 
d="M68 366l46 334h218v-42l-154 -292h-110z" />
    <glyph glyph-name="quotesinglbase" unicode="&#x201a;" horiz-adv-x="386" 
d="M59 -145l46 334h218v-42l-154 -292h-110z" />
    <glyph glyph-name="quotedblleft" unicode="&#x201c;" horiz-adv-x="676" 
d="M63 366v42l151 292h108l-46 -334h-213zM349 366v42l151 292h108l-46 -334h-213z" />
    <glyph glyph-name="quotedblright" unicode="&#x201d;" horiz-adv-x="676" 
d="M68 366l46 334h213v-42l-151 -292h-108zM354 366l46 334h213v-42l-151 -292h-108z" />
    <glyph glyph-name="quotedblbase" unicode="&#x201e;" horiz-adv-x="667" 
d="M59 -145l46 334h213v-42l-151 -292h-108zM345 -145l46 334h213v-42l-151 -292h-108z" />
    <glyph glyph-name="dagger" unicode="&#x2020;" horiz-adv-x="527" 
d="M185 168v276h-138l8 135h130v121h159v-121h133v-135h-133v-276h-159z" />
    <glyph glyph-name="daggerdbl" unicode="&#x2021;" horiz-adv-x="529" 
d="M185 113v120h-133v126h133v95h-138l8 126h130v120h159v-120h133v-126h-133v-95h138l-9 -126h-129v-120h-159z" />
    <glyph glyph-name="bullet" unicode="&#x2022;" horiz-adv-x="454" 
d="M95 204q-45 47 -45 117v3q0 70 45 116q50 50 132 50q83 0 131 -50q45 -46 45 -116v-3q0 -70 -45 -117q-48 -50 -131 -50q-82 0 -132 50z" />
    <glyph glyph-name="ellipsis" unicode="&#x2026;" horiz-adv-x="1228" 
d="M116 21q-33 32 -33 80v1q0 50 33 81q34 32 90 32t91 -32q33 -31 33 -80v-1q0 -49 -33 -81q-35 -32 -91 -32t-90 32zM524 21q-33 32 -33 80v1q0 50 33 81q34 32 90 32t91 -32q33 -31 33 -80v-1q0 -49 -33 -81q-35 -32 -91 -32t-90 32zM931 21q-33 32 -33 80v1q0 50 33 81
q34 32 90 32t91 -32q33 -31 33 -80v-1q0 -49 -33 -81q-35 -32 -91 -32t-90 32z" />
    <glyph glyph-name="uni202F" unicode="&#x202f;" horiz-adv-x="133" 
 />
    <glyph glyph-name="guilsinglleft" unicode="&#x2039;" horiz-adv-x="478" 
d="M435 40h-227l-176 228v17l176 228h227l-181 -237z" />
    <glyph glyph-name="guilsinglright" unicode="&#x203a;" horiz-adv-x="478" 
d="M43 513h227l176 -228v-17l-176 -228h-227l181 237z" />
    <glyph glyph-name="fraction" unicode="&#x2044;" horiz-adv-x="273" 
d="M-193 1l517 699h142v-1l-517 -699h-142v1z" />
    <glyph glyph-name="uni2070" unicode="&#x2070;" horiz-adv-x="453" 
d="M24 566q0 108 52 166t152 58q202 0 202 -223q0 -108 -52 -166q-53 -59 -152 -59q-202 0 -202 224zM291 566q0 104 -64 104t-64 -104t64 -104t64 104z" />
    <glyph glyph-name="uni2074" unicode="&#x2074;" horiz-adv-x="453" 
d="M250 357v75h-227v104l100 239h261v-233h54l-7 -110h-47v-75h-134zM157 538h99v129h-48z" />
    <glyph glyph-name="uni2075" unicode="&#x2075;" horiz-adv-x="453" 
d="M59 366v119h1q85 -25 154 -25q39 0 53 10q11 8 11 21q0 12 -9 18q-20 14 -123 14h-81l6 252h319l5 -115h-202l-1 -44h6q143 0 187 -44q32 -32 32 -87q0 -67 -52 -104q-52 -38 -139 -38q-86 0 -167 23z" />
    <glyph glyph-name="uni2076" unicode="&#x2076;" horiz-adv-x="453" 
d="M35 555q0 111 61 173q62 62 167 62q65 0 132 -23v-119q-61 27 -123 27q-45 0 -74 -21q-29 -22 -28 -60q44 29 106 29q70 0 107 -31q41 -33 41 -94q0 -72 -53 -114q-52 -41 -134 -41q-202 0 -202 212zM170 513q5 -60 65 -60q55 0 55 42q0 37 -49 37q-39 0 -71 -19z" />
    <glyph glyph-name="uni2077" unicode="&#x2077;" horiz-adv-x="453" 
d="M44 595v180h374v-142l-163 -276h-156l166 280v28h-92v-70h-129z" />
    <glyph glyph-name="uni2078" unicode="&#x2078;" horiz-adv-x="453" 
d="M29 469q0 72 83 101q-73 25 -73 91q0 128 188 128t188 -128q0 -66 -73 -91q83 -29 83 -101q0 -126 -198 -126t-198 126zM285 646q0 39 -58 39t-58 -39q0 -37 58 -37t58 37zM290 487q0 40 -63 40t-63 -40t63 -40t63 40z" />
    <glyph glyph-name="uni2079" unicode="&#x2079;" horiz-adv-x="453" 
d="M422 577q0 -111 -61 -173q-62 -62 -167 -62q-65 0 -132 23v119q62 -27 123 -27q46 0 74 21q29 22 28 60q-44 -29 -106 -29q-70 0 -107 31q-41 33 -41 94q0 72 53 114q52 41 134 41q202 0 202 -212zM216 600q39 0 71 19q-4 60 -65 60q-55 0 -55 -42q0 -37 49 -37z" />
    <glyph glyph-name="uni2080" unicode="&#x2080;" horiz-adv-x="453" 
d="M24 3q0 108 52 166t152 58q202 0 202 -223q0 -108 -52 -166q-53 -59 -152 -59q-202 0 -202 224zM291 3q0 104 -64 104t-64 -104t64 -104t64 104z" />
    <glyph glyph-name="uni2081" unicode="&#x2081;" horiz-adv-x="345" 
d="M118 -206v301h-89l18 117h219v-418h-148z" />
    <glyph glyph-name="uni2082" unicode="&#x2082;" horiz-adv-x="453" 
d="M52 -206v113l96 70q79 54 99 73q17 17 17 29q0 24 -44 24q-67 0 -150 -53h-1v130q89 47 176 47q78 0 122 -32q44 -33 44 -93q0 -51 -36 -86q-36 -36 -117 -90l-21 -15h170v-117h-355z" />
    <glyph glyph-name="uni2083" unicode="&#x2083;" horiz-adv-x="453" 
d="M57 -196v120h1q89 -27 150 -27q71 0 71 31q0 17 -23 25q-27 8 -103 8h-17v61l112 75h-189l3 115h335v-106l-105 -71q127 -13 127 -115q0 -67 -56 -105q-54 -36 -144 -36q-87 0 -162 25z" />
    <glyph glyph-name="uni2084" unicode="&#x2084;" horiz-adv-x="453" 
d="M250 -206v75h-227v104l100 239h261v-233h54l-7 -110h-47v-75h-134zM157 -25h99v129h-48z" />
    <glyph glyph-name="uni2085" unicode="&#x2085;" horiz-adv-x="453" 
d="M59 -197v119h1q85 -25 154 -25q39 0 53 10q11 8 11 21q0 12 -9 18q-20 14 -123 14h-81l6 252h319l5 -115h-202l-1 -44h6q143 0 187 -44q32 -32 32 -87q0 -67 -52 -104q-52 -38 -139 -38q-86 0 -167 23z" />
    <glyph glyph-name="uni2086" unicode="&#x2086;" horiz-adv-x="453" 
d="M35 -8q0 111 61 173q62 62 167 62q65 0 132 -23v-119q-61 27 -123 27q-45 0 -74 -21q-29 -22 -28 -60q44 29 106 29q70 0 107 -31q41 -33 41 -94q0 -72 -53 -114q-52 -41 -134 -41q-202 0 -202 212zM170 -50q5 -60 65 -60q55 0 55 42q0 37 -49 37q-39 0 -71 -19z" />
    <glyph glyph-name="uni2087" unicode="&#x2087;" horiz-adv-x="453" 
d="M44 32v180h374v-142l-163 -276h-156l166 280v28h-92v-70h-129z" />
    <glyph glyph-name="uni2088" unicode="&#x2088;" horiz-adv-x="453" 
d="M29 -94q0 72 83 101q-73 25 -73 91q0 128 188 128t188 -128q0 -66 -73 -91q83 -29 83 -101q0 -126 -198 -126t-198 126zM285 83q0 39 -58 39t-58 -39q0 -37 58 -37t58 37zM290 -76q0 40 -63 40t-63 -40t63 -40t63 40z" />
    <glyph glyph-name="uni2089" unicode="&#x2089;" horiz-adv-x="453" 
d="M422 14q0 -111 -61 -173q-62 -62 -167 -62q-65 0 -132 23v119q62 -27 123 -27q46 0 74 21q29 22 28 60q-44 -29 -106 -29q-70 0 -107 31q-41 33 -41 94q0 72 53 114q52 41 134 41q202 0 202 -212zM216 37q39 0 71 19q-4 60 -65 60q-55 0 -55 -42q0 -37 49 -37z" />
    <glyph glyph-name="colonmonetary" unicode="&#x20a1;" horiz-adv-x="692" 
d="M121 -110l45 163q-142 100 -142 291q0 143 84 242q87 103 235 124l26 95h132l-25 -92q11 -1 26 -3.5t35 -7.5l28 103h132l-85 -311h-1q-82 46 -172 46q-94 0 -150 -54q-55 -52 -55 -139q0 -83 53 -134q56 -54 152 -54q95 0 181 46h1v-180q-32 -14 -67.5 -23.5
t-77.5 -13.5l-26 -98h-133l27 98q-29 4 -61 12l-30 -110h-132z" />
    <glyph glyph-name="uni20A6" unicode="&#x20a6;" horiz-adv-x="957" 
d="M167 0v204h-130l11 120h119v64h-113l11 120h102v192h204l244 -384h5v384h187v-192h108v-120h-108v-64h108v-120h-108v-204h-198l-250 394h-5v-394h-187z" />
    <glyph glyph-name="uni20A8" unicode="&#x20a8;" horiz-adv-x="1360" 
d="M85 0v700h383q272 0 272 -250q0 -167 -131 -223l165 -227h-232l-129 186h-123v-186h-205zM820 38v163h1q124 -76 254 -76q67 0 67 34q0 15 -17 23q-11 5 -34 11.5t-60 14.5q-108 24 -163 59q-52 34 -52 116q0 90 72 139q70 49 187 49q28 0 57.5 -3.5t61.5 -10.5
q58 -15 96 -35v-158l-1 1q-106 63 -218 63q-65 0 -65 -32q0 -16 20 -24q11 -5 36.5 -12.5t65.5 -15.5q113 -24 156 -63q44 -41 44 -112q0 -90 -67 -139t-194 -49q-134 0 -247 57zM290 346h150q96 0 96 95t-96 95h-150v-190z" />
    <glyph glyph-name="Euro" unicode="&#x20ac;" horiz-adv-x="805" 
d="M45 204l12 119h89v21q0 7 0.5 16.5t1.5 22.5h-86l12 119h102q41 99 129 156q95 60 228 60q111 0 199 -45v-164h-1q-105 50 -185 50q-120 0 -174 -75h231v-101h-265q-1 -11 -1.5 -20t-0.5 -16q0 -19 1 -24h266v-101h-237q50 -81 178 -81q85 0 187 46h1v-164
q-94 -41 -208 -41q-149 0 -236 63q-88 61 -121 159h-122z" />
    <glyph glyph-name="uni20B1" unicode="&#x20b1;" horiz-adv-x="884" 
d="M159 0v364h-122l24 135h98v201h374q103 0 166 -54q62 -53 77 -147h93v-135h-96q-20 -94 -86 -143q-67 -49 -169 -49h-157v-172h-202zM361 330h134q45 0 67 31q22 28 22 73q0 104 -91 104h-132v-208z" />
    <glyph glyph-name="uni20B9" unicode="&#x20b9;" horiz-adv-x="787" 
d="M648 0h-291l-264 179v137h204q93 0 113 71h-317v98h317q-20 71 -130 71h-187v144h637l-10 -144h-147q23 -26 33 -64h109l-8 -122h-96q-13 -85 -75 -135q-61 -52 -157 -52h-8z" />
    <glyph glyph-name="uni20BD" unicode="&#x20bd;" horiz-adv-x="839" 
d="M37 78l12 124h119v60h-116l13 126h103v312h384q120 0 185 -59q63 -57 63 -158q0 -107 -72 -166q-68 -55 -191 -55h-165v-60h303v-124h-303v-78h-204v78h-131zM372 388h140q93 0 93 79q0 81 -94 81h-139v-160z" />
    <glyph glyph-name="uni2116" unicode="&#x2116;" horiz-adv-x="1440" 
d="M1332 645q70 -69 70 -177q0 -110 -70 -176q-72 -69 -195 -69q-124 0 -195 69q-71 68 -71 176q0 110 70 177q73 68 196 68q124 0 195 -68zM97 0v700h211l260 -398h6v398h189v-700h-203l-268 408h-7v-408h-188zM1044 468q0 -106 93 -106t93 106q0 105 -93 105t-93 -105z
M907 148h459v-148h-459v148z" />
    <glyph glyph-name="uni2117" unicode="&#x2117;" horiz-adv-x="986" 
d="M165 50q-124 112 -124 303q0 190 124 302t328 112q205 0 327 -112q124 -112 124 -302q0 -191 -124 -303q-122 -112 -327 -112q-204 0 -328 112zM722 133q83 78 83 220t-83 220q-82 76 -229 76t-229 -76q-83 -78 -83 -220t83 -220q83 -77 229 -77t229 77zM329 173v363h230
q67 0 104 -37q38 -38 38 -103q0 -69 -44 -107q-41 -35 -107 -35h-97v-81h-124zM453 351h83q41 0 41 42q0 45 -42 45h-82v-87z" />
    <glyph glyph-name="uni2120" unicode="&#x2120;" horiz-adv-x="1019" 
d="M73 346v112h1q94 -49 182 -49q55 0 55 21q0 13 -14 19q-13 4 -74 15q-79 13 -114 37q-38 29 -38 84q0 57 47 90q50 36 140 36q67 0 152 -30v-111h-1q-76 42 -160 42q-53 0 -53 -21q0 -12 15 -17q6 -2 24 -6.5t48 -9.5q80 -13 114 -39q38 -29 38 -84q0 -49 -40 -86
q-41 -38 -146 -38q-89 0 -176 35zM496 322v378h148l81 -147l76 147h148v-378h-119v217l-102 -178h-12l-101 177v-216h-119z" />
    <glyph glyph-name="trademark" unicode="&#x2122;" horiz-adv-x="1036" 
d="M197 322v270h-134l5 108h387l6 -108h-134v-270h-130zM513 322v378h149l80 -147l77 147h148v-378h-120v217l-102 -178h-11l-102 178v-217h-119z" />
    <glyph glyph-name="onethird" unicode="&#x2153;" horiz-adv-x="1033" 
d="M118 282v301h-89l18 117h219v-418h-148zM133 1l517 699h142v-1l-517 -699h-142v1zM636 10v120h1q89 -27 150 -27q71 0 71 31q0 18 -23 26q-21 7 -103 7h-17v61l112 75h-189l3 115h335v-106l-105 -71q127 -13 127 -115q0 -67 -56 -105q-54 -36 -144 -36q-87 0 -162 25z
" />
    <glyph glyph-name="twothirds" unicode="&#x2154;" horiz-adv-x="1156" 
d="M52 282v113l96 70q79 54 99 73q17 17 17 29q0 24 -44 24q-67 0 -150 -53h-1v130q89 47 176 47q78 0 122 -32q44 -33 44 -93q0 -51 -36 -86q-36 -36 -117 -90l-21 -15h170v-117h-355zM256 1l517 699h142v-1l-517 -699h-142v1zM759 10v120h1q89 -27 150 -27q71 0 71 31
q0 18 -23 26q-21 7 -103 7h-17v61l112 75h-189l3 115h335v-106l-105 -71q127 -13 127 -115q0 -67 -56 -105q-54 -36 -144 -36q-87 0 -162 25z" />
    <glyph glyph-name="uni2155" unicode="&#x2155;" horiz-adv-x="1033" 
d="M118 282v301h-89l18 117h219v-418h-148zM133 1l517 699h142v-1l-517 -699h-142v1zM638 9v119h1q85 -25 154 -25q39 0 53 10q11 8 11 21q0 12 -9 18q-20 14 -123 14h-81l6 252h319l5 -115h-202l-1 -44h6q143 0 187 -44q32 -32 32 -87q0 -67 -52 -104q-52 -38 -139 -38
q-86 0 -167 23z" />
    <glyph glyph-name="uni2156" unicode="&#x2156;" horiz-adv-x="1156" 
d="M52 282v113l96 70q79 54 99 73q17 17 17 29q0 24 -44 24q-67 0 -150 -53h-1v130q89 47 176 47q78 0 122 -32q44 -33 44 -93q0 -51 -36 -86q-36 -36 -117 -90l-21 -15h170v-117h-355zM256 1l517 699h142v-1l-517 -699h-142v1zM761 9v119h1q85 -25 154 -25q39 0 53 10
q11 8 11 21q0 12 -9 18q-20 14 -123 14h-81l6 252h319l5 -115h-202l-1 -44h6q143 0 187 -44q32 -32 32 -87q0 -67 -52 -104q-52 -38 -139 -38q-86 0 -167 23z" />
    <glyph glyph-name="uni2157" unicode="&#x2157;" horiz-adv-x="1133" 
d="M57 292v120h1q89 -27 150 -27q71 0 71 31q0 18 -23 26q-21 7 -103 7h-17v61l112 75h-189l3 115h335v-106l-105 -71q127 -13 127 -115q0 -67 -56 -105q-54 -36 -144 -36q-87 0 -162 25zM234 1l517 699h142v-1l-517 -699h-142v1zM738 9v119h1q85 -25 154 -25q39 0 53 10
q11 8 11 21q0 12 -9 18q-20 14 -123 14h-81l6 252h319l5 -115h-202l-1 -44h6q143 0 187 -44q32 -32 32 -87q0 -67 -52 -104q-52 -38 -139 -38q-86 0 -167 23z" />
    <glyph glyph-name="uni2158" unicode="&#x2158;" horiz-adv-x="1151" 
d="M250 282v75h-227v104l100 239h261v-233h54l-7 -110h-47v-75h-134zM157 463h99v129h-48zM251 1l517 699h142v-1l-517 -699h-142v1zM756 9v119h1q85 -25 154 -25q39 0 53 10q11 8 11 21q0 12 -9 18q-20 14 -123 14h-81l6 252h319l5 -115h-202l-1 -44h6q143 0 187 -44
q32 -32 32 -87q0 -67 -52 -104q-52 -38 -139 -38q-86 0 -167 23z" />
    <glyph glyph-name="uni2159" unicode="&#x2159;" horiz-adv-x="1015" 
d="M118 282v301h-89l18 117h219v-418h-148zM133 1l517 699h142v-1l-517 -699h-142v1zM596 198q0 111 61 173q62 62 167 62q65 0 132 -23v-119q-61 27 -123 27q-45 0 -74 -21q-29 -22 -28 -60q44 29 106 29q70 0 107 -31q41 -33 41 -94q0 -72 -53 -114q-52 -41 -134 -41
q-202 0 -202 212zM731 156q5 -60 65 -60q55 0 55 42q0 37 -49 37q-39 0 -71 -19z" />
    <glyph glyph-name="uni215A" unicode="&#x215a;" horiz-adv-x="1119" 
d="M59 291v119h1q85 -25 154 -25q39 0 53 10q11 8 11 21q0 12 -9 18q-20 14 -123 14h-81l6 252h319l5 -115h-202l-1 -44h6q143 0 187 -44q32 -32 32 -87q0 -67 -52 -104q-52 -38 -139 -38q-86 0 -167 23zM237 1l517 699h142v-1l-517 -699h-142v1zM700 198q0 111 61 173
q62 62 167 62q65 0 132 -23v-119q-61 27 -123 27q-45 0 -74 -21q-29 -22 -28 -60q44 29 106 29q70 0 107 -31q41 -33 41 -94q0 -72 -53 -114q-52 -41 -134 -41q-202 0 -202 212zM835 156q5 -60 65 -60q55 0 55 42q0 37 -49 37q-39 0 -71 -19z" />
    <glyph glyph-name="oneeighth" unicode="&#x215b;" horiz-adv-x="1030" 
d="M118 282v301h-89l18 117h219v-418h-148zM133 1l517 699h142v-1l-517 -699h-142v1zM605 112q0 72 83 101q-73 25 -73 91q0 128 188 128t188 -128q0 -66 -73 -91q83 -29 83 -101q0 -126 -198 -126t-198 126zM861 289q0 39 -58 39t-58 -39q0 -37 58 -37t58 37zM866 130
q0 40 -63 40t-63 -40t63 -40t63 40z" />
    <glyph glyph-name="threeeighths" unicode="&#x215c;" horiz-adv-x="1131" 
d="M57 292v120h1q89 -27 150 -27q71 0 71 31q0 18 -23 26q-21 7 -103 7h-17v61l112 75h-189l3 115h335v-106l-105 -71q127 -13 127 -115q0 -67 -56 -105q-54 -36 -144 -36q-87 0 -162 25zM234 1l517 699h142v-1l-517 -699h-142v1zM706 112q0 72 83 101q-73 25 -73 91
q0 128 188 128t188 -128q0 -66 -73 -91q83 -29 83 -101q0 -126 -198 -126t-198 126zM962 289q0 39 -58 39t-58 -39q0 -37 58 -37t58 37zM967 130q0 40 -63 40t-63 -40t63 -40t63 40z" />
    <glyph glyph-name="fiveeighths" unicode="&#x215d;" horiz-adv-x="1135" 
d="M59 291v119h1q85 -25 154 -25q39 0 53 10q11 8 11 21q0 12 -9 18q-20 14 -123 14h-81l6 252h319l5 -115h-202l-1 -44h6q143 0 187 -44q32 -32 32 -87q0 -67 -52 -104q-52 -38 -139 -38q-86 0 -167 23zM237 1l517 699h142v-1l-517 -699h-142v1zM710 112q0 72 83 101
q-73 25 -73 91q0 128 188 128t188 -128q0 -66 -73 -91q83 -29 83 -101q0 -126 -198 -126t-198 126zM966 289q0 39 -58 39t-58 -39q0 -37 58 -37t58 37zM971 130q0 40 -63 40t-63 -40t63 -40t63 40z" />
    <glyph glyph-name="seveneighths" unicode="&#x215e;" horiz-adv-x="1083" 
d="M44 520v180h374v-142l-163 -276h-156l166 280v28h-92v-70h-129zM186 1l517 699h142v-1l-517 -699h-142v1zM658 112q0 72 83 101q-73 25 -73 91q0 128 188 128t188 -128q0 -66 -73 -91q83 -29 83 -101q0 -126 -198 -126t-198 126zM914 289q0 39 -58 39t-58 -39
q0 -37 58 -37t58 37zM919 130q0 40 -63 40t-63 -40t63 -40t63 40z" />
    <glyph glyph-name="arrowleft" unicode="&#x2190;" horiz-adv-x="1020" 
d="M439 455l461 2v-182l-458 2l242 -214h-259l-342 303l342 303h259z" />
    <glyph glyph-name="arrowup" unicode="&#x2191;" horiz-adv-x="890" 
d="M347 -22l2 442l-221 -234v241l317 326l317 -326v-241l-221 235l2 -443h-196z" />
    <glyph glyph-name="arrowright" unicode="&#x2192;" horiz-adv-x="1020" 
d="M581 275l-461 -2v182l458 -2l-242 214h259l342 -303l-342 -303h-259z" />
    <glyph glyph-name="arrowdown" unicode="&#x2193;" horiz-adv-x="890" 
d="M445 -53l-317 326v241l221 -235l-2 443h196l-2 -442l221 234v-241z" />
    <glyph glyph-name="uni21A2" unicode="&#x21a2;" horiz-adv-x="2050" 
d="M773 83l-694 281l694 281l11 -20l-97 -175h568l164 131h526l-236 -217l236 -217h-526l-164 131h-568l97 -175z" />
    <glyph glyph-name="uni21A3" unicode="&#x21a3;" horiz-adv-x="2050" 
d="M1277 83l-11 20l97 175h-568l-164 -131h-526l236 217l-236 217h526l164 -131h568l-97 175l11 20l694 -281z" />
    <glyph glyph-name="minus" unicode="&#x2212;" horiz-adv-x="692" 
d="M82 263v175h528v-175h-528z" />
    <glyph glyph-name="circleplus" unicode="&#x2295;" horiz-adv-x="1078" 
d="M238 62q-112 108 -112 288t112 288q113 108 301 108q189 0 301 -108t112 -288t-112 -288t-301 -108q-188 0 -301 108zM310 294h171v-171h116v171h171v116h-171v171h-116v-171h-171v-116z" />
    <glyph glyph-name="uni2296" unicode="&#x2296;" horiz-adv-x="1078" 
d="M238 62q-112 108 -112 288t112 288q113 108 301 108q189 0 301 -108t112 -288t-112 -288t-301 -108q-188 0 -301 108zM309 294h459v116h-459v-116z" />
    <glyph glyph-name="circlemultiply" unicode="&#x2297;" horiz-adv-x="1078" 
d="M238 62q-112 108 -112 288t112 288q113 108 301 108q189 0 301 -108t112 -288t-112 -288t-301 -108q-188 0 -301 108zM311 204l83 -82l146 147l146 -147l82 82l-147 146l147 146l-82 82l-146 -147l-146 147l-83 -82l148 -146z" />
    <glyph glyph-name="uni2299" unicode="&#x2299;" horiz-adv-x="1078" 
d="M230 62q-115 108 -115 288t115 288q116 108 309 108q195 0 310 -108t115 -288q0 -178 -116 -288q-115 -108 -309 -108q-193 0 -309 108zM706 189q61 61 61 161q0 101 -61 162t-167 61q-105 0 -166 -61q-62 -62 -62 -162q0 -99 62 -161t166 -62q105 0 167 62zM446 261
q-35 35 -35 89t35 89q37 35 93 35q59 0 94 -35q34 -34 34 -89t-34 -89q-35 -35 -94 -35q-56 0 -93 35z" />
    <glyph glyph-name="dotmath" unicode="&#x22c5;" horiz-adv-x="416" 
d="M117 269q-33 32 -33 80v1q0 50 33 80q34 32 90 32q57 0 92 -32q33 -30 33 -80q0 -49 -33 -81q-35 -32 -92 -32q-56 0 -90 32z" />
    <glyph glyph-name="house" unicode="&#x2302;" horiz-adv-x="1050" 
d="M889 -29h-728v489l364 293l364 -293v-489z" />
    <glyph glyph-name="uni238C" unicode="&#x238c;" horiz-adv-x="1041" 
d="M404 284h144q77 0 130 32q50 31 49 106q0 132 -179 132h-382l27 175h389q162 0 256 -77q96 -81 94 -225q2 -146 -94 -228q-94 -82 -256 -82h-180l157 -144h-235l-223 228l222 227h236z" />
    <glyph glyph-name="uni2397" unicode="&#x2397;" horiz-adv-x="1082" 
d="M642 729v-518h-483v518h483zM746 544h159v-573h-547l-13 140h401v433z" />
    <glyph glyph-name="uni2398" unicode="&#x2398;" horiz-adv-x="1082" 
d="M336 156h-159v573h547l13 -140h-401v-433zM440 -29v518h483v-518h-483z" />
    <glyph glyph-name="filledbox" unicode="&#x25a0;" horiz-adv-x="1117" 
d="M166 -29v758h785v-758h-785z" />
    <glyph glyph-name="H22073" unicode="&#x25a1;" horiz-adv-x="1117" 
d="M166 -29v758h785v-758h-785zM363 148h391v404h-391v-404z" />
    <glyph glyph-name="H18543" unicode="&#x25aa;" horiz-adv-x="808" 
d="M154 113v474h500v-474h-500z" />
    <glyph glyph-name="H18551" unicode="&#x25ab;" horiz-adv-x="808" 
d="M154 113v474h500v-474h-500zM321 264h166v172h-166v-172z" />
    <glyph glyph-name="triagup" unicode="&#x25b2;" horiz-adv-x="1000" 
d="M116 -29l379 782h10l379 -782h-768z" />
    <glyph glyph-name="uni25B4" unicode="&#x25b4;" horiz-adv-x="924" 
d="M467 793l367 -439h-744l367 439h10z" />
    <glyph glyph-name="uni25B6" unicode="&#x25b6;" horiz-adv-x="1050" 
d="M169 734l782 -379v-10l-782 -379v768z" />
    <glyph glyph-name="uni25B8" unicode="&#x25b8;" horiz-adv-x="1010" 
d="M168 639l733 -267v-12l-733 -267v546z" />
    <glyph glyph-name="triagdn" unicode="&#x25bc;" horiz-adv-x="1000" 
d="M884 729l-379 -782h-10l-379 782h768z" />
    <glyph glyph-name="uni25BE" unicode="&#x25be;" horiz-adv-x="924" 
d="M457 -66l-367 439h744l-367 -439h-10z" />
    <glyph glyph-name="uni25C0" unicode="&#x25c0;" horiz-adv-x="1050" 
d="M881 -34l-782 379v10l782 379v-768z" />
    <glyph glyph-name="uni25C2" unicode="&#x25c2;" horiz-adv-x="1010" 
d="M842 93l-733 267v12l733 267v-546z" />
    <glyph glyph-name="circle" unicode="&#x25cb;" horiz-adv-x="1078" 
d="M230 62q-115 108 -115 288t115 288q116 108 309 108q195 0 310 -108t115 -288q0 -178 -116 -288q-115 -108 -309 -108q-193 0 -309 108zM701 189q59 61 59 161t-59 161q-60 62 -162 62t-162 -62q-59 -61 -59 -161t59 -161q60 -62 162 -62t162 62z" />
    <glyph glyph-name="H18533" unicode="&#x25cf;" horiz-adv-x="1078" 
d="M230 62q-115 108 -115 288t115 288q116 108 309 108q195 0 310 -108t115 -288q0 -178 -116 -288q-115 -108 -309 -108q-193 0 -309 108z" />
    <glyph glyph-name="uni25D0" unicode="&#x25d0;" horiz-adv-x="1078" 
d="M230 62q-115 108 -115 288t115 288q116 108 309 108q195 0 310 -108t115 -288q0 -178 -116 -288q-115 -108 -309 -108q-193 0 -309 108zM524 119q106 0 171 62q66 63 66 169t-66 170q-64 61 -171 61v-462z" />
    <glyph glyph-name="uni25E9" unicode="&#x25e9;" horiz-adv-x="1117" 
d="M166 -29v758h785v-758h-785zM361 148h394v402z" />
    <glyph glyph-name="uni2600" unicode="&#x2600;" horiz-adv-x="1039" 
d="M933 371v-34l-132 -78l44 -152l-24 -28l-149 26l-68 -145l-34 -7l-98 116l-145 -68l-28 18l-2 153l-155 39l-12 33l100 117l-96 130l12 34l155 26l7 159l32 18l134 -75l109 114l36 -7l54 -144l156 18l23 -28l-51 -145z" />
    <glyph glyph-name="uni2605" unicode="&#x2605;" horiz-adv-x="1050" 
d="M648 505l296 2l19 -49l-238 -174l95 -284l-43 -29l-252 182l-253 -182l-42 29l95 284l-238 174l19 49l296 -2l96 280h54z" />
    <glyph glyph-name="uni260E" unicode="&#x260e;" horiz-adv-x="1158" 
d="M968 -29h-778l-28 196l147 249l-167 -3q-29 63 -29 111q0 103 116 162q122 60 350 60q229 0 350 -60q116 -59 116 -162q0 -48 -29 -111l-167 3l147 -249zM750 569h-342l-11 -85q92 15 182 15q91 0 182 -15zM696 330q-43 34 -117 34t-118 -34q-42 -33 -42 -83t42 -83
q43 -34 118 -34q74 0 117 34q42 33 42 83t-42 83z" />
    <glyph glyph-name="uni2611" unicode="&#x2611;" horiz-adv-x="1117" 
d="M851 886l-312 -646h-102l179 646h235zM874 729h83v-758h-797v758h322l-144 -563h250z" />
    <glyph glyph-name="uni2612" unicode="&#x2612;" horiz-adv-x="1117" 
d="M172 -29v758h773v-758h-773zM389 98l170 171l169 -171l83 82l-171 170l171 170l-83 82l-169 -171l-170 171l-83 -82l171 -170l-171 -170z" />
    <glyph glyph-name="uni261A" unicode="&#x261a;" horiz-adv-x="1750" 
d="M1575 57l-399 88l-375 -130q-31 -9 -57 5l-12 7q-27 17 -27 48v5.5t1 8.5l1 8l1 8l-25 -8q-29 -12 -58 3l-22 12q-29 17 -29 49v8t1 9t1.5 9.5t1.5 9.5l-26 -11q-30 -14 -58 1l-22 13q-32 17 -24 56l37 147l-215 -18q-15 -1 -25.5 -1.5t-16.5 -0.5q-84 0 -131 32
q-41 29 -41 73q0 20 7 35l5 11l610 80q26 4 42.5 5.5t24.5 1.5q11 0 26.5 -1.5t36.5 -3.5l767 -79v-480z" />
    <glyph glyph-name="uni261B" unicode="&#x261b;" horiz-adv-x="1750" 
d="M555 145l-399 -88v480l767 79q21 2 36.5 3.5t26.5 1.5q8 0 24.5 -1.5t42.5 -5.5l610 -80l4 -11q7 -15 7 -36q0 -44 -41 -73q-46 -31 -131 -31q-5 0 -15.5 0.5t-25.5 1.5l-215 18l36 -147q11 -38 -23 -56l-22 -13q-28 -14 -59 -1l-25 11q1 -5 1.5 -9.5t1.5 -9.5t1 -9v-8
q0 -32 -29 -49l-22 -12q-28 -15 -59 -3l-24 7l1 -8l1 -8q1 -4 1 -7.5v-5.5q0 -32 -28 -48l-11 -7q-27 -14 -58 -5z" />
    <glyph glyph-name="sun" unicode="&#x263c;" horiz-adv-x="1039" 
d="M933 371v-34l-132 -78l44 -152l-24 -28l-149 26l-68 -145l-34 -7l-98 116l-145 -68l-28 18l-2 153l-155 39l-12 33l100 117l-96 130l12 34l155 26l7 159l32 18l134 -75l109 114l36 -7l54 -144l156 18l23 -28l-51 -145zM617 445q-35 35 -90 35t-90 -35q-32 -34 -32 -83
t32 -83q35 -35 90 -35t90 35q32 34 32 83t-32 83z" />
    <glyph glyph-name="heart" unicode="&#x2665;" horiz-adv-x="1010" 
d="M507 601q24 68 77 107q52 38 118 38q84 0 143 -56q67 -64 67 -175q0 -130 -125 -294q-105 -136 -279 -273h-6q-175 137 -278 273q-126 164 -126 294q0 111 67 175q59 56 143 56q66 0 119 -38q52 -38 76 -107h4z" />
    <glyph glyph-name="uni2691" unicode="&#x2691;" horiz-adv-x="890" 
d="M725 -40h-187v329h-423v440h610v-769z" />
    <glyph glyph-name="uni2698" unicode="&#x2698;" horiz-adv-x="1060" 
d="M651 81q-49 -42 -58 -121h-126q-9 79 -58 121q-37 -63 -113 -63q-57 0 -116 39q-62 39 -113 116v23q89 50 176 50q55 0 106 -21q67 -29 111 -88l-9 132q-142 42 -199 108q-59 67 -65 197l-7 122l23 11q44 -22 102 -63q56 -40 99 -94q40 141 118 213h16q78 -72 118 -213
q44 56 100 94q54 40 101 63l23 -11l-7 -122q-6 -130 -65 -197q-57 -66 -199 -108l-9 -132q45 60 112 88q50 21 105 21q87 0 176 -50v-23q-51 -77 -113 -116q-58 -39 -116 -39q-75 0 -113 63z" />
    <glyph glyph-name="uni2709" unicode="&#x2709;" horiz-adv-x="1417" 
d="M224 729h969l-483 -447zM172 647l284 -265l-284 -277v542zM1245 647v-542l-283 275zM178 -29l350 346l182 -172l181 172l349 -346h-1062z" />
    <glyph glyph-name="uni272B" unicode="&#x272b;" horiz-adv-x="1050" 
d="M648 505l296 2l19 -49l-238 -174l95 -284l-43 -29l-252 182l-253 -182l-42 29l95 284l-238 174l19 49l296 -2l96 280h54zM525 236l122 117l-122 117l-122 -117z" />
    <glyph glyph-name="uni2731" unicode="&#x2731;" horiz-adv-x="1020" 
d="M274 11l-118 120l144 136l-196 -1v169l199 -1l-143 135l114 118l150 -149l-2 202h176l-2 -204l153 152l116 -120l-145 -134l196 1v-169l-201 1l149 -137l-115 -117l-153 152l2 -205h-176l2 202z" />
    <glyph glyph-name="uni2735" unicode="&#x2735;" horiz-adv-x="979" 
d="M903 375v-42l-192 -53l107 -170l-30 -34l-179 83l-31 -198l-42 -9l-84 178l-152 -131l-34 22l47 190l-200 -4l-14 40l161 114l-157 126l14 42l198 -17l-40 196l38 22l140 -138l96 176l44 -9l17 -196l186 74l28 -34l-113 -163z" />
    <glyph glyph-name="uni274C" unicode="&#x274c;" horiz-adv-x="1020" 
d="M248 -32l-133 135l261 247l-261 248l130 134l263 -257l263 257l132 -136l-261 -247l261 -248l-131 -133l-262 256z" />
    <glyph glyph-name="uni276C" unicode="&#x276c;" horiz-adv-x="921" 
d="M431 -170l-363 504v12l363 504h354v-1020h-354zM541 12h41v656h-41l-233 -331z" />
    <glyph glyph-name="uni276D" unicode="&#x276d;" horiz-adv-x="921" 
d="M136 -170v1020h354l363 -504v-12l-363 -504h-354zM339 12h41l233 331l-233 325h-41v-656z" />
    <glyph glyph-name="uni2770" unicode="&#x2770;" horiz-adv-x="921" 
d="M774 850v-1020h-348l-358 504v12l358 504h348z" />
    <glyph glyph-name="uni2771" unicode="&#x2771;" horiz-adv-x="921" 
d="M147 -170v1020h348l358 -504v-12l-358 -504h-348z" />
    <glyph glyph-name="uni2795" unicode="&#x2795;" horiz-adv-x="1020" 
d="M107 261v182h302v297h202v-297h302v-182h-302v-301h-202v301h-302z" />
    <glyph glyph-name="uni27A1" unicode="&#x27a1;" horiz-adv-x="1020" 
d="M492 -4l-27 14l8 205l-352 -4v310l352 -4l-8 205l27 14l465 -370z" />
    <glyph glyph-name="glyph444" unicode="&#xe000;" horiz-adv-x="782" 
d="M196 167q-72 71 -72 183q0 114 72 183q73 71 194 71q127 0 197 -70q71 -71 71 -184q0 -114 -72 -183q-74 -71 -196 -71q-120 0 -194 71z" />
    <glyph glyph-name="glyph445" unicode="&#xe001;" horiz-adv-x="782" 
d="M196 167q-72 71 -72 183q0 114 72 183q73 71 194 71q127 0 197 -70q71 -71 71 -184q0 -114 -72 -183q-74 -71 -196 -71q-120 0 -194 71zM462 280q27 27 27 70t-27 70q-27 28 -72 28q-44 0 -71 -28q-26 -28 -26 -70t26 -70q27 -28 71 -28q45 0 72 28z" />
    <glyph glyph-name="glyph446" unicode="&#xe002;" horiz-adv-x="1100" 
d="M202 536q-28 27 -28 71q0 43 28 70q29 27 74 27t73 -27t28 -70q0 -44 -28 -71q-28 -26 -73 -26t-74 26zM477 536q-28 27 -28 71q0 43 28 70q29 27 73 27q47 0 74 -27t27 -70q0 -45 -27 -71q-28 -26 -74 -26q-45 0 -73 26zM751 536q-28 27 -28 71q0 43 28 70q29 27 73 27
q47 0 75 -27q27 -27 27 -70q0 -44 -27 -71q-29 -26 -75 -26q-45 0 -73 26zM202 279q-28 27 -28 71q0 43 28 70q29 27 74 27t73 -27t28 -70q0 -44 -28 -71q-28 -26 -73 -26t-74 26zM477 279q-28 27 -28 71q0 43 28 70q29 27 73 27q47 0 74 -27t27 -70q0 -45 -27 -71
q-28 -26 -74 -26q-45 0 -73 26zM751 279q-28 27 -28 71q0 43 28 70q29 27 73 27q47 0 75 -27q27 -27 27 -70q0 -44 -27 -71q-29 -26 -75 -26q-45 0 -73 26zM202 22q-28 27 -28 71t28 71q29 26 74 26t73 -26q28 -27 28 -71t-28 -71q-28 -26 -73 -26t-74 26zM477 22
q-28 27 -28 71t28 71q28 26 73 26q46 0 74 -26q27 -25 27 -71q0 -45 -27 -71q-28 -26 -74 -26q-45 0 -73 26zM751 22q-28 27 -28 71t28 71q28 26 73 26q46 0 75 -26q27 -27 27 -71t-27 -71q-29 -26 -75 -26q-45 0 -73 26z" />
    <glyph glyph-name="glyph447" unicode="&#xe003;" horiz-adv-x="1020" 
d="M528 -4l-465 370l465 370l27 -14l-8 -205l352 4v-310l-352 4l8 -205z" />
    <glyph glyph-name="glyph448" unicode="&#xe004;" horiz-adv-x="910" 
d="M295 -22l5 302l-210 -5l-15 29l380 449l380 -449l-15 -29l-210 5l5 -302h-320z" />
    <glyph glyph-name="glyph449" unicode="&#xe005;" horiz-adv-x="910" 
d="M455 -53l-380 449l15 29l210 -5l-5 302h320l-5 -302l210 5l15 -29z" />
    <glyph glyph-name="glyph450" unicode="&#xe006;" horiz-adv-x="1487" 
d="M145 104v524h977l255 -262l-255 -262h-977z" />
    <glyph glyph-name="glyph451" unicode="&#xe007;" horiz-adv-x="1487" 
d="M145 104v524h977l255 -262l-255 -262h-977zM345 284h687l78 82l-78 82h-687v-164z" />
    <glyph glyph-name="glyph452" unicode="&#xe008;" horiz-adv-x="1487" 
d="M145 104v524h977l255 -262l-255 -262h-977zM345 284h625v164h-625v-164z" />
    <glyph glyph-name="glyph453" unicode="&#xe009;" horiz-adv-x="1300" 
d="M145 222v288h1010v-288h-1010z" />
    <glyph glyph-name="glyph454" unicode="&#xe00a;" horiz-adv-x="1300" 
d="M145 405v180h1010v-180h-1010zM145 130v178h1010v-178h-1010z" />
    <glyph glyph-name="glyph455" unicode="&#xe00b;" horiz-adv-x="1300" 
d="M145 522v156h1010v-156h-1010zM145 282v151h1010v-151h-1010zM145 38v155h1010v-155h-1010z" />
    <glyph glyph-name="glyph456" unicode="&#xe00c;" horiz-adv-x="1098" 
d="M277 169q-98 39 -98 90t98 90q100 38 272 38q173 0 273 -38q97 -39 97 -90t-97 -90t-273 -39q-174 0 -272 39zM177 166h5q16 -40 103 -69q104 -36 264 -36q161 0 264 36q87 29 103 69h5v-98q0 -51 -98 -90q-99 -39 -274 -39t-273 39q-99 39 -99 90v98z" />
    <glyph glyph-name="glyph457" unicode="&#xe00d;" horiz-adv-x="1098" 
d="M277 356q-98 39 -98 90t98 90q100 38 272 38q173 0 273 -38q97 -39 97 -90t-97 -90t-273 -39q-174 0 -272 39zM177 353h5q16 -40 103 -69q104 -36 264 -36q161 0 264 36q87 29 103 69h5v-98q0 -51 -98 -90q-99 -39 -274 -39t-273 39q-99 39 -99 90v98zM177 166h5
q16 -40 103 -69q104 -36 264 -36q161 0 264 36q87 29 103 69h5v-98q0 -51 -98 -90q-99 -39 -274 -39t-273 39q-99 39 -99 90v98z" />
    <glyph glyph-name="glyph458" unicode="&#xe00e;" horiz-adv-x="1098" 
d="M277 543q-98 39 -98 90t98 90q100 38 272 38q173 0 273 -38q97 -39 97 -90t-97 -90t-273 -39q-174 0 -272 39zM177 540h5q16 -40 103 -69q104 -36 264 -36q161 0 264 36q87 29 103 69h5v-98q0 -51 -98 -90q-99 -39 -274 -39t-273 39q-99 39 -99 90v98zM177 353h5
q16 -40 103 -69q104 -36 264 -36q161 0 264 36q87 29 103 69h5v-98q0 -51 -98 -90q-99 -39 -274 -39t-273 39q-99 39 -99 90v98zM177 166h5q16 -40 103 -69q104 -36 264 -36q161 0 264 36q87 29 103 69h5v-98q0 -51 -98 -90q-99 -39 -274 -39t-273 39q-99 39 -99 90v98z" />
    <glyph glyph-name="glyph459" unicode="&#xe00f;" horiz-adv-x="1098" 
d="M549 111l-414 145v18l414 145l414 -145v-18zM549 -76l-409 143v117l409 -143l409 143v-117z" />
    <glyph glyph-name="glyph460" unicode="&#xe010;" horiz-adv-x="1098" 
d="M549 292l-414 145v18l414 145l414 -145v-18zM549 105l-409 143v117l409 -143l409 143v-117zM549 -76l-409 143v117l409 -143l409 143v-117z" />
    <glyph glyph-name="glyph461" unicode="&#xe011;" horiz-adv-x="1098" 
d="M549 473l-414 145v18l414 145l414 -145v-18zM549 286l-409 143v117l409 -143l409 143v-117zM549 105l-409 143v117l409 -143l409 143v-117zM549 -76l-409 143v117l409 -143l409 143v-117z" />
    <glyph glyph-name="glyph462" unicode="&#xe012;" horiz-adv-x="1078" 
d="M238 62q-112 108 -112 288t112 288q113 108 301 108q189 0 301 -108t112 -288t-112 -288t-301 -108q-188 0 -301 108zM366 446q92 58 182 58q79 0 79 -44q0 -46 -160 -82v-99h1q147 25 216 68q73 46 73 122q0 68 -59 106q-52 33 -137 33q-95 0 -195 -47v-115zM586 91
q22 19 22 52v1q0 33 -22 52q-22 21 -61 21t-62 -21q-22 -19 -22 -52v-1q0 -33 22 -52q22 -22 62 -22q39 0 61 22z" />
    <glyph glyph-name="glyph463" unicode="&#xe013;" horiz-adv-x="1078" 
d="M238 62q-112 108 -112 288t112 288q113 108 301 108q189 0 301 -108t112 -288t-112 -288t-301 -108q-188 0 -301 108zM491 297h97l36 304v9h-170v-9zM601 91q22 19 22 52v1q0 33 -22 52q-22 21 -61 21t-62 -21q-22 -19 -22 -52v-1q0 -33 22 -52q22 -22 62 -22q39 0 61 22
z" />
    <glyph glyph-name="glyph464" unicode="&#xe014;" horiz-adv-x="1079" 
d="M358 -36l-212 212v348l212 212h363l212 -212v-348l-212 -212h-363zM309 294h459v116h-459v-116z" />
    <glyph glyph-name="glyph465" unicode="&#xe015;" horiz-adv-x="1034" 
d="M634 465v266h25l239 -241v-25h-264zM896 369v-398h-728v758h365v-360h363z" />
    <glyph glyph-name="glyph466" unicode="&#xe016;" horiz-adv-x="1135" 
d="M164 555q-30 29 -30 76t30 75q31 29 78 29q49 0 80 -29q29 -29 29 -75q0 -47 -29 -76q-31 -29 -80 -29t-78 29zM432 552v157h550l-30 -157h-520zM164 274q-30 29 -30 76t30 75q30 30 78 30q50 0 80 -30q29 -29 29 -75q0 -47 -29 -76q-31 -29 -80 -29t-78 29zM432 271v158
h550l-30 -158h-520zM164 -6q-30 29 -30 75q0 47 30 75q30 30 78 30q50 0 80 -30q29 -29 29 -75t-29 -75q-31 -29 -80 -29q-47 0 -78 29zM432 -9v157h550l-30 -157h-520z" />
    <glyph glyph-name="glyph467" unicode="&#xe017;" horiz-adv-x="825" 
d="M164 93l28 646l38 17l498 -430l-4 -36l-216 -2l123 -260l-161 -75l-124 273l-141 -136z" />
    <glyph glyph-name="glyph468" unicode="&#xe018;" horiz-adv-x="960" 
d="M141 241q-47 44 -47 112t47 112q46 43 120 43q39 0 73 -14l162 94v3q0 63 44 109q46 46 118 46q75 0 121 -43q45 -42 45 -112t-45 -112q-46 -43 -121 -43q-47 0 -88 21l-149 -86q1 -2 1 -9v-9q0 -16 -1 -19l152 -88q37 19 85 19q75 0 121 -43q45 -43 45 -113
q0 -71 -45 -113q-46 -42 -121 -42q-72 0 -118 46q-44 46 -44 109v7l-163 95q-33 -13 -72 -13q-74 0 -120 43z" />
    <glyph glyph-name="glyph469" unicode="&#xe019;" horiz-adv-x="1078" 
d="M238 62q-112 108 -112 288t112 288q113 108 301 108q189 0 301 -108t112 -288t-112 -288t-301 -108q-188 0 -301 108zM371 120h336v10l-126 225q46 14 72 46q27 32 27 74q0 57 -39 93q-38 37 -102 37q-62 0 -102 -37q-39 -36 -39 -93q0 -42 27 -74q26 -32 72 -46
l-126 -225v-10z" />
    <glyph glyph-name="glyph470" unicode="&#xe01a;" horiz-adv-x="1116" 
d="M290 7l-8 36l48 72l-190 153l-22 53l4 48l40 46l-4 64l19 39l52 29l17 64l32 32l61 9l38 54l38 16l62 -15l56 39h50l56 -39l62 15l38 -16l38 -54l61 -9l32 -32l17 -64l52 -29l19 -39l-4 -64l40 -46l4 -48l-22 -53l-190 -153l48 -72l-8 -36h-173l-77 -62h-36l-77 62h-173z
" />
    <glyph glyph-name="glyph471" unicode="&#xe01b;" horiz-adv-x="1020" 
d="M234 60q-110 92 -108 203q0 50 21 126q20 78 20 113q0 49 -42 118l118 101q71 -40 119 -40q68 0 140 81h16q72 -81 140 -81q48 0 119 40l118 -101q-42 -69 -42 -118q0 -24 6 -56l7 -28l8 -29q20 -78 20 -126q2 -111 -108 -203q-106 -86 -276 -128q-170 42 -276 128z" />
    <glyph glyph-name="glyph472" unicode="&#xe01c;" horiz-adv-x="870" 
d="M518 -40v288h-423v22l184 218l-184 219v22h610v-769h-187z" />
    <glyph glyph-name="glyph473" unicode="&#xe01d;" horiz-adv-x="1020" 
d="M415 -40l2 203l-174 -96l-19 131l-128 76v27l135 79l-79 178l21 29l211 -61l109 237h34l109 -237l211 61l21 -29l-79 -178l135 -79v-27l-128 -76l-19 -131l-174 96l2 -203h-190z" />
    <glyph glyph-name="glyph474" unicode="&#xe01e;" horiz-adv-x="1020" 
d="M414 -40l1 111l-332 52l-5 29l189 137l-105 39l-5 25l178 131l-75 29l-5 24l244 226h22l244 -226l-5 -24l-74 -28l177 -132l-5 -25l-105 -39l189 -137l-5 -29l-332 -52l1 -111h-192z" />
    <glyph glyph-name="glyph475" unicode="&#xe01f;" horiz-adv-x="1000" 
d="M167 -29l69 437l-104 121l13 200h155l9 -116h103l9 116h158l9 -116h103l9 116h155l13 -200l-104 -121l69 -437h-666z" />
    <glyph glyph-name="glyph476" unicode="&#xe020;" horiz-adv-x="820" 
d="M655 -40h-187v273l-441 234v20l592 267h36v-794z" />
    <glyph glyph-name="glyph477" unicode="&#xe021;" horiz-adv-x="1020" 
d="M380 527v169h260v-169h-260zM238 262v165h544v-165h-544zM91 -3v166h838v-166h-838z" />
    <glyph glyph-name="glyph478" unicode="&#xe022;" horiz-adv-x="1020" 
d="M91 529v165h838v-165h-838zM238 265v164h544v-164h-544zM380 -5v170h260v-170h-260z" />
    <glyph glyph-name="glyph479" unicode="&#xe023;" horiz-adv-x="815" 
d="M483 -170l-399 504v12l399 504h252l-401 -510l401 -510h-252z" />
    <glyph glyph-name="glyph480" unicode="&#xe024;" horiz-adv-x="815" 
d="M75 -170l401 512l-401 508h253l399 -504v-12l-399 -504h-253z" />
    <glyph glyph-name="glyph481" unicode="&#xe025;" horiz-adv-x="902" 
d="M187 -63v792h528v-792h-30l-234 213l-234 -213h-30z" />
    <glyph glyph-name="glyph482" unicode="&#xe026;" horiz-adv-x="1004" 
d="M669 682q58 -67 58 -178q0 -103 -58 -177q-64 -82 -167 -82q-102 0 -166 82q-59 76 -59 177q0 110 59 178q60 69 166 69t167 -69zM919 -29h-834l10 123q5 45 33 73q28 27 109 45l81 19q77 -71 184 -71t184 71l81 -19q81 -18 110 -45q28 -28 32 -73z" />
    <glyph glyph-name="glyph483" unicode="&#xe027;" horiz-adv-x="1000" 
d="M425 545q-28 27 -28 72t28 72q29 27 75 27q48 0 76 -27q27 -27 27 -72t-27 -72q-28 -28 -76 -28q-47 0 -75 28zM174 415q-29 27 -29 72q0 43 29 72q29 27 74 27q48 0 76 -27t28 -72t-28 -72t-76 -27q-45 0 -74 27zM676 415q-28 27 -28 72q0 44 28 72q29 27 76 27t75 -27
t28 -72t-28 -72t-75 -27t-76 27zM423 276q-30 29 -30 74q0 46 30 74q29 29 77 29q47 0 78 -29q29 -29 29 -74t-29 -74q-31 -29 -78 -29q-48 0 -77 29zM174 141q-29 27 -29 72q0 43 29 72q29 27 74 27q48 0 76 -27t28 -72t-28 -72t-76 -27q-45 0 -74 27zM676 141
q-28 27 -28 72q0 44 28 72q29 27 76 27t75 -27t28 -72t-28 -72t-75 -27t-76 27zM425 11q-28 27 -28 72t28 73q29 27 75 27q48 0 76 -27q27 -28 27 -73t-27 -72q-28 -27 -76 -27q-46 0 -75 27z" />
    <glyph glyph-name="glyph484" unicode="&#xe028;" horiz-adv-x="796" 
d="M126 461q0 135 72 210q71 75 200 75q130 0 201 -74t71 -211v-222q0 -136 -71 -210q-72 -75 -201 -75t-200 74q-72 74 -72 211v222zM488 402q32 34 32 88t-32 88q-33 34 -90 34q-56 0 -89 -34q-33 -33 -33 -88t33 -88q33 -34 89 -34q57 0 90 34z" />
    <glyph glyph-name="glyph485" unicode="&#xe029;" horiz-adv-x="796" 
d="M197 28q-71 74 -71 211v222q0 137 72 210q71 75 200 75t200 -74q72 -73 72 -211v-222q0 -135 -72 -210q-70 -75 -200 -75t-201 74zM488 122q32 34 32 88t-32 88q-34 34 -90 34q-57 0 -90 -34q-32 -34 -32 -88t32 -88q33 -34 90 -34q56 0 90 34z" />
    <glyph glyph-name="glyph486" unicode="&#xe02a;" horiz-adv-x="1072" 
d="M855 735l103 -98l-78 -96l80 -96l-80 -96l80 -96l-80 -96l78 -96l-103 -98l-101 78l-101 -80l-101 80l-101 -80l-101 80l-101 -78l-103 98l78 96l-80 96l80 96l-80 96l80 96l-78 96l103 98l101 -78l101 80l101 -80l101 80l101 -80z" />
    <glyph glyph-name="glyph487" unicode="&#xe10b;" horiz-adv-x="700" 
d="M53 -100v800h594v-800h-594zM332 201q45 -45 85 -45q33 0 56 26q22 25 24 68l-7 2q-15 -29 -43 -29q-27 0 -62 41q19 24 46 42q15 -25 43 -25q21 0 36 15q14 17 14 39t-14 38q-16 14 -36 14q-34 0 -60 -38q-1 38 -49 37q9 17 9 34q0 29 -25 50q-27 24 -70 24
q-48 0 -80 -26q-29 -26 -29 -59q0 -38 31 -69q-82 -25 -82 -91q0 -39 32 -66t77 -27q64 0 104 45zM250 428q0 29 27 29q29 0 29 -38q0 -21 -18 -50q-38 35 -38 59zM337 319q-6 7 -11.5 12.5l-10.5 10.5q13 8 23.5 17t18.5 17q15 -15 15 -34q0 -17 -16 -46zM227 234
q-15 17 -15 39q0 24 16 40l15 -15q5 -5 9 -9.5t9 -9.5q11 -13 21 -25t20 -23q-15 -12 -38 -12q-22 0 -37 15zM355 73h6l4 8q5 -8 14 -8t13 7q3 6 3 14q0 20 -15 20q-3 0 -8 -3q-3 -1 -5 -6v27h-18v-7h6v-52zM128 74h30v7h-10v16h4q4 0 6 -8h7v23h-7q-2 -8 -6 -8h-4v18h12
q10 0 11 -13h8v20h-51v-7h7v-41h-7v-7zM303 86l-5 2q-1 -2 -1 -3t-1 -2l-2 -2h-1q-4 0 -4 5v20h13v7h-13v11l-12 -2v-9h-7v-7h7v-20q0 -13 12 -13q13 0 14 13zM222 74h22v7h-4v15q0 10 7 10q6 0 6 -7v-18h-4v-7h22v7h-6v19q0 14 -12 14q-9 0 -14 -11v10h-17v-7h6v-25h-6v-7z
M219 94q0 20 -21 20t-21 -20q0 -21 21 -21t21 21zM340 86q0 11 -12 12q-12 2 -12 6q0 1 1 2q2 2 4 2q6 0 10 -7h7v13h-6l-2 -5q-2 5 -11 5q-6 0 -10 -4t-4 -8q0 -10 12 -12l4 -1l4 -1q4 -1 4 -5q0 -1 -1 -2q-2 -2 -4 -2q-4 0 -12 9h-7v-14h7l1 4l2 -1l3 -2q6 -2 8 -2
q14 0 14 13zM425 75l13 31h5v7h-17v-7h5l-8 -20l-9 20h6v7h-25v-7h5l10 -20t6 -13q-2 -8 -8 -8q3 3 1 6q-1 4 -6 4q-7 0 -7 -7q0 -9 11 -9t18 16zM190 94q0 15 8 15t8 -15q0 -16 -8 -16t-8 16zM367 93q0 13 8 13q7 0 7 -13t-7 -13q-8 0 -8 13zM279 0h23v7h-5v25h14v-25h-5
v-7h23v7h-6v52l-10 -2q-1 1 -4 1q-2 1 -5 1q-8 0 -13 -5q-6 -4 -6 -14v-1h-7v-7h7v-25h-6v-7zM525 22h-8q-1 -16 -14 -16q-16 0 -16 22t14 22q11 0 15 -16h8v22h-8l-1 -6q-7 7 -16 7q-10 0 -18 -9q-9 -9 -9 -21q0 -28 29 -28q22 0 24 23zM127 0h29v7h-8v18h22v-18h-8v-7h29
v7h-8v41h8v7h-29v-7h8v-16h-22v16h8v7h-29v-7h8v-41h-8v-7zM297 39v3q0 12 6 12q2 0 3 -1q-1 -1 -1 -3q0 -6 6 -6v-5h-14zM443 5q5 -6 12 -6q12 0 13 12l-5 1l-2 -4q-1 -1 -2 -1h-1l-2 1q-1 1 -1.5 2t-1.5 2l5 7l4 7h5v7h-18v-7h6q-1 -1 -3 -5l-2 -3l-1 -1l-6 6q-2 3 -6 7
q11 5 11 12q0 4 -4 8t-10 4q-17 0 -17 -14q0 -6 6 -12q-13 -1 -13 -15t18 -14q9 0 15 6zM428 43q0 5 5 5q6 0 6 -6q0 -7 -5 -9q-6 6 -6 10zM276 13h-7q-1 -7 -9 -7q-10 0 -10 12h26q1 22 -19 22t-20 -21q0 -20 21 -20q16 0 18 14zM369 13h-7q-1 -7 -9 -7q-10 0 -10 12h26
q1 22 -19 22t-20 -21q0 -20 21 -20q16 0 18 14zM234 20q0 20 -21 20t-21 -20q0 -21 21 -21t21 21zM570 20q0 20 -21 20t-21 -20q0 -21 21 -21t21 21zM371 0h26v7h-8v16q2 4 4 6l2 2l1 1v-1q0 -6 6 -6q7 0 7 7q0 8 -8 8q-7 0 -12 -11v10h-18v-7h6v-25h-6v-7zM205 20
q0 15 8 15t8 -15q0 -16 -8 -16t-8 16zM541 20q0 15 8 15t8 -15q0 -16 -8 -16t-8 16zM250 23q0 12 7 12t7 -12h-14zM343 23q0 12 7 12t7 -12h-14zM422 16q0 2 2 6l1 2l1 1l7 -8l7 -8l-5 -2q-1 -1 -3 -1q-10 0 -10 10zM586 6q0 7 -7 7t-7 -7t7 -7t7 7z" />
    <glyph glyph-name="uniFEFF" unicode="&#xfeff;" horiz-adv-x="0" 
 />
    <glyph glyph-name="u1F441" horiz-adv-x="978" 
d="M53 350q168 304 436 304q270 0 436 -304q-166 -304 -436 -304q-268 0 -436 304zM628 219q53 51 53 131q0 81 -53 132q-52 51 -139 51q-84 0 -138 -51q-54 -52 -54 -132q0 -81 54 -132t138 -51q87 0 139 52zM424 286q-23 25 -23 64t23 64q24 24 65 24t65 -24
q23 -25 23 -64t-23 -64q-24 -24 -65 -24t-65 24z" />
    <glyph glyph-name="u1F451" horiz-adv-x="1180" 
d="M228 112l-129 435l41 26l132 -110l20 4l29 170l42 8l109 -142l20 1l77 210h42l77 -210l20 -1l109 144l42 -10l29 -170l20 -4l132 110l41 -26l-129 -435h-724z" />
    <glyph glyph-name="u1F4AC" horiz-adv-x="1098" 
d="M133 -20q88 60 150.5 116.5t100.5 113.5q-112 29 -174 90q-64 61 -64 148q0 121 112 206q119 92 301 92t301 -94q112 -88 112 -202q0 -101 -55 -175q-66 -90 -222 -165q-218 -106 -550 -163z" />
    <glyph glyph-name="u1F4C8" horiz-adv-x="1062" 
d="M726 -40v769h186v-769h-186zM419 -40v559h185v-559h-185zM111 -40v349h186v-349h-186z" />
    <glyph glyph-name="u1F4C9" horiz-adv-x="1062" 
d="M150 -40v769h186v-769h-186zM458 -40v559h185v-559h-185zM765 -40v349h186v-349h-186z" />
    <glyph glyph-name="u1F4D5" horiz-adv-x="1019" 
d="M388 -29q-66 0 -118 31q-19 11 -40.5 29t-44.5 44q-43 46 -43 120v357q0 97 46 143q35 35 106 35h479v-185h-14l-100 90h-321q-43 0 -41 -32q2 -21 36 -49q50 -45 108 -45h456v-538h-509z" />
    <glyph glyph-name="u1F4F1" horiz-adv-x="917" 
d="M303 -42q-73 0 -107 32q-32 34 -32 107v506q0 73 32 107q34 32 107 32h311q73 0 107 -32q32 -34 32 -107v-506q0 -73 -32 -107q-34 -32 -107 -32h-311zM546 78q51 0 51 52q0 51 -51 51h-175q-52 0 -52 -51q0 -52 52 -52h175z" />
    <glyph glyph-name="u1F50D" horiz-adv-x="919" 
d="M209 175q-95 89 -95 237t95 241q96 93 254 93q157 0 252 -92q96 -91 96 -242q0 -158 -112 -251l120 -210l-174 -91l-127 227l-13 -1l-14 -1l-28 -1q-160 0 -254 91zM573 305q41 41 41 107t-41 109q-42 42 -110 42t-109 -42q-41 -43 -41 -109t41 -107q41 -42 112 -42
q67 0 107 42z" />
    <glyph glyph-name="u1F512" horiz-adv-x="1066" 
d="M131 -29v429h113v75q0 124 78 197q77 74 211 74q132 0 212 -74q77 -74 77 -197v-75h113v-429h-804zM426 400h214v77q0 114 -107 114t-107 -114v-77z" />
    <glyph glyph-name="u1F514" horiz-adv-x="1034" 
d="M116 91l10 134q2 20 12 36l14 14l8 9l10 9l50 50l17 95q21 173 175 222l14 94h182l14 -94q154 -49 175 -222l17 -95l50 -50l10 -9l8 -9l14 -14q11 -16 12 -36l10 -134h-311q27 -30 27 -70v-2q0 -43 -31 -73q-34 -32 -86 -32q-55 0 -87 32q-30 29 -30 73v2q0 39 28 70
h-312z" />
    <glyph glyph-name="u1F517" horiz-adv-x="1461" 
d="M341 -18q-228 141 -228 352q0 164 121 276q127 116 325 116q197 0 315 -96q112 -91 112 -235q0 -42 -15 -104l-182 -21q15 48 15 98q0 85 -61 134q-65 53 -182 53q-110 0 -180 -64q-69 -61 -69 -152q0 -84 47 -140q47 -57 131 -113zM592 72q-112 91 -112 234q0 43 15 104
l182 21q-15 -48 -15 -97q0 -86 62 -136q64 -52 181 -52q110 0 180 64q69 62 69 153q0 83 -46 138q-23 28 -55.5 56.5t-75.5 57.5l149 104q227 -144 227 -351q0 -164 -121 -276q-126 -117 -325 -117q-197 0 -315 97z" />
    <glyph glyph-name="u1F553" horiz-adv-x="1078" 
d="M238 62q-112 108 -112 288t112 288q113 108 301 108q189 0 301 -108t112 -288t-112 -288t-301 -108q-188 0 -301 108zM484 302l277 -176v133l-161 101v263h-116v-321z" />
    <glyph glyph-name="u1F5DD" horiz-adv-x="853" 
d="M690 233v-206l-195 3v-70h-172v366q-101 15 -161 66q-66 56 -66 137q0 101 95 161q89 56 218 56q132 0 218 -55q95 -60 95 -162q0 -82 -66 -136q-58 -49 -161 -67v-96zM279 529q0 -33 37 -51q36 -17 93 -17q56 0 92 17q38 18 38 51q0 34 -38 52q-36 17 -92 17
q-130 0 -130 -69z" />
    <glyph glyph-name="u1F6AB" horiz-adv-x="1078" 
d="M232 64q-117 110 -117 286q0 180 115 288q116 108 307 108q192 0 311 -110q116 -110 116 -286q0 -180 -115 -288t-308 -108q-191 0 -309 110zM318 271l163 148l161 140q-46 20 -103 20q-102 0 -167 -63t-65 -168q0 -38 11 -77zM707 184q64 63 64 168q0 38 -11 77
l-163 -148l-160 -140q46 -20 102 -20q104 0 168 63z" />
    <glyph glyph-name="u1F6D2" horiz-adv-x="1077" 
d="M84 576l5 153h259l29 -137h554l-61 -301l-595 -45l-66 330h-125zM261 20q-28 28 -28 71v2q0 42 28 70q30 31 81 31q50 0 80 -31q28 -28 28 -70v-2q0 -43 -28 -71q-30 -31 -80 -31q-51 0 -81 31zM720 20q-28 28 -28 71v2q0 42 28 70q30 31 81 31q50 0 80 -31
q28 -28 28 -70v-2q0 -43 -28 -71q-30 -31 -80 -31q-51 0 -81 31z" />
    <glyph glyph-name="u1F6E1" horiz-adv-x="1020" 
d="M505 -53q-192 104 -275 205q-104 127 -104 308q0 105 35 219q167 70 349 70t349 -70q35 -114 35 -219q0 -181 -104 -308q-83 -101 -275 -205h-10z" />
    <glyph glyph-name="A.1" horiz-adv-x="788" 
d="M28 0l200 602h333l199 -602h-213l-33 109h-244l-32 -109h-210zM369 437l-59 -187h164l-58 187h-47z" />
    <glyph glyph-name="Euro.aalt" 
d="M18 204l11 119h87v21q0 7 0.5 16.5t1.5 22.5h-84l12 119h98q38 101 123 156q91 61 225 61q103 0 190 -43v-163h-1q-100 47 -180 47q-119 0 -166 -75h221v-102h-252q-1 -5 -1 -14v-22q0 -19 1 -24h252v-102h-227q43 -82 170 -82q88 0 182 45h1v-164q-87 -39 -200 -39
q-148 0 -231 63q-84 63 -115 160h-118z" />
    <glyph glyph-name="uni1E9E.1" horiz-adv-x="818" 
d="M289 0h-205v602h651v-153l-152 -119l29 -7q89 -24 126 -63q37 -37 37 -103q0 -175 -245 -175q-24 0 -48 1.5t-48 5.5q-51 7 -80 18v149h1q14 -5 31 -10t37 -9q44 -10 85 -10q76 0 76 43q0 22 -23 34q-24 13 -106 31l-50 10v97l136 110h-252v-452z" />
    <glyph glyph-name="uni1E9E.1118" horiz-adv-x="1382" 
d="M71 40v174h1q152 -77 292 -77q91 0 91 36q0 19 -25 29q-11 4 -37 10.5t-68 14.5q-134 24 -187 54q-71 44 -71 132q0 95 76 150q79 56 219 56q128 0 248 -49v-171h-1q-127 66 -256 66q-86 0 -86 -38q1 -18 25 -26q14 -5 39.5 -10.5t62.5 -12.5q127 -22 184 -58
q73 -46 73 -134q0 -89 -63 -142q-76 -62 -230 -62q-149 0 -287 58zM762 40v174h1q152 -77 292 -77q91 0 91 36q0 19 -25 29q-11 4 -37 10.5t-68 14.5q-134 24 -187 54q-71 44 -71 132q0 95 76 150q79 56 219 56q128 0 248 -49v-171h-1q-127 66 -256 66q-86 0 -86 -38
q1 -18 25 -26q14 -5 39.5 -10.5t62.5 -12.5q127 -22 184 -58q73 -46 73 -134q0 -89 -63 -142q-76 -62 -230 -62q-149 0 -287 58z" />
    <glyph glyph-name="Idotaccent.1" horiz-adv-x="376" 
d="M86 0v602h204v-602h-204zM97 694q-30 26 -30 70v1q0 45 31 70q31 28 90 28t90 -28q30 -25 30 -70v-1q0 -44 -30 -70q-32 -28 -91 -28t-90 28z" />
    <glyph glyph-name="O.1" horiz-adv-x="807" 
d="M146 65q-96 87 -96 235t96 236q96 87 258 87t258 -87q95 -86 95 -234t-96 -237q-96 -87 -258 -87t-257 87zM511 189q41 41 41 111q0 72 -40 112t-109 40t-108 -39q-40 -40 -40 -112q0 -71 40 -111t109 -40q68 0 107 39z" />
    <glyph glyph-name="R_p" horiz-adv-x="1494" 
d="M85 0v700h383q272 0 272 -250q0 -167 -131 -223l165 -227h-232l-129 186h-123v-186h-205zM835 -208v761h199l2 -73q69 91 178 91q108 0 175 -75q69 -76 69 -203q0 -137 -84 -224q-82 -84 -209 -84q-68 0 -125 27v-220h-205zM290 346h150q96 0 96 95t-96 95h-150v-190z
M1217 179q36 38 36 101q0 62 -32 97q-31 33 -83 33q-55 0 -98 -35v-205q41 -27 87 -27q56 0 90 36z" />
    <glyph glyph-name="_252" horiz-adv-x="434" 
d="M14 209q0 108 52 166t152 58q202 0 202 -223q0 -108 -52 -166q-53 -59 -152 -59q-202 0 -202 224zM281 209q0 104 -64 104t-64 -104t64 -104t64 104z" />
    <glyph glyph-name="_253" horiz-adv-x="326" 
d="M108 0v301h-89l18 117h219v-418h-148z" />
    <glyph glyph-name="_254" horiz-adv-x="434" 
d="M402 115v-115h-341v115h106v186h-107l17 117h234v-303h91z" />
    <glyph glyph-name="_255" horiz-adv-x="434" 
d="M42 0v113l96 70q79 54 99 73q17 17 17 29q0 24 -44 24q-67 0 -150 -53h-1v130q89 47 176 47q78 0 122 -32q44 -33 44 -93q0 -51 -36 -86q-36 -36 -117 -90l-21 -15h170v-117h-355z" />
    <glyph glyph-name="_256" horiz-adv-x="434" 
d="M47 10v120h1q89 -27 150 -27q71 0 71 31q0 18 -23 26q-21 7 -103 7h-17v61l112 75h-189l3 115h335v-106l-105 -71q127 -13 127 -115q0 -67 -56 -105q-54 -36 -144 -36q-87 0 -162 25z" />
    <glyph glyph-name="_257" horiz-adv-x="434" 
d="M240 0v75h-227v104l100 239h261v-233h54l-7 -110h-47v-75h-134zM147 181h99v129h-48z" />
    <glyph glyph-name="_258" horiz-adv-x="434" 
d="M49 9v119h1q85 -25 154 -25q39 0 53 10q11 8 11 21q0 12 -9 18q-20 14 -123 14h-81l6 252h319l5 -115h-202l-1 -44h6q143 0 187 -44q32 -32 32 -87q0 -67 -52 -104q-52 -38 -139 -38q-86 0 -167 23z" />
    <glyph glyph-name="_259" horiz-adv-x="434" 
d="M25 198q0 111 61 173q62 62 167 62q65 0 132 -23v-119q-61 27 -123 27q-45 0 -74 -21q-29 -22 -28 -60q44 29 106 29q70 0 107 -31q41 -33 41 -94q0 -72 -53 -114q-52 -41 -134 -41q-202 0 -202 212zM160 156q5 -60 65 -60q55 0 55 42q0 37 -49 37q-39 0 -71 -19z" />
    <glyph glyph-name="_260" horiz-adv-x="434" 
d="M34 238v180h374v-142l-163 -276h-156l166 280v28h-92v-70h-129z" />
    <glyph glyph-name="_261" horiz-adv-x="434" 
d="M19 112q0 72 83 101q-73 25 -73 91q0 128 188 128t188 -128q0 -66 -73 -91q83 -29 83 -101q0 -126 -198 -126t-198 126zM275 289q0 39 -58 39t-58 -39q0 -37 58 -37t58 37zM280 130q0 40 -63 40t-63 -40t63 -40t63 40z" />
    <glyph glyph-name="_262" horiz-adv-x="434" 
d="M412 220q0 -111 -61 -173q-62 -62 -167 -62q-65 0 -132 23v119q62 -27 123 -27q46 0 74 21q29 22 28 60q-44 -29 -106 -29q-70 0 -107 31q-41 33 -41 94q0 72 53 114q52 41 134 41q202 0 202 -212zM206 243q39 0 71 19q-4 60 -65 60q-55 0 -55 -42q0 -37 49 -37z" />
    <glyph glyph-name="_737" horiz-adv-x="500" 
d="M189 594v182h184v-24l-78 -158h-106z" />
    <glyph glyph-name="_748" horiz-adv-x="500" 
d="M375 843l-55 -218h-206v20l142 198h119z" />
    <glyph glyph-name="a.smcp" horiz-adv-x="788" 
d="M28 0l200 602h333l199 -602h-213l-33 109h-244l-32 -109h-210zM369 437l-59 -187h164l-58 187h-47z" />
    <glyph glyph-name="aacute.1" horiz-adv-x="788" 
d="M28 0l200 602h333l199 -602h-213l-33 109h-244l-32 -109h-210zM369 437l-59 -187h164l-58 187h-47zM296 674l124 178h226v-14l-176 -164h-174z" />
    <glyph glyph-name="aacute.1160" horiz-adv-x="788" 
d="M28 0l200 602h333l199 -602h-213l-33 109h-244l-32 -109h-210zM369 437l-59 -187h164l-58 187h-47zM296 674l124 178h226v-14l-176 -164h-174z" />
    <glyph glyph-name="abreve.1" horiz-adv-x="788" 
d="M28 0l200 602h333l199 -602h-213l-33 109h-244l-32 -109h-210zM369 437l-59 -187h164l-58 187h-47zM237 705q-58 40 -58 117q0 23 8 63h138l-1 -8l-1 -8q-1 -4 -1 -7.5v-5.5q0 -57 72 -57q71 0 71 57q0 2 -0.5 9.5t-1.5 19.5h138q8 -40 8 -63q0 -77 -58 -117
q-57 -39 -157 -39t-157 39z" />
    <glyph glyph-name="abreve.1163" horiz-adv-x="788" 
d="M28 0l200 602h333l199 -602h-213l-33 109h-244l-32 -109h-210zM369 437l-59 -187h164l-58 187h-47zM237 705q-58 40 -58 117q0 23 8 63h138l-1 -8l-1 -8q-1 -4 -1 -7.5v-5.5q0 -57 72 -57q71 0 71 57q0 2 -0.5 9.5t-1.5 19.5h138q8 -40 8 -63q0 -77 -58 -117
q-57 -39 -157 -39t-157 39z" />
    <glyph glyph-name="acircumflex.1" horiz-adv-x="788" 
d="M28 0l200 602h333l199 -602h-213l-33 109h-244l-32 -109h-210zM369 437l-59 -187h164l-58 187h-47zM147 674l131 195h232l131 -195h-174l-55 79h-37l-55 -79h-173z" />
    <glyph glyph-name="acircumflex.1162" horiz-adv-x="788" 
d="M28 0l200 602h333l199 -602h-213l-33 109h-244l-32 -109h-210zM369 437l-59 -187h164l-58 187h-47zM147 674l131 195h232l131 -195h-174l-55 79h-37l-55 -79h-173z" />
    <glyph glyph-name="adieresis.1" horiz-adv-x="788" 
d="M28 0l200 602h333l199 -602h-213l-33 109h-244l-32 -109h-210zM369 437l-59 -187h164l-58 187h-47zM185 693q-27 26 -27 68t27 69q29 26 75 26t75 -26q27 -25 27 -69q0 -42 -27 -68q-28 -27 -75 -27q-46 0 -75 27zM454 693q-27 26 -27 68t27 69q29 26 75 26t75 -26
q27 -25 27 -69q0 -42 -27 -68q-28 -27 -75 -27q-46 0 -75 27z" />
    <glyph glyph-name="adieresis.1165" horiz-adv-x="788" 
d="M28 0l200 602h333l199 -602h-213l-33 109h-244l-32 -109h-210zM369 437l-59 -187h164l-58 187h-47zM185 693q-27 26 -27 68t27 69q29 26 75 26t75 -26q27 -25 27 -69q0 -42 -27 -68q-28 -27 -75 -27q-46 0 -75 27zM454 693q-27 26 -27 68t27 69q29 26 75 26t75 -26
q27 -25 27 -69q0 -42 -27 -68q-28 -27 -75 -27q-46 0 -75 27z" />
    <glyph glyph-name="ae.1" horiz-adv-x="1128" 
d="M515 0v115h-230l-61 -115h-220l332 602h720l8 -151h-346v-85h269v-131h-269v-83h357l-8 -152h-552zM461 451l-101 -192h155v192h-54z" />
    <glyph glyph-name="ae.1143" horiz-adv-x="1128" 
d="M515 0v115h-230l-61 -115h-220l332 602h720l8 -151h-346v-85h269v-131h-269v-83h357l-8 -152h-552zM461 451l-101 -192h155v192h-54z" />
    <glyph glyph-name="aeacute.1" horiz-adv-x="1128" 
d="M515 0v115h-230l-61 -115h-220l332 602h720l8 -151h-346v-85h269v-131h-269v-83h357l-8 -152h-552zM461 451l-101 -192h155v192h-54zM526 674l124 178h226v-14l-176 -164h-174z" />
    <glyph glyph-name="aeacute.1232" horiz-adv-x="1128" 
d="M515 0v115h-230l-61 -115h-220l332 602h720l8 -151h-346v-85h269v-131h-269v-83h357l-8 -152h-552zM461 451l-101 -192h155v192h-54zM526 674l124 178h226v-14l-176 -164h-174z" />
    <glyph glyph-name="agrave.1" horiz-adv-x="788" 
d="M28 0l200 602h333l199 -602h-213l-33 109h-244l-32 -109h-210zM369 437l-59 -187h164l-58 187h-47zM495 674h-175l-176 164v14h227z" />
    <glyph glyph-name="agrave.1161" horiz-adv-x="788" 
d="M28 0l200 602h333l199 -602h-213l-33 109h-244l-32 -109h-210zM369 437l-59 -187h164l-58 187h-47zM495 674h-175l-176 164v14h227z" />
    <glyph glyph-name="amacron.1" horiz-adv-x="788" 
d="M28 0l200 602h333l199 -602h-213l-33 109h-244l-32 -109h-210zM369 437l-59 -187h164l-58 187h-47zM187 695v133h414v-133h-414z" />
    <glyph glyph-name="amacron.1166" horiz-adv-x="788" 
d="M28 0l200 602h333l199 -602h-213l-33 109h-244l-32 -109h-210zM369 437l-59 -187h164l-58 187h-47zM187 695v133h414v-133h-414z" />
    <glyph glyph-name="ampersand.1" horiz-adv-x="833" 
d="M116 24q-59 44 -59 121q0 73 43 116q21 22 50 45t67 46l22 13l-89 88v149h502l7 -145h-284l187 -189l190 141h1v-182l-88 -65l159 -162h-214l-72 70q-137 -89 -268 -89q-98 0 -154 43zM298 129q53 0 132 49l-91 89l-10 -6q-85 -51 -85 -89q0 -43 54 -43z" />
    <glyph glyph-name="aogonek.1" horiz-adv-x="788" 
d="M28 0l200 602h333l199 -602h-213l-33 109h-244l-32 -109h-210zM369 437l-59 -187h164l-58 187h-47zM692 50l68 -50l-53 -49q-67 -63 -67 -87q0 -35 59 -35q18 0 36 3q26 5 45 13v-134q-61 -19 -122 -19q-109 0 -155 43q-35 30 -35 79q0 90 150 186z" />
    <glyph glyph-name="aogonek.1153" horiz-adv-x="788" 
d="M28 0l200 602h333l199 -602h-213l-33 109h-244l-32 -109h-210zM369 437l-59 -187h164l-58 187h-47zM692 50l68 -50l-53 -49q-67 -63 -67 -87q0 -35 59 -35q18 0 36 3q26 5 45 13v-134q-61 -19 -122 -19q-109 0 -155 43q-35 30 -35 79q0 90 150 186z" />
    <glyph glyph-name="aring.1" horiz-adv-x="788" 
d="M28 0l200 602h333l199 -602h-213l-33 109h-244l-32 -109h-210zM369 437l-59 -187h164l-58 187h-47zM255 707q-51 42 -51 118q0 77 52 120q50 42 138 42q87 0 139 -41q52 -43 52 -120q0 -75 -53 -119q-52 -41 -140 -41q-87 0 -137 41zM463 826q0 60 -70 60t-70 -60
q0 -58 71 -58q69 0 69 58z" />
    <glyph glyph-name="aring.1157" horiz-adv-x="788" 
d="M28 0l200 602h333l199 -602h-213l-33 109h-244l-32 -109h-210zM369 437l-59 -187h164l-58 187h-47zM255 707q-51 42 -51 118q0 77 52 120q50 42 138 42q87 0 139 -41q52 -43 52 -120q0 -75 -53 -119q-52 -41 -140 -41q-87 0 -137 41zM463 826q0 60 -70 60t-70 -60
q0 -58 71 -58q69 0 69 58z" />
    <glyph glyph-name="aringacute.1" horiz-adv-x="788" 
d="M28 0l200 602h333l199 -602h-213l-33 109h-244l-32 -109h-210zM369 437l-59 -187h164l-58 187h-47zM255 707q-51 42 -51 118q0 77 52 120q50 42 138 42q87 0 139 -41q52 -43 52 -120q0 -75 -53 -119q-52 -41 -140 -41q-87 0 -137 41zM463 826q0 60 -70 60t-70 -60
q0 -58 71 -58q69 0 69 58zM296 1042l124 178h226v-14l-176 -164h-174z" />
    <glyph glyph-name="aringacute.1158" horiz-adv-x="788" 
d="M28 0l200 602h333l199 -602h-213l-33 109h-244l-32 -109h-210zM369 437l-59 -187h164l-58 187h-47zM255 707q-51 42 -51 118q0 77 52 120q50 42 138 42q87 0 139 -41q52 -43 52 -120q0 -75 -53 -119q-52 -41 -140 -41q-87 0 -137 41zM463 826q0 60 -70 60t-70 -60
q0 -58 71 -58q69 0 69 58zM296 1042l124 178h226v-14l-176 -164h-174z" />
    <glyph glyph-name="asciicircum.aalt" 
d="M44 334l181 366h270l184 -366h-202l-98 196h-39l-95 -196h-201z" />
    <glyph glyph-name="asciitilde.aalt" 
d="M63 410q80 86 166 86q63 0 166 -58q65 -38 105 -38q63 0 159 110h1v-219q-80 -86 -165 -86q-63 0 -167 58q-65 38 -104 38q-64 0 -160 -110h-1v219z" />
    <glyph glyph-name="at.1" horiz-adv-x="1115" 
d="M656 204q-68 -71 -158 -71q-64 0 -102 32q-36 32 -36 83q0 48 33 81q56 59 236 71q-1 54 -67 54q-80 0 -163 -51v131q87 45 189 45q192 0 192 -175v-96q0 -58 50 -58q70 0 70 153q0 128 -74 199q-79 75 -240 75q-175 0 -266 -88q-93 -88 -93 -256q0 -310 355 -310
q143 0 283 58l-2 -141q-60 -23 -126 -36q-85 -17 -163 -17q-246 0 -373 115q-127 114 -127 330q0 222 138 352q138 129 374 129q222 0 343 -111q116 -107 116 -291q0 -124 -54 -201q-54 -76 -170 -76q-113 0 -165 70zM598 246q20 9 31 20v58q-91 -11 -113 -33q-6 -4 -7 -10
q-2 -8 -2 -13q0 -32 44 -32q24 0 47 10z" />
    <glyph glyph-name="atilde.1" horiz-adv-x="788" 
d="M28 0l200 602h333l199 -602h-213l-33 109h-244l-32 -109h-210zM369 437l-59 -187h164l-58 187h-47zM601 719q-24 -24 -50 -38q-32 -17 -66 -17q-42 0 -116 34q-54 24 -76 24q-46 0 -106 -66h-1v153q55 55 117 55q42 0 116 -34q54 -24 76 -24q48 0 105 67h1v-154z" />
    <glyph glyph-name="atilde.1164" horiz-adv-x="788" 
d="M28 0l200 602h333l199 -602h-213l-33 109h-244l-32 -109h-210zM369 437l-59 -187h164l-58 187h-47zM601 719q-24 -24 -50 -38q-32 -17 -66 -17q-42 0 -116 34q-54 24 -76 24q-46 0 -106 -66h-1v153q55 55 117 55q42 0 116 -34q54 -24 76 -24q48 0 105 67h1v-154z" />
    <glyph glyph-name="b.1" horiz-adv-x="758" 
d="M84 0v602h404q97 0 152 -38q56 -39 56 -113q0 -105 -103 -139q116 -47 116 -142q0 -170 -235 -170h-390zM286 362h139q67 0 67 51q0 48 -66 48h-140v-99zM286 142l150 1q68 0 68 52t-70 52h-148v-105z" />
    <glyph glyph-name="b.1119" horiz-adv-x="758" 
d="M84 0v602h404q97 0 152 -38q56 -39 56 -113q0 -105 -103 -139q116 -47 116 -142q0 -170 -235 -170h-390zM286 362h139q67 0 67 51q0 48 -66 48h-140v-99zM286 142l150 1q68 0 68 52t-70 52h-148v-105z" />
    <glyph glyph-name="backslash.1" horiz-adv-x="596" 
d="M558 -141h-190l-331 982h191z" />
    <glyph glyph-name="bar.1" horiz-adv-x="557" 
d="M186 -141v982h185v-982h-185z" />
    <glyph glyph-name="bar.2" horiz-adv-x="543" 
d="M179 -141v982h185v-982h-185z" />
    <glyph glyph-name="braceleft.1" horiz-adv-x="575" 
d="M12 335v30l161 153l-7 59l-2 25q-1 8 -1 13.5v10.5q0 116 72 177q68 57 183 57q67 0 121 -17v-158h-1q-40 15 -80 15q-111 0 -111 -116v-8.5t1 -10.5l2 -20l12 -88l-132 -107l132 -107l-12 -88l-2 -20q-1 -6 -1 -10.5v-8.5q0 -115 111 -115q40 0 80 15h1v-160
q-59 -17 -121 -17q-115 0 -183 57q-72 61 -72 177v10.5t1 13.5l2 25l7 60z" />
    <glyph glyph-name="braceright.1" horiz-adv-x="575" 
d="M563 365v-30l-161 -153l7 -59l2 -25q1 -8 1 -13.5v-10.5q0 -116 -72 -177q-67 -57 -183 -57q-67 0 -121 17v158h1q41 -15 80 -15q111 0 111 116v8.5t-1 10.5l-2 20l-12 88l132 107l-132 107l12 88l2 20q1 6 1 10.5v8.5q0 115 -111 115q-39 0 -80 -15h-1v160q59 17 121 17
q116 0 183 -57q72 -61 72 -177v-10.5t-1 -13.5l-2 -25l-7 -60z" />
    <glyph glyph-name="bracketleft.1" horiz-adv-x="482" 
d="M66 -141v982h375v-153h-188v-676h188v-153h-375z" />
    <glyph glyph-name="bracketright.1" horiz-adv-x="482" 
d="M416 840v-982h-375v153h188v676h-188v153h375z" />
    <glyph glyph-name="bullet.1" horiz-adv-x="454" 
d="M95 232q-45 47 -45 117v3q0 70 45 116q50 50 132 50q83 0 131 -50q45 -46 45 -116v-3q0 -70 -45 -117q-48 -50 -131 -50q-82 0 -132 50z" />
    <glyph glyph-name="c.1" horiz-adv-x="696" 
d="M142 69q-92 84 -92 231q0 144 97 232q98 87 259 87q130 0 227 -57v-185h-1q-110 71 -207 71q-74 0 -120 -40q-48 -40 -48 -106q0 -69 46 -108q44 -40 121 -40q99 0 208 72h1v-188q-22 -11 -45.5 -20.5t-49.5 -16.5q-66 -19 -135 -19q-166 0 -261 87z" />
    <glyph glyph-name="c.1120" horiz-adv-x="696" 
d="M142 69q-92 84 -92 231q0 144 97 232q98 87 259 87q130 0 227 -57v-185h-1q-110 71 -207 71q-74 0 -120 -40q-48 -40 -48 -106q0 -69 46 -108q44 -40 121 -40q99 0 208 72h1v-188q-22 -11 -45.5 -20.5t-49.5 -16.5q-66 -19 -135 -19q-166 0 -261 87z" />
    <glyph glyph-name="cacute.1" horiz-adv-x="696" 
d="M142 69q-92 84 -92 231q0 144 97 232q98 87 259 87q130 0 227 -57v-185h-1q-110 71 -207 71q-74 0 -120 -40q-48 -40 -48 -106q0 -69 46 -108q44 -40 121 -40q99 0 208 72h1v-188q-22 -11 -45.5 -20.5t-49.5 -16.5q-66 -19 -135 -19q-166 0 -261 87zM292 690l124 178h226
v-14l-176 -164h-174z" />
    <glyph glyph-name="cacute.1167" horiz-adv-x="696" 
d="M142 69q-92 84 -92 231q0 144 97 232q98 87 259 87q130 0 227 -57v-185h-1q-110 71 -207 71q-74 0 -120 -40q-48 -40 -48 -106q0 -69 46 -108q44 -40 121 -40q99 0 208 72h1v-188q-22 -11 -45.5 -20.5t-49.5 -16.5q-66 -19 -135 -19q-166 0 -261 87zM292 690l124 178h226
v-14l-176 -164h-174z" />
    <glyph glyph-name="ccaron.1" horiz-adv-x="696" 
d="M142 69q-92 84 -92 231q0 144 97 232q98 87 259 87q130 0 227 -57v-185h-1q-110 71 -207 71q-74 0 -120 -40q-48 -40 -48 -106q0 -69 46 -108q44 -40 121 -40q99 0 208 72h1v-188q-22 -11 -45.5 -20.5t-49.5 -16.5q-66 -19 -135 -19q-166 0 -261 87zM637 885l-131 -195
h-232l-131 195h174l55 -78h37l55 78h173z" />
    <glyph glyph-name="ccaron.1168" horiz-adv-x="696" 
d="M142 69q-92 84 -92 231q0 144 97 232q98 87 259 87q130 0 227 -57v-185h-1q-110 71 -207 71q-74 0 -120 -40q-48 -40 -48 -106q0 -69 46 -108q44 -40 121 -40q99 0 208 72h1v-188q-22 -11 -45.5 -20.5t-49.5 -16.5q-66 -19 -135 -19q-166 0 -261 87zM637 885l-131 -195
h-232l-131 195h174l55 -78h37l55 78h173z" />
    <glyph glyph-name="ccedilla.1" horiz-adv-x="696" 
d="M633 38q-33 -16 -69 -30q-23 -8 -47 -13.5t-48 -8.5l-79 -179h-232v18l150 165q-123 22 -191 106q-67 80 -67 204q0 144 97 232q98 87 259 87q130 0 227 -57v-185h-1q-110 71 -207 71q-74 0 -120 -40q-48 -40 -48 -106q0 -69 46 -108q44 -40 121 -40q99 0 208 72h1v-188z
" />
    <glyph glyph-name="ccedilla.1151" horiz-adv-x="696" 
d="M633 38q-33 -16 -69 -30q-23 -8 -47 -13.5t-48 -8.5l-79 -179h-232v18l150 165q-123 22 -191 106q-67 80 -67 204q0 144 97 232q98 87 259 87q130 0 227 -57v-185h-1q-110 71 -207 71q-74 0 -120 -40q-48 -40 -48 -106q0 -69 46 -108q44 -40 121 -40q99 0 208 72h1v-188z
" />
    <glyph glyph-name="cdotaccent.1" horiz-adv-x="696" 
d="M142 69q-92 84 -92 231q0 144 97 232q98 87 259 87q130 0 227 -57v-185h-1q-110 71 -207 71q-74 0 -120 -40q-48 -40 -48 -106q0 -69 46 -108q44 -40 121 -40q99 0 208 72h1v-188q-22 -11 -45.5 -20.5t-49.5 -16.5q-66 -19 -135 -19q-166 0 -261 87zM300 710
q-30 26 -30 70v1q0 45 31 70q31 28 90 28t90 -28q30 -25 30 -70v-1q0 -44 -30 -70q-32 -28 -91 -28t-90 28z" />
    <glyph glyph-name="cdotaccent.1169" horiz-adv-x="696" 
d="M142 69q-92 84 -92 231q0 144 97 232q98 87 259 87q130 0 227 -57v-185h-1q-110 71 -207 71q-74 0 -120 -40q-48 -40 -48 -106q0 -69 46 -108q44 -40 121 -40q99 0 208 72h1v-188q-22 -11 -45.5 -20.5t-49.5 -16.5q-66 -19 -135 -19q-166 0 -261 87zM300 710
q-30 26 -30 70v1q0 45 31 70q31 28 90 28t90 -28q30 -25 30 -70v-1q0 -44 -30 -70q-32 -28 -91 -28t-90 28z" />
    <glyph glyph-name="cent.aalt" 
d="M303 -42v137q-91 24 -144 89q-54 66 -54 160q0 93 56 163q55 66 148 92v121h182v-114q65 -10 117 -45v-156h-1q-76 55 -169 55q-66 0 -104 -31q-40 -31 -40 -85q0 -51 41 -80q41 -30 107 -30q86 0 165 54h1v-156q-55 -34 -124 -45v-114z" />
    <glyph glyph-name="colon.1" horiz-adv-x="422" 
d="M119 442q-32 32 -32 81v1q0 50 32 80q35 32 92 32q56 0 91 -32q33 -30 33 -80v-1q0 -49 -33 -81q-35 -32 -91 -32q-57 0 -92 32zM119 95q-32 32 -32 80v1q0 49 32 81q35 32 92 32q56 0 91 -32q33 -31 33 -80v-1q0 -49 -33 -81q-35 -32 -91 -32q-57 0 -92 32z" />
    <glyph glyph-name="colon.2" horiz-adv-x="362" 
d="M88 368q-32 32 -32 81v1q0 50 32 80q35 32 92 32q56 0 91 -32q33 -30 33 -80v-1q0 -49 -33 -81q-35 -32 -91 -32q-57 0 -92 32zM88 21q-32 32 -32 80v1q0 49 32 81q35 32 92 32q56 0 91 -32q33 -31 33 -80v-1q0 -49 -33 -81q-35 -32 -91 -32q-57 0 -92 32z" />
    <glyph glyph-name="comma.aalt" horiz-adv-x="362" 
d="M47 -160l47 349h228v-42l-162 -307h-113z" />
    <glyph glyph-name="d.1" horiz-adv-x="781" 
d="M84 0v602h338q144 0 226 -78q83 -80 83 -222q0 -143 -83 -223q-82 -79 -226 -79h-338zM288 160h103q134 0 134 141t-134 141h-103v-282z" />
    <glyph glyph-name="d.1121" horiz-adv-x="781" 
d="M84 0v602h338q144 0 226 -78q83 -80 83 -222q0 -143 -83 -223q-82 -79 -226 -79h-338zM288 160h103q134 0 134 141t-134 141h-103v-282z" />
    <glyph glyph-name="dcaron.1" horiz-adv-x="781" 
d="M84 0v602h338q144 0 226 -78q83 -80 83 -222q0 -143 -83 -223q-82 -79 -226 -79h-338zM288 160h103q134 0 134 141t-134 141h-103v-282zM621 869l-131 -195h-232l-131 195h174l55 -78h37l55 78h173z" />
    <glyph glyph-name="dcaron.1170" horiz-adv-x="781" 
d="M84 0v602h338q144 0 226 -78q83 -80 83 -222q0 -143 -83 -223q-82 -79 -226 -79h-338zM288 160h103q134 0 134 141t-134 141h-103v-282zM621 869l-131 -195h-232l-131 195h174l55 -78h37l55 78h173z" />
    <glyph glyph-name="dcroat.1" horiz-adv-x="828" 
d="M131 0v234h-95l11 137h84v231h338q144 0 226 -78q83 -80 83 -222q0 -143 -83 -223q-82 -79 -226 -79h-338zM333 158h105q134 0 134 143t-134 143h-105v-82h129v-120h-129v-84z" />
    <glyph glyph-name="dcroat.1147" horiz-adv-x="828" 
d="M131 0v234h-95l11 137h84v231h338q144 0 226 -78q83 -80 83 -222q0 -143 -83 -223q-82 -79 -226 -79h-338zM333 158h105q134 0 134 143t-134 143h-105v-82h129v-120h-129v-84z" />
    <glyph glyph-name="degree.aalt" horiz-adv-x="634" 
d="M139 328q-67 61 -67 164t67 164t178 61q112 0 179 -61q66 -61 66 -164q0 -102 -66 -164q-67 -61 -179 -61q-111 0 -178 61zM386 423q24 26 24 69q0 44 -24 69q-26 26 -69 26q-44 0 -68 -26q-24 -25 -24 -69q0 -43 24 -69t68 -26q43 0 69 26z" />
    <glyph glyph-name="divide.aalt" 
d="M444 644q29 -27 29 -70t-30 -70t-81 -27t-81 27q-30 26 -30 69v1q0 43 30 70t80 27q52 0 83 -27zM59 272v157h605v-157h-605zM281 58q-30 26 -30 69t30 70t81 27t81 -27q30 -25 30 -69v-1q0 -43 -30 -69q-29 -28 -81 -28t-81 28z" />
    <glyph glyph-name="dollar.aalt" 
d="M274 -120v134q-81 10 -191 54v176h1q157 -82 300 -82q96 0 96 50q0 26 -28 38q-31 13 -123 29q-124 19 -180 59q-69 47 -69 140q0 74 51 128q54 57 149 76v123h185v-118q46 -7 87.5 -18.5t78.5 -28.5v-174h-1q-124 72 -258 72q-96 0 -96 -51q0 -31 36 -39q5 -1 10.5 -2
t10.5 -2q7 -2 13 -3t13 -3q17 -3 34.5 -6t35.5 -7q121 -22 177 -61q68 -50 68 -143q0 -78 -49 -130q-55 -61 -166 -78v-118z" />
    <glyph glyph-name="dotlessi.1" horiz-adv-x="376" 
d="M86 0v602h204v-602h-204z" />
    <glyph glyph-name="e.1" horiz-adv-x="697" 
d="M84 0v602h541l9 -151h-346v-85h268v-131h-268v-83h356l-8 -152h-552z" />
    <glyph glyph-name="e.1122" horiz-adv-x="697" 
d="M84 0v602h541l9 -151h-346v-85h268v-131h-268v-83h356l-8 -152h-552z" />
    <glyph glyph-name="eacute.1" horiz-adv-x="697" 
d="M84 0v602h541l9 -151h-346v-85h268v-131h-268v-83h356l-8 -152h-552zM263 674l124 178h226v-14l-176 -164h-174z" />
    <glyph glyph-name="eacute.1171" horiz-adv-x="697" 
d="M84 0v602h541l9 -151h-346v-85h268v-131h-268v-83h356l-8 -152h-552zM263 674l124 178h226v-14l-176 -164h-174z" />
    <glyph glyph-name="ebreve.1" horiz-adv-x="697" 
d="M84 0v602h541l9 -151h-346v-85h268v-131h-268v-83h356l-8 -152h-552zM204 705q-58 40 -58 117q0 23 8 63h138l-1 -8l-1 -8q-1 -4 -1 -7.5v-5.5q0 -57 72 -57q71 0 71 57q0 2 -0.5 9.5t-1.5 19.5h138q8 -40 8 -63q0 -77 -58 -117q-57 -39 -157 -39t-157 39z" />
    <glyph glyph-name="ebreve.1175" horiz-adv-x="697" 
d="M84 0v602h541l9 -151h-346v-85h268v-131h-268v-83h356l-8 -152h-552zM204 705q-58 40 -58 117q0 23 8 63h138l-1 -8l-1 -8q-1 -4 -1 -7.5v-5.5q0 -57 72 -57q71 0 71 57q0 2 -0.5 9.5t-1.5 19.5h138q8 -40 8 -63q0 -77 -58 -117q-57 -39 -157 -39t-157 39z" />
    <glyph glyph-name="ecaron.1" horiz-adv-x="697" 
d="M84 0v602h541l9 -151h-346v-85h268v-131h-268v-83h356l-8 -152h-552zM608 869l-131 -195h-232l-131 195h174l55 -78h37l55 78h173z" />
    <glyph glyph-name="ecaron.1174" horiz-adv-x="697" 
d="M84 0v602h541l9 -151h-346v-85h268v-131h-268v-83h356l-8 -152h-552zM608 869l-131 -195h-232l-131 195h174l55 -78h37l55 78h173z" />
    <glyph glyph-name="ecircumflex.1" horiz-adv-x="697" 
d="M84 0v602h541l9 -151h-346v-85h268v-131h-268v-83h356l-8 -152h-552zM114 674l131 195h232l131 -195h-174l-55 79h-37l-55 -79h-173z" />
    <glyph glyph-name="ecircumflex.1173" horiz-adv-x="697" 
d="M84 0v602h541l9 -151h-346v-85h268v-131h-268v-83h356l-8 -152h-552zM114 674l131 195h232l131 -195h-174l-55 79h-37l-55 -79h-173z" />
    <glyph glyph-name="edieresis.1" horiz-adv-x="697" 
d="M84 0v602h541l9 -151h-346v-85h268v-131h-268v-83h356l-8 -152h-552zM152 693q-27 26 -27 68t27 69q29 26 75 26t75 -26q27 -25 27 -69q0 -42 -27 -68q-28 -27 -75 -27q-46 0 -75 27zM421 693q-27 26 -27 68t27 69q29 26 75 26t75 -26q27 -25 27 -69q0 -42 -27 -68
q-28 -27 -75 -27q-46 0 -75 27z" />
    <glyph glyph-name="edieresis.1177" horiz-adv-x="697" 
d="M84 0v602h541l9 -151h-346v-85h268v-131h-268v-83h356l-8 -152h-552zM152 693q-27 26 -27 68t27 69q29 26 75 26t75 -26q27 -25 27 -69q0 -42 -27 -68q-28 -27 -75 -27q-46 0 -75 27zM421 693q-27 26 -27 68t27 69q29 26 75 26t75 -26q27 -25 27 -69q0 -42 -27 -68
q-28 -27 -75 -27q-46 0 -75 27z" />
    <glyph glyph-name="edotaccent.1" horiz-adv-x="697" 
d="M84 0v602h541l9 -151h-346v-85h268v-131h-268v-83h356l-8 -152h-552zM270 694q-30 26 -30 70v1q0 45 31 70q31 28 90 28t90 -28q30 -25 30 -70v-1q0 -44 -30 -70q-32 -28 -91 -28t-90 28z" />
    <glyph glyph-name="edotaccent.1178" horiz-adv-x="697" 
d="M84 0v602h541l9 -151h-346v-85h268v-131h-268v-83h356l-8 -152h-552zM270 694q-30 26 -30 70v1q0 45 31 70q31 28 90 28t90 -28q30 -25 30 -70v-1q0 -44 -30 -70q-32 -28 -91 -28t-90 28z" />
    <glyph glyph-name="egrave.1" horiz-adv-x="697" 
d="M84 0v602h541l9 -151h-346v-85h268v-131h-268v-83h356l-8 -152h-552zM462 674h-175l-176 164v14h227z" />
    <glyph glyph-name="egrave.1172" horiz-adv-x="697" 
d="M84 0v602h541l9 -151h-346v-85h268v-131h-268v-83h356l-8 -152h-552zM462 674h-175l-176 164v14h227z" />
    <glyph glyph-name="eight.1" horiz-adv-x="702" 
d="M127 27q-86 56 -86 157q0 116 127 171q-110 50 -110 155q0 99 80 156q80 56 213 56q135 0 214 -57t79 -155q0 -105 -110 -155q127 -55 127 -171q0 -103 -84 -157q-80 -52 -226 -52q-144 0 -224 52zM458 491q0 81 -107 81t-107 -81q0 -79 107 -79t107 79zM468 211
q0 81 -117 81t-117 -81q0 -85 117 -85t117 85z" />
    <glyph glyph-name="eight.2" 
d="M118 32q-81 53 -81 152q0 118 140 171q-123 45 -123 155q0 96 77 153q83 59 231 59t231 -59q78 -57 78 -153q0 -110 -123 -155q140 -53 140 -171q0 -98 -80 -152q-85 -56 -246 -56q-159 0 -244 56zM477 491q0 79 -115 79t-115 -79q0 -78 115 -78t115 78zM488 211
q0 80 -126 80t-126 -80q0 -83 126 -83t126 83z" />
    <glyph glyph-name="eight.dnom" horiz-adv-x="434" 
d="M9 112q0 72 83 101q-73 25 -73 91q0 128 188 128t188 -128q0 -66 -73 -91q83 -29 83 -101q0 -126 -198 -126t-198 126zM265 289q0 39 -58 39t-58 -39q0 -37 58 -37t58 37zM270 130q0 40 -63 40t-63 -40t63 -40t63 40z" />
    <glyph glyph-name="eight.numr" horiz-adv-x="434" 
d="M29 394q0 72 83 101q-73 25 -73 91q0 128 188 128t188 -128q0 -66 -73 -91q83 -29 83 -101q0 -126 -198 -126t-198 126zM285 571q0 39 -58 39t-58 -39q0 -37 58 -37t58 37zM290 412q0 40 -63 40t-63 -40t63 -40t63 40z" />
    <glyph glyph-name="emacron.1" horiz-adv-x="697" 
d="M84 0v602h541l9 -151h-346v-85h268v-131h-268v-83h356l-8 -152h-552zM154 695v133h414v-133h-414z" />
    <glyph glyph-name="emacron.1176" horiz-adv-x="697" 
d="M84 0v602h541l9 -151h-346v-85h268v-131h-268v-83h356l-8 -152h-552zM154 695v133h414v-133h-414z" />
    <glyph glyph-name="emdash.1" horiz-adv-x="868" 
d="M66 263v173h736v-173h-736z" />
    <glyph glyph-name="endash.1" horiz-adv-x="692" 
d="M66 263v173h559v-173h-559z" />
    <glyph glyph-name="endash.2" 
d="M78 264v174h569v-174h-569z" />
    <glyph glyph-name="eogonek.1" horiz-adv-x="697" 
d="M84 0v602h541l9 -151h-346v-85h268v-131h-268v-83h356l-8 -152h-552zM568 50l68 -50l-53 -49q-67 -63 -67 -87q0 -35 59 -35q18 0 36 3q26 5 45 13v-134q-61 -19 -122 -19q-109 0 -155 43q-35 30 -35 79q0 90 150 186z" />
    <glyph glyph-name="eogonek.1154" horiz-adv-x="697" 
d="M84 0v602h541l9 -151h-346v-85h268v-131h-268v-83h356l-8 -152h-552zM568 50l68 -50l-53 -49q-67 -63 -67 -87q0 -35 59 -35q18 0 36 3q26 5 45 13v-134q-61 -19 -122 -19q-109 0 -155 43q-35 30 -35 79q0 90 150 186z" />
    <glyph glyph-name="equal.aalt" 
d="M81 404v163h561v-163h-561zM81 134v163h561v-163h-561z" />
    <glyph glyph-name="eth.1" horiz-adv-x="828" 
d="M131 0v234h-95l11 137h84v231h338q144 0 226 -78q83 -80 83 -222q0 -143 -83 -223q-82 -79 -226 -79h-338zM333 158h105q134 0 134 143t-134 143h-105v-82h129v-120h-129v-84z" />
    <glyph glyph-name="eth.1146" horiz-adv-x="828" 
d="M131 0v234h-95l11 137h84v231h338q144 0 226 -78q83 -80 83 -222q0 -143 -83 -223q-82 -79 -226 -79h-338zM333 158h105q134 0 134 143t-134 143h-105v-82h129v-120h-129v-84z" />
    <glyph glyph-name="exclamdown.1" horiz-adv-x="423" 
d="M302 679q33 -31 33 -80v-1q0 -49 -33 -81q-34 -32 -90 -32t-91 32q-33 32 -33 80v1q0 50 33 81q35 32 91 32t90 -32zM287 420l52 -401v-19h-254v19l51 401h151z" />
    <glyph glyph-name="f.1" horiz-adv-x="675" 
d="M84 0v602h534l8 -160h-337v-102h280v-141h-280v-199h-205z" />
    <glyph glyph-name="f.1123" horiz-adv-x="675" 
d="M84 0v602h534l8 -160h-337v-102h280v-141h-280v-199h-205z" />
    <glyph glyph-name="five.1" horiz-adv-x="630" 
d="M60 -86v171h1q134 -41 227 -41q72 0 94 27q22 25 22 50q0 26 -14 40q-18 18 -59 24q-42 6 -152 6h-104l8 411h472l8 -162h-306l-2 -103h50q147 -1 219 -52q75 -52 75 -166q0 -109 -81 -174q-81 -63 -217 -63q-99 0 -241 32z" />
    <glyph glyph-name="five.2" 
d="M77 29v178h1q147 -59 268 -59q76 0 99 26q22 25 22 47q0 23 -14 37q-29 29 -226 29h-138l10 413h529l7 -165h-359l-3 -98h27q128 0 207 -17q73 -18 115 -61q51 -51 51 -140q0 -107 -84 -173q-85 -66 -234 -66q-144 0 -278 49z" />
    <glyph glyph-name="five.dnom" horiz-adv-x="434" 
d="M39 9v119h1q85 -25 154 -25q39 0 53 10q11 8 11 21q0 12 -9 18q-20 14 -123 14h-81l6 252h319l5 -115h-202l-1 -44h6q143 0 187 -44q32 -32 32 -87q0 -67 -52 -104q-52 -38 -139 -38q-86 0 -167 23z" />
    <glyph glyph-name="five.numr" horiz-adv-x="434" 
d="M59 291v119h1q85 -25 154 -25q39 0 53 10q11 8 11 21q0 12 -9 18q-20 14 -123 14h-81l6 252h319l5 -115h-202l-1 -44h6q143 0 187 -44q32 -32 32 -87q0 -67 -52 -104q-52 -38 -139 -38q-86 0 -167 23z" />
    <glyph glyph-name="fiveeighths.aalt" horiz-adv-x="1086" 
d="M59 291v119h1q85 -25 154 -25q39 0 53 10q11 8 11 21q0 12 -9 18q-20 14 -123 14h-81l6 252h319l5 -115h-202l-1 -44h6q143 0 187 -44q32 -32 32 -87q0 -67 -52 -104q-52 -38 -139 -38q-86 0 -167 23zM214 1l516 699h142v-1l-516 -699h-142v1zM661 112q0 72 83 101
q-73 25 -73 91q0 128 188 128t188 -128q0 -66 -73 -91q83 -29 83 -101q0 -126 -198 -126t-198 126zM917 289q0 39 -58 39t-58 -39q0 -37 58 -37t58 37zM922 130q0 40 -63 40t-63 -40t63 -40t63 40z" />
    <glyph glyph-name="uni215A.aalt" horiz-adv-x="1086" 
d="M59 291v119h1q85 -25 154 -25q39 0 53 10q11 8 11 21q0 12 -9 18q-20 14 -123 14h-81l6 252h319l5 -115h-202l-1 -44h6q143 0 187 -44q32 -32 32 -87q0 -67 -52 -104q-52 -38 -139 -38q-86 0 -167 23zM214 1l516 699h142v-1l-516 -699h-142v1zM667 198q0 111 61 173
q62 62 167 62q65 0 132 -23v-119q-61 27 -123 27q-45 0 -74 -21q-29 -22 -28 -60q44 29 106 29q70 0 107 -31q41 -33 41 -94q0 -72 -53 -114q-52 -41 -134 -41q-202 0 -202 212zM802 156q5 -60 65 -60q55 0 55 42q0 37 -49 37q-39 0 -71 -19z" />
    <glyph glyph-name="four.1" horiz-adv-x="738" 
d="M414 -98v139h-373v145l197 416h364v-404h115l-8 -157h-107v-139h-188zM243 195h175v248h-62z" />
    <glyph glyph-name="four.2" 
d="M420 0v131h-392v148l193 421h386v-408h98l-9 -161h-89v-131h-187zM233 290h191v250h-80z" />
    <glyph glyph-name="four.dnom" horiz-adv-x="434" 
d="M230 0v75h-227v104l100 239h261v-233h54l-7 -110h-47v-75h-134zM137 181h99v129h-48z" />
    <glyph glyph-name="four.numr" horiz-adv-x="434" 
d="M250 282v75h-227v104l100 239h261v-233h54l-7 -110h-47v-75h-134zM157 463h99v129h-48z" />
    <glyph glyph-name="uni2158.aalt" horiz-adv-x="1086" 
d="M250 282v75h-227v104l100 239h261v-233h54l-7 -110h-47v-75h-134zM157 463h99v129h-48zM214 1l516 699h142v-1l-516 -699h-142v1zM691 9v119h1q85 -25 154 -25q39 0 53 10q11 8 11 21q0 12 -9 18q-20 14 -123 14h-81l6 252h319l5 -115h-202l-1 -44h6q143 0 187 -44
q32 -32 32 -87q0 -67 -52 -104q-52 -38 -139 -38q-86 0 -167 23z" />
    <glyph glyph-name="fraction.aalt" horiz-adv-x="218" 
d="M-220 1l516 699h142v-1l-516 -699h-142v1z" />
    <glyph glyph-name="g.1" horiz-adv-x="772" 
d="M141 66q-91 82 -91 227q0 144 96 232q100 94 274 94q139 0 239 -53v-174h-1q-124 59 -228 59q-83 0 -130 -44q-45 -42 -45 -116q0 -70 41 -111q44 -41 124 -41q56 0 90 21q36 22 38 63h-172v132h352v-6.5t1 -10.5l1 -19q1 -12 1 -21v-16q0 -153 -92 -230
q-85 -72 -237 -72q-167 0 -261 86z" />
    <glyph glyph-name="g.1124" horiz-adv-x="772" 
d="M141 66q-91 82 -91 227q0 144 96 232q100 94 274 94q139 0 239 -53v-174h-1q-124 59 -228 59q-83 0 -130 -44q-45 -42 -45 -116q0 -70 41 -111q44 -41 124 -41q56 0 90 21q36 22 38 63h-172v132h352v-6.5t1 -10.5l1 -19q1 -12 1 -21v-16q0 -153 -92 -230
q-85 -72 -237 -72q-167 0 -261 86z" />
    <glyph glyph-name="gbreve.1" horiz-adv-x="772" 
d="M141 66q-91 82 -91 227q0 144 96 232q100 94 274 94q139 0 239 -53v-174h-1q-124 59 -228 59q-83 0 -130 -44q-45 -42 -45 -116q0 -70 41 -111q44 -41 124 -41q56 0 90 21q36 22 38 63h-172v132h352v-6.5t1 -10.5l1 -19q1 -12 1 -21v-16q0 -153 -92 -230
q-85 -72 -237 -72q-167 0 -261 86zM248 721q-58 40 -58 117q0 23 8 63h138l-1 -8l-1 -8q-1 -4 -1 -7.5v-5.5q0 -57 72 -57q71 0 71 57q0 2 -0.5 9.5t-1.5 19.5h138q8 -40 8 -63q0 -77 -58 -117q-57 -39 -157 -39t-157 39z" />
    <glyph glyph-name="gbreve.1179" horiz-adv-x="772" 
d="M141 66q-91 82 -91 227q0 144 96 232q100 94 274 94q139 0 239 -53v-174h-1q-124 59 -228 59q-83 0 -130 -44q-45 -42 -45 -116q0 -70 41 -111q44 -41 124 -41q56 0 90 21q36 22 38 63h-172v132h352v-6.5t1 -10.5l1 -19q1 -12 1 -21v-16q0 -153 -92 -230
q-85 -72 -237 -72q-167 0 -261 86zM248 721q-58 40 -58 117q0 23 8 63h138l-1 -8l-1 -8q-1 -4 -1 -7.5v-5.5q0 -57 72 -57q71 0 71 57q0 2 -0.5 9.5t-1.5 19.5h138q8 -40 8 -63q0 -77 -58 -117q-57 -39 -157 -39t-157 39z" />
    <glyph glyph-name="gcommaaccent.1" horiz-adv-x="772" 
d="M141 66q-91 82 -91 227q0 144 96 232q100 94 274 94q139 0 239 -53v-174h-1q-124 59 -228 59q-83 0 -130 -44q-45 -42 -45 -116q0 -70 41 -111q44 -41 124 -41q56 0 90 21q36 22 38 63h-172v132h352v-6.5t1 -10.5l1 -19q1 -12 1 -21v-16q0 -153 -92 -230
q-85 -72 -237 -72q-167 0 -261 86zM249 -314l55 218h206v-20l-142 -198h-119z" />
    <glyph glyph-name="gcommaaccent.1181" horiz-adv-x="772" 
d="M141 66q-91 82 -91 227q0 144 96 232q100 94 274 94q139 0 239 -53v-174h-1q-124 59 -228 59q-83 0 -130 -44q-45 -42 -45 -116q0 -70 41 -111q44 -41 124 -41q56 0 90 21q36 22 38 63h-172v132h352v-6.5t1 -10.5l1 -19q1 -12 1 -21v-16q0 -153 -92 -230
q-85 -72 -237 -72q-167 0 -261 86zM249 -314l55 218h206v-20l-142 -198h-119z" />
    <glyph glyph-name="gdotaccent.1" horiz-adv-x="772" 
d="M141 66q-91 82 -91 227q0 144 96 232q100 94 274 94q139 0 239 -53v-174h-1q-124 59 -228 59q-83 0 -130 -44q-45 -42 -45 -116q0 -70 41 -111q44 -41 124 -41q56 0 90 21q36 22 38 63h-172v132h352v-6.5t1 -10.5l1 -19q1 -12 1 -21v-16q0 -153 -92 -230
q-85 -72 -237 -72q-167 0 -261 86zM315 710q-30 26 -30 70v1q0 45 31 70q31 28 90 28t90 -28q30 -25 30 -70v-1q0 -44 -30 -70q-32 -28 -91 -28t-90 28z" />
    <glyph glyph-name="gdotaccent.1180" horiz-adv-x="772" 
d="M141 66q-91 82 -91 227q0 144 96 232q100 94 274 94q139 0 239 -53v-174h-1q-124 59 -228 59q-83 0 -130 -44q-45 -42 -45 -116q0 -70 41 -111q44 -41 124 -41q56 0 90 21q36 22 38 63h-172v132h352v-6.5t1 -10.5l1 -19q1 -12 1 -21v-16q0 -153 -92 -230
q-85 -72 -237 -72q-167 0 -261 86zM315 710q-30 26 -30 70v1q0 45 31 70q31 28 90 28t90 -28q30 -25 30 -70v-1q0 -44 -30 -70q-32 -28 -91 -28t-90 28z" />
    <glyph glyph-name="greater.aalt" 
d="M126 668l493 -221v-191l-493 -220v193l278 122l-278 124v193z" />
    <glyph glyph-name="guillemotleft.1" horiz-adv-x="792" 
d="M417 587l-181 -237l181 -236h-209l-176 228v17l176 228h209zM749 587l-181 -237l181 -236h-208l-177 228v17l177 228h208z" />
    <glyph glyph-name="guillemotright.1" horiz-adv-x="792" 
d="M375 114l181 237l-181 236h209l176 -228v-17l-176 -228h-209zM43 114l181 237l-181 236h208l177 -228v-17l-177 -228h-208z" />
    <glyph glyph-name="guilsinglleft.1" horiz-adv-x="480" 
d="M435 114h-227l-176 228v17l176 228h227l-181 -237z" />
    <glyph glyph-name="guilsinglright.1" horiz-adv-x="480" 
d="M43 587h227l176 -228v-17l-176 -228h-227l181 237z" />
    <glyph glyph-name="h.1" horiz-adv-x="813" 
d="M84 0v602h205v-216h235v216h205v-602h-205v219h-235v-219h-205z" />
    <glyph glyph-name="h.1125" horiz-adv-x="813" 
d="M84 0v602h205v-216h235v216h205v-602h-205v219h-235v-219h-205z" />
    <glyph glyph-name="hbar.1" horiz-adv-x="906" 
d="M131 0v404h-95l8 138h87v60h203v-71h239v71h202v-60h87l8 -138h-95v-404h-202v188h-239v-188h-203zM334 345h239v71h-239v-71z" />
    <glyph glyph-name="hbar.1148" horiz-adv-x="906" 
d="M131 0v404h-95l8 138h87v60h203v-71h239v71h202v-60h87l8 -138h-95v-404h-202v188h-239v-188h-203zM334 345h239v71h-239v-71z" />
    <glyph glyph-name="hyphen.1" horiz-adv-x="448" 
d="M47 261v177h353v-177h-353z" />
    <glyph glyph-name="hyphen.2" horiz-adv-x="362" 
d="M20 261v178h322v-178h-322z" />
    <glyph glyph-name="i.1" horiz-adv-x="376" 
d="M86 0v602h204v-602h-204z" />
    <glyph glyph-name="i.1126" horiz-adv-x="376" 
d="M86 0v602h204v-602h-204z" />
    <glyph glyph-name="i.2" horiz-adv-x="341" 
d="M81 644q-31 25 -31 70v1q0 45 31 70q31 28 90 28t90 -28q30 -25 30 -70v-1q0 -44 -30 -70q-31 -28 -90 -28t-90 28zM68 0v553h205v-553h-205z" />
    <glyph glyph-name="i.3" horiz-adv-x="376" 
d="M86 0v602h204v-602h-204zM97 694q-30 26 -30 70v1q0 45 31 70q31 28 90 28t90 -28q30 -25 30 -70v-1q0 -44 -30 -70q-32 -28 -91 -28t-90 28z" />
    <glyph glyph-name="iacute.1" horiz-adv-x="376" 
d="M86 0v602h204v-602h-204zM103 674l124 178h226v-14l-176 -164h-174z" />
    <glyph glyph-name="iacute.1182" horiz-adv-x="376" 
d="M86 0v602h204v-602h-204zM103 674l124 178h226v-14l-176 -164h-174z" />
    <glyph glyph-name="ibreve.1" horiz-adv-x="376" 
d="M86 0v602h204v-602h-204zM31 705q-58 40 -58 117q0 23 8 63h138l-1 -8l-1 -8q-1 -4 -1 -7.5v-5.5q0 -57 72 -57q71 0 71 57q0 2 -0.5 9.5t-1.5 19.5h138q8 -40 8 -63q0 -77 -58 -117q-57 -39 -157 -39t-157 39z" />
    <glyph glyph-name="ibreve.1185" horiz-adv-x="376" 
d="M86 0v602h204v-602h-204zM31 705q-58 40 -58 117q0 23 8 63h138l-1 -8l-1 -8q-1 -4 -1 -7.5v-5.5q0 -57 72 -57q71 0 71 57q0 2 -0.5 9.5t-1.5 19.5h138q8 -40 8 -63q0 -77 -58 -117q-57 -39 -157 -39t-157 39z" />
    <glyph glyph-name="icircumflex.1" horiz-adv-x="376" 
d="M86 0v602h204v-602h-204zM-59 674l131 195h232l131 -195h-174l-55 79h-37l-55 -79h-173z" />
    <glyph glyph-name="icircumflex.1184" horiz-adv-x="376" 
d="M86 0v602h204v-602h-204zM-59 674l131 195h232l131 -195h-174l-55 79h-37l-55 -79h-173z" />
    <glyph glyph-name="idieresis.1" horiz-adv-x="376" 
d="M86 0v602h204v-602h-204zM-21 693q-27 26 -27 68t27 69q29 26 75 26t75 -26q27 -25 27 -69q0 -42 -27 -68q-28 -27 -75 -27q-46 0 -75 27zM248 693q-27 26 -27 68t27 69q29 26 75 26t75 -26q27 -25 27 -69q0 -42 -27 -68q-28 -27 -75 -27q-46 0 -75 27z" />
    <glyph glyph-name="idieresis.1187" horiz-adv-x="376" 
d="M86 0v602h204v-602h-204zM-21 693q-27 26 -27 68t27 69q29 26 75 26t75 -26q27 -25 27 -69q0 -42 -27 -68q-28 -27 -75 -27q-46 0 -75 27zM248 693q-27 26 -27 68t27 69q29 26 75 26t75 -26q27 -25 27 -69q0 -42 -27 -68q-28 -27 -75 -27q-46 0 -75 27z" />
    <glyph glyph-name="igrave.1" horiz-adv-x="376" 
d="M86 0v602h204v-602h-204zM274 674h-175l-176 164v14h227z" />
    <glyph glyph-name="igrave.1183" horiz-adv-x="376" 
d="M86 0v602h204v-602h-204zM274 674h-175l-176 164v14h227z" />
    <glyph glyph-name="imacron.1" horiz-adv-x="376" 
d="M86 0v602h204v-602h-204zM-19 695v133h414v-133h-414z" />
    <glyph glyph-name="imacron.1186" horiz-adv-x="376" 
d="M86 0v602h204v-602h-204zM-19 695v133h414v-133h-414z" />
    <glyph glyph-name="indianrupee.aalt" 
d="M668 370h-94q-13 -85 -72 -135q-59 -52 -152 -52l272 -183h-291l-259 177v139h192q91 0 108 71h-300v98h300q-17 71 -125 71h-175v144h619l-10 -144h-144q11 -14 19 -30.5t13 -33.5h106z" />
    <glyph glyph-name="iogonek.1" horiz-adv-x="376" 
d="M86 0v602h204v-602h-204zM222 50l68 -50l-53 -49q-67 -63 -67 -87q0 -35 59 -35q18 0 36 3q26 5 45 13v-134q-61 -19 -122 -19q-109 0 -155 43q-35 30 -35 79q0 90 150 186z" />
    <glyph glyph-name="iogonek.1155" horiz-adv-x="376" 
d="M86 0v602h204v-602h-204zM222 50l68 -50l-53 -49q-67 -63 -67 -87q0 -35 59 -35q18 0 36 3q26 5 45 13v-134q-61 -19 -122 -19q-109 0 -155 43q-35 30 -35 79q0 90 150 186z" />
    <glyph glyph-name="j.1" horiz-adv-x="341" 
d="M81 644q-31 25 -31 70v1q0 45 31 70q31 28 90 28t90 -28q30 -25 30 -70v-1q0 -44 -30 -70q-31 -28 -90 -28t-90 28zM68 -232v785h205v-725z" />
    <glyph glyph-name="j.1127" horiz-adv-x="647" 
d="M57 41v180h1q100 -67 201 -67q107 0 107 90v200h-213l8 158h409v-396q0 -223 -280 -223q-133 0 -233 58z" />
    <glyph glyph-name="j.smcp" horiz-adv-x="647" 
d="M57 41v180h1q100 -67 201 -67q107 0 107 90v200h-213l8 158h409v-396q0 -223 -280 -223q-133 0 -233 58z" />
    <glyph glyph-name="k.1" horiz-adv-x="780" 
d="M84 0v602h205v-215h65l166 215h231v-1l-224 -288l237 -312v-1h-239l-171 222h-65v-222h-205z" />
    <glyph glyph-name="k.1128" horiz-adv-x="780" 
d="M84 0v602h205v-215h65l166 215h231v-1l-224 -288l237 -312v-1h-239l-171 222h-65v-222h-205z" />
    <glyph glyph-name="kcommaaccent.1" horiz-adv-x="780" 
d="M84 0v602h205v-215h65l166 215h231v-1l-224 -288l237 -312v-1h-239l-171 222h-65v-222h-205zM233 -270l55 218h206v-20l-142 -198h-119z" />
    <glyph glyph-name="kcommaaccent.1188" horiz-adv-x="780" 
d="M84 0v602h205v-215h65l166 215h231v-1l-224 -288l237 -312v-1h-239l-171 222h-65v-222h-205zM233 -270l55 218h206v-20l-142 -198h-119z" />
    <glyph glyph-name="l.1" horiz-adv-x="637" 
d="M84 0v602h205v-432h316l-9 -170h-512z" />
    <glyph glyph-name="l.1129" horiz-adv-x="637" 
d="M84 0v602h205v-432h316l-9 -170h-512z" />
    <glyph glyph-name="lacute.1" horiz-adv-x="637" 
d="M84 0v602h205v-432h316l-9 -170h-512zM102 674l124 178h226v-14l-176 -164h-174z" />
    <glyph glyph-name="lacute.1189" horiz-adv-x="637" 
d="M84 0v602h205v-432h316l-9 -170h-512zM102 674l124 178h226v-14l-176 -164h-174z" />
    <glyph glyph-name="lcaron.1" horiz-adv-x="637" 
d="M84 0v602h205v-432h316l-9 -170h-512zM358 420v182h184v-24l-78 -158h-106z" />
    <glyph glyph-name="lcaron.1190" horiz-adv-x="637" 
d="M84 0v602h205v-432h316l-9 -170h-512zM358 420v182h184v-24l-78 -158h-106z" />
    <glyph glyph-name="lcommaaccent.1" horiz-adv-x="637" 
d="M84 0v602h205v-432h316l-9 -170h-512zM192 -294l55 218h206v-20l-142 -198h-119z" />
    <glyph glyph-name="lcommaaccent.1191" horiz-adv-x="637" 
d="M84 0v602h205v-432h316l-9 -170h-512zM192 -294l55 218h206v-20l-142 -198h-119z" />
    <glyph glyph-name="ldot.1" horiz-adv-x="637" 
d="M84 0v602h205v-432h316l-9 -170h-512zM428 321q-29 29 -29 71t29 71q28 28 77 28t77 -28q29 -29 29 -71t-29 -71q-28 -28 -77 -28t-77 28z" />
    <glyph glyph-name="ldot.1159" horiz-adv-x="637" 
d="M84 0v602h205v-432h316l-9 -170h-512zM428 321q-29 29 -29 71t29 71q28 28 77 28t77 -28q29 -29 29 -71t-29 -71q-28 -28 -77 -28t-77 28z" />
    <glyph glyph-name="less.aalt" 
d="M598 34l-493 221v191l493 220v-193l-278 -122l278 -124v-193z" />
    <glyph glyph-name="lslash.1" horiz-adv-x="681" 
d="M128 0v185l-91 -39v151l91 39v266h205v-178l182 78v-149l-182 -79v-104h315l-7 -170h-513z" />
    <glyph glyph-name="lslash.1149" horiz-adv-x="681" 
d="M128 0v185l-91 -39v151l91 39v266h205v-178l182 78v-149l-182 -79v-104h315l-7 -170h-513z" />
    <glyph glyph-name="m.1" horiz-adv-x="921" 
d="M84 0v602h224l155 -263l150 263h224v-602h-195v335h-3l-174 -291h-13l-172 289h-3v-333h-193z" />
    <glyph glyph-name="m.1130" horiz-adv-x="921" 
d="M84 0v602h224l155 -263l150 263h224v-602h-195v335h-3l-174 -291h-13l-172 289h-3v-333h-193z" />
    <glyph glyph-name="minus.aalt" 
d="M98 263v175h528v-175h-528z" />
    <glyph glyph-name="multiply.aalt" 
d="M69 517l118 122l175 -170l174 170l118 -122l-171 -166l171 -167l-118 -122l-174 170l-175 -170l-118 122l171 167z" />
    <glyph glyph-name="n.1" horiz-adv-x="809" 
d="M84 0v602h209l236 -319h3v319h193v-602h-202l-243 326h-3v-326h-193z" />
    <glyph glyph-name="n.1131" horiz-adv-x="809" 
d="M84 0v602h209l236 -319h3v319h193v-602h-202l-243 326h-3v-326h-193z" />
    <glyph glyph-name="nacute.1" horiz-adv-x="809" 
d="M84 0v602h209l236 -319h3v319h193v-602h-202l-243 326h-3v-326h-193zM320 648l124 178h226v-14l-176 -164h-174z" />
    <glyph glyph-name="nacute.1192" horiz-adv-x="809" 
d="M84 0v602h209l236 -319h3v319h193v-602h-202l-243 326h-3v-326h-193zM320 648l124 178h226v-14l-176 -164h-174z" />
    <glyph glyph-name="nbspace233" horiz-adv-x="25000" 
 />
    <glyph glyph-name="ncaron.1" horiz-adv-x="809" 
d="M84 0v602h209l236 -319h3v319h193v-602h-202l-243 326h-3v-326h-193zM665 843l-131 -195h-232l-131 195h174l55 -78h37l55 78h173z" />
    <glyph glyph-name="ncaron.1193" horiz-adv-x="809" 
d="M84 0v602h209l236 -319h3v319h193v-602h-202l-243 326h-3v-326h-193zM665 843l-131 -195h-232l-131 195h174l55 -78h37l55 78h173z" />
    <glyph glyph-name="ncommaaccent.1" horiz-adv-x="809" 
d="M84 0v602h209l236 -319h3v319h193v-602h-202l-243 326h-3v-326h-193zM245 -268l55 218h206v-20l-142 -198h-119z" />
    <glyph glyph-name="ncommaaccent.1195" horiz-adv-x="809" 
d="M84 0v602h209l236 -319h3v319h193v-602h-202l-243 326h-3v-326h-193zM245 -268l55 218h206v-20l-142 -198h-119z" />
    <glyph glyph-name="nine.1" horiz-adv-x="696" 
d="M565 540q89 -89 89 -261q0 -185 -101 -292q-99 -105 -272 -105q-106 0 -196 33v163h1q104 -36 183 -36q168 0 189 148q-79 -45 -172 -45q-108 0 -173 52q-72 57 -72 164q0 121 82 191q80 70 212 70q148 0 230 -82zM264 299q29 -17 71 -17q64 0 125 37q-2 86 -39 116
q-38 29 -87 29q-45 0 -73 -25q-32 -29 -32 -73q0 -46 35 -67z" />
    <glyph glyph-name="nine.2" 
d="M590 634q87 -91 87 -266q0 -182 -99 -284q-100 -102 -276 -102q-113 0 -217 42v170h1q117 -50 204 -50q179 0 195 153q-80 -53 -187 -53q-119 0 -187 53q-73 55 -73 164q0 118 90 191q86 70 221 70q156 0 241 -88zM264 405q37 -17 80 -17q71 0 141 42q-4 77 -45 105
q-41 29 -95 29q-53 0 -84 -25q-33 -25 -33 -71t36 -63z" />
    <glyph glyph-name="nine.dnom" horiz-adv-x="434" 
d="M402 220q0 -111 -61 -173q-62 -62 -167 -62q-65 0 -132 23v119q62 -27 123 -27q46 0 74 21q29 22 28 60q-44 -29 -106 -29q-70 0 -107 31q-41 33 -41 94q0 72 53 114q52 41 134 41q202 0 202 -212zM196 243q39 0 71 19q-4 60 -65 60q-55 0 -55 -42q0 -37 49 -37z" />
    <glyph glyph-name="nine.numr" horiz-adv-x="434" 
d="M422 502q0 -111 -61 -173q-62 -62 -167 -62q-65 0 -132 23v119q62 -27 123 -27q46 0 74 21q29 22 28 60q-44 -29 -106 -29q-70 0 -107 31q-41 33 -41 94q0 72 53 114q52 41 134 41q202 0 202 -212zM216 525q39 0 71 19q-4 60 -65 60q-55 0 -55 -42q0 -37 49 -37z" />
    <glyph glyph-name="ntilde.1" horiz-adv-x="809" 
d="M84 0v602h209l236 -319h3v319h193v-602h-202l-243 326h-3v-326h-193zM625 719q-24 -24 -50 -38q-32 -17 -66 -17q-42 0 -116 34q-54 24 -76 24q-46 0 -106 -66h-1v153q55 55 117 55q42 0 116 -34q54 -24 76 -24q48 0 105 67h1v-154z" />
    <glyph glyph-name="ntilde.1194" horiz-adv-x="809" 
d="M84 0v602h209l236 -319h3v319h193v-602h-202l-243 326h-3v-326h-193zM625 719q-24 -24 -50 -38q-32 -17 -66 -17q-42 0 -116 34q-54 24 -76 24q-46 0 -106 -66h-1v153q55 55 117 55q42 0 116 -34q54 -24 76 -24q48 0 105 67h1v-154z" />
    <glyph glyph-name="numbersign.1" 
d="M64 0l23 123h-80v145h108l31 164h-98v145h126l23 123h162l-24 -123h140l24 123h161l-23 -123h80v-145h-108l-31 -164h98v-145h-126l-23 -123h-162l24 123h-140l-24 -123h-161zM276 268h140l32 164h-140z" />
    <glyph glyph-name="o.smcp" horiz-adv-x="807" 
d="M146 65q-96 87 -96 235t96 236q96 87 258 87t258 -87q95 -86 95 -234t-96 -237q-96 -87 -258 -87t-257 87zM511 189q41 41 41 111q0 72 -40 112t-109 40t-108 -39q-40 -40 -40 -112q0 -71 40 -111t109 -40q68 0 107 39z" />
    <glyph glyph-name="oacute.1" horiz-adv-x="807" 
d="M146 65q-96 87 -96 235t96 236q96 87 258 87t258 -87q95 -86 95 -234t-96 -237q-96 -87 -258 -87t-257 87zM511 189q41 41 41 111q0 72 -40 112t-109 40t-108 -39q-40 -40 -40 -112q0 -71 40 -111t109 -40q68 0 107 39zM305 694l124 178h226v-14l-176 -164h-174z" />
    <glyph glyph-name="oacute.1196" horiz-adv-x="807" 
d="M146 65q-96 87 -96 235t96 236q96 87 258 87t258 -87q95 -86 95 -234t-96 -237q-96 -87 -258 -87t-257 87zM511 189q41 41 41 111q0 72 -40 112t-109 40t-108 -39q-40 -40 -40 -112q0 -71 40 -111t109 -40q68 0 107 39zM305 694l124 178h226v-14l-176 -164h-174z" />
    <glyph glyph-name="obreve.1" horiz-adv-x="807" 
d="M146 65q-96 87 -96 235t96 236q96 87 258 87t258 -87q95 -86 95 -234t-96 -237q-96 -87 -258 -87t-257 87zM511 189q41 41 41 111q0 72 -40 112t-109 40t-108 -39q-40 -40 -40 -112q0 -71 40 -111t109 -40q68 0 107 39zM246 725q-58 40 -58 117q0 23 8 63h138l-1 -8
l-1 -8q-1 -4 -1 -7.5v-5.5q0 -57 72 -57q71 0 71 57q0 2 -0.5 9.5t-1.5 19.5h138q8 -40 8 -63q0 -77 -58 -117q-57 -39 -157 -39t-157 39z" />
    <glyph glyph-name="obreve.1200" horiz-adv-x="807" 
d="M146 65q-96 87 -96 235t96 236q96 87 258 87t258 -87q95 -86 95 -234t-96 -237q-96 -87 -258 -87t-257 87zM511 189q41 41 41 111q0 72 -40 112t-109 40t-108 -39q-40 -40 -40 -112q0 -71 40 -111t109 -40q68 0 107 39zM246 725q-58 40 -58 117q0 23 8 63h138l-1 -8
l-1 -8q-1 -4 -1 -7.5v-5.5q0 -57 72 -57q71 0 71 57q0 2 -0.5 9.5t-1.5 19.5h138q8 -40 8 -63q0 -77 -58 -117q-57 -39 -157 -39t-157 39z" />
    <glyph glyph-name="ocircumflex.1" horiz-adv-x="807" 
d="M146 65q-96 87 -96 235t96 236q96 87 258 87t258 -87q95 -86 95 -234t-96 -237q-96 -87 -258 -87t-257 87zM511 189q41 41 41 111q0 72 -40 112t-109 40t-108 -39q-40 -40 -40 -112q0 -71 40 -111t109 -40q68 0 107 39zM156 694l131 195h232l131 -195h-174l-55 79h-37
l-55 -79h-173z" />
    <glyph glyph-name="ocircumflex.1199" horiz-adv-x="807" 
d="M146 65q-96 87 -96 235t96 236q96 87 258 87t258 -87q95 -86 95 -234t-96 -237q-96 -87 -258 -87t-257 87zM511 189q41 41 41 111q0 72 -40 112t-109 40t-108 -39q-40 -40 -40 -112q0 -71 40 -111t109 -40q68 0 107 39zM156 694l131 195h232l131 -195h-174l-55 79h-37
l-55 -79h-173z" />
    <glyph glyph-name="odieresis.1" horiz-adv-x="807" 
d="M146 65q-96 87 -96 235t96 236q96 87 258 87t258 -87q95 -86 95 -234t-96 -237q-96 -87 -258 -87t-257 87zM511 189q41 41 41 111q0 72 -40 112t-109 40t-108 -39q-40 -40 -40 -112q0 -71 40 -111t109 -40q68 0 107 39zM194 713q-27 26 -27 68t27 69q29 26 75 26t75 -26
q27 -25 27 -69q0 -42 -27 -68q-28 -27 -75 -27q-46 0 -75 27zM463 713q-27 26 -27 68t27 69q29 26 75 26t75 -26q27 -25 27 -69q0 -42 -27 -68q-28 -27 -75 -27q-46 0 -75 27z" />
    <glyph glyph-name="odieresis.1202" horiz-adv-x="807" 
d="M146 65q-96 87 -96 235t96 236q96 87 258 87t258 -87q95 -86 95 -234t-96 -237q-96 -87 -258 -87t-257 87zM511 189q41 41 41 111q0 72 -40 112t-109 40t-108 -39q-40 -40 -40 -112q0 -71 40 -111t109 -40q68 0 107 39zM194 713q-27 26 -27 68t27 69q29 26 75 26t75 -26
q27 -25 27 -69q0 -42 -27 -68q-28 -27 -75 -27q-46 0 -75 27zM463 713q-27 26 -27 68t27 69q29 26 75 26t75 -26q27 -25 27 -69q0 -42 -27 -68q-28 -27 -75 -27q-46 0 -75 27z" />
    <glyph glyph-name="oe.1" horiz-adv-x="1105" 
d="M133 524q83 78 226 78h675l8 -151h-346v-85h268v-131h-268v-83h357l-8 -152h-686q-145 0 -226 78q-83 80 -83 223t83 223zM493 442h-103q-134 0 -134 -140q0 -142 134 -142h103v282z" />
    <glyph glyph-name="oe.1144" horiz-adv-x="1105" 
d="M133 524q83 78 226 78h675l8 -151h-346v-85h268v-131h-268v-83h357l-8 -152h-686q-145 0 -226 78q-83 80 -83 223t83 223zM493 442h-103q-134 0 -134 -140q0 -142 134 -142h103v282z" />
    <glyph glyph-name="ograve.1" horiz-adv-x="807" 
d="M146 65q-96 87 -96 235t96 236q96 87 258 87t258 -87q95 -86 95 -234t-96 -237q-96 -87 -258 -87t-257 87zM511 189q41 41 41 111q0 72 -40 112t-109 40t-108 -39q-40 -40 -40 -112q0 -71 40 -111t109 -40q68 0 107 39zM504 694h-175l-176 164v14h227z" />
    <glyph glyph-name="ograve.1198" horiz-adv-x="807" 
d="M146 65q-96 87 -96 235t96 236q96 87 258 87t258 -87q95 -86 95 -234t-96 -237q-96 -87 -258 -87t-257 87zM511 189q41 41 41 111q0 72 -40 112t-109 40t-108 -39q-40 -40 -40 -112q0 -71 40 -111t109 -40q68 0 107 39zM504 694h-175l-176 164v14h227z" />
    <glyph glyph-name="ohungarumlaut.1" horiz-adv-x="807" 
d="M146 65q-96 87 -96 235t96 236q96 87 258 87t258 -87q95 -86 95 -234t-96 -237q-96 -87 -258 -87t-257 87zM511 189q41 41 41 111q0 72 -40 112t-109 40t-108 -39q-40 -40 -40 -112q0 -71 40 -111t109 -40q68 0 107 39zM464 694l107 178h197v-14l-165 -164h-139zM218 694
l107 178h196v-14l-165 -164h-138z" />
    <glyph glyph-name="ohungarumlaut.1197" horiz-adv-x="807" 
d="M146 65q-96 87 -96 235t96 236q96 87 258 87t258 -87q95 -86 95 -234t-96 -237q-96 -87 -258 -87t-257 87zM511 189q41 41 41 111q0 72 -40 112t-109 40t-108 -39q-40 -40 -40 -112q0 -71 40 -111t109 -40q68 0 107 39zM464 694l107 178h197v-14l-165 -164h-139zM218 694
l107 178h196v-14l-165 -164h-138z" />
    <glyph glyph-name="omacron.1" horiz-adv-x="807" 
d="M146 65q-96 87 -96 235t96 236q96 87 258 87t258 -87q95 -86 95 -234t-96 -237q-96 -87 -258 -87t-257 87zM511 189q41 41 41 111q0 72 -40 112t-109 40t-108 -39q-40 -40 -40 -112q0 -71 40 -111t109 -40q68 0 107 39zM196 715v133h414v-133h-414z" />
    <glyph glyph-name="omacron.1201" horiz-adv-x="807" 
d="M146 65q-96 87 -96 235t96 236q96 87 258 87t258 -87q95 -86 95 -234t-96 -237q-96 -87 -258 -87t-257 87zM511 189q41 41 41 111q0 72 -40 112t-109 40t-108 -39q-40 -40 -40 -112q0 -71 40 -111t109 -40q68 0 107 39zM196 715v133h414v-133h-414z" />
    <glyph glyph-name="one.1" horiz-adv-x="423" 
d="M109 700h205v-700h-205v700z" />
    <glyph glyph-name="one.2" horiz-adv-x="484" 
d="M171 0v436h-133l25 166h312v-602h-204z" />
    <glyph glyph-name="one.3" 
d="M663 167v-167h-571v167h194v371h-194l24 162h375v-533h172z" />
    <glyph glyph-name="one.4" horiz-adv-x="326" 
d="M118 282v301h-89l18 117h219v-418h-148z" />
    <glyph glyph-name="one.5" horiz-adv-x="326" 
d="M98 0v301h-89l18 117h219v-418h-148z" />
    <glyph glyph-name="one.aalt" horiz-adv-x="434" 
d="M412 397v-115h-341v115h106v186h-107l17 117h234v-303h91z" />
    <glyph glyph-name="one.aalt.1" horiz-adv-x="434" 
d="M392 115v-115h-341v115h106v186h-107l17 117h234v-303h91z" />
    <glyph glyph-name="one.sinf.aalt" horiz-adv-x="453" 
d="M412 -91v-115h-341v115h106v186h-107l17 117h234v-303h91z" />
    <glyph glyph-name="oneeighth.aalt" horiz-adv-x="1086" 
d="M412 397v-115h-341v115h106v186h-107l17 117h234v-303h91zM214 1l516 699h142v-1l-516 -699h-142v1zM661 112q0 72 83 101q-73 25 -73 91q0 128 188 128t188 -128q0 -66 -73 -91q83 -29 83 -101q0 -126 -198 -126t-198 126zM917 289q0 39 -58 39t-58 -39q0 -37 58 -37
t58 37zM922 130q0 40 -63 40t-63 -40t63 -40t63 40z" />
    <glyph glyph-name="uni2155.aalt" horiz-adv-x="1086" 
d="M412 397v-115h-341v115h106v186h-107l17 117h234v-303h91zM214 1l516 699h142v-1l-516 -699h-142v1zM691 9v119h1q85 -25 154 -25q39 0 53 10q11 8 11 21q0 12 -9 18q-20 14 -123 14h-81l6 252h319l5 -115h-202l-1 -44h6q143 0 187 -44q32 -32 32 -87q0 -67 -52 -104
q-52 -38 -139 -38q-86 0 -167 23z" />
    <glyph glyph-name="onehalf.aalt" horiz-adv-x="1086" 
d="M412 397v-115h-341v115h106v186h-107l17 117h234v-303h91zM214 1l516 699h142v-1l-516 -699h-142v1zM684 0v113l96 70q79 54 99 73q17 17 17 29q0 24 -44 24q-67 0 -150 -53h-1v130q89 47 176 47q78 0 122 -32q44 -33 44 -93q0 -51 -36 -86q-36 -36 -117 -90l-21 -15h170
v-117h-355z" />
    <glyph glyph-name="onequarter.aalt" horiz-adv-x="1086" 
d="M412 397v-115h-341v115h106v186h-107l17 117h234v-303h91zM214 1l516 699h142v-1l-516 -699h-142v1zM882 0v75h-227v104l100 239h261v-233h54l-7 -110h-47v-75h-134zM789 181h99v129h-48z" />
    <glyph glyph-name="uni2159.aalt" horiz-adv-x="1086" 
d="M412 397v-115h-341v115h106v186h-107l17 117h234v-303h91zM214 1l516 699h142v-1l-516 -699h-142v1zM667 198q0 111 61 173q62 62 167 62q65 0 132 -23v-119q-61 27 -123 27q-45 0 -74 -21q-29 -22 -28 -60q44 29 106 29q70 0 107 -31q41 -33 41 -94q0 -72 -53 -114
q-52 -41 -134 -41q-202 0 -202 212zM802 156q5 -60 65 -60q55 0 55 42q0 37 -49 37q-39 0 -71 -19z" />
    <glyph glyph-name="uni00B9.aalt" horiz-adv-x="453" 
d="M412 472v-115h-341v115h106v186h-107l17 117h234v-303h91z" />
    <glyph glyph-name="onethird.aalt" horiz-adv-x="1086" 
d="M412 397v-115h-341v115h106v186h-107l17 117h234v-303h91zM214 1l516 699h142v-1l-516 -699h-142v1zM689 10v120h1q89 -27 150 -27q71 0 71 31q0 18 -23 26q-21 7 -103 7h-17v61l112 75h-189l3 115h335v-106l-105 -71q127 -13 127 -115q0 -67 -56 -105q-54 -36 -144 -36
q-87 0 -162 25z" />
    <glyph glyph-name="oslash.1" horiz-adv-x="807" 
d="M246 4l-49 -61h-188l115 143q-74 83 -74 214q0 148 96 236q96 87 258 87q87 0 157 -26l50 62h187l-116 -143q75 -82 75 -214q0 -148 -96 -237q-96 -87 -258 -87q-87 0 -157 26zM259 215l196 243q-24 6 -52 6q-74 0 -118 -42q-44 -44 -44 -121q0 -50 18 -86zM522 180
q44 44 44 120q0 50 -19 87l-196 -244q24 -6 53 -6q75 0 118 43z" />
    <glyph glyph-name="oslash.1150" horiz-adv-x="807" 
d="M246 4l-49 -61h-188l115 143q-74 83 -74 214q0 148 96 236q96 87 258 87q87 0 157 -26l50 62h187l-116 -143q75 -82 75 -214q0 -148 -96 -237q-96 -87 -258 -87q-87 0 -157 26zM259 215l196 243q-24 6 -52 6q-74 0 -118 -42q-44 -44 -44 -121q0 -50 18 -86zM522 180
q44 44 44 120q0 50 -19 87l-196 -244q24 -6 53 -6q75 0 118 43z" />
    <glyph glyph-name="oslashacute.1" horiz-adv-x="807" 
d="M246 4l-49 -61h-188l115 143q-74 83 -74 214q0 148 96 236q96 87 258 87q87 0 157 -26l50 62h187l-116 -143q75 -82 75 -214q0 -148 -96 -237q-96 -87 -258 -87q-87 0 -157 26zM259 215l196 243q-24 6 -52 6q-74 0 -118 -42q-44 -44 -44 -121q0 -50 18 -86zM522 180
q44 44 44 120q0 50 -19 87l-196 -244q24 -6 53 -6q75 0 118 43zM305 684l124 178h226v-14l-176 -164h-174z" />
    <glyph glyph-name="oslashacute.1204" horiz-adv-x="807" 
d="M246 4l-49 -61h-188l115 143q-74 83 -74 214q0 148 96 236q96 87 258 87q87 0 157 -26l50 62h187l-116 -143q75 -82 75 -214q0 -148 -96 -237q-96 -87 -258 -87q-87 0 -157 26zM259 215l196 243q-24 6 -52 6q-74 0 -118 -42q-44 -44 -44 -121q0 -50 18 -86zM522 180
q44 44 44 120q0 50 -19 87l-196 -244q24 -6 53 -6q75 0 118 43zM305 684l124 178h226v-14l-176 -164h-174z" />
    <glyph glyph-name="otilde.1" horiz-adv-x="807" 
d="M146 65q-96 87 -96 235t96 236q96 87 258 87t258 -87q95 -86 95 -234t-96 -237q-96 -87 -258 -87t-257 87zM511 189q41 41 41 111q0 72 -40 112t-109 40t-108 -39q-40 -40 -40 -112q0 -71 40 -111t109 -40q68 0 107 39zM611 739q-24 -24 -50 -38q-32 -17 -66 -17
q-42 0 -116 34q-54 24 -76 24q-46 0 -106 -66h-1v153q55 55 117 55q42 0 116 -34q54 -24 76 -24q48 0 105 67h1v-154z" />
    <glyph glyph-name="otilde.1203" horiz-adv-x="807" 
d="M146 65q-96 87 -96 235t96 236q96 87 258 87t258 -87q95 -86 95 -234t-96 -237q-96 -87 -258 -87t-257 87zM511 189q41 41 41 111q0 72 -40 112t-109 40t-108 -39q-40 -40 -40 -112q0 -71 40 -111t109 -40q68 0 107 39zM611 739q-24 -24 -50 -38q-32 -17 -66 -17
q-42 0 -116 34q-54 24 -76 24q-46 0 -106 -66h-1v153q55 55 117 55q42 0 116 -34q54 -24 76 -24q48 0 105 67h1v-154z" />
    <glyph glyph-name="p.1" horiz-adv-x="728" 
d="M84 0v602h377q112 0 174 -62q59 -61 59 -167q0 -116 -70 -176q-64 -57 -178 -57h-157v-140h-205zM289 294h133q75 0 75 76q0 77 -77 77h-131v-153z" />
    <glyph glyph-name="p.1132" horiz-adv-x="728" 
d="M84 0v602h377q112 0 174 -62q59 -61 59 -167q0 -116 -70 -176q-64 -57 -178 -57h-157v-140h-205zM289 294h133q75 0 75 76q0 77 -77 77h-131v-153z" />
    <glyph glyph-name="parenleft.1" horiz-adv-x="480" 
d="M482 -141h-213q-210 215 -210 491q0 274 210 491h213q-218 -236 -218 -491t218 -491z" />
    <glyph glyph-name="parenright.1" horiz-adv-x="480" 
d="M-2 840h213q210 -214 210 -491q0 -273 -210 -491h-213q218 236 218 491t-218 491z" />
    <glyph glyph-name="percent.aalt" horiz-adv-x="1086" 
d="M90 373q-57 53 -57 144q0 94 58 146t159 52t159 -52q57 -52 57 -145q0 -91 -58 -143q-59 -53 -159 -53t-159 51zM140 1l313 349l302 350h191v-1l-313 -349l-303 -350h-190v1zM317 517q0 75 -68 75t-68 -74q0 -75 69 -75q67 0 67 74zM995 327q57 -52 57 -144t-57 -145
q-59 -53 -159 -53q-101 0 -159 52q-57 53 -57 145q0 91 58 143q59 53 158 53q101 0 159 -51zM768 183q0 -75 68 -75t68 74q0 75 -68 75t-68 -74z" />
    <glyph glyph-name="period.aalt" horiz-adv-x="362" 
d="M90 21q-33 32 -33 80v1q0 50 33 81q34 32 90 32t91 -32q33 -31 33 -80v-1q0 -49 -33 -81q-35 -32 -91 -32t-90 32z" />
    <glyph glyph-name="periodcentered.1" horiz-adv-x="413" 
d="M116 269q-33 32 -33 80v1q0 50 33 81q34 32 90 32t91 -32q33 -31 33 -80v-1q0 -49 -33 -81q-35 -32 -91 -32t-90 32z" />
    <glyph glyph-name="periodcentered.2" horiz-adv-x="362" 
d="M90 269q-33 32 -33 80v1q0 50 33 81q34 32 90 32t91 -32q33 -31 33 -80v-1q0 -49 -33 -81q-35 -32 -91 -32t-90 32z" />
    <glyph glyph-name="plus.aalt" 
d="M70 267v167h203v205h178v-205h203v-167h-203v-205h-178v205h-203z" />
    <glyph glyph-name="plusminus.aalt" 
d="M102 395v158h171v160h178v-160h172v-158h-172v-161h-178v161h-171zM102 13v154h521v-154h-521z" />
    <glyph glyph-name="q.1" horiz-adv-x="822" 
d="M146 65q-96 87 -96 235t96 236q96 87 258 87q164 0 258 -87q96 -85 96 -234q0 -75 -32 -137l49 -31v-173h-1l-139 88q-94 -71 -232 -71q-162 0 -257 87zM489 150l-130 76l72 109l133 -79l1 9l1 10q1 6 1 11v9q0 75 -43 117t-116 42q-72 0 -113 -41q-42 -42 -42 -117
q0 -77 42 -119q41 -42 114 -42q46 0 80 15z" />
    <glyph glyph-name="q.1133" horiz-adv-x="822" 
d="M146 65q-96 87 -96 235t96 236q96 87 258 87q164 0 258 -87q96 -85 96 -234q0 -75 -32 -137l49 -31v-173h-1l-139 88q-94 -71 -232 -71q-162 0 -257 87zM489 150l-130 76l72 109l133 -79l1 9l1 10q1 6 1 11v9q0 75 -43 117t-116 42q-72 0 -113 -41q-42 -42 -42 -117
q0 -77 42 -119q41 -42 114 -42q46 0 80 15z" />
    <glyph glyph-name="questiondown.1" horiz-adv-x="610" 
d="M430 679q32 -32 32 -80v-1q0 -49 -32 -81q-34 -32 -91 -32q-56 0 -91 32q-33 32 -33 80v1q0 50 33 81q35 32 91 32q57 0 91 -32zM557 39q-144 -61 -268 -61q-119 0 -193 45q-83 51 -83 147q0 112 113 180q98 57 296 87h1v-151q-116 -27 -160 -50q-40 -21 -40 -49
q0 -47 91 -47q118 0 242 74h1v-175z" />
    <glyph glyph-name="quotedbl.aalt" horiz-adv-x="634" 
d="M75 366v334h218v-42l-111 -292h-107zM361 366v334h218v-42l-111 -292h-107z" />
    <glyph glyph-name="quotesingle.aalt" horiz-adv-x="362" 
d="M84 366v334h220v-42l-111 -292h-109z" />
    <glyph glyph-name="r.1" horiz-adv-x="757" 
d="M84 0v602h351q263 0 263 -219q0 -138 -118 -189l156 -191v-3h-237l-119 159h-91v-159h-205zM289 303h124q85 0 85 73t-85 73h-124v-146z" />
    <glyph glyph-name="r.1134" horiz-adv-x="757" 
d="M84 0v602h351q263 0 263 -219q0 -138 -118 -189l156 -191v-3h-237l-119 159h-91v-159h-205zM289 303h124q85 0 85 73t-85 73h-124v-146z" />
    <glyph glyph-name="racute.1" horiz-adv-x="757" 
d="M84 0v602h351q263 0 263 -219q0 -138 -118 -189l156 -191v-3h-237l-119 159h-91v-159h-205zM289 303h124q85 0 85 73t-85 73h-124v-146zM293 674l124 178h226v-14l-176 -164h-174z" />
    <glyph glyph-name="racute.1205" horiz-adv-x="757" 
d="M84 0v602h351q263 0 263 -219q0 -138 -118 -189l156 -191v-3h-237l-119 159h-91v-159h-205zM289 303h124q85 0 85 73t-85 73h-124v-146zM293 674l124 178h226v-14l-176 -164h-174z" />
    <glyph glyph-name="rcaron.1" horiz-adv-x="757" 
d="M84 0v602h351q263 0 263 -219q0 -138 -118 -189l156 -191v-3h-237l-119 159h-91v-159h-205zM289 303h124q85 0 85 73t-85 73h-124v-146zM638 869l-131 -195h-232l-131 195h174l55 -78h37l55 78h173z" />
    <glyph glyph-name="rcaron.1206" horiz-adv-x="757" 
d="M84 0v602h351q263 0 263 -219q0 -138 -118 -189l156 -191v-3h-237l-119 159h-91v-159h-205zM289 303h124q85 0 85 73t-85 73h-124v-146zM638 869l-131 -195h-232l-131 195h174l55 -78h37l55 78h173z" />
    <glyph glyph-name="rcommaaccent.1" horiz-adv-x="757" 
d="M84 0v602h351q263 0 263 -219q0 -138 -118 -189l156 -191v-3h-237l-119 159h-91v-159h-205zM289 303h124q85 0 85 73t-85 73h-124v-146zM209 -270l55 218h206v-20l-142 -198h-119z" />
    <glyph glyph-name="rcommaaccent.1207" horiz-adv-x="757" 
d="M84 0v602h351q263 0 263 -219q0 -138 -118 -189l156 -191v-3h-237l-119 159h-91v-159h-205zM289 303h124q85 0 85 73t-85 73h-124v-146zM209 -270l55 218h206v-20l-142 -198h-119z" />
    <glyph glyph-name="s.1" horiz-adv-x="691" 
d="M71 40v174h1q152 -77 292 -77q91 0 91 36q0 19 -25 29q-11 4 -37 10.5t-68 14.5q-134 24 -187 54q-71 44 -71 132q0 95 76 150q79 56 219 56q128 0 248 -49v-171h-1q-127 66 -256 66q-86 0 -86 -38q1 -18 25 -26q14 -5 39.5 -10.5t62.5 -12.5q127 -22 184 -58
q73 -46 73 -134q0 -89 -63 -142q-76 -62 -230 -62q-149 0 -287 58z" />
    <glyph glyph-name="s.1135" horiz-adv-x="691" 
d="M71 40v174h1q152 -77 292 -77q91 0 91 36q0 19 -25 29q-11 4 -37 10.5t-68 14.5q-134 24 -187 54q-71 44 -71 132q0 95 76 150q79 56 219 56q128 0 248 -49v-171h-1q-127 66 -256 66q-86 0 -86 -38q1 -18 25 -26q14 -5 39.5 -10.5t62.5 -12.5q127 -22 184 -58
q73 -46 73 -134q0 -89 -63 -142q-76 -62 -230 -62q-149 0 -287 58z" />
    <glyph glyph-name="sacute.1" horiz-adv-x="691" 
d="M71 40v174h1q152 -77 292 -77q91 0 91 36q0 19 -25 29q-11 4 -37 10.5t-68 14.5q-134 24 -187 54q-71 44 -71 132q0 95 76 150q79 56 219 56q128 0 248 -49v-171h-1q-127 66 -256 66q-86 0 -86 -38q1 -18 25 -26q14 -5 39.5 -10.5t62.5 -12.5q127 -22 184 -58
q73 -46 73 -134q0 -89 -63 -142q-76 -62 -230 -62q-149 0 -287 58zM274 690l124 178h226v-14l-176 -164h-174z" />
    <glyph glyph-name="sacute.1208" horiz-adv-x="691" 
d="M71 40v174h1q152 -77 292 -77q91 0 91 36q0 19 -25 29q-11 4 -37 10.5t-68 14.5q-134 24 -187 54q-71 44 -71 132q0 95 76 150q79 56 219 56q128 0 248 -49v-171h-1q-127 66 -256 66q-86 0 -86 -38q1 -18 25 -26q14 -5 39.5 -10.5t62.5 -12.5q127 -22 184 -58
q73 -46 73 -134q0 -89 -63 -142q-76 -62 -230 -62q-149 0 -287 58zM274 690l124 178h226v-14l-176 -164h-174z" />
    <glyph glyph-name="scaron.1" horiz-adv-x="691" 
d="M71 40v174h1q152 -77 292 -77q91 0 91 36q0 19 -25 29q-11 4 -37 10.5t-68 14.5q-134 24 -187 54q-71 44 -71 132q0 95 76 150q79 56 219 56q128 0 248 -49v-171h-1q-127 66 -256 66q-86 0 -86 -38q1 -18 25 -26q14 -5 39.5 -10.5t62.5 -12.5q127 -22 184 -58
q73 -46 73 -134q0 -89 -63 -142q-76 -62 -230 -62q-149 0 -287 58zM619 885l-131 -195h-232l-131 195h174l55 -78h37l55 78h173z" />
    <glyph glyph-name="scaron.1209" horiz-adv-x="691" 
d="M71 40v174h1q152 -77 292 -77q91 0 91 36q0 19 -25 29q-11 4 -37 10.5t-68 14.5q-134 24 -187 54q-71 44 -71 132q0 95 76 150q79 56 219 56q128 0 248 -49v-171h-1q-127 66 -256 66q-86 0 -86 -38q1 -18 25 -26q14 -5 39.5 -10.5t62.5 -12.5q127 -22 184 -58
q73 -46 73 -134q0 -89 -63 -142q-76 -62 -230 -62q-149 0 -287 58zM619 885l-131 -195h-232l-131 195h174l55 -78h37l55 78h173z" />
    <glyph glyph-name="scedilla.1" horiz-adv-x="691" 
d="M426 -15l-79 -179h-232v18l149 164q-51 7 -99 19.5t-94 32.5v174h1q152 -77 292 -77q91 0 91 36q0 19 -25 29q-11 4 -37 10.5t-68 14.5q-134 24 -187 54q-71 44 -71 132q0 95 76 150q79 56 219 56q128 0 248 -49v-171h-1q-127 66 -256 66q-86 0 -86 -38q1 -18 25 -26
q14 -5 39.5 -10.5t62.5 -12.5q127 -22 184 -58q73 -46 73 -134q0 -175 -225 -201z" />
    <glyph glyph-name="scedilla.1152" horiz-adv-x="691" 
d="M426 -15l-79 -179h-232v18l149 164q-51 7 -99 19.5t-94 32.5v174h1q152 -77 292 -77q91 0 91 36q0 19 -25 29q-11 4 -37 10.5t-68 14.5q-134 24 -187 54q-71 44 -71 132q0 95 76 150q79 56 219 56q128 0 248 -49v-171h-1q-127 66 -256 66q-86 0 -86 -38q1 -18 25 -26
q14 -5 39.5 -10.5t62.5 -12.5q127 -22 184 -58q73 -46 73 -134q0 -175 -225 -201z" />
    <glyph glyph-name="uni0219.1" horiz-adv-x="691" 
d="M71 40v174h1q152 -77 292 -77q91 0 91 36q0 19 -25 29q-11 4 -37 10.5t-68 14.5q-134 24 -187 54q-71 44 -71 132q0 95 76 150q79 56 219 56q128 0 248 -49v-171h-1q-127 66 -256 66q-86 0 -86 -38q1 -18 25 -26q14 -5 39.5 -10.5t62.5 -12.5q127 -22 184 -58
q73 -46 73 -134q0 -89 -63 -142q-76 -62 -230 -62q-149 0 -287 58zM199 -312l55 218h206v-20l-142 -198h-119z" />
    <glyph glyph-name="uni0219.1210" horiz-adv-x="691" 
d="M71 40v174h1q152 -77 292 -77q91 0 91 36q0 19 -25 29q-11 4 -37 10.5t-68 14.5q-134 24 -187 54q-71 44 -71 132q0 95 76 150q79 56 219 56q128 0 248 -49v-171h-1q-127 66 -256 66q-86 0 -86 -38q1 -18 25 -26q14 -5 39.5 -10.5t62.5 -12.5q127 -22 184 -58
q73 -46 73 -134q0 -89 -63 -142q-76 -62 -230 -62q-149 0 -287 58zM199 -312l55 218h206v-20l-142 -198h-119z" />
    <glyph glyph-name="semicolon.aalt" horiz-adv-x="362" 
d="M101 368q-32 32 -32 81v1q0 50 32 80q35 32 92 32q56 0 91 -32q33 -30 33 -80v-1q0 -49 -33 -81q-35 -32 -91 -32q-57 0 -92 32zM40 -160l47 349h228v-42l-162 -307h-113z" />
    <glyph glyph-name="seven.1" horiz-adv-x="698" 
d="M169 0q42 177 123 304q26 42 67 91.5t96 107.5v34h-232v-114h-182v277h622v-241q-125 -121 -173 -192q-82 -118 -111 -267h-210z" />
    <glyph glyph-name="seven.2" horiz-adv-x="661" 
d="M622 602v-203l-281 -497h-214l292 513v28h-195v-111h-177v270h575z" />
    <glyph glyph-name="seven.3" 
d="M56 423v277h620v-217l-292 -483h-222l306 503v34h-229v-114h-183z" />
    <glyph glyph-name="seven.dnom" horiz-adv-x="434" 
d="M24 238v180h374v-142l-163 -276h-156l166 280v28h-92v-70h-129z" />
    <glyph glyph-name="seven.numr" horiz-adv-x="434" 
d="M44 520v180h374v-142l-163 -276h-156l166 280v28h-92v-70h-129z" />
    <glyph glyph-name="seveneighths.aalt" horiz-adv-x="1086" 
d="M44 520v180h374v-142l-163 -276h-156l166 280v28h-92v-70h-129zM214 1l516 699h142v-1l-516 -699h-142v1zM661 112q0 72 83 101q-73 25 -73 91q0 128 188 128t188 -128q0 -66 -73 -91q83 -29 83 -101q0 -126 -198 -126t-198 126zM917 289q0 39 -58 39t-58 -39
q0 -37 58 -37t58 37zM922 130q0 40 -63 40t-63 -40t63 -40t63 40z" />
    <glyph glyph-name="six.1" horiz-adv-x="696" 
d="M131 62q-89 89 -89 261q0 185 101 292q99 105 272 105q106 0 196 -33v-163h-1q-103 36 -183 36q-168 0 -189 -148q80 45 172 45q108 0 173 -52q72 -57 72 -164q0 -121 -82 -191q-80 -70 -212 -70q-148 0 -230 82zM236 283q1 -86 39 -115q38 -30 87 -30q45 0 73 25
q32 29 32 73q0 45 -35 68q-28 16 -71 16q-64 0 -125 -37z" />
    </font>
</defs>
</svg>
