<?xml version="1.0" standalone="no"?>
<!DOCTYPE svg PUBLIC "-//W3C//DTD SVG 1.1//EN" "http://www.w3.org/Graphics/SVG/1.1/DTD/svg11.dtd" >
<svg xmlns="http://www.w3.org/2000/svg" xmlns:xlink="http://www.w3.org/1999/xlink" version="1.1">
<metadata>
Created by FontForge 20201107 at Tue Jun  3 09:36:36 2025
 By 
Copyright (C) 2019 Hoefler &#38; Co. http://www.typography.com
</metadata>
<defs>
<font id="Decimal-Bold-Cyr" horiz-adv-x="1482" >
  <font-face 
    font-family="Decimal Bold Cyr"
    font-weight="700"
    font-stretch="normal"
    units-per-em="2048"
    panose-1="2 0 8 0 0 0 0 0 0 0"
    ascent="1638"
    descent="-410"
    x-height="1120"
    cap-height="1438"
    bbox="-434 -637 4037 2677"
    underline-thickness="102"
    underline-position="-358"
    unicode-range="U+000D-2116"
  />
<missing-glyph horiz-adv-x="1024" 
d="M102 0v1092h820v-1092h-820zM205 102h614v887h-614v-887z" />
    <glyph glyph-name=".notdef" horiz-adv-x="1024" 
d="M102 0v1092h820v-1092h-820zM205 102h614v887h-614v-887z" />
    <glyph glyph-name=".null" horiz-adv-x="0" 
 />
    <glyph glyph-name="uni000D" unicode="&#xd;" horiz-adv-x="512" 
 />
    <glyph glyph-name="space" unicode=" " horiz-adv-x="561" 
 />
    <glyph glyph-name="exclam" unicode="!" horiz-adv-x="860" 
d="M565 563h-270l-98 848v23h467v-23zM430 -23q-104 0 -170.5 58.5t-66.5 161.5v4q0 103 66.5 161t170.5 58q103 0 171.5 -59t68.5 -160v-2q0 -100 -69 -161t-171 -61z" />
    <glyph glyph-name="quotedbl" unicode="&#x22;" horiz-adv-x="1294" 
d="M385 778h-190v656h409v-60zM954 778h-190v656h410v-60z" />
    <glyph glyph-name="numbersign" unicode="#" horiz-adv-x="1949" 
d="M604 0h-317l67 272h-223v267h289l86 356h-248v266h313l68 273h317l-67 -273h387l67 273h318l-68 -273h226v-266h-291l-86 -356h250v-267h-316l-67 -272h-318l68 272h-387zM823 895l-86 -356h387l86 356h-387z" />
    <glyph glyph-name="dollar" unicode="$" horiz-adv-x="1466" 
d="M901 -215l-332 -31v275q-159 21 -385 116v328h2q316 -166 596 -166q215 0 215 121q0 61 -61 88q-64 27 -266 72q-57 11 -98.5 21t-96 27.5t-93 37t-79 50t-65 66t-40.5 85t-16 108.5q0 86 33 158.5t90.5 123.5t129 85t153.5 51v248h332v-240q177 -26 346 -104v-330h-2
q-239 151 -508 151q-215 0 -215 -118q0 -54 57 -80q53 -25 266 -72q58 -12 101 -22.5t97 -28.5t93 -38.5t79 -51.5t64.5 -68t40 -87.5t15.5 -110.5q0 -96 -36 -174t-99.5 -129.5t-143.5 -83t-174 -42.5v-235z" />
    <glyph glyph-name="percent" unicode="%" horiz-adv-x="2215" 
d="M516 670q-194 0 -312 99.5t-118 289.5q0 193 118 296t314 103q192 0 311 -103.5t119 -293.5q0 -187 -120.5 -289t-311.5 -102zM305 0v2l635 715l627 717h344v-2l-637 -715l-625 -717h-344zM674 1061q0 164 -158 164q-156 0 -156 -164t158 -164q156 0 156 164zM1700 764
q194 0 312 -99.5t118 -289.5q0 -191 -119 -295.5t-313 -104.5q-195 0 -312.5 103.5t-117.5 294.5q0 187 120.5 289t311.5 102zM1542 373q0 -164 158 -164q155 0 155 164t-157 164q-156 0 -156 -164z" />
    <glyph glyph-name="ampersand" unicode="&#x26;" horiz-adv-x="1738" 
d="M571 -37q-95 0 -178 22.5t-150 67.5t-106 121.5t-39 175.5q0 281 445 518l-224 246v320h1049l14 -291h-645l467 -529l395 347l3 -3v-383l-211 -180l350 -395h-420l-170 188q-299 -225 -580 -225zM459 389q0 -62 45.5 -94.5t109.5 -32.5q148 0 344 146l-225 247
q-152 -88 -211 -141q-63 -60 -63 -125z" />
    <glyph glyph-name="quotesingle" unicode="'" horiz-adv-x="727" 
d="M387 778h-192v656h411v-60z" />
    <glyph glyph-name="parenleft" unicode="(" horiz-adv-x="954" 
d="M940 -414h-389q-418 433 -418 992q0 554 418 993h389q-440 -470 -440 -993q0 -522 440 -992z" />
    <glyph glyph-name="parenright" unicode=")" horiz-adv-x="954" 
d="M14 1571h389q418 -433 418 -991q0 -555 -418 -994h-389q441 471 441 994q0 520 -441 991z" />
    <glyph glyph-name="asterisk" unicode="*" horiz-adv-x="1126" 
d="M844 709l-51 -41l-185 86l-123 -158l-63 14l-47 197h-201l-29 57l127 160l-127 158l29 59h201l45 199l63 14l127 -158l185 88l51 -38l-45 -199l182 -88v-66l-184 -90z" />
    <glyph glyph-name="plus" unicode="+" horiz-adv-x="1517" 
d="M596 563h-416v307h416v422h326v-422h415v-307h-415v-420h-326v420z" />
    <glyph glyph-name="comma" unicode="," horiz-adv-x="796" 
d="M332 -307h-199l90 692h441v-61z" />
    <glyph glyph-name="hyphen" unicode="-" horiz-adv-x="913" 
d="M803 500h-694v327h694v-327z" />
    <glyph glyph-name="period" unicode="." horiz-adv-x="849" 
d="M424 -23q-104 0 -171 58.5t-67 161.5v4q0 103 66.5 161t171.5 58t172.5 -58t67.5 -161v-2q0 -103 -68 -162.5t-172 -59.5z" />
    <glyph glyph-name="slash" unicode="/" horiz-adv-x="1171" 
d="M424 -414h-334l668 1985h336z" />
    <glyph glyph-name="zero" unicode="0" horiz-adv-x="1591" 
d="M795 -37q-171 0 -305 54.5t-220.5 154.5t-131 237.5t-44.5 305.5t45 305.5t131.5 238t221 156t305.5 55.5q223 0 383 -97t238.5 -265t78.5 -389t-79 -390t-239.5 -267.5t-383.5 -98.5zM1130 715q0 70 -10 131.5t-34 119.5t-61.5 99t-96 65.5t-133.5 24.5
q-336 0 -336 -436q0 -70 10 -131.5t35 -119.5t62.5 -99t96.5 -65.5t134 -24.5q333 0 333 436z" />
    <glyph glyph-name="one" unicode="1" horiz-adv-x="966" 
d="M721 0h-363v1135h-268l45 299h586v-1434z" />
    <glyph glyph-name="two" unicode="2" horiz-adv-x="1386" 
d="M1286 0h-1184v307l404 297q257 189 315 244q86 80 86 158q0 149 -198 149q-264 0 -543 -223h-2v350q262 188 571 188q85 0 162 -14.5t148 -47t122.5 -81t82 -122t30.5 -163.5q0 -164 -115 -294q-87 -101 -372 -299l-193 -138h686v-311z" />
    <glyph glyph-name="three" unicode="3" horiz-adv-x="1413" 
d="M115 66v331h2q275 -127 530 -127q295 0 295 168q0 90 -117 131q-112 37 -374 37h-56v178l410 340h-674l14 310h1115v-281l-408 -322q465 -65 465 -393q0 -101 -38.5 -183t-102 -135t-148 -89.5t-173 -52t-181.5 -15.5q-292 0 -559 103z" />
    <glyph glyph-name="four" unicode="4" horiz-adv-x="1570" 
d="M1247 0h-344v303h-825v266l504 865h665v-834h254l-14 -297h-240v-303zM907 598v535h-133l-307 -535h440z" />
    <glyph glyph-name="five" unicode="5" horiz-adv-x="1411" 
d="M137 51v330h2q298 -109 541 -109q46 0 90 8t87 26.5t69 54.5t26 85q0 55 -34 89q-71 71 -494 71h-250l21 828h1028l14 -308h-721l-8 -231h49q67 0 111.5 -1t114 -5.5t117.5 -12.5t109.5 -23.5t103.5 -37.5t86 -56t70 -77t43 -101.5t17 -129.5q0 -100 -37.5 -183
t-100 -138.5t-145 -94t-171.5 -55.5t-181 -17q-292 0 -557 88z" />
    <glyph glyph-name="six" unicode="6" horiz-adv-x="1458" 
d="M758 -37q-165 0 -292.5 52t-208.5 148.5t-122 228t-41 294.5q0 234 87.5 410t259 275t405.5 99q232 0 444 -90v-317h-2q-253 106 -424 106q-380 0 -415 -348q171 119 397 119q113 0 206.5 -24.5t169 -75.5t118 -138.5t42.5 -205.5q0 -129 -51.5 -232.5t-139 -168
t-198.5 -98.5t-235 -34zM449 567q15 -309 321 -309q110 0 187 57.5t77 163.5q0 55 -23.5 93.5t-64.5 58t-84.5 27.5t-95.5 8q-161 0 -317 -99z" />
    <glyph glyph-name="seven" unicode="7" horiz-adv-x="1413" 
d="M426 895h-332v539h1239v-418l-628 -1016h-402l662 1067v66h-539v-238z" />
    <glyph glyph-name="eight" unicode="8" horiz-adv-x="1529" 
d="M766 -49q-63 0 -123 5t-127 17.5t-125 33t-111.5 53.5t-91 75.5t-60 103t-22.5 132.5q0 251 281 354q-248 94 -248 322q0 98 39 175t101 124t146.5 77.5t167.5 42t173 11.5q74 0 143.5 -8.5t142 -27.5t132 -52.5t107 -79.5t74 -113t26.5 -149q0 -227 -246 -322
q278 -102 278 -354q0 -84 -29 -152t-80.5 -112.5t-114.5 -76.5t-140.5 -48.5t-147.5 -23.5t-145 -7zM1034 1018q0 50 -25 87t-66.5 55.5t-85.5 27t-91 8.5q-270 0 -270 -178t270 -178q268 0 268 178zM1059 418q0 184 -293 184t-293 -182q0 -187 293 -187t293 185z" />
    <glyph glyph-name="nine" unicode="9" horiz-adv-x="1458" 
d="M700 1470q165 0 292.5 -52t208.5 -148t122 -227.5t41 -294.5q0 -234 -87.5 -410.5t-259 -275.5t-405.5 -99q-232 0 -444 90v318h2q256 -107 424 -107q381 0 416 348q-170 -118 -398 -118q-113 0 -206.5 24.5t-169 75.5t-118 138.5t-42.5 205.5q0 129 51.5 232.5
t139 167.5t198.5 98t235 34zM424 954q0 -186 268 -186q164 0 318 98q-15 310 -322 310q-109 0 -186.5 -58t-77.5 -164z" />
    <glyph glyph-name="colon" unicode=":" horiz-adv-x="860" 
d="M430 694q-104 0 -172 59.5t-68 161.5v3q0 104 67.5 161.5t172.5 57.5q102 0 170 -58.5t68 -158.5v-5q0 -100 -68.5 -160.5t-169.5 -60.5zM430 -23q-105 0 -172.5 58.5t-67.5 161.5v4q0 103 67.5 161t172.5 58q103 0 170.5 -59t67.5 -160v-2q0 -100 -68.5 -161t-169.5 -61
z" />
    <glyph glyph-name="semicolon" unicode=";" horiz-adv-x="860" 
d="M430 694q-104 0 -172 59.5t-68 161.5v3q0 104 67.5 161.5t172.5 57.5q102 0 170 -58.5t68 -158.5v-5q0 -100 -68.5 -160.5t-169.5 -60.5zM332 -307h-201l92 692h441v-61z" />
    <glyph glyph-name="less" unicode="&#x3c;" horiz-adv-x="1357" 
d="M1145 449v-349l-971 445v344l971 442v-348l-594 -266z" />
    <glyph glyph-name="equal" unicode="=" horiz-adv-x="1550" 
d="M1341 842h-1132v301h1132v-301zM1341 291h-1132v301h1132v-301z" />
    <glyph glyph-name="greater" unicode="&#x3e;" horiz-adv-x="1357" 
d="M213 983v348l971 -444v-344l-971 -443v349l594 266z" />
    <glyph glyph-name="question" unicode="?" horiz-adv-x="1257" 
d="M119 1008v331q294 134 557 134q79 0 153.5 -11.5t148.5 -40t128.5 -72t88.5 -112.5t34 -156q0 -80 -32 -148.5t-78 -117.5t-123 -91.5t-140.5 -68.5t-158.5 -51t-149 -36.5t-138 -26.5h-2v290q266 61 364 119q82 46 82 109q0 115 -215 115q-258 0 -518 -166h-2zM563 -23
q-105 0 -172 58.5t-67 161.5v4q0 103 67 161t172 58q103 0 170.5 -59t67.5 -160v-2q0 -100 -68.5 -161t-169.5 -61z" />
    <glyph glyph-name="at" unicode="@" horiz-adv-x="2258" 
d="M1346 389q-142 -145 -322 -145q-124 0 -205.5 60t-81.5 179q0 55 21 100t53.5 75.5t82.5 54.5t96 37.5t106.5 23.5t102 14t93.5 7v8q0 117 -141 117q-167 0 -336 -111v248q180 98 379 98q375 0 375 -352v-207q0 -135 112 -135q154 0 154 321q0 150 -47 262.5t-134 181
t-204 102.5t-264 34q-348 0 -542.5 -183.5t-194.5 -529.5q0 -643 727 -643q298 0 581 125l-2 -262q-259 -113 -590 -113q-226 0 -406 52t-313.5 157.5t-205.5 278.5t-72 403q0 302 130 522t358 331.5t528 111.5q161 0 299.5 -31t253 -96t195 -160.5t125 -231.5t44.5 -302
q0 -115 -22.5 -209.5t-71.5 -173t-136.5 -122.5t-207.5 -44q-223 0 -317 147zM1110 440q45 0 97.5 20t84.5 52v129q-210 -18 -262 -76q-20 -20 -20 -51q0 -74 100 -74z" />
    <glyph glyph-name="A" unicode="A" horiz-adv-x="1746" 
d="M436 0h-387l529 1434h591l527 -1434h-391l-115 317h-639zM909 1102h-75l-175 -484h424z" />
    <glyph glyph-name="B" unicode="B" horiz-adv-x="1652" 
d="M1016 0h-826v1434h861q95 0 175.5 -18.5t150 -58t109.5 -112.5t40 -172q0 -258 -242 -328q272 -111 272 -342q0 -403 -540 -403zM559 1133v-275h414q180 0 180 141q0 134 -180 134h-414zM559 600v-299l432 2q191 3 191 150t-191 147h-432z" />
    <glyph glyph-name="C" unicode="C" horiz-adv-x="1597" 
d="M905 -35q-237 0 -414.5 84.5t-278.5 254t-101 407.5q0 176 63 320.5t173 239t259.5 146t323.5 51.5q311 0 536 -161v-363h-2q-295 195 -522 195q-200 0 -325 -114t-125 -312t124 -308t324 -110q270 0 524 190h2v-366q-111 -77 -261 -115.5t-300 -38.5z" />
    <glyph glyph-name="D" unicode="D" horiz-adv-x="1759" 
d="M930 0h-740v1434h740q338 0 529.5 -189t191.5 -526q0 -338 -191.5 -528.5t-529.5 -190.5zM565 1112v-790h340q365 0 365 393q0 397 -365 397h-340z" />
    <glyph glyph-name="E" unicode="E" horiz-adv-x="1568" 
d="M1444 0h-1254v1434h1225l15 -318h-867v-229h688v-301h-688v-269h893z" />
    <glyph glyph-name="F" unicode="F" horiz-adv-x="1507" 
d="M565 0h-375v1434h1211l12 -320h-848v-291h711v-309h-711v-514z" />
    <glyph glyph-name="G" unicode="G" horiz-adv-x="1765" 
d="M909 -37q-171 0 -317 48.5t-253.5 140t-168.5 232t-61 314.5q0 328 221 543q235 229 628 229q329 0 545 -149v-352h-2q-286 176 -534 176q-217 0 -346 -116.5t-129 -330.5q0 -200 121.5 -309.5t324.5 -109.5q70 0 133.5 15.5t119 47t90.5 87t40 128.5h-467v285h823l4 -66
q2 -29 2 -82q0 -351 -210 -541t-564 -190z" />
    <glyph glyph-name="H" unicode="H" horiz-adv-x="1808" 
d="M565 0h-375v1434h375v-533h676v533h377v-1434h-377v571h-676v-571z" />
    <glyph glyph-name="I" unicode="I" horiz-adv-x="763" 
d="M569 0h-374v1434h374v-1434z" />
    <glyph glyph-name="J" unicode="J" horiz-adv-x="1456" 
d="M137 106v359h2q232 -170 486 -170q278 0 278 244v577h-526l14 318h887v-949q0 -520 -621 -520q-289 0 -520 141z" />
    <glyph glyph-name="K" unicode="K" horiz-adv-x="1705" 
d="M565 0h-375v1434h375v-543h207l447 543h428v-2l-570 -687l600 -743v-2h-446l-467 571h-199v-571z" />
    <glyph glyph-name="L" unicode="L" horiz-adv-x="1429" 
d="M1339 0h-1149v1434h375v-1102h789z" />
    <glyph glyph-name="M" unicode="M" horiz-adv-x="2093" 
d="M555 0h-365v1434h437l424 -740l413 740h439v-1434h-369v889h-6l-473 -807h-25l-467 807h-8v-889z" />
    <glyph glyph-name="N" unicode="N" horiz-adv-x="1816" 
d="M551 0h-361v1434h400l667 -881h9v881h360v-1434h-383l-684 907h-8v-907z" />
    <glyph glyph-name="O" unicode="O" horiz-adv-x="1828" 
d="M913 -39q-176 0 -323 50.5t-253.5 145t-166 238t-59.5 322.5t59.5 322.5t166 238t253.5 145t323 50.5q237 0 417.5 -86.5t284 -259t103.5 -410.5t-103.5 -410.5t-284 -259t-417.5 -86.5zM913 289q203 0 315.5 112.5t112.5 315.5q0 204 -111 316t-315 112
q-203 0 -315.5 -112.5t-112.5 -315.5t112 -315.5t314 -112.5z" />
    <glyph glyph-name="P" unicode="P" horiz-adv-x="1605" 
d="M565 0h-375v1434h803q252 0 391.5 -137.5t139.5 -389.5q0 -260 -150 -399t-411 -139h-398v-369zM565 1116v-434h377q209 0 209 217t-215 217h-371z" />
    <glyph glyph-name="Q" unicode="Q" horiz-adv-x="1853" 
d="M913 1473q237 0 417.5 -86.5t284 -259t103.5 -410.5q0 -201 -88 -359l131 -90v-354h-2l-315 211q-215 -164 -531 -164q-176 0 -323 50.5t-253.5 145t-166 238t-59.5 322.5t59.5 322.5t166 238t253.5 145t323 50.5zM922 1145q-206 0 -320.5 -113.5t-114.5 -318.5t115 -322
t320 -117q137 0 235 52l-358 221l166 237l366 -237q23 84 23 166q0 203 -115 317.5t-317 114.5z" />
    <glyph glyph-name="R" unicode="R" horiz-adv-x="1665" 
d="M565 0h-375v1434h801q557 0 557 -504q0 -354 -293 -459l353 -471h-432l-285 399h-326v-399zM565 1116v-409h393q213 0 213 206q0 203 -213 203h-393z" />
    <glyph glyph-name="S" unicode="S" horiz-adv-x="1531" 
d="M147 102v361h3q338 -180 661 -180q260 0 260 129q0 64 -72 92q-60 24 -311 69q-60 10 -108 20.5t-107 28.5t-103.5 39t-89 54t-73 72t-46.5 93t-18 117q0 103 42 186t109 135t156.5 87t180 49t184.5 14q295 0 545 -122v-359h-2q-271 164 -572 164q-258 0 -258 -127
q0 -77 101 -98q141 -30 276 -56q65 -11 113 -21.5t109 -29t104 -39.5t88 -54.5t72.5 -74t45 -97t17.5 -124.5q0 -104 -39.5 -186t-103.5 -133.5t-151 -85t-176 -47t-185 -13.5q-338 0 -652 137z" />
    <glyph glyph-name="T" unicode="T" horiz-adv-x="1542" 
d="M958 0h-374v1102h-510l14 332h1368l12 -332h-510v-1102z" />
    <glyph glyph-name="U" unicode="U" horiz-adv-x="1773" 
d="M178 557v877h377v-852q0 -283 332 -283q334 0 334 274v861h374v-869q0 -604 -710 -604q-707 0 -707 596z" />
    <glyph glyph-name="V" unicode="V" horiz-adv-x="1697" 
d="M1151 0h-604l-498 1434h406l366 -1086h60l366 1086h402z" />
    <glyph glyph-name="W" unicode="W" horiz-adv-x="2519" 
d="M969 0h-506l-387 1434h397l262 -1055h23l332 1055h366l326 -1055h24l254 1055h383l-385 -1434h-502l-286 922h-13z" />
    <glyph glyph-name="X" unicode="X" horiz-adv-x="1726" 
d="M860 498l-387 -498h-442v2l592 737l-553 693v2h450l348 -451l351 451h440v-2l-551 -689l590 -741v-2h-453z" />
    <glyph glyph-name="Y" unicode="Y" horiz-adv-x="1669" 
d="M1022 0h-375v475l-637 959h430l385 -600h23l393 600h416l-635 -953v-481z" />
    <glyph glyph-name="Z" unicode="Z" horiz-adv-x="1593" 
d="M1464 0h-1327v336l826 776h-803l12 322h1290v-306l-856 -806h858v-322z" />
    <glyph glyph-name="bracketleft" unicode="[" horiz-adv-x="948" 
d="M864 -414h-714v1985h714v-277h-379v-1431h379v-277z" />
    <glyph glyph-name="backslash" unicode="\" horiz-adv-x="1173" 
d="M416 1571l667 -1985h-335l-670 1985h338z" />
    <glyph glyph-name="bracketright" unicode="]" horiz-adv-x="948" 
d="M84 1571h715v-1985h-715v277h379v1431h-379v277z" />
    <glyph glyph-name="asciicircum" unicode="^" horiz-adv-x="1513" 
d="M496 705h-367l383 729h481l391 -729h-372l-217 413h-88z" />
    <glyph glyph-name="underscore" unicode="_" horiz-adv-x="1458" 
d="M1470 -406h-1482v263h1482v-263z" />
    <glyph glyph-name="grave" unicode="`" horiz-adv-x="1024" 
d="M555 1624l252 -352h-322l-358 327v25h428z" />
    <glyph glyph-name="a" unicode="a" horiz-adv-x="1294" 
d="M461 -33q-77 0 -143.5 18.5t-119.5 55t-83.5 98t-30.5 140.5q0 71 21.5 125t66 92t90 62.5t115.5 51.5q152 56 434 70v14q0 162 -193 162q-214 0 -430 -143h-2v319q237 123 488 123q489 0 489 -459v-696h-332l-6 125q-146 -158 -364 -158zM567 217q64 0 130.5 25
t113.5 67v176q-284 -24 -356 -96q-29 -29 -29 -72q0 -100 141 -100z" />
    <glyph glyph-name="b" unicode="b" horiz-adv-x="1456" 
d="M152 1571h362v-567q134 149 344 149q157 0 274.5 -73.5t177.5 -197.5t60 -280q0 -281 -177 -458t-458 -177q-173 0 -344 68h-239v1536zM514 791v-490q110 -49 199 -49q117 0 207 84q88 82 88 242q0 132 -68.5 207t-198.5 75t-227 -69z" />
    <glyph glyph-name="c" unicode="c" horiz-adv-x="1226" 
d="M729 -37q-134 0 -250.5 38.5t-204 110.5t-138 183.5t-50.5 249.5q0 136 51 251.5t138.5 193.5t205.5 121.5t252 43.5q232 0 385 -106v-322h-2q-168 125 -352 125q-136 0 -224.5 -81t-88.5 -216q0 -133 89 -211t224 -78q184 0 352 125h2v-319q-174 -109 -389 -109z" />
    <glyph glyph-name="d" unicode="d" horiz-adv-x="1458" 
d="M944 1571h363v-1571h-353l-2 141q-144 -176 -364 -176q-119 0 -215.5 45t-158.5 123t-95 180t-33 217q0 174 75.5 315.5t213.5 223.5t313 82q143 0 256 -55v475zM741 860q-136 0 -214 -85t-78 -222q0 -132 70 -213.5t200 -81.5q124 0 225 82v457q-92 63 -203 63z" />
    <glyph glyph-name="e" unicode="e" horiz-adv-x="1345" 
d="M700 1157q266 0 413 -158.5t147 -425.5q0 -19 -3 -53l-4 -55h-807q41 -215 326 -215q209 0 416 115h2v-291q-201 -109 -451 -109q-140 0 -257 34.5t-206.5 103t-139.5 179.5t-50 255q0 275 170 447.5t444 172.5zM451 666h483q-9 101 -72.5 158t-165.5 57
q-201 0 -245 -215z" />
    <glyph glyph-name="f" unicode="f" horiz-adv-x="954" 
d="M625 0h-357v838h-225l51 282h174v6q0 215 99 347q94 131 333 131q108 0 199 -27v-277h-2q-62 21 -127 21q-145 0 -145 -164v-37h293v-282h-293v-838z" />
    <glyph glyph-name="g" unicode="g" horiz-adv-x="1277" 
d="M637 342l-84 4l-16 -102q405 -34 569 -117t164 -233q0 -137 -133 -232q-168 -119 -498 -119q-44 0 -90 2.5t-107.5 10t-115.5 20t-109 34.5t-94 51.5t-63.5 73.5t-24.5 97q0 153 215 248l65 321q-219 103 -219 332q0 108 47.5 191t126.5 131.5t172 73t195 24.5
q81 0 156 -16l102 184h373v-16l-248 -269q156 -105 156 -293q0 -85 -32.5 -154t-85.5 -114t-123.5 -76t-145 -44t-152.5 -13zM639 573q88 0 145.5 45t57.5 130t-57.5 128.5t-145.5 43.5t-146.5 -45t-58.5 -130q0 -172 205 -172zM674 -229q30 0 67.5 3.5t88.5 12t84.5 29.5
t33.5 51q0 107 -575 131q-56 -44 -56 -90q0 -137 357 -137z" />
    <glyph glyph-name="h" unicode="h" horiz-adv-x="1425" 
d="M512 0h-362v1571h360v-613q176 197 395 197q186 0 283.5 -109.5t97.5 -297.5v-748h-362v659q0 185 -166 185q-127 0 -246 -107v-737z" />
    <glyph glyph-name="i" unicode="i" horiz-adv-x="669" 
d="M336 1255q-94 0 -157.5 49t-63.5 140v2q0 91 62 139.5t157 48.5t158 -48t63 -140v-2q0 -89 -63.5 -139t-155.5 -50zM516 0h-362v1120h362v-1120z" />
    <glyph glyph-name="j" unicode="j" horiz-adv-x="694" 
d="M360 1255q-94 0 -157.5 49t-63.5 140v2q0 91 62 139.5t157 48.5q96 0 159 -48t63 -140v-2q0 -89 -64 -139t-156 -50zM-96 -416v281h2q79 -31 147 -31q125 0 125 135v1151h363v-1171q0 -404 -396 -404q-137 0 -241 39z" />
    <glyph glyph-name="k" unicode="k" horiz-adv-x="1366" 
d="M512 0h-362v1571h362v-856h143l267 405h405v-2l-364 -528l395 -588v-2h-418l-281 432h-147v-432z" />
    <glyph glyph-name="l" unicode="l" horiz-adv-x="669" 
d="M516 0h-362v1571h362v-1571z" />
    <glyph glyph-name="m" unicode="m" horiz-adv-x="2150" 
d="M512 0h-362v1120h358l2 -172q168 207 383 207q258 0 340 -223q192 223 409 223q178 0 273.5 -112.5t95.5 -294.5v-748h-362v659q0 185 -154 185q-114 0 -233 -107v-737h-363v659q0 185 -154 185q-114 0 -233 -107v-737z" />
    <glyph glyph-name="n" unicode="n" horiz-adv-x="1425" 
d="M512 0h-362v1120h358l2 -162q176 197 395 197q186 0 283.5 -109.5t97.5 -297.5v-748h-362v659q0 185 -166 185q-127 0 -246 -107v-737z" />
    <glyph glyph-name="o" unicode="o" horiz-adv-x="1429" 
d="M715 -37q-277 0 -453 161t-176 435q0 183 81.5 319.5t223 207.5t324.5 71q279 0 453.5 -161t174.5 -437q0 -183 -81.5 -319t-223.5 -206.5t-323 -70.5zM715 254q127 0 198.5 87t71.5 218t-71 219t-199 88q-130 0 -200.5 -87t-70.5 -220q0 -132 71 -218.5t200 -86.5z" />
    <glyph glyph-name="p" unicode="p" horiz-adv-x="1458" 
d="M512 -416h-362v1536h352l4 -143q141 178 362 178q120 0 217 -45t159 -123.5t95 -180.5t33 -218q0 -175 -75 -316.5t-213 -223t-314 -81.5q-139 0 -258 58v-441zM717 258q135 0 214 86.5t79 222.5q0 133 -70 213t-201 80q-126 0 -227 -82v-454q97 -66 205 -66z" />
    <glyph glyph-name="q" unicode="q" horiz-adv-x="1454" 
d="M1305 -416h-363v533q-134 -152 -344 -152q-155 0 -273 74.5t-178.5 199.5t-60.5 279q0 281 177 458t458 177q170 0 344 -70h240v-1499zM942 330v487q-110 49 -199 49q-140 0 -217 -91t-77 -234q0 -130 68 -205.5t196 -75.5q131 0 229 70z" />
    <glyph glyph-name="r" unicode="r" horiz-adv-x="915" 
d="M512 0h-362v1120h360v-207q133 232 313 232h19q18 0 28 -2v-363l-77 4q-213 0 -281 -127v-657z" />
    <glyph glyph-name="s" unicode="s" horiz-adv-x="1202" 
d="M127 86v303h2q249 -153 508 -153q151 0 151 83q0 37 -40 58q-49 25 -209 59q-71 15 -121.5 28.5t-110 41t-96 62t-61.5 89.5t-25 125q0 98 44 173t117.5 117t158.5 62.5t178 20.5q104 0 224.5 -28t205.5 -76v-297h-2q-228 129 -445 129q-137 0 -137 -76q0 -39 45 -59
q59 -27 215 -60q72 -17 120.5 -31.5t106 -43t91.5 -63t57.5 -90t23.5 -126.5q0 -83 -29.5 -148t-78 -106t-115.5 -68t-136 -38t-146 -11q-259 0 -496 123z" />
    <glyph glyph-name="t" unicode="t" horiz-adv-x="935" 
d="M643 0h-358v838h-244l53 282h191v252l358 41v-293h248v-282h-248v-838z" />
    <glyph glyph-name="u" unicode="u" horiz-adv-x="1425" 
d="M913 1120h363v-1120h-358l-3 158q-177 -195 -393 -195q-185 0 -284 111t-99 299v747h363v-659q0 -185 166 -185q125 0 245 105v739z" />
    <glyph glyph-name="v" unicode="v" horiz-adv-x="1331" 
d="M918 0h-506l-385 1120h376l250 -805h33l248 805h371z" />
    <glyph glyph-name="w" unicode="w" horiz-adv-x="2068" 
d="M834 0h-459l-328 1120h377l190 -776h29l209 766h377l213 -766h31l188 776h360l-329 -1120h-459l-182 690h-31z" />
    <glyph glyph-name="x" unicode="x" horiz-adv-x="1333" 
d="M412 0h-394v2l428 578l-405 538l2 2h403l230 -315l223 315h393v-2l-405 -547l428 -569v-2h-404l-254 346z" />
    <glyph glyph-name="y" unicode="y" horiz-adv-x="1325" 
d="M717 -416h-350l133 369l-469 1167h370l283 -755l260 755h363z" />
    <glyph glyph-name="z" unicode="z" horiz-adv-x="1253" 
d="M119 0v266l581 568h-569l14 286h1002v-258l-598 -575h598v-287h-1028z" />
    <glyph glyph-name="braceleft" unicode="{" horiz-adv-x="1138" 
d="M346 256l-313 293v59l313 293l-16 137l-6 107q0 228 133.5 344.5t363.5 116.5q119 0 240 -33v-293h-2q-85 33 -172 33q-228 0 -228 -238q0 -14 3 -41l28 -243l-258 -213l258 -211l-28 -244q-3 -27 -3 -41q0 -232 228 -232q87 0 172 33h2v-299q-121 -33 -240 -33
q-230 0 -363.5 116.5t-133.5 344.5l6 107z" />
    <glyph glyph-name="bar" unicode="|" horiz-adv-x="1081" 
d="M707 -414h-332v1985h332v-1985z" />
    <glyph glyph-name="braceright" unicode="}" horiz-adv-x="1138" 
d="M793 895l313 -293v-59l-313 -293l16 -137l6 -107q0 -228 -133.5 -344.5t-364.5 -116.5q-118 0 -239 33v293h2q85 -33 172 -33q227 0 227 238q0 23 -2 41l-28 243l258 213l-258 211l28 244q2 18 2 41q0 231 -227 231q-90 0 -172 -32h-2v299q117 32 239 32
q231 0 364.5 -116t133.5 -344l-6 -107z" />
    <glyph glyph-name="asciitilde" unicode="~" horiz-adv-x="1546" 
d="M178 416v407q163 166 332 166q130 0 330 -117q132 -75 207 -75q44 0 89 20t91.5 61t71.5 67t67 73h2v-408q-163 -166 -330 -166q-132 0 -331 117q-135 78 -205 78q-127 0 -322 -223h-2z" />
    <glyph glyph-name="uni00A0" unicode="&#xa0;" horiz-adv-x="561" 
 />
    <glyph glyph-name="section" unicode="&#xa7;" horiz-adv-x="1603" 
d="M178 -322v310h2q268 -146 512 -146q208 0 324 88q-139 26 -262 68.5t-237.5 112.5t-196 159t-130.5 214t-49 272q0 137 39.5 253.5t110.5 201t169.5 144t217 89t252.5 29.5q264 0 444 -97v-309h-2q-201 121 -442 121q-214 0 -330 -88q140 -27 262 -70t236.5 -112.5
t195.5 -158.5t130 -214t49 -273q0 -168 -60 -304.5t-165.5 -225.5t-247 -136.5t-306.5 -47.5q-302 0 -516 120zM1147 158l4 43q2 18 2 47q0 103 -43.5 194.5t-111 157.5t-161 121.5t-182.5 90.5t-186 60q-8 -31 -8 -90q0 -196 162 -358q168 -177 524 -266z" />
    <glyph glyph-name="uni00AD" unicode="&#xad;" horiz-adv-x="0" 
 />
    <glyph glyph-name="Amacron" unicode="&#x100;" horiz-adv-x="917" 
d="M920 -369h-922v1844h922v-1844zM129 1382l330 -718l329 718h-659zM90 1245v-1384l318 692zM510 553l317 -692v1384zM459 442l-330 -718h659z" />
    <glyph glyph-name="amacron" unicode="&#x101;" horiz-adv-x="0" 
 />
    <glyph glyph-name="Abreve" unicode="&#x102;" horiz-adv-x="860" 
d="M430 1157q103 0 170.5 -59.5t67.5 -161.5v-2q0 -103 -66.5 -161t-171.5 -58q-103 0 -171.5 59t-68.5 160v2q0 100 68.5 160.5t171.5 60.5zM295 571h270l99 -847v-23h-467v23z" />
    <glyph glyph-name="abreve" unicode="&#x103;" horiz-adv-x="1228" 
d="M831 -53l-325 -31v289q-179 50 -281 182.5t-102 317.5q0 188 109.5 327.5t291.5 192.5v248h324v-234q129 -22 237 -90v-299h-4q-154 115 -321 115q-126 0 -210.5 -68.5t-84.5 -191.5q0 -79 44.5 -136t110.5 -82.5t144 -25.5q161 0 317 117h4v-302q-114 -69 -254 -90v-239
z" />
    <glyph glyph-name="Aogonek" unicode="&#x104;" horiz-adv-x="1454" 
d="M307 594h-198l43 270h233q27 92 54 163t65.5 143.5t86 124t108.5 93t141 62t176 20.5q153 0 272 -61v-307h-2q-118 59 -233 59q-56 0 -99.5 -14.5t-73.5 -38t-54.5 -62.5t-40 -78t-31.5 -94l-2 -10h493v-270h-571l-84 -291h743v-303h-1196z" />
    <glyph glyph-name="aogonek" unicode="&#x105;" horiz-adv-x="1691" 
d="M666 281h-486l13 239h458l-73 131h-377l12 238h229l-309 545h387l318 -588h18l326 588h377l-312 -545h230l14 -238h-381l-74 -131h461l12 -239h-485v-281h-358v281z" />
    <glyph glyph-name="Cacute" unicode="&#x106;" horiz-adv-x="1024" 
d="M244 1255q-84 0 -139.5 49t-55.5 132v2q0 84 55 131t140 47t139.5 -47t54.5 -131v-2q0 -83 -55 -132t-139 -49zM782 1255q-84 0 -139 49t-55 132v2q0 84 54.5 131t139.5 47t140 -47t55 -131v-2q0 -83 -55.5 -132t-139.5 -49z" />
    <glyph glyph-name="cacute" unicode="&#x107;" horiz-adv-x="2000" 
d="M1001 -111q-192 0 -356.5 55t-287 158.5t-192 262t-69.5 354.5q0 197 69.5 355.5t191.5 262t286.5 158.5t357.5 55q194 0 358.5 -55t286 -158.5t190.5 -262t69 -355.5t-69 -355.5t-191 -261.5t-286.5 -158t-357.5 -55zM1001 111q194 0 338 69t225 207t81 332
q0 293 -173.5 451.5t-470.5 158.5q-296 0 -469.5 -158t-173.5 -452q0 -292 174 -450t469 -158zM1038 338q-188 0 -305 100t-117 285q0 121 59 210.5t155.5 133t216.5 43.5q153 0 280 -80v-217h-2q-131 88 -250 88q-84 0 -145.5 -47t-61.5 -129q0 -178 203 -178q117 0 254 88
h2v-221q-136 -76 -289 -76z" />
    <glyph glyph-name="Ccircumflex" unicode="&#x108;" horiz-adv-x="1124" 
d="M385 512q-85 0 -151.5 24t-110 82t-43.5 144q0 301 602 336v2q0 114 -150 114q-199 0 -368 -112h-2v268q190 96 405 96q412 0 412 -368v-557h-281l-4 112q-129 -141 -309 -141zM477 729q112 0 205 86v117q-227 -18 -287 -78q-22 -22 -22 -51q0 -74 104 -74z" />
    <glyph glyph-name="ccircumflex" unicode="&#x109;" horiz-adv-x="1583" 
d="M731 547v26l373 463h385l-377 -477l377 -477h-385zM74 547v26l372 463h383l-374 -477l374 -477h-383z" />
    <glyph glyph-name="Cdotaccent" unicode="&#x10a;" horiz-adv-x="1445" 
d="M723 385q-135 0 -250.5 39t-201 111.5t-134.5 184t-49 249.5t49 249.5t134.5 184t201 111t250.5 38.5q182 0 324 -66t226.5 -199.5t84.5 -317.5q0 -138 -48.5 -249.5t-134 -184t-201 -111.5t-251.5 -39zM723 561q197 0 312.5 106t115.5 302q0 197 -115 301t-313 104
t-313 -104.5t-115 -300.5q0 -194 116 -301t312 -107zM649 719h-170v512h291q229 0 229 -195q0 -113 -94 -159l115 -144v-14h-189l-94 129h-88v-129zM649 1094v-119h103q77 0 77 59q0 60 -77 60h-103z" />
    <glyph glyph-name="cdotaccent" unicode="&#x10b;" horiz-adv-x="1024" 
d="M922 1309h-820v252h820v-252z" />
    <glyph glyph-name="Ccaron" unicode="&#x10c;" horiz-adv-x="1204" 
d="M602 547q-217 0 -354 121.5t-137 335.5t137 335t354 121q143 0 253 -51.5t174.5 -156t64.5 -248.5t-64.5 -248.5t-174.5 -156.5t-253 -52zM602 795q96 0 149.5 56.5t53.5 152.5t-53.5 152t-149.5 56t-149.5 -56t-53.5 -152t53.5 -152.5t149.5 -56.5z" />
    <glyph glyph-name="ccaron" unicode="&#x10d;" horiz-adv-x="1503" 
d="M590 793h-359v297h359v344h323v-344h359v-297h-359v-344h-323v344zM1272 0h-1041v285h1041v-285z" />
    <glyph glyph-name="Dcaron" unicode="&#x10e;" horiz-adv-x="948" 
d="M840 723h-715v213l233 176q213 151 213 199q0 57 -94 57q-135 0 -315 -119h-2v248q178 100 352 100q52 0 98.5 -7.5t90.5 -25.5t75.5 -46t50.5 -72t19 -100q0 -97 -72 -175q-52 -55 -235 -184l-58 -43h359v-221z" />
    <glyph glyph-name="dcaron" unicode="&#x10f;" horiz-adv-x="948" 
d="M133 748v229h2q195 -62 295 -62q162 0 162 74q0 42 -49 60q-59 16 -217 16h-31v119l235 170h-393l6 217h674v-205l-215 -154q254 -40 254 -233q0 -77 -37 -134.5t-98 -88.5t-127.5 -45.5t-138.5 -14.5q-160 0 -322 52z" />
    <glyph glyph-name="Dcroat" unicode="&#x110;" horiz-adv-x="1024" 
d="M539 1272h-320l252 352h428v-25z" />
    <glyph glyph-name="dcroat" unicode="&#x111;" horiz-adv-x="1779" 
d="M1567 0h-332v1137h-277v-791h-71q-69 0 -125 2t-121 9t-117 18.5t-106.5 31t-95.5 46t-79 65t-62 86.5t-38 111.5t-14 138.5q0 580 711 580h727v-1434z" />
    <glyph glyph-name="Emacron" unicode="&#x112;" horiz-adv-x="849" 
d="M424 453q-103 0 -170.5 59.5t-67.5 161.5v2q0 103 66.5 161t171.5 58t172.5 -57.5t67.5 -159.5v-4q0 -102 -68 -161.5t-172 -59.5z" />
    <glyph glyph-name="emacron" unicode="&#x113;" horiz-adv-x="1024" 
d="M430 0h295l-184 -383h-430v27z" />
    <glyph glyph-name="Ebreve" unicode="&#x114;" horiz-adv-x="727" 
d="M537 723h-275v631h-180l37 217h418v-848z" />
    <glyph glyph-name="ebreve" unicode="&#x115;" horiz-adv-x="1206" 
d="M604 510q-150 0 -267 54t-186 164t-69 261t69 261t186 164t267 54t266.5 -54.5t185 -164t68.5 -260.5t-68.5 -260.5t-185 -164t-266.5 -54.5zM764 823q53 65 53 166t-53 166q-60 66 -160 66q-101 0 -157 -64.5t-56 -167.5t56 -167t157 -64t160 65z" />
    <glyph glyph-name="Edotaccent" unicode="&#x116;" horiz-adv-x="1583" 
d="M94 1038h385l373 -465v-26l-373 -463h-385l377 477zM1137 84h-383l374 477l-374 477h383l372 -465v-26z" />
    <glyph glyph-name="edotaccent" unicode="&#x117;" horiz-adv-x="2064" 
d="M1176 354l213 494h509v-481h119l-12 -209h-107v-158h-247v158h-475v196zM553 0h-272v2l1046 1432h270v-2zM82 1217l37 217h418v-848h-275v631h-180zM1434 360h225v281h-111z" />
    <glyph glyph-name="Eogonek" unicode="&#x118;" horiz-adv-x="2084" 
d="M1260 213l233 176q213 151 213 199q0 57 -94 57q-133 0 -316 -119h-2v248q178 100 353 100q66 0 122.5 -12.5t105.5 -40t77 -78.5t28 -120q0 -97 -71 -174q-53 -56 -236 -185l-57 -43h358v-221h-714v213zM553 0h-272v2l1046 1432h270v-2zM262 1217h-180l37 217h418v-848
h-275v631z" />
    <glyph glyph-name="eogonek" unicode="&#x119;" horiz-adv-x="2267" 
d="M1378 158v196l213 494h510v-481h119l-12 -209h-107v-158h-248v158h-475zM455 559q-163 0 -322 51v230h2q195 -62 295 -62q162 0 162 74q0 41 -49 59q-63 17 -217 17h-31v119l235 170h-393l6 217h674v-205l-215 -154q254 -40 254 -233q0 -77 -37 -134.5t-98 -88.5
t-127.5 -45.5t-138.5 -14.5zM483 0v2l1047 1432h270v-2l-1044 -1432h-273zM1751 641l-115 -281h226v281h-111z" />
    <glyph glyph-name="Ecaron" unicode="&#x11a;" horiz-adv-x="1257" 
d="M696 1157q103 0 170.5 -59.5t67.5 -161.5v-2q0 -103 -66.5 -161t-171.5 -58t-172 58t-67 161v2q0 102 67.5 161.5t171.5 59.5zM1139 127v-334q-292 -133 -555 -133q-79 0 -153.5 12t-148.5 41t-129 72.5t-89.5 112.5t-34.5 155q0 62 19.5 118t50 99.5t79 82t96.5 66.5
t113.5 54t118 42t122.5 32.5t114.5 25t105.5 19.5h2v-289q-267 -63 -365 -119q-82 -46 -82 -108q0 -115 215 -115q259 0 519 166h2z" />
    <glyph glyph-name="ecaron" unicode="&#x11b;" horiz-adv-x="1746" 
d="M436 0h-387l529 1434h591l527 -1434h-391l-115 317h-639zM909 1102h-75l-175 -484h424zM811 1937l252 -352h-322l-358 328v24h428z" />
    <glyph glyph-name="Gcircumflex" unicode="&#x11c;" horiz-adv-x="1746" 
d="M436 0h-387l529 1434h591l527 -1434h-391l-115 317h-639zM909 1102h-75l-175 -484h424zM1010 1585h-320l252 352h428v-24z" />
    <glyph glyph-name="gcircumflex" unicode="&#x11d;" horiz-adv-x="1746" 
d="M436 0h-387l529 1434h591l527 -1434h-391l-115 317h-639zM909 1102h-75l-175 -484h424zM717 1585h-332l274 385h431l274 -385h-334l-119 166h-75z" />
    <glyph glyph-name="Gbreve" unicode="&#x11e;" horiz-adv-x="1746" 
d="M436 0h-387l529 1434h591l527 -1434h-391l-115 317h-639zM909 1102h-75l-175 -484h424zM1278 1964v-297q-104 -104 -227 -104q-70 0 -224 65q-109 47 -145 47q-93 0 -211 -133h-2v295q105 105 225 105q69 0 226 -66q103 -47 145 -47q94 0 211 135h2z" />
    <glyph glyph-name="gbreve" unicode="&#x11f;" horiz-adv-x="1746" 
d="M436 0h-387l529 1434h591l527 -1434h-391l-115 317h-639zM909 1102h-75l-175 -484h424zM606 1569q-84 0 -139 48.5t-55 131.5v2q0 84 54.5 131t139.5 47t140 -47t55 -131v-2q0 -83 -55.5 -131.5t-139.5 -48.5zM1145 1569q-84 0 -139.5 48.5t-55.5 131.5v2q0 84 55 131
t140 47t139.5 -47t54.5 -131v-2q0 -83 -55 -131.5t-139 -48.5z" />
    <glyph glyph-name="Gdotaccent" unicode="&#x120;" horiz-adv-x="1746" 
d="M436 0h-387l529 1434h591l527 -1434h-391l-115 317h-639zM909 1102h-75l-175 -484h424zM872 1569q-77 0 -143 18.5t-118 55.5t-81.5 99t-29.5 142q0 162 103.5 243t270.5 81q106 0 189 -32.5t135.5 -107t52.5 -182.5q0 -81 -30.5 -143t-83.5 -99.5t-120 -56t-145 -18.5z
M1020 1886q0 129 -148 129q-147 0 -147 -129q0 -125 149 -125q146 0 146 125z" />
    <glyph glyph-name="gdotaccent" unicode="&#x121;" horiz-adv-x="2598" 
d="M2472 0h-1251v317h-590l-182 -317h-426l847 1434h1575l13 -318h-865v-229h688v-301h-688v-269h893zM1221 1106h-136l-282 -490h418v490z" />
    <glyph glyph-name="uni0122" unicode="&#x122;" horiz-adv-x="1597" 
d="M1466 485v-366q-80 -60 -198.5 -98t-229.5 -48l-172 -358h-430v27l301 335q-296 41 -461 237t-165 497q0 176 63 320.5t173 239t259.5 146t323.5 51.5q311 0 536 -161v-363h-2q-295 195 -522 195q-200 0 -325 -114t-125 -312t124 -308t324 -110q270 0 524 190h2z" />
    <glyph glyph-name="uni0123" unicode="&#x123;" horiz-adv-x="1568" 
d="M1444 0h-1254v1434h1225l15 -318h-867v-229h688v-301h-688v-269h893zM758 1937l252 -352h-322l-358 328v24h428z" />
    <glyph glyph-name="Hcircumflex" unicode="&#x124;" horiz-adv-x="1568" 
d="M1444 0h-1254v1434h1225l15 -318h-867v-229h688v-301h-688v-269h893zM956 1585h-319l252 352h428v-24z" />
    <glyph glyph-name="hcircumflex" unicode="&#x125;" horiz-adv-x="1568" 
d="M1444 0h-1254v1434h1225l15 -318h-867v-229h688v-301h-688v-269h893zM664 1585h-332l274 385h430l275 -385h-334l-119 166h-76z" />
    <glyph glyph-name="Hbar" unicode="&#x126;" horiz-adv-x="1568" 
d="M1444 0h-1254v1434h1225l15 -318h-867v-229h688v-301h-688v-269h893zM553 1569q-84 0 -139.5 48.5t-55.5 131.5v2q0 84 55 131t140 47t140 -47t55 -131v-2q0 -83 -55.5 -131.5t-139.5 -48.5zM1092 1569q-84 0 -139.5 48.5t-55.5 131.5v2q0 84 55 131t140 47t139.5 -47
t54.5 -131v-2q0 -83 -55 -131.5t-139 -48.5z" />
    <glyph glyph-name="hbar" unicode="&#x127;" horiz-adv-x="763" 
d="M569 0h-374v1434h374v-1434zM289 1937l252 -352h-322l-358 328v24h428z" />
    <glyph glyph-name="Itilde" unicode="&#x128;" horiz-adv-x="763" 
d="M569 0h-374v1434h374v-1434zM545 1585h-320l252 352h428v-24z" />
    <glyph glyph-name="itilde" unicode="&#x129;" horiz-adv-x="763" 
d="M569 0h-374v1434h374v-1434zM223 1585h-332l275 385h430l274 -385h-333l-119 166h-76z" />
    <glyph glyph-name="Imacron" unicode="&#x12a;" horiz-adv-x="763" 
d="M569 0h-374v1434h374v-1434zM113 1569q-84 0 -139.5 48.5t-55.5 131.5v2q0 84 55 131t140 47t139.5 -47t54.5 -131v-2q0 -83 -55 -131.5t-139 -48.5zM651 1569q-84 0 -139 48.5t-55 131.5v2q0 84 54.5 131t139.5 47t140 -47t55 -131v-2q0 -83 -55.5 -131.5t-139.5 -48.5z
" />
    <glyph glyph-name="imacron" unicode="&#x12b;" horiz-adv-x="1837" 
d="M1008 0h-740v584h-194l22 272h172v578h740q338 0 529.5 -189t191.5 -526q0 -338 -191.5 -528.5t-529.5 -190.5zM643 590v-271h340q365 0 365 396q0 399 -365 399h-340v-266h387v-258h-387z" />
    <glyph glyph-name="Ibreve" unicode="&#x12c;" horiz-adv-x="1816" 
d="M551 0h-361v1434h400l667 -881h9v881h360v-1434h-383l-684 907h-8v-907zM1352 1964v-297q-104 -104 -228 -104q-69 0 -223 65q-109 47 -145 47q-93 0 -211 -133h-2v295q105 105 225 105q68 0 225 -66q103 -47 146 -47q94 0 211 135h2z" />
    <glyph glyph-name="ibreve" unicode="&#x12d;" horiz-adv-x="1828" 
d="M913 -39q-176 0 -323 50.5t-253.5 145t-166 238t-59.5 322.5t59.5 322.5t166 238t253.5 145t323 50.5q237 0 417.5 -86.5t284 -259t103.5 -410.5t-103.5 -410.5t-284 -259t-417.5 -86.5zM913 289q203 0 315.5 112.5t112.5 315.5q0 204 -111 316t-315 112
q-203 0 -315.5 -112.5t-112.5 -315.5t112 -315.5t314 -112.5zM850 1976l252 -352h-322l-358 328v24h428z" />
    <glyph glyph-name="Iogonek" unicode="&#x12e;" horiz-adv-x="1828" 
d="M913 -39q-176 0 -323 50.5t-253.5 145t-166 238t-59.5 322.5t59.5 322.5t166 238t253.5 145t323 50.5q237 0 417.5 -86.5t284 -259t103.5 -410.5t-103.5 -410.5t-284 -259t-417.5 -86.5zM913 289q203 0 315.5 112.5t112.5 315.5q0 204 -111 316t-315 112
q-203 0 -315.5 -112.5t-112.5 -315.5t112 -315.5t314 -112.5zM1049 1624h-320l252 352h428v-24z" />
    <glyph glyph-name="iogonek" unicode="&#x12f;" horiz-adv-x="1828" 
d="M913 -39q-176 0 -323 50.5t-253.5 145t-166 238t-59.5 322.5t59.5 322.5t166 238t253.5 145t323 50.5q237 0 417.5 -86.5t284 -259t103.5 -410.5t-103.5 -410.5t-284 -259t-417.5 -86.5zM913 289q203 0 315.5 112.5t112.5 315.5q0 204 -111 316t-315 112
q-203 0 -315.5 -112.5t-112.5 -315.5t112 -315.5t314 -112.5zM756 1624h-332l274 385h430l275 -385h-334l-119 166h-76z" />
    <glyph glyph-name="Idotaccent" unicode="&#x130;" horiz-adv-x="1828" 
d="M913 -39q-176 0 -323 50.5t-253.5 145t-166 238t-59.5 322.5t59.5 322.5t166 238t253.5 145t323 50.5q237 0 417.5 -86.5t284 -259t103.5 -410.5t-103.5 -410.5t-284 -259t-417.5 -86.5zM913 289q203 0 315.5 112.5t112.5 315.5q0 204 -111 316t-315 112
q-203 0 -315.5 -112.5t-112.5 -315.5t112 -315.5t314 -112.5zM1319 2003v-297q-104 -104 -227 -104q-70 0 -224 65q-109 47 -145 47q-93 0 -211 -133h-2v295q104 104 225 104q72 0 226 -65q103 -47 145 -47q94 0 211 135h2z" />
    <glyph glyph-name="dotlessi" unicode="&#x131;" horiz-adv-x="1828" 
d="M913 -39q-176 0 -323 50.5t-253.5 145t-166 238t-59.5 322.5t59.5 322.5t166 238t253.5 145t323 50.5q237 0 417.5 -86.5t284 -259t103.5 -410.5t-103.5 -410.5t-284 -259t-417.5 -86.5zM913 289q203 0 315.5 112.5t112.5 315.5q0 204 -111 316t-315 112
q-203 0 -315.5 -112.5t-112.5 -315.5t112 -315.5t314 -112.5zM645 1608q-84 0 -139 48.5t-55 131.5v2q0 84 54.5 131t139.5 47t140 -47t55 -131v-2q0 -83 -55.5 -131.5t-139.5 -48.5zM1184 1608q-84 0 -139.5 48.5t-55.5 131.5v2q0 84 55 131t140 47t139.5 -47t54.5 -131v-2
q0 -83 -55 -131.5t-139 -48.5z" />
    <glyph glyph-name="IJ" unicode="&#x132;" horiz-adv-x="1507" 
d="M535 719l-355 348l215 219l359 -352l358 352l215 -219l-354 -348l354 -350l-215 -219l-358 352l-359 -352l-215 219z" />
    <glyph glyph-name="ij" unicode="&#x133;" horiz-adv-x="1828" 
d="M434 -123h-375l244 313q-192 201 -192 527q0 179 59.5 322.5t166 238t253.5 145t323 50.5q200 0 367 -66l119 149h370l-243 -315q192 -198 192 -524q0 -238 -103.5 -410.5t-284 -259t-417.5 -86.5q-197 0 -364 66zM543 455l536 678q-80 22 -164 22q-207 0 -322.5 -115.5
t-115.5 -322.5q0 -158 66 -262zM911 279q207 0 324 115.5t117 322.5q0 153 -68 262l-534 -678q77 -22 161 -22z" />
    <glyph glyph-name="Jcircumflex" unicode="&#x134;" horiz-adv-x="1773" 
d="M178 557v877h377v-852q0 -283 332 -283q334 0 334 274v861h374v-869q0 -604 -710 -604q-707 0 -707 596zM823 1888l252 -352h-321l-359 328v24h428z" />
    <glyph glyph-name="jcircumflex" unicode="&#x135;" horiz-adv-x="1773" 
d="M178 557v877h377v-852q0 -283 332 -283q334 0 334 274v861h374v-869q0 -604 -710 -604q-707 0 -707 596zM1022 1536h-320l252 352h428v-24z" />
    <glyph glyph-name="uni0136" unicode="&#x136;" horiz-adv-x="1773" 
d="M178 557v877h377v-852q0 -283 332 -283q334 0 334 274v861h374v-869q0 -604 -710 -604q-707 0 -707 596zM729 1585h-332l275 385h430l274 -385h-334l-118 166h-76z" />
    <glyph glyph-name="uni0137" unicode="&#x137;" horiz-adv-x="1773" 
d="M178 557v877h377v-852q0 -283 332 -283q334 0 334 274v861h374v-869q0 -604 -710 -604q-707 0 -707 596zM618 1569q-84 0 -139 48.5t-55 131.5v2q0 84 54.5 131t139.5 47t140 -47t55 -131v-2q0 -83 -55.5 -131.5t-139.5 -48.5zM1157 1569q-84 0 -139 48.5t-55 131.5v2
q0 84 54.5 131t139.5 47t140 -47t55 -131v-2q0 -83 -55.5 -131.5t-139.5 -48.5z" />
    <glyph glyph-name="kgreenlandic" unicode="&#x138;" horiz-adv-x="1669" 
d="M1022 0h-375v475l-637 959h430l385 -600h23l393 600h416l-635 -953v-481zM969 1536h-320l252 352h428v-24z" />
    <glyph glyph-name="Lacute" unicode="&#x139;" horiz-adv-x="1624" 
d="M565 0h-375v1434h375v-191h432q255 0 401 -131.5t146 -382.5q0 -263 -154.5 -395.5t-422.5 -132.5h-402v-201zM565 926v-412h381q223 0 223 205q0 207 -229 207h-375z" />
    <glyph glyph-name="lacute" unicode="&#x13a;" horiz-adv-x="1622" 
d="M268 838h-225l51 282h191q42 238 198.5 361t399.5 123q424 0 624 -394l-336 -362l76 -39q70 -35 119.5 -70t92.5 -82t65 -108.5t22 -136.5q0 -138 -66 -240.5t-175 -153.5t-246 -51q-147 0 -281 45v291h2q130 -53 234 -53q82 0 133 43t51 123q0 64 -55 110
q-43 35 -187 99l-122 51l-5 196l283 322q-88 113 -217 113q-270 0 -270 -389v-918h-357v838z" />
    <glyph glyph-name="uni013B" unicode="&#x13b;" horiz-adv-x="1294" 
d="M461 -33q-77 0 -143.5 18.5t-119.5 55t-83.5 98t-30.5 140.5q0 71 21.5 125t66 92t90 62.5t115.5 51.5q152 56 434 70v14q0 162 -193 162q-214 0 -430 -143h-2v319q237 123 488 123q489 0 489 -459v-696h-332l-6 125q-146 -158 -364 -158zM567 217q64 0 130.5 25
t113.5 67v176q-284 -24 -356 -96q-29 -29 -29 -72q0 -100 141 -100zM604 1649l252 -353h-321l-359 328v25h428z" />
    <glyph glyph-name="uni013C" unicode="&#x13c;" horiz-adv-x="1294" 
d="M461 -33q-77 0 -143.5 18.5t-119.5 55t-83.5 98t-30.5 140.5q0 71 21.5 125t66 92t90 62.5t115.5 51.5q152 56 434 70v14q0 162 -193 162q-214 0 -430 -143h-2v319q237 123 488 123q489 0 489 -459v-696h-332l-6 125q-146 -158 -364 -158zM567 217q64 0 130.5 25
t113.5 67v176q-284 -24 -356 -96q-29 -29 -29 -72q0 -100 141 -100zM803 1296h-320l252 353h428v-25z" />
    <glyph glyph-name="Lcaron" unicode="&#x13d;" horiz-adv-x="1294" 
d="M461 -33q-77 0 -143.5 18.5t-119.5 55t-83.5 98t-30.5 140.5q0 71 21.5 125t66 92t90 62.5t115.5 51.5q152 56 434 70v14q0 162 -193 162q-214 0 -430 -143h-2v319q237 123 488 123q489 0 489 -459v-696h-332l-6 125q-146 -158 -364 -158zM567 217q64 0 130.5 25
t113.5 67v176q-284 -24 -356 -96q-29 -29 -29 -72q0 -100 141 -100zM510 1296h-332l275 385h430l274 -385h-334l-118 166h-76z" />
    <glyph glyph-name="lcaron" unicode="&#x13e;" horiz-adv-x="1294" 
d="M461 -33q-77 0 -143.5 18.5t-119.5 55t-83.5 98t-30.5 140.5q0 71 21.5 125t66 92t90 62.5t115.5 51.5q152 56 434 70v14q0 162 -193 162q-214 0 -430 -143h-2v319q237 123 488 123q489 0 489 -459v-696h-332l-6 125q-146 -158 -364 -158zM567 217q64 0 130.5 25
t113.5 67v176q-284 -24 -356 -96q-29 -29 -29 -72q0 -100 141 -100zM1071 1675v-297q-104 -104 -227 -104q-69 0 -223 65q-109 47 -146 47q-93 0 -211 -133h-2v295q105 105 225 105q69 0 226 -66q103 -47 145 -47q94 0 211 135h2z" />
    <glyph glyph-name="Ldot" unicode="&#x13f;" horiz-adv-x="1294" 
d="M461 -33q-77 0 -143.5 18.5t-119.5 55t-83.5 98t-30.5 140.5q0 71 21.5 125t66 92t90 62.5t115.5 51.5q152 56 434 70v14q0 162 -193 162q-214 0 -430 -143h-2v319q237 123 488 123q489 0 489 -459v-696h-332l-6 125q-146 -158 -364 -158zM567 217q64 0 130.5 25
t113.5 67v176q-284 -24 -356 -96q-29 -29 -29 -72q0 -100 141 -100zM397 1280q-84 0 -139 48.5t-55 131.5v2q0 84 54.5 131t139.5 47t140 -47t55 -131v-2q0 -83 -55.5 -131.5t-139.5 -48.5zM936 1280q-84 0 -139.5 48.5t-55.5 131.5v2q0 84 55 131t140 47t139.5 -47
t54.5 -131v-2q0 -83 -55 -131.5t-139 -48.5z" />
    <glyph glyph-name="ldot" unicode="&#x140;" horiz-adv-x="1294" 
d="M461 -33q-77 0 -143.5 18.5t-119.5 55t-83.5 98t-30.5 140.5q0 71 21.5 125t66 92t90 62.5t115.5 51.5q152 56 434 70v14q0 162 -193 162q-214 0 -430 -143h-2v319q237 123 488 123q489 0 489 -459v-696h-332l-6 125q-146 -158 -364 -158zM567 217q64 0 130.5 25
t113.5 67v176q-284 -24 -356 -96q-29 -29 -29 -72q0 -100 141 -100zM666 1280q-77 0 -143 18.5t-118.5 55.5t-82 99t-29.5 142q0 162 104 243t271 81q165 0 270.5 -81t105.5 -241q0 -81 -30 -143t-83 -99.5t-120 -56t-145 -18.5zM813 1597q0 129 -147 129q-148 0 -148 -129
q0 -124 150 -124q145 0 145 124z" />
    <glyph glyph-name="Lslash" unicode="&#x141;" horiz-adv-x="2068" 
d="M1915 365v-291q-207 -109 -451 -109q-350 0 -520 197q-204 -195 -479 -195q-79 0 -145.5 17.5t-120.5 53.5t-84.5 97.5t-30.5 143.5q0 71 21.5 125t66 92t90 62.5t115.5 51.5q148 57 440 72v12q0 162 -199 162q-214 0 -430 -143h-2v319q237 123 482 123q265 0 374 -154
q150 156 392 156q264 0 407.5 -158.5t143.5 -425.5q0 -61 -9 -108h-807q41 -215 328 -215q206 0 416 115h2zM1174 666h483q-9 100 -72 157.5t-164 57.5q-203 0 -247 -215zM567 217q77 0 152 27.5t133 77.5q-32 81 -35 163q-284 -24 -362 -96q-29 -29 -29 -72
q0 -100 141 -100z" />
    <glyph glyph-name="lslash" unicode="&#x142;" horiz-adv-x="1226" 
d="M1118 391v-319q-118 -77 -270 -101l-172 -356h-430v27l305 340q-216 46 -340.5 195t-124.5 368q0 136 51 251.5t138.5 193.5t205.5 121.5t252 43.5q232 0 385 -106v-322h-2q-168 125 -352 125q-136 0 -224.5 -81t-88.5 -216q0 -133 89 -211t224 -78q184 0 352 125h2z" />
    <glyph glyph-name="Nacute" unicode="&#x143;" horiz-adv-x="1345" 
d="M700 1157q266 0 413 -158.5t147 -425.5q0 -19 -3 -53l-4 -55h-807q41 -215 326 -215q209 0 416 115h2v-291q-201 -109 -451 -109q-140 0 -257 34.5t-206.5 103t-139.5 179.5t-50 255q0 275 170 447.5t444 172.5zM451 666h483q-9 101 -72.5 158t-165.5 57
q-201 0 -245 -215zM641 1649l252 -353h-322l-358 328v25h428z" />
    <glyph glyph-name="nacute" unicode="&#x144;" horiz-adv-x="1345" 
d="M700 1157q266 0 413 -158.5t147 -425.5q0 -19 -3 -53l-4 -55h-807q41 -215 326 -215q209 0 416 115h2v-291q-201 -109 -451 -109q-140 0 -257 34.5t-206.5 103t-139.5 179.5t-50 255q0 275 170 447.5t444 172.5zM451 666h483q-9 101 -72.5 158t-165.5 57
q-201 0 -245 -215zM840 1296h-320l252 353h428v-25z" />
    <glyph glyph-name="uni0145" unicode="&#x145;" horiz-adv-x="1345" 
d="M700 1157q266 0 413 -158.5t147 -425.5q0 -19 -3 -53l-4 -55h-807q41 -215 326 -215q209 0 416 115h2v-291q-201 -109 -451 -109q-140 0 -257 34.5t-206.5 103t-139.5 179.5t-50 255q0 275 170 447.5t444 172.5zM451 666h483q-9 101 -72.5 158t-165.5 57
q-201 0 -245 -215zM547 1296h-332l274 385h431l274 -385h-334l-119 166h-75z" />
    <glyph glyph-name="uni0146" unicode="&#x146;" horiz-adv-x="1345" 
d="M700 1157q266 0 413 -158.5t147 -425.5q0 -19 -3 -53l-4 -55h-807q41 -215 326 -215q209 0 416 115h2v-291q-201 -109 -451 -109q-140 0 -257 34.5t-206.5 103t-139.5 179.5t-50 255q0 275 170 447.5t444 172.5zM451 666h483q-9 101 -72.5 158t-165.5 57
q-201 0 -245 -215zM436 1280q-84 0 -139 48.5t-55 131.5v2q0 84 54.5 131t139.5 47t140 -47t55 -131v-2q0 -83 -55.5 -131.5t-139.5 -48.5zM975 1280q-84 0 -139.5 48.5t-55.5 131.5v2q0 84 55 131t140 47t139.5 -47t54.5 -131v-2q0 -83 -55 -131.5t-139 -48.5z" />
    <glyph glyph-name="Ncaron" unicode="&#x147;" horiz-adv-x="669" 
d="M516 0h-362v1120h362v-1120zM244 1624l252 -352h-322l-358 327v25h428z" />
    <glyph glyph-name="ncaron" unicode="&#x148;" horiz-adv-x="669" 
d="M516 0h-362v1120h362v-1120zM500 1272h-320l252 352h428v-25z" />
    <glyph glyph-name="napostrophe" unicode="&#x149;" horiz-adv-x="669" 
d="M516 0h-362v1120h362v-1120zM176 1272h-332l275 385h430l274 -385h-334l-118 166h-76z" />
    <glyph glyph-name="Eng" unicode="&#x14a;" horiz-adv-x="669" 
d="M516 0h-362v1120h362v-1120zM66 1255q-84 0 -139.5 49t-55.5 132v2q0 84 55 131t140 47t139.5 -47t54.5 -131v-2q0 -83 -55 -132t-139 -49zM604 1255q-84 0 -139 49t-55 132v2q0 84 54.5 131t139.5 47t140 -47t55 -131v-2q0 -83 -55.5 -132t-139.5 -49z" />
    <glyph glyph-name="eng" unicode="&#x14b;" horiz-adv-x="1406" 
d="M684 -37q-125 0 -234 34.5t-193 99.5t-132.5 168t-48.5 231q0 241 154 391.5t395 150.5q202 0 325 -123q-55 150 -178 285l-369 -115v213l195 60q-135 104 -291 194v19h438q60 -36 168 -117l379 117v-211l-215 -66q242 -284 242 -645q0 -203 -70.5 -356t-215.5 -241.5
t-349 -88.5zM434 508q0 -115 71.5 -183.5t186.5 -68.5q73 0 127.5 28.5t86 78t46.5 109t15 128.5q0 14 -4 80q-89 102 -256 102q-124 0 -198.5 -74.5t-74.5 -199.5z" />
    <glyph glyph-name="Omacron" unicode="&#x14c;" horiz-adv-x="1425" 
d="M512 0h-362v1120h358l2 -162q176 197 395 197q186 0 283.5 -109.5t97.5 -297.5v-748h-362v659q0 185 -166 185q-127 0 -246 -107v-737zM1133 1675v-297q-104 -104 -228 -104q-69 0 -223 65q-109 47 -145 47q-93 0 -211 -133h-2v295q105 105 225 105q68 0 225 -66
q103 -47 146 -47q93 0 210 135h3z" />
    <glyph glyph-name="omacron" unicode="&#x14d;" horiz-adv-x="1429" 
d="M715 -37q-277 0 -453 161t-176 435q0 183 81.5 319.5t223 207.5t324.5 71q279 0 453.5 -161t174.5 -437q0 -183 -81.5 -319t-223.5 -206.5t-323 -70.5zM715 254q127 0 198.5 87t71.5 218t-71 219t-199 88q-130 0 -200.5 -87t-70.5 -220q0 -132 71 -218.5t200 -86.5z
M651 1649l252 -353h-321l-359 328v25h428z" />
    <glyph glyph-name="Obreve" unicode="&#x14e;" horiz-adv-x="1429" 
d="M715 -37q-277 0 -453 161t-176 435q0 183 81.5 319.5t223 207.5t324.5 71q279 0 453.5 -161t174.5 -437q0 -183 -81.5 -319t-223.5 -206.5t-323 -70.5zM715 254q127 0 198.5 87t71.5 218t-71 219t-199 88q-130 0 -200.5 -87t-70.5 -220q0 -132 71 -218.5t200 -86.5z
M850 1296h-320l252 353h428v-25z" />
    <glyph glyph-name="obreve" unicode="&#x14f;" horiz-adv-x="1429" 
d="M715 -37q-277 0 -453 161t-176 435q0 183 81.5 319.5t223 207.5t324.5 71q279 0 453.5 -161t174.5 -437q0 -183 -81.5 -319t-223.5 -206.5t-323 -70.5zM715 254q127 0 198.5 87t71.5 218t-71 219t-199 88q-130 0 -200.5 -87t-70.5 -220q0 -132 71 -218.5t200 -86.5z
M557 1296h-332l275 385h430l274 -385h-334l-118 166h-76z" />
    <glyph glyph-name="Ohungarumlaut" unicode="&#x150;" horiz-adv-x="1429" 
d="M715 -37q-277 0 -453 161t-176 435q0 183 81.5 319.5t223 207.5t324.5 71q279 0 453.5 -161t174.5 -437q0 -183 -81.5 -319t-223.5 -206.5t-323 -70.5zM715 254q127 0 198.5 87t71.5 218t-71 219t-199 88q-130 0 -200.5 -87t-70.5 -220q0 -132 71 -218.5t200 -86.5z
M1120 1675v-297q-104 -104 -227 -104q-69 0 -223 65q-109 47 -146 47q-93 0 -211 -133h-2v295q105 105 226 105q68 0 225 -66q103 -47 145 -47q94 0 211 135h2z" />
    <glyph glyph-name="ohungarumlaut" unicode="&#x151;" horiz-adv-x="1429" 
d="M715 -37q-277 0 -453 161t-176 435q0 183 81.5 319.5t223 207.5t324.5 71q279 0 453.5 -161t174.5 -437q0 -183 -81.5 -319t-223.5 -206.5t-323 -70.5zM715 254q127 0 198.5 87t71.5 218t-71 219t-199 88q-130 0 -200.5 -87t-70.5 -220q0 -132 71 -218.5t200 -86.5z
M446 1280q-84 0 -139 48.5t-55 131.5v2q0 84 54.5 131t139.5 47t140 -47t55 -131v-2q0 -83 -55.5 -131.5t-139.5 -48.5zM985 1280q-84 0 -139 48.5t-55 131.5v2q0 84 54.5 131t139.5 47t140 -47t55 -131v-2q0 -83 -55.5 -131.5t-139.5 -48.5z" />
    <glyph glyph-name="OE" unicode="&#x152;" horiz-adv-x="1579" 
d="M788 1356q92 0 151.5 -49.5t59.5 -139.5q0 -88 -60.5 -138t-150.5 -50q-91 0 -150.5 48.5t-59.5 137.5v2q0 90 59 139.5t151 49.5zM1399 569h-1219v295h1219v-295zM791 80q-91 0 -151 48.5t-60 137.5v2q0 89 58.5 139t149.5 50t152 -50t61 -139v-2q0 -89 -59.5 -137.5
t-150.5 -48.5z" />
    <glyph glyph-name="oe" unicode="&#x153;" horiz-adv-x="1429" 
d="M418 20l-92 -118h-308l203 264q-135 159 -135 393q0 183 81.5 319.5t223 207.5t324.5 71q167 0 297 -59l92 119h307l-203 -265q135 -153 135 -393q0 -183 -81.5 -319t-223.5 -206.5t-323 -70.5q-163 0 -297 57zM459 403l370 457q-65 21 -114 21q-135 0 -210 -91.5
t-75 -230.5q0 -83 29 -156zM715 240q137 0 210.5 89.5t73.5 229.5q0 88 -28 158l-373 -455q58 -22 117 -22z" />
    <glyph glyph-name="Racute" unicode="&#x154;" horiz-adv-x="1425" 
d="M913 1120h363v-1120h-358l-3 158q-177 -195 -393 -195q-185 0 -284 111t-99 299v747h363v-659q0 -185 166 -185q125 0 245 105v739zM635 1591l252 -352h-322l-358 328v24h428z" />
    <glyph glyph-name="racute" unicode="&#x155;" horiz-adv-x="1425" 
d="M913 1120h363v-1120h-358l-3 158q-177 -195 -393 -195q-185 0 -284 111t-99 299v747h363v-659q0 -185 166 -185q125 0 245 105v739zM834 1239h-320l252 352h428v-24z" />
    <glyph glyph-name="uni0156" unicode="&#x156;" horiz-adv-x="1425" 
d="M913 1120h363v-1120h-358l-3 158q-177 -195 -393 -195q-185 0 -284 111t-99 299v747h363v-659q0 -185 166 -185q125 0 245 105v739zM541 1272h-332l274 385h430l275 -385h-334l-119 166h-76z" />
    <glyph glyph-name="uni0157" unicode="&#x157;" horiz-adv-x="1425" 
d="M913 1120h363v-1120h-358l-3 158q-177 -195 -393 -195q-185 0 -284 111t-99 299v747h363v-659q0 -185 166 -185q125 0 245 105v739zM430 1255q-84 0 -139 49t-55 132v2q0 84 54.5 131t139.5 47t140 -47t55 -131v-2q0 -83 -55.5 -132t-139.5 -49zM969 1255
q-84 0 -139.5 49t-55.5 132v2q0 84 55 131t140 47t139.5 -47t54.5 -131v-2q0 -83 -55 -132t-139 -49z" />
    <glyph glyph-name="Rcaron" unicode="&#x158;" horiz-adv-x="1325" 
d="M717 -416h-350l133 369l-469 1167h370l283 -755l260 755h363zM811 1239h-319l251 352h428v-24z" />
    <glyph glyph-name="rcaron" unicode="&#x159;" horiz-adv-x="1458" 
d="M512 -416h-362v1987h360v-584q138 166 358 166q121 0 218 -44.5t159 -121.5t94.5 -179t32.5 -220q0 -175 -75 -316.5t-213 -223t-314 -81.5q-139 0 -258 58v-441zM717 258q135 0 214 86.5t79 222.5q-3 133 -72 213t-199 80q-115 0 -227 -80v-456q97 -66 205 -66z" />
    <glyph glyph-name="Sacute" unicode="&#x15a;" horiz-adv-x="1325" 
d="M717 -416h-350l133 369l-469 1167h370l283 -755l260 755h363zM408 1255q-84 0 -139.5 49t-55.5 132v2q0 84 55 131t140 47t139.5 -47t54.5 -131v-2q0 -83 -55 -132t-139 -49zM946 1255q-84 0 -139 49t-55 132v2q0 84 54.5 131t139.5 47t140 -47t55 -131v-2
q0 -83 -55.5 -132t-139.5 -49z" />
    <glyph glyph-name="sacute" unicode="&#x15b;" horiz-adv-x="1746" 
d="M436 0h-387l529 1434h591l527 -1434h-391l-115 317h-639zM909 1102h-75l-175 -484h424zM1284 1622h-819v252h819v-252z" />
    <glyph glyph-name="Scircumflex" unicode="&#x15c;" horiz-adv-x="1294" 
d="M461 -33q-77 0 -143.5 18.5t-119.5 55t-83.5 98t-30.5 140.5q0 71 21.5 125t66 92t90 62.5t115.5 51.5q152 56 434 70v14q0 162 -193 162q-214 0 -430 -143h-2v319q237 123 488 123q489 0 489 -459v-696h-332l-6 125q-146 -158 -364 -158zM567 217q64 0 130.5 25
t113.5 67v176q-284 -24 -356 -96q-29 -29 -29 -72q0 -100 141 -100zM1077 1333h-819v252h819v-252z" />
    <glyph glyph-name="scircumflex" unicode="&#x15d;" horiz-adv-x="1746" 
d="M436 0h-387l529 1434h591l527 -1434h-391l-115 317h-639zM909 1102h-75l-175 -484h424zM874 1569q-65 0 -123 9.5t-113.5 32t-95.5 57.5t-64.5 89.5t-24.5 124.5q0 62 14 117h262l-6 -60q0 -122 151 -122q150 0 150 120q0 17 -2 29l-4 33h262q14 -55 14 -119
q0 -85 -36 -148t-98.5 -97t-133.5 -50t-152 -16z" />
    <glyph glyph-name="Scedilla" unicode="&#x15e;" horiz-adv-x="1294" 
d="M461 -33q-77 0 -143.5 18.5t-119.5 55t-83.5 98t-30.5 140.5q0 71 21.5 125t66 92t90 62.5t115.5 51.5q152 56 434 70v14q0 162 -193 162q-214 0 -430 -143h-2v319q237 123 488 123q489 0 489 -459v-696h-332l-6 125q-146 -158 -364 -158zM567 217q64 0 130.5 25
t113.5 67v176q-284 -24 -356 -96q-29 -29 -29 -72q0 -100 141 -100zM668 1280q-65 0 -123 9.5t-114 32t-96 57.5t-64.5 89.5t-24.5 124.5q0 62 14 117h262l-6 -59q0 -123 152 -123q149 0 149 121q0 16 -2 28l-4 33h262q14 -55 14 -119q0 -85 -36 -148t-98 -97t-133 -50
t-152 -16z" />
    <glyph glyph-name="scedilla" unicode="&#x15f;" horiz-adv-x="1746" 
d="M436 0h-387l531 1434h591l525 -1434l-111 -104q-141 -129 -141 -181q0 -73 123 -73q84 0 164 34v-251q-115 -37 -238 -37q-54 0 -102 6t-97.5 23t-85 44t-58 71.5t-22.5 102.5q0 155 195 306l-135 376h-637zM911 1102h-77l-175 -484h426z" />
    <glyph glyph-name="Scaron" unicode="&#x160;" horiz-adv-x="1294" 
d="M461 -33q-77 0 -143.5 18.5t-119.5 55t-83.5 98t-30.5 140.5q0 71 21.5 125t66 92t90 62.5t115.5 51.5q152 56 434 70v14q0 162 -193 162q-214 0 -430 -143h-2v319q237 123 488 123q489 0 489 -459v-696l-110 -104q-142 -130 -142 -181q0 -73 123 -73q84 0 164 34v-251
q-115 -37 -237 -37q-54 0 -102 6t-97.5 23t-85 44t-58 71.5t-22.5 102.5q0 164 235 338l-6 152q-146 -158 -364 -158zM567 217q64 0 130.5 25t113.5 67v176q-284 -24 -356 -96q-29 -29 -29 -72q0 -100 141 -100z" />
    <glyph glyph-name="scaron" unicode="&#x161;" horiz-adv-x="1597" 
d="M905 -35q-237 0 -414.5 84.5t-278.5 254t-101 407.5q0 176 63 320.5t173 239t259.5 146t323.5 51.5q311 0 536 -161v-363h-2q-295 195 -522 195q-200 0 -325 -114t-125 -312t124 -308t324 -110q270 0 524 190h2v-366q-111 -77 -261 -115.5t-300 -38.5zM1038 1622h-319
l252 352h428v-24z" />
    <glyph glyph-name="uni01AB" unicode="&#x162;" horiz-adv-x="1542" 
d="M958 0h-374v1102h-510l14 332h1368l12 -332h-510v-1102zM672 -600h-217l116 434h383v-37z" />
    <glyph glyph-name="uni01AB" unicode="&#x1ab;" horiz-adv-x="1542" 
d="M958 0h-374v1102h-510l14 332h1368l12 -332h-510v-1102zM672 -600h-217l116 434h383v-37z" />
    <glyph glyph-name="uni01AC" unicode="&#x163;" horiz-adv-x="937" 
d="M643 0h-358v838h-244l53 282h191v252l358 41v-293h248v-282h-248v-838zM365 -600h-218l117 434h383v-37z" />
    <glyph glyph-name="uni01AC" unicode="&#x1ac;" horiz-adv-x="937" 
d="M643 0h-358v838h-244l53 282h191v252l358 41v-293h248v-282h-248v-838zM365 -600h-218l117 434h383v-37z" />
    <glyph glyph-name="Tcaron" unicode="&#x164;" horiz-adv-x="1226" 
d="M729 -37q-134 0 -250.5 38.5t-204 110.5t-138 183.5t-50.5 249.5q0 136 51 251.5t138.5 193.5t205.5 121.5t252 43.5q232 0 385 -106v-322h-2q-168 125 -352 125q-136 0 -224.5 -81t-88.5 -216q0 -133 89 -211t224 -78q184 0 352 125h2v-319q-174 -109 -389 -109z
M702 1280q-94 0 -157.5 48.5t-63.5 139.5v2q0 91 62 140t157 49t158.5 -48.5t63.5 -140.5v-2q0 -89 -64 -138.5t-156 -49.5z" />
    <glyph glyph-name="tcaron" unicode="&#x165;" horiz-adv-x="1597" 
d="M905 -35q-237 0 -414.5 84.5t-278.5 254t-101 407.5q0 176 63 320.5t173 239t259.5 146t323.5 51.5q311 0 536 -161v-363h-2q-295 195 -522 195q-200 0 -325 -114t-125 -312t124 -308t324 -110q270 0 524 190h2v-366q-111 -77 -261 -115.5t-300 -38.5zM1061 2007h332
l-275 -385h-430l-274 385h334l118 -164h76z" />
    <glyph glyph-name="Tbar" unicode="&#x166;" horiz-adv-x="1226" 
d="M729 -37q-134 0 -250.5 38.5t-204 110.5t-138 183.5t-50.5 249.5q0 136 51 251.5t138.5 193.5t205.5 121.5t252 43.5q232 0 385 -106v-322h-2q-168 125 -352 125q-136 0 -224.5 -81t-88.5 -216q0 -133 89 -211t224 -78q184 0 352 125h2v-319q-174 -109 -389 -109z
M858 1681h332l-275 -385h-430l-274 385h334l119 -163h75z" />
    <glyph glyph-name="tbar" unicode="&#x167;" horiz-adv-x="1759" 
d="M930 0h-740v1434h740q338 0 529.5 -189t191.5 -526q0 -338 -191.5 -528.5t-529.5 -190.5zM565 1112v-790h340q365 0 365 393q0 397 -365 397h-340zM1010 1970h331l-274 -385h-430l-275 385h334l119 -164h76z" />
    <glyph glyph-name="Utilde" unicode="&#x168;" horiz-adv-x="1458" 
d="M944 1571h363v-1571h-353l-2 141q-144 -176 -364 -176q-119 0 -215.5 45t-158.5 123t-95 180t-33 217q0 174 75.5 315.5t213.5 223.5t313 82q143 0 256 -55v475zM741 860q-136 0 -214 -85t-78 -222q0 -132 70 -213.5t200 -81.5q124 0 225 82v457q-92 63 -203 63z
M1653 1204h-195v367h348v-39z" />
    <glyph glyph-name="utilde" unicode="&#x169;" horiz-adv-x="1837" 
d="M1008 0h-740v584h-194l22 272h172v578h740q338 0 529.5 -189t191.5 -526q0 -338 -191.5 -528.5t-529.5 -190.5zM643 590v-271h340q365 0 365 396q0 399 -365 399h-340v-266h387v-258h-387z" />
    <glyph glyph-name="Umacron" unicode="&#x16a;" horiz-adv-x="1484" 
d="M1479 1407l14 -215h-186v-1192h-353l-2 139q-140 -174 -364 -174q-227 0 -364.5 151t-137.5 380q0 167 80 302t218 210t304 75q143 0 256 -55v164h-352v215h352v164h363v-164h172zM741 793q-128 0 -210 -74.5t-82 -200.5q0 -118 75.5 -189t194.5 -71q124 0 225 82v389
q-94 64 -203 64z" />
    <glyph glyph-name="umacron" unicode="&#x16b;" horiz-adv-x="1568" 
d="M1444 0h-1254v1434h1225l15 -318h-867v-229h688v-301h-688v-269h893zM1231 1622h-819v252h819v-252z" />
    <glyph glyph-name="Ubreve" unicode="&#x16c;" horiz-adv-x="1345" 
d="M700 1157q266 0 413 -158.5t147 -425.5q0 -19 -3 -53l-4 -55h-807q41 -215 326 -215q209 0 416 115h2v-291q-201 -109 -451 -109q-140 0 -257 34.5t-206.5 103t-139.5 179.5t-50 255q0 275 170 447.5t444 172.5zM451 666h483q-9 101 -72.5 158t-165.5 57
q-201 0 -245 -215zM1114 1333h-819v252h819v-252z" />
    <glyph glyph-name="ubreve" unicode="&#x16d;" horiz-adv-x="1568" 
d="M1444 0h-1254v1434h1225l15 -318h-867v-229h688v-301h-688v-269h893zM821 1569q-65 0 -123 9.5t-114 32t-96 57.5t-64.5 89.5t-24.5 124.5q0 58 15 117h262l-6 -60q0 -122 151 -122q150 0 150 120q0 17 -2 29l-4 33h262q14 -55 14 -119q0 -85 -36 -148t-98.5 -97
t-133.5 -50t-152 -16z" />
    <glyph glyph-name="Uring" unicode="&#x16e;" horiz-adv-x="1345" 
d="M700 1157q266 0 413 -158.5t147 -425.5q0 -19 -3 -53l-4 -55h-807q41 -215 326 -215q209 0 416 115h2v-291q-201 -109 -451 -109q-140 0 -257 34.5t-206.5 103t-139.5 179.5t-50 255q0 275 170 447.5t444 172.5zM451 666h483q-9 101 -72.5 158t-165.5 57
q-201 0 -245 -215zM705 1280q-65 0 -123 9.5t-114 32t-96 57.5t-64.5 89.5t-24.5 124.5q0 62 14 117h262l-6 -59q0 -123 152 -123q149 0 149 121q0 16 -2 28l-4 33h262q14 -55 14 -119q0 -85 -36 -148t-98 -97t-133 -50t-152 -16z" />
    <glyph glyph-name="uring" unicode="&#x16f;" horiz-adv-x="1568" 
d="M1444 0h-1254v1434h1225l15 -318h-867v-229h688v-301h-688v-269h893zM821 1569q-94 0 -157.5 48.5t-63.5 139.5v2q0 91 62 140t157 49t158 -48.5t63 -140.5v-2q0 -89 -63.5 -138.5t-155.5 -49.5z" />
    <glyph glyph-name="Uhungarumlaut" unicode="&#x170;" horiz-adv-x="1345" 
d="M700 1157q266 0 413 -158.5t147 -425.5q0 -19 -3 -53l-4 -55h-807q41 -215 326 -215q209 0 416 115h2v-291q-201 -109 -451 -109q-140 0 -257 34.5t-206.5 103t-139.5 179.5t-50 255q0 275 170 447.5t444 172.5zM451 666h483q-9 101 -72.5 158t-165.5 57
q-201 0 -245 -215zM707 1280q-94 0 -158 48.5t-64 139.5v2q0 91 62.5 140t157.5 49t158 -48.5t63 -140.5v-2q0 -89 -63.5 -138.5t-155.5 -49.5z" />
    <glyph glyph-name="uhungarumlaut" unicode="&#x171;" horiz-adv-x="1568" 
d="M190 0v1434h1225l15 -318h-867v-229h688v-301h-688v-269h893l-12 -317l-111 -104q-141 -129 -141 -181q0 -73 123 -73q84 0 164 34v-251q-115 -37 -238 -37q-54 0 -102.5 6.5t-97.5 23.5t-84.5 44t-57.5 71.5t-22 101.5q0 172 272 365h-959z" />
    <glyph glyph-name="Uogonek" unicode="&#x172;" horiz-adv-x="1345" 
d="M739 -35q-140 0 -257 34.5t-206.5 103t-139.5 179.5t-50 255q0 275 170 447.5t444 172.5q266 0 413 -158.5t147 -425.5q0 -19 -3 -53l-4 -55h-807q41 -215 326 -215q209 0 416 115h2v-291l-121 -144q-106 -125 -119 -157q-22 -49 -22 -80q0 -76 123 -76q68 0 163 35v-250
q-118 -39 -237 -39q-286 0 -354 168q-13 41 -13 80q0 92 66 176q54 68 194 178l13 10q-78 -10 -144 -10zM451 666h483q-9 101 -72.5 158t-165.5 57q-201 0 -245 -215z" />
    <glyph glyph-name="uogonek" unicode="&#x173;" horiz-adv-x="1568" 
d="M1444 0h-1254v1434h1225l15 -318h-867v-229h688v-301h-688v-269h893zM979 1970h332l-275 -385h-430l-274 385h334l118 -164h76z" />
    <glyph glyph-name="Wcircumflex" unicode="&#x174;" horiz-adv-x="1345" 
d="M700 1157q266 0 413 -158.5t147 -425.5q0 -19 -3 -53l-4 -55h-807q41 -215 326 -215q209 0 416 115h2v-291q-201 -109 -451 -109q-140 0 -257 34.5t-206.5 103t-139.5 179.5t-50 255q0 275 170 447.5t444 172.5zM451 666h483q-9 101 -72.5 158t-165.5 57
q-201 0 -245 -215zM862 1681h332l-274 -385h-431l-274 385h334l119 -163h75z" />
    <glyph glyph-name="wcircumflex" unicode="&#x175;" horiz-adv-x="1765" 
d="M909 -37q-171 0 -317 48.5t-253.5 140t-168.5 232t-61 314.5q0 328 221 543q235 229 628 229q329 0 545 -149v-352h-2q-286 176 -534 176q-217 0 -346 -116.5t-129 -330.5q0 -200 121.5 -309.5t324.5 -109.5q70 0 133.5 15.5t119 47t90.5 87t40 128.5h-467v285h823l4 -66
q2 -29 2 -82q0 -351 -210 -541t-564 -190zM915 1606q-65 0 -123 9.5t-113.5 32t-95.5 57.5t-64.5 89.5t-24.5 124.5q0 62 14 117h262l-6 -60q0 -123 151 -123q150 0 150 121q0 17 -2 29l-4 33h262q14 -55 14 -119q0 -85 -36 -148t-98.5 -97t-133.5 -50t-152 -16z" />
    <glyph glyph-name="Ycircumflex" unicode="&#x176;" horiz-adv-x="1277" 
d="M637 342l-84 4l-16 -102q405 -34 569 -117t164 -233q0 -137 -133 -232q-168 -119 -498 -119q-44 0 -90 2.5t-107.5 10t-115.5 20t-109 34.5t-94 51.5t-63.5 73.5t-24.5 97q0 153 215 248l65 321q-219 103 -219 332q0 108 47.5 191t126.5 131.5t172 73t195 24.5
q81 0 156 -16l102 184h373v-16l-248 -269q156 -105 156 -293q0 -85 -32.5 -154t-85.5 -114t-123.5 -76t-145 -44t-152.5 -13zM639 573q88 0 145.5 45t57.5 130t-57.5 128.5t-145.5 43.5t-146.5 -45t-58.5 -130q0 -172 205 -172zM674 -229q30 0 67.5 3.5t88.5 12t84.5 29.5
t33.5 51q0 107 -575 131q-56 -44 -56 -90q0 -137 357 -137zM610 1319q-65 0 -123 9.5t-114 32t-96 57.5t-64.5 89.5t-24.5 124.5q0 58 15 117h262l-6 -59q0 -123 151 -123q150 0 150 121q0 16 -2 28l-4 33h262q14 -55 14 -119q0 -85 -36 -148t-98.5 -97t-133.5 -50t-152 -16
z" />
    <glyph glyph-name="ycircumflex" unicode="&#x177;" horiz-adv-x="1765" 
d="M909 -37q-171 0 -317 48.5t-253.5 140t-168.5 232t-61 314.5q0 328 221 543q235 229 628 229q329 0 545 -149v-352h-2q-286 176 -534 176q-217 0 -346 -116.5t-129 -330.5q0 -200 121.5 -309.5t324.5 -109.5q70 0 133.5 15.5t119 47t90.5 87t40 128.5h-467v285h823l4 -66
q2 -29 2 -82q0 -351 -210 -541t-564 -190zM915 1606q-94 0 -157.5 48.5t-63.5 139.5v2q0 91 62 140t157 49t158.5 -48.5t63.5 -140.5v-2q0 -89 -64 -138.5t-156 -49.5z" />
    <glyph glyph-name="Ydieresis" unicode="&#x178;" horiz-adv-x="1277" 
d="M637 342l-84 4l-16 -102q405 -34 569 -117t164 -233q0 -137 -133 -232q-168 -119 -498 -119q-44 0 -90 2.5t-107.5 10t-115.5 20t-109 34.5t-94 51.5t-63.5 73.5t-24.5 97q0 153 215 248l65 321q-219 103 -219 332q0 108 47.5 191t126.5 131.5t172 73t195 24.5
q81 0 156 -16l102 184h373v-16l-248 -269q156 -105 156 -293q0 -85 -32.5 -154t-85.5 -114t-123.5 -76t-145 -44t-152.5 -13zM639 573q88 0 145.5 45t57.5 130t-57.5 128.5t-145.5 43.5t-146.5 -45t-58.5 -130q0 -172 205 -172zM674 -229q30 0 67.5 3.5t88.5 12t84.5 29.5
t33.5 51q0 107 -575 131q-56 -44 -56 -90q0 -137 357 -137zM612 1319q-94 0 -157.5 48.5t-63.5 139.5v2q0 91 62 140t157 49t158 -48.5t63 -140.5v-2q0 -89 -63.5 -138.5t-155.5 -49.5z" />
    <glyph glyph-name="Zacute" unicode="&#x179;" horiz-adv-x="1765" 
d="M909 -37q-171 0 -317 48.5t-253.5 140t-168.5 232t-61 314.5q0 328 221 543q235 229 628 229q329 0 545 -149v-352h-2q-286 176 -534 176q-217 0 -346 -116.5t-129 -330.5q0 -200 121.5 -309.5t324.5 -109.5q70 0 133.5 15.5t119 47t90.5 87t40 128.5h-467v285h823l4 -66
q2 -29 2 -82q0 -351 -210 -541t-564 -190zM840 -637h-217l116 434h383v-37z" />
    <glyph glyph-name="zacute" unicode="&#x17a;" horiz-adv-x="1277" 
d="M637 342l-84 4l-16 -102q405 -34 569 -117t164 -233q0 -137 -133 -232q-168 -119 -498 -119q-44 0 -90 2.5t-107.5 10t-115.5 20t-109 34.5t-94 51.5t-63.5 73.5t-24.5 97q0 153 215 248l65 321q-219 103 -219 332q0 108 47.5 191t126.5 131.5t172 73t195 24.5
q81 0 156 -16l102 184h373v-16l-248 -269q156 -105 156 -293q0 -85 -32.5 -154t-85.5 -114t-123.5 -76t-145 -44t-152.5 -13zM639 573q88 0 145.5 45t57.5 130t-57.5 128.5t-145.5 43.5t-146.5 -45t-58.5 -130q0 -172 205 -172zM674 -229q30 0 67.5 3.5t88.5 12t84.5 29.5
t33.5 51q0 107 -575 131q-56 -44 -56 -90q0 -137 357 -137zM721 1769h217l-117 -434h-383v37z" />
    <glyph glyph-name="Zdotaccent" unicode="&#x17b;" horiz-adv-x="1964" 
d="M643 0h-375v989h-194l14 273h180v172h375v-185h678v185h375v-172h180l12 -273h-192v-989h-375v494h-678v-494zM643 1004v-181h678v181h-678z" />
    <glyph glyph-name="zdotaccent" unicode="&#x17c;" horiz-adv-x="1452" 
d="M539 0h-363v1192h-184l12 215h172v164h361v-164h354v-215h-354v-293q180 195 395 195q186 0 283.5 -110t97.5 -300v-684h-363v596q0 184 -166 184q-126 0 -245 -104v-676z" />
    <glyph glyph-name="Zcaron" unicode="&#x17d;" horiz-adv-x="763" 
d="M569 0h-374v1434h374v-1434zM791 1622h-820v252h820v-252z" />
    <glyph glyph-name="zcaron" unicode="&#x17e;" horiz-adv-x="669" 
d="M516 0h-362v1120h362v-1120zM743 1309h-819v252h819v-252z" />
    <glyph glyph-name="longs" unicode="&#x17f;" horiz-adv-x="763" 
d="M569 0h-374v1434h374v-1434zM381 1569q-65 0 -123 9.5t-114 32t-96 57.5t-64.5 89.5t-24.5 124.5q0 62 14 117h263l-7 -60q0 -122 152 -122q149 0 149 120q0 17 -2 29l-4 33h262q15 -59 15 -119q0 -85 -36 -148t-98.5 -97t-133.5 -50t-152 -16z" />
    <glyph glyph-name="uni0180" unicode="&#x180;" horiz-adv-x="669" 
d="M516 0h-362v1120h362v-1120zM334 1255q-82 0 -153.5 16t-133.5 50.5t-98.5 98t-36.5 149.5q0 62 14 117h262l-6 -60q0 -123 152 -123q149 0 149 121q0 17 -2 29l-4 33h262q15 -58 15 -119q0 -69 -24.5 -123.5t-64.5 -89.5t-95.5 -57.5t-113.5 -32t-122 -9.5z" />
    <glyph glyph-name="uni0181" unicode="&#x181;" horiz-adv-x="763" 
d="M604 -324v-251q-115 -37 -237 -37q-54 0 -102 6t-97.5 23t-85 44t-58 71.5t-22.5 102.5q0 150 193 306v1493h374v-1434l-110 -104q-142 -130 -142 -181q0 -73 123 -73q84 0 164 34z" />
    <glyph glyph-name="uni0182" unicode="&#x182;" horiz-adv-x="669" 
d="M336 1255q-94 0 -157.5 49t-63.5 140v2q0 91 62 139.5t157 48.5t158 -48t63 -140v-2q0 -89 -63.5 -139t-155.5 -50zM551 -324v-251q-115 -37 -238 -37q-54 0 -102 6t-97.5 23t-84.5 44t-57.5 71.5t-22.5 102.5q0 155 205 314v1171h362v-1120l-110 -104
q-142 -130 -142 -181q0 -73 123 -73q84 0 164 34z" />
    <glyph glyph-name="uni0183" unicode="&#x183;" horiz-adv-x="763" 
d="M569 0h-374v1434h374v-1434zM383 1569q-94 0 -157.5 48.5t-63.5 139.5v2q0 91 62 140t157 49t158 -48.5t63 -140.5v-2q0 -89 -63.5 -138.5t-155.5 -49.5z" />
    <glyph glyph-name="uni0184" unicode="&#x184;" horiz-adv-x="669" 
d="M516 0h-362v1120h362v-1120z" />
    <glyph glyph-name="uni0185" unicode="&#x185;" horiz-adv-x="1705" 
d="M565 0h-375v1434h375v-543h207l447 543h428v-2l-570 -687l600 -743v-2h-446l-467 571h-199v-571zM772 -551h-217l117 434h383v-37z" />
    <glyph glyph-name="uni0186" unicode="&#x186;" horiz-adv-x="1366" 
d="M512 0h-362v1571h362v-856h143l267 405h405v-2l-364 -528l395 -588v-2h-418l-281 432h-147v-432zM618 -555h-217l117 434h383v-37z" />
    <glyph glyph-name="uni0187" unicode="&#x187;" horiz-adv-x="1429" 
d="M1339 0h-1149v1434h375v-1102h789zM541 1585h-320l252 352h428v-24z" />
    <glyph glyph-name="uni0188" unicode="&#x188;" horiz-adv-x="669" 
d="M516 0h-362v1571h362v-1571zM500 1724h-320l252 353h428v-25z" />
    <glyph glyph-name="uni0189" unicode="&#x189;" horiz-adv-x="1429" 
d="M1339 0h-1149v1434h375v-1102h789zM690 -600h-217l117 434h383v-37z" />
    <glyph glyph-name="uni018A" unicode="&#x18a;" horiz-adv-x="669" 
d="M516 0h-362v1571h362v-1571zM236 -600h-218l117 434h383v-37z" />
    <glyph glyph-name="uni018B" unicode="&#x18b;" horiz-adv-x="1429" 
d="M1339 0h-1149v1434h375v-1102h789zM911 1067h-194v367h348v-39z" />
    <glyph glyph-name="uni018C" unicode="&#x18c;" horiz-adv-x="669" 
d="M516 0h-362v1571h362v-1571zM862 1204h-194v367h348v-39z" />
    <glyph glyph-name="uni018D" unicode="&#x18d;" horiz-adv-x="1429" 
d="M1339 0h-1149v1434h375v-1102h789zM1094 696q-89 0 -147 52t-58 139t58 137.5t147 50.5t146.5 -50.5t57.5 -137.5t-58 -139t-146 -52z" />
    <glyph glyph-name="uni018E" unicode="&#x18e;" horiz-adv-x="1054" 
d="M516 0h-362v1571h362v-1571zM862 608q-87 0 -146 51.5t-59 137.5v2q0 87 57 137.5t146 50.5q90 0 148.5 -50t58.5 -138v-2q0 -86 -59 -137.5t-146 -51.5z" />
    <glyph glyph-name="uni018F" unicode="&#x18f;" horiz-adv-x="1497" 
d="M1407 0h-1149v442l-184 -88v314l184 90v676h375v-494l444 217v-315l-444 -217v-293h786z" />
    <glyph glyph-name="uni0190" unicode="&#x190;" horiz-adv-x="860" 
d="M610 0h-362v557l-211 -117v277l211 117v737h362v-535l213 119v-278l-213 -119v-758z" />
    <glyph glyph-name="uni0191" unicode="&#x191;" horiz-adv-x="1816" 
d="M551 0h-361v1434h400l667 -881h9v881h360v-1434h-383l-684 907h-8v-907zM1083 1534h-319l252 352h428v-24z" />
    <glyph glyph-name="florin" unicode="&#x192;" horiz-adv-x="1425" 
d="M512 0h-362v1120h358l2 -162q176 197 395 197q186 0 283.5 -109.5t97.5 -297.5v-748h-362v659q0 185 -166 185q-127 0 -246 -107v-737zM864 1296h-319l252 353h428v-25z" />
    <glyph glyph-name="uni0193" unicode="&#x193;" horiz-adv-x="1816" 
d="M551 0h-361v1434h400l667 -881h9v881h360v-1434h-383l-684 907h-8v-907zM801 -549h-217l116 434h383v-37z" />
    <glyph glyph-name="uni0194" unicode="&#x194;" horiz-adv-x="1425" 
d="M512 0h-362v1120h358l2 -162q176 197 395 197q186 0 283.5 -109.5t97.5 -297.5v-748h-362v659q0 185 -166 185q-127 0 -246 -107v-737zM649 -567h-217l117 434h383v-37z" />
    <glyph glyph-name="uni0195" unicode="&#x195;" horiz-adv-x="1816" 
d="M551 0h-361v1434h400l667 -881h9v881h360v-1434h-383l-684 907h-8v-907zM1106 1919h332l-275 -385h-430l-274 385h334l118 -164h76z" />
    <glyph glyph-name="uni0196" unicode="&#x196;" horiz-adv-x="1425" 
d="M512 0h-362v1120h358l2 -162q176 197 395 197q186 0 283.5 -109.5t97.5 -297.5v-748h-362v659q0 185 -166 185q-127 0 -246 -107v-737zM887 1681h332l-275 -385h-430l-274 385h333l119 -163h76z" />
    <glyph glyph-name="uni0197" unicode="&#x197;" horiz-adv-x="1828" 
d="M913 -39q-176 0 -323 50.5t-253.5 145t-166 238t-59.5 322.5t59.5 322.5t166 238t253.5 145t323 50.5q237 0 417.5 -86.5t284 -259t103.5 -410.5t-103.5 -410.5t-284 -259t-417.5 -86.5zM913 289q203 0 315.5 112.5t112.5 315.5q0 204 -111 316t-315 112
q-203 0 -315.5 -112.5t-112.5 -315.5t112 -315.5t314 -112.5zM1323 1661h-819v252h819v-252z" />
    <glyph glyph-name="uni0198" unicode="&#x198;" horiz-adv-x="1429" 
d="M715 -37q-277 0 -453 161t-176 435q0 183 81.5 319.5t223 207.5t324.5 71q279 0 453.5 -161t174.5 -437q0 -183 -81.5 -319t-223.5 -206.5t-323 -70.5zM715 254q127 0 198.5 87t71.5 218t-71 219t-199 88q-130 0 -200.5 -87t-70.5 -220q0 -132 71 -218.5t200 -86.5z
M1124 1333h-819v252h819v-252z" />
    <glyph glyph-name="uni0199" unicode="&#x199;" horiz-adv-x="1828" 
d="M913 -39q-176 0 -323 50.5t-253.5 145t-166 238t-59.5 322.5t59.5 322.5t166 238t253.5 145t323 50.5q237 0 417.5 -86.5t284 -259t103.5 -410.5t-103.5 -410.5t-284 -259t-417.5 -86.5zM913 289q203 0 315.5 112.5t112.5 315.5q0 204 -111 316t-315 112
q-203 0 -315.5 -112.5t-112.5 -315.5t112 -315.5t314 -112.5zM913 1608q-65 0 -123 9.5t-113.5 32t-95.5 57.5t-64.5 89.5t-24.5 124.5q0 62 14 117h262l-6 -60q0 -123 151 -123q150 0 150 121q0 17 -2 29l-4 33h262q14 -55 14 -119q0 -85 -36 -148t-98.5 -97t-133.5 -50
t-152 -16z" />
    <glyph glyph-name="uni019A" unicode="&#x19a;" horiz-adv-x="1429" 
d="M715 -37q-277 0 -453 161t-176 435q0 183 81.5 319.5t223 207.5t324.5 71q279 0 453.5 -161t174.5 -437q0 -183 -81.5 -319t-223.5 -206.5t-323 -70.5zM715 254q127 0 198.5 87t71.5 218t-71 219t-199 88q-130 0 -200.5 -87t-70.5 -220q0 -132 71 -218.5t200 -86.5z
M715 1280q-65 0 -123 9.5t-114 32t-96 57.5t-64.5 89.5t-24.5 124.5q0 62 14 117h262l-6 -59q0 -123 152 -123q149 0 149 121q0 16 -2 28l-4 33h262q15 -59 15 -119q0 -85 -36 -148t-98.5 -97t-133.5 -50t-152 -16z" />
    <glyph glyph-name="uni019B" unicode="&#x19b;" horiz-adv-x="1828" 
d="M111 717q0 179 59.5 322.5t166 238t253.5 145t323 50.5q237 0 417.5 -86.5t284 -259t103.5 -410.5t-103.5 -410.5t-284 -259t-417.5 -86.5q-176 0 -323 50.5t-253.5 145t-166 238t-59.5 322.5zM487 717q0 -203 112 -315.5t314 -112.5q203 0 315.5 112.5t112.5 315.5
q0 204 -111 316t-315 112q-203 0 -315.5 -112.5t-112.5 -315.5zM815 1624h-256l219 352h373v-24zM1298 1624h-254l218 352h372v-24z" />
    <glyph glyph-name="uni019C" unicode="&#x19c;" horiz-adv-x="1429" 
d="M86 559q0 183 81.5 319.5t223 207.5t324.5 71q279 0 453.5 -161t174.5 -437q0 -183 -81.5 -319t-223.5 -206.5t-323 -70.5q-277 0 -453 161t-176 435zM444 559q0 -132 71 -218.5t200 -86.5q127 0 198.5 87t71.5 218t-71 219t-199 88q-130 0 -200.5 -87t-70.5 -220z
M616 1296h-256l220 353h372v-25zM1100 1296h-254l217 353h373v-25z" />
    <glyph glyph-name="uni019D" unicode="&#x19d;" horiz-adv-x="2574" 
d="M111 715q0 337 190.5 528t527.5 191h1592l12 -318h-864v-229h688v-301h-688v-269h893l-15 -317h-1618q-337 0 -527.5 189.5t-190.5 525.5zM1194 322v790h-338q-364 0 -364 -393q0 -397 364 -397h338z" />
    <glyph glyph-name="uni019E" unicode="&#x19e;" horiz-adv-x="2242" 
d="M1157 158q-151 -195 -450 -195q-274 0 -447.5 162.5t-173.5 433.5q0 273 173 435.5t448 162.5q309 0 460 -213q151 213 441 213q264 0 407.5 -158.5t143.5 -425.5q0 -30 -2 -53l-5 -55h-806q41 -215 325 -215q209 0 416 115h2v-291q-207 -109 -444 -109q-332 0 -488 193z
M1350 666h483q-9 101 -72.5 158t-165.5 57q-201 0 -245 -215zM715 254q131 0 200.5 85.5t69.5 219.5q0 135 -69 221t-201 86q-130 0 -200.5 -87t-70.5 -220q0 -132 71 -218.5t200 -86.5z" />
    <glyph glyph-name="uni019F" unicode="&#x19f;" horiz-adv-x="1665" 
d="M565 0h-375v1434h801q557 0 557 -504q0 -354 -293 -459l353 -471h-432l-285 399h-326v-399zM565 1116v-409h393q213 0 213 206q0 203 -213 203h-393zM967 1585h-320l252 352h428v-24z" />
    <glyph glyph-name="Ohorn" unicode="&#x1a0;" horiz-adv-x="917" 
d="M512 0h-362v1120h360v-207q133 232 313 232h19q18 0 28 -2v-363l-77 4q-213 0 -281 -127v-657zM639 1290h-320l252 352h428v-24z" />
    <glyph glyph-name="ohorn" unicode="&#x1a1;" horiz-adv-x="1665" 
d="M565 0h-375v1434h801q557 0 557 -504q0 -354 -293 -459l353 -471h-432l-285 399h-326v-399zM565 1116v-409h393q213 0 213 206q0 203 -213 203h-393zM782 -551h-217l117 434h383v-37z" />
    <glyph glyph-name="uni01A2" unicode="&#x1a2;" horiz-adv-x="917" 
d="M512 0h-362v1120h360v-207q133 232 313 232h19q18 0 28 -2v-363l-77 4q-213 0 -281 -127v-657zM227 -600h-217l117 434h383v-37z" />
    <glyph glyph-name="uni01A3" unicode="&#x1a3;" horiz-adv-x="1665" 
d="M565 0h-375v1434h801q557 0 557 -504q0 -354 -293 -459l353 -471h-432l-285 399h-326v-399zM565 1116v-409h393q213 0 213 206q0 203 -213 203h-393zM989 1970h332l-274 -385h-431l-274 385h334l119 -164h75z" />
    <glyph glyph-name="uni01A4" unicode="&#x1a4;" horiz-adv-x="917" 
d="M512 0h-362v1120h360v-207q133 232 313 232h19q18 0 28 -2v-363l-77 4q-213 0 -281 -127v-657zM662 1675h331l-274 -385h-430l-275 385h334l119 -164h76z" />
    <glyph glyph-name="uni01A5" unicode="&#x1a5;" horiz-adv-x="1531" 
d="M147 102v361h3q338 -180 661 -180q260 0 260 129q0 64 -72 92q-60 24 -311 69q-60 10 -108 20.5t-107 28.5t-103.5 39t-89 54t-73 72t-46.5 93t-18 117q0 103 42 186t109 135t156.5 87t180 49t184.5 14q295 0 545 -122v-359h-2q-271 164 -572 164q-258 0 -258 -127
q0 -77 101 -98q141 -30 276 -56q65 -11 113 -21.5t109 -29t104 -39.5t88 -54.5t72.5 -74t45 -97t17.5 -124.5q0 -104 -39.5 -186t-103.5 -133.5t-151 -85t-176 -47t-185 -13.5q-338 0 -652 137zM946 1622h-319l252 352h428v-24z" />
    <glyph glyph-name="uni01A6" unicode="&#x1a6;" horiz-adv-x="1202" 
d="M127 86v303h2q249 -153 508 -153q151 0 151 83q0 37 -40 58q-49 25 -209 59q-71 15 -121.5 28.5t-110 41t-96 62t-61.5 89.5t-25 125q0 98 44 173t117.5 117t158.5 62.5t178 20.5q104 0 224.5 -28t205.5 -76v-297h-2q-228 129 -445 129q-137 0 -137 -76q0 -39 45 -59
q59 -27 215 -60q72 -17 120.5 -31.5t106 -43t91.5 -63t57.5 -90t23.5 -126.5q0 -83 -29.5 -148t-78 -106t-115.5 -68t-136 -38t-146 -11q-259 0 -496 123zM741 1296h-319l252 353h428v-25z" />
    <glyph glyph-name="uni01A7" unicode="&#x1a7;" horiz-adv-x="1531" 
d="M1454 430q0 -105 -41 -188.5t-112.5 -137.5t-158.5 -86t-190 -45l-172 -358h-430v27l297 329q-267 28 -500 131v361h3q338 -180 661 -180q260 0 260 129q0 64 -72 92q-60 24 -311 69q-60 10 -108 20.5t-107 28.5t-103.5 39t-89 54t-73 72t-46.5 93t-18 117q0 103 42 186
t109 135t156.5 87t180 49t184.5 14q295 0 545 -122v-359h-2q-271 164 -572 164q-258 0 -258 -127q0 -77 101 -98q141 -30 276 -56q65 -11 113 -21.5t109 -29t104 -39.5t88 -54.5t72.5 -74t45 -97t17.5 -124.5z" />
    <glyph glyph-name="uni01A8" unicode="&#x1a8;" horiz-adv-x="1202" 
d="M1128 334q0 -142 -89 -232.5t-234 -121.5l-176 -365h-430v27l295 329q-191 23 -367 115v303h2q249 -153 508 -153q151 0 151 83q0 37 -40 58q-49 25 -209 59q-71 15 -121.5 28.5t-110 41t-96 62t-61.5 89.5t-25 125q0 98 44 173t117.5 117t158.5 62.5t178 20.5
q104 0 224.5 -28t205.5 -76v-297h-2q-228 129 -445 129q-137 0 -137 -76q0 -39 45 -59q59 -27 215 -60q72 -17 120.5 -31.5t106 -43t91.5 -63t57.5 -90t23.5 -126.5z" />
    <glyph glyph-name="uni01A9" unicode="&#x1a9;" horiz-adv-x="1531" 
d="M147 102v361h3q338 -180 661 -180q260 0 260 129q0 64 -72 92q-60 24 -311 69q-60 10 -108 20.5t-107 28.5t-103.5 39t-89 54t-73 72t-46.5 93t-18 117q0 103 42 186t109 135t156.5 87t180 49t184.5 14q295 0 545 -122v-359h-2q-271 164 -572 164q-258 0 -258 -127
q0 -77 101 -98q141 -30 276 -56q65 -11 113 -21.5t109 -29t104 -39.5t88 -54.5t72.5 -74t45 -97t17.5 -124.5q0 -104 -39.5 -186t-103.5 -133.5t-151 -85t-176 -47t-185 -13.5q-338 0 -652 137zM969 2007h331l-274 -385h-430l-274 385h333l119 -164h76z" />
    <glyph glyph-name="uni01AA" unicode="&#x1aa;" horiz-adv-x="1202" 
d="M127 86v303h2q249 -153 508 -153q151 0 151 83q0 37 -40 58q-49 25 -209 59q-71 15 -121.5 28.5t-110 41t-96 62t-61.5 89.5t-25 125q0 98 44 173t117.5 117t158.5 62.5t178 20.5q104 0 224.5 -28t205.5 -76v-297h-2q-228 129 -445 129q-137 0 -137 -76q0 -39 45 -59
q59 -27 215 -60q72 -17 120.5 -31.5t106 -43t91.5 -63t57.5 -90t23.5 -126.5q0 -83 -29.5 -148t-78 -106t-115.5 -68t-136 -38t-146 -11q-259 0 -496 123zM764 1681h332l-275 -385h-430l-274 385h334l118 -163h76z" />
    <glyph glyph-name="uni01AD" unicode="&#x1ad;" horiz-adv-x="1542" 
d="M958 0h-374v1102h-510l14 332h1368l12 -332h-510v-1102zM930 1970h332l-275 -385h-430l-274 385h333l119 -164h76z" />
    <glyph glyph-name="uni01AE" unicode="&#x1ae;" horiz-adv-x="937" 
d="M643 0h-358v838h-244l53 282h191v252l358 41v-293h248v-282h-248v-838zM989 1278h-194v367h348v-39z" />
    <glyph glyph-name="Uhorn" unicode="&#x1af;" horiz-adv-x="1773" 
d="M178 557v877h377v-852q0 -283 332 -283q334 0 334 274v861h374v-869q0 -604 -710 -604q-707 0 -707 596zM1296 1622h-819v252h819v-252z" />
    <glyph glyph-name="uhorn" unicode="&#x1b0;" horiz-adv-x="1425" 
d="M913 1120h363v-1120h-358l-3 158q-177 -195 -393 -195q-185 0 -284 111t-99 299v747h363v-659q0 -185 166 -185q125 0 245 105v739zM1108 1309h-819v252h819v-252z" />
    <glyph glyph-name="uni01B1" unicode="&#x1b1;" horiz-adv-x="1773" 
d="M178 557v877h377v-852q0 -283 332 -283q334 0 334 274v861h374v-869q0 -604 -710 -604q-707 0 -707 596zM887 1520q-65 0 -123 9.5t-114 32t-96 57.5t-64.5 89.5t-24.5 124.5q0 62 14 117h262l-6 -60q0 -123 152 -123q149 0 149 121q0 17 -2 29l-4 33h262q15 -58 15 -119
q0 -85 -36 -148t-98.5 -97t-133.5 -50t-152 -16z" />
    <glyph glyph-name="uni01B2" unicode="&#x1b2;" horiz-adv-x="1425" 
d="M913 1120h363v-1120h-358l-3 158q-177 -195 -393 -195q-185 0 -284 111t-99 299v747h363v-659q0 -185 166 -185q125 0 245 105v739zM698 1223q-65 0 -123 9.5t-114 32t-96 57.5t-64.5 89.5t-24.5 124.5q0 58 15 117h262l-6 -60q0 -123 151 -123q150 0 150 121q0 17 -2 29
l-4 33h262q14 -55 14 -119q0 -85 -36 -148t-98.5 -97t-133.5 -50t-152 -16z" />
    <glyph glyph-name="uni01B3" unicode="&#x1b3;" horiz-adv-x="1773" 
d="M178 557v877h377v-852q0 -283 332 -283q334 0 334 274v861h374v-869q0 -604 -710 -604q-707 0 -707 596zM885 1520q-77 0 -143 18.5t-118.5 55.5t-82 99t-29.5 142q0 162 104 243t271 81q106 0 189 -32.5t135.5 -107t52.5 -182.5q0 -81 -30.5 -143t-83.5 -99.5t-120 -56
t-145 -18.5zM1032 1837q0 129 -147 129q-148 0 -148 -129q0 -125 150 -125q145 0 145 125z" />
    <glyph glyph-name="uni01B4" unicode="&#x1b4;" horiz-adv-x="1425" 
d="M913 1120h363v-1120h-358l-3 158q-177 -195 -393 -195q-185 0 -284 111t-99 299v747h363v-659q0 -185 166 -185q125 0 245 105v739zM696 1223q-77 0 -143 18.5t-118 55.5t-81.5 99t-29.5 142q0 162 103.5 243t270.5 81q106 0 189 -32.5t135.5 -107t52.5 -182.5
q0 -81 -30.5 -143t-83.5 -99.5t-120 -56t-145 -18.5zM844 1540q0 129 -148 129q-147 0 -147 -129q0 -125 149 -125q146 0 146 125z" />
    <glyph glyph-name="uni01B5" unicode="&#x1b5;" horiz-adv-x="1773" 
d="M178 1434h377v-852q0 -283 332 -283q334 0 334 274v861h374v-869q0 -604 -710 -604q-707 0 -707 596v877zM748 1585h-256l219 352h372v-24zM977 1585l217 352h373v-24l-336 -328h-254z" />
    <glyph glyph-name="uni01B6" unicode="&#x1b6;" horiz-adv-x="1425" 
d="M139 373v747h363v-659q0 -185 166 -185q125 0 245 105v739h363v-1120h-358l-3 158q-177 -195 -393 -195q-185 0 -284 111t-99 299zM600 1272h-256l219 352h373v-25zM1083 1272h-254l218 352h372v-25z" />
    <glyph glyph-name="uni01B7" unicode="&#x1b7;" horiz-adv-x="1773" 
d="M1182 -330v-252q-112 -36 -238 -36q-54 0 -102 6t-97.5 23t-84.5 44t-57.5 71.5t-22.5 102.5q0 163 229 334q-631 27 -631 594v877h377v-852q0 -283 332 -283q334 0 334 274v861h374v-869q0 -233 -115 -380.5t-341 -198.5l-103 -97q-141 -129 -141 -180q0 -74 123 -74
q82 0 164 35z" />
    <glyph glyph-name="uni01B8" unicode="&#x1b8;" horiz-adv-x="1425" 
d="M913 1120h363v-1120l-111 -104q-141 -129 -141 -181q0 -73 123 -73q84 0 164 34v-251q-115 -37 -238 -37q-54 0 -102 6t-97.5 23t-84.5 44t-57.5 71.5t-22.5 102.5q0 155 213 320l-4 203q-180 -195 -396 -195q-185 0 -284 111t-99 299v747h363v-659q0 -185 166 -185
q125 0 245 105v739z" />
    <glyph glyph-name="uni01B9" unicode="&#x1b9;" horiz-adv-x="2519" 
d="M969 0h-506l-387 1434h397l262 -1055h23l332 1055h366l326 -1055h24l254 1055h383l-385 -1434h-502l-286 922h-13zM1102 1585h-332l274 385h431l274 -385h-334l-119 166h-75z" />
    <glyph glyph-name="uni01BA" unicode="&#x1ba;" horiz-adv-x="2068" 
d="M834 0h-459l-328 1120h377l190 -776h29l209 766h377l213 -766h31l188 776h360l-329 -1120h-459l-182 690h-31zM883 1272h-332l274 385h430l275 -385h-334l-119 166h-76z" />
    <glyph glyph-name="uni01BB" unicode="&#x1bb;" horiz-adv-x="1669" 
d="M1022 0h-375v475l-637 959h430l385 -600h23l393 600h416l-635 -953v-481zM676 1585h-332l274 385h431l274 -385h-334l-119 166h-75z" />
    <glyph glyph-name="uni01BC" unicode="&#x1bc;" horiz-adv-x="1325" 
d="M717 -416h-350l133 369l-469 1167h370l283 -755l260 755h363zM518 1272h-332l275 385h430l274 -385h-334l-118 166h-76z" />
    <glyph glyph-name="uni01BD" unicode="&#x1bd;" horiz-adv-x="1669" 
d="M1022 0h-375v475l-637 959h430l385 -600h23l393 600h416l-635 -953v-481zM565 1569q-84 0 -139 48.5t-55 131.5v2q0 84 54.5 131t139.5 47t140 -47t55 -131v-2q0 -83 -55.5 -131.5t-139.5 -48.5zM1104 1569q-84 0 -139.5 48.5t-55.5 131.5v2q0 84 55 131t140 47
t139.5 -47t54.5 -131v-2q0 -83 -55 -131.5t-139 -48.5z" />
    <glyph glyph-name="uni01BE" unicode="&#x1be;" horiz-adv-x="1593" 
d="M1464 0h-1327v336l826 776h-803l12 322h1290v-306l-856 -806h858v-322zM944 1585h-319l252 352h428v-24z" />
    <glyph glyph-name="uni01BF" unicode="&#x1bf;" horiz-adv-x="1253" 
d="M1147 0h-1028v266l581 568h-569l14 286h1002v-258l-598 -575h598v-287zM465 1272l252 352h428v-25l-361 -327h-319z" />
    <glyph glyph-name="uni01C0" unicode="&#x1c0;" horiz-adv-x="1593" 
d="M1464 0h-1327v336l826 776h-803l12 322h1290v-306l-856 -806h858v-322zM809 1569q-94 0 -157.5 48.5t-63.5 139.5v2q0 91 62 140t157 49t158 -48.5t63 -140.5v-2q0 -89 -63.5 -138.5t-155.5 -49.5z" />
    <glyph glyph-name="uni01C1" unicode="&#x1c1;" horiz-adv-x="1253" 
d="M119 0v266l581 568h-569l14 286h1002v-258l-598 -575h598v-287h-1028zM430 1446q0 91 62 139.5t157 48.5t158 -48t63 -140v-2q0 -89 -63.5 -139t-155.5 -50q-94 0 -157.5 49t-63.5 140v2z" />
    <glyph glyph-name="uni01C2" unicode="&#x1c2;" horiz-adv-x="1593" 
d="M1464 0h-1327v336l826 776h-803l12 322h1290v-306l-856 -806h858v-322zM967 1970h331l-274 -385h-430l-275 385h334l119 -164h76z" />
    <glyph glyph-name="uni01C3" unicode="&#x1c3;" horiz-adv-x="1253" 
d="M119 0v266l581 568h-569l14 286h1002v-258l-598 -575h598v-287h-1028zM434 1272l-274 385h334l118 -164h76l119 164h332l-275 -385h-430z" />
    <glyph glyph-name="uni01C4" unicode="&#x1c4;" horiz-adv-x="1746" 
d="M436 0h-387l529 1434h591l527 -1434h-391l-115 317h-639zM909 1102h-75l-175 -484h424zM872 1569q-77 0 -143 18.5t-118 55.5t-81.5 99t-29.5 142q0 162 103.5 243t270.5 81q106 0 189 -32.5t135.5 -107t52.5 -182.5q0 -81 -30.5 -143t-83.5 -99.5t-120 -56t-145 -18.5z
M1020 1886q0 129 -148 129q-147 0 -147 -129q0 -125 149 -125q146 0 146 125zM1030 2324h-319l252 353h428v-25z" />
    <glyph glyph-name="uni01C5" unicode="&#x1c5;" horiz-adv-x="1294" 
d="M461 -33q-77 0 -143.5 18.5t-119.5 55t-83.5 98t-30.5 140.5q0 71 21.5 125t66 92t90 62.5t115.5 51.5q152 56 434 70v14q0 162 -193 162q-214 0 -430 -143h-2v319q237 123 488 123q489 0 489 -459v-696h-332l-6 125q-146 -158 -364 -158zM567 217q64 0 130.5 25
t113.5 67v176q-284 -24 -356 -96q-29 -29 -29 -72q0 -100 141 -100zM666 1280q-77 0 -143 18.5t-118.5 55.5t-82 99t-29.5 142q0 162 104 243t271 81q165 0 270.5 -81t105.5 -241q0 -81 -30 -143t-83 -99.5t-120 -56t-145 -18.5zM813 1597q0 129 -147 129q-148 0 -148 -129
q0 -124 150 -124q145 0 145 124zM823 2036h-319l252 352h428v-25z" />
    <glyph glyph-name="uni01C6" unicode="&#x1c6;" horiz-adv-x="2598" 
d="M2472 0h-1251v317h-590l-182 -317h-426l847 1434h1575l13 -318h-865v-229h688v-301h-688v-269h893zM1221 1106h-136l-282 -490h418v490zM1577 1585h-320l252 352h428v-24z" />
    <glyph glyph-name="uni01C7" unicode="&#x1c7;" horiz-adv-x="2068" 
d="M1915 365v-291q-207 -109 -451 -109q-350 0 -520 197q-204 -195 -479 -195q-79 0 -145.5 17.5t-120.5 53.5t-84.5 97.5t-30.5 143.5q0 71 21.5 125t66 92t90 62.5t115.5 51.5q148 57 440 72v12q0 162 -199 162q-214 0 -430 -143h-2v319q237 123 482 123q265 0 374 -154
q150 156 392 156q264 0 407.5 -158.5t143.5 -425.5q0 -61 -9 -108h-807q41 -215 328 -215q206 0 416 115h2zM1174 666h483q-9 100 -72 157.5t-164 57.5q-203 0 -247 -215zM567 217q77 0 152 27.5t133 77.5q-32 81 -35 163q-284 -24 -362 -96q-29 -29 -29 -72
q0 -100 141 -100zM1200 1276h-319l252 352h428v-24z" />
    <glyph glyph-name="uni01C8" unicode="&#x1c8;" horiz-adv-x="1828" 
d="M434 -123h-375l244 313q-192 201 -192 527q0 179 59.5 322.5t166 238t253.5 145t323 50.5q200 0 367 -66l119 149h370l-243 -315q192 -198 192 -524q0 -238 -103.5 -410.5t-284 -259t-417.5 -86.5q-197 0 -364 66zM543 455l536 678q-80 22 -164 22q-207 0 -322.5 -115.5
t-115.5 -322.5q0 -158 66 -262zM911 279q207 0 324 115.5t117 322.5q0 153 -68 262l-534 -678q77 -22 161 -22zM1051 1614h-320l252 352h428v-24z" />
    <glyph glyph-name="uni01C9" unicode="&#x1c9;" horiz-adv-x="1429" 
d="M418 20l-92 -118h-308l203 264q-135 159 -135 393q0 183 81.5 319.5t223 207.5t324.5 71q167 0 297 -59l92 119h307l-203 -265q135 -153 135 -393q0 -183 -81.5 -319t-223.5 -206.5t-323 -70.5q-163 0 -297 57zM459 403l370 457q-65 21 -114 21q-135 0 -210 -91.5
t-75 -230.5q0 -83 29 -156zM715 240q137 0 210.5 89.5t73.5 229.5q0 88 -28 158l-373 -455q58 -22 117 -22zM850 1309h-320l252 352h428v-25z" />
    <glyph glyph-name="uni01CA" unicode="&#x1ca;" horiz-adv-x="1531" 
d="M147 102v361h3q338 -180 661 -180q260 0 260 129q0 64 -72 92q-60 24 -311 69q-60 10 -108 20.5t-107 28.5t-103.5 39t-89 54t-73 72t-46.5 93t-18 117q0 103 42 186t109 135t156.5 87t180 49t184.5 14q295 0 545 -122v-359h-2q-271 164 -572 164q-258 0 -258 -127
q0 -77 101 -98q141 -30 276 -56q65 -11 113 -21.5t109 -29t104 -39.5t88 -54.5t72.5 -74t45 -97t17.5 -124.5q0 -104 -39.5 -186t-103.5 -133.5t-151 -85t-176 -47t-185 -13.5q-338 0 -652 137zM694 -635h-217l117 434h383v-37z" />
    <glyph glyph-name="uni01CB" unicode="&#x1cb;" horiz-adv-x="1202" 
d="M127 86v303h2q249 -153 508 -153q151 0 151 83q0 37 -40 58q-49 25 -209 59q-71 15 -121.5 28.5t-110 41t-96 62t-61.5 89.5t-25 125q0 98 44 173t117.5 117t158.5 62.5t178 20.5q104 0 224.5 -28t205.5 -76v-297h-2q-228 129 -445 129q-137 0 -137 -76q0 -39 45 -59
q59 -27 215 -60q72 -17 120.5 -31.5t106 -43t91.5 -63t57.5 -90t23.5 -126.5q0 -83 -29.5 -148t-78 -106t-115.5 -68t-136 -38t-146 -11q-259 0 -496 123zM526 -637h-217l117 434h383v-37z" />
    <glyph glyph-name="uni01CC" unicode="&#x1cc;" horiz-adv-x="1345" 
d="M645 -37q-266 0 -412.5 158.5t-146.5 425.5q0 32 2 55l4 53h807q-41 215 -326 215q-209 0 -415 -114h-2v291q200 108 450 108q140 0 257.5 -34.5t207 -102.5t139.5 -179t50 -255q0 -275 -170.5 -448t-444.5 -173zM895 455h-483q9 -101 72 -158t165 -57q202 0 246 215z
" />
    <glyph glyph-name="uni01CD" unicode="&#x1cd;" horiz-adv-x="757" 
d="M547 778h-416v60l307 596h197z" />
    <glyph glyph-name="uni01CE" unicode="&#x1ce;" horiz-adv-x="1024" 
d="M354 1272h-331l274 385h430l274 -385h-333l-119 166h-76z" />
    <glyph glyph-name="uni01CF" unicode="&#x1cf;" horiz-adv-x="1024" 
d="M670 1657h331l-274 -385h-430l-274 385h333l119 -164h76z" />
    <glyph glyph-name="uni01D0" unicode="&#x1d0;" horiz-adv-x="1024" 
d="M512 1255q-82 0 -153.5 16t-133.5 50.5t-98.5 98t-36.5 149.5q0 62 14 117h263l-7 -60q0 -123 152 -123q150 0 150 121q0 11 -3 29l-4 33h263q14 -55 14 -119q0 -69 -24.5 -123.5t-64.5 -89.5t-95.5 -57.5t-113.5 -32t-122 -9.5z" />
    <glyph glyph-name="uni01D1" unicode="&#x1d1;" horiz-adv-x="1024" 
d="M510 1255q-94 0 -157.5 49t-63.5 140v2q0 91 62 139.5t157 48.5t158 -48t63 -140v-2q0 -89 -63.5 -139t-155.5 -50z" />
    <glyph glyph-name="uni01D2" unicode="&#x1d2;" horiz-adv-x="1251" 
d="M625 1255q-77 0 -143 18.5t-118.5 56t-82 99.5t-29.5 142q0 162 104 242.5t271 80.5q79 0 146 -19t119.5 -57t82 -100.5t29.5 -144.5q0 -81 -30.5 -143.5t-83.5 -99.5t-120 -56t-145 -19zM772 1573q0 129 -147 129q-148 0 -148 -129q0 -125 150 -125q145 0 145 125z" />
    <glyph glyph-name="uni01D3" unicode="&#x1d3;" horiz-adv-x="1024" 
d="M528 0l144 109l151 -109l-110 -104q-142 -130 -142 -181q0 -73 123 -73q84 0 164 34v-251q-115 -37 -237 -37q-54 0 -102 6t-97.5 23t-85 44t-58 71.5t-22.5 102.5q0 172 272 365z" />
    <glyph glyph-name="uni01D4" unicode="&#x1d4;" horiz-adv-x="1024" 
d="M913 1651v-297q-105 -105 -227 -105q-66 0 -223 66q-109 47 -146 47q-93 0 -211 -133h-2v295q104 104 226 104q71 0 225 -65q103 -47 145 -47q94 0 211 135h2z" />
    <glyph glyph-name="uni01D5" unicode="&#x1d5;" horiz-adv-x="1024" 
d="M264 1272h-256l219 352h373v-25zM748 1272h-254l217 352h372v-25z" />
    <glyph glyph-name="uni01D6" unicode="&#x1d6;" horiz-adv-x="1024" 
d="M469 -600h-217l117 434h383v-37z" />
    <glyph glyph-name="uni01D7" unicode="&#x1d7;" horiz-adv-x="2519" 
d="M969 0h-506l-387 1434h397l262 -1055h23l332 1055h366l326 -1055h24l254 1055h383l-385 -1434h-502l-286 922h-13zM1182 1937l252 -352h-322l-358 328v24h428z" />
    <glyph glyph-name="uni01D8" unicode="&#x1d8;" horiz-adv-x="2068" 
d="M834 0h-459l-328 1120h377l190 -776h29l209 766h377l213 -766h31l188 776h360l-329 -1120h-459l-182 690h-31zM948 1624l252 -352h-321l-359 327v25h428z" />
    <glyph glyph-name="uni01D9" unicode="&#x1d9;" horiz-adv-x="2519" 
d="M969 0h-506l-387 1434h397l262 -1055h23l332 1055h366l326 -1055h24l254 1055h383l-385 -1434h-502l-286 922h-13zM1438 1585h-320l252 352h428v-24z" />
    <glyph glyph-name="uni01DA" unicode="&#x1da;" horiz-adv-x="2068" 
d="M834 0h-459l-328 1120h377l190 -776h29l209 766h377l213 -766h31l188 776h360l-329 -1120h-459l-182 690h-31zM1204 1272h-319l252 352h428v-25z" />
    <glyph glyph-name="uni01DB" unicode="&#x1db;" horiz-adv-x="2519" 
d="M969 0h-506l-387 1434h397l262 -1055h23l332 1055h366l326 -1055h24l254 1055h383l-385 -1434h-502l-286 922h-13zM991 1569q-84 0 -139 48.5t-55 131.5v2q0 84 54.5 131t139.5 47t140 -47t55 -131v-2q0 -83 -55.5 -131.5t-139.5 -48.5zM1530 1569q-84 0 -139.5 48.5
t-55.5 131.5v2q0 84 55 131t140 47t139.5 -47t54.5 -131v-2q0 -83 -55 -131.5t-139 -48.5z" />
    <glyph glyph-name="uni01DC" unicode="&#x1dc;" horiz-adv-x="2068" 
d="M834 0h-459l-328 1120h377l190 -776h29l209 766h377l213 -766h31l188 776h360l-329 -1120h-459l-182 690h-31zM772 1255q-84 0 -139 49t-55 132v2q0 84 54.5 131t139.5 47t140 -47t55 -131v-2q0 -83 -55.5 -132t-139.5 -49zM1311 1255q-84 0 -139.5 49t-55.5 132v2
q0 84 55 131t140 47t139.5 -47t54.5 -131v-2q0 -83 -55 -132t-139 -49z" />
    <glyph glyph-name="uni01DD" unicode="&#x1dd;" horiz-adv-x="1769" 
d="M565 1126v-1126h-375v1434h1401v-324l-354 -297l98 -29q359 -111 359 -397q0 -422 -561 -422q-199 0 -394 62v317h2q188 -78 379 -78q203 0 203 135q0 69 -72 107q-63 35 -262 84l-133 33v213l340 288h-631z" />
    <glyph glyph-name="uni01DE" unicode="&#x1de;" horiz-adv-x="1669" 
d="M1022 0h-375v475l-637 959h430l385 -600h23l393 600h416l-635 -953v-481zM770 1888l252 -352h-322l-358 328v24h428z" />
    <glyph glyph-name="uni01DF" unicode="&#x1df;" horiz-adv-x="1325" 
d="M717 -416h-350l133 369l-469 1167h370l283 -755l260 755h363zM612 1591l252 -352h-321l-359 328v24h428z" />
    <glyph glyph-name="uni01E0" unicode="&#x1e0;" horiz-adv-x="1024" 
 />
    <glyph glyph-name="uni01E1" unicode="&#x1e1;" horiz-adv-x="2048" 
 />
    <glyph glyph-name="uni01E2" unicode="&#x1e2;" horiz-adv-x="681" 
 />
    <glyph glyph-name="uni01E3" unicode="&#x1e3;" horiz-adv-x="512" 
 />
    <glyph glyph-name="uni01E4" unicode="&#x1e4;" 
 />
    <glyph glyph-name="uni01E5" unicode="&#x1e5;" horiz-adv-x="849" 
 />
    <glyph glyph-name="Gcaron" unicode="&#x1e6;" horiz-adv-x="272" 
 />
    <glyph glyph-name="gcaron" unicode="&#x1e7;" horiz-adv-x="153" 
 />
    <glyph glyph-name="uni01E8" unicode="&#x1e8;" horiz-adv-x="0" 
 />
    <glyph glyph-name="uni01E9" unicode="&#x1e9;" horiz-adv-x="0" 
 />
    <glyph glyph-name="uni01EA" unicode="&#x1ea;" horiz-adv-x="0" 
 />
    <glyph glyph-name="uni01EB" unicode="&#x1eb;" horiz-adv-x="1435" 
d="M1284 502h-1130v321h1130v-321z" />
    <glyph glyph-name="uni01EC" unicode="&#x1ec;" horiz-adv-x="1771" 
d="M1620 502h-1466v321h1466v-321z" />
    <glyph glyph-name="uni01ED" unicode="&#x1ed;" horiz-adv-x="794" 
d="M547 778h-416v60l307 596h197z" />
    <glyph glyph-name="uni01EE" unicode="&#x1ee;" horiz-adv-x="794" 
d="M356 778h-194l86 656h416v-60z" />
    <glyph glyph-name="uni01EF" unicode="&#x1ef;" horiz-adv-x="765" 
d="M328 -272h-195l86 655h416v-59z" />
    <glyph glyph-name="uni01F0" unicode="&#x1f0;" horiz-adv-x="1355" 
d="M537 778h-406v60l301 596h193zM1106 778h-404v60l299 596h193z" />
    <glyph glyph-name="uni01F1" unicode="&#x1f1;" horiz-adv-x="1355" 
d="M354 778h-192l86 656h405v-60zM924 778h-193l88 656h404v-60z" />
    <glyph glyph-name="uni01F2" unicode="&#x1f2;" horiz-adv-x="1327" 
d="M326 -272h-193l86 655h406v-59zM895 -272h-193l89 655h403v-59z" />
    <glyph glyph-name="uni01F3" unicode="&#x1f3;" horiz-adv-x="1067" 
d="M680 344h-293v586h-281l13 250h268v254h293v-254h274v-250h-274v-586z" />
    <glyph glyph-name="uni01F4" unicode="&#x1f4;" horiz-adv-x="1069" 
d="M680 244h-293v254h-272v239h272v203h-281l13 240h268v254h293v-254h274v-240h-274v-203h283l-15 -239h-268v-254z" />
    <glyph glyph-name="uni01F5" unicode="&#x1f5;" horiz-adv-x="917" 
d="M459 330q-149 0 -247.5 89.5t-98.5 237.5v7q0 148 98 236.5t248 88.5t248 -88.5t98 -236.5v-7q0 -148 -98.5 -237.5t-247.5 -89.5z" />
    <glyph glyph-name="uni01F6" unicode="&#x1f6;" horiz-adv-x="2537" 
d="M424 -23q-104 0 -171 58.5t-67 161.5v4q0 103 66.5 161t171.5 58t172.5 -58t67.5 -161v-2q0 -103 -68 -162.5t-172 -59.5zM1268 -23q-104 0 -171 58.5t-67 161.5v4q0 103 66.5 161t171.5 58t172 -58t67 -161v-2q0 -103 -67.5 -162.5t-171.5 -59.5zM2111 -23
q-104 0 -170.5 58.5t-66.5 161.5v4q0 103 66.5 161t170.5 58q105 0 172.5 -58t67.5 -161v-2q0 -103 -68 -162.5t-172 -59.5z" />
    <glyph glyph-name="uni01F7" unicode="&#x1f7;" horiz-adv-x="272" 
 />
    <glyph glyph-name="uni01F8" unicode="&#x1f8;" horiz-adv-x="948" 
d="M477 559l377 -477h-408l-372 465v26l372 463h408z" />
    <glyph glyph-name="uni01F9" unicode="&#x1f9;" horiz-adv-x="948" 
d="M471 561l-377 477h408l372 -465v-26l-372 -463h-408z" />
    <glyph glyph-name="Aringacute" unicode="&#x1fa;" horiz-adv-x="544" 
d="M-387 0v2l1046 1432h271v-2l-1045 -1432h-272z" />
    <glyph glyph-name="aringacute" unicode="&#x1fb;" horiz-adv-x="948" 
d="M66 1145q0 208 103 330t308 122q408 0 408 -450q0 -207 -104 -329t-308 -122q-407 0 -407 449zM625 1147q0 227 -148 227q-151 0 -151 -227t147 -227q152 0 152 227z" />
    <glyph glyph-name="AEacute" unicode="&#x1fc;" horiz-adv-x="948" 
d="M784 723h-247v158h-476v196l213 494h510v-481h119l-12 -209h-107v-158zM434 1364l-115 -281h226v281h-111z" />
    <glyph glyph-name="aeacute" unicode="&#x1fd;" horiz-adv-x="948" 
d="M139 745v228h2q155 -55 318 -55q135 0 135 73q0 26 -19 39q-39 31 -264 31h-157l12 510h637l8 -219h-414l-2 -105h15q50 0 86.5 -1.5t86 -7.5t85.5 -16t74 -29.5t61.5 -47t39 -68t15.5 -92.5q0 -76 -34 -134t-91 -90.5t-122.5 -48.5t-137.5 -16q-188 0 -334 49z" />
    <glyph glyph-name="Oslashacute" unicode="&#x1fe;" horiz-adv-x="948" 
d="M90 1126q0 217 120 344t335 127q132 0 268 -47v-223h-2q-125 55 -252 55q-206 0 -215 -174q98 58 223 58q301 0 301 -256q0 -103 -54.5 -176t-137.5 -105.5t-184 -32.5q-402 0 -402 430zM344 1042q9 -139 145 -139q129 0 129 98q0 82 -108 82q-95 0 -166 -41z" />
    <glyph glyph-name="oslashacute" unicode="&#x1ff;" horiz-adv-x="948" 
d="M356 1217h-241v354h743v-275l-338 -573h-291l344 584v53h-217v-143z" />
    <glyph glyph-name="uni0200" unicode="&#x200;" horiz-adv-x="948" 
d="M80 948q0 147 168 205q-148 53 -148 186q0 72 34.5 125t92 80t119 39t129.5 12q54 0 103.5 -6.5t100.5 -24.5t88 -46t60 -74t23 -105q0 -133 -148 -186q168 -58 168 -205q0 -252 -395 -252t-395 252zM604 1311q0 88 -129 88t-129 -88q0 -80 129 -80t129 80zM616 981
q0 90 -141 90t-141 -90q0 -88 141 -88t141 88z" />
    <glyph glyph-name="uni0201" unicode="&#x201;" horiz-adv-x="948" 
d="M862 1165q0 -217 -119.5 -344t-334.5 -127q-133 0 -269 47v224h2q127 -56 252 -56q206 0 215 174q-96 -57 -223 -57q-301 0 -301 256q0 103 54.5 175.5t137.5 105t185 32.5q401 0 401 -430zM442 1208q95 0 166 41q-9 140 -145 140q-129 0 -129 -99q0 -82 108 -82z" />
    <glyph glyph-name="uni0202" unicode="&#x202;" horiz-adv-x="948" 
d="M66 8q0 208 103 330.5t308 122.5q408 0 408 -451q0 -207 -104 -328.5t-308 -121.5q-407 0 -407 448zM625 10q0 228 -148 228q-151 0 -151 -228q0 -227 147 -227q152 0 152 227z" />
    <glyph glyph-name="uni0203" unicode="&#x203;" horiz-adv-x="727" 
d="M537 -414h-275v631h-180l37 217h418v-848z" />
    <glyph glyph-name="uni0204" unicode="&#x204;" horiz-adv-x="948" 
d="M840 -414h-715v213l233 176q213 151 213 199q0 57 -94 57q-137 0 -315 -118h-2v247q180 101 352 101q52 0 98.5 -7.5t90.5 -26t75.5 -46.5t50.5 -72t19 -100q0 -96 -72 -174q-55 -58 -235 -185l-58 -43h359v-221z" />
    <glyph glyph-name="uni0205" unicode="&#x205;" horiz-adv-x="948" 
d="M133 -389v229h2q192 -61 295 -61q162 0 162 74q0 42 -49 57q-53 18 -217 18h-31v119l235 170h-393l6 217h674v-205l-215 -153q254 -40 254 -234q0 -77 -37 -134t-98 -88t-127.5 -45.5t-138.5 -14.5q-163 0 -322 51z" />
    <glyph glyph-name="uni0206" unicode="&#x206;" horiz-adv-x="948" 
d="M784 -414h-247v158h-476v197l213 493h510v-481h119l-12 -209h-107v-158zM434 227l-115 -280h226v280h-111z" />
    <glyph glyph-name="uni0207" unicode="&#x207;" horiz-adv-x="948" 
d="M139 -391v227h2q155 -55 318 -55q135 0 135 74q0 26 -19 39q-37 30 -264 30h-157l12 510h637l8 -219h-414l-2 -104h15q49 0 86 -1.5t86.5 -7.5t85.5 -16.5t74 -30t61.5 -46.5t39 -68t15.5 -93q0 -76 -34 -134t-91 -90.5t-122.5 -48t-137.5 -15.5q-188 0 -334 49z" />
    <glyph glyph-name="uni0208" unicode="&#x208;" horiz-adv-x="948" 
d="M90 -10q0 217 120 344t335 127q132 0 268 -47v-224h-2q-127 56 -252 56q-206 0 -215 -174q96 57 223 57q301 0 301 -256q0 -78 -31 -139t-84 -98.5t-119.5 -56.5t-141.5 -19q-402 0 -402 430zM344 -94q9 -139 145 -139q129 0 129 98q0 82 -108 82q-95 0 -166 -41z" />
    <glyph glyph-name="uni0209" unicode="&#x209;" horiz-adv-x="948" 
d="M356 80h-241v354h743v-274l-338 -574h-291l344 584v53h-217v-143z" />
    <glyph glyph-name="uni020A" unicode="&#x20a;" horiz-adv-x="948" 
d="M80 -188q0 146 168 204q-148 53 -148 187q0 72 34.5 125t92 80t119 39t129.5 12q54 0 103.5 -6.5t100.5 -24.5t88 -46t60 -74t23 -105q0 -134 -148 -187q168 -58 168 -204q0 -252 -395 -252t-395 252zM604 174q0 88 -129 88t-129 -88q0 -80 129 -80t129 80zM616 -156
q0 90 -141 90t-141 -90q0 -88 141 -88t141 88z" />
    <glyph glyph-name="uni020B" unicode="&#x20b;" horiz-adv-x="948" 
d="M862 29q0 -217 -119.5 -344t-334.5 -127q-133 0 -269 47v223h2q125 -55 252 -55q206 0 215 174q-98 -58 -223 -58q-301 0 -301 256q0 103 54.5 176t138 105.5t184.5 32.5q401 0 401 -430zM442 72q95 0 166 41q-9 139 -145 139q-129 0 -129 -98q0 -82 108 -82z" />
    <glyph glyph-name="uni020C" unicode="&#x20c;" horiz-adv-x="1417" 
d="M514 -225h-254l88 327q-293 200 -293 605q0 299 177.5 501.5t474.5 243.5l53 197h254l-51 -191q65 -7 141 -26l57 217h256l-364 -1370q92 20 211 77h2v-303q-125 -58 -293 -73l-55 -205h-256l55 202q-37 3 -72 11l-67 14zM881 1169l-236 -878q81 -32 178 -35l236 891
q-80 22 -178 22zM451 440l196 705q-268 -105 -268 -432q0 -157 72 -273z" />
    <glyph glyph-name="uni020D" unicode="&#x20d;" horiz-adv-x="1902" 
d="M653 0h-317v436h-254l22 226h232v139h-219l20 225h199v408h389l233 -408h326v408h318v-408h208v-225h-208v-139h208v-226h-208v-436h-375l-250 436h-324v-436zM672 971h-19v-322h203zM1079 813l185 -324h20v324h-205z" />
    <glyph glyph-name="uni020E" unicode="&#x20e;" horiz-adv-x="2746" 
d="M555 0h-365v1434h744q551 0 551 -504q0 -346 -287 -455l350 -475h-418l-284 403h-291v-403zM1667 86v305h2q240 -153 508 -153q154 0 154 81q0 40 -41 58q-42 19 -211 57q-50 10 -87 19.5t-82.5 25t-78.5 33t-66 44t-53.5 58t-33.5 74.5t-13 94q0 98 44 173t117.5 117
t158.5 62.5t178 20.5q107 0 227.5 -27.5t204.5 -76.5v-299l-2 2q-228 129 -445 129q-139 0 -139 -76q0 -39 45 -59q56 -27 217 -60q72 -17 121 -31.5t106.5 -43t91.5 -63t57.5 -90t23.5 -126.5q0 -82 -29.5 -147.5t-78.5 -106.5t-116 -68t-136 -38t-146 -11q-261 0 -498 123
zM555 1128v-426h346q219 0 219 213t-219 213h-346z" />
    <glyph glyph-name="uni020F" unicode="&#x20f;" horiz-adv-x="1638" 
d="M342 430h-246l23 225h184l-2 27v25q0 14 4 84h-174l23 225h204q60 150 171 252t250.5 149t303.5 47q218 0 396 -90v-311h-2q-213 106 -381 106q-259 0 -373 -172h491v-206h-563q-4 -66 -4 -80q0 -44 2 -56h565v-206h-505q108 -185 381 -185q181 0 387 98h2v-311
q-180 -82 -420 -82q-168 0 -307 46t-249.5 151.5t-160.5 263.5z" />
    <glyph glyph-name="uni0210" unicode="&#x210;" horiz-adv-x="1761" 
d="M684 0h-360v768h-242l45 248h197v418h716q211 0 345 -106t163 -312h176v-248h-178q-34 -209 -175.5 -314.5t-358.5 -105.5h-328v-348zM995 1147h-311v-158h522q-35 158 -211 158zM684 784v-153h317q165 0 205 153h-522z" />
    <glyph glyph-name="uni0211" unicode="&#x211;" horiz-adv-x="1574" 
d="M696 387l580 -387h-522l-557 383v254h415q206 0 250 160h-665v211h665q-38 159 -291 159h-374v267h1259l-16 -267h-303q52 -61 73 -149h215l-12 -244h-196q-32 -185 -163.5 -286t-322.5 -101h-35z" />
    <glyph glyph-name="uni0212" unicode="&#x212;" horiz-adv-x="1679" 
d="M344 174h-262l24 240h238v133h-231l24 244h207v643h739q109 0 199.5 -26t160 -78.5t108 -138.5t38.5 -198q0 -95 -27.5 -171t-76 -127t-117 -84.5t-146.5 -48.5t-169 -15h-348v-133h628v-240h-628v-174h-361v174zM705 1149v-358h319q217 0 217 176q0 182 -217 182h-319z
" />
    <glyph glyph-name="uni0213" unicode="&#x213;" horiz-adv-x="2000" 
d="M1001 -111q-192 0 -356.5 55t-287 158.5t-192 262t-69.5 354.5q0 197 69.5 355.5t191.5 262t286.5 158.5t357.5 55q194 0 358.5 -55t286 -158.5t190.5 -262t69 -355.5t-69 -355.5t-191 -261.5t-286.5 -158t-357.5 -55zM1001 111q194 0 338 69t225 207t81 332
q0 293 -173.5 451.5t-470.5 158.5q-296 0 -469.5 -158t-173.5 -452q0 -292 174 -450t469 -158zM909 356h-237v740h456q135 0 213 -74t78 -209q0 -139 -83.5 -214t-225.5 -75h-201v-168zM909 903v-190h183q92 0 92 94q0 96 -94 96h-181z" />
    <glyph glyph-name="uni0214" unicode="&#x214;" horiz-adv-x="2082" 
d="M162 723v211q180 -98 366 -98q127 0 127 49q0 30 -32 41q-44 15 -158 37q-141 28 -223 75q-82 46 -82 164q0 70 34 122t90.5 78.5t117 39t126.5 12.5q153 0 308 -63v-211q-164 86 -324 86q-123 0 -123 -49q0 -27 35 -39q42 -15 154 -37q49 -9 86.5 -18.5t81.5 -29
t72.5 -44t47.5 -64.5t19 -90q0 -108 -70 -166q-88 -82 -297 -82q-182 0 -356 76zM1245 670h-219v764h272l181 -330l174 330h272v-764h-219v458l-219 -383h-23l-219 383v-458z" />
    <glyph glyph-name="uni0215" unicode="&#x215;" horiz-adv-x="2117" 
d="M659 670h-237v561h-281l9 203h780l8 -203h-279v-561zM1278 670h-217v764h272l180 -330l175 330h272v-764h-219v458l-219 -383h-25l-219 388v-463z" />
    <glyph glyph-name="uni0216" unicode="&#x216;" horiz-adv-x="2101" 
d="M1284 254h2q192 -61 295 -61q162 0 162 73q0 42 -49 60q-59 16 -217 16h-31v119l235 170h-393l6 217h674v-205l-215 -154q254 -40 254 -233q0 -77 -37 -134.5t-98 -88.5t-127.5 -45.5t-138.5 -14.5q-160 0 -322 52v229zM553 0h-272v2l1046 1432h270v-2zM262 1217h-180
l37 217h418v-848h-275v631z" />
    <glyph glyph-name="uni0217" unicode="&#x217;" horiz-adv-x="2347" 
d="M840 586h-715v213l233 176q213 151 213 199q0 57 -94 57q-135 0 -315 -119h-2v248q178 100 352 100q52 0 98.5 -7.5t90.5 -26t75.5 -46.5t50.5 -72t19 -100q0 -96 -72 -174q-52 -55 -235 -184l-58 -43h359v-221zM528 0v2l1047 1432h270v-2l-1044 -1432h-273zM1530 25v229
h2q192 -61 295 -61q162 0 162 73q0 42 -50 60q-59 16 -217 16h-30v119l235 170h-393l6 217h674v-205l-215 -154q254 -40 254 -233q0 -62 -25 -111.5t-65 -81t-94 -52.5t-108 -29.5t-110 -8.5q-159 0 -321 52z" />
    <glyph glyph-name="uni0218" unicode="&#x218;" horiz-adv-x="2101" 
d="M1290 250h2q155 -55 318 -55q135 0 135 73q0 26 -19 39q-39 31 -264 31h-157l12 510h637l8 -219h-414l-2 -105h15q50 0 86.5 -1.5t86 -7.5t85.5 -16t74 -29.5t61.5 -47t39 -68t15.5 -92.5q0 -76 -34 -134t-91 -90.5t-122.5 -48.5t-137.5 -16q-186 0 -334 50v227zM281 2
l1046 1432h270v-2l-1044 -1432h-272v2zM262 1217h-180l37 217h418v-848h-275v631z" />
    <glyph glyph-name="uni0219" unicode="&#x219;" horiz-adv-x="2347" 
d="M840 586h-715v213l233 176q213 151 213 199q0 57 -94 57q-135 0 -315 -119h-2v248q178 100 352 100q52 0 98.5 -7.5t90.5 -26t75.5 -46.5t50.5 -72t19 -100q0 -96 -72 -174q-52 -55 -235 -184l-58 -43h359v-221zM528 0v2l1047 1432h270v-2l-1044 -1432h-273zM1536 23v227
h2q155 -55 317 -55q136 0 136 73q0 26 -19 39q-39 31 -264 31h-158l13 510h637l8 -219h-414l-2 -105h14q50 0 86.5 -1.5t86.5 -7.5t85.5 -16t74 -29.5t62 -47t39 -68t15.5 -92.5q0 -76 -34 -134t-91 -90.5t-122.5 -48.5t-137.5 -16q-186 0 -334 50z" />
    <glyph glyph-name="uni021A" unicode="&#x21a;" horiz-adv-x="2304" 
d="M1493 250h2q155 -55 317 -55q136 0 136 73q0 26 -19 39q-39 31 -264 31h-158l13 510h637l8 -219h-414l-2 -105h14q50 0 86.5 -1.5t86.5 -7.5t85.5 -16t74 -29.5t62 -47t39 -68t15.5 -92.5q0 -76 -34 -134t-91 -90.5t-122.5 -48.5t-137.5 -16q-186 0 -334 50v227zM455 559
q-163 0 -322 51v230h2q195 -62 295 -62q162 0 162 74q0 41 -49 59q-63 17 -217 17h-31v119l235 170h-393l6 217h674v-205l-215 -154q254 -40 254 -233q0 -77 -37 -134.5t-98 -88.5t-127.5 -45.5t-138.5 -14.5zM756 0h-273v2l1047 1432h270v-2z" />
    <glyph glyph-name="uni021B" unicode="&#x21b;" horiz-adv-x="2342" 
d="M61 940l213 494h510v-482h119l-12 -209h-107v-157h-247v157h-476v197zM1532 250h2q155 -55 317 -55q136 0 136 73q0 26 -19 39q-39 31 -264 31h-158l13 510h636l9 -219h-414l-2 -105h14q50 0 86.5 -1.5t86.5 -7.5t85.5 -16t74 -29.5t62 -47t39 -68t15.5 -92.5
q0 -76 -34 -134t-91 -90.5t-122.5 -48.5t-137.5 -16q-186 0 -334 50v227zM795 0h-273v2l1047 1432h270v-2zM319 946h226v281h-111z" />
    <glyph glyph-name="uni021C" unicode="&#x21c;" horiz-adv-x="2062" 
d="M1604 -27q-402 0 -402 430q0 217 120 344t335 127q132 0 268 -47v-223h-2q-125 55 -252 55q-206 0 -215 -174q98 58 223 58q301 0 301 -256q0 -103 -54.5 -176t-137.5 -105.5t-184 -32.5zM281 0v2l1046 1432h270v-2l-1044 -1432h-272zM262 1217h-180l37 217h418v-848
h-275v631zM1622 360q-95 0 -166 -41q9 -139 146 -139q129 0 129 99q0 81 -109 81z" />
    <glyph glyph-name="uni021D" unicode="&#x21d;" horiz-adv-x="2275" 
d="M1415 403q0 217 120 344t335 127q132 0 268 -47v-223h-2q-125 55 -252 55q-206 0 -215 -174q98 58 223 58q301 0 301 -256q0 -103 -54.5 -176t-137.5 -105.5t-184 -32.5q-402 0 -402 430zM473 559q-188 0 -334 49v228h2q157 -56 318 -56q135 0 135 74q0 26 -19 39
q-39 31 -264 31h-157l12 510h637l8 -220h-414l-2 -104h15q50 0 86.5 -1.5t86 -7.5t85.5 -16t74 -29.5t61.5 -47t39 -68t15.5 -92.5q0 -76 -34 -134t-91 -90.5t-122.5 -48.5t-137.5 -16zM766 0h-272v2l1046 1432h270v-2zM1835 360q-95 0 -166 -41q9 -139 146 -139
q129 0 129 99q0 81 -109 81z" />
    <glyph glyph-name="uni021E" unicode="&#x21e;" horiz-adv-x="2088" 
d="M1614 -27q-395 0 -395 252q0 147 167 205q-147 53 -147 186q0 72 34.5 125t92 80t119 39t129.5 12q54 0 103.5 -6.5t100.5 -24.5t88 -46t60 -74t23 -105q0 -133 -148 -186q168 -58 168 -205q0 -252 -395 -252zM281 0v2l1046 1432h270v-2l-1044 -1432h-272zM82 1217
l37 217h418v-848h-275v631h-180zM1614 348q-141 0 -141 -90q0 -88 141 -88t141 88q0 90 -141 90zM1485 588q0 -80 129 -80t129 80q0 88 -129 88t-129 -88z" />
    <glyph glyph-name="uni021F" unicode="&#x21f;" horiz-adv-x="2291" 
d="M1817 -27q-396 0 -396 252q0 147 168 205q-147 53 -147 186q0 72 34.5 125t92 80t119 39t129.5 12q69 0 130 -12t118.5 -38.5t91.5 -79.5t34 -126q0 -133 -147 -186q168 -58 168 -205q0 -252 -395 -252zM455 559q-163 0 -322 51v230h2q195 -62 295 -62q162 0 162 74
q0 41 -49 59q-63 17 -217 17h-31v119l235 170h-393l6 217h674v-205l-215 -154q254 -40 254 -233q0 -77 -37 -134.5t-98 -88.5t-127.5 -45.5t-138.5 -14.5zM483 2l1047 1432h270v-2l-1044 -1432h-273v2zM1817 348q-142 0 -142 -90q0 -88 142 -88q141 0 141 88q0 90 -141 90z
M1817 676q-129 0 -129 -88q0 -80 129 -80t129 80q0 88 -129 88z" />
    <glyph glyph-name="uni0220" unicode="&#x220;" horiz-adv-x="2299" 
d="M1825 -27q-395 0 -395 252q0 147 167 205q-147 53 -147 186q0 72 34.5 125t92 80t119 39t129.5 12q54 0 103.5 -6.5t100.5 -24.5t88 -46t60 -74t23 -105q0 -133 -148 -186q168 -58 168 -205q0 -252 -395 -252zM473 559q-188 0 -334 49v228h2q157 -56 318 -56
q135 0 135 74q0 26 -19 39q-39 31 -264 31h-157l12 510h637l8 -220h-414l-2 -104h15q50 0 86.5 -1.5t86 -7.5t85.5 -16t74 -29.5t61.5 -47t39 -68t15.5 -92.5q0 -76 -34 -134t-91 -90.5t-122.5 -48.5t-137.5 -16zM494 2l1046 1432h270v-2l-1044 -1432h-272v2zM1825 348
q-142 0 -142 -90q0 -88 142 -88q141 0 141 88q0 90 -141 90zM1825 676q-129 0 -129 -88q0 -80 129 -80t129 80q0 88 -129 88z" />
    <glyph glyph-name="uni0221" unicode="&#x221;" horiz-adv-x="2201" 
d="M1726 -27q-395 0 -395 252q0 147 168 205q-147 53 -147 186q0 59 23.5 104.5t60 73.5t87.5 46t100.5 25t102.5 7q54 0 103.5 -6.5t100.5 -24.5t88 -46t60 -74t23 -105q0 -133 -147 -186q168 -58 168 -205q0 -252 -396 -252zM393 0v2l1047 1432h270v-2l-1044 -1432h-273z
M115 1434h743v-275l-338 -573h-291l344 583v54h-217v-144h-241v355zM1585 258q0 -88 141 -88q142 0 142 88q0 90 -142 90q-141 0 -141 -90zM1597 588q0 -80 129 -80t129 80q0 88 -129 88t-129 -88z" />
    <glyph glyph-name="uni0222" unicode="&#x222;" horiz-adv-x="2088" 
d="M1352 1360l-516 -451l987 4v-327l-981 4l510 -451h-471l-691 611l691 610h471z" />
    <glyph glyph-name="uni0223" unicode="&#x223;" horiz-adv-x="1822" 
d="M1085 -45h-348l4 969l-467 -506v452l637 672l637 -672v-452l-467 506z" />
    <glyph glyph-name="uni0224" unicode="&#x224;" horiz-adv-x="2088" 
d="M737 135l516 451l-987 -4v327l981 -4l-510 451h471l690 -611l-690 -610h-471z" />
    <glyph glyph-name="uni0225" unicode="&#x225;" horiz-adv-x="1822" 
d="M1548 563l-637 -672l-637 672v453l467 -506l-4 969h348l-4 -969l467 506v-453z" />
    <glyph glyph-name="uni0226" unicode="&#x226;" horiz-adv-x="4198" 
d="M1511 229l-10 -30l-1339 546l1339 547l10 -30l-180 -361h1249l326 252h1067l-455 -408l455 -407h-1067l-326 252h-1249z" />
    <glyph glyph-name="uni0227" unicode="&#x227;" horiz-adv-x="4198" 
d="M4037 745l-1340 -546l-10 30l180 361h-1249l-326 -252h-1067l455 407l-455 408h1067l326 -252h1249l-180 361l10 30z" />
    <glyph glyph-name="uni0228" unicode="&#x228;" horiz-adv-x="1421" 
d="M1239 555h-1057v324h1057v-324z" />
    <glyph glyph-name="uni0229" unicode="&#x229;" horiz-adv-x="2207" 
d="M1104 -94q-250 0 -440.5 95.5t-298 280t-107.5 435.5t107.5 435.5t298 280t440.5 95.5t440.5 -95.5t298 -280t107.5 -435.5t-107.5 -435.5t-298 -280t-440.5 -95.5zM635 840v-238h350v-350h238v350h350v238h-350v350h-238v-350h-350z" />
    <glyph glyph-name="uni022A" unicode="&#x22a;" horiz-adv-x="2207" 
d="M1104 -94q-250 0 -440.5 95.5t-298 280t-107.5 435.5t107.5 435.5t298 280t440.5 95.5t440.5 -95.5t298 -280t107.5 -435.5t-107.5 -435.5t-298 -280t-440.5 -95.5zM633 840v-238h940v238h-940z" />
    <glyph glyph-name="uni022B" unicode="&#x22b;" horiz-adv-x="2207" 
d="M1104 -94q-250 0 -440.5 95.5t-298 280t-107.5 435.5t107.5 435.5t298 280t440.5 95.5t440.5 -95.5t298 -280t107.5 -435.5t-107.5 -435.5t-298 -280t-440.5 -95.5zM940 717l-303 -299l170 -168l299 301l299 -301l168 168l-301 299l301 299l-168 168l-299 -301l-299 301
l-170 -168z" />
    <glyph glyph-name="uni022C" unicode="&#x22c;" horiz-adv-x="2207" 
d="M1104 -94q-188 0 -345 54.5t-271.5 156.5t-178 256t-63.5 344t63.5 344t178 256t271.5 156.5t345 54.5t345.5 -54.5t271.5 -156t177.5 -255.5t63.5 -345q0 -190 -63.5 -344t-177.5 -256t-271.5 -156.5t-345.5 -54.5zM1104 215q234 0 370 134t136 368t-136 368t-370 134
t-370 -134t-136 -368t136 -368t370 -134zM1104 457q-119 0 -191.5 70.5t-72.5 189.5t72.5 189.5t191.5 70.5q122 0 193 -69.5t71 -190.5t-71 -190.5t-193 -69.5z" />
    <glyph glyph-name="uni022D" unicode="&#x22d;" horiz-adv-x="851" 
d="M426 496q-105 0 -171.5 58t-66.5 161v2q0 103 66.5 161t171.5 58t172.5 -57.5t67.5 -159.5v-4q0 -103 -67.5 -161t-172.5 -58z" />
    <glyph glyph-name="uni022E" unicode="&#x22e;" horiz-adv-x="2150" 
d="M1810 942v-1001h-1470v1001l735 600z" />
    <glyph glyph-name="uni022F" unicode="&#x22f;" horiz-adv-x="2131" 
d="M1151 879l-340 -310h311q413 0 404 308q0 299 -404 299h-757l55 317h762q120 0 225 -21.5t195.5 -69t154.5 -117.5t100 -172t35 -228q1 -158 -53 -279t-152 -195t-225.5 -111.5t-279.5 -37.5h-375l344 -309h-444l-476 463l474 463h446z" />
    <glyph glyph-name="uni0230" unicode="&#x230;" horiz-adv-x="2215" 
d="M330 1493h1007v-1077h-1007v1077zM1556 203v921h297v-1183h-1128l-23 262h854z" />
    <glyph glyph-name="uni0231" unicode="&#x231;" horiz-adv-x="2215" 
d="M659 1231v-922h-297v1184h1129l22 -262h-854zM1886 -59h-1007v1077h1007v-1077z" />
    <glyph glyph-name="uni0232" unicode="&#x232;" horiz-adv-x="2287" 
d="M1942 -59h-1596v1552h1596v-1552z" />
    <glyph glyph-name="uni0233" unicode="&#x233;" horiz-adv-x="2287" 
d="M1942 -59h-1596v1552h1596v-1552zM692 1182v-930h903v930h-903z" />
    <glyph glyph-name="uni0234" unicode="&#x234;" horiz-adv-x="1654" 
d="M1321 242h-987v950h987v-950z" />
    <glyph glyph-name="uni0235" unicode="&#x235;" horiz-adv-x="1654" 
d="M1321 242h-987v950h987v-950zM637 918v-402h381v402h-381z" />
    <glyph glyph-name="uni0236" unicode="&#x236;" horiz-adv-x="2048" 
d="M1810 -59h-1572l776 1601h20z" />
    <glyph glyph-name="uni0237" unicode="&#x237;" horiz-adv-x="1892" 
d="M936 1624h20l742 -889h-1503z" />
    <glyph glyph-name="uni0238" unicode="&#x238;" horiz-adv-x="2150" 
d="M346 -70v1573l1602 -776v-20z" />
    <glyph glyph-name="uni0239" unicode="&#x239;" horiz-adv-x="2068" 
d="M344 190v1119l1501 -547v-25z" />
    <glyph glyph-name="uni023A" unicode="&#x23a;" horiz-adv-x="2048" 
d="M238 1493h1572l-776 -1602h-20z" />
    <glyph glyph-name="uni023B" unicode="&#x23b;" horiz-adv-x="1892" 
d="M956 -135h-20l-741 889h1503z" />
    <glyph glyph-name="uni023C" unicode="&#x23c;" horiz-adv-x="2150" 
d="M1804 1503v-1573l-1601 777v20z" />
    <glyph glyph-name="uni023D" unicode="&#x23d;" horiz-adv-x="2068" 
d="M1724 1309v-1119l-1501 547v25z" />
    <glyph glyph-name="uni023E" unicode="&#x23e;" horiz-adv-x="2207" 
d="M1104 -94q-188 0 -345 54.5t-271.5 156.5t-178 256t-63.5 344t63.5 344t178 256t271.5 156.5t345 54.5t345.5 -54.5t271.5 -156t177.5 -255.5t63.5 -345q0 -190 -63.5 -344t-177.5 -256t-271.5 -156.5t-345.5 -54.5zM1104 215q232 0 365 134.5t133 367.5t-133 367.5
t-365 134.5q-230 0 -364 -135.5t-134 -366.5t134 -366.5t364 -135.5z" />
    <glyph glyph-name="uni023F" unicode="&#x23f;" horiz-adv-x="2207" 
d="M1104 -94q-188 0 -345 54.5t-271.5 156.5t-178 256t-63.5 344t63.5 344t178 256t271.5 156.5t345 54.5t345.5 -54.5t271.5 -156t177.5 -255.5t63.5 -345q0 -190 -63.5 -344t-177.5 -256t-271.5 -156.5t-345.5 -54.5z" />
    <glyph glyph-name="uni0240" unicode="&#x240;" horiz-adv-x="2207" 
d="M1104 -94q-188 0 -345 54.5t-271.5 156.5t-178 256t-63.5 344t63.5 344t178 256t271.5 156.5t345 54.5t345.5 -54.5t271.5 -156t177.5 -255.5t63.5 -345q0 -190 -63.5 -344t-177.5 -256t-271.5 -156.5t-345.5 -54.5zM1083 1231v-1028q238 0 380.5 139t142.5 375
t-142.5 375t-380.5 139z" />
    <glyph glyph-name="uni0241" unicode="&#x241;" horiz-adv-x="2287" 
d="M1942 -59h-1596v1552h1596v-1552zM1599 1178l-915 -926h915v926z" />
    <glyph glyph-name="uni0242" unicode="&#x242;" horiz-adv-x="2127" 
d="M1626 940l285 -180v-70l-285 -155l105 -316l-50 -57l-313 65l-131 -309l-70 -14l-198 252l-299 -154l-58 37l6 321l-327 72l-25 68l219 239l-211 267l25 69l328 45l4 334l65 37l277 -168l221 248l74 -15l102 -307l328 49l47 -57z" />
    <glyph glyph-name="uni0243" unicode="&#x243;" horiz-adv-x="2150" 
d="M1128 1608l193 -580l612 6l39 -100l-497 -346l204 -588l-88 -59l-516 381l-518 -381l-86 59l205 588l-498 346l39 100l612 -6l193 580h106z" />
    <glyph glyph-name="uni0244" unicode="&#x244;" horiz-adv-x="2371" 
d="M2023 342l-51 -401h-1573l-51 401l287 512l-344 -4q-60 129 -60 227q0 75 28.5 138t81 107.5t116.5 79t144.5 56.5t155.5 36.5t159.5 21.5t145.5 9.5t124 2.5q55 0 108.5 -1.5t127 -7.5t139.5 -15.5t140.5 -27t135.5 -41t119 -58t97.5 -76.5t63 -99.5t23.5 -124.5
q0 -100 -59 -227l-344 4zM1575 991l-23 185h-733l-22 -185q199 35 389 35t389 -35zM1511 510q0 62 -29.5 110.5t-78.5 75.5t-104 40.5t-113 13.5t-113.5 -13.5t-105 -40.5t-79.5 -75.5t-30 -110.5t30 -110.5t79.5 -75.5t105 -40.5t113.5 -13.5t113 13.5t104 40.5t78.5 75.5
t29.5 110.5z" />
    <glyph glyph-name="uni0245" unicode="&#x245;" horiz-adv-x="2287" 
d="M1286 1815h469l-668 -1323h-196zM1186 348l608 1145h166v-1552h-1632v1552h676l-310 -1145h492z" />
    <glyph glyph-name="uni0246" unicode="&#x246;" horiz-adv-x="2287" 
d="M1935 -59h-1583v1552h1583v-1552zM627 369l170 -168l348 350l346 -350l170 168l-350 348l350 348l-170 168l-346 -350l-348 350l-170 -168l350 -348z" />
    <glyph glyph-name="uni0247" unicode="&#x247;" horiz-adv-x="3584" 
d="M3228 1077v-942l-818 180l-774 -268q-19 -8 -41 -8q-29 0 -59 18l-31 17q-47 35 -47 86q0 38 8 69l-61 -20q-27 -10 -49 -10q-27 0 -53 16l-52 27q-49 21 -49 84q0 43 8 82l-61 -27q-27 -12 -51 -12q-29 0 -51 14l-58 33q-56 30 -41 94l80 326l-508 -43h-31
q-184 0 -274 84q-85 79 -45 182l4 12l1239 162q95 14 133 14q32 0 127 -10z" />
    <glyph glyph-name="uni0248" unicode="&#x248;" horiz-adv-x="3584" 
d="M1929 47l-770 268l-821 -180v942l1554 160q95 10 127 10q38 0 133 -14l1239 -162l5 -12q40 -103 -45 -182q-93 -84 -275 -84h-31l-508 43l78 -326q15 -63 -39 -94l-57 -33q-22 -14 -51 -14q-24 0 -51 12l-64 29q10 -62 10 -82q0 -65 -49 -86l-51 -27q-26 -16 -53 -16
q-22 0 -49 10l-60 18l4 -37q4 -28 4 -30q0 -52 -49 -86l-30 -17q-30 -18 -60 -18q-22 0 -41 8z" />
    <glyph glyph-name="uni0249" unicode="&#x249;" horiz-adv-x="2127" 
d="M1626 940l285 -180v-70l-285 -155l105 -316l-50 -57l-313 65l-131 -309l-70 -14l-198 252l-299 -154l-58 37l6 321l-327 72l-25 68l219 239l-211 267l25 69l328 45l4 334l65 37l277 -168l221 248l74 -15l102 -307l328 49l47 -57zM1360 741q0 123 -78.5 198t-202.5 75
t-202 -75t-78 -198q0 -122 78.5 -197t201.5 -75t202 75t79 197z" />
    <glyph glyph-name="uni024A" unicode="&#x24a;" horiz-adv-x="2068" 
d="M1030 1231h8q47 135 151.5 216t244.5 81q130 0 226 -64.5t143.5 -169t47.5 -233.5q0 -124 -56 -264t-139 -260t-199 -247.5t-212.5 -217t-204.5 -178.5h-12q-811 673 -811 1167q0 129 47.5 233.5t144 169t226.5 64.5q142 0 245 -80t150 -217z" />
    <glyph glyph-name="uni024B" unicode="&#x24b;" horiz-adv-x="1822" 
d="M1448 1493v-1575h-334v715h-868v860h1202z" />
    <glyph glyph-name="uni024C" unicode="&#x24c;" horiz-adv-x="2170" 
d="M1323 182q-107 -82 -125 -264h-225q-18 182 -125 264q-64 -141 -221 -141q-251 0 -469 330v35q194 102 360 102q136 0 253 -64t196 -178l-25 291q-136 41 -227 88.5t-159 119t-102.5 171.5t-43.5 240l-15 254l37 18q264 -137 397 -311q102 305 244 426h25
q141 -120 243 -426q144 175 398 311l37 -18l-15 -254q-9 -141 -43 -241t-101.5 -171.5t-159 -118.5t-228.5 -88l-25 -291q78 112 196.5 177t252.5 65q167 0 360 -102v-35q-218 -330 -469 -330q-156 0 -221 141z" />
    <glyph glyph-name="uni024D" unicode="&#x24d;" horiz-adv-x="2902" 
d="M1454 571l-999 922h1992zM352 209v1118l578 -541zM1974 782l576 545v-1118zM2537 -59h-2170l710 718l377 -358l375 358z" />
    <glyph glyph-name="uni024E" unicode="&#x24e;" horiz-adv-x="2150" 
d="M1128 1608l193 -580l612 6l39 -100l-497 -346l204 -588l-88 -59l-516 381l-518 -381l-86 59l205 588l-498 346l39 100l612 -6l193 580h106zM825 723l250 -240l250 240l-250 240z" />
    <glyph glyph-name="uni024F" unicode="&#x24f;" horiz-adv-x="2088" 
d="M889 381l-340 -346l-215 219l328 315l-441 -4v305l449 -4l-326 314l207 215l338 -340l-4 461h319l-4 -467l344 348l211 -219l-328 -312l441 4v-305l-449 4l334 -317l-209 -213l-344 348l4 -469h-319z" />
    <glyph glyph-name="uni0250" unicode="&#x250;" horiz-adv-x="2004" 
d="M1434 893l415 -129v-78l-415 -104l237 -359l-53 -65l-383 188l-55 -426l-78 -16l-174 385l-316 -289l-65 41l110 405l-426 -18l-28 76l352 235l-344 262l29 78l422 -45l-97 418l74 41l291 -303l198 381l82 -17l27 -421l397 170l52 -66z" />
    <glyph glyph-name="uni0251" unicode="&#x251;" horiz-adv-x="2088" 
d="M1044 496l-561 -547l-233 237l559 531l-559 532l227 236l563 -549l564 549l231 -240l-559 -530l559 -533l-229 -233z" />
    <glyph glyph-name="uni0252" unicode="&#x252;" horiz-adv-x="1886" 
d="M1573 -348h-643l-785 1032v25l785 1032h643v-2089zM571 690l539 -708h109v1429h-109z" />
    <glyph glyph-name="uni0253" unicode="&#x253;" horiz-adv-x="1886" 
d="M956 -348h-643v2089h643l785 -1032v-25zM668 1411v-1429h108l539 720l-539 709h-108z" />
    <glyph glyph-name="uni0254" unicode="&#x254;" horiz-adv-x="1886" 
d="M915 1741h646v-2089h-646l-770 1032v25z" />
    <glyph glyph-name="uni0255" unicode="&#x255;" horiz-adv-x="1886" 
d="M971 -348h-645v2089h645l770 -1032v-25z" />
    <glyph glyph-name="uni0256" unicode="&#x256;" horiz-adv-x="2088" 
d="M868 561h-641v322h641v633h353v-633h641v-322h-641v-643h-353v643z" />
    <glyph glyph-name="uni0257" unicode="&#x257;" horiz-adv-x="2088" 
d="M1939 750l-940 -732l-47 25l17 430l-711 -10v573l711 -10l-17 430l47 25z" />
    <glyph glyph-name="uni0258" unicode="&#x258;" horiz-adv-x="1601" 
d="M799 205q-237 0 -385 138.5t-148 373.5t148 373.5t385 138.5q241 0 388.5 -136.5t147.5 -375.5q0 -237 -148.5 -374.5t-387.5 -137.5z" />
    <glyph glyph-name="uni0259" unicode="&#x259;" horiz-adv-x="1601" 
d="M799 205q-237 0 -385 138.5t-148 373.5t148 373.5t385 138.5q241 0 388.5 -136.5t147.5 -375.5q0 -237 -148.5 -374.5t-387.5 -137.5zM799 494q103 0 165 60.5t62 162.5t-62 162.5t-165 60.5t-163.5 -60t-60.5 -163t60.5 -163t163.5 -60z" />
    <glyph glyph-name="uni025A" unicode="&#x25a;" horiz-adv-x="2252" 
d="M559 1059q-90 0 -145.5 50.5t-55.5 139.5q0 88 56 140.5t145 52.5q91 0 146 -51.5t55 -141.5t-55 -140t-146 -50zM1126 1059q-90 0 -145 50.5t-55 139.5q0 88 55.5 140.5t144.5 52.5q91 0 146 -51.5t55 -141.5t-55 -140t-146 -50zM1694 1059q-90 0 -145.5 50.5
t-55.5 139.5q0 88 56 140.5t145 52.5q90 0 145 -51.5t55 -141.5t-54.5 -140t-145.5 -50zM559 524q-89 0 -145 52.5t-56 140.5t56 140t145 52q91 0 146 -51.5t55 -140.5q0 -90 -55 -141.5t-146 -51.5zM1126 524q-89 0 -144.5 52.5t-55.5 140.5t55.5 140t144.5 52
q91 0 146 -51.5t55 -140.5q0 -90 -55 -141.5t-146 -51.5zM1694 524q-89 0 -145 52.5t-56 140.5t56 140t145 52q91 0 145.5 -51t54.5 -141t-55 -141.5t-145 -51.5zM559 -8q-89 0 -145 52t-56 140q0 89 55.5 140t145.5 51q91 0 146 -50.5t55 -140.5q0 -89 -55 -140.5
t-146 -51.5zM1126 -8q-89 0 -144.5 52t-55.5 140q0 89 55 140t145 51q91 0 146 -50.5t55 -140.5q0 -89 -55 -140.5t-146 -51.5zM1694 -8q-89 0 -145 52t-56 140q0 89 55.5 140t145.5 51q91 0 145.5 -50t54.5 -141q0 -90 -54.5 -141t-145.5 -51z" />
    <glyph glyph-name="uni025B" unicode="&#x25b;" horiz-adv-x="2088" 
d="M1137 43l-47 -25l-940 732l940 731l47 -25l-17 -430l711 10v-573l-711 10z" />
    <glyph glyph-name="uni025C" unicode="&#x25c;" horiz-adv-x="1863" 
d="M1231 -45h-598l14 633l-442 -8l-25 49l752 913l751 -913l-24 -49l-442 8z" />
    <glyph glyph-name="uni025D" unicode="&#x25d;" horiz-adv-x="1863" 
d="M1683 805l-751 -914l-752 914l25 49l442 -8l-14 633h598l-14 -633l442 8z" />
    <glyph glyph-name="uni025E" unicode="&#x25e;" horiz-adv-x="3045" 
d="M2308 266h-2011v967h2011l512 -483z" />
    <glyph glyph-name="uni025F" unicode="&#x25f;" horiz-adv-x="3045" 
d="M2308 266h-2011v967h2011l512 -483zM649 913v-327h1522l166 164l-166 163h-1522z" />
    <glyph glyph-name="uni0260" unicode="&#x260;" horiz-adv-x="3045" 
d="M2308 266h-2011v967h2011l512 -483zM649 913v-327h1413v327h-1413z" />
    <glyph glyph-name="uni0261" unicode="&#x261;" horiz-adv-x="2662" 
d="M2365 465h-2068v569h2068v-569z" />
    <glyph glyph-name="uni0262" unicode="&#x262;" horiz-adv-x="2662" 
d="M2365 844h-2068v332h2068v-332zM2365 305h-2068v330h2068v-330z" />
    <glyph glyph-name="uni0263" unicode="&#x263;" horiz-adv-x="2662" 
d="M2365 1075h-2068v289h2068v-289zM2365 600h-2068v281h2068v-281zM2365 117h-2068v289h2068v-289z" />
    <glyph glyph-name="uni0264" unicode="&#x264;" horiz-adv-x="2248" 
d="M571 346q-194 80 -194 184q0 105 194 185q200 78 553 78t553 -78q195 -80 195 -185q0 -104 -195 -184t-553 -80t-553 80zM373 139v191h10q35 -83 205 -142q207 -73 536 -73q330 0 537 73q170 59 205 142h10v-191q0 -104 -197 -184q-198 -80 -555 -80t-555 80
q-196 79 -196 184z" />
    <glyph glyph-name="uni0265" unicode="&#x265;" horiz-adv-x="2248" 
d="M571 729q-194 80 -194 184q0 105 194 185q200 78 553 78t553 -78q195 -80 195 -185q0 -104 -195 -184t-553 -80t-553 80zM373 522v191h10q35 -83 205 -142q207 -73 536 -73q330 0 537 73q170 59 205 142h10v-191q0 -104 -197 -184q-198 -80 -555 -80t-555 80
q-196 79 -196 184zM373 139v191h10q35 -83 205 -142q207 -73 536 -73q330 0 537 73q170 59 205 142h10v-191q0 -104 -197 -184q-198 -80 -555 -80t-555 80q-196 79 -196 184z" />
    <glyph glyph-name="uni0266" unicode="&#x266;" horiz-adv-x="2248" 
d="M571 1112q-194 80 -194 184q0 105 194 185q200 78 553 78t553 -78q195 -80 195 -185q0 -104 -195 -184t-553 -80t-553 80zM373 905v191h10q35 -83 205 -142q207 -73 536 -73q330 0 537 73q170 59 205 142h10v-191q0 -104 -197 -184q-198 -80 -555 -80t-555 80
q-196 79 -196 184zM373 522v191h10q35 -83 205 -142q207 -73 536 -73q330 0 537 73q170 59 205 142h10v-191q0 -104 -197 -184q-198 -80 -555 -80t-555 80q-196 79 -196 184zM373 139v191h10q35 -83 205 -142q207 -73 536 -73q330 0 537 73q170 59 205 142h10v-191
q0 -104 -197 -184q-198 -80 -555 -80t-555 80q-196 79 -196 184z" />
    <glyph glyph-name="uni0267" unicode="&#x267;" horiz-adv-x="2248" 
d="M1962 524l-838 -297l-837 297v37l837 297l838 -297v-37zM1952 137l-828 -293l-827 293v230l827 -293l828 293v-230z" />
    <glyph glyph-name="uni0268" unicode="&#x268;" horiz-adv-x="2248" 
d="M287 895v37l837 297l838 -297v-37l-838 -297zM1124 215l-827 293v229l827 -293l828 293v-229zM297 137v230l827 -293l828 293v-230l-828 -293z" />
    <glyph glyph-name="uni0269" unicode="&#x269;" horiz-adv-x="2248" 
d="M287 1266v37l837 296l838 -296v-37l-838 -297zM297 1108l827 -293l828 293v-229l-828 -293l-827 293v229zM297 737l827 -293l828 293v-229l-828 -293l-827 293v229zM297 137v230l827 -293l828 293v-230l-828 -293z" />
    <glyph glyph-name="uni026A" unicode="&#x26a;" horiz-adv-x="2207" 
d="M1104 -94q-250 0 -440.5 95.5t-298 280t-107.5 435.5t107.5 435.5t298 280t440.5 95.5t440.5 -95.5t298 -280t107.5 -435.5t-107.5 -435.5t-298 -280t-440.5 -95.5zM750 1149v-236q189 119 372 119q162 0 162 -90q0 -95 -328 -168v-203h2q45 8 77 14t83 18t88.5 23.5
t85.5 30t82 38.5t69.5 48t57 59.5t35.5 72t14 86.5q0 78 -36.5 136t-97.5 89t-127.5 45t-139.5 14q-193 0 -399 -96zM1200 186q45 39 45 107v2q0 71 -48.5 110t-121.5 39t-122.5 -38.5t-49.5 -110.5v-2q0 -68 45 -107q45 -45 127 -45q80 0 125 45z" />
    <glyph glyph-name="uni026B" unicode="&#x26b;" horiz-adv-x="2207" 
d="M1104 -94q-250 0 -440.5 95.5t-298 280t-107.5 435.5t107.5 435.5t298 280t440.5 95.5t440.5 -95.5t298 -280t107.5 -435.5t-107.5 -435.5t-298 -280t-440.5 -95.5zM930 1231l76 -623h198l74 623v18h-348v-18zM1231 186q45 39 45 107v2q0 71 -48.5 110t-121.5 39
t-122.5 -38.5t-49.5 -110.5v-2q0 -68 45 -107q45 -45 127 -45q80 0 125 45z" />
    <glyph glyph-name="uni026C" unicode="&#x26c;" horiz-adv-x="2209" 
d="M1477 -74h-744l-434 434v713l434 434h744l434 -434v-713zM633 840v-238h940v238h-940z" />
    <glyph glyph-name="uni026D" unicode="&#x26d;" horiz-adv-x="2117" 
d="M1831 956h-539v541h51l488 -489v-52zM1083 758h744v-817h-1475v1552h731v-735z" />
    <glyph glyph-name="uni026E" unicode="&#x26e;" horiz-adv-x="2324" 
d="M492 1087q-92 0 -151.5 55t-59.5 146q0 92 59.5 147.5t151.5 55.5q95 0 151.5 -54.5t56.5 -148.5t-56.5 -147.5t-151.5 -53.5zM1950 1147h-1065v285h1126zM492 514q-94 0 -152.5 55t-58.5 148q0 92 59.5 147.5t151.5 55.5q95 0 151.5 -54.5t56.5 -148.5t-56.5 -148.5
t-151.5 -54.5zM1950 573h-1065v287h1126zM492 -57q-94 0 -152.5 55t-58.5 147q0 89 60 145t151 56q93 0 150.5 -54t57.5 -147q0 -94 -56.5 -148t-151.5 -54zM1950 2h-1065v285h1126z" />
    <glyph glyph-name="uni026F" unicode="&#x26f;" horiz-adv-x="1689" 
d="M422 180l-53 2l28 1334l70 30l1006 -903l-5 -49l-452 -2l256 -545l-289 -135l-256 567z" />
    <glyph glyph-name="uni0270" unicode="&#x270;" horiz-adv-x="1966" 
d="M522 422q-139 0 -232 82t-93 219q0 139 92 220t233 81q76 0 148 -29l366 217v15q0 133 90 217t224 84q142 0 231.5 -80t89.5 -221q0 -138 -90.5 -219.5t-230.5 -81.5q-100 0 -176 43l-340 -199q2 -10 2 -47q0 -4 -5 -49l347 -207q77 41 172 41q142 0 231.5 -80t89.5 -221
t-89 -221t-232 -80q-133 0 -223.5 84.5t-90.5 216.5v18l-368 224q-70 -27 -146 -27z" />
    <glyph glyph-name="uni0271" unicode="&#x271;" horiz-adv-x="2207" 
d="M1104 -94q-250 0 -440.5 95.5t-298 280t-107.5 435.5t107.5 435.5t298 280t440.5 95.5t440.5 -95.5t298 -280t107.5 -435.5t-107.5 -435.5t-298 -280t-440.5 -95.5zM760 266v-20h688v20l-254 469q87 26 143 90.5t56 151.5q0 119 -83.5 190.5t-205.5 71.5t-205.5 -71.5
t-83.5 -190.5q0 -87 56 -151.5t143 -90.5z" />
    <glyph glyph-name="uni0272" unicode="&#x272;" horiz-adv-x="2285" 
d="M963 14h-330l-15 58l95 143l-426 344l-45 107l8 98l82 92l-8 129l38 82l107 57l35 131l65 64l125 18l78 109l78 35l127 -33l115 80h102l115 -80l127 33l77 -35l78 -109l125 -18l66 -64l35 -131l106 -57l39 -82l-8 -129l82 -92l8 -98l-45 -107l-426 -344l94 -143l-14 -58
h-330l-152 -123h-57z" />
    <glyph glyph-name="uni0273" unicode="&#x273;" horiz-adv-x="2088" 
d="M1044 -139q-98 27 -196 65.5t-205.5 100.5t-188 134t-132.5 170t-50 204q0 104 41 253q39 142 39 226q0 108 -90 248l246 221q141 -78 246 -78q140 0 272 156h37q132 -156 272 -156q105 0 246 78l246 -221q-90 -140 -90 -248q0 -54 12 -115l12 -55l17 -56
q39 -142 39 -253q2 -106 -50 -204t-132.5 -170t-188 -134t-205.5 -100.5t-197 -65.5z" />
    <glyph glyph-name="uni0274" unicode="&#x274;" horiz-adv-x="1781" 
d="M1407 -82h-334v623h-868v34l366 441l-366 442v35h1202v-1575z" />
    <glyph glyph-name="uni0275" unicode="&#x275;" horiz-adv-x="2088" 
d="M1214 -82h-340l5 422l-365 -199l-39 254l-268 164v51l276 148l-168 370l35 58l434 -119l230 496h61l230 -496l434 119l35 -58l-168 -370l276 -148v-51l-268 -164l-39 -254l-365 199z" />
    <glyph glyph-name="uni0276" unicode="&#x276;" horiz-adv-x="2088" 
d="M1214 -82h-340l3 240l-705 104l-10 47l383 299l-199 76l-10 41l356 276l-143 60l-10 39l483 463h45l483 -463l-10 -39l-143 -57l356 -279l-10 -41l-199 -76l383 -299l-10 -47l-705 -104z" />
    <glyph glyph-name="uni0277" unicode="&#x277;" horiz-adv-x="2048" 
d="M1688 -59h-1328l138 899l-213 247l26 406h307l17 -238h215l18 238h312l18 -238h215l17 238h307l26 -406l-213 -247z" />
    <glyph glyph-name="uni0278" unicode="&#x278;" horiz-adv-x="1679" 
d="M1305 1544v-1626h-334v596l-908 465v35l1188 530h54z" />
    <glyph glyph-name="uni0279" unicode="&#x279;" horiz-adv-x="2088" 
d="M1286 1100h-483v307h483v-307zM1581 561h-1073v299h1073v-299zM1888 23h-1687v299h1687v-299z" />
    <glyph glyph-name="uni027A" unicode="&#x27a;" horiz-adv-x="2088" 
d="M1888 1104h-1687v299h1687v-299zM1581 565h-1073v297h1073v-297zM1286 18h-483v306h483v-306z" />
    <glyph glyph-name="uni027B" unicode="&#x27b;" horiz-adv-x="1669" 
d="M1511 -348h-456l-865 1032v25l865 1032h456l-868 -1043z" />
    <glyph glyph-name="uni027C" unicode="&#x27c;" horiz-adv-x="1669" 
d="M610 -348h-456l866 1048l-866 1041h456l863 -1032v-25z" />
    <glyph glyph-name="uni027D" unicode="&#x27d;" horiz-adv-x="1847" 
d="M434 -129h-41v1622h1061v-1622h-41l-489 446z" />
    <glyph glyph-name="uni027E" unicode="&#x27e;" horiz-adv-x="2056" 
d="M1028 1538q221 0 341 -140.5t120 -365.5q0 -138 -53 -257t-160 -196t-248 -77q-105 0 -193.5 45t-146 119.5t-89.5 169.5t-32 196q0 146 51 258.5t157 180t253 67.5zM1841 193l21 -252h-1667l20 252q5 49 23.5 86t42 59.5t63.5 40t73 26.5t85 19l160 37
q158 -146 366 -146q209 0 367 146l159 -37q168 -35 224 -86q54 -54 63 -145z" />
    <glyph glyph-name="uni027F" unicode="&#x27f;" horiz-adv-x="2048" 
d="M877 1128q-58 52 -58 142q0 89 58 141q55 55 147 55q91 0 148 -53.5t57 -142.5q0 -90 -57.5 -143.5t-147.5 -53.5q-92 0 -147 55zM362 856q-57 51 -57 141q0 91 57 142q55 55 148 55q90 0 147.5 -53.5t57.5 -143.5q0 -89 -57 -142.5t-148 -53.5q-93 0 -148 55zM1538 801
q-91 0 -148 53.5t-57 142.5q0 90 57.5 143.5t147.5 53.5t147.5 -53.5t57.5 -143.5q0 -89 -57 -142.5t-148 -53.5zM1024 512q-93 0 -153 56t-60 149t60 149t153 56q95 0 154 -55.5t59 -149.5t-59 -149.5t-154 -55.5zM362 295q-57 51 -57 141q0 91 57 142q55 55 148 55
q90 0 147.5 -53.5t57.5 -143.5q0 -89 -57 -142.5t-148 -53.5q-93 0 -148 55zM1538 240q-91 0 -148 53.5t-57 142.5q0 90 57.5 143.5t147.5 53.5t147.5 -53.5t57.5 -143.5q0 -89 -57 -142.5t-148 -53.5zM1024 -33q-91 0 -148 53t-57 144q0 89 58 141q55 55 147 55
q91 0 148 -53.5t57 -142.5q0 -92 -56.5 -144.5t-148.5 -52.5z" />
    <glyph glyph-name="uni0280" unicode="&#x280;" horiz-adv-x="1630" 
d="M268 479v475q0 266 142 420t405 154t405 -154t142 -420v-475q0 -266 -142 -419.5t-405 -153.5t-405 153.5t-142 419.5zM815 754q115 0 182.5 67t67.5 183q0 115 -67 182t-183 67q-114 0 -182 -67.5t-68 -181.5t68 -182t182 -68z" />
    <glyph glyph-name="uni0281" unicode="&#x281;" horiz-adv-x="1630" 
d="M815 -94q-263 0 -405 153.5t-142 419.5v475q0 266 142 420t405 154t405 -154t142 -420v-475q0 -266 -142 -419.5t-405 -153.5zM815 180q115 0 182.5 67t67.5 183t-67.5 183t-182.5 67t-182.5 -67t-67.5 -183t67.5 -183t182.5 -67z" />
    <glyph glyph-name="uni0282" unicode="&#x282;" horiz-adv-x="2195" 
d="M1528 1346l207 159l211 -200l-160 -197l164 -197l-164 -196l164 -197l-164 -196l160 -197l-211 -201l-207 160l-207 -164l-207 164l-207 -164l-207 164l-206 -160l-211 201l159 197l-163 196l163 197l-163 196l163 197l-159 197l211 200l206 -159l207 163l207 -163
l207 163z" />
    <glyph glyph-name="uni0283" unicode="&#x283;" horiz-adv-x="1439" 
d="M1327 -205h-1216v1639h1216v-1639zM246 510q0 -85 68 -138t155 -53q129 0 213 93q93 -93 174 -93q75 0 118 57t46 136l-14 4q-30 -59 -88 -59q-55 0 -127 84q38 49 94 86q30 -52 88 -52q43 0 74 31q28 36 28 80q0 47 -28 78q-32 29 -74 29q-69 0 -123 -78q-1 44 -27 60
t-73 16q18 35 18 69q0 70 -60.5 111t-134.5 41q-54 0 -103.5 -18.5t-84.5 -59.5t-35 -96q0 -78 64 -142q-168 -52 -168 -186zM436 559q0 49 33 82l31 -31q12 -14 37 -39q17 -19 45 -52.5t39 -45.5q-30 -24 -78 -24q-47 0 -77 32t-30 78zM514 877q0 59 55 59q60 0 60 -78
q0 -44 -37 -102q-78 72 -78 121zM647 700q47 31 86 70q31 -31 31 -70q0 -35 -33 -94l-39 47q-16 18 -45 47zM842 27q0 -29 37 -29q18 0 30 12q9 -12 25 -12q24 0 27 25l-11 2q-1 -1 -2 -4.5t-2 -4.5q-2 -2 -4 -2h-2l-4 2q-1 1 -3 4.5t-3 4.5q14 21 18 28h10v15h-36v-15h12
q-2 -2 -6 -10l-6 -8l-13 12q-4 6 -12 14q23 10 23 25q0 10 -9.5 17.5t-19.5 7.5q-35 0 -35 -29q0 -13 12 -25q-26 -3 -26 -30zM262 113v-15h17v-84h-17v-14h60v14h-17v37h45v-37h-16v-14h59v14h-16v84h16v15h-59v-15h16v-32h-45v32h17v15h-60zM571 66h15v-52h-13v-14h48v14
h-11v52h29v-52h-10v-14h47v14h-12v107l-21 -4q-2 2 -8 2q-4 2 -10 2q-17 0 -27 -10q-12 -9 -12 -29v-2h-15v-14zM1083 41q0 -43 43 -43t43 43q0 41 -43 41t-43 -41zM408 233q-43 0 -43 -40q0 -43 43 -43t43 43q0 40 -43 40zM438 82q-43 0 -43 -41q0 -43 43 -43t43 43
q0 41 -43 41zM264 166v-14h62v14h-21v33h8q10 0 13 -17h14v47h-14q-3 -16 -13 -16h-8v37h25q19 0 22 -27h17v41h-105v-14h15v-84h-15zM969 55q0 -57 59 -57q46 0 49 47h-16q-3 -33 -29 -33q-33 0 -33 45t29 45q23 0 31 -32h16v45h-16l-2 -13q-15 15 -33 15q-21 0 -37 -19
q-18 -18 -18 -43zM487 39q0 -41 43 -41q34 0 37 29h-14q-3 -15 -18 -15q-21 0 -21 25h53q3 45 -39 45q-41 0 -41 -43zM678 39q0 -41 43 -41q34 0 37 29h-15q-3 -15 -18 -15q-20 0 -20 25h53q3 45 -39 45q-41 0 -41 -43zM457 217h12v-51h-12v-14h45v14h-8v31q0 20 14 20
q12 0 12 -14v-37h-8v-14h45v14h-12v39q0 28 -25 28q-19 0 -28 -22v20h-35v-14zM811 217h10q16 -33 33 -67q-3 -17 -16 -17q5 5 2 12q-3 9 -13 9q-14 0 -14 -15q0 -18 23 -18q22 0 36 33l27 63h10v14h-35v-14h11l-17 -41l-18 41h12v14h-51v-14zM641 180h-14v-28h14l2 8l10 -6
q12 -4 17 -4q28 0 28 26q0 22 -24 25l-17 4q-8 3 -8 8q0 8 10 8q13 0 21 -14h14v26h-12l-4 -10q-3 10 -23 10q-10 0 -19 -7t-9 -17q0 -22 24 -25q25 -6 25 -14t-10 -8t-25 18zM569 231h-14v-14h14v-41q0 -26 25 -26q26 0 29 26l-11 4q-1 -2 -2 -5.5t-2 -4.5l-4 -4h-2
q-8 0 -8 10v41h27v14h-27v23l-25 -4v-19zM774 14h-12v-14h53v14h-16v33q4 8 8 12l6 7v-3q0 -12 12 -12q15 0 15 15q0 16 -17 16q-14 0 -24 -23v21h-37v-14h12v-52zM1110 41q0 31 16 31q17 0 17 -31q0 -33 -17 -33q-16 0 -16 33zM391 193q0 30 17 30q16 0 16 -30
q0 -33 -16 -33q-17 0 -17 33zM422 41q0 31 16 31q17 0 17 -31q0 -33 -17 -33q-16 0 -16 33zM866 33q0 4 4 12l4 6l29 -33l-10 -4q-2 -2 -6 -2q-21 0 -21 21zM1188 27q-14 0 -14 -15q0 -14 14 -14t14 14q0 15 -14 15zM705 47q0 25 14 25t14 -25h-28zM514 47q0 25 14 25
q15 0 15 -25h-29zM610 80v6q0 25 13 25q4 0 6 -2q-2 -2 -2 -7q0 -12 12 -12v-10h-29zM879 88q0 10 10 10q12 0 12 -12q0 -15 -10 -18q-12 12 -12 20z" />
    <glyph glyph-name="uni0284" unicode="&#x284;" horiz-adv-x="0" 
 />
    <glyph glyph-name="uni0285" unicode="&#x285;" horiz-adv-x="2002" 
d="M121 717q365 614 880 614q516 0 881 -614q-366 -615 -881 -615q-514 0 -880 615zM1001 332q175 0 289.5 106.5t114.5 278.5q0 177 -113 281t-291 104q-174 0 -288.5 -106.5t-114.5 -278.5t114.5 -278.5t288.5 -106.5zM1001 541q-82 0 -129 47t-47 129t47 129t129 47
q177 0 177 -176t-177 -176z" />
    <glyph glyph-name="uni0286" unicode="&#x286;" horiz-adv-x="2416" 
d="M1950 229h-1483l-262 899l74 43l286 -245l41 6l58 366l75 15l232 -318h41l157 467h78l158 -467h41l231 320l76 -17l57 -366l41 -6l287 245l74 -43z" />
    <glyph glyph-name="uni0287" unicode="&#x287;" horiz-adv-x="2248" 
d="M297 -109l-21 60q346 234 512 479q-97 24 -179.5 63.5t-154.5 98t-113.5 142.5t-41.5 184q0 247 229 421q245 189 617 189q371 0 616 -193q230 -181 230 -413q0 -207 -113 -359q-69 -94 -185 -180t-256.5 -152.5t-289 -122t-309 -97.5t-288.5 -70.5t-253 -49.5z" />
    <glyph glyph-name="uni0288" unicode="&#x288;" horiz-adv-x="2174" 
d="M1829 -82h-338v1575h338v-1575zM1217 -82h-338v1145h338v-1145zM602 -82h-336v715h336v-715z" />
    <glyph glyph-name="uni0289" unicode="&#x289;" horiz-adv-x="2174" 
d="M684 -82h-338v1575h338v-1575zM1296 -82h-338v1145h338v-1145zM1909 -82h-336v715h336v-715z" />
    <glyph glyph-name="uni028A" unicode="&#x28a;" horiz-adv-x="2086" 
d="M1827 -59h-1028q-128 0 -224 53.5t-192 159.5q-88 94 -88 245v731q0 365 311 365h967v-379h-19l-204 184h-682q-44 0 -65 -16.5t-19 -48.5q3 -42 73 -100q104 -93 222 -93h948v-1101z" />
    <glyph glyph-name="uni028B" unicode="&#x28b;" horiz-adv-x="1878" 
d="M1249 -86h-620q-152 0 -218.5 66.5t-66.5 218.5v1036q0 152 66.5 218.5t218.5 66.5h620q152 0 218.5 -66.5t66.5 -218.5v-1036q0 -152 -66.5 -218.5t-218.5 -66.5zM766 150h344q96 0 96 98q0 94 -96 94h-344q-96 0 -96 -94q0 -98 96 -98z" />
    <glyph glyph-name="uni028C" unicode="&#x28c;" horiz-adv-x="1882" 
d="M944 199q-201 0 -358 78.5t-247.5 229.5t-90.5 353t90 355t247.5 233t358.5 80q309 0 502.5 -180.5t193.5 -487.5q0 -335 -245 -522l262 -463l-311 -162l-271 496q-78 -10 -131 -10zM952 522q150 0 241 94t91 244q0 152 -94 246t-246 94q-151 0 -244.5 -94.5
t-93.5 -245.5q0 -156 94.5 -247t251.5 -91z" />
    <glyph glyph-name="uni028D" unicode="&#x28d;" horiz-adv-x="2183" 
d="M1898 -59h-1613v878h229v164q0 259 158 402t420 143q264 0 420.5 -142.5t156.5 -402.5v-164h229v-878zM848 979v-160h487v160q0 262 -243 262q-244 0 -244 -262z" />
    <glyph glyph-name="uni028E" unicode="&#x28e;" horiz-adv-x="2117" 
d="M889 186h-647l20 254q6 56 90 140l101 98l36 219q46 369 367 467l27 180h352l27 -180q320 -98 366 -467l37 -219l100 -98q84 -84 90 -140l21 -254h-647q63 -57 63 -147v-4q0 -97 -67 -154t-166 -57t-166.5 57t-67.5 154v4q0 89 64 147z" />
    <glyph glyph-name="uni028F" unicode="&#x28f;" horiz-adv-x="2994" 
d="M1032 162l-278 -195q-510 273 -510 725q0 335 239 559q252 234 652 234q402 0 641 -199q225 -190 225 -483q0 -83 -31 -213l-336 -43q31 102 31 209q0 88 -29 158.5t-78.5 118t-117.5 79t-142.5 45.5t-156.5 14q-104 0 -199.5 -31t-170.5 -88t-120 -146t-45 -197
q0 -80 24.5 -151.5t61.5 -124.5t96.5 -105t114 -88t129.5 -78zM1233 152q-225 188 -225 481q0 87 30 213l336 43q-31 -102 -31 -209q0 -88 29 -159t79 -118t117.5 -79t142.5 -46t157 -14q104 0 200 31.5t170.5 89t119 147t44.5 197.5q0 78 -25 148.5t-63 123.5t-98 105.5
t-113.5 89t-126.5 78.5l279 194q510 -285 510 -725q0 -335 -242 -559q-248 -233 -649 -233q-399 0 -641 201z" />
    <glyph glyph-name="uni0290" unicode="&#x290;" horiz-adv-x="2207" 
d="M1104 -94q-250 0 -440.5 95.5t-298 280t-107.5 435.5t107.5 435.5t298 280t440.5 95.5t440.5 -95.5t298 -280t107.5 -435.5t-107.5 -435.5t-298 -280t-440.5 -95.5zM991 1276v-658l568 -360v272l-330 207v539h-238z" />
    <glyph glyph-name="uni0291" unicode="&#x291;" horiz-adv-x="1746" 
d="M991 473l402 6v-422l-402 6v-145h-307v795q-70 9 -133.5 27t-126 50.5t-108 75t-73.5 105t-28 137.5q0 92 40 166t104 120t148 77.5t166 44t165 12.5q82 0 164 -13t166 -44t147.5 -77.5t104 -120.5t40.5 -165q0 -74 -28.5 -136.5t-74 -105t-108 -75t-126 -51
t-132.5 -27.5v-240zM838 1253q-40 0 -83.5 -6t-93.5 -20t-82 -45t-32 -74t32 -73.5t82.5 -44.5t93.5 -19.5t83 -5.5t83 5.5t93 19.5t82 44.5t32 73.5t-31.5 74t-81.5 45t-93.5 20t-83.5 6z" />
    <glyph glyph-name="uni0292" unicode="&#x292;" horiz-adv-x="2207" 
d="M1106 -94q-250 0 -443.5 94.5t-305 279.5t-111.5 437q0 190 63.5 344t177 256t271 156.5t344.5 54.5q250 0 443.5 -94.5t305 -279.5t111.5 -437q0 -190 -63.5 -344t-177 -256t-271 -156.5t-344.5 -54.5zM631 500l364 338l367 331q-115 56 -258 56q-237 0 -374.5 -138.5
t-137.5 -375.5q0 -129 39 -211zM1104 209q235 0 373.5 139.5t138.5 374.5q0 129 -39 211l-365 -338l-364 -332q113 -55 256 -55z" />
    <glyph glyph-name="uni0293" unicode="&#x293;" horiz-adv-x="2205" 
d="M414 1210h-250l10 283h500l61 -291h1159l-116 -596l-1221 -98zM692 -23q-96 0 -159.5 57t-63.5 152v4q0 94 64 150.5t159 56.5t158 -57t63 -150v-4q0 -95 -62.5 -152t-158.5 -57zM1632 -23q-96 0 -159.5 57t-63.5 152v4q0 94 64 150.5t159 56.5t158 -57t63 -150v-4
q0 -95 -62.5 -152t-158.5 -57z" />
    <glyph glyph-name="uni0294" unicode="&#x294;" horiz-adv-x="2088" 
d="M1055 -109h-21q-98 54 -178.5 106t-160.5 115.5t-141.5 128.5t-115 144t-88.5 164t-54.5 186t-19.5 213q0 214 68 453q360 133 700 133q341 0 701 -133q67 -235 67 -453q0 -155 -38.5 -290.5t-102.5 -241t-164 -202.5t-206.5 -171.5t-245.5 -151.5z" />
    <glyph glyph-name="uni0295" unicode="&#x295;" horiz-adv-x="1583" 
d="M440 0h-372l419 1227h609l420 -1227h-377l-78 240h-547zM840 926h-101l-139 -416h377z" />
    <glyph glyph-name="uni0296" unicode="&#x296;" 
d="M283 430h-240l23 225h182l-2 27v25q0 14 4 84h-174l22 225h199q56 150 164 252.5t244.5 150t298.5 47.5q196 0 378 -84v-309h-2q-197 98 -372 98q-255 0 -359 -174h471v-206h-530q-4 -66 -4 -80q0 -44 2 -56h532v-206h-483q94 -187 364 -187q182 0 379 90h2v-309
q-168 -76 -403 -76q-555 0 -696 463z" />
    <glyph glyph-name="uni0297" unicode="&#x297;" horiz-adv-x="1669" 
d="M555 946v-946h-362v1227h1290v-281l-328 -268l72 -21q79 -21 134.5 -45.5t104.5 -63.5t74 -97.5t25 -137.5q0 -348 -496 -348q-230 0 -364 55v283h2q65 -30 162.5 -48.5t172.5 -18.5q104 0 144 32q31 22 31 68q0 51 -52 78q-58 34 -229 69l-119 25v194l289 244h-551z" />
    <glyph glyph-name="uni0298" unicode="&#x298;" horiz-adv-x="2811" 
d="M156 88v324h2q314 -158 583 -158q217 0 217 92q0 47 -57 70q-44 17 -246 61q-268 53 -362 111q-141 83 -141 260q0 93 36 166t93 118.5t135.5 75t157 41t163.5 11.5q252 0 496 -107v-322h-2q-274 140 -514 140q-104 0 -155 -23.5t-50 -70.5q0 -44 57 -64q36 -15 238 -59
q45 -9 75 -15.5t76 -18.5t77.5 -23.5t71.5 -29t67 -37t55.5 -47t45 -58t27.5 -70t11 -84.5q0 -80 -23.5 -145t-66 -108t-96.5 -74t-121.5 -47.5t-133 -24t-139.5 -7.5q-295 0 -577 123zM1563 88v324h2q314 -158 583 -158q217 0 217 92q0 47 -57 70q-44 17 -246 61
q-268 53 -362 111q-141 83 -141 260q0 93 36 166t93 118.5t135.5 75t157 41t163.5 11.5q252 0 496 -107v-322h-2q-274 140 -514 140q-104 0 -155 -23.5t-50 -70.5q0 -44 57 -64q36 -15 238 -59q45 -9 75 -15.5t76 -18.5t77.5 -23.5t71.5 -29t67 -37t55.5 -47t45 -58
t27.5 -70t11 -84.5q0 -80 -23.5 -145t-66 -108t-96.5 -74t-121.5 -47.5t-133 -24t-139.5 -7.5q-295 0 -577 123z" />
    <glyph glyph-name="uni0299" unicode="&#x299;" horiz-adv-x="753" 
d="M557 0h-362v1227h362v-1227zM377 1364q-94 0 -157.5 48.5t-63.5 139.5v2q0 91 62 140t157 49t158 -48.5t63 -140.5v-2q0 -89 -63.5 -138.5t-155.5 -49.5z" />
    <glyph glyph-name="uni029A" unicode="&#x29a;" horiz-adv-x="1654" 
d="M825 -43q-153 0 -282 42.5t-224 123.5t-148.5 205t-53.5 280q0 208 93.5 359t253 226t365.5 75q154 0 283.5 -42.5t225 -123.5t149 -206t53.5 -282q0 -156 -54 -281.5t-150.5 -207t-226.5 -125t-284 -43.5zM829 268q162 0 253.5 90.5t91.5 251.5t-94.5 253.5t-254.5 92.5
q-158 0 -250 -92t-92 -250q0 -163 91.5 -254.5t254.5 -91.5z" />
    <glyph glyph-name="uni029B" unicode="&#x29b;" horiz-adv-x="3016" 
d="M555 0h-365v1434h744q551 0 551 -504q0 -346 -287 -455l350 -475h-418l-284 403h-291v-403zM2073 -416h-363v1536h352l4 -141q144 176 363 176q120 0 216.5 -45t158 -123.5t94.5 -180.5t33 -218q0 -175 -75 -316.5t-213 -223t-314 -81.5q-137 0 -256 58v-441zM555 1128
v-426h346q219 0 219 213t-219 213h-346zM2275 260q134 0 212.5 85.5t78.5 221.5q0 131 -69.5 211t-198.5 80q-127 0 -225 -82v-452q94 -64 202 -64z" />
    <glyph glyph-name="uni029C" unicode="&#x29c;" horiz-adv-x="888" 
d="M35 422q0 208 103 330t308 122q408 0 408 -450q0 -207 -104 -329t-308 -122q-407 0 -407 449zM594 424q0 227 -148 227q-151 0 -151 -227t147 -227q152 0 152 227z" />
    <glyph glyph-name="uni029D" unicode="&#x29d;" horiz-adv-x="667" 
d="M506 0h-275v631h-180l37 217h418v-848z" />
    <glyph glyph-name="uni029E" unicode="&#x29e;" horiz-adv-x="888" 
d="M629 215h190v-215h-682v215h221v416h-225l33 217h463v-633z" />
    <glyph glyph-name="uni029F" unicode="&#x29f;" horiz-adv-x="888" 
d="M809 0h-715v213l234 176q213 151 213 199q0 57 -95 57q-135 0 -315 -119h-2v248q178 100 352 100q52 0 98.5 -7.5t90.5 -25.5t75.5 -46t50.5 -72t19 -100q0 -96 -72 -174q-55 -58 -235 -185l-57 -43h358v-221z" />
    <glyph glyph-name="uni02A0" unicode="&#x2a0;" horiz-adv-x="888" 
d="M102 25v229h2q192 -61 295 -61q162 0 162 73q0 42 -49 60q-59 16 -217 16h-31v119l236 170h-394l7 217h673v-205l-215 -154q254 -40 254 -233q0 -77 -37 -134.5t-98 -88.5t-127.5 -45.5t-138.5 -14.5q-160 0 -322 52z" />
    <glyph glyph-name="uni02A1" unicode="&#x2a1;" horiz-adv-x="888" 
d="M754 0h-248v158h-475v196l213 494h510v-481h118l-12 -209h-106v-158zM403 641l-114 -281h225v281h-111z" />
    <glyph glyph-name="uni02A2" unicode="&#x2a2;" horiz-adv-x="888" 
d="M109 23v227h2q155 -55 317 -55q135 0 135 73q0 27 -18 39q-39 31 -264 31h-158l12 510h637l8 -219h-413l-2 -105h14q50 0 86.5 -1.5t86 -7.5t85.5 -16t74 -29.5t61.5 -47t39 -68t15.5 -92.5q0 -76 -34 -134t-91 -90.5t-122.5 -48.5t-137.5 -16q-185 0 -333 50z" />
    <glyph glyph-name="uni02A3" unicode="&#x2a3;" horiz-adv-x="888" 
d="M59 403q0 217 120 344t335 127q132 0 268 -47v-223h-2q-125 55 -252 55q-206 0 -215 -174q98 58 224 58q301 0 301 -256q0 -103 -54.5 -176t-138 -105.5t-184.5 -32.5q-402 0 -402 430zM313 319q9 -139 146 -139q129 0 129 99q0 81 -109 81q-95 0 -166 -41z" />
    <glyph glyph-name="uni02A4" unicode="&#x2a4;" horiz-adv-x="888" 
d="M326 494h-242v354h743v-275l-338 -573h-290l344 584v53h-217v-143z" />
    <glyph glyph-name="uni02A5" unicode="&#x2a5;" horiz-adv-x="888" 
d="M49 225q0 147 168 205q-147 53 -147 186q0 59 23.5 104.5t60 73.5t87.5 46t100.5 25t102.5 7q54 0 103.5 -6.5t100.5 -24.5t88 -46t60 -74t23 -105q0 -133 -147 -186q168 -58 168 -205q0 -252 -396 -252q-395 0 -395 252zM573 588q0 88 -129 88t-129 -88q0 -80 129 -80
t129 80zM586 258q0 90 -142 90q-141 0 -141 -90q0 -88 141 -88q142 0 142 88z" />
    <glyph glyph-name="uni02A6" unicode="&#x2a6;" horiz-adv-x="888" 
d="M831 442q0 -217 -119.5 -344t-334.5 -127q-132 0 -268 47v224h2q127 -56 251 -56q207 0 216 174q-96 -57 -224 -57q-301 0 -301 256q0 103 54.5 175.5t137.5 105t185 32.5q401 0 401 -430zM412 485q95 0 166 41q-9 140 -146 140q-129 0 -129 -99q0 -82 109 -82z" />
    <glyph glyph-name="uni02A7" unicode="&#x2a7;" horiz-adv-x="1024" 
d="M582 1204h-195v367h348v-39z" />
    <glyph glyph-name="uni02A8" unicode="&#x2a8;" horiz-adv-x="1024" 
d="M535 1708h217l-117 -434h-383v37z" />
    <glyph glyph-name="uni02A9" unicode="&#x2a9;" horiz-adv-x="1583" 
d="M440 0h-372l419 1227h609l420 -1227h-377l-78 240h-547zM840 926h-101l-139 -416h377z" />
    <glyph glyph-name="uni02AA" unicode="&#x2aa;" horiz-adv-x="1583" 
d="M440 0h-372l419 1227h609l420 -1227h-377l-78 240h-547zM840 926h-101l-139 -416h377zM928 1380h-320l252 353h428v-25z" />
    <glyph glyph-name="uni02AB" unicode="&#x2ab;" horiz-adv-x="1583" 
d="M440 0h-372l419 1227h609l420 -1227h-377l-78 240h-547zM840 926h-101l-139 -416h377zM928 1380h-320l252 353h428v-25z" />
    <glyph glyph-name="uni02AC" unicode="&#x2ac;" horiz-adv-x="1583" 
d="M440 0h-372l419 1227h609l420 -1227h-377l-78 240h-547zM840 926h-101l-139 -416h377zM793 1364q-65 0 -123 9.5t-114 32t-96 57.5t-64.5 89.5t-24.5 124.5q0 62 14 117h262l-6 -59q0 -123 152 -123q149 0 149 121q0 16 -2 28l-4 33h262q14 -55 14 -119q0 -85 -36 -148
t-98 -97t-133 -50t-152 -16z" />
    <glyph glyph-name="uni02AD" unicode="&#x2ad;" horiz-adv-x="1583" 
d="M440 0h-372l419 1227h609l420 -1227h-377l-78 240h-547zM840 926h-101l-139 -416h377zM793 1364q-65 0 -123 9.5t-114 32t-96 57.5t-64.5 89.5t-24.5 124.5q0 62 14 117h262l-6 -59q0 -123 152 -123q149 0 149 121q0 16 -2 28l-4 33h262q14 -55 14 -119q0 -85 -36 -148
t-98 -97t-133 -50t-152 -16z" />
    <glyph glyph-name="uni02AE" unicode="&#x2ae;" horiz-adv-x="1583" 
d="M440 0h-372l419 1227h609l420 -1227h-377l-78 240h-547zM840 926h-101l-139 -416h377zM635 1380h-332l275 385h430l274 -385h-334l-119 166h-75z" />
    <glyph glyph-name="uni02AF" unicode="&#x2af;" horiz-adv-x="1583" 
d="M440 0h-372l419 1227h609l420 -1227h-377l-78 240h-547zM840 926h-101l-139 -416h377zM635 1380h-332l275 385h430l274 -385h-334l-119 166h-75z" />
    <glyph glyph-name="uni02B0" unicode="&#x2b0;" horiz-adv-x="1583" 
d="M440 0h-372l419 1227h609l420 -1227h-377l-78 240h-547zM840 926h-101l-139 -416h377zM524 1364q-84 0 -139 48.5t-55 131.5v2q0 84 54.5 131t139.5 47t140 -47t55 -131v-2q0 -83 -55.5 -131.5t-139.5 -48.5zM1063 1364q-84 0 -139.5 48.5t-55.5 131.5v2q0 84 55 131
t140 47t139.5 -47t54.5 -131v-2q0 -83 -55 -131.5t-139 -48.5z" />
    <glyph glyph-name="uni02B1" unicode="&#x2b1;" horiz-adv-x="1583" 
d="M440 0h-372l419 1227h609l420 -1227h-377l-78 240h-547zM840 926h-101l-139 -416h377zM524 1364q-84 0 -139 48.5t-55 131.5v2q0 84 54.5 131t139.5 47t140 -47t55 -131v-2q0 -83 -55.5 -131.5t-139.5 -48.5zM1063 1364q-84 0 -139.5 48.5t-55.5 131.5v2q0 84 55 131
t140 47t139.5 -47t54.5 -131v-2q0 -83 -55 -131.5t-139 -48.5z" />
    <glyph glyph-name="uni02B2" unicode="&#x2b2;" horiz-adv-x="2295" 
d="M2163 0h-1106v254h-498l-141 -254h-391l700 1227h1411l12 -285h-733v-199h578v-258h-578v-200h760zM1057 944h-117l-231 -418h348v418z" />
    <glyph glyph-name="uni02B3" unicode="&#x2b3;" horiz-adv-x="2295" 
d="M2163 0h-1106v254h-498l-141 -254h-391l700 1227h1411l12 -285h-733v-199h578v-258h-578v-200h760zM1057 944h-117l-231 -418h348v418z" />
    <glyph glyph-name="uni02B4" unicode="&#x2b4;" horiz-adv-x="2295" 
d="M2163 0h-1106v254h-498l-141 -254h-391l700 1227h1411l12 -285h-733v-199h578v-258h-578v-200h760zM1057 944h-117l-231 -418h348v418zM1407 1380h-320l252 353h428v-25z" />
    <glyph glyph-name="uni02B5" unicode="&#x2b5;" horiz-adv-x="2295" 
d="M2163 0h-1106v254h-498l-141 -254h-391l700 1227h1411l12 -285h-733v-199h578v-258h-578v-200h760zM1057 944h-117l-231 -418h348v418zM1407 1380h-320l252 353h428v-25z" />
    <glyph glyph-name="uni02B6" unicode="&#x2b6;" horiz-adv-x="1583" 
d="M440 0h-372l419 1227h609l420 -1227h-377l-78 240h-547zM840 926h-101l-139 -416h377zM729 1733l252 -353h-322l-358 328v25h428z" />
    <glyph glyph-name="uni02B7" unicode="&#x2b7;" horiz-adv-x="1583" 
d="M440 0h-372l419 1227h609l420 -1227h-377l-78 240h-547zM840 926h-101l-139 -416h377zM729 1733l252 -353h-322l-358 328v25h428z" />
    <glyph glyph-name="uni02B8" unicode="&#x2b8;" horiz-adv-x="1583" 
d="M440 0h-372l419 1227h609l420 -1227h-377l-78 240h-547zM840 926h-101l-139 -416h377zM1202 1417h-819v252h819v-252z" />
    <glyph glyph-name="uni02B9" unicode="&#x2b9;" horiz-adv-x="1583" 
d="M440 0h-372l419 1227h609l420 -1227h-377l-78 240h-547zM840 926h-101l-139 -416h377zM1202 1417h-819v252h819v-252z" />
    <glyph glyph-name="uni02BA" unicode="&#x2ba;" horiz-adv-x="1693" 
d="M553 -35q-81 0 -154 18.5t-134 56.5t-97.5 103t-36.5 150q0 145 88 239q86 89 248 193l39 25l-191 184v293h1006l12 -269h-618l428 -423l381 296h2v-346l-193 -149l338 -336h-401l-170 162q-293 -197 -547 -197zM594 242q126 0 307 120l-205 201l-20 -12
q-203 -123 -203 -211q0 -98 121 -98z" />
    <glyph glyph-name="uni02BB" unicode="&#x2bb;" horiz-adv-x="1583" 
d="M440 0h-372l419 1227h609l420 -1227l-111 -104q-141 -129 -141 -181q0 -73 122 -73q84 0 164 34v-251q-115 -37 -237 -37q-54 0 -102 6t-97.5 23t-85 44t-58 71.5t-22.5 102.5q0 155 205 314l-94 291h-545zM840 926h-101l-139 -416h377z" />
    <glyph glyph-name="uni02BC" unicode="&#x2bc;" horiz-adv-x="1583" 
d="M440 0h-372l419 1227h609l420 -1227l-111 -104q-141 -129 -141 -181q0 -73 122 -73q84 0 164 34v-251q-115 -37 -237 -37q-54 0 -102 6t-97.5 23t-85 44t-58 71.5t-22.5 102.5q0 155 205 314l-94 291h-545zM840 926h-101l-139 -416h377z" />
    <glyph glyph-name="uni02BD" unicode="&#x2bd;" horiz-adv-x="1583" 
d="M440 0h-372l419 1227h609l420 -1227h-377l-78 240h-547zM840 926h-101l-139 -416h377zM791 1364q-77 0 -143 18.5t-118.5 55.5t-82 99t-29.5 142q0 162 104 243t271 81q165 0 270.5 -81t105.5 -241q0 -81 -30 -143t-83 -99.5t-120 -56t-145 -18.5zM938 1681
q0 129 -147 129q-148 0 -148 -129q0 -125 150 -125q145 0 145 125z" />
    <glyph glyph-name="uni02BE" unicode="&#x2be;" horiz-adv-x="1583" 
d="M440 0h-372l419 1227h609l420 -1227h-377l-78 240h-547zM840 926h-101l-139 -416h377zM791 1364q-77 0 -143 18.5t-118.5 55.5t-82 99t-29.5 142q0 162 104 243t271 81q165 0 270.5 -81t105.5 -241q0 -81 -30 -143t-83 -99.5t-120 -56t-145 -18.5zM938 1681
q0 129 -147 129q-148 0 -148 -129q0 -125 150 -125q145 0 145 125z" />
    <glyph glyph-name="uni02BF" unicode="&#x2bf;" horiz-adv-x="1583" 
d="M440 0h-372l419 1227h609l420 -1227h-377l-78 240h-547zM840 926h-101l-139 -416h377zM791 1364q-77 0 -143 18.5t-118.5 55.5t-82 99t-29.5 142q0 162 104 243t271 81q165 0 270.5 -81t105.5 -241q0 -81 -30 -143t-83 -99.5t-120 -56t-145 -18.5zM938 1681
q0 129 -147 129q-148 0 -148 -129q0 -125 150 -125q145 0 145 125zM928 2120h-320l252 352h428v-25z" />
    <glyph glyph-name="uni02C0" unicode="&#x2c0;" horiz-adv-x="1583" 
d="M440 0h-372l419 1227h609l420 -1227h-377l-78 240h-547zM840 926h-101l-139 -416h377zM791 1364q-77 0 -143 18.5t-118.5 55.5t-82 99t-29.5 142q0 162 104 243t271 81q165 0 270.5 -81t105.5 -241q0 -81 -30 -143t-83 -99.5t-120 -56t-145 -18.5zM938 1681
q0 129 -147 129q-148 0 -148 -129q0 -125 150 -125q145 0 145 125zM928 2120h-320l252 352h428v-25z" />
    <glyph glyph-name="uni02C1" unicode="&#x2c1;" 
d="M479 705h-366l383 729h481l391 -729h-373l-217 413h-88z" />
    <glyph glyph-name="uni02C2" unicode="&#x2c2;" 
d="M145 416v407q163 166 332 166q131 0 330 -117q132 -75 207 -75q44 0 89 20t91.5 61t71.5 67t67 73h2v-408q-163 -166 -329 -166q-132 0 -332 117q-135 78 -205 78q-127 0 -322 -223h-2z" />
    <glyph glyph-name="uni02C3" unicode="&#x2c3;" horiz-adv-x="2258" 
d="M1346 422q-143 -146 -322 -146q-123 0 -205 60.5t-82 179.5q0 48 15 88.5t44.5 70t63.5 52.5t81 39t88 27t93.5 17.5t88.5 10t81 6.5v9q0 116 -141 116q-168 0 -336 -110v248q180 98 379 98q375 0 375 -352v-207q0 -135 112 -135q154 0 154 321q0 150 -47 262.5t-134 181
t-204 102.5t-264 34q-348 0 -542.5 -183.5t-194.5 -529.5q0 -643 727 -643q298 0 581 125l-2 -262q-259 -113 -590 -113q-226 0 -406 52t-313.5 157.5t-205.5 278.5t-72 403q0 302 130 522t358 331.5t528 111.5q203 0 368.5 -50t289 -148.5t191.5 -257.5t68 -366
q0 -115 -22.5 -209.5t-71.5 -173t-136.5 -122.5t-207.5 -44q-222 0 -317 148zM1110 473q45 0 97.5 20t84.5 52v129q-210 -18 -262 -76q-20 -20 -20 -51q0 -74 100 -74z" />
    <glyph glyph-name="uni02C4" unicode="&#x2c4;" horiz-adv-x="1583" 
d="M440 0h-372l419 1227h609l420 -1227h-377l-78 240h-547zM840 926h-101l-139 -416h377zM1198 1759v-297q-104 -104 -227 -104q-69 0 -223 65q-109 47 -146 47q-93 0 -211 -133h-2v295q105 105 225 105q69 0 226 -66q103 -47 145 -47q94 0 211 135h2z" />
    <glyph glyph-name="uni02C5" unicode="&#x2c5;" horiz-adv-x="1583" 
d="M440 0h-372l419 1227h609l420 -1227h-377l-78 240h-547zM840 926h-101l-139 -416h377zM1198 1759v-297q-104 -104 -227 -104q-69 0 -223 65q-109 47 -146 47q-93 0 -211 -133h-2v295q105 105 225 105q69 0 226 -66q103 -47 145 -47q94 0 211 135h2z" />
    <glyph glyph-name="circumflex" unicode="&#x2c6;" horiz-adv-x="1536" 
d="M948 0h-755v1227h786q65 0 122.5 -8.5t113.5 -30.5t95.5 -56t64 -89t24.5 -125q0 -214 -211 -281q235 -94 235 -289q0 -348 -475 -348zM547 956v-217h340q151 0 151 111q0 106 -149 106h-342zM547 506v-234l362 2q154 3 154 117q0 115 -160 115h-356z" />
    <glyph glyph-name="caron" unicode="&#x2c7;" horiz-adv-x="1536" 
d="M948 0h-755v1227h786q65 0 122.5 -8.5t113.5 -30.5t95.5 -56t64 -89t24.5 -125q0 -214 -211 -281q235 -94 235 -289q0 -348 -475 -348zM547 956v-217h340q151 0 151 111q0 106 -149 106h-342zM547 506v-234l362 2q154 3 154 117q0 115 -160 115h-356z" />
    <glyph glyph-name="uni02C8" unicode="&#x2c8;" horiz-adv-x="1173" 
d="M422 1710l668 -1984h-336l-670 1984h338z" />
    <glyph glyph-name="uni02C9" unicode="&#x2c9;" horiz-adv-x="1081" 
d="M707 -274h-332v1984h332v-1984z" />
    <glyph glyph-name="uni02CA" unicode="&#x2ca;" horiz-adv-x="1112" 
d="M721 -274h-332v1984h332v-1984z" />
    <glyph glyph-name="uni02CB" unicode="&#x2cb;" horiz-adv-x="1138" 
d="M346 395l-313 293v60l313 292l-16 138l-6 106q0 228 133.5 344.5t363.5 116.5q119 0 240 -33v-293h-2q-85 33 -172 33q-228 0 -228 -238q0 -13 3 -40l28 -244l-258 -213l258 -211l-28 -244q-3 -27 -3 -41q0 -231 228 -231q87 0 172 33h2v-299q-121 -33 -240 -33
q-230 0 -363.5 116.5t-133.5 344.5l6 106z" />
    <glyph glyph-name="uni02CC" unicode="&#x2cc;" horiz-adv-x="1138" 
d="M793 1038l313 -293v-59l-313 -293l16 -137l6 -106q0 -228 -133.5 -344.5t-364.5 -116.5q-122 0 -239 32v293h2q82 -32 172 -32q227 0 227 237q0 23 -2 41l-28 244l258 213l-258 211l28 243q2 18 2 41q0 232 -227 232q-87 0 -172 -33h-2v299q121 33 239 33
q231 0 364.5 -116.5t133.5 -344.5l-6 -106z" />
    <glyph glyph-name="uni02CD" unicode="&#x2cd;" horiz-adv-x="948" 
d="M864 -274h-714v1984h714v-276h-379v-1432h379v-276z" />
    <glyph glyph-name="uni02CE" unicode="&#x2ce;" horiz-adv-x="948" 
d="M84 1710h715v-1984h-715v276h379v1432h-379v276z" />
    <glyph glyph-name="uni02CF" unicode="&#x2cf;" horiz-adv-x="917" 
d="M459 387q-149 0 -247.5 90t-98.5 238v6q0 148 98 237t248 89t248 -89t98 -237v-6q0 -148 -98.5 -238t-247.5 -90z" />
    <glyph glyph-name="uni02D0" unicode="&#x2d0;" horiz-adv-x="1433" 
d="M821 -35q-155 0 -283 41.5t-222.5 121t-146.5 203.5t-52 281q0 154 56.5 278t154.5 204t228 123t280 43q269 0 464 -130v-337h-4q-229 157 -442 157q-158 0 -263.5 -90.5t-105.5 -245.5q0 -163 102 -251.5t267 -88.5q208 0 442 158h4v-342q-102 -60 -229 -92.5
t-250 -32.5z" />
    <glyph glyph-name="uni02D1" unicode="&#x2d1;" horiz-adv-x="1433" 
d="M821 -35q-155 0 -283 41.5t-222.5 121t-146.5 203.5t-52 281q0 154 56.5 278t154.5 204t228 123t280 43q269 0 464 -130v-337h-4q-229 157 -442 157q-158 0 -263.5 -90.5t-105.5 -245.5q0 -163 102 -251.5t267 -88.5q208 0 442 158h4v-342q-102 -60 -229 -92.5
t-250 -32.5z" />
    <glyph glyph-name="uni02D2" unicode="&#x2d2;" horiz-adv-x="1433" 
d="M821 -35q-155 0 -283 41.5t-222.5 121t-146.5 203.5t-52 281q0 154 56.5 278t154.5 204t228 123t280 43q269 0 464 -130v-337h-4q-229 157 -442 157q-158 0 -263.5 -90.5t-105.5 -245.5q0 -163 102 -251.5t267 -88.5q208 0 442 158h4v-342q-102 -60 -229 -92.5
t-250 -32.5zM934 1411h-320l252 352h428v-24z" />
    <glyph glyph-name="uni02D3" unicode="&#x2d3;" horiz-adv-x="1433" 
d="M821 -35q-155 0 -283 41.5t-222.5 121t-146.5 203.5t-52 281q0 154 56.5 278t154.5 204t228 123t280 43q269 0 464 -130v-337h-4q-229 157 -442 157q-158 0 -263.5 -90.5t-105.5 -245.5q0 -163 102 -251.5t267 -88.5q208 0 442 158h4v-342q-102 -60 -229 -92.5
t-250 -32.5zM934 1411h-320l252 352h428v-24z" />
    <glyph glyph-name="uni02D4" unicode="&#x2d4;" horiz-adv-x="1433" 
d="M821 -35q-155 0 -283 41.5t-222.5 121t-146.5 203.5t-52 281q0 154 56.5 278t154.5 204t228 123t280 43q269 0 464 -130v-337h-4q-229 157 -442 157q-158 0 -263.5 -90.5t-105.5 -245.5q0 -163 102 -251.5t267 -88.5q208 0 442 158h4v-342q-102 -60 -229 -92.5
t-250 -32.5zM956 1796h332l-274 -385h-430l-275 385h334l119 -164h76z" />
    <glyph glyph-name="uni02D5" unicode="&#x2d5;" horiz-adv-x="1433" 
d="M821 -35q-155 0 -283 41.5t-222.5 121t-146.5 203.5t-52 281q0 154 56.5 278t154.5 204t228 123t280 43q269 0 464 -130v-337h-4q-229 157 -442 157q-158 0 -263.5 -90.5t-105.5 -245.5q0 -163 102 -251.5t267 -88.5q208 0 442 158h4v-342q-102 -60 -229 -92.5
t-250 -32.5zM956 1796h332l-274 -385h-430l-275 385h334l119 -164h76z" />
    <glyph glyph-name="uni02D6" unicode="&#x2d6;" horiz-adv-x="1433" 
d="M1300 432v-342q-160 -90 -335 -115l-174 -360h-431v27l302 335q-257 38 -401 206.5t-144 428.5q0 154 56.5 278t154.5 204t228 123t280 43q269 0 464 -130v-337h-4q-229 157 -442 157q-158 0 -263.5 -90.5t-105.5 -245.5q0 -163 102 -251.5t267 -88.5q208 0 442 158h4z
" />
    <glyph glyph-name="uni02D7" unicode="&#x2d7;" horiz-adv-x="1433" 
d="M1300 432v-342q-160 -90 -335 -115l-174 -360h-431v27l302 335q-257 38 -401 206.5t-144 428.5q0 154 56.5 278t154.5 204t228 123t280 43q269 0 464 -130v-337h-4q-229 157 -442 157q-158 0 -263.5 -90.5t-105.5 -245.5q0 -163 102 -251.5t267 -88.5q208 0 442 158h4z
" />
    <glyph glyph-name="breve" unicode="&#x2d8;" horiz-adv-x="1433" 
d="M821 -35q-155 0 -283 41.5t-222.5 121t-146.5 203.5t-52 281q0 154 56.5 278t154.5 204t228 123t280 43q269 0 464 -130v-337h-4q-229 157 -442 157q-158 0 -263.5 -90.5t-105.5 -245.5q0 -163 102 -251.5t267 -88.5q208 0 442 158h4v-342q-102 -60 -229 -92.5
t-250 -32.5zM799 1395q-94 0 -157.5 48.5t-63.5 139.5v2q0 91 62 140t157 49t158 -48.5t63 -140.5v-2q0 -89 -63.5 -138.5t-155.5 -49.5z" />
    <glyph glyph-name="dotaccent" unicode="&#x2d9;" horiz-adv-x="1433" 
d="M821 -35q-155 0 -283 41.5t-222.5 121t-146.5 203.5t-52 281q0 154 56.5 278t154.5 204t228 123t280 43q269 0 464 -130v-337h-4q-229 157 -442 157q-158 0 -263.5 -90.5t-105.5 -245.5q0 -163 102 -251.5t267 -88.5q208 0 442 158h4v-342q-102 -60 -229 -92.5
t-250 -32.5zM799 1395q-94 0 -157.5 48.5t-63.5 139.5v2q0 91 62 140t157 49t158 -48.5t63 -140.5v-2q0 -89 -63.5 -138.5t-155.5 -49.5z" />
    <glyph glyph-name="ring" unicode="&#x2da;" 
d="M958 -53l-325 -31v287q-188 46 -295 178t-107 324q0 194 115 333t305 187v248h326v-232q147 -21 254 -94v-297h-2q-160 115 -342 115q-84 0 -153.5 -27t-115 -87.5t-45.5 -145.5q0 -50 19 -92t50.5 -69.5t73.5 -46.5t86.5 -27.5t90.5 -8.5q177 0 336 117h2v-299
q-114 -74 -273 -95v-237z" />
    <glyph glyph-name="ogonek" unicode="&#x2db;" horiz-adv-x="860" 
d="M430 852q-104 0 -172 59.5t-68 161.5v2q0 104 67.5 161.5t172.5 57.5q102 0 170 -58.5t68 -158.5v-4q0 -100 -68.5 -160.5t-169.5 -60.5zM430 135q-105 0 -172.5 58t-67.5 161v4q0 103 67.5 161.5t172.5 58.5q103 0 170.5 -59.5t67.5 -160.5v-2q0 -100 -68.5 -160.5
t-169.5 -60.5z" />
    <glyph glyph-name="tilde" unicode="&#x2dc;" horiz-adv-x="741" 
d="M371 694q-104 0 -172 59.5t-68 161.5v3q0 104 67.5 161.5t172.5 57.5q102 0 169.5 -58.5t67.5 -158.5v-5q0 -100 -68 -160.5t-169 -60.5zM371 -23q-105 0 -172.5 58.5t-67.5 161.5v4q0 103 67.5 161t172.5 58q103 0 170 -59t67 -160v-2q0 -100 -68 -161t-169 -61z" />
    <glyph glyph-name="hungarumlaut" unicode="&#x2dd;" horiz-adv-x="741" 
d="M322 -307h-199l90 692h440v-61z" />
    <glyph glyph-name="uni02DE" unicode="&#x2de;" horiz-adv-x="1595" 
d="M850 0h-657v1227h657q290 0 459.5 -162t169.5 -451t-169 -451.5t-460 -162.5zM553 932v-637h250q309 0 309 317q0 320 -309 320h-250z" />
    <glyph glyph-name="uni02DF" unicode="&#x2df;" horiz-adv-x="1595" 
d="M850 0h-657v1227h657q290 0 459.5 -162t169.5 -451t-169 -451.5t-460 -162.5zM553 932v-637h250q309 0 309 317q0 320 -309 320h-250z" />
    <glyph glyph-name="uni02E0" unicode="&#x2e0;" horiz-adv-x="1595" 
d="M850 0h-657v1227h657q290 0 459.5 -162t169.5 -451t-169 -451.5t-460 -162.5zM553 932v-637h250q309 0 309 317q0 320 -309 320h-250zM924 1765h331l-274 -385h-430l-275 385h334l119 -163h76z" />
    <glyph glyph-name="uni02E1" unicode="&#x2e1;" horiz-adv-x="1595" 
d="M850 0h-657v1227h657q290 0 459.5 -162t169.5 -451t-169 -451.5t-460 -162.5zM553 932v-637h250q309 0 309 317q0 320 -309 320h-250zM924 1765h331l-274 -385h-430l-275 385h334l119 -163h76z" />
    <glyph glyph-name="uni02E2" unicode="&#x2e2;" horiz-adv-x="1677" 
d="M932 0h-658v489h-192l20 254h172v484h658q290 0 459.5 -162t169.5 -451t-169 -451.5t-460 -162.5zM633 498v-205h252q309 0 309 319q0 322 -309 322h-252v-201h301v-235h-301z" />
    <glyph glyph-name="uni02E3" unicode="&#x2e3;" horiz-adv-x="1677" 
d="M932 0h-658v489h-192l20 254h172v484h658q290 0 459.5 -162t169.5 -451t-169 -451.5t-460 -162.5zM633 498v-205h252q309 0 309 319q0 322 -309 322h-252v-201h301v-235h-301z" />
    <glyph glyph-name="uni02E4" unicode="&#x2e4;" horiz-adv-x="1298" 
d="M649 547q-217 0 -354 121.5t-137 335.5t137 335t354 121q143 0 253 -51.5t174.5 -156t64.5 -248.5t-64.5 -248.5t-174.5 -156.5t-253 -52zM649 795q96 0 149.5 56.5t53.5 152.5t-53.5 152t-149.5 56t-149.5 -56t-53.5 -152t53.5 -152.5t149.5 -56.5z" />
    <glyph glyph-name="uni02E5" unicode="&#x2e5;" 
d="M741 1356q92 0 151.5 -49.5t59.5 -139.5q0 -88 -60.5 -138t-150.5 -50q-91 0 -151 48.5t-60 137.5v2q0 90 59.5 139.5t151.5 49.5zM1352 569h-1219v295h1219v-295zM743 80q-91 0 -151 48.5t-60 137.5v2q0 89 59 139t150 50t152 -50t61 -139v-2q0 -89 -60 -137.5
t-151 -48.5z" />
    <glyph glyph-name="uni02E6" unicode="&#x2e6;" 
d="M909 -215l-331 -31v273q-164 25 -392 118v328h2q316 -166 603 -166q219 0 219 123q0 64 -66 92q-58 23 -266 66q-57 10 -101.5 19.5t-98 26t-93.5 36t-79.5 50t-65 66.5t-41 86.5t-15.5 110.5q0 87 33.5 160.5t92 124t131 84.5t155.5 51v246h332v-240q183 -26 352 -104
v-330h-2q-108 68 -248 109.5t-266 41.5q-221 0 -221 -122q0 -72 90 -99q47 -12 104 -22l66 -13q34 -8 71 -14q59 -12 101.5 -22.5t97.5 -28.5t94 -38t79.5 -51t65 -68t40.5 -88t16 -111q0 -96 -37 -174.5t-101.5 -129.5t-145.5 -82.5t-175 -42.5v-235z" />
    <glyph glyph-name="uni02E7" unicode="&#x2e7;" horiz-adv-x="753" 
d="M557 0h-362v1227h362v-1227z" />
    <glyph glyph-name="uni02E8" unicode="&#x2e8;" horiz-adv-x="1431" 
d="M1298 0h-1105v1227h1079l14 -285h-733v-199h577v-258h-577v-200h760z" />
    <glyph glyph-name="uni02E9" unicode="&#x2e9;" horiz-adv-x="1431" 
d="M1298 0h-1105v1227h1079l14 -285h-733v-199h577v-258h-577v-200h760z" />
    <glyph glyph-name="uni02EA" unicode="&#x2ea;" horiz-adv-x="1431" 
d="M1298 0h-1105v1227h1079l14 -285h-733v-199h577v-258h-577v-200h760zM881 1380h-320l252 353h428v-25z" />
    <glyph glyph-name="uni02EB" unicode="&#x2eb;" horiz-adv-x="1431" 
d="M1298 0h-1105v1227h1079l14 -285h-733v-199h577v-258h-577v-200h760zM881 1380h-320l252 353h428v-25z" />
    <glyph glyph-name="uni02EC" unicode="&#x2ec;" horiz-adv-x="1431" 
d="M1298 0h-1105v1227h1079l14 -285h-733v-199h577v-258h-577v-200h760zM745 1364q-65 0 -123 9.5t-113.5 32t-95.5 57.5t-64.5 89.5t-24.5 124.5q0 62 14 117h262l-6 -59q0 -123 151 -123q150 0 150 121q0 16 -2 28l-4 33h262q14 -55 14 -119q0 -85 -36 -148t-98.5 -97
t-133.5 -50t-152 -16z" />
    <glyph glyph-name="uni02ED" unicode="&#x2ed;" horiz-adv-x="1431" 
d="M1298 0h-1105v1227h1079l14 -285h-733v-199h577v-258h-577v-200h760zM745 1364q-65 0 -123 9.5t-113.5 32t-95.5 57.5t-64.5 89.5t-24.5 124.5q0 62 14 117h262l-6 -59q0 -123 151 -123q150 0 150 121q0 16 -2 28l-4 33h262q14 -55 14 -119q0 -85 -36 -148t-98.5 -97
t-133.5 -50t-152 -16z" />
    <glyph glyph-name="uni02EE" unicode="&#x2ee;" horiz-adv-x="1431" 
d="M1298 0h-1105v1227h1079l14 -285h-733v-199h577v-258h-577v-200h760zM903 1765h332l-274 -385h-431l-274 385h334l119 -163h75z" />
    <glyph glyph-name="uni02EF" unicode="&#x2ef;" horiz-adv-x="1431" 
d="M1298 0h-1105v1227h1079l14 -285h-733v-199h577v-258h-577v-200h760zM903 1765h332l-274 -385h-431l-274 385h334l119 -163h75z" />
    <glyph glyph-name="uni02F0" unicode="&#x2f0;" horiz-adv-x="1431" 
d="M1298 0h-1105v1227h1079l14 -285h-733v-199h577v-258h-577v-200h760zM588 1380h-332l274 385h431l274 -385h-334l-119 166h-75z" />
    <glyph glyph-name="uni02F1" unicode="&#x2f1;" horiz-adv-x="1431" 
d="M1298 0h-1105v1227h1079l14 -285h-733v-199h577v-258h-577v-200h760zM588 1380h-332l274 385h431l274 -385h-334l-119 166h-75z" />
    <glyph glyph-name="uni02F2" unicode="&#x2f2;" horiz-adv-x="1431" 
d="M1298 0h-1105v1227h1079l14 -285h-733v-199h577v-258h-577v-200h760zM477 1364q-84 0 -139 48.5t-55 131.5v2q0 84 54.5 131t139.5 47t140 -47t55 -131v-2q0 -83 -55.5 -131.5t-139.5 -48.5zM1016 1364q-84 0 -139.5 48.5t-55.5 131.5v2q0 84 55 131t140 47t139.5 -47
t54.5 -131v-2q0 -83 -55 -131.5t-139 -48.5z" />
    <glyph glyph-name="uni02F3" unicode="&#x2f3;" horiz-adv-x="1431" 
d="M1298 0h-1105v1227h1079l14 -285h-733v-199h577v-258h-577v-200h760zM477 1364q-84 0 -139 48.5t-55 131.5v2q0 84 54.5 131t139.5 47t140 -47t55 -131v-2q0 -83 -55.5 -131.5t-139.5 -48.5zM1016 1364q-84 0 -139.5 48.5t-55.5 131.5v2q0 84 55 131t140 47t139.5 -47
t54.5 -131v-2q0 -83 -55 -131.5t-139 -48.5z" />
    <glyph glyph-name="uni02F4" unicode="&#x2f4;" horiz-adv-x="1431" 
d="M1298 0h-1105v1227h1079l14 -285h-733v-199h577v-258h-577v-200h760zM745 1364q-94 0 -157.5 48.5t-63.5 139.5v2q0 91 62 140t157 49t158.5 -48.5t63.5 -140.5v-2q0 -89 -64 -138.5t-156 -49.5z" />
    <glyph glyph-name="uni02F5" unicode="&#x2f5;" horiz-adv-x="1431" 
d="M1298 0h-1105v1227h1079l14 -285h-733v-199h577v-258h-577v-200h760zM745 1364q-94 0 -157.5 48.5t-63.5 139.5v2q0 91 62 140t157 49t158.5 -48.5t63.5 -140.5v-2q0 -89 -64 -138.5t-156 -49.5z" />
    <glyph glyph-name="uni02F6" unicode="&#x2f6;" horiz-adv-x="1431" 
d="M1298 0h-1105v1227h1079l14 -285h-733v-199h577v-258h-577v-200h760zM682 1733l252 -353h-322l-358 328v25h428z" />
    <glyph glyph-name="uni02F7" unicode="&#x2f7;" horiz-adv-x="1431" 
d="M1298 0h-1105v1227h1079l14 -285h-733v-199h577v-258h-577v-200h760zM682 1733l252 -353h-322l-358 328v25h428z" />
    <glyph glyph-name="uni02F8" unicode="&#x2f8;" horiz-adv-x="1425" 
d="M715 -49q-88 0 -170 11.5t-165 41.5t-144 76t-99.5 122t-38.5 173q0 236 252 350q-217 108 -217 319q0 187 152 312q151 121 430 121q108 0 206.5 -23.5t184 -72.5t137 -136t51.5 -201q0 -210 -219 -319q252 -111 252 -350q0 -81 -26 -147.5t-72 -112t-104 -78.5
t-129 -51t-139.5 -26.5t-141.5 -8.5zM952 1016q0 93 -69.5 138.5t-167.5 45.5q-240 0 -240 -184q0 -49 20.5 -85.5t56 -56.5t76 -29t87.5 -9q237 0 237 180zM975 418q0 66 -41.5 110t-97 60t-121.5 16q-264 0 -264 -184q0 -193 264 -193q260 0 260 191z" />
    <glyph glyph-name="uni02F9" unicode="&#x2f9;" 
d="M743 -49q-92 0 -176 10t-173.5 39t-154.5 75t-107 123t-42 177q0 248 283 350q-248 94 -248 319q0 99 37.5 176t98 124.5t143.5 78t165.5 42.5t173.5 12q89 0 172 -12.5t165.5 -43.5t143 -79t98.5 -124.5t38 -173.5q0 -224 -250 -319q283 -102 283 -350
q0 -101 -41.5 -178t-105.5 -122.5t-153.5 -74.5t-173 -39t-176.5 -10zM1004 1016q0 178 -261 178q-264 0 -264 -178q0 -176 264 -176q261 0 261 176zM1028 418q0 53 -27 91.5t-72 57.5t-90.5 27t-95.5 8q-288 0 -288 -182q0 -187 288 -187q285 0 285 185z" />
    <glyph glyph-name="uni02FA" unicode="&#x2fa;" horiz-adv-x="888" 
d="M18 225q0 147 168 205q-147 53 -147 186q0 72 34.5 125t92 80t119 39t129.5 12q69 0 130 -12t118.5 -38.5t91.5 -79.5t34 -126q0 -133 -147 -186q168 -58 168 -205q0 -252 -395 -252q-396 0 -396 252zM543 588q0 88 -129 88t-129 -88q0 -80 129 -80t129 80zM555 258
q0 90 -141 90q-142 0 -142 -90q0 -88 142 -88q141 0 141 88z" />
    <glyph glyph-name="uni02FB" unicode="&#x2fb;" horiz-adv-x="888" 
d="M80 811q0 147 168 205q-148 53 -148 186q0 72 34.5 125t92 80t119 39t129.5 12q54 0 103.5 -6.5t100.5 -24.5t88 -46t60 -74t23 -105q0 -133 -148 -186q168 -58 168 -205q0 -252 -395 -252t-395 252zM604 1174q0 88 -129 88t-129 -88q0 -80 129 -80t129 80zM616 844
q0 90 -141 90t-141 -90q0 -88 141 -88t141 88z" />
    <glyph glyph-name="uni02FC" unicode="&#x2fc;" horiz-adv-x="1431" 
d="M1298 0h-1105v1227h1079l14 -285h-733v-199h577v-258h-577v-200h760zM1155 1417h-819v252h819v-252z" />
    <glyph glyph-name="uni02FD" unicode="&#x2fd;" horiz-adv-x="1431" 
d="M1298 0h-1105v1227h1079l14 -285h-733v-199h577v-258h-577v-200h760zM1155 1417h-819v252h819v-252z" />
    <glyph glyph-name="uni02FE" unicode="&#x2fe;" horiz-adv-x="1771" 
d="M1620 557h-1466v322h1466v-322z" />
    <glyph glyph-name="uni02FF" unicode="&#x2ff;" horiz-adv-x="1435" 
d="M1284 557h-1130v322h1130v-322z" />
    <glyph glyph-name="gravecomb" unicode="&#x300;" 
d="M1321 557h-1159v322h1159v-322z" />
    <glyph glyph-name="acutecomb" unicode="&#x301;" horiz-adv-x="1431" 
d="M193 0v1227h1079l14 -285h-733v-199h577v-258h-577v-200h760l-15 -285l-110 -104q-141 -129 -141 -181q0 -73 122 -73q84 0 164 34v-251q-115 -37 -237 -37q-54 0 -102.5 6.5t-98 23.5t-85 44t-57.5 71.5t-22 101.5q0 171 273 365h-811z" />
    <glyph glyph-name="uni0302" unicode="&#x302;" horiz-adv-x="1431" 
d="M193 0v1227h1079l14 -285h-733v-199h577v-258h-577v-200h760l-15 -285l-110 -104q-141 -129 -141 -181q0 -73 122 -73q84 0 164 34v-251q-115 -37 -237 -37q-54 0 -102.5 6.5t-98 23.5t-85 44t-57.5 71.5t-22 101.5q0 171 273 365h-811z" />
    <glyph glyph-name="tildecomb" unicode="&#x303;" 
d="M1307 842h-1133v301h1133v-301zM1307 291h-1133v301h1133v-301z" />
    <glyph glyph-name="uni0304" unicode="&#x304;" horiz-adv-x="1677" 
d="M932 0h-658v489h-192l20 254h172v484h658q290 0 459.5 -162t169.5 -451t-169 -451.5t-460 -162.5zM633 498v-205h252q309 0 309 319q0 322 -309 322h-252v-201h301v-235h-301z" />
    <glyph glyph-name="uni0305" unicode="&#x305;" horiz-adv-x="1677" 
d="M932 0h-658v489h-192l20 254h172v484h658q290 0 459.5 -162t169.5 -451t-169 -451.5t-460 -162.5zM633 498v-205h252q309 0 309 319q0 322 -309 322h-252v-201h301v-235h-301z" />
    <glyph glyph-name="uni0306" unicode="&#x306;" horiz-adv-x="860" 
d="M430 1456q105 0 171.5 -58t66.5 -161v-4q0 -103 -66.5 -161t-171.5 -58q-103 0 -171.5 59t-68.5 160v2q0 102 68 161.5t172 59.5zM295 870h270l99 -847v-23h-467v23z" />
    <glyph glyph-name="uni0307" unicode="&#x307;" horiz-adv-x="1384" 
d="M555 0h-362v1227h1067l14 -295h-719v-234h604v-274h-604v-424z" />
    <glyph glyph-name="uni0308" unicode="&#x308;" horiz-adv-x="1384" 
d="M555 0h-362v1227h1067l14 -295h-719v-234h604v-274h-604v-424z" />
    <glyph glyph-name="hookabovecomb" unicode="&#x309;" horiz-adv-x="1280" 
d="M131 -180v313h2q266 -80 453 -80q155 0 211 62q55 61 55 123q0 61 -35 96q-69 69 -465 69h-188l14 824h938l14 -297h-638l-5 -250l109 -2q100 -2 181.5 -13t164 -40.5t138.5 -76.5t91 -126.5t35 -185.5q0 -98 -34.5 -179.5t-92.5 -136t-136 -92.5t-164 -55t-177 -17
q-206 0 -471 64z" />
    <glyph glyph-name="uni030A" unicode="&#x30a;" 
d="M166 68v331h2q304 -127 545 -127q47 0 91 8t87.5 26.5t69.5 55t26 87.5q0 55 -33 88q-67 67 -495 67h-266l20 830h1057l12 -308h-747l-9 -233h60q89 0 146 -1.5t147 -10.5t149 -25.5t128.5 -49t110 -78.5t68 -117.5t27.5 -161.5q0 -101 -37 -184.5t-99 -138.5t-145 -92.5
t-171.5 -54t-182.5 -16.5q-282 0 -561 105z" />
    <glyph glyph-name="uni030B" unicode="&#x30b;" horiz-adv-x="888" 
d="M78 23v227h2q155 -55 317 -55q135 0 135 73q0 27 -18 39q-39 31 -264 31h-158l12 510h637l9 -219h-414l-2 -105h14q50 0 86.5 -1.5t86.5 -7.5t85.5 -16t74 -29.5t62 -47t39 -68t15.5 -92.5q0 -76 -34 -134t-91 -90.5t-122.5 -48.5t-137.5 -16q-186 0 -334 50z" />
    <glyph glyph-name="uni030C" unicode="&#x30c;" horiz-adv-x="888" 
d="M139 608v228h2q157 -56 318 -56q135 0 135 74q0 26 -19 39q-39 31 -264 31h-157l12 510h637l8 -220h-414l-2 -104h15q50 0 86.5 -1.5t86 -7.5t85.5 -16t74 -29.5t61.5 -47t39 -68t15.5 -92.5q0 -76 -34 -134t-91 -90.5t-122.5 -48.5t-137.5 -16q-188 0 -334 49z" />
    <glyph glyph-name="uni030D" unicode="&#x30d;" horiz-adv-x="2224" 
d="M1749 -27q-395 0 -395 252q0 147 168 205q-148 53 -148 186q0 72 34.5 125t92 80t119 39t129.5 12q54 0 103.5 -6.5t100.5 -24.5t88 -46t60 -74t23 -105q0 -133 -148 -186q168 -58 168 -205q0 -252 -395 -252zM139 608v228h2q157 -56 318 -56q135 0 135 74q0 26 -19 39
q-39 31 -264 31h-157l12 510h637l8 -220h-414l-2 -104h15q50 0 86.5 -1.5t86 -7.5t85.5 -16t74 -29.5t61.5 -47t39 -68t15.5 -92.5q0 -76 -34 -134t-91 -90.5t-122.5 -48.5t-137.5 -16q-188 0 -334 49zM455 2l1044 1432h270v-2l-1044 -1432h-270v2zM1749 348
q-141 0 -141 -90q0 -88 141 -88t141 88q0 90 -141 90zM1620 588q0 -80 129 -80t129 80q0 88 -129 88t-129 -88z" />
    <glyph glyph-name="uni030E" unicode="&#x30e;" horiz-adv-x="2224" 
d="M1364 403q0 217 120 344t335 127q132 0 268 -47v-223h-2q-125 55 -252 55q-206 0 -215 -174q98 58 223 58q301 0 301 -256q0 -103 -54.5 -176t-138 -105.5t-184.5 -32.5q-401 0 -401 430zM473 559q-188 0 -334 49v228h2q157 -56 318 -56q135 0 135 74q0 26 -19 39
q-39 31 -264 31h-157l12 510h637l8 -220h-414l-2 -104h15q50 0 86.5 -1.5t86 -7.5t85.5 -16t74 -29.5t61.5 -47t39 -68t15.5 -92.5q0 -76 -34 -134t-91 -90.5t-122.5 -48.5t-137.5 -16zM725 0h-270v2l1044 1432h270v-2zM1784 360q-95 0 -166 -41q9 -139 145 -139
q129 0 129 99q0 81 -108 81z" />
    <glyph glyph-name="uni030F" unicode="&#x30f;" horiz-adv-x="1484" 
d="M1194 -207h-334v297h-770v260l440 877h664v-852h242l-13 -285h-229v-297zM731 930l-272 -559h405v559h-133z" />
    <glyph glyph-name="uni0310" unicode="&#x310;" 
d="M1221 0h-338v283h-820v268l435 883h723v-854h211l-15 -297h-196v-283zM711 1133l-265 -558h439v558h-174z" />
    <glyph glyph-name="uni0311" unicode="&#x311;" horiz-adv-x="888" 
d="M723 0h-248v158h-475v196l213 494h510v-481h119l-13 -209h-106v-158zM373 641l-115 -281h225v281h-110z" />
    <glyph glyph-name="uni0312" unicode="&#x312;" horiz-adv-x="888" 
d="M784 586h-247v157h-476v197l213 494h510v-482h119l-12 -209h-107v-157zM434 1227l-115 -281h226v281h-111z" />
    <glyph glyph-name="uni0313" unicode="&#x313;" horiz-adv-x="2224" 
d="M61 940l213 494h510v-482h119l-12 -209h-107v-157h-247v157h-476v197zM1413 250h2q155 -55 318 -55q135 0 135 73q0 26 -19 39q-39 31 -264 31h-158l13 510h637l8 -219h-414l-2 -105h14q50 0 86.5 -1.5t86.5 -7.5t85.5 -16t74 -29.5t62 -47t39 -68t15.5 -92.5
q0 -76 -34 -134t-91 -90.5t-122.5 -48.5t-137.5 -16q-186 0 -334 50v227zM725 0h-270v2l1044 1432h270v-2zM319 946h226v281h-111z" />
    <glyph glyph-name="uni0314" unicode="&#x314;" horiz-adv-x="446" 
d="M-434 0v2l1044 1432h271v-2l-1045 -1432h-270z" />
    <glyph glyph-name="uni0315" unicode="&#x315;" horiz-adv-x="1583" 
d="M821 -37q-152 0 -279.5 41t-222.5 119.5t-148.5 201t-53.5 277.5q0 157 58 283.5t158.5 207.5t233.5 124t287 43q291 0 483 -125v-326h-2q-250 143 -475 143q-170 0 -273.5 -93t-103.5 -261q0 -166 98.5 -254t268.5 -88q53 0 103 11t95.5 34t73.5 65.5t29 98.5h-389v258
h721q4 -94 4 -135q0 -307 -178 -466t-488 -159z" />
    <glyph glyph-name="uni0316" unicode="&#x316;" horiz-adv-x="1583" 
d="M821 -37q-152 0 -279.5 41t-222.5 119.5t-148.5 201t-53.5 277.5q0 157 58 283.5t158.5 207.5t233.5 124t287 43q291 0 483 -125v-326h-2q-250 143 -475 143q-170 0 -273.5 -93t-103.5 -261q0 -166 98.5 -254t268.5 -88q53 0 103 11t95.5 34t73.5 65.5t29 98.5h-389v258
h721q4 -94 4 -135q0 -307 -178 -466t-488 -159z" />
    <glyph glyph-name="uni0317" unicode="&#x317;" horiz-adv-x="1583" 
d="M821 -37q-152 0 -279.5 41t-222.5 119.5t-148.5 201t-53.5 277.5q0 157 58 283.5t158.5 207.5t233.5 124t287 43q291 0 483 -125v-326h-2q-250 143 -475 143q-170 0 -273.5 -93t-103.5 -261q0 -166 98.5 -254t268.5 -88q53 0 103 11t95.5 34t73.5 65.5t29 98.5h-389v258
h721q4 -94 4 -135q0 -307 -178 -466t-488 -159zM819 1395q-65 0 -123 9.5t-114 32t-96 57.5t-64.5 89.5t-24.5 124.5q0 58 15 117h262l-6 -60q0 -123 151 -123q150 0 150 121q0 17 -2 29l-4 33h262q14 -55 14 -119q0 -85 -36 -148t-98.5 -97t-133.5 -50t-152 -16z" />
    <glyph glyph-name="uni0318" unicode="&#x318;" horiz-adv-x="1583" 
d="M821 -37q-152 0 -279.5 41t-222.5 119.5t-148.5 201t-53.5 277.5q0 157 58 283.5t158.5 207.5t233.5 124t287 43q291 0 483 -125v-326h-2q-250 143 -475 143q-170 0 -273.5 -93t-103.5 -261q0 -166 98.5 -254t268.5 -88q53 0 103 11t95.5 34t73.5 65.5t29 98.5h-389v258
h721q4 -94 4 -135q0 -307 -178 -466t-488 -159zM819 1395q-65 0 -123 9.5t-114 32t-96 57.5t-64.5 89.5t-24.5 124.5q0 58 15 117h262l-6 -60q0 -123 151 -123q150 0 150 121q0 17 -2 29l-4 33h262q14 -55 14 -119q0 -85 -36 -148t-98.5 -97t-133.5 -50t-152 -16z" />
    <glyph glyph-name="uni0319" unicode="&#x319;" horiz-adv-x="1583" 
d="M821 -37q-152 0 -279.5 41t-222.5 119.5t-148.5 201t-53.5 277.5q0 157 58 283.5t158.5 207.5t233.5 124t287 43q291 0 483 -125v-326h-2q-250 143 -475 143q-170 0 -273.5 -93t-103.5 -261q0 -166 98.5 -254t268.5 -88q53 0 103 11t95.5 34t73.5 65.5t29 98.5h-389v258
h721q4 -94 4 -135q0 -307 -178 -466t-488 -159zM743 -637h-217l117 434h383v-37z" />
    <glyph glyph-name="uni031A" unicode="&#x31a;" horiz-adv-x="1583" 
d="M821 -37q-152 0 -279.5 41t-222.5 119.5t-148.5 201t-53.5 277.5q0 157 58 283.5t158.5 207.5t233.5 124t287 43q291 0 483 -125v-326h-2q-250 143 -475 143q-170 0 -273.5 -93t-103.5 -261q0 -166 98.5 -254t268.5 -88q53 0 103 11t95.5 34t73.5 65.5t29 98.5h-389v258
h721q4 -94 4 -135q0 -307 -178 -466t-488 -159zM743 -637h-217l117 434h383v-37z" />
    <glyph glyph-name="uni031B" unicode="&#x31b;" horiz-adv-x="1583" 
d="M821 -37q-152 0 -279.5 41t-222.5 119.5t-148.5 201t-53.5 277.5q0 157 58 283.5t158.5 207.5t233.5 124t287 43q291 0 483 -125v-326h-2q-250 143 -475 143q-170 0 -273.5 -93t-103.5 -261q0 -166 98.5 -254t268.5 -88q53 0 103 11t95.5 34t73.5 65.5t29 98.5h-389v258
h721q4 -94 4 -135q0 -307 -178 -466t-488 -159zM821 1395q-94 0 -157.5 48.5t-63.5 139.5v2q0 91 62 140t157 49t158 -48.5t63 -140.5v-2q0 -89 -63.5 -138.5t-155.5 -49.5z" />
    <glyph glyph-name="uni031C" unicode="&#x31c;" horiz-adv-x="1583" 
d="M821 -37q-152 0 -279.5 41t-222.5 119.5t-148.5 201t-53.5 277.5q0 157 58 283.5t158.5 207.5t233.5 124t287 43q291 0 483 -125v-326h-2q-250 143 -475 143q-170 0 -273.5 -93t-103.5 -261q0 -166 98.5 -254t268.5 -88q53 0 103 11t95.5 34t73.5 65.5t29 98.5h-389v258
h721q4 -94 4 -135q0 -307 -178 -466t-488 -159zM821 1395q-94 0 -157.5 48.5t-63.5 139.5v2q0 91 62 140t157 49t158 -48.5t63 -140.5v-2q0 -89 -63.5 -138.5t-155.5 -49.5z" />
    <glyph glyph-name="uni031D" unicode="&#x31d;" 
d="M274 987v348l971 -444v-344l-971 -443v349l594 266z" />
    <glyph glyph-name="uni031E" unicode="&#x31e;" horiz-adv-x="1583" 
d="M731 705v26l373 463h385l-377 -477l377 -477h-385zM74 705v26l372 463h383l-374 -477l374 -477h-383z" />
    <glyph glyph-name="uni031F" unicode="&#x31f;" horiz-adv-x="1583" 
d="M94 1196h385l373 -465v-26l-373 -463h-385l377 477zM1137 242h-383l374 477l-374 477h383l372 -465v-26z" />
    <glyph glyph-name="uni0320" unicode="&#x320;" horiz-adv-x="950" 
d="M477 717l377 -477h-408l-372 465v26l372 463h408z" />
    <glyph glyph-name="uni0321" unicode="&#x321;" horiz-adv-x="950" 
d="M471 719l-377 477h408l372 -465v-26l-372 -463h-408z" />
    <glyph glyph-name="uni0322" unicode="&#x322;" horiz-adv-x="1660" 
d="M555 0h-362v1227h362v-459h553v459h360v-1227h-360v465h-553v-465z" />
    <glyph glyph-name="dotbelowcomb" unicode="&#x323;" horiz-adv-x="1660" 
d="M555 0h-362v1227h362v-459h553v459h360v-1227h-360v465h-553v-465z" />
    <glyph glyph-name="uni0324" unicode="&#x324;" horiz-adv-x="1822" 
d="M633 0h-359v838h-192l14 252h178v137h359v-154h559v154h358v-137h179l14 -252h-193v-838h-358v410h-559v-410zM633 856v-156h559v156h-559z" />
    <glyph glyph-name="uni0325" unicode="&#x325;" horiz-adv-x="1822" 
d="M633 0h-359v838h-192l14 252h178v137h359v-154h559v154h358v-137h179l14 -252h-193v-838h-358v410h-559v-410zM633 856v-156h559v156h-559z" />
    <glyph glyph-name="uni0326" unicode="&#x326;" horiz-adv-x="913" 
d="M803 553h-694v328h694v-328z" />
    <glyph glyph-name="uni0327" unicode="&#x327;" horiz-adv-x="741" 
d="M692 553h-643v328h643v-328z" />
    <glyph glyph-name="uni0328" unicode="&#x328;" horiz-adv-x="753" 
d="M557 0h-362v1227h362v-1227z" />
    <glyph glyph-name="uni0329" unicode="&#x329;" horiz-adv-x="753" 
d="M557 0h-362v1227h362v-1227z" />
    <glyph glyph-name="uni032A" unicode="&#x32a;" horiz-adv-x="669" 
d="M336 1255q-94 0 -157.5 49t-63.5 140v2q0 91 62 139.5t157 48.5t158 -48t63 -140v-2q0 -89 -63.5 -139t-155.5 -50zM516 0h-362v1120h362v-1120z" />
    <glyph glyph-name="uni032B" unicode="&#x32b;" horiz-adv-x="753" 
d="M557 0h-362v1227h362v-1227zM377 1364q-94 0 -157.5 48.5t-63.5 139.5v2q0 91 62 140t157 49t158 -48.5t63 -140.5v-2q0 -89 -63.5 -138.5t-155.5 -49.5z" />
    <glyph glyph-name="uni032C" unicode="&#x32c;" horiz-adv-x="753" 
d="M557 0h-362v1227h362v-1227zM539 1380h-320l252 353h428v-25z" />
    <glyph glyph-name="uni032D" unicode="&#x32d;" horiz-adv-x="753" 
d="M557 0h-362v1227h362v-1227zM539 1380h-320l252 353h428v-25z" />
    <glyph glyph-name="uni032E" unicode="&#x32e;" horiz-adv-x="753" 
d="M557 0h-362v1227h362v-1227zM377 1364q-65 0 -123 9.5t-114 32t-96 57.5t-64.5 89.5t-24.5 124.5q0 62 14 117h262l-6 -59q0 -123 152 -123q149 0 149 121q0 16 -2 28l-4 33h262q15 -58 15 -119q0 -85 -36 -148t-98.5 -97t-133.5 -50t-152 -16z" />
    <glyph glyph-name="uni032F" unicode="&#x32f;" horiz-adv-x="753" 
d="M557 0h-362v1227h362v-1227zM377 1364q-65 0 -123 9.5t-114 32t-96 57.5t-64.5 89.5t-24.5 124.5q0 62 14 117h262l-6 -59q0 -123 152 -123q149 0 149 121q0 16 -2 28l-4 33h262q15 -58 15 -119q0 -85 -36 -148t-98.5 -97t-133.5 -50t-152 -16z" />
    <glyph glyph-name="uni0330" unicode="&#x330;" horiz-adv-x="753" 
d="M557 0h-362v1227h362v-1227zM219 1380h-332l275 385h430l274 -385h-334l-118 166h-76z" />
    <glyph glyph-name="uni0331" unicode="&#x331;" horiz-adv-x="753" 
d="M557 0h-362v1227h362v-1227zM219 1380h-332l275 385h430l274 -385h-334l-118 166h-76z" />
    <glyph glyph-name="uni0332" unicode="&#x332;" horiz-adv-x="753" 
d="M557 0h-362v1227h362v-1227zM109 1364q-84 0 -139.5 48.5t-55.5 131.5v2q0 84 55 131t140 47t139.5 -47t54.5 -131v-2q0 -83 -55 -131.5t-139 -48.5zM647 1364q-84 0 -139 48.5t-55 131.5v2q0 84 54.5 131t139.5 47t140 -47t55 -131v-2q0 -83 -55.5 -131.5t-139.5 -48.5z
" />
    <glyph glyph-name="uni0333" unicode="&#x333;" horiz-adv-x="753" 
d="M557 0h-362v1227h362v-1227zM109 1364q-84 0 -139.5 48.5t-55.5 131.5v2q0 84 55 131t140 47t139.5 -47t54.5 -131v-2q0 -83 -55 -131.5t-139 -48.5zM647 1364q-84 0 -139 48.5t-55 131.5v2q0 84 54.5 131t139.5 47t140 -47t55 -131v-2q0 -83 -55.5 -131.5t-139.5 -48.5z
" />
    <glyph glyph-name="uni0334" unicode="&#x334;" horiz-adv-x="753" 
d="M557 0h-362v1227h362v-1227zM283 1733l252 -353h-322l-358 328v25h428z" />
    <glyph glyph-name="uni0335" unicode="&#x335;" horiz-adv-x="753" 
d="M557 0h-362v1227h362v-1227zM283 1733l252 -353h-322l-358 328v25h428z" />
    <glyph glyph-name="uni0336" unicode="&#x336;" horiz-adv-x="753" 
d="M557 0h-362v1227h362v-1227zM786 1417h-819v252h819v-252z" />
    <glyph glyph-name="uni0337" unicode="&#x337;" horiz-adv-x="753" 
d="M557 0h-362v1227h362v-1227zM786 1417h-819v252h819v-252z" />
    <glyph glyph-name="uni0338" unicode="&#x338;" 
d="M1362 1018l-14 -244h-193q-29 -182 -160.5 -284.5t-318.5 -102.5h-2l573 -387h-522l-553 381v256h381q205 0 246 160h-627v211h627q-37 159 -285 159h-342v267h1219l-17 -267h-299q54 -63 74 -149h213z" />
    <glyph glyph-name="uni0339" unicode="&#x339;" horiz-adv-x="753" 
d="M592 -324v-251q-115 -37 -238 -37q-54 0 -102 6t-97.5 23t-84.5 44t-57.5 71.5t-22.5 102.5q0 155 205 314v1278h362v-1227l-111 -104q-141 -129 -141 -181q0 -73 123 -73q84 0 164 34z" />
    <glyph glyph-name="uni033A" unicode="&#x33a;" horiz-adv-x="753" 
d="M592 -324v-251q-115 -37 -238 -37q-54 0 -102 6t-97.5 23t-84.5 44t-57.5 71.5t-22.5 102.5q0 155 205 314v1278h362v-1227l-111 -104q-141 -129 -141 -181q0 -73 123 -73q84 0 164 34z" />
    <glyph glyph-name="uni033B" unicode="&#x33b;" horiz-adv-x="669" 
d="M336 1255q-94 0 -157.5 49t-63.5 140v2q0 91 62 139.5t157 48.5t158 -48t63 -140v-2q0 -89 -63.5 -139t-155.5 -50zM516 -350l-362 -119v1589h362v-1470z" />
    <glyph glyph-name="uni033C" unicode="&#x33c;" horiz-adv-x="1323" 
d="M131 90v334h2q207 -148 426 -148q227 0 227 191v469h-450l14 291h799v-817q0 -443 -553 -443q-260 0 -465 123z" />
    <glyph glyph-name="uni033D" unicode="&#x33d;" horiz-adv-x="1323" 
d="M131 90v334h2q207 -148 426 -148q227 0 227 191v469h-450l14 291h799v-817q0 -443 -553 -443q-260 0 -465 123z" />
    <glyph glyph-name="uni033E" unicode="&#x33e;" horiz-adv-x="1568" 
d="M555 0h-362v1227h362v-453h162l370 453h412v-2l-485 -586l508 -637v-2h-428l-383 473h-156v-473z" />
    <glyph glyph-name="uni033F" unicode="&#x33f;" horiz-adv-x="1568" 
d="M555 0h-362v1227h362v-453h162l370 453h412v-2l-485 -586l508 -637v-2h-428l-383 473h-156v-473z" />
    <glyph glyph-name="uni0340" unicode="&#x340;" horiz-adv-x="1568" 
d="M555 0h-362v1227h362v-453h162l370 453h412v-2l-485 -586l508 -637v-2h-428l-383 473h-156v-473zM705 -551h-218l117 434h383v-37z" />
    <glyph glyph-name="uni0341" unicode="&#x341;" horiz-adv-x="1568" 
d="M555 0h-362v1227h362v-453h162l370 453h412v-2l-485 -586l508 -637v-2h-428l-383 473h-156v-473zM705 -551h-218l117 434h383v-37z" />
    <glyph glyph-name="uni0342" unicode="&#x342;" horiz-adv-x="1300" 
d="M1212 0h-1019v1227h362v-918h672z" />
    <glyph glyph-name="uni0343" unicode="&#x343;" horiz-adv-x="1300" 
d="M1212 0h-1019v1227h362v-918h672z" />
    <glyph glyph-name="uni0344" unicode="&#x344;" horiz-adv-x="1300" 
d="M1212 0h-1019v1227h362v-918h672zM537 1380h-320l252 353h428v-25z" />
    <glyph glyph-name="uni0345" unicode="&#x345;" horiz-adv-x="1300" 
d="M1212 0h-1019v1227h362v-918h672zM537 1380h-320l252 353h428v-25z" />
    <glyph glyph-name="uni0346" unicode="&#x346;" horiz-adv-x="1300" 
d="M1212 0h-1019v1227h362v-918h672zM899 858h-194v367h348v-39z" />
    <glyph glyph-name="uni0347" unicode="&#x347;" horiz-adv-x="1300" 
d="M1212 0h-1019v1227h362v-918h672zM899 858h-194v367h348v-39z" />
    <glyph glyph-name="uni0348" unicode="&#x348;" horiz-adv-x="1300" 
d="M1212 0h-1019v1227h362v-918h672zM631 -600h-217l116 434h383v-37z" />
    <glyph glyph-name="uni0349" unicode="&#x349;" horiz-adv-x="1300" 
d="M1212 0h-1019v1227h362v-918h672zM631 -600h-217l116 434h383v-37z" />
    <glyph glyph-name="uni034A" unicode="&#x34a;" horiz-adv-x="1300" 
d="M1212 0h-1019v1227h362v-918h672zM1024 592q-88 0 -147.5 51t-59.5 137v2q0 87 58 138t147 51t148 -50.5t59 -138.5v-2q0 -85 -59 -136.5t-146 -51.5z" />
    <glyph glyph-name="uni034B" unicode="&#x34b;" horiz-adv-x="1300" 
d="M1212 0h-1019v1227h362v-918h672zM1024 592q-88 0 -147.5 51t-59.5 137v2q0 87 58 138t147 51t148 -50.5t59 -138.5v-2q0 -85 -59 -136.5t-146 -51.5z" />
    <glyph glyph-name="uni034C" unicode="&#x34c;" 
d="M1206 449v-349l-970 445v344l970 442v-348l-594 -266z" />
    <glyph glyph-name="uni034D" unicode="&#x34d;" horiz-adv-x="1380" 
d="M1294 0h-1022v387l-186 -84v281l186 84v559h363v-396l395 181v-283l-395 -178v-242h672z" />
    <glyph glyph-name="uni034E" unicode="&#x34e;" horiz-adv-x="1380" 
d="M1294 0h-1022v387l-186 -84v281l186 84v559h363v-396l395 181v-283l-395 -178v-242h672z" />
    <glyph glyph-name="uni034F" unicode="&#x34f;" horiz-adv-x="1896" 
d="M537 0h-344v1227h399l362 -604l349 604h403v-1227h-346v733h-8l-396 -659h-22l-391 653h-6v-727z" />
    <glyph glyph-name="uni0350" unicode="&#x350;" horiz-adv-x="1896" 
d="M537 0h-344v1227h399l362 -604l349 604h403v-1227h-346v733h-8l-396 -659h-22l-391 653h-6v-727z" />
    <glyph glyph-name="uni0351" unicode="&#x351;" 
d="M1270 555h-1057v324h1057v-324z" />
    <glyph glyph-name="uni0352" unicode="&#x352;" 
d="M522 719l-354 348l215 219l358 -352l359 352l215 -219l-354 -348l354 -350l-215 -219l-359 352l-358 -352l-215 219z" />
    <glyph glyph-name="uni0353" unicode="&#x353;" horiz-adv-x="1652" 
d="M539 0h-346v1227h378l537 -715h6v715h348v-1227h-364l-553 735h-6v-735z" />
    <glyph glyph-name="uni0354" unicode="&#x354;" horiz-adv-x="1652" 
d="M539 0h-346v1227h378l537 -715h6v715h348v-1227h-364l-553 735h-6v-735z" />
    <glyph glyph-name="uni0355" unicode="&#x355;" horiz-adv-x="1652" 
d="M539 0h-346v1227h378l537 -715h6v715h348v-1227h-364l-553 735h-6v-735zM989 1327h-319l252 352h428v-24z" />
    <glyph glyph-name="uni0356" unicode="&#x356;" horiz-adv-x="1652" 
d="M539 0h-346v1227h378l537 -715h6v715h348v-1227h-364l-553 735h-6v-735zM989 1327h-319l252 352h428v-24z" />
    <glyph glyph-name="uni0357" unicode="&#x357;" horiz-adv-x="0" 
 />
    <glyph glyph-name="uni0358" unicode="&#x358;" horiz-adv-x="1652" 
d="M539 0h-346v1227h378l537 -715h6v715h348v-1227h-364l-553 735h-6v-735zM1012 1712h331l-274 -385h-430l-274 385h333l119 -164h76z" />
    <glyph glyph-name="uni0359" unicode="&#x359;" horiz-adv-x="1652" 
d="M539 0h-346v1227h378l537 -715h6v715h348v-1227h-364l-553 735h-6v-735zM1012 1712h331l-274 -385h-430l-274 385h333l119 -164h76z" />
    <glyph glyph-name="uni035A" unicode="&#x35a;" horiz-adv-x="1652" 
d="M539 0h-346v1227h378l537 -715h6v715h348v-1227h-364l-553 735h-6v-735zM733 -549h-217l117 434h383v-37z" />
    <glyph glyph-name="uni035B" unicode="&#x35b;" horiz-adv-x="1652" 
d="M539 0h-346v1227h378l537 -715h6v715h348v-1227h-364l-553 735h-6v-735zM733 -549h-217l117 434h383v-37z" />
    <glyph glyph-name="uni035C" unicode="&#x35c;" horiz-adv-x="1417" 
d="M684 1262q161 0 283 -50.5t198 -144.5t114 -221t38 -285q0 -176 -49.5 -324t-143 -255.5t-237 -167.5t-322.5 -60q-206 0 -383 62v301h2q204 -68 359 -68q172 0 284 86t138 252q-169 -100 -371 -100q-104 0 -193.5 27t-158 80t-107.5 138t-39 193q0 167 79 290.5t211 185
t298 61.5zM438 741q0 -98 71 -145t175 -47q140 0 285 86q0 334 -293 334q-102 0 -170 -63.5t-68 -164.5z" />
    <glyph glyph-name="uni035D" unicode="&#x35d;" 
d="M717 1473q167 0 293.5 -52t206 -148t119.5 -227.5t40 -295.5q0 -359 -198 -572t-553 -213q-231 0 -443 90v316h2q256 -107 424 -107q386 0 416 350q-167 -118 -401 -118q-111 0 -204.5 25t-168.5 76.5t-117.5 138.5t-42.5 202q0 128 52 232t140.5 169t200 99.5
t234.5 34.5zM438 956q0 -55 23.5 -94t64.5 -58.5t84.5 -27.5t96.5 -8q157 0 317 100q-9 178 -102 244q-95 68 -217 68q-113 0 -190 -57.5t-77 -166.5z" />
    <glyph glyph-name="uni035E" unicode="&#x35e;" horiz-adv-x="888" 
d="M801 442q0 -217 -120 -344t-335 -127q-132 0 -268 47v224h2q127 -56 252 -56q206 0 215 174q-96 -57 -223 -57q-301 0 -301 256q0 78 31 139t84 98.5t119.5 56.5t141.5 19q402 0 402 -430zM381 485q95 0 166 41q-9 140 -146 140q-129 0 -129 -99q0 -82 109 -82z" />
    <glyph glyph-name="uni035F" unicode="&#x35f;" horiz-adv-x="888" 
d="M862 1028q0 -217 -119.5 -344t-334.5 -127q-133 0 -269 47v223h2q125 -55 252 -55q206 0 215 174q-96 -57 -223 -57q-301 0 -301 256q0 103 54.5 175.5t137.5 105t185 32.5q401 0 401 -430zM442 1071q95 0 166 41q-9 139 -145 139q-129 0 -129 -98q0 -82 108 -82z" />
    <glyph glyph-name="uni0360" unicode="&#x360;" horiz-adv-x="1652" 
d="M539 0h-346v1227h378l537 -715h6v715h348v-1227h-364l-553 735h-6v-735zM1257 1759v-297q-104 -104 -227 -104q-69 0 -223 65q-109 47 -145 47q-93 0 -211 -133h-2v295q105 105 225 105q68 0 225 -66q103 -47 145 -47q94 0 211 135h2z" />
    <glyph glyph-name="uni0361" unicode="&#x361;" horiz-adv-x="1652" 
d="M539 0h-346v1227h378l537 -715h6v715h348v-1227h-364l-553 735h-6v-735zM1257 1759v-297q-104 -104 -227 -104q-69 0 -223 65q-109 47 -145 47q-93 0 -211 -133h-2v295q105 105 225 105q68 0 225 -66q103 -47 145 -47q94 0 211 135h2z" />
    <glyph glyph-name="uni0362" unicode="&#x362;" 
d="M440 0h-301l51 258h-174v266h226l75 383h-217v269h269l51 258h303l-51 -258h319l51 258h301l-51 -258h174v-269h-225l-76 -383h217v-266h-268l-51 -258h-303l51 258h-319zM618 907l-75 -383h319l76 383h-320z" />
    <glyph glyph-name="uni0363" unicode="&#x363;" horiz-adv-x="1654" 
d="M825 -43q-153 0 -282 42.5t-224 123.5t-148.5 205t-53.5 280q0 208 93.5 359t253 226t365.5 75q154 0 283.5 -42.5t225 -123.5t149 -206t53.5 -282q0 -156 -54 -281.5t-150.5 -207t-226.5 -125t-284 -43.5zM829 268q162 0 253.5 90.5t91.5 251.5t-94.5 253.5t-254.5 92.5
q-158 0 -250 -92t-92 -250q0 -163 91.5 -254.5t254.5 -91.5z" />
    <glyph glyph-name="uni0364" unicode="&#x364;" horiz-adv-x="1654" 
d="M825 -43q-153 0 -282 42.5t-224 123.5t-148.5 205t-53.5 280q0 208 93.5 359t253 226t365.5 75q154 0 283.5 -42.5t225 -123.5t149 -206t53.5 -282q0 -156 -54 -281.5t-150.5 -207t-226.5 -125t-284 -43.5zM829 268q162 0 253.5 90.5t91.5 251.5t-94.5 253.5t-254.5 92.5
q-158 0 -250 -92t-92 -250q0 -163 91.5 -254.5t254.5 -91.5zM963 1419h-320l252 353h428v-25z" />
    <glyph glyph-name="uni0365" unicode="&#x365;" horiz-adv-x="1654" 
d="M825 -43q-153 0 -282 42.5t-224 123.5t-148.5 205t-53.5 280q0 208 93.5 359t253 226t365.5 75q154 0 283.5 -42.5t225 -123.5t149 -206t53.5 -282q0 -156 -54 -281.5t-150.5 -207t-226.5 -125t-284 -43.5zM829 268q162 0 253.5 90.5t91.5 251.5t-94.5 253.5t-254.5 92.5
q-158 0 -250 -92t-92 -250q0 -163 91.5 -254.5t254.5 -91.5zM963 1419h-320l252 353h428v-25z" />
    <glyph glyph-name="uni0366" unicode="&#x366;" horiz-adv-x="1654" 
d="M825 -43q-153 0 -282 42.5t-224 123.5t-148.5 205t-53.5 280q0 208 93.5 359t253 226t365.5 75q154 0 283.5 -42.5t225 -123.5t149 -206t53.5 -282q0 -156 -54 -281.5t-150.5 -207t-226.5 -125t-284 -43.5zM829 268q162 0 253.5 90.5t91.5 251.5t-94.5 253.5t-254.5 92.5
q-158 0 -250 -92t-92 -250q0 -163 91.5 -254.5t254.5 -91.5zM827 1403q-65 0 -123 9.5t-113.5 32t-95.5 57.5t-64.5 89.5t-24.5 124.5q0 62 14 117h262l-6 -59q0 -123 151 -123q150 0 150 121q0 16 -2 28l-4 33h262q14 -55 14 -119q0 -85 -36 -148t-98.5 -97t-133.5 -50
t-152 -16z" />
    <glyph glyph-name="uni0367" unicode="&#x367;" horiz-adv-x="1654" 
d="M825 -43q-153 0 -282 42.5t-224 123.5t-148.5 205t-53.5 280q0 208 93.5 359t253 226t365.5 75q154 0 283.5 -42.5t225 -123.5t149 -206t53.5 -282q0 -156 -54 -281.5t-150.5 -207t-226.5 -125t-284 -43.5zM829 268q162 0 253.5 90.5t91.5 251.5t-94.5 253.5t-254.5 92.5
q-158 0 -250 -92t-92 -250q0 -163 91.5 -254.5t254.5 -91.5zM827 1403q-65 0 -123 9.5t-113.5 32t-95.5 57.5t-64.5 89.5t-24.5 124.5q0 62 14 117h262l-6 -59q0 -123 151 -123q150 0 150 121q0 16 -2 28l-4 33h262q14 -55 14 -119q0 -85 -36 -148t-98.5 -97t-133.5 -50
t-152 -16z" />
    <glyph glyph-name="uni0368" unicode="&#x368;" horiz-adv-x="1654" 
d="M825 -43q-153 0 -282 42.5t-224 123.5t-148.5 205t-53.5 280q0 208 93.5 359t253 226t365.5 75q154 0 283.5 -42.5t225 -123.5t149 -206t53.5 -282q0 -156 -54 -281.5t-150.5 -207t-226.5 -125t-284 -43.5zM829 268q162 0 253.5 90.5t91.5 251.5t-94.5 253.5t-254.5 92.5
q-158 0 -250 -92t-92 -250q0 -163 91.5 -254.5t254.5 -91.5zM670 1419h-332l274 385h430l275 -385h-334l-119 166h-76z" />
    <glyph glyph-name="uni0369" unicode="&#x369;" horiz-adv-x="1654" 
d="M825 -43q-153 0 -282 42.5t-224 123.5t-148.5 205t-53.5 280q0 208 93.5 359t253 226t365.5 75q154 0 283.5 -42.5t225 -123.5t149 -206t53.5 -282q0 -156 -54 -281.5t-150.5 -207t-226.5 -125t-284 -43.5zM829 268q162 0 253.5 90.5t91.5 251.5t-94.5 253.5t-254.5 92.5
q-158 0 -250 -92t-92 -250q0 -163 91.5 -254.5t254.5 -91.5zM670 1419h-332l274 385h430l275 -385h-334l-119 166h-76z" />
    <glyph glyph-name="uni036A" unicode="&#x36a;" horiz-adv-x="1654" 
d="M825 -43q-153 0 -282 42.5t-224 123.5t-148.5 205t-53.5 280q0 208 93.5 359t253 226t365.5 75q154 0 283.5 -42.5t225 -123.5t149 -206t53.5 -282q0 -156 -54 -281.5t-150.5 -207t-226.5 -125t-284 -43.5zM829 268q162 0 253.5 90.5t91.5 251.5t-94.5 253.5t-254.5 92.5
q-158 0 -250 -92t-92 -250q0 -163 91.5 -254.5t254.5 -91.5zM559 1403q-84 0 -139 48.5t-55 131.5v2q0 84 54.5 131t139.5 47t140 -47t55 -131v-2q0 -83 -55.5 -131.5t-139.5 -48.5zM1098 1403q-84 0 -139.5 48.5t-55.5 131.5v2q0 84 55 131t140 47t139.5 -47t54.5 -131v-2
q0 -83 -55 -131.5t-139 -48.5z" />
    <glyph glyph-name="uni036B" unicode="&#x36b;" horiz-adv-x="1654" 
d="M825 -43q-153 0 -282 42.5t-224 123.5t-148.5 205t-53.5 280q0 208 93.5 359t253 226t365.5 75q154 0 283.5 -42.5t225 -123.5t149 -206t53.5 -282q0 -156 -54 -281.5t-150.5 -207t-226.5 -125t-284 -43.5zM829 268q162 0 253.5 90.5t91.5 251.5t-94.5 253.5t-254.5 92.5
q-158 0 -250 -92t-92 -250q0 -163 91.5 -254.5t254.5 -91.5zM559 1403q-84 0 -139 48.5t-55 131.5v2q0 84 54.5 131t139.5 47t140 -47t55 -131v-2q0 -83 -55.5 -131.5t-139.5 -48.5zM1098 1403q-84 0 -139.5 48.5t-55.5 131.5v2q0 84 55 131t140 47t139.5 -47t54.5 -131v-2
q0 -83 -55 -131.5t-139 -48.5z" />
    <glyph glyph-name="uni036C" unicode="&#x36c;" horiz-adv-x="2281" 
d="M117 612q0 290 168.5 452.5t459.5 162.5h1377l14 -285h-733v-199h577v-258h-577v-200h760l-15 -285h-1403q-290 0 -459 161.5t-169 450.5zM1042 295v637h-249q-310 0 -310 -318q0 -319 310 -319h249z" />
    <glyph glyph-name="uni036D" unicode="&#x36d;" horiz-adv-x="2281" 
d="M117 612q0 290 168.5 452.5t459.5 162.5h1377l14 -285h-733v-199h577v-258h-577v-200h760l-15 -285h-1403q-290 0 -459 161.5t-169 450.5zM1042 295v637h-249q-310 0 -310 -318q0 -319 310 -319h249z" />
    </font>
</defs>
</svg>
