<?xml version="1.0" standalone="no"?>
<!DOCTYPE svg PUBLIC "-//W3C//DTD SVG 1.1//EN" "http://www.w3.org/Graphics/SVG/1.1/DTD/svg11.dtd" >
<svg xmlns="http://www.w3.org/2000/svg" xmlns:xlink="http://www.w3.org/1999/xlink" version="1.1">
<metadata>
Created by FontForge 20201107 at Tue Oct 15 22:43:32 2019
 By 
Copyright (c) 2019 by Hoefler &#38; Co. All rights reserved.
</metadata>
<defs>
<font id="DecimalLight" horiz-adv-x="801" >
  <font-face 
    font-family="Decimal Light"
    font-weight="300"
    font-stretch="normal"
    units-per-em="1000"
    panose-1="2 0 4 0 0 0 0 0 0 0"
    ascent="800"
    descent="-200"
    x-height="528"
    cap-height="700"
    bbox="-169 -338 1971 1309"
    underline-thickness="0"
    underline-position="0"
    unicode-range="U+0020-FEFF"
  />
<missing-glyph horiz-adv-x="448" 
d="M-1 -180v900h450v-900h-450zM224 324l161 351h-322zM44 -68l155 338l-155 338v-676zM404 -68v676l-155 -338zM63 -135h322l-161 351z" />
    <glyph glyph-name=".notdef" horiz-adv-x="448" 
d="M-1 -180v900h450v-900h-450zM224 324l161 351h-322zM44 -68l155 338l-155 338v-676zM404 -68v676l-155 -338zM63 -135h322l-161 351z" />
    <glyph glyph-name=".null" horiz-adv-x="0" 
 />
    <glyph glyph-name="uni000D" horiz-adv-x="250" 
 />
    <glyph glyph-name="space" unicode=" " horiz-adv-x="274" 
 />
    <glyph glyph-name="exclam" unicode="!" horiz-adv-x="374" 
d="M158 223l-19 476v1h96v-1l-19 -476h-58zM142 6q-16 16 -16 39v1q0 23 16 39q17 17 45 17q27 0 46 -17q16 -16 16 -39v-1q0 -23 -16 -39q-18 -18 -46 -18t-45 18z" />
    <glyph glyph-name="quotedbl" unicode="&#x22;" horiz-adv-x="531" 
d="M113 427v273h92v-6l-47 -267h-45zM342 427v273h92v-6l-47 -267h-45z" />
    <glyph glyph-name="numbersign" unicode="#" horiz-adv-x="931" 
d="M168 0l40 164h-144v58h159l62 256h-159v58h174l40 164h68l-40 -164h288l40 164h67l-40 -164h144v-58h-159l-62 -256h159v-58h-174l-40 -164h-67l40 164h-288l-40 -164h-68zM291 222h288l62 256h-288z" />
    <glyph glyph-name="dollar" unicode="$" horiz-adv-x="723" 
d="M335 -114v129q-129 12 -240 77v74h1q135 -87 288 -87q88 0 136 33q47 32 47 86q0 49 -42 76q-44 28 -165 52q-60 11 -105.5 26t-77.5 32q-66 35 -66 117q0 73 61 125q59 52 167 59v120h69v-121q118 -9 209 -64v-75h-1q-112 76 -250 76q-81 0 -130 -31t-49 -82
q0 -47 45 -73q41 -23 166 -49q117 -23 181 -62t64 -120q0 -76 -55 -127q-62 -58 -185 -64v-119z" />
    <glyph glyph-name="percent" unicode="%" horiz-adv-x="1039" 
d="M114 412q-51 48 -51 126q0 79 52 127q53 48 133 48q83 0 134 -48t51 -127q0 -78 -52 -126t-133 -48q-83 0 -134 48zM166 1l316 349l316 350h74v-1l-316 -349l-315 -350h-75v1zM337 450q35 33 35 87q0 53 -35 88q-34 34 -89 34q-54 0 -89 -32q-35 -35 -35 -89t35 -87
q34 -34 89 -34t89 33zM924 288q51 -48 51 -126t-51 -126q-52 -49 -134 -49t-133 48t-51 127q0 78 52 126q53 48 133 48q82 0 133 -48zM702 250q-35 -33 -35 -87q0 -53 35 -88q34 -34 89 -34q54 0 89 32q34 33 34 89q0 53 -35 88q-34 33 -89 33t-88 -33z" />
    <glyph glyph-name="ampersand" unicode="&#x26;" horiz-adv-x="869" 
d="M132 27q-56 45 -56 125q0 73 55 134q49 55 166 125l40 23l-172 194v72h512l4 -64h-429l357 -404l196 184h1v-85l-157 -146l163 -185h-90l-124 139q-43 -34 -82.5 -62t-77.5 -50q-76 -43 -165 -43q-88 0 -141 43zM187 78q37 -29 94 -29q110 0 276 138l-179 201l-34 -21
q-106 -64 -147 -106q-47 -50 -47 -103q0 -52 37 -80z" />
    <glyph glyph-name="quotesingle" unicode="'" horiz-adv-x="303" 
d="M113 427v273h92v-6l-47 -267h-45z" />
    <glyph glyph-name="parenleft" unicode="(" horiz-adv-x="431" 
d="M351 -186h-83q-188 226 -188 466q0 239 188 466h83q-196 -235 -196 -466t196 -466z" />
    <glyph glyph-name="parenright" unicode=")" horiz-adv-x="431" 
d="M80 746h83q188 -226 188 -466q0 -239 -188 -466h-83q196 235 196 466t-196 466z" />
    <glyph glyph-name="asterisk" unicode="*" horiz-adv-x="493" 
d="M350 383l-89 77l-46 -106l-23 5l5 115l-113 -30l-10 21l96 70l-94 67l9 22l111 -29l-5 115l24 5l47 -107l89 77l18 -15l-54 -102l113 -21v-24l-115 -21l56 -103z" />
    <glyph glyph-name="plus" unicode="+" horiz-adv-x="734" 
d="M101 317v66h231v233h70v-233h231v-66h-231v-233h-70v233h-231z" />
    <glyph glyph-name="comma" unicode="," horiz-adv-x="317" 
d="M67 -163l60 284h101v-6l-116 -278h-45z" />
    <glyph glyph-name="hyphen" unicode="-" horiz-adv-x="436" 
d="M56 282v70h324v-70h-324z" />
    <glyph glyph-name="period" unicode="." horiz-adv-x="347" 
d="M128 6q-16 16 -16 39v1q0 23 16 39q17 17 46 17q28 0 45 -17q16 -16 16 -39v-1q0 -23 -16 -39q-16 -18 -45 -18t-46 18z" />
    <glyph glyph-name="slash" unicode="/" horiz-adv-x="521" 
d="M74 -186l314 932h69l-314 -932h-69z" />
    <glyph glyph-name="zero" unicode="0" horiz-adv-x="774" 
d="M149 87q-80 98 -80 262t81 263q86 104 237 104q152 0 237 -103q81 -97 81 -262t-82 -263q-86 -104 -236 -104q-154 0 -238 103zM568 132q61 79 61 218q0 138 -62 218q-64 82 -180 82q-117 0 -181 -82q-61 -79 -61 -218q0 -138 62 -218q64 -82 180 -82q117 0 181 82z" />
    <glyph glyph-name="one" unicode="1" horiz-adv-x="450" 
d="M217 0v635h-161l10 65h225v-700h-74z" />
    <glyph glyph-name="two" unicode="2" horiz-adv-x="687" 
d="M74 0v65l258 217q128 107 150 132q49 52 49 111q0 55 -41 90q-43 35 -119 35q-141 0 -272 -117h-1v77q124 106 274 106q111 0 175 -53q61 -49 61 -133q0 -77 -55 -141q-35 -41 -164 -146l-211 -177h444v-66h-548z" />
    <glyph glyph-name="three" unicode="3" horiz-adv-x="696" 
d="M71 43v73h1q138 -67 266 -67q97 0 155 43q56 41 56 108q0 142 -282 142h-37v43l286 249h-431l4 66h529v-60l-285 -244q293 -11 293 -193q0 -97 -78 -159q-79 -60 -208 -60q-128 0 -269 59z" />
    <glyph glyph-name="four" unicode="4" horiz-adv-x="755" 
d="M507 1v178h-441v56l284 465h228v-458h144l-3 -63h-141v-178h-71zM507 634h-120l-238 -392h358v392z" />
    <glyph glyph-name="five" unicode="5" horiz-adv-x="706" 
d="M80 38v73h1q135 -61 263 -61q105 0 161 47q48 41 48 104q0 55 -32 87q-54 55 -249 55h-161l10 357h470l4 -66h-406l-7 -225h110q217 0 293 -76q46 -46 46 -129q0 -96 -74 -156q-77 -64 -212 -64q-131 0 -265 54z" />
    <glyph glyph-name="six" unicode="6" horiz-adv-x="714" 
d="M157 69q-85 89 -85 254q0 188 101 295q95 98 248 98q106 0 200 -48v-70h-1q-103 53 -198 53q-121 0 -192 -70q-80 -80 -84 -230q102 90 249 90q119 0 187 -55q70 -55 70 -156q0 -113 -83 -181q-80 -65 -195 -65q-138 0 -217 85zM146 292q5 -118 68 -182q62 -62 164 -62
q83 0 139 46q61 49 61 133q0 74 -56 115q-52 37 -142 37q-130 0 -234 -87z" />
    <glyph glyph-name="seven" unicode="7" horiz-adv-x="685" 
d="M78 488v212h551v-125l-331 -575h-82l340 591v44h-409v-147h-69z" />
    <glyph glyph-name="eight" unicode="8" horiz-adv-x="736" 
d="M150 33q-75 53 -75 142q0 134 172 177q-156 38 -156 167q0 87 73 144q74 56 205 56t204 -57t73 -143q0 -129 -156 -167q172 -43 172 -177q0 -89 -74 -142q-77 -55 -219 -55t-219 55zM515 414q55 36 55 101q0 64 -54 103q-55 39 -147 39q-93 0 -148 -38q-54 -39 -54 -104
t56 -101q54 -36 146 -36t146 36zM529 78q57 38 57 103q0 68 -61 105q-58 37 -156 37t-157 -36q-61 -39 -61 -106q0 -66 58 -103q59 -38 160 -38t160 38z" />
    <glyph glyph-name="nine" unicode="9" horiz-adv-x="714" 
d="M557 631q85 -89 85 -254q0 -188 -101 -295q-95 -98 -248 -98q-105 0 -200 48v70h1q103 -53 198 -53q119 0 192 71q80 78 84 229q-102 -90 -249 -90q-119 0 -187 55q-70 55 -70 156q0 113 84 182q77 64 194 64q138 0 217 -85zM192 358q52 -37 142 -37q131 0 234 87
q-4 119 -68 182q-62 62 -164 62q-83 0 -139 -46q-61 -49 -61 -133q0 -74 56 -115z" />
    <glyph glyph-name="colon" unicode=":" horiz-adv-x="347" 
d="M128 363q-16 16 -16 39v1q0 23 16 39q17 18 46 18t45 -18q16 -16 16 -39v-1q0 -23 -16 -39q-16 -18 -45 -18t-46 18zM128 6q-16 16 -16 39v1q0 23 16 39q17 17 46 17q28 0 45 -17q16 -16 16 -39v-1q0 -23 -16 -39q-16 -18 -45 -18t-46 18z" />
    <glyph glyph-name="semicolon" unicode=";" horiz-adv-x="347" 
d="M128 363q-16 16 -16 39v1q0 23 16 39q17 18 46 18t45 -18q16 -16 16 -39v-1q0 -23 -16 -39q-16 -18 -45 -18t-46 18zM67 -163l60 284h101v-6l-116 -278h-45z" />
    <glyph glyph-name="less" unicode="&#x3c;" horiz-adv-x="674" 
d="M537 95l-424 222v71l424 221v-74l-349 -183l349 -184v-73z" />
    <glyph glyph-name="equal" unicode="=" horiz-adv-x="767" 
d="M119 454v65h529v-65h-529zM119 181v65h529v-65h-529z" />
    <glyph glyph-name="greater" unicode="&#x3e;" horiz-adv-x="674" 
d="M137 604l424 -222v-71l-424 -221v74l349 183l-349 184v73z" />
    <glyph glyph-name="question" unicode="?" horiz-adv-x="641" 
d="M49 635q146 81 299 81q120 0 190 -48q74 -50 74 -138t-84 -150q-85 -61 -282 -120h-1v66q82 26 139 50.5t89 47.5q63 45 63 104t-52 92q-49 31 -139 31q-144 0 -295 -91h-1v75zM238 6q-16 16 -16 39v1q0 23 16 39q17 17 45 17t45 -17q16 -16 16 -39v-1q0 -23 -16 -39
q-16 -18 -45 -18q-28 0 -45 18z" />
    <glyph glyph-name="at" unicode="@" horiz-adv-x="1099" 
d="M688 208q-83 -83 -176 -83q-59 0 -94 29t-35 76q0 45 30 75q57 57 265 68v20q0 97 -102 97q-87 0 -165 -60h-1v58q77 56 173 56q156 0 156 -152v-123q0 -94 84 -94q124 0 124 203q0 143 -88 231q-98 95 -272 95q-191 0 -304 -104q-115 -106 -115 -293q0 -177 107 -272
q104 -90 287 -90q166 0 302 70v-60q-127 -66 -303 -66q-218 0 -336 109q-120 111 -119 309q0 210 134 333q131 120 346 120q198 0 312 -108q109 -103 109 -273q0 -118 -47 -186q-49 -69 -140 -69q-109 0 -132 84zM678 246v86q-174 -10 -216 -52q-10 -10 -15 -24
q-3 -10 -3 -22q0 -61 80 -61q81 0 154 73z" />
    <glyph glyph-name="A" unicode="A" horiz-adv-x="836" 
d="M57 0l287 700h149l287 -700h-80l-83 202h-399l-83 -202h-78zM394 629l-148 -360h344l-148 360h-48z" />
    <glyph glyph-name="B" unicode="B" horiz-adv-x="814" 
d="M125 0v700h375q108 0 166 -45q59 -47 59 -130q0 -134 -146 -163q160 -37 160 -170q0 -192 -256 -192h-358zM199 390h287q163 0 163 123q0 120 -154 120h-296v-243zM199 67l284 1q181 0 181 131q0 59 -44 94q-46 35 -130 35h-291v-261z" />
    <glyph glyph-name="C" unicode="C" horiz-adv-x="804" 
d="M171 90q-96 98 -96 258q0 157 102 259q107 107 282 107q146 0 264 -88v-80h-1q-137 98 -265 98q-137 0 -221 -84q-83 -83 -83 -211q0 -131 80 -211q81 -82 221 -82q138 0 268 96h1v-80q-119 -86 -273 -86q-178 0 -279 104z" />
    <glyph glyph-name="D" unicode="D" horiz-adv-x="868" 
d="M125 0v700h314q169 0 260 -93q92 -92 92 -256q0 -162 -91 -256q-92 -95 -261 -95h-314zM201 69h237q134 0 204 73q71 73 71 208q0 134 -71 208q-70 73 -204 73h-237v-562z" />
    <glyph glyph-name="E" unicode="E" horiz-adv-x="774" 
d="M125 0v700h559l4 -69h-487v-234h403v-69h-403v-259h503l-3 -69h-576z" />
    <glyph glyph-name="F" unicode="F" horiz-adv-x="739" 
d="M125 0v700h556l4 -69h-484v-247h410v-69h-410v-315h-76z" />
    <glyph glyph-name="G" unicode="G" horiz-adv-x="877" 
d="M176 82q-101 98 -101 258q0 161 105 266q108 108 284 108q168 0 271 -88v-79h-1q-115 97 -271 97q-142 0 -227 -85q-83 -83 -83 -218q0 -131 79 -210q81 -81 220 -81q126 0 203 68q74 69 79 188h-314v64h389q1 -5 1 -14v-23q-1 -167 -104 -262q-98 -89 -258 -89
q-171 0 -272 100z" />
    <glyph glyph-name="H" unicode="H" horiz-adv-x="875" 
d="M125 0v700h76v-303h473v303h76v-700h-76v327h-473v-327h-76z" />
    <glyph glyph-name="I" unicode="I" horiz-adv-x="334" 
d="M129 0v700h76v-700h-76z" />
    <glyph glyph-name="J" unicode="J" horiz-adv-x="725" 
d="M78 69v80h1q125 -95 262 -95q193 0 193 186v391h-312l4 69h384v-471q0 -120 -71 -183q-68 -61 -198 -61q-138 0 -263 84z" />
    <glyph glyph-name="K" unicode="K" horiz-adv-x="806" 
d="M125 0v700h76v-308h182l277 308h89l-305 -339l327 -361h-94l-298 324h-178v-324h-76z" />
    <glyph glyph-name="L" unicode="L" horiz-adv-x="699" 
d="M125 0v700h76v-630h449l-4 -70h-521z" />
    <glyph glyph-name="M" unicode="M" horiz-adv-x="1025" 
d="M125 0v700h105l283 -502l281 502h106v-700h-76v588h-12l-297 -524h-8l-295 524h-13v-588h-74z" />
    <glyph glyph-name="N" unicode="N" horiz-adv-x="877" 
d="M125 0v700h100l441 -592h11v592h75v-700h-96l-445 598h-12v-598h-74z" />
    <glyph glyph-name="O" unicode="O" horiz-adv-x="911" 
d="M178 82q-103 99 -103 268q0 167 103 267q104 101 277 101q175 0 278 -100q103 -99 103 -268q0 -167 -103 -267q-104 -101 -278 -101q-176 0 -277 100zM676 132q82 81 82 218t-81 219q-81 81 -221 81t-221 -81q-82 -82 -82 -219t81 -218q81 -82 221 -82q139 0 221 82z" />
    <glyph glyph-name="P" unicode="P" horiz-adv-x="777" 
d="M125 0v700h328q131 0 199 -61q68 -62 68 -173q0 -117 -72 -180q-73 -62 -201 -62h-246v-224h-76zM201 293h247q195 0 195 170q0 168 -196 168h-246v-338z" />
    <glyph glyph-name="Q" unicode="Q" horiz-adv-x="917" 
d="M733 618q103 -99 103 -268q0 -130 -72 -228l100 -73v-80h-1l-144 103q-103 -90 -264 -90q-176 0 -277 100q-103 99 -103 268q0 167 103 267q104 101 277 101q175 0 278 -100zM235 569q-82 -82 -82 -219t82 -218q81 -82 221 -82q123 0 205 65l-221 155l41 55l225 -161
q53 77 53 186q0 137 -81 219q-82 81 -222 81t-221 -81z" />
    <glyph glyph-name="R" unicode="R" horiz-adv-x="807" 
d="M125 0v700h351q122 0 189 -59q63 -58 63 -164q0 -89 -46 -144q-45 -57 -136 -74l203 -259h-91l-190 249h-267v-249h-76zM201 316h273q96 0 136 46q41 47 41 112t-41 112q-40 45 -136 45h-273v-315z" />
    <glyph glyph-name="S" unicode="S" horiz-adv-x="760" 
d="M84 64v80h1q152 -90 315 -90q98 0 155 36q55 36 55 97q0 55 -50 84q-24 13 -70 26t-115 26q-130 24 -201 63t-71 126q0 89 75 144q80 60 213 60q146 0 268 -68v-81h-1q-124 79 -273 79q-92 0 -148 -35q-55 -34 -55 -91q0 -59 58 -84q57 -25 176 -48q143 -25 203 -64
q70 -45 70 -132q0 -88 -67 -143q-77 -65 -223 -65q-172 0 -315 80z" />
    <glyph glyph-name="T" unicode="T" horiz-adv-x="758" 
d="M341 0v630h-295l4 70h657l4 -70h-294v-630h-76z" />
    <glyph glyph-name="U" unicode="U" horiz-adv-x="863" 
d="M114 266v434h76v-429q0 -218 242 -218q241 0 241 215v432h76v-432q0 -285 -318 -285q-317 0 -317 283z" />
    <glyph glyph-name="V" unicode="V" horiz-adv-x="812" 
d="M329 0l-272 700h82l245 -629h46l244 629h82l-272 -700h-155z" />
    <glyph glyph-name="W" unicode="W" horiz-adv-x="1258" 
d="M280 0l-210 700h80l185 -626h36l216 626h89l215 -626h36l183 626h79l-210 -700h-137l-205 598h-13l-206 -598h-138z" />
    <glyph glyph-name="X" unicode="X" horiz-adv-x="813" 
d="M143 0h-91l305 362l-285 338h93l243 -290l242 290h91l-284 -338l304 -362h-93l-261 314z" />
    <glyph glyph-name="Y" unicode="Y" horiz-adv-x="797" 
d="M360 0v238l-317 462h89l264 -388h5l266 388h87l-318 -460v-240h-76z" />
    <glyph glyph-name="Z" unicode="Z" horiz-adv-x="789" 
d="M85 0v71l521 560h-508l4 69h605v-65l-527 -566h527v-69h-622z" />
    <glyph glyph-name="bracketleft" unicode="[" horiz-adv-x="460" 
d="M113 -186v932h274v-59h-204v-814h204v-59h-274z" />
    <glyph glyph-name="backslash" unicode="\" horiz-adv-x="521" 
d="M447 -186h-69l-314 932h70z" />
    <glyph glyph-name="bracketright" unicode="]" horiz-adv-x="460" 
d="M347 746v-932h-274v59h204v814h-204v59h274z" />
    <glyph glyph-name="asciicircum" unicode="^" horiz-adv-x="693" 
d="M91 379l191 321h127l193 -321h-80l-152 253h-50l-150 -253h-79z" />
    <glyph glyph-name="underscore" unicode="_" horiz-adv-x="718" 
d="M-3 -137v62h724v-62h-724z" />
    <glyph glyph-name="grave" unicode="`" horiz-adv-x="500" 
d="M351 636h-69l-163 161v3h99z" />
    <glyph glyph-name="a" unicode="a" horiz-adv-x="636" 
d="M118 24q-46 37 -46 101q0 57 41 98q35 35 116 59q42 13 101 20.5t137 11.5v28q0 137 -145 137q-110 0 -217 -81h-1v71q103 73 228 73q207 0 207 -200v-342h-68l-2 94q-97 -108 -225 -108q-79 0 -126 38zM467 145v120q-238 -14 -297 -73q-26 -28 -26 -63q0 -41 32 -64
t83 -23q114 0 208 103z" />
    <glyph glyph-name="b" unicode="b" horiz-adv-x="694" 
d="M176 746v-294q83 90 203 90q108 0 179 -71q73 -73 73 -191q0 -130 -82 -212q-81 -82 -206 -82q-90 0 -187 47h-52v713h72zM176 393v-297q80 -49 166 -49q91 0 153 62q63 65 63 167q0 95 -55 150q-55 54 -140 54q-110 0 -187 -87z" />
    <glyph glyph-name="c" unicode="c" horiz-adv-x="613" 
d="M142 61q-79 75 -79 201q0 121 81 200q82 79 209 79q107 0 190 -59v-72h-1q-89 68 -186 68q-98 0 -158 -61q-61 -61 -61 -154q0 -98 59 -155t158 -57q100 0 188 67h1v-72q-86 -59 -193 -59q-128 0 -208 74z" />
    <glyph glyph-name="d" unicode="d" horiz-adv-x="695" 
d="M591 746v-746h-71v84q-19 -21 -40.5 -37.5t-44.5 -29.5q-58 -31 -124 -31q-106 0 -175 71q-73 74 -73 203q0 118 80 200q79 82 200 82q100 0 176 -61v265h72zM195 417q-58 -61 -58 -154q0 -104 57 -161q53 -54 138 -54q110 0 187 89v269q-74 74 -171 74q-94 0 -153 -63z
" />
    <glyph glyph-name="e" unicode="e" horiz-adv-x="645" 
d="M524 461q58 -71 58 -186v-11l-1 -11h-446q1 -94 58 -148q59 -56 159 -56q110 0 204 64h1v-68q-91 -58 -207 -58q-137 0 -214 75q-73 70 -73 191q0 125 75 206q77 83 198 83q124 0 188 -81zM204 433q-53 -48 -65 -128h374q-5 76 -46 123q-48 54 -133 54q-78 0 -130 -49z
" />
    <glyph glyph-name="f" unicode="f" horiz-adv-x="420" 
d="M150 0v467h-110l12 61h98v40q0 192 161 192q47 0 81 -15v-62h-1q-34 15 -70 15q-99 0 -99 -126v-44h176v-61h-176v-467h-72z" />
    <glyph glyph-name="g" unicode="g" horiz-adv-x="608" 
d="M248 185l-20 -94q361 -25 361 -152q0 -57 -71 -99q-70 -42 -202 -42q-125 0 -198 35q-72 34 -72 98q0 81 122 131l28 137q-113 44 -113 157q0 79 58 131q62 55 172 55q51 0 99 -16l68 103h81v-1l-101 -126q76 -49 76 -138q0 -78 -58 -129q-62 -55 -170 -55q-16 0 -31 1.5
t-29 3.5zM423 268q44 35 44 95q0 58 -42 92q-43 34 -112 34q-72 0 -116 -36t-44 -95q0 -57 43 -91t112 -34q71 0 115 35zM464 -126q57 22 57 61q0 83 -327 101q-86 -39 -86 -92q0 -43 62 -69q59 -24 152 -24q85 0 142 23z" />
    <glyph glyph-name="h" unicode="h" horiz-adv-x="681" 
d="M104 0v746h71v-331q40 48 95 88q54 39 129 39q86 0 134 -49q50 -52 50 -150v-343h-73v328q0 150 -134 150q-65 0 -111 -37q-48 -36 -89 -84v-357h-72z" />
    <glyph glyph-name="i" unicode="i" horiz-adv-x="286" 
d="M104 651q-14 14 -14 35q0 19 14 33q15 15 39 15t39 -15q14 -14 14 -33q0 -21 -14 -35q-16 -14 -39 -14t-39 14zM107 0v528h72v-528h-72z" />
    <glyph glyph-name="j" unicode="j" horiz-adv-x="309" 
d="M127 651q-14 14 -14 35q0 19 14 33q15 15 39 15t39 -15q14 -14 14 -33q0 -21 -14 -35q-16 -14 -39 -14t-39 14zM-35 -181v64h1q41 -21 84 -21q80 0 80 98v568h72v-577q0 -151 -139 -151q-54 0 -98 19z" />
    <glyph glyph-name="k" unicode="k" horiz-adv-x="629" 
d="M104 0v746h72v-434h128l194 216h85l-218 -247l233 -281h-87l-208 249h-127v-249h-72z" />
    <glyph glyph-name="l" unicode="l" horiz-adv-x="286" 
d="M107 0v746h72v-746h-72z" />
    <glyph glyph-name="m" unicode="m" horiz-adv-x="1051" 
d="M104 0v528h71v-117q40 52 92 92q53 39 123 39q141 0 169 -135q107 135 220 135q81 0 127 -49q48 -52 48 -150v-343h-73v328q0 150 -125 150q-60 0 -106 -37q-47 -38 -85 -85v-356h-73v328q0 150 -125 150q-92 0 -191 -121v-357h-72z" />
    <glyph glyph-name="n" unicode="n" horiz-adv-x="681" 
d="M104 0v528h71v-113q40 48 95 88q54 39 129 39q86 0 134 -49q50 -52 50 -150v-343h-73v328q0 150 -134 150q-65 0 -111 -37q-48 -36 -89 -84v-357h-72z" />
    <glyph glyph-name="o" unicode="o" horiz-adv-x="696" 
d="M138 67q-75 77 -75 197q0 119 77 198q80 80 209 80q131 0 209 -80q75 -76 75 -198q0 -121 -76 -197q-79 -81 -209 -81t-210 81zM502 110q57 60 57 154q0 95 -57 155q-58 61 -154 61t-154 -61q-57 -61 -57 -155q0 -95 57 -154q59 -62 155 -62q94 0 153 62z" />
    <glyph glyph-name="p" unicode="p" horiz-adv-x="695" 
d="M104 -186v714h71v-83q37 42 85 67q59 30 124 30q106 0 175 -70q73 -76 73 -203q0 -118 -80 -201q-79 -82 -200 -82q-100 0 -176 61v-233h-72zM500 111q58 61 58 154q0 104 -57 162q-53 53 -138 53q-110 0 -187 -89v-268q72 -75 171 -75q95 0 153 63z" />
    <glyph glyph-name="q" unicode="q" horiz-adv-x="694" 
d="M518 -186v261q-86 -89 -203 -89q-108 0 -179 71q-73 73 -73 191q0 130 82 212q81 82 206 82q90 0 187 -47h53v-681h-73zM518 135v297q-83 50 -166 50q-93 0 -153 -62q-62 -65 -62 -167q0 -94 54 -150q54 -55 141 -55q110 0 186 87z" />
    <glyph glyph-name="r" unicode="r" horiz-adv-x="410" 
d="M104 0v528h71v-125q71 138 193 138h5q5 0 7 -1v-72q-3 1 -14 1q-131 0 -190 -129v-340h-72z" />
    <glyph glyph-name="s" unicode="s" horiz-adv-x="591" 
d="M76 50v68h1q107 -71 234 -71q68 0 108 26q39 26 39 68q0 38 -34 60q-34 21 -137 40q-110 21 -155 51q-49 33 -49 95q0 66 58 111q59 44 157 44q111 0 205 -54v-68h-1q-103 62 -210 62q-61 0 -98 -25q-39 -25 -39 -65t40 -58q39 -19 140 -39q110 -22 153 -57
q42 -34 42 -95q0 -66 -52 -108q-58 -49 -170 -49q-126 0 -232 64z" />
    <glyph glyph-name="t" unicode="t" horiz-adv-x="420" 
d="M166 0v467h-130l13 61h117v136l72 8v-144h156v-61h-156v-467h-72z" />
    <glyph glyph-name="u" unicode="u" horiz-adv-x="681" 
d="M577 528v-528h-72v112q-40 -45 -95 -87q-52 -39 -128 -39q-86 0 -134 49q-50 52 -50 150v343h72v-328q0 -150 134 -150q63 0 113 38q48 38 87 83v357h73z" />
    <glyph glyph-name="v" unicode="v" horiz-adv-x="624" 
d="M250 0l-207 528h77l179 -463h28l179 463h75l-208 -528h-123z" />
    <glyph glyph-name="w" unicode="w" horiz-adv-x="992" 
d="M221 0l-174 528h77l146 -461h27l154 459h91l156 -459h27l145 461h74l-174 -528h-120l-147 442h-14l-148 -442h-120z" />
    <glyph glyph-name="x" unicode="x" horiz-adv-x="619" 
d="M488 0l-180 223l-179 -223h-85l221 271l-209 257h86l171 -213l172 213h84l-212 -260l217 -268h-86z" />
    <glyph glyph-name="y" unicode="y" horiz-adv-x="625" 
d="M214 -186l69 169l-239 545h78l200 -462l191 462h75l-301 -714h-73z" />
    <glyph glyph-name="z" unicode="z" horiz-adv-x="594" 
d="M68 0v57l370 410h-360l3 61h450v-54l-375 -413h375v-61h-463z" />
    <glyph glyph-name="braceleft" unicode="{" horiz-adv-x="535" 
d="M45 273v14l146 125q-4 25 -7.5 47.5t-5.5 44.5q-2 17 -3 28.5t-1 17.5q-7 110 48 159q54 48 142 48q50 0 98 -13v-63h-1q-45 13 -88 13q-137 0 -128 -147q0 -11 4.5 -50.5t14.5 -108.5l-131 -108l131 -108q-10 -69 -14.5 -108.5t-4.5 -50.5q-9 -145 128 -145q48 0 88 13
h1v-65q-48 -13 -98 -13q-88 0 -142 48q-55 49 -48 159q0 6 1 18t3 29q2 21 5.5 43.5t7.5 47.5z" />
    <glyph glyph-name="bar" unicode="|" horiz-adv-x="511" 
d="M221 -186v932h69v-932h-69z" />
    <glyph glyph-name="braceright" unicode="}" horiz-adv-x="535" 
d="M490 287v-14l-146 -125q4 -25 7.5 -47.5t5.5 -43.5q2 -17 3 -29t1 -18q7 -109 -47 -159q-55 -48 -143 -48q-50 0 -98 13v63h1q45 -13 88 -13q137 0 128 147q0 11 -4.5 50.5t-14.5 108.5l131 108l-131 108q10 69 14.5 108.5t4.5 50.5q9 145 -128 145q-48 0 -88 -13h-1v65
q48 13 98 13q88 0 143 -48q54 -50 47 -159q0 -6 -1 -17.5t-3 -28.5q-2 -22 -5.5 -44.5t-7.5 -47.5z" />
    <glyph glyph-name="asciitilde" unicode="~" horiz-adv-x="745" 
d="M92 350q61 88 150 88q57 0 146 -56q46 -28 68 -37q20 -10 49 -10q72 0 147 109h1v-93q-61 -88 -150 -88q-61 0 -146 55q-25 15 -42 24.5t-26 14.5q-22 9 -49 9q-72 0 -147 -109h-1v93z" />
    <glyph glyph-name="asciitilde" unicode="&#x223c;" horiz-adv-x="745" 
d="M92 350q61 88 150 88q57 0 146 -56q46 -28 68 -37q20 -10 49 -10q72 0 147 109h1v-93q-61 -88 -150 -88q-61 0 -146 55q-25 15 -42 24.5t-26 14.5q-22 9 -49 9q-72 0 -147 -109h-1v93z" />
    <glyph glyph-name="uni00A0" unicode="&#xa0;" horiz-adv-x="274" 
 />
    <glyph glyph-name="exclamdown" unicode="&#xa1;" horiz-adv-x="374" 
d="M233 524q16 -16 16 -39v-1q0 -23 -16 -39q-17 -17 -46 -17q-28 0 -45 17q-16 16 -16 39v1q0 23 16 39q17 18 45 18q30 0 46 -18zM217 307l19 -476v-1h-97v1l19 476h59z" />
    <glyph glyph-name="cent" unicode="&#xa2;" horiz-adv-x="595" 
d="M298 -34v143q-100 10 -159 74q-60 65 -60 163q0 96 63 165q62 68 161 80v120h67v-119q85 -6 149 -47v-69h-1q-79 55 -169 55q-86 0 -142 -50q-57 -51 -57 -133q0 -80 54 -130q53 -49 144 -49q92 0 169 55h1v-69q-68 -43 -153 -47v-134z" />
    <glyph glyph-name="sterling" unicode="&#xa3;" horiz-adv-x="718" 
d="M79 320l10 62h129l26 89q42 140 105 193q61 52 149 52q73 0 125 -33v-68h-1q-57 33 -120 33q-64 0 -102 -34q-51 -43 -82 -148l-25 -84h294v-62h-312l-76 -254h446v-66h-540l94 320h-120z" />
    <glyph glyph-name="yen" unicode="&#xa5;" horiz-adv-x="796" 
d="M117 137l5 55h240v68l-29 46h-203l4 55h164l-215 339h82l233 -367l235 367h79l-215 -339h164l5 -55h-204l-28 -45v-69h239l5 -55h-244v-137h-72v137h-245z" />
    <glyph glyph-name="section" unicode="&#xa7;" horiz-adv-x="781" 
d="M97 -135v71h1q113 -75 248 -75q141 0 224 92q-255 40 -376 170q-96 102 -96 249q0 149 96 245q99 99 261 99q65 0 122 -15q48 -12 78 -31v-71h-1q-84 54 -198 54q-143 0 -226 -92q254 -42 376 -170q96 -102 96 -250q0 -147 -95 -244q-99 -99 -260 -99q-150 0 -250 67z
M603 3q30 62 30 135q0 121 -84 212q-107 114 -352 161q-30 -58 -30 -136q0 -121 84 -211q112 -116 352 -161z" />
    <glyph glyph-name="dieresis" unicode="&#xa8;" horiz-adv-x="500" 
d="M86 651q-14 14 -14 33q0 18 14 32t37 14q22 0 38 -14q13 -13 13 -32q0 -20 -13 -33q-16 -14 -38 -14q-23 0 -37 14zM340 651q-14 14 -14 33q0 18 14 32t37 14q22 0 38 -14q13 -13 13 -32q0 -20 -13 -33q-16 -14 -38 -14q-23 0 -37 14z" />
    <glyph glyph-name="copyright" unicode="&#xa9;" horiz-adv-x="969" 
d="M177 63q-115 106 -115 287q0 180 115 288q116 107 308 107t307 -107q115 -108 115 -288q0 -181 -115 -287q-114 -108 -307 -108q-192 0 -308 108zM749 100q98 93 98 250t-98 250q-97 93 -264 93t-265 -93t-98 -250t98 -250t265 -93t264 93zM351 219q-52 52 -52 133
q0 84 55 136q56 54 147 54q85 0 141 -46v-55h-1q-64 51 -136 51q-66 0 -107 -40q-41 -39 -41 -100q0 -62 38 -98q39 -39 109 -39q75 0 139 52h1v-56q-61 -46 -146 -46q-96 0 -147 54z" />
    <glyph glyph-name="ordfeminine" unicode="&#xaa;" horiz-adv-x="530" 
d="M105 307q-36 29 -36 79q0 47 34 81q28 28 91 47q31 8 78 14.5t113 10.5v20q0 102 -114 102q-88 0 -174 -65h-1v62q88 58 179 58q173 0 173 -159v-269h-60l-1 77q-83 -89 -179 -89q-66 0 -103 31zM385 412v84q-188 -12 -233 -57q-20 -20 -20 -46q0 -66 88 -66q86 0 165 85
z" />
    <glyph glyph-name="guillemotleft" unicode="&#xab;" horiz-adv-x="735" 
d="M358 487l-195 -223l195 -223h-83l-194 220v6l194 220h83zM644 487l-195 -223l195 -223h-83l-194 220v6l194 220h83z" />
    <glyph glyph-name="uni00AD" unicode="&#xad;" horiz-adv-x="0" 
 />
    <glyph glyph-name="registered" unicode="&#xae;" horiz-adv-x="720" 
d="M150 284q-77 75 -77 193q0 116 78 192q80 77 208 77q132 0 212 -77q77 -75 77 -192q0 -118 -78 -193q-82 -77 -211 -77q-130 0 -209 77zM534 314q65 63 65 163t-65 163q-64 63 -175 63q-107 0 -172 -63q-66 -63 -66 -163t65 -163q64 -64 174 -64t174 64zM249 354v251h141
q103 0 103 -86q0 -63 -64 -79l69 -84v-2h-48l-63 80h-96v-80h-42zM291 470h97q62 0 62 49q0 50 -60 50h-99v-99z" />
    <glyph glyph-name="macron" unicode="&#xaf;" horiz-adv-x="500" 
d="M70 653v58h360v-58h-360z" />
    <glyph glyph-name="degree" unicode="&#xb0;" horiz-adv-x="544" 
d="M122 370q-59 53 -59 143q0 89 59 145q58 55 150 55t151 -53q58 -54 58 -144t-58 -145t-151 -55q-91 0 -150 54zM375 411q41 39 41 104t-40 104q-40 37 -104 37q-61 0 -102 -38q-42 -40 -42 -105t41 -103t104 -38q62 0 102 39z" />
    <glyph glyph-name="plusminus" unicode="&#xb1;" horiz-adv-x="760" 
d="M136 396v65h209v209h70v-209h209v-65h-209v-210h-70v210h-209zM136 0v62h488v-62h-488z" />
    <glyph glyph-name="uni00B2" unicode="&#xb2;" horiz-adv-x="474" 
d="M80 354v49l149 123q29 25 50 43t34 31q22 22 22 51q0 61 -86 61q-73 0 -155 -67h-1v60q77 59 160 59q71 0 108 -30q35 -29 35 -79q0 -45 -31 -79q-8 -10 -33 -31.5t-67 -55.5l-101 -84h235v-51h-319z" />
    <glyph glyph-name="uni00B3" unicode="&#xb3;" horiz-adv-x="474" 
d="M79 377v55h1q85 -38 147 -38q53 0 84 21t31 55q0 37 -32 54q-36 17 -122 17h-18v30l156 132h-238l2 51h308v-49l-147 -124q152 -11 152 -112q0 -57 -46 -91t-124 -34q-77 0 -154 33z" />
    <glyph glyph-name="acute" unicode="&#xb4;" horiz-adv-x="500" 
d="M149 636l133 164h99v-3l-163 -161h-69z" />
    <glyph glyph-name="paragraph" unicode="&#xb6;" horiz-adv-x="831" 
d="M630 0v631h-109v-422h-149q-315 0 -315 244q0 117 76 181q80 66 226 66h347v-700h-76zM358 631q-224 0 -224 -177q0 -87 54 -128q57 -45 183 -45h74v350h-87z" />
    <glyph glyph-name="periodcentered" unicode="&#xb7;" horiz-adv-x="347" 
d="M128 246q-16 16 -16 39v1q0 23 16 39q17 18 46 18t45 -18q16 -16 16 -39v-1q0 -23 -16 -39q-16 -18 -45 -18t-46 18z" />
    <glyph glyph-name="cedilla" unicode="&#xb8;" horiz-adv-x="500" 
d="M315 -6l-124 -185h-96v3l156 182h64z" />
    <glyph glyph-name="uni00B9" unicode="&#xb9;" horiz-adv-x="366" 
d="M172 354v350h-116l9 50h168v-400h-61z" />
    <glyph glyph-name="ordmasculine" unicode="&#xba;" horiz-adv-x="588" 
d="M125 337q-62 62 -62 159q0 95 62 157q65 63 169 63q108 0 169 -61q62 -62 62 -159q0 -95 -62 -157q-64 -63 -169 -63q-108 0 -169 61zM414 378q45 45 45 118t-43 119q-45 46 -122 46q-73 0 -120 -47q-46 -46 -46 -118t44 -118q45 -47 122 -47q73 0 120 47z" />
    <glyph glyph-name="guillemotright" unicode="&#xbb;" horiz-adv-x="735" 
d="M377 41l195 223l-195 223h83l194 -220v-6l-194 -220h-83zM91 41l195 223l-195 223h83l194 -220v-6l-194 -220h-83z" />
    <glyph glyph-name="onequarter" unicode="&#xbc;" horiz-adv-x="994" 
d="M172 300v350h-116l9 50h168v-400h-61zM183 1l491 699h64v-1l-491 -699h-64v1zM825 1v91h-254v45l140 263h171v-258h75l-3 -50h-72v-91h-57zM634 141h192v209h-78z" />
    <glyph glyph-name="onehalf" unicode="&#xbd;" horiz-adv-x="1026" 
d="M172 300v350h-116l9 50h168v-400h-61zM183 1l491 699h64v-1l-491 -699h-64v1zM632 0v49l149 123q29 25 50 43t34 31q22 22 22 51q0 61 -86 61q-73 0 -155 -67h-1v60q77 59 160 59q71 0 108 -30q35 -29 35 -79q0 -45 -31 -79q-8 -10 -33 -31.5t-67 -55.5l-101 -84h235v-51
h-319z" />
    <glyph glyph-name="threequarters" unicode="&#xbe;" horiz-adv-x="1098" 
d="M79 323v55h1q85 -38 147 -38q53 0 84 21t31 55q0 37 -32 54q-36 17 -122 17h-18v30l156 132h-238l2 51h308v-49l-147 -124q152 -11 152 -112q0 -57 -46 -91t-124 -34q-77 0 -154 33zM287 1l491 699h64v-1l-491 -699h-64v1zM929 1v91h-254v45l140 263h171v-258h75l-3 -50
h-72v-91h-57zM738 141h192v209h-78z" />
    <glyph glyph-name="questiondown" unicode="&#xbf;" horiz-adv-x="641" 
d="M403 524q16 -16 16 -39v-1q0 -23 -16 -39q-17 -17 -45 -17q-29 0 -46 17q-16 16 -16 39v1q0 23 16 39q17 18 46 18t45 -18zM592 -105q-145 -81 -300 -81q-118 0 -189 48q-74 50 -74 138q0 91 85 152q82 61 281 119h1v-67q-82 -26 -139 -50.5t-89 -47.5q-63 -45 -63 -104
q0 -58 52 -91q52 -32 139 -32q144 0 295 91h1v-75z" />
    <glyph glyph-name="Agrave" unicode="&#xc0;" horiz-adv-x="836" 
d="M57 0l287 700h149l287 -700h-80l-83 202h-399l-83 -202h-78zM394 629l-148 -360h344l-148 360h-48zM461 808h-69l-163 161v3h99z" />
    <glyph glyph-name="Aacute" unicode="&#xc1;" horiz-adv-x="836" 
d="M57 0l287 700h149l287 -700h-80l-83 202h-399l-83 -202h-78zM394 629l-148 -360h344l-148 360h-48zM379 808l133 164h99v-3l-163 -161h-69z" />
    <glyph glyph-name="Acircumflex" unicode="&#xc2;" horiz-adv-x="836" 
d="M57 0l287 700h149l287 -700h-80l-83 202h-399l-83 -202h-78zM394 629l-148 -360h344l-148 360h-48zM224 808l140 171h112l140 -171h-78l-98 119h-40l-98 -119h-78z" />
    <glyph glyph-name="Atilde" unicode="&#xc3;" horiz-adv-x="836" 
d="M57 0l287 700h149l287 -700h-80l-83 202h-399l-83 -202h-78zM394 629l-148 -360h344l-148 360h-48zM601 860q-42 -61 -98 -61q-34 0 -93 36q-48 30 -74 30q-44 0 -95 -76h-1v75q39 61 98 61q35 0 93 -35q47 -31 73 -31q45 0 96 76h1v-75z" />
    <glyph glyph-name="Adieresis" unicode="&#xc4;" horiz-adv-x="836" 
d="M57 0l287 700h149l287 -700h-80l-83 202h-399l-83 -202h-78zM394 629l-148 -360h344l-148 360h-48zM256 823q-14 14 -14 33q0 18 14 32t37 14q22 0 38 -14q13 -13 13 -32q0 -20 -13 -33q-16 -14 -38 -14q-23 0 -37 14zM510 823q-14 14 -14 33q0 18 14 32t37 14
q22 0 38 -14q13 -13 13 -32q0 -20 -13 -33q-16 -14 -38 -14q-23 0 -37 14z" />
    <glyph glyph-name="Aring" unicode="&#xc5;" horiz-adv-x="836" 
d="M57 0l287 700h149l287 -700h-80l-83 202h-399l-83 -202h-78zM394 629l-148 -360h344l-148 360h-48zM309 836q-42 35 -42 95t42 96q41 37 111 37q69 0 111 -36t42 -96q0 -58 -42 -96q-42 -36 -112 -36q-69 0 -110 36zM490 870q28 22 28 61t-28 63q-29 23 -71 23
q-43 0 -71 -23q-28 -22 -28 -62q0 -39 29 -62q28 -23 71 -23q42 0 70 23z" />
    <glyph glyph-name="AE" unicode="&#xc6;" horiz-adv-x="1295" 
d="M646 0v202h-379l-136 -202h-89l475 700h688l3 -69h-486v-234h403v-69h-403v-259h503l-4 -69h-575zM557 629l-245 -360h334v360h-89z" />
    <glyph glyph-name="Ccedilla" unicode="&#xc7;" horiz-adv-x="804" 
d="M723 72q-109 -79 -242 -85l-118 -176h-96v3l148 173q-163 9 -254 112q-86 98 -86 249q0 157 102 259q107 107 282 107q146 0 264 -88v-80h-1q-137 98 -265 98q-137 0 -221 -84q-83 -83 -83 -211q0 -131 80 -211q81 -82 221 -82q138 0 268 96h1v-80z" />
    <glyph glyph-name="Egrave" unicode="&#xc8;" horiz-adv-x="774" 
d="M125 0v700h559l4 -69h-487v-234h403v-69h-403v-259h503l-3 -69h-576zM465 808h-69l-163 161v3h99z" />
    <glyph glyph-name="Eacute" unicode="&#xc9;" horiz-adv-x="774" 
d="M125 0v700h559l4 -69h-487v-234h403v-69h-403v-259h503l-3 -69h-576zM368 808l133 164h99v-3l-163 -161h-69z" />
    <glyph glyph-name="Ecircumflex" unicode="&#xca;" horiz-adv-x="774" 
d="M125 0v700h559l4 -69h-487v-234h403v-69h-403v-259h503l-3 -69h-576zM220 808l140 171h112l140 -171h-78l-98 119h-40l-98 -119h-78z" />
    <glyph glyph-name="Edieresis" unicode="&#xcb;" horiz-adv-x="774" 
d="M125 0v700h559l4 -69h-487v-234h403v-69h-403v-259h503l-3 -69h-576zM252 823q-14 14 -14 33q0 18 14 32t37 14q22 0 38 -14q13 -13 13 -32q0 -20 -13 -33q-16 -14 -38 -14q-23 0 -37 14zM506 823q-14 14 -14 33q0 18 14 32t37 14q22 0 38 -14q13 -13 13 -32
q0 -20 -13 -33q-16 -14 -38 -14q-23 0 -37 14z" />
    <glyph glyph-name="Igrave" unicode="&#xcc;" horiz-adv-x="334" 
d="M129 0v700h76v-700h-76zM202 808h-69l-163 161v3h99z" />
    <glyph glyph-name="Iacute" unicode="&#xcd;" horiz-adv-x="334" 
d="M129 0v700h76v-700h-76zM132 808l133 164h99v-3l-163 -161h-69z" />
    <glyph glyph-name="Icircumflex" unicode="&#xce;" horiz-adv-x="334" 
d="M129 0v700h76v-700h-76zM-29 808l140 171h112l140 -171h-78l-98 119h-40l-98 -119h-78z" />
    <glyph glyph-name="Idieresis" unicode="&#xcf;" horiz-adv-x="334" 
d="M129 0v700h76v-700h-76zM3 823q-14 14 -14 33q0 18 14 32t37 14q22 0 38 -14q13 -13 13 -32q0 -20 -13 -33q-16 -14 -38 -14q-23 0 -37 14zM257 823q-14 14 -14 33q0 18 14 32t37 14q22 0 38 -14q13 -13 13 -32q0 -20 -13 -33q-16 -14 -38 -14q-23 0 -37 14z" />
    <glyph glyph-name="Eth" unicode="&#xd0;" horiz-adv-x="897" 
d="M154 0v321h-119l6 59h113v320h314q169 0 260 -93q92 -92 92 -256q0 -162 -91 -256q-92 -95 -261 -95h-314zM230 69h237q134 0 204 73q71 73 71 208q0 134 -71 208q-70 73 -204 73h-237v-251h242v-59h-242v-252z" />
    <glyph glyph-name="Ntilde" unicode="&#xd1;" horiz-adv-x="877" 
d="M125 0v700h100l441 -592h11v592h75v-700h-96l-445 598h-12v-598h-74zM636 860q-42 -61 -98 -61q-34 0 -93 36q-48 30 -74 30q-44 0 -95 -76h-1v75q39 61 98 61q35 0 93 -35q47 -31 73 -31q45 0 96 76h1v-75z" />
    <glyph glyph-name="Ograve" unicode="&#xd2;" horiz-adv-x="911" 
d="M178 82q-103 99 -103 268q0 167 103 267q104 101 277 101q175 0 278 -100q103 -99 103 -268q0 -167 -103 -267q-104 -101 -278 -101q-176 0 -277 100zM676 132q82 81 82 218t-81 219q-81 81 -221 81t-221 -81q-82 -82 -82 -219t81 -218q81 -82 221 -82q139 0 221 82z
M504 826h-69l-163 161v3h99z" />
    <glyph glyph-name="Oacute" unicode="&#xd3;" horiz-adv-x="911" 
d="M178 82q-103 99 -103 268q0 167 103 267q104 101 277 101q175 0 278 -100q103 -99 103 -268q0 -167 -103 -267q-104 -101 -278 -101q-176 0 -277 100zM676 132q82 81 82 218t-81 219q-81 81 -221 81t-221 -81q-82 -82 -82 -219t81 -218q81 -82 221 -82q139 0 221 82z
M407 826l133 164h99v-3l-163 -161h-69z" />
    <glyph glyph-name="Ocircumflex" unicode="&#xd4;" horiz-adv-x="911" 
d="M178 82q-103 99 -103 268q0 167 103 267q104 101 277 101q175 0 278 -100q103 -99 103 -268q0 -167 -103 -267q-104 -101 -278 -101q-176 0 -277 100zM676 132q82 81 82 218t-81 219q-81 81 -221 81t-221 -81q-82 -82 -82 -219t81 -218q81 -82 221 -82q139 0 221 82z
M259 826l140 171h112l140 -171h-78l-98 119h-40l-98 -119h-78z" />
    <glyph glyph-name="Otilde" unicode="&#xd5;" horiz-adv-x="911" 
d="M178 82q-103 99 -103 268q0 167 103 267q104 101 277 101q175 0 278 -100q103 -99 103 -268q0 -167 -103 -267q-104 -101 -278 -101q-176 0 -277 100zM676 132q82 81 82 218t-81 219q-81 81 -221 81t-221 -81q-82 -82 -82 -219t81 -218q81 -82 221 -82q139 0 221 82z
M636 878q-42 -61 -98 -61q-34 0 -93 36q-48 30 -74 30q-44 0 -95 -76h-1v75q39 61 98 61q35 0 93 -35q47 -31 73 -31q45 0 96 76h1v-75z" />
    <glyph glyph-name="Odieresis" unicode="&#xd6;" horiz-adv-x="911" 
d="M178 82q-103 99 -103 268q0 167 103 267q104 101 277 101q175 0 278 -100q103 -99 103 -268q0 -167 -103 -267q-104 -101 -278 -101q-176 0 -277 100zM676 132q82 81 82 218t-81 219q-81 81 -221 81t-221 -81q-82 -82 -82 -219t81 -218q81 -82 221 -82q139 0 221 82z
M291 841q-14 14 -14 33q0 18 14 32t37 14q22 0 38 -14q13 -13 13 -32q0 -20 -13 -33q-16 -14 -38 -14q-23 0 -37 14zM545 841q-14 14 -14 33q0 18 14 32t37 14q22 0 38 -14q13 -13 13 -32q0 -20 -13 -33q-16 -14 -38 -14q-23 0 -37 14z" />
    <glyph glyph-name="multiply" unicode="&#xd7;" horiz-adv-x="709" 
d="M118 539l47 46l189 -188l190 188l46 -46l-189 -188l189 -189l-46 -46l-190 188l-189 -188l-47 46l190 189z" />
    <glyph glyph-name="Oslash" unicode="&#xd8;" horiz-adv-x="911" 
d="M71 -61l113 137q-109 100 -109 274q0 167 103 267q104 101 277 101q130 0 219 -55l82 98h83l-112 -137q109 -100 109 -274q0 -167 -103 -267q-104 -101 -278 -101q-129 0 -218 55l-81 -98h-85zM233 129l398 478q-76 44 -175 44q-140 0 -222 -82q-83 -83 -83 -219
q0 -139 82 -221zM677 131q82 82 82 219q0 141 -82 220l-397 -477q74 -44 175 -44q140 0 222 82z" />
    <glyph glyph-name="Ugrave" unicode="&#xd9;" horiz-adv-x="863" 
d="M114 266v434h76v-429q0 -218 242 -218q241 0 241 215v432h76v-432q0 -285 -318 -285q-317 0 -317 283zM480 784h-69l-163 161v3h99z" />
    <glyph glyph-name="Uacute" unicode="&#xda;" horiz-adv-x="863" 
d="M114 266v434h76v-429q0 -218 242 -218q241 0 241 215v432h76v-432q0 -285 -318 -285q-317 0 -317 283zM383 784l133 164h99v-3l-163 -161h-69z" />
    <glyph glyph-name="Ucircumflex" unicode="&#xdb;" horiz-adv-x="863" 
d="M114 266v434h76v-429q0 -218 242 -218q241 0 241 215v432h76v-432q0 -285 -318 -285q-317 0 -317 283zM235 808l140 171h112l140 -171h-78l-98 119h-40l-98 -119h-78z" />
    <glyph glyph-name="Udieresis" unicode="&#xdc;" horiz-adv-x="863" 
d="M114 266v434h76v-429q0 -218 242 -218q241 0 241 215v432h76v-432q0 -285 -318 -285q-317 0 -317 283zM267 823q-14 14 -14 33q0 18 14 32t37 14q22 0 38 -14q13 -13 13 -32q0 -20 -13 -33q-16 -14 -38 -14q-23 0 -37 14zM521 823q-14 14 -14 33q0 18 14 32t37 14
q22 0 38 -14q13 -13 13 -32q0 -20 -13 -33q-16 -14 -38 -14q-23 0 -37 14z" />
    <glyph glyph-name="Yacute" unicode="&#xdd;" horiz-adv-x="797" 
d="M360 0v238l-317 462h89l264 -388h5l266 388h87l-318 -460v-240h-76zM350 784l133 164h99v-3l-163 -161h-69z" />
    <glyph glyph-name="Thorn" unicode="&#xde;" horiz-adv-x="783" 
d="M125 0v700h76v-115h254q133 0 203 -60q68 -59 68 -168q0 -115 -72 -177q-72 -60 -204 -60h-249v-120h-76zM201 188h250q198 0 198 165q0 163 -199 163h-249v-328z" />
    <glyph glyph-name="germandbls" unicode="&#xdf;" horiz-adv-x="745" 
d="M40 467l12 61h102q15 115 86 174q67 55 173 55q171 0 255 -158l-190 -202l33 -17q98 -52 130 -85q47 -47 47 -118q0 -83 -56 -137q-59 -56 -153 -56q-74 0 -143 31v66h1q71 -37 140 -37q63 0 104 38q38 38 38 92q0 53 -38 88q-31 29 -129 75l-47 22l-1 47l180 195
q-66 95 -170 95q-192 0 -192 -233v-463h-72v467h-110z" />
    <glyph glyph-name="agrave" unicode="&#xe0;" horiz-adv-x="636" 
d="M118 24q-46 37 -46 101q0 57 41 98q35 35 116 59q42 13 101 20.5t137 11.5v28q0 137 -145 137q-110 0 -217 -81h-1v71q103 73 228 73q207 0 207 -200v-342h-68l-2 94q-97 -108 -225 -108q-79 0 -126 38zM467 145v120q-238 -14 -297 -73q-26 -28 -26 -63q0 -41 32 -64
t83 -23q114 0 208 103zM374 650h-69l-163 161v3h99z" />
    <glyph glyph-name="aacute" unicode="&#xe1;" horiz-adv-x="636" 
d="M118 24q-46 37 -46 101q0 57 41 98q35 35 116 59q42 13 101 20.5t137 11.5v28q0 137 -145 137q-110 0 -217 -81h-1v71q103 73 228 73q207 0 207 -200v-342h-68l-2 94q-97 -108 -225 -108q-79 0 -126 38zM467 145v120q-238 -14 -297 -73q-26 -28 -26 -63q0 -41 32 -64
t83 -23q114 0 208 103zM277 650l133 164h99v-3l-163 -161h-69z" />
    <glyph glyph-name="acircumflex" unicode="&#xe2;" horiz-adv-x="636" 
d="M118 24q-46 37 -46 101q0 57 41 98q35 35 116 59q42 13 101 20.5t137 11.5v28q0 137 -145 137q-110 0 -217 -81h-1v71q103 73 228 73q207 0 207 -200v-342h-68l-2 94q-97 -108 -225 -108q-79 0 -126 38zM467 145v120q-238 -14 -297 -73q-26 -28 -26 -63q0 -41 32 -64
t83 -23q114 0 208 103zM129 650l140 171h112l140 -171h-78l-98 119h-40l-98 -119h-78z" />
    <glyph glyph-name="atilde" unicode="&#xe3;" horiz-adv-x="636" 
d="M118 24q-46 37 -46 101q0 57 41 98q35 35 116 59q42 13 101 20.5t137 11.5v28q0 137 -145 137q-110 0 -217 -81h-1v71q103 73 228 73q207 0 207 -200v-342h-68l-2 94q-97 -108 -225 -108q-79 0 -126 38zM467 145v120q-238 -14 -297 -73q-26 -28 -26 -63q0 -41 32 -64
t83 -23q114 0 208 103zM506 702q-42 -61 -98 -61q-34 0 -93 36q-48 30 -74 30q-44 0 -95 -76h-1v75q39 61 98 61q35 0 93 -35q47 -31 73 -31q45 0 96 76h1v-75z" />
    <glyph glyph-name="adieresis" unicode="&#xe4;" horiz-adv-x="636" 
d="M118 24q-46 37 -46 101q0 57 41 98q35 35 116 59q42 13 101 20.5t137 11.5v28q0 137 -145 137q-110 0 -217 -81h-1v71q103 73 228 73q207 0 207 -200v-342h-68l-2 94q-97 -108 -225 -108q-79 0 -126 38zM467 145v120q-238 -14 -297 -73q-26 -28 -26 -63q0 -41 32 -64
t83 -23q114 0 208 103zM161 665q-14 14 -14 33q0 18 14 32t37 14q22 0 38 -14q13 -13 13 -32q0 -20 -13 -33q-16 -14 -38 -14q-23 0 -37 14zM415 665q-14 14 -14 33q0 18 14 32t37 14q22 0 38 -14q13 -13 13 -32q0 -20 -13 -33q-16 -14 -38 -14q-23 0 -37 14z" />
    <glyph glyph-name="aring" unicode="&#xe5;" horiz-adv-x="636" 
d="M118 24q-46 37 -46 101q0 57 41 98q35 35 116 59q42 13 101 20.5t137 11.5v28q0 137 -145 137q-110 0 -217 -81h-1v71q103 73 228 73q207 0 207 -200v-342h-68l-2 94q-97 -108 -225 -108q-79 0 -126 38zM467 145v120q-238 -14 -297 -73q-26 -28 -26 -63q0 -41 32 -64
t83 -23q114 0 208 103zM214 678q-42 35 -42 95t42 96q41 37 111 37q69 0 111 -36t42 -96q0 -58 -42 -96q-42 -36 -112 -36q-69 0 -110 36zM395 712q28 22 28 61t-28 63q-29 23 -71 23q-43 0 -71 -23q-28 -22 -28 -62q0 -39 29 -62q28 -23 71 -23q42 0 70 23z" />
    <glyph glyph-name="ae" unicode="&#xe6;" horiz-adv-x="1048" 
d="M505 106q-111 -120 -260 -120q-80 0 -127 38q-46 37 -46 101q0 56 42 98q77 77 354 90v34q0 132 -146 132q-110 0 -217 -81h-1v70q104 74 226 74q163 0 191 -124q30 57 88 90q58 34 129 34q122 0 189 -81q59 -71 59 -183v-11q0 -8 -1 -10h-447q0 -97 60 -153
q58 -55 158 -55q104 0 204 64h1v-68q-91 -58 -207 -58q-175 0 -249 119zM609 434q-54 -49 -67 -126h374q-5 77 -47 122q-48 52 -133 52q-74 0 -127 -48zM176 64q31 -22 83 -22q124 0 226 105q-18 50 -18 110v5q-138 -7 -199 -23q-66 -16 -97 -47q-27 -28 -27 -63
q0 -42 32 -65z" />
    <glyph glyph-name="ccedilla" unicode="&#xe7;" horiz-adv-x="613" 
d="M543 46q-71 -50 -160 -57l-120 -179h-96v3l150 175q-114 10 -184 83q-70 70 -70 191t81 200q82 79 209 79q107 0 190 -59v-72h-1q-89 68 -186 68q-98 0 -158 -61q-61 -61 -61 -154q0 -98 59 -155t158 -57q100 0 188 67h1v-72z" />
    <glyph glyph-name="egrave" unicode="&#xe8;" horiz-adv-x="645" 
d="M524 461q58 -71 58 -186v-11l-1 -11h-446q1 -94 58 -148q59 -56 159 -56q110 0 204 64h1v-68q-91 -58 -207 -58q-137 0 -214 75q-73 70 -73 191q0 125 75 206q77 83 198 83q124 0 188 -81zM204 433q-53 -48 -65 -128h374q-5 76 -46 123q-48 54 -133 54q-78 0 -130 -49z
M386 650h-69l-163 161v3h99z" />
    <glyph glyph-name="eacute" unicode="&#xe9;" horiz-adv-x="645" 
d="M524 461q58 -71 58 -186v-11l-1 -11h-446q1 -94 58 -148q59 -56 159 -56q110 0 204 64h1v-68q-91 -58 -207 -58q-137 0 -214 75q-73 70 -73 191q0 125 75 206q77 83 198 83q124 0 188 -81zM204 433q-53 -48 -65 -128h374q-5 76 -46 123q-48 54 -133 54q-78 0 -130 -49z
M289 650l133 164h99v-3l-163 -161h-69z" />
    <glyph glyph-name="ecircumflex" unicode="&#xea;" horiz-adv-x="645" 
d="M524 461q58 -71 58 -186v-11l-1 -11h-446q1 -94 58 -148q59 -56 159 -56q110 0 204 64h1v-68q-91 -58 -207 -58q-137 0 -214 75q-73 70 -73 191q0 125 75 206q77 83 198 83q124 0 188 -81zM204 433q-53 -48 -65 -128h374q-5 76 -46 123q-48 54 -133 54q-78 0 -130 -49z
M141 650l140 171h112l140 -171h-78l-98 119h-40l-98 -119h-78z" />
    <glyph glyph-name="edieresis" unicode="&#xeb;" horiz-adv-x="645" 
d="M524 461q58 -71 58 -186v-11l-1 -11h-446q1 -94 58 -148q59 -56 159 -56q110 0 204 64h1v-68q-91 -58 -207 -58q-137 0 -214 75q-73 70 -73 191q0 125 75 206q77 83 198 83q124 0 188 -81zM204 433q-53 -48 -65 -128h374q-5 76 -46 123q-48 54 -133 54q-78 0 -130 -49z
M173 665q-14 14 -14 33q0 18 14 32t37 14q22 0 38 -14q13 -13 13 -32q0 -20 -13 -33q-16 -14 -38 -14q-23 0 -37 14zM427 665q-14 14 -14 33q0 18 14 32t37 14q22 0 38 -14q13 -13 13 -32q0 -20 -13 -33q-16 -14 -38 -14q-23 0 -37 14z" />
    <glyph glyph-name="igrave" unicode="&#xec;" horiz-adv-x="286" 
d="M107 0v528h72v-528h-72zM179 636h-69l-163 161v3h99z" />
    <glyph glyph-name="iacute" unicode="&#xed;" horiz-adv-x="286" 
d="M107 0v528h72v-528h-72zM109 636l133 164h99v-3l-163 -161h-69z" />
    <glyph glyph-name="icircumflex" unicode="&#xee;" horiz-adv-x="286" 
d="M107 0v528h72v-528h-72zM-53 636l140 171h112l140 -171h-78l-98 119h-40l-98 -119h-78z" />
    <glyph glyph-name="idieresis" unicode="&#xef;" horiz-adv-x="286" 
d="M107 0v528h72v-528h-72zM-21 651q-14 14 -14 33q0 18 14 32t37 14q22 0 38 -14q13 -13 13 -32q0 -20 -13 -33q-16 -14 -38 -14q-23 0 -37 14zM233 651q-14 14 -14 33q0 18 14 32t37 14q22 0 38 -14q13 -13 13 -32q0 -20 -13 -33q-16 -14 -38 -14q-23 0 -37 14z" />
    <glyph glyph-name="eth" unicode="&#xf0;" horiz-adv-x="669" 
d="M137 55q-75 69 -75 181q0 118 79 190q74 66 184 66q133 0 206 -105q-31 141 -139 237l-176 -68v50l134 52q-29 22 -62.5 42.5t-71.5 40.5v5h95q50 -23 102 -64l169 65v-50l-128 -49q152 -146 152 -352q0 -144 -76 -226q-76 -84 -200 -84q-119 0 -193 69zM192 99
q56 -51 139 -51q94 0 150 68q53 67 53 174v15l-1 16q-30 53 -83 83q-52 30 -114 30q-84 0 -140 -50q-60 -52 -60 -145q0 -89 56 -140z" />
    <glyph glyph-name="ntilde" unicode="&#xf1;" horiz-adv-x="681" 
d="M104 0v528h71v-113q40 48 95 88q54 39 129 39q86 0 134 -49q50 -52 50 -150v-343h-73v328q0 150 -134 150q-65 0 -111 -37q-48 -36 -89 -84v-357h-72zM528 702q-42 -61 -98 -61q-34 0 -93 36q-48 30 -74 30q-44 0 -95 -76h-1v75q39 61 98 61q35 0 93 -35q47 -31 73 -31
q45 0 96 76h1v-75z" />
    <glyph glyph-name="ograve" unicode="&#xf2;" horiz-adv-x="696" 
d="M138 67q-75 77 -75 197q0 119 77 198q80 80 209 80q131 0 209 -80q75 -76 75 -198q0 -121 -76 -197q-79 -81 -209 -81t-210 81zM502 110q57 60 57 154q0 95 -57 155q-58 61 -154 61t-154 -61q-57 -61 -57 -155q0 -95 57 -154q59 -62 155 -62q94 0 153 62zM397 650h-69
l-163 161v3h99z" />
    <glyph glyph-name="oacute" unicode="&#xf3;" horiz-adv-x="696" 
d="M138 67q-75 77 -75 197q0 119 77 198q80 80 209 80q131 0 209 -80q75 -76 75 -198q0 -121 -76 -197q-79 -81 -209 -81t-210 81zM502 110q57 60 57 154q0 95 -57 155q-58 61 -154 61t-154 -61q-57 -61 -57 -155q0 -95 57 -154q59 -62 155 -62q94 0 153 62zM300 650
l133 164h99v-3l-163 -161h-69z" />
    <glyph glyph-name="ocircumflex" unicode="&#xf4;" horiz-adv-x="696" 
d="M138 67q-75 77 -75 197q0 119 77 198q80 80 209 80q131 0 209 -80q75 -76 75 -198q0 -121 -76 -197q-79 -81 -209 -81t-210 81zM502 110q57 60 57 154q0 95 -57 155q-58 61 -154 61t-154 -61q-57 -61 -57 -155q0 -95 57 -154q59 -62 155 -62q94 0 153 62zM152 650
l140 171h112l140 -171h-78l-98 119h-40l-98 -119h-78z" />
    <glyph glyph-name="otilde" unicode="&#xf5;" horiz-adv-x="696" 
d="M138 67q-75 77 -75 197q0 119 77 198q80 80 209 80q131 0 209 -80q75 -76 75 -198q0 -121 -76 -197q-79 -81 -209 -81t-210 81zM502 110q57 60 57 154q0 95 -57 155q-58 61 -154 61t-154 -61q-57 -61 -57 -155q0 -95 57 -154q59 -62 155 -62q94 0 153 62zM529 702
q-42 -61 -98 -61q-34 0 -93 36q-48 30 -74 30q-44 0 -95 -76h-1v75q39 61 98 61q35 0 93 -35q47 -31 73 -31q45 0 96 76h1v-75z" />
    <glyph glyph-name="odieresis" unicode="&#xf6;" horiz-adv-x="696" 
d="M138 67q-75 77 -75 197q0 119 77 198q80 80 209 80q131 0 209 -80q75 -76 75 -198q0 -121 -76 -197q-79 -81 -209 -81t-210 81zM502 110q57 60 57 154q0 95 -57 155q-58 61 -154 61t-154 -61q-57 -61 -57 -155q0 -95 57 -154q59 -62 155 -62q94 0 153 62zM184 665
q-14 14 -14 33q0 18 14 32t37 14q22 0 38 -14q13 -13 13 -32q0 -20 -13 -33q-16 -14 -38 -14q-23 0 -37 14zM438 665q-14 14 -14 33q0 18 14 32t37 14q22 0 38 -14q13 -13 13 -32q0 -20 -13 -33q-16 -14 -38 -14q-23 0 -37 14z" />
    <glyph glyph-name="divide" unicode="&#xf7;" horiz-adv-x="774" 
d="M427 608q15 -13 15 -36q0 -21 -15 -35q-16 -15 -40 -15t-41 15q-15 14 -15 35t15 36q17 15 40 15q26 0 41 -15zM107 317v66h560v-66h-560zM347 92q-15 15 -15 36q0 22 15 35q17 15 40 15q25 0 41 -15q15 -13 15 -35t-15 -36q-15 -15 -41 -15q-23 0 -40 15z" />
    <glyph glyph-name="oslash" unicode="&#xf8;" horiz-adv-x="696" 
d="M177 35l-72 -81h-71l102 116q-73 76 -73 194q0 119 77 198q80 80 209 80q101 0 171 -49l72 81h70l-101 -116q72 -75 72 -194q0 -121 -76 -197q-79 -81 -209 -81q-101 0 -171 49zM183 119l294 324q-51 39 -129 39q-97 0 -156 -62q-57 -61 -57 -156q0 -88 48 -145zM504 108
q57 62 57 156q0 88 -48 145l-295 -323q55 -40 131 -40q96 0 155 62z" />
    <glyph glyph-name="ugrave" unicode="&#xf9;" horiz-adv-x="681" 
d="M577 528v-528h-72v112q-40 -45 -95 -87q-52 -39 -128 -39q-86 0 -134 49q-50 52 -50 150v343h72v-328q0 -150 134 -150q63 0 113 38q48 38 87 83v357h73zM382 621h-69l-163 161v3h99z" />
    <glyph glyph-name="uacute" unicode="&#xfa;" horiz-adv-x="681" 
d="M577 528v-528h-72v112q-40 -45 -95 -87q-52 -39 -128 -39q-86 0 -134 49q-50 52 -50 150v343h72v-328q0 -150 134 -150q63 0 113 38q48 38 87 83v357h73zM285 621l133 164h99v-3l-163 -161h-69z" />
    <glyph glyph-name="ucircumflex" unicode="&#xfb;" horiz-adv-x="681" 
d="M577 528v-528h-72v112q-40 -45 -95 -87q-52 -39 -128 -39q-86 0 -134 49q-50 52 -50 150v343h72v-328q0 -150 134 -150q63 0 113 38q48 38 87 83v357h73zM137 636l140 171h112l140 -171h-78l-98 119h-40l-98 -119h-78z" />
    <glyph glyph-name="udieresis" unicode="&#xfc;" horiz-adv-x="681" 
d="M577 528v-528h-72v112q-40 -45 -95 -87q-52 -39 -128 -39q-86 0 -134 49q-50 52 -50 150v343h72v-328q0 -150 134 -150q63 0 113 38q48 38 87 83v357h73zM169 651q-14 14 -14 33q0 18 14 32t37 14q22 0 38 -14q13 -13 13 -32q0 -20 -13 -33q-16 -14 -38 -14q-23 0 -37 14
zM423 651q-14 14 -14 33q0 18 14 32t37 14q22 0 38 -14q13 -13 13 -32q0 -20 -13 -33q-16 -14 -38 -14q-23 0 -37 14z" />
    <glyph glyph-name="yacute" unicode="&#xfd;" horiz-adv-x="625" 
d="M214 -186l69 169l-239 545h78l200 -462l191 462h75l-301 -714h-73zM271 621l133 164h99v-3l-163 -161h-69z" />
    <glyph glyph-name="thorn" unicode="&#xfe;" horiz-adv-x="695" 
d="M104 -186v932h71v-301q81 97 210 97q109 0 178 -71q69 -73 69 -195q0 -127 -82 -209q-79 -81 -202 -81q-101 0 -172 59v-231h-72zM498 110q60 62 60 163q0 95 -54 152q-52 55 -140 55q-114 0 -188 -89v-275q74 -68 168 -68t154 62z" />
    <glyph glyph-name="ydieresis" unicode="&#xff;" horiz-adv-x="625" 
d="M214 -186l69 169l-239 545h78l200 -462l191 462h75l-301 -714h-73zM155 651q-14 14 -14 33q0 18 14 32t37 14q22 0 38 -14q13 -13 13 -32q0 -20 -13 -33q-16 -14 -38 -14q-23 0 -37 14zM409 651q-14 14 -14 33q0 18 14 32t37 14q22 0 38 -14q13 -13 13 -32q0 -20 -13 -33
q-16 -14 -38 -14q-23 0 -37 14z" />
    <glyph glyph-name="Amacron" unicode="&#x100;" horiz-adv-x="836" 
d="M57 0l287 700h149l287 -700h-80l-83 202h-399l-83 -202h-78zM394 629l-148 -360h344l-148 360h-48zM240 825v58h360v-58h-360z" />
    <glyph glyph-name="amacron" unicode="&#x101;" horiz-adv-x="636" 
d="M118 24q-46 37 -46 101q0 57 41 98q35 35 116 59q42 13 101 20.5t137 11.5v28q0 137 -145 137q-110 0 -217 -81h-1v71q103 73 228 73q207 0 207 -200v-342h-68l-2 94q-97 -108 -225 -108q-79 0 -126 38zM467 145v120q-238 -14 -297 -73q-26 -28 -26 -63q0 -41 32 -64
t83 -23q114 0 208 103zM145 667v58h360v-58h-360z" />
    <glyph glyph-name="Abreve" unicode="&#x102;" horiz-adv-x="836" 
d="M57 0l287 700h149l287 -700h-80l-83 202h-399l-83 -202h-78zM394 629l-148 -360h344l-148 360h-48zM297 836q-49 37 -49 104q0 8 1.5 19t3.5 25h60l-1 -10l-1 -8q-1 -5 -1 -9.5v-6.5q0 -94 110 -94t110 94q0 8 -1 17t-3 17h61q2 -11 3 -22t1 -22q0 -66 -48 -104
q-46 -36 -123 -36q-76 0 -123 36z" />
    <glyph glyph-name="abreve" unicode="&#x103;" horiz-adv-x="636" 
d="M118 24q-46 37 -46 101q0 57 41 98q35 35 116 59q42 13 101 20.5t137 11.5v28q0 137 -145 137q-110 0 -217 -81h-1v71q103 73 228 73q207 0 207 -200v-342h-68l-2 94q-97 -108 -225 -108q-79 0 -126 38zM467 145v120q-238 -14 -297 -73q-26 -28 -26 -63q0 -41 32 -64
t83 -23q114 0 208 103zM202 678q-49 37 -49 104q0 8 1.5 19t3.5 25h60l-1 -10l-1 -8q-1 -5 -1 -9.5v-6.5q0 -94 110 -94t110 94q0 8 -1 17t-3 17h61q2 -11 3 -22t1 -22q0 -66 -48 -104q-46 -36 -123 -36q-76 0 -123 36z" />
    <glyph glyph-name="Aogonek" unicode="&#x104;" horiz-adv-x="836" 
d="M57 0l287 700h149l287 -700h-1l-57 -57q-77 -79 -77 -118q0 -58 81 -58q52 0 91 27v-60q-48 -23 -103 -23q-68 0 -104 30q-33 27 -33 73q0 63 99 158l25 24l-84 206h-399l-83 -202h-78zM394 629l-148 -360h344l-147 360h-49z" />
    <glyph glyph-name="aogonek" unicode="&#x105;" horiz-adv-x="636" 
d="M118 24q-46 37 -46 101q0 57 41 98q35 35 116 59q42 13 101 20.5t137 11.5v28q0 137 -145 137q-110 0 -217 -81h-1v71q103 73 228 73q207 0 207 -200v-342l-57 -57q-77 -79 -77 -118q0 -58 81 -58q52 0 91 27v-60q-48 -23 -103 -23q-68 0 -104 30q-33 27 -33 73
q0 63 99 158l35 33l-2 89q-97 -108 -225 -108q-79 0 -126 38zM467 145v120q-238 -14 -297 -73q-26 -28 -26 -63q0 -41 32 -64t83 -23q114 0 208 103z" />
    <glyph glyph-name="Cacute" unicode="&#x106;" horiz-adv-x="804" 
d="M171 90q-96 98 -96 258q0 157 102 259q107 107 282 107q146 0 264 -88v-80h-1q-137 98 -265 98q-137 0 -221 -84q-83 -83 -83 -211q0 -131 80 -211q81 -82 221 -82q138 0 268 96h1v-80q-119 -86 -273 -86q-178 0 -279 104zM405 821l133 164h99v-3l-163 -161h-69z" />
    <glyph glyph-name="cacute" unicode="&#x107;" horiz-adv-x="613" 
d="M142 61q-79 75 -79 201q0 121 81 200q82 79 209 79q107 0 190 -59v-72h-1q-89 68 -186 68q-98 0 -158 -61q-61 -61 -61 -154q0 -98 59 -155t158 -57q100 0 188 67h1v-72q-86 -59 -193 -59q-128 0 -208 74zM297 649l133 164h99v-3l-163 -161h-69z" />
    <glyph glyph-name="Cdotaccent" unicode="&#x10a;" horiz-adv-x="804" 
d="M171 90q-96 98 -96 258q0 157 102 259q107 107 282 107q146 0 264 -88v-80h-1q-137 98 -265 98q-137 0 -221 -84q-83 -83 -83 -211q0 -131 80 -211q81 -82 221 -82q138 0 268 96h1v-80q-119 -86 -273 -86q-178 0 -279 104zM414 836q-15 14 -15 35q0 20 15 33q15 15 38 15
q24 0 39 -15q15 -13 15 -33q0 -21 -14 -35q-16 -14 -39 -14t-39 14z" />
    <glyph glyph-name="cdotaccent" unicode="&#x10b;" horiz-adv-x="613" 
d="M142 61q-79 75 -79 201q0 121 81 200q82 79 209 79q107 0 190 -59v-72h-1q-89 68 -186 68q-98 0 -158 -61q-61 -61 -61 -154q0 -98 59 -155t158 -57q100 0 188 67h1v-72q-86 -59 -193 -59q-128 0 -208 74zM306 664q-15 14 -15 35q0 20 15 33q15 15 38 15q24 0 39 -15
q15 -13 15 -33q0 -21 -14 -35q-16 -14 -39 -14t-39 14z" />
    <glyph glyph-name="Ccaron" unicode="&#x10c;" horiz-adv-x="804" 
d="M171 90q-96 98 -96 258q0 157 102 259q107 107 282 107q146 0 264 -88v-80h-1q-137 98 -265 98q-137 0 -221 -84q-83 -83 -83 -211q0 -131 80 -211q81 -82 221 -82q138 0 268 96h1v-80q-119 -86 -273 -86q-178 0 -279 104zM649 992l-140 -171h-112l-140 171h78l98 -119
h40l98 119h78z" />
    <glyph glyph-name="ccaron" unicode="&#x10d;" horiz-adv-x="613" 
d="M142 61q-79 75 -79 201q0 121 81 200q82 79 209 79q107 0 190 -59v-72h-1q-89 68 -186 68q-98 0 -158 -61q-61 -61 -61 -154q0 -98 59 -155t158 -57q100 0 188 67h1v-72q-86 -59 -193 -59q-128 0 -208 74zM541 820l-140 -171h-112l-140 171h78l98 -119h40l98 119h78z" />
    <glyph glyph-name="Dcaron" unicode="&#x10e;" horiz-adv-x="868" 
d="M125 0v700h314q169 0 260 -93q92 -92 92 -256q0 -162 -91 -256q-92 -95 -261 -95h-314zM201 69h237q134 0 204 73q71 73 71 208q0 134 -71 208q-70 73 -204 73h-237v-562zM621 979l-140 -171h-112l-140 171h78l98 -119h40l98 119h78z" />
    <glyph glyph-name="dcaron" unicode="&#x10f;" horiz-adv-x="695" 
d="M591 746v-746h-71v84q-19 -21 -40.5 -37.5t-44.5 -29.5q-58 -31 -124 -31q-106 0 -175 71q-73 74 -73 203q0 118 80 200q79 82 200 82q100 0 176 -61v265h72zM195 417q-58 -61 -58 -154q0 -104 57 -161q53 -54 138 -54q110 0 187 89v269q-74 74 -171 74q-94 0 -153 -63z
M694 575v171h78v-6l-35 -165h-43z" />
    <glyph glyph-name="Dcroat" unicode="&#x110;" horiz-adv-x="897" 
d="M154 0v321h-119l6 59h113v320h314q169 0 260 -93q92 -92 92 -256q0 -162 -91 -256q-92 -95 -261 -95h-314zM230 69h237q134 0 204 73q71 73 71 208q0 134 -71 208q-70 73 -204 73h-237v-251h242v-59h-242v-252z" />
    <glyph glyph-name="dcroat" unicode="&#x111;" horiz-adv-x="701" 
d="M693 600h-102v-600h-71v85q-85 -99 -207 -99q-111 0 -180 71q-70 70 -70 183q0 119 81 195q82 77 203 77q95 0 172 -56v144h-198v50h198v96h72v-96h98zM196 391q-59 -59 -59 -148t54 -142q53 -53 143 -53q102 0 185 89v244q-70 68 -168 68q-97 0 -155 -58z" />
    <glyph glyph-name="Emacron" unicode="&#x112;" horiz-adv-x="774" 
d="M125 0v700h559l4 -69h-487v-234h403v-69h-403v-259h503l-3 -69h-576zM236 825v58h360v-58h-360z" />
    <glyph glyph-name="emacron" unicode="&#x113;" horiz-adv-x="645" 
d="M524 461q58 -71 58 -186v-11l-1 -11h-446q1 -94 58 -148q59 -56 159 -56q110 0 204 64h1v-68q-91 -58 -207 -58q-137 0 -214 75q-73 70 -73 191q0 125 75 206q77 83 198 83q124 0 188 -81zM204 433q-53 -48 -65 -128h374q-5 76 -46 123q-48 54 -133 54q-78 0 -130 -49z
M157 667v58h360v-58h-360z" />
    <glyph glyph-name="Ebreve" unicode="&#x114;" horiz-adv-x="774" 
d="M125 0v700h559l4 -69h-487v-234h403v-69h-403v-259h503l-3 -69h-576zM293 836q-49 37 -49 104q0 8 1.5 19t3.5 25h60l-1 -10l-1 -8q-1 -5 -1 -9.5v-6.5q0 -94 110 -94t110 94q0 8 -1 17t-3 17h61q2 -11 3 -22t1 -22q0 -66 -48 -104q-46 -36 -123 -36q-76 0 -123 36z" />
    <glyph glyph-name="ebreve" unicode="&#x115;" horiz-adv-x="645" 
d="M524 461q58 -71 58 -186v-11l-1 -11h-446q1 -94 58 -148q59 -56 159 -56q110 0 204 64h1v-68q-91 -58 -207 -58q-137 0 -214 75q-73 70 -73 191q0 125 75 206q77 83 198 83q124 0 188 -81zM204 433q-53 -48 -65 -128h374q-5 76 -46 123q-48 54 -133 54q-78 0 -130 -49z
M214 678q-49 37 -49 104q0 8 1.5 19t3.5 25h60l-1 -10l-1 -8q-1 -5 -1 -9.5v-6.5q0 -94 110 -94t110 94q0 8 -1 17t-3 17h61q2 -11 3 -22t1 -22q0 -66 -48 -104q-46 -36 -123 -36q-76 0 -123 36z" />
    <glyph glyph-name="Edotaccent" unicode="&#x116;" horiz-adv-x="774" 
d="M125 0v700h559l4 -69h-487v-234h403v-69h-403v-259h503l-3 -69h-576zM378 823q-15 14 -15 35q0 20 15 33q15 15 38 15q24 0 39 -15q15 -13 15 -33q0 -21 -14 -35q-16 -14 -39 -14t-39 14z" />
    <glyph glyph-name="edotaccent" unicode="&#x117;" horiz-adv-x="645" 
d="M524 461q58 -71 58 -186v-11l-1 -11h-446q1 -94 58 -148q59 -56 159 -56q110 0 204 64h1v-68q-91 -58 -207 -58q-137 0 -214 75q-73 70 -73 191q0 125 75 206q77 83 198 83q124 0 188 -81zM204 433q-53 -48 -65 -128h374q-5 76 -46 123q-48 54 -133 54q-78 0 -130 -49z
M298 665q-15 14 -15 35q0 20 15 33q15 15 38 15q24 0 39 -15q15 -13 15 -33q0 -21 -14 -35q-16 -14 -39 -14t-39 14z" />
    <glyph glyph-name="Eogonek" unicode="&#x118;" horiz-adv-x="774" 
d="M125 0v700h559l4 -69h-487v-234h403v-69h-403v-259h503l-3 -69h-1l-57 -57q-77 -79 -77 -118q0 -58 81 -58q52 0 91 27v-60q-48 -23 -103 -23q-68 0 -104 30q-33 27 -33 73q0 63 99 158l29 28h-501z" />
    <glyph glyph-name="eogonek" unicode="&#x119;" horiz-adv-x="645" 
d="M136 62q-73 70 -73 191q0 125 75 206q77 83 198 83q124 0 188 -81q58 -71 58 -186v-11l-1 -11h-446q1 -94 58 -148q59 -56 159 -56q110 0 204 64h1v-68l-23 -28q-75 -76 -105 -116q-33 -45 -33 -80q0 -60 82 -60q49 0 89 21v-58q-44 -19 -101 -19q-68 0 -105 31
q-33 27 -33 73q0 72 125 191q-51 -13 -103 -13q-137 0 -214 75zM204 433q-53 -48 -65 -128h374q-5 76 -46 123q-48 54 -133 54q-78 0 -130 -49z" />
    <glyph glyph-name="Ecaron" unicode="&#x11a;" horiz-adv-x="774" 
d="M125 0v700h559l4 -69h-487v-234h403v-69h-403v-259h503l-3 -69h-576zM612 979l-140 -171h-112l-140 171h78l98 -119h40l98 119h78z" />
    <glyph glyph-name="ecaron" unicode="&#x11b;" horiz-adv-x="645" 
d="M524 461q58 -71 58 -186v-11l-1 -11h-446q1 -94 58 -148q59 -56 159 -56q110 0 204 64h1v-68q-91 -58 -207 -58q-137 0 -214 75q-73 70 -73 191q0 125 75 206q77 83 198 83q124 0 188 -81zM204 433q-53 -48 -65 -128h374q-5 76 -46 123q-48 54 -133 54q-78 0 -130 -49z
M533 821l-140 -171h-112l-140 171h78l98 -119h40l98 119h78z" />
    <glyph glyph-name="Gbreve" unicode="&#x11e;" horiz-adv-x="877" 
d="M176 82q-101 98 -101 258q0 161 105 266q108 108 284 108q168 0 271 -88v-79h-1q-115 97 -271 97q-142 0 -227 -85q-83 -83 -83 -218q0 -131 79 -210q81 -81 220 -81q126 0 203 68q74 69 79 188h-314v64h389q1 -5 1 -14v-23q-1 -167 -104 -262q-98 -89 -258 -89
q-171 0 -272 100zM319 849q-49 37 -49 104q0 8 1.5 19t3.5 25h60l-1 -10l-1 -8q-1 -5 -1 -9.5v-6.5q0 -94 110 -94t110 94q0 8 -1 17t-3 17h61q2 -11 3 -22t1 -22q0 -66 -48 -104q-46 -36 -123 -36q-76 0 -123 36z" />
    <glyph glyph-name="gbreve" unicode="&#x11f;" horiz-adv-x="608" 
d="M248 185l-20 -94q361 -25 361 -152q0 -57 -71 -99q-70 -42 -202 -42q-125 0 -198 35q-72 34 -72 98q0 81 122 131l28 137q-113 44 -113 157q0 79 58 131q62 55 172 55q51 0 99 -16l68 103h81v-1l-101 -126q76 -49 76 -138q0 -78 -58 -129q-62 -55 -170 -55q-16 0 -31 1.5
t-29 3.5zM423 268q44 35 44 95q0 58 -42 92q-43 34 -112 34q-72 0 -116 -36t-44 -95q0 -57 43 -91t112 -34q71 0 115 35zM464 -126q57 22 57 61q0 83 -327 101q-86 -39 -86 -92q0 -43 62 -69q59 -24 152 -24q85 0 142 23zM179 678q-49 37 -49 104q0 8 1.5 19t3.5 25h60
l-1 -10l-1 -8q-1 -5 -1 -9.5v-6.5q0 -94 110 -94t110 94q0 8 -1 17t-3 17h61q2 -11 3 -22t1 -22q0 -66 -48 -104q-46 -36 -123 -36q-76 0 -123 36z" />
    <glyph glyph-name="Gdotaccent" unicode="&#x120;" horiz-adv-x="877" 
d="M176 82q-101 98 -101 258q0 161 105 266q108 108 284 108q168 0 271 -88v-79h-1q-115 97 -271 97q-142 0 -227 -85q-83 -83 -83 -218q0 -131 79 -210q81 -81 220 -81q126 0 203 68q74 69 79 188h-314v64h389q1 -5 1 -14v-23q-1 -167 -104 -262q-98 -89 -258 -89
q-171 0 -272 100zM403 836q-15 14 -15 35q0 20 15 33q15 15 38 15q24 0 39 -15q15 -13 15 -33q0 -21 -14 -35q-16 -14 -39 -14t-39 14z" />
    <glyph glyph-name="gdotaccent" unicode="&#x121;" horiz-adv-x="608" 
d="M248 185l-20 -94q361 -25 361 -152q0 -57 -71 -99q-70 -42 -202 -42q-125 0 -198 35q-72 34 -72 98q0 81 122 131l28 137q-113 44 -113 157q0 79 58 131q62 55 172 55q51 0 99 -16l68 103h81v-1l-101 -126q76 -49 76 -138q0 -78 -58 -129q-62 -55 -170 -55q-16 0 -31 1.5
t-29 3.5zM423 268q44 35 44 95q0 58 -42 92q-43 34 -112 34q-72 0 -116 -36t-44 -95q0 -57 43 -91t112 -34q71 0 115 35zM464 -126q57 22 57 61q0 83 -327 101q-86 -39 -86 -92q0 -43 62 -69q59 -24 152 -24q85 0 142 23zM264 665q-15 14 -15 35q0 20 15 33q15 15 38 15
q24 0 39 -15q15 -13 15 -33q0 -21 -14 -35q-16 -14 -39 -14t-39 14z" />
    <glyph glyph-name="uni0122" unicode="&#x122;" horiz-adv-x="877" 
d="M176 82q-101 98 -101 258q0 161 105 266q108 108 284 108q168 0 271 -88v-79h-1q-115 97 -271 97q-142 0 -227 -85q-83 -83 -83 -218q0 -131 79 -210q81 -81 220 -81q126 0 203 68q74 69 79 188h-314v64h389q1 -5 1 -14v-23q-1 -167 -104 -262q-98 -89 -258 -89
q-171 0 -272 100zM340 -336l77 205h85v-6l-113 -199h-49z" />
    <glyph glyph-name="uni0123" unicode="&#x123;" horiz-adv-x="608" 
d="M248 185l-20 -94q361 -25 361 -152q0 -57 -71 -99q-70 -42 -202 -42q-125 0 -198 35q-72 34 -72 98q0 81 122 131l28 137q-113 44 -113 157q0 79 58 131q62 55 172 55q51 0 99 -16l68 103h81v-1l-101 -126q76 -49 76 -138q0 -78 -58 -129q-62 -55 -170 -55q-16 0 -31 1.5
t-29 3.5zM423 268q44 35 44 95q0 58 -42 92q-43 34 -112 34q-72 0 -116 -36t-44 -95q0 -57 43 -91t112 -34q71 0 115 35zM464 -126q57 22 57 61q0 83 -327 101q-86 -39 -86 -92q0 -43 62 -69q59 -24 152 -24q85 0 142 23zM434 856l-77 -205h-85v6l113 199h49z" />
    <glyph glyph-name="Hbar" unicode="&#x126;" horiz-adv-x="933" 
d="M154 0v514h-119l4 60h115v126h76v-128h473v128h76v-126h115l4 -60h-119v-514h-76v295h-473v-295h-76zM230 365h473v151h-473v-151z" />
    <glyph glyph-name="hbar" unicode="&#x127;" horiz-adv-x="686" 
d="M109 0v600h-101l4 50h97v96h72v-96h198v-50h-198v-215q51 60 95 88q59 40 129 40q86 0 134 -49q50 -52 50 -150v-314h-73v299q0 149 -134 149q-65 0 -111 -37q-49 -37 -89 -83v-328h-73z" />
    <glyph glyph-name="Imacron" unicode="&#x12a;" horiz-adv-x="334" 
d="M129 0v700h76v-700h-76zM-13 825v58h360v-58h-360z" />
    <glyph glyph-name="imacron" unicode="&#x12b;" horiz-adv-x="286" 
d="M107 0v528h72v-528h-72zM-37 653v58h360v-58h-360z" />
    <glyph glyph-name="Ibreve" unicode="&#x12c;" horiz-adv-x="334" 
d="M129 0v700h76v-700h-76zM44 836q-49 37 -49 104q0 8 1.5 19t3.5 25h60l-1 -10l-1 -8q-1 -5 -1 -9.5v-6.5q0 -94 110 -94t110 94q0 8 -1 17t-3 17h61q2 -11 3 -22t1 -22q0 -66 -48 -104q-46 -36 -123 -36q-76 0 -123 36z" />
    <glyph glyph-name="ibreve" unicode="&#x12d;" horiz-adv-x="286" 
d="M107 0v528h72v-528h-72zM20 664q-49 37 -49 104q0 8 1.5 19t3.5 25h60l-1 -10l-1 -8q-1 -5 -1 -9.5v-6.5q0 -94 110 -94t110 94q0 8 -1 17t-3 17h61q2 -11 3 -22t1 -22q0 -66 -48 -104q-46 -36 -123 -36q-76 0 -123 36z" />
    <glyph glyph-name="Iogonek" unicode="&#x12e;" horiz-adv-x="334" 
d="M242 -266q-48 -23 -103 -23q-68 0 -104 30q-33 27 -33 73q0 63 99 158l28 27v701h76v-700h-1l-57 -57q-77 -79 -77 -118q0 -58 81 -58q52 0 91 27v-60z" />
    <glyph glyph-name="iogonek" unicode="&#x12f;" horiz-adv-x="286" 
d="M104 651q-14 14 -14 35q0 19 14 33q15 15 39 15t39 -15q14 -14 14 -33q0 -21 -14 -35q-16 -14 -39 -14t-39 14zM217 -266q-48 -23 -103 -23q-68 0 -104 30q-33 27 -33 73q0 63 99 158l31 29v527h72v-528l-57 -57q-77 -79 -77 -118q0 -58 81 -58q52 0 91 27v-60z" />
    <glyph glyph-name="Idotaccent" unicode="&#x130;" horiz-adv-x="334" 
d="M129 0v700h76v-700h-76zM128 823q-15 14 -15 35q0 20 15 33q15 15 38 15q24 0 39 -15q15 -13 15 -33q0 -21 -14 -35q-16 -14 -39 -14t-39 14z" />
    <glyph glyph-name="dotlessi" unicode="&#x131;" horiz-adv-x="286" 
d="M107 0v528h72v-528h-72z" />
    <glyph glyph-name="uni0136" unicode="&#x136;" horiz-adv-x="806" 
d="M125 0v700h76v-308h182l277 308h89l-305 -339l327 -361h-94l-298 324h-178v-324h-76zM298 -292l77 205h85v-6l-113 -199h-49z" />
    <glyph glyph-name="uni0137" unicode="&#x137;" horiz-adv-x="629" 
d="M104 0v746h72v-434h128l194 216h85l-218 -247l233 -281h-87l-208 249h-127v-249h-72zM214 -294l77 205h85v-6l-113 -199h-49z" />
    <glyph glyph-name="Lacute" unicode="&#x139;" horiz-adv-x="699" 
d="M125 0v700h76v-630h449l-4 -70h-521zM128 808l133 164h99v-3l-163 -161h-69z" />
    <glyph glyph-name="lacute" unicode="&#x13a;" horiz-adv-x="286" 
d="M107 0v746h72v-746h-72zM109 854l133 164h99v-3l-163 -161h-69z" />
    <glyph glyph-name="uni013B" unicode="&#x13b;" horiz-adv-x="699" 
d="M125 0v700h76v-630h449l-4 -70h-521zM274 -322l77 205h85v-6l-113 -199h-49z" />
    <glyph glyph-name="uni013C" unicode="&#x13c;" horiz-adv-x="286" 
d="M107 0v746h72v-746h-72zM22 -322l77 205h85v-6l-113 -199h-49z" />
    <glyph glyph-name="Lcaron" unicode="&#x13d;" horiz-adv-x="699" 
d="M125 0v700h76v-630h449l-4 -70h-521zM319 529v171h78v-6l-35 -165h-43z" />
    <glyph glyph-name="lcaron" unicode="&#x13e;" horiz-adv-x="286" 
d="M107 0v746h72v-746h-72zM285 575v171h78v-6l-35 -165h-43z" />
    <glyph glyph-name="Ldot" unicode="&#x13f;" horiz-adv-x="703" 
d="M125 0v700h76v-630h449l-4 -70h-521zM475 384q-14 14 -14 34v1q0 19 14 33q15 15 39 15t39 -15q15 -13 15 -33v-1q0 -20 -15 -34q-15 -15 -39 -15t-39 15z" />
    <glyph glyph-name="ldot" unicode="&#x140;" horiz-adv-x="426" 
d="M107 0v746h72v-746h-72zM317 342q-14 14 -14 34v1q0 19 14 33q15 15 38 15q24 0 39 -15q15 -13 15 -33v-1q0 -20 -14 -34q-15 -15 -39 -15t-39 15z" />
    <glyph glyph-name="Lslash" unicode="&#x141;" horiz-adv-x="724" 
d="M146 0v255l-112 -62v71l112 63v373h76v-330l276 155v-71l-276 -156v-228h450l-4 -70h-522z" />
    <glyph glyph-name="lslash" unicode="&#x142;" horiz-adv-x="408" 
d="M168 0v322l-136 -91v61l136 91v363h72v-316l136 90v-61l-136 -90v-369h-72z" />
    <glyph glyph-name="Nacute" unicode="&#x143;" horiz-adv-x="877" 
d="M125 0v700h100l441 -592h11v592h75v-700h-96l-445 598h-12v-598h-74zM407 783l133 164h99v-3l-163 -161h-69z" />
    <glyph glyph-name="nacute" unicode="&#x144;" horiz-adv-x="681" 
d="M104 0v528h71v-113q40 48 95 88q54 39 129 39q86 0 134 -49q50 -52 50 -150v-343h-73v328q0 150 -134 150q-65 0 -111 -37q-48 -36 -89 -84v-357h-72zM299 650l133 164h99v-3l-163 -161h-69z" />
    <glyph glyph-name="uni0145" unicode="&#x145;" horiz-adv-x="877" 
d="M125 0v700h100l441 -592h11v592h75v-700h-96l-445 598h-12v-598h-74zM313 -291l77 205h85v-6l-113 -199h-49z" />
    <glyph glyph-name="uni0146" unicode="&#x146;" horiz-adv-x="681" 
d="M104 0v528h71v-113q40 48 95 88q54 39 129 39q86 0 134 -49q50 -52 50 -150v-343h-73v328q0 150 -134 150q-65 0 -111 -37q-48 -36 -89 -84v-357h-72zM233 -310l77 205h85v-6l-113 -199h-49z" />
    <glyph glyph-name="Ncaron" unicode="&#x147;" horiz-adv-x="877" 
d="M125 0v700h100l441 -592h11v592h75v-700h-96l-445 598h-12v-598h-74zM651 954l-140 -171h-112l-140 171h78l98 -119h40l98 119h78z" />
    <glyph glyph-name="ncaron" unicode="&#x148;" horiz-adv-x="681" 
d="M104 0v528h71v-113q40 48 95 88q54 39 129 39q86 0 134 -49q50 -52 50 -150v-343h-73v328q0 150 -134 150q-65 0 -111 -37q-48 -36 -89 -84v-357h-72zM543 821l-140 -171h-112l-140 171h78l98 -119h40l98 119h78z" />
    <glyph glyph-name="Omacron" unicode="&#x14c;" horiz-adv-x="911" 
d="M178 82q-103 99 -103 268q0 167 103 267q104 101 277 101q175 0 278 -100q103 -99 103 -268q0 -167 -103 -267q-104 -101 -278 -101q-176 0 -277 100zM676 132q82 81 82 218t-81 219q-81 81 -221 81t-221 -81q-82 -82 -82 -219t81 -218q81 -82 221 -82q139 0 221 82z
M275 843v58h360v-58h-360z" />
    <glyph glyph-name="omacron" unicode="&#x14d;" horiz-adv-x="696" 
d="M138 67q-75 77 -75 197q0 119 77 198q80 80 209 80q131 0 209 -80q75 -76 75 -198q0 -121 -76 -197q-79 -81 -209 -81t-210 81zM502 110q57 60 57 154q0 95 -57 155q-58 61 -154 61t-154 -61q-57 -61 -57 -155q0 -95 57 -154q59 -62 155 -62q94 0 153 62zM168 667v58h360
v-58h-360z" />
    <glyph glyph-name="Obreve" unicode="&#x14e;" horiz-adv-x="911" 
d="M178 82q-103 99 -103 268q0 167 103 267q104 101 277 101q175 0 278 -100q103 -99 103 -268q0 -167 -103 -267q-104 -101 -278 -101q-176 0 -277 100zM676 132q82 81 82 218t-81 219q-81 81 -221 81t-221 -81q-82 -82 -82 -219t81 -218q81 -82 221 -82q139 0 221 82z
M332 854q-49 37 -49 104q0 8 1.5 19t3.5 25h60l-1 -10l-1 -8q-1 -5 -1 -9.5v-6.5q0 -94 110 -94t110 94q0 8 -1 17t-3 17h61q2 -11 3 -22t1 -22q0 -66 -48 -104q-46 -36 -123 -36q-76 0 -123 36z" />
    <glyph glyph-name="obreve" unicode="&#x14f;" horiz-adv-x="696" 
d="M138 67q-75 77 -75 197q0 119 77 198q80 80 209 80q131 0 209 -80q75 -76 75 -198q0 -121 -76 -197q-79 -81 -209 -81t-210 81zM502 110q57 60 57 154q0 95 -57 155q-58 61 -154 61t-154 -61q-57 -61 -57 -155q0 -95 57 -154q59 -62 155 -62q94 0 153 62zM225 678
q-49 37 -49 104q0 8 1.5 19t3.5 25h60l-1 -10l-1 -8q-1 -5 -1 -9.5v-6.5q0 -94 110 -94t110 94q0 8 -1 17t-3 17h61q2 -11 3 -22t1 -22q0 -66 -48 -104q-46 -36 -123 -36q-76 0 -123 36z" />
    <glyph glyph-name="Ohungarumlaut" unicode="&#x150;" horiz-adv-x="911" 
d="M178 82q-103 99 -103 268q0 167 103 267q104 101 277 101q175 0 278 -100q103 -99 103 -268q0 -167 -103 -267q-104 -101 -278 -101q-176 0 -277 100zM676 132q82 81 82 218t-81 219q-81 81 -221 81t-221 -81q-82 -82 -82 -219t81 -218q81 -82 221 -82q139 0 221 82z
M541 826l129 164h86v-3l-156 -161h-59zM328 826l128 164h87v-3l-156 -161h-59z" />
    <glyph glyph-name="ohungarumlaut" unicode="&#x151;" horiz-adv-x="696" 
d="M138 67q-75 77 -75 197q0 119 77 198q80 80 209 80q131 0 209 -80q75 -76 75 -198q0 -121 -76 -197q-79 -81 -209 -81t-210 81zM502 110q57 60 57 154q0 95 -57 155q-58 61 -154 61t-154 -61q-57 -61 -57 -155q0 -95 57 -154q59 -62 155 -62q94 0 153 62zM434 650
l129 164h86v-3l-156 -161h-59zM221 650l128 164h87v-3l-156 -161h-59z" />
    <glyph glyph-name="OE" unicode="&#x152;" horiz-adv-x="1315" 
d="M168 606q91 94 261 94h796l4 -69h-487v-234h404v-69h-404v-259h504l-4 -69h-813q-168 0 -261 93q-92 92 -92 256q0 162 92 257zM666 631h-236q-135 0 -205 -73q-71 -73 -71 -208q0 -134 71 -208q70 -73 204 -73h237v562z" />
    <glyph glyph-name="oe" unicode="&#x153;" horiz-adv-x="1141" 
d="M593 133q-30 -68 -92 -106q-65 -41 -153 -41q-130 0 -210 81q-75 77 -75 197q0 119 77 198q80 80 208 80q91 0 158 -43q63 -41 91 -113q30 74 90 114q62 42 143 42q124 0 190 -81q58 -71 58 -186v-11l-1 -11h-446q1 -94 58 -148q59 -56 159 -56q110 0 204 64h1v-68
q-91 -58 -207 -58q-194 0 -253 146zM699 433q-52 -47 -64 -128h374q-5 78 -47 123q-48 54 -134 54q-77 0 -129 -49zM502 110q57 59 57 154q0 94 -56 155q-58 61 -155 61q-96 0 -154 -61q-57 -61 -57 -155q0 -95 57 -154q59 -62 155 -62q94 0 153 62z" />
    <glyph glyph-name="Racute" unicode="&#x154;" horiz-adv-x="807" 
d="M125 0v700h351q122 0 189 -59q63 -58 63 -164q0 -89 -46 -144q-45 -57 -136 -74l203 -259h-91l-190 249h-267v-249h-76zM201 316h273q96 0 136 46q41 47 41 112t-41 112q-40 45 -136 45h-273v-315zM357 808l133 164h99v-3l-163 -161h-69z" />
    <glyph glyph-name="racute" unicode="&#x155;" horiz-adv-x="410" 
d="M104 0v528h71v-125q71 138 193 138h5q5 0 7 -1v-72q-3 1 -14 1q-131 0 -190 -129v-340h-72zM191 649l133 164h99v-3l-163 -161h-69z" />
    <glyph glyph-name="uni0156" unicode="&#x156;" horiz-adv-x="807" 
d="M125 0v700h351q122 0 189 -59q63 -58 63 -164q0 -89 -46 -144q-45 -57 -136 -74l203 -259h-91l-190 249h-267v-249h-76zM201 316h273q96 0 136 46q41 47 41 112t-41 112q-40 45 -136 45h-273v-315zM304 -292l77 205h85v-6l-113 -199h-49z" />
    <glyph glyph-name="uni0157" unicode="&#x157;" horiz-adv-x="410" 
d="M104 0v528h71v-125q71 138 193 138h5q5 0 7 -1v-72q-3 1 -14 1q-131 0 -190 -129v-340h-72zM18 -322l77 205h85v-6l-113 -199h-49z" />
    <glyph glyph-name="Rcaron" unicode="&#x158;" horiz-adv-x="807" 
d="M125 0v700h351q122 0 189 -59q63 -58 63 -164q0 -89 -46 -144q-45 -57 -136 -74l203 -259h-91l-190 249h-267v-249h-76zM201 316h273q96 0 136 46q41 47 41 112t-41 112q-40 45 -136 45h-273v-315zM601 979l-140 -171h-112l-140 171h78l98 -119h40l98 119h78z" />
    <glyph glyph-name="rcaron" unicode="&#x159;" horiz-adv-x="410" 
d="M104 0v528h71v-125q71 138 193 138h5q5 0 7 -1v-72q-3 1 -14 1q-131 0 -190 -129v-340h-72zM435 820l-140 -171h-112l-140 171h78l98 -119h40l98 119h78z" />
    <glyph glyph-name="Sacute" unicode="&#x15a;" horiz-adv-x="760" 
d="M84 64v80h1q152 -90 315 -90q98 0 155 36q55 36 55 97q0 55 -50 84q-24 13 -70 26t-115 26q-130 24 -201 63t-71 126q0 89 75 144q80 60 213 60q146 0 268 -68v-81h-1q-124 79 -273 79q-92 0 -148 -35q-55 -34 -55 -91q0 -59 58 -84q57 -25 176 -48q143 -25 203 -64
q70 -45 70 -132q0 -88 -67 -143q-77 -65 -223 -65q-172 0 -315 80zM361 824l133 164h99v-3l-163 -161h-69z" />
    <glyph glyph-name="sacute" unicode="&#x15b;" horiz-adv-x="591" 
d="M76 50v68h1q107 -71 234 -71q68 0 108 26q39 26 39 68q0 38 -34 60q-34 21 -137 40q-110 21 -155 51q-49 33 -49 95q0 66 58 111q59 44 157 44q111 0 205 -54v-68h-1q-103 62 -210 62q-61 0 -98 -25q-39 -25 -39 -65t40 -58q39 -19 140 -39q110 -22 153 -57
q42 -34 42 -95q0 -66 -52 -108q-58 -49 -170 -49q-126 0 -232 64zM256 650l133 164h99v-3l-163 -161h-69z" />
    <glyph glyph-name="Scedilla" unicode="&#x15e;" horiz-adv-x="760" 
d="M630 56q-68 -64 -197 -71l-118 -176h-96v3l148 173q-155 8 -283 79v80h1q152 -90 315 -90q98 0 155 36q55 36 55 97q0 55 -50 84q-24 13 -70 26t-115 26q-130 24 -201 63t-71 126q0 89 75 144q80 60 213 60q146 0 268 -68v-81h-1q-124 79 -273 79q-92 0 -148 -35
q-55 -34 -55 -91q0 -59 58 -84q57 -25 176 -48q143 -25 203 -64q70 -45 70 -132q0 -82 -59 -136z" />
    <glyph glyph-name="scedilla" unicode="&#x15f;" horiz-adv-x="591" 
d="M490 45q-40 -46 -133 -56l-120 -179h-96v3l149 173q-115 4 -214 64v68h1q107 -71 234 -71q68 0 108 26q39 26 39 68q0 38 -34 60q-34 21 -137 40q-110 21 -155 51q-49 33 -49 95q0 66 58 111q59 44 157 44q111 0 205 -54v-68h-1q-103 62 -210 62q-61 0 -98 -25
q-39 -25 -39 -65t40 -58q39 -19 140 -39q110 -22 153 -57q42 -34 42 -95q0 -55 -40 -98z" />
    <glyph glyph-name="Scaron" unicode="&#x160;" horiz-adv-x="760" 
d="M84 64v80h1q152 -90 315 -90q98 0 155 36q55 36 55 97q0 55 -50 84q-24 13 -70 26t-115 26q-130 24 -201 63t-71 126q0 89 75 144q80 60 213 60q146 0 268 -68v-81h-1q-124 79 -273 79q-92 0 -148 -35q-55 -34 -55 -91q0 -59 58 -84q57 -25 176 -48q143 -25 203 -64
q70 -45 70 -132q0 -88 -67 -143q-77 -65 -223 -65q-172 0 -315 80zM605 995l-140 -171h-112l-140 171h78l98 -119h40l98 119h78z" />
    <glyph glyph-name="scaron" unicode="&#x161;" horiz-adv-x="591" 
d="M76 50v68h1q107 -71 234 -71q68 0 108 26q39 26 39 68q0 38 -34 60q-34 21 -137 40q-110 21 -155 51q-49 33 -49 95q0 66 58 111q59 44 157 44q111 0 205 -54v-68h-1q-103 62 -210 62q-61 0 -98 -25q-39 -25 -39 -65t40 -58q39 -19 140 -39q110 -22 153 -57
q42 -34 42 -95q0 -66 -52 -108q-58 -49 -170 -49q-126 0 -232 64zM500 821l-140 -171h-112l-140 171h78l98 -119h40l98 119h78z" />
    <glyph glyph-name="uni0162" unicode="&#x162;" horiz-adv-x="758" 
d="M341 0v630h-295l4 70h657l4 -70h-294v-630h-76zM257 -322l77 205h85v-6l-113 -199h-49z" />
    <glyph glyph-name="uni0162" unicode="&#x21a;" horiz-adv-x="758" 
d="M341 0v630h-295l4 70h657l4 -70h-294v-630h-76zM257 -322l77 205h85v-6l-113 -199h-49z" />
    <glyph glyph-name="uni0163" unicode="&#x163;" horiz-adv-x="418" 
d="M166 0v467h-130l13 61h117v136l72 8v-144h156v-61h-156v-467h-72zM81 -322l77 205h85v-6l-113 -199h-49z" />
    <glyph glyph-name="uni0163" unicode="&#x21b;" horiz-adv-x="418" 
d="M166 0v467h-130l13 61h117v136l72 8v-144h156v-61h-156v-467h-72zM81 -322l77 205h85v-6l-113 -199h-49z" />
    <glyph glyph-name="Tcaron" unicode="&#x164;" horiz-adv-x="758" 
d="M341 0v630h-295l4 70h657l4 -70h-294v-630h-76zM575 979l-140 -171h-112l-140 171h78l98 -119h40l98 119h78z" />
    <glyph glyph-name="tcaron" unicode="&#x165;" horiz-adv-x="418" 
d="M166 0v467h-130l13 61h117v136l72 8v-144h156v-61h-156v-467h-72zM344 613v171h78v-6l-35 -165h-43z" />
    <glyph glyph-name="Umacron" unicode="&#x16a;" horiz-adv-x="863" 
d="M114 266v434h76v-429q0 -218 242 -218q241 0 241 215v432h76v-432q0 -285 -318 -285q-317 0 -317 283zM251 825v58h360v-58h-360z" />
    <glyph glyph-name="umacron" unicode="&#x16b;" horiz-adv-x="681" 
d="M577 528v-528h-72v112q-40 -45 -95 -87q-52 -39 -128 -39q-86 0 -134 49q-50 52 -50 150v343h72v-328q0 -150 134 -150q63 0 113 38q48 38 87 83v357h73zM153 653v58h360v-58h-360z" />
    <glyph glyph-name="Ubreve" unicode="&#x16c;" horiz-adv-x="863" 
d="M114 266v434h76v-429q0 -218 242 -218q241 0 241 215v432h76v-432q0 -285 -318 -285q-317 0 -317 283zM308 812q-49 37 -49 104q0 8 1.5 19t3.5 25h60l-1 -10l-1 -8q-1 -5 -1 -9.5v-6.5q0 -94 110 -94t110 94q0 8 -1 17t-3 17h61q2 -11 3 -22t1 -22q0 -66 -48 -104
q-46 -36 -123 -36q-76 0 -123 36z" />
    <glyph glyph-name="ubreve" unicode="&#x16d;" horiz-adv-x="681" 
d="M577 528v-528h-72v112q-40 -45 -95 -87q-52 -39 -128 -39q-86 0 -134 49q-50 52 -50 150v343h72v-328q0 -150 134 -150q63 0 113 38q48 38 87 83v357h73zM210 649q-49 37 -49 104q0 8 1.5 19t3.5 25h60l-1 -10l-1 -8q-1 -5 -1 -9.5v-6.5q0 -94 110 -94t110 94q0 8 -1 17
t-3 17h61q2 -11 3 -22t1 -22q0 -66 -48 -104q-46 -36 -123 -36q-76 0 -123 36z" />
    <glyph glyph-name="Uring" unicode="&#x16e;" horiz-adv-x="863" 
d="M114 266v434h76v-429q0 -218 242 -218q241 0 241 215v432h76v-432q0 -285 -318 -285q-317 0 -317 283zM320 812q-42 35 -42 95t42 96q41 37 111 37q69 0 111 -36t42 -96q0 -58 -42 -96q-42 -36 -112 -36q-69 0 -110 36zM501 846q28 22 28 61t-28 63q-29 23 -71 23
q-43 0 -71 -23q-28 -22 -28 -62q0 -39 29 -62q28 -23 71 -23q42 0 70 23z" />
    <glyph glyph-name="uring" unicode="&#x16f;" horiz-adv-x="681" 
d="M577 528v-528h-72v112q-40 -45 -95 -87q-52 -39 -128 -39q-86 0 -134 49q-50 52 -50 150v343h72v-328q0 -150 134 -150q63 0 113 38q48 38 87 83v357h73zM222 649q-42 35 -42 95t42 96q41 37 111 37q69 0 111 -36t42 -96q0 -58 -42 -96q-42 -36 -112 -36q-69 0 -110 36z
M403 683q28 22 28 61t-28 63q-29 23 -71 23q-43 0 -71 -23q-28 -22 -28 -62q0 -39 29 -62q28 -23 71 -23q42 0 70 23z" />
    <glyph glyph-name="Uhungarumlaut" unicode="&#x170;" horiz-adv-x="863" 
d="M114 266v434h76v-429q0 -218 242 -218q241 0 241 215v432h76v-432q0 -285 -318 -285q-317 0 -317 283zM499 808l129 164h86v-3l-156 -161h-59zM286 808l128 164h87v-3l-156 -161h-59z" />
    <glyph glyph-name="uhungarumlaut" unicode="&#x171;" horiz-adv-x="681" 
d="M577 528v-528h-72v112q-40 -45 -95 -87q-52 -39 -128 -39q-86 0 -134 49q-50 52 -50 150v343h72v-328q0 -150 134 -150q63 0 113 38q48 38 87 83v357h73zM419 636l129 164h86v-3l-156 -161h-59zM206 636l128 164h87v-3l-156 -161h-59z" />
    <glyph glyph-name="Uogonek" unicode="&#x172;" horiz-adv-x="863" 
d="M431 -17q-317 0 -317 283v434h76v-429q0 -218 242 -218q241 0 241 215v432h76v-432q0 -244 -234 -279l-55 -55q-77 -79 -77 -118q0 -58 81 -58q52 0 91 27v-60q-48 -23 -103 -23q-68 0 -104 30q-33 27 -33 73q0 63 99 158l21 20h-4z" />
    <glyph glyph-name="uogonek" unicode="&#x173;" horiz-adv-x="681" 
d="M577 528v-528l-57 -57q-77 -79 -77 -118q0 -58 81 -58q52 0 91 27v-60q-48 -23 -103 -23q-68 0 -104 30q-33 27 -33 73q0 63 99 158l31 29v111q-40 -45 -95 -87q-52 -39 -128 -39q-86 0 -134 49q-50 52 -50 150v343h72v-328q0 -150 134 -150q63 0 113 38q48 38 87 83v357
h73z" />
    <glyph glyph-name="Wcircumflex" unicode="&#x174;" horiz-adv-x="1258" 
d="M280 0l-210 700h80l185 -626h36l216 626h89l215 -626h36l183 626h79l-210 -700h-137l-205 598h-13l-206 -598h-138zM433 808l140 171h112l140 -171h-78l-98 119h-40l-98 -119h-78z" />
    <glyph glyph-name="wcircumflex" unicode="&#x175;" horiz-adv-x="992" 
d="M221 0l-174 528h77l146 -461h27l154 459h91l156 -459h27l145 461h74l-174 -528h-120l-147 442h-14l-148 -442h-120zM301 636l140 171h112l140 -171h-78l-98 119h-40l-98 -119h-78z" />
    <glyph glyph-name="Ycircumflex" unicode="&#x176;" horiz-adv-x="797" 
d="M360 0v238l-317 462h89l264 -388h5l266 388h87l-318 -460v-240h-76zM202 808l140 171h112l140 -171h-78l-98 119h-40l-98 -119h-78z" />
    <glyph glyph-name="ycircumflex" unicode="&#x177;" horiz-adv-x="625" 
d="M214 -186l69 169l-239 545h78l200 -462l191 462h75l-301 -714h-73zM123 636l140 171h112l140 -171h-78l-98 119h-40l-98 -119h-78z" />
    <glyph glyph-name="Ydieresis" unicode="&#x178;" horiz-adv-x="797" 
d="M360 0v238l-317 462h89l264 -388h5l266 388h87l-318 -460v-240h-76zM234 823q-14 14 -14 33q0 18 14 32t37 14q22 0 38 -14q13 -13 13 -32q0 -20 -13 -33q-16 -14 -38 -14q-23 0 -37 14zM488 823q-14 14 -14 33q0 18 14 32t37 14q22 0 38 -14q13 -13 13 -32
q0 -20 -13 -33q-16 -14 -38 -14q-23 0 -37 14z" />
    <glyph glyph-name="Zacute" unicode="&#x179;" horiz-adv-x="789" 
d="M85 0v71l521 560h-508l4 69h605v-65l-527 -566h527v-69h-622zM352 808l133 164h99v-3l-163 -161h-69z" />
    <glyph glyph-name="zacute" unicode="&#x17a;" horiz-adv-x="594" 
d="M68 0v57l370 410h-360l3 61h450v-54l-375 -413h375v-61h-463zM259 636l133 164h99v-3l-163 -161h-69z" />
    <glyph glyph-name="Zdotaccent" unicode="&#x17b;" horiz-adv-x="789" 
d="M85 0v71l521 560h-508l4 69h605v-65l-527 -566h527v-69h-622zM361 823q-15 14 -15 35q0 20 15 33q15 15 38 15q24 0 39 -15q15 -13 15 -33q0 -21 -14 -35q-16 -14 -39 -14t-39 14z" />
    <glyph glyph-name="zdotaccent" unicode="&#x17c;" horiz-adv-x="594" 
d="M68 0v57l370 410h-360l3 61h450v-54l-375 -413h375v-61h-463zM268 651q-15 14 -15 35q0 20 15 33q15 15 38 15q24 0 39 -15q15 -13 15 -33q0 -21 -14 -35q-16 -14 -39 -14t-39 14z" />
    <glyph glyph-name="Zcaron" unicode="&#x17d;" horiz-adv-x="789" 
d="M85 0v71l521 560h-508l4 69h605v-65l-527 -566h527v-69h-622zM596 979l-140 -171h-112l-140 171h78l98 -119h40l98 119h78z" />
    <glyph glyph-name="zcaron" unicode="&#x17e;" horiz-adv-x="594" 
d="M68 0v57l370 410h-360l3 61h450v-54l-375 -413h375v-61h-463zM503 807l-140 -171h-112l-140 171h78l98 -119h40l98 119h78z" />
    <glyph glyph-name="Aringacute" unicode="&#x1fa;" horiz-adv-x="836" 
d="M57 0l287 700h149l287 -700h-80l-83 202h-399l-83 -202h-78zM394 629l-148 -360h344l-148 360h-48zM309 836q-42 35 -42 95t42 96q41 37 111 37q69 0 111 -36t42 -96q0 -58 -42 -96q-42 -36 -112 -36q-69 0 -110 36zM490 870q28 22 28 61t-28 63q-29 23 -71 23
q-43 0 -71 -23q-28 -22 -28 -62q0 -39 29 -62q28 -23 71 -23q42 0 70 23zM378 1145l133 164h99v-3l-163 -161h-69z" />
    <glyph glyph-name="aringacute" unicode="&#x1fb;" horiz-adv-x="636" 
d="M118 24q-46 37 -46 101q0 57 41 98q35 35 116 59q42 13 101 20.5t137 11.5v28q0 137 -145 137q-110 0 -217 -81h-1v71q103 73 228 73q207 0 207 -200v-342h-68l-2 94q-97 -108 -225 -108q-79 0 -126 38zM467 145v120q-238 -14 -297 -73q-26 -28 -26 -63q0 -41 32 -64
t83 -23q114 0 208 103zM214 678q-42 35 -42 95t42 96q41 37 111 37q69 0 111 -36t42 -96q0 -58 -42 -96q-42 -36 -112 -36q-69 0 -110 36zM395 712q28 22 28 61t-28 63q-29 23 -71 23q-43 0 -71 -23q-28 -22 -28 -62q0 -39 29 -62q28 -23 71 -23q42 0 70 23zM283 988
l133 164h99v-3l-163 -161h-69z" />
    <glyph glyph-name="AEacute" unicode="&#x1fc;" horiz-adv-x="1295" 
d="M646 0v202h-379l-136 -202h-89l475 700h688l3 -69h-486v-234h403v-69h-403v-259h503l-4 -69h-575zM557 629l-245 -360h334v360h-89zM653 808l133 164h99v-3l-163 -161h-69z" />
    <glyph glyph-name="aeacute" unicode="&#x1fd;" horiz-adv-x="1048" 
d="M505 106q-111 -120 -260 -120q-80 0 -127 38q-46 37 -46 101q0 56 42 98q77 77 354 90v34q0 132 -146 132q-110 0 -217 -81h-1v70q104 74 226 74q163 0 191 -124q30 57 88 90q58 34 129 34q122 0 189 -81q59 -71 59 -183v-11q0 -8 -1 -10h-447q0 -97 60 -153
q58 -55 158 -55q104 0 204 64h1v-68q-91 -58 -207 -58q-175 0 -249 119zM609 434q-54 -49 -67 -126h374q-5 77 -47 122q-48 52 -133 52q-74 0 -127 -48zM176 64q31 -22 83 -22q124 0 226 105q-18 50 -18 110v5q-138 -7 -199 -23q-66 -16 -97 -47q-27 -28 -27 -63
q0 -42 32 -65zM496 635l133 164h99v-3l-163 -161h-69z" />
    <glyph glyph-name="Oslashacute" unicode="&#x1fe;" horiz-adv-x="911" 
d="M71 -61l113 137q-109 100 -109 274q0 167 103 267q104 101 277 101q130 0 219 -55l82 98h83l-112 -137q109 -100 109 -274q0 -167 -103 -267q-104 -101 -278 -101q-129 0 -218 55l-81 -98h-85zM233 129l398 478q-76 44 -175 44q-140 0 -222 -82q-83 -83 -83 -219
q0 -139 82 -221zM677 131q82 82 82 219q0 141 -82 220l-397 -477q74 -44 175 -44q140 0 222 82zM407 824l133 164h99v-3l-163 -161h-69z" />
    <glyph glyph-name="oslashacute" unicode="&#x1ff;" horiz-adv-x="696" 
d="M177 35l-72 -81h-71l102 116q-73 76 -73 194q0 119 77 198q80 80 209 80q101 0 171 -49l72 81h70l-101 -116q72 -75 72 -194q0 -121 -76 -197q-79 -81 -209 -81q-101 0 -171 49zM183 119l294 324q-51 39 -129 39q-97 0 -156 -62q-57 -61 -57 -156q0 -88 48 -145zM504 108
q57 62 57 156q0 88 -48 145l-295 -323q55 -40 131 -40q96 0 155 62zM300 653l133 164h99v-3l-163 -161h-69z" />
    <glyph glyph-name="uni0218" unicode="&#x218;" horiz-adv-x="760" 
d="M84 64v80h1q152 -90 315 -90q98 0 155 36q55 36 55 97q0 55 -50 84q-24 13 -70 26t-115 26q-130 24 -201 63t-71 126q0 89 75 144q80 60 213 60q146 0 268 -68v-81h-1q-124 79 -273 79q-92 0 -148 -35q-55 -34 -55 -91q0 -59 58 -84q57 -25 176 -48q143 -25 203 -64
q70 -45 70 -132q0 -88 -67 -143q-77 -65 -223 -65q-172 0 -315 80zM272 -338l77 205h85v-6l-113 -199h-49z" />
    <glyph glyph-name="uni0219" unicode="&#x219;" horiz-adv-x="591" 
d="M76 50v68h1q107 -71 234 -71q68 0 108 26q39 26 39 68q0 38 -34 60q-34 21 -137 40q-110 21 -155 51q-49 33 -49 95q0 66 58 111q59 44 157 44q111 0 205 -54v-68h-1q-103 62 -210 62q-61 0 -98 -25q-39 -25 -39 -65t40 -58q39 -19 140 -39q110 -22 153 -57
q42 -34 42 -95q0 -66 -52 -108q-58 -49 -170 -49q-126 0 -232 64zM190 -336l77 205h85v-6l-113 -199h-49z" />
    <glyph glyph-name="uni0259" unicode="&#x259;" horiz-adv-x="645" 
d="M121 67q-58 71 -58 186v11l1 11h446q-1 94 -58 149q-58 55 -159 55q-110 0 -204 -64h-1v68q91 58 207 58q138 0 214 -75q73 -70 73 -191q0 -125 -75 -206q-77 -83 -198 -83q-123 0 -188 81zM442 95q52 47 64 128h-374q5 -76 46 -123q48 -54 133 -54q78 0 131 49z" />
    <glyph glyph-name="uni02BB" unicode="&#x2bb;" horiz-adv-x="330" 
d="M89 427v7l108 266h44l-58 -273h-94z" />
    <glyph glyph-name="circumflex" unicode="&#x2c6;" horiz-adv-x="500" 
d="M54 636l140 171h112l140 -171h-78l-98 119h-40l-98 -119h-78z" />
    <glyph glyph-name="caron" unicode="&#x2c7;" horiz-adv-x="500" 
d="M446 807l-140 -171h-112l-140 171h78l98 -119h40l98 119h78z" />
    <glyph glyph-name="breve" unicode="&#x2d8;" horiz-adv-x="500" 
d="M127 664q-49 37 -49 104q0 8 1.5 19t3.5 25h60l-1 -10l-1 -8q-1 -5 -1 -9.5v-6.5q0 -94 110 -94t110 94q0 8 -1 17t-3 17h61q2 -11 3 -22t1 -22q0 -66 -48 -104q-46 -36 -123 -36q-76 0 -123 36z" />
    <glyph glyph-name="dotaccent" unicode="&#x2d9;" horiz-adv-x="500" 
d="M211 651q-15 14 -15 35q0 20 15 33q15 15 38 15q24 0 39 -15q15 -13 15 -33q0 -21 -14 -35q-16 -14 -39 -14t-39 14z" />
    <glyph glyph-name="ring" unicode="&#x2da;" horiz-adv-x="611" 
d="M195 664q-42 35 -42 95t42 96q41 37 111 37q69 0 111 -36t42 -96q0 -58 -42 -96q-42 -36 -112 -36q-69 0 -110 36zM376 698q28 22 28 61t-28 63q-29 23 -71 23q-43 0 -71 -23q-28 -22 -28 -62q0 -39 29 -62q28 -23 71 -23q42 0 70 23z" />
    <glyph glyph-name="ogonek" unicode="&#x2db;" horiz-adv-x="500" 
d="M359 30l42 -30l-57 -57q-77 -79 -77 -118q0 -58 81 -58q52 0 91 27v-60q-48 -23 -103 -23q-68 0 -104 30q-33 27 -33 73q0 63 99 158z" />
    <glyph glyph-name="tilde" unicode="&#x2dc;" horiz-adv-x="500" 
d="M431 688q-42 -61 -98 -61q-34 0 -93 36q-48 30 -74 30q-44 0 -95 -76h-1v75q39 61 98 61q35 0 93 -35q47 -31 73 -31q45 0 96 76h1v-75z" />
    <glyph glyph-name="hungarumlaut" unicode="&#x2dd;" horiz-adv-x="500" 
d="M263 636l129 164h86v-3l-156 -161h-59zM50 636l128 164h87v-3l-156 -161h-59z" />
    <glyph glyph-name="uni0326" unicode="&#x326;" horiz-adv-x="500" 
d="M154 -322l77 205h85v-6l-113 -199h-49z" />
    <glyph glyph-name="Wgrave" unicode="&#x1e80;" horiz-adv-x="1258" 
d="M280 0l-210 700h80l185 -626h36l216 626h89l215 -626h36l183 626h79l-210 -700h-137l-205 598h-13l-206 -598h-138zM667 808h-69l-163 161v3h99z" />
    <glyph glyph-name="wgrave" unicode="&#x1e81;" horiz-adv-x="992" 
d="M221 0l-174 528h77l146 -461h27l154 459h91l156 -459h27l145 461h74l-174 -528h-120l-147 442h-14l-148 -442h-120zM532 636h-69l-163 161v3h99z" />
    <glyph glyph-name="Wacute" unicode="&#x1e82;" horiz-adv-x="1258" 
d="M280 0l-210 700h80l185 -626h36l216 626h89l215 -626h36l183 626h79l-210 -700h-137l-205 598h-13l-206 -598h-138zM597 808l133 164h99v-3l-163 -161h-69z" />
    <glyph glyph-name="wacute" unicode="&#x1e83;" horiz-adv-x="992" 
d="M221 0l-174 528h77l146 -461h27l154 459h91l156 -459h27l145 461h74l-174 -528h-120l-147 442h-14l-148 -442h-120zM462 636l133 164h99v-3l-163 -161h-69z" />
    <glyph glyph-name="Wdieresis" unicode="&#x1e84;" horiz-adv-x="1258" 
d="M280 0l-210 700h80l185 -626h36l216 626h89l215 -626h36l183 626h79l-210 -700h-137l-205 598h-13l-206 -598h-138zM465 823q-14 14 -14 33q0 18 14 32t37 14q22 0 38 -14q13 -13 13 -32q0 -20 -13 -33q-16 -14 -38 -14q-23 0 -37 14zM719 823q-14 14 -14 33q0 18 14 32
t37 14q22 0 38 -14q13 -13 13 -32q0 -20 -13 -33q-16 -14 -38 -14q-23 0 -37 14z" />
    <glyph glyph-name="wdieresis" unicode="&#x1e85;" horiz-adv-x="992" 
d="M221 0l-174 528h77l146 -461h27l154 459h91l156 -459h27l145 461h74l-174 -528h-120l-147 442h-14l-148 -442h-120zM333 651q-14 14 -14 33q0 18 14 32t37 14q22 0 38 -14q13 -13 13 -32q0 -20 -13 -33q-16 -14 -38 -14q-23 0 -37 14zM587 651q-14 14 -14 33q0 18 14 32
t37 14q22 0 38 -14q13 -13 13 -32q0 -20 -13 -33q-16 -14 -38 -14q-23 0 -37 14z" />
    <glyph glyph-name="uni1E9E" unicode="&#x1e9e;" horiz-adv-x="854" 
d="M201 0h-76v700h639v-70l-250 -236l54 -16q125 -35 179 -89q45 -45 45 -116q0 -89 -63 -139q-64 -50 -178 -50q-112 0 -220 44v71h1q106 -50 221 -50q162 0 162 124q0 56 -45 90q-47 37 -174 70l-64 16v52l243 233h-474v-634z" />
    <glyph glyph-name="Ygrave" unicode="&#x1ef2;" horiz-adv-x="797" 
d="M360 0v238l-317 462h89l264 -388h5l266 388h87l-318 -460v-240h-76zM447 784h-69l-163 161v3h99z" />
    <glyph glyph-name="ygrave" unicode="&#x1ef3;" horiz-adv-x="625" 
d="M214 -186l69 169l-239 545h78l200 -462l191 462h75l-301 -714h-73zM368 621h-69l-163 161v3h99z" />
    <glyph glyph-name="uni2002" unicode="&#x2002;" horiz-adv-x="500" 
 />
    <glyph glyph-name="uni2003" unicode="&#x2003;" horiz-adv-x="1000" 
 />
    <glyph glyph-name="uni2004" unicode="&#x2004;" horiz-adv-x="333" 
 />
    <glyph glyph-name="uni2005" unicode="&#x2005;" horiz-adv-x="250" 
 />
    <glyph glyph-name="uni2007" unicode="&#x2007;" horiz-adv-x="724" 
 />
    <glyph glyph-name="uni2008" unicode="&#x2008;" horiz-adv-x="347" 
 />
    <glyph glyph-name="uni2009" unicode="&#x2009;" horiz-adv-x="133" 
 />
    <glyph glyph-name="uni200A" unicode="&#x200a;" horiz-adv-x="75" 
 />
    <glyph glyph-name="uni200B" unicode="&#x200b;" horiz-adv-x="0" 
 />
    <glyph glyph-name="uni200C" unicode="&#x200c;" horiz-adv-x="0" 
 />
    <glyph glyph-name="uni200D" unicode="&#x200d;" horiz-adv-x="0" 
 />
    <glyph glyph-name="endash" unicode="&#x2013;" horiz-adv-x="698" 
d="M80 283v68h538v-68h-538z" />
    <glyph glyph-name="emdash" unicode="&#x2014;" horiz-adv-x="860" 
d="M80 283v68h700v-68h-700z" />
    <glyph glyph-name="quoteleft" unicode="&#x2018;" horiz-adv-x="340" 
d="M89 427v7l108 266h44l-58 -273h-94z" />
    <glyph glyph-name="quoteright" unicode="&#x2019;" horiz-adv-x="340" 
d="M99 427l58 273h94v-6l-107 -267h-45z" />
    <glyph glyph-name="quotesinglbase" unicode="&#x201a;" horiz-adv-x="308" 
d="M67 -152l58 273h94v-6l-107 -267h-45z" />
    <glyph glyph-name="quotedblleft" unicode="&#x201c;" horiz-adv-x="555" 
d="M89 427v7l106 266h44l-58 -273h-92zM306 427v7l105 266h45l-58 -273h-92z" />
    <glyph glyph-name="quotedblright" unicode="&#x201d;" horiz-adv-x="555" 
d="M99 427l58 273h92v-6l-105 -267h-45zM316 427l58 273h92v-6l-106 -267h-44z" />
    <glyph glyph-name="quotedblbase" unicode="&#x201e;" horiz-adv-x="523" 
d="M67 -152l58 273h92v-6l-105 -267h-45zM284 -152l58 273h92v-6l-106 -267h-44z" />
    <glyph glyph-name="dagger" unicode="&#x2020;" horiz-adv-x="548" 
d="M242 215v304h-155l3 57h152v142h65v-142h153v-57h-153v-304h-65z" />
    <glyph glyph-name="daggerdbl" unicode="&#x2021;" horiz-adv-x="549" 
d="M242 167v142h-152v57h152v153h-155l3 57h152v142h65v-142h153v-57h-153v-153h156l-4 -57h-152v-142h-65z" />
    <glyph glyph-name="bullet" unicode="&#x2022;" horiz-adv-x="391" 
d="M122 251q-26 26 -26 65v1q0 38 26 64q28 28 73 28q46 0 74 -28q26 -26 26 -64v-1q0 -37 -26 -65q-28 -28 -74 -28q-45 0 -73 28z" />
    <glyph glyph-name="ellipsis" unicode="&#x2026;" horiz-adv-x="1044" 
d="M128 6q-16 16 -16 39v1q0 23 16 39q17 17 46 17q28 0 45 -17q16 -16 16 -39v-1q0 -23 -16 -39q-16 -18 -45 -18t-46 18zM476 6q-16 16 -16 39v1q0 23 16 39q17 17 46 17q28 0 45 -17q16 -16 16 -39v-1q0 -23 -16 -39q-16 -18 -45 -18t-46 18zM824 6q-16 16 -16 39v1
q0 23 16 39q17 17 46 17q28 0 45 -17q16 -16 16 -39v-1q0 -23 -16 -39q-16 -18 -45 -18t-46 18z" />
    <glyph glyph-name="uni202F" unicode="&#x202f;" horiz-adv-x="133" 
 />
    <glyph glyph-name="guilsinglleft" unicode="&#x2039;" horiz-adv-x="451" 
d="M359 41h-84l-194 220v6l194 220h84l-194 -223z" />
    <glyph glyph-name="guilsinglright" unicode="&#x203a;" horiz-adv-x="451" 
d="M92 487h84l194 -220v-6l-194 -220h-84l194 223z" />
    <glyph glyph-name="fraction" unicode="&#x2044;" horiz-adv-x="270" 
d="M-143 1l491 699h64v-1l-491 -699h-64v1z" />
    <glyph glyph-name="uni2070" unicode="&#x2070;" horiz-adv-x="474" 
d="M102 402q-44 56 -44 151q0 93 46 151q45 59 134 59q87 0 135 -58q44 -56 44 -151q0 -91 -45 -150q-46 -60 -136 -60q-88 0 -134 58zM327 440q30 41 30 113q0 75 -30 115q-32 44 -90 44q-57 0 -89 -44q-30 -42 -30 -114q0 -73 30 -115q32 -44 89 -44q59 0 90 45z" />
    <glyph glyph-name="uni2074" unicode="&#x2074;" horiz-adv-x="474" 
d="M305 355v91h-254v45l140 263h171v-258h75l-3 -50h-72v-91h-57zM114 495h192v209h-78z" />
    <glyph glyph-name="uni2075" unicode="&#x2075;" horiz-adv-x="474" 
d="M80 376v56h1q75 -37 153 -37q54 0 82 24q25 19 25 51q0 31 -16 44q-28 27 -139 27h-92l6 213h279l3 -51h-227l-3 -114h54q128 0 168 -43q28 -28 28 -75q0 -57 -44 -92q-46 -35 -123 -35q-79 0 -155 32z" />
    <glyph glyph-name="uni2076" unicode="&#x2076;" horiz-adv-x="474" 
d="M118 393q-47 52 -47 146q0 108 56 167q54 57 146 57q65 0 116 -24v-53h-1q-55 28 -114 28q-139 0 -145 -152q56 43 135 43q66 0 103 -30q40 -31 40 -90q0 -66 -48 -105q-45 -36 -113 -36q-82 0 -128 49zM129 516q3 -60 35 -92t83 -32q45 0 73 24q30 24 30 66q0 77 -97 77
q-71 0 -124 -43z" />
    <glyph glyph-name="uni2077" unicode="&#x2077;" horiz-adv-x="474" 
d="M80 619v135h327v-84l-182 -316h-66l186 323v27h-211v-85h-54z" />
    <glyph glyph-name="uni2078" unicode="&#x2078;" horiz-adv-x="474" 
d="M108 373q-44 30 -44 81q0 75 98 101q-88 19 -88 94q0 51 44 83q43 31 119 31t119 -31q44 -32 44 -83q0 -75 -88 -94q98 -26 98 -101q0 -51 -44 -81q-46 -31 -129 -31t-129 31zM343 643q0 34 -28 53q-29 20 -78 20t-78 -20q-28 -19 -28 -53q0 -68 106 -68t106 68zM321 409
q30 20 30 52q0 34 -31 53q-32 20 -83 20q-50 0 -82 -20t-32 -53q0 -32 30 -52q31 -20 84 -20t84 20z" />
    <glyph glyph-name="uni2079" unicode="&#x2079;" horiz-adv-x="474" 
d="M356 714q47 -52 47 -146q0 -108 -56 -167q-54 -57 -146 -57q-65 0 -116 24v53h1q55 -28 114 -28q139 0 145 152q-56 -43 -135 -43q-65 0 -103 30q-40 31 -40 90q0 66 48 105q45 36 113 36q82 0 128 -49zM221 548q71 0 124 43q-3 60 -35 92t-83 32q-44 0 -73 -24
q-30 -24 -30 -66q0 -77 97 -77z" />
    <glyph glyph-name="uni2080" unicode="&#x2080;" horiz-adv-x="474" 
d="M102 -138q-44 56 -44 151q0 93 46 151q45 59 134 59q87 0 135 -58q44 -56 44 -151q0 -91 -45 -151q-47 -59 -136 -59q-88 0 -134 58zM327 -100q30 40 30 113q0 75 -30 115q-32 44 -90 44q-57 0 -89 -44q-30 -42 -30 -114q0 -73 30 -115q32 -44 89 -44q59 0 90 45z" />
    <glyph glyph-name="uni2081" unicode="&#x2081;" horiz-adv-x="366" 
d="M172 -186v350h-116l9 50h168v-400h-61z" />
    <glyph glyph-name="uni2082" unicode="&#x2082;" horiz-adv-x="474" 
d="M80 -186v49l149 123q29 25 50 43t34 31q22 22 22 51q0 61 -86 61q-73 0 -155 -67h-1v60q77 59 160 59q71 0 108 -30q35 -29 35 -79q0 -45 -31 -79q-8 -10 -33 -31.5t-67 -55.5l-101 -84h235v-51h-319z" />
    <glyph glyph-name="uni2083" unicode="&#x2083;" horiz-adv-x="474" 
d="M79 -163v55h1q85 -38 147 -38q53 0 84 21t31 55q0 37 -32 54q-36 17 -122 17h-18v30l156 132h-238l2 51h308v-49l-147 -124q152 -11 152 -112q0 -57 -46 -91t-124 -34q-77 0 -154 33z" />
    <glyph glyph-name="uni2084" unicode="&#x2084;" horiz-adv-x="474" 
d="M305 -185v91h-254v45l140 263h171v-258h75l-3 -50h-72v-91h-57zM114 -45h192v209h-78z" />
    <glyph glyph-name="uni2085" unicode="&#x2085;" horiz-adv-x="474" 
d="M80 -164v56h1q75 -37 153 -37q54 0 82 24q25 19 25 51q0 31 -16 44q-28 27 -139 27h-92l6 213h279l3 -51h-227l-3 -114h54q128 0 168 -43q28 -28 28 -75q0 -57 -44 -92q-46 -35 -123 -35q-79 0 -155 32z" />
    <glyph glyph-name="uni2086" unicode="&#x2086;" horiz-adv-x="474" 
d="M118 -147q-47 52 -47 146q0 108 56 167q54 57 146 57q65 0 116 -24v-53h-1q-55 28 -114 28q-139 0 -145 -152q56 43 135 43q66 0 103 -30q40 -31 40 -90q0 -66 -48 -105q-45 -36 -113 -36q-82 0 -128 49zM129 -24q3 -60 35 -92t83 -32q45 0 73 24q30 24 30 66
q0 77 -97 77q-71 0 -124 -43z" />
    <glyph glyph-name="uni2087" unicode="&#x2087;" horiz-adv-x="474" 
d="M80 79v135h327v-84l-182 -316h-66l186 323v27h-211v-85h-54z" />
    <glyph glyph-name="uni2088" unicode="&#x2088;" horiz-adv-x="474" 
d="M108 -167q-44 30 -44 81q0 75 98 101q-88 19 -88 94q0 51 44 83q43 31 119 31t119 -31q44 -32 44 -83q0 -75 -88 -94q98 -26 98 -101q0 -51 -44 -81q-46 -31 -129 -31t-129 31zM343 103q0 34 -28 53q-29 20 -78 20t-78 -20q-28 -19 -28 -53q0 -68 106 -68t106 68z
M321 -131q30 19 30 52q0 34 -31 53q-32 20 -83 20q-50 0 -82 -20t-32 -53t30 -52q31 -20 84 -20t84 20z" />
    <glyph glyph-name="uni2089" unicode="&#x2089;" horiz-adv-x="474" 
d="M356 174q47 -52 47 -146q0 -108 -56 -167q-54 -57 -146 -57q-65 0 -116 24v53h1q55 -28 114 -28q139 0 145 152q-56 -43 -135 -43q-65 0 -103 30q-40 31 -40 90q0 66 48 105q45 36 113 36q82 0 128 -49zM221 8q71 0 124 43q-3 60 -35 92t-83 32q-44 0 -73 -24
q-30 -24 -30 -66q0 -77 97 -77z" />
    <glyph glyph-name="colonmonetary" unicode="&#x20a1;" horiz-adv-x="743" 
d="M202 -109l41 154q-78 44 -118 122q-41 77 -41 173q0 145 89 246q93 104 246 114l28 105h61l-28 -105q31 -2 62 -8.5t62 -17.5l35 131h60l-198 -739q59 8 138 42h1v-68q-68 -32 -157 -39l-29 -110h-61l30 108q-70 2 -127 22l-35 -130h-59zM263 112l141 524
q-115 -13 -183 -96q-66 -79 -66 -199q0 -152 108 -229zM590 609q-62 26 -130 27l-148 -550q56 -24 131 -24z" />
    <glyph glyph-name="uni20A6" unicode="&#x20a6;" horiz-adv-x="936" 
d="M195 0v243h-133l6 52h127v115h-113l6 52h107v238h104l142 -233h238v233h68v-233h116v-52h-116v-114h116v-52h-116v-249h-99l-148 243h-236v-243h-69zM264 608v-146h103l-89 146h-14zM679 301v114h-207l70 -114h137zM264 410v-115h204l-70 115h-134zM679 98v151h-106
l92 -151h14z" />
    <glyph glyph-name="uni20A8" unicode="&#x20a8;" horiz-adv-x="1378" 
d="M147 0v700h324q122 0 189 -59q63 -58 63 -164q0 -87 -46 -143q-48 -59 -137 -74l203 -260h-87l-191 249h-245v-249h-73zM220 315h250q95 0 137 47q41 47 41 112q0 73 -41 114q-46 46 -137 46h-250v-319zM853 50v68h1q104 -71 234 -71q68 0 109 26q39 26 39 68
q0 38 -34 59q-18 11 -52 21t-85 20q-111 21 -156 51q-49 33 -49 95q0 66 58 111q59 44 157 44q114 0 206 -55v-68h-1q-104 62 -211 62q-61 0 -98 -25q-39 -24 -39 -64t40 -59q39 -19 141 -38q110 -22 153 -57q42 -34 42 -95q0 -66 -52 -108q-58 -49 -170 -49q-132 0 -233 64
z" />
    <glyph glyph-name="Euro" unicode="&#x20ac;" horiz-adv-x="796" 
d="M50 232l6 53h113l-1 13l-1 14l-1 28q0 18 1 34t3 30h-100l6 53h105q32 116 119 184q92 72 223 72q108 0 190 -45v-70h-1q-95 50 -189 50q-100 0 -171 -52q-69 -51 -97 -139h328v-53h-340q-2 -17 -3.5 -32.5t-1.5 -30.5q0 -17 1 -31t3 -25h341v-53h-329q27 -85 93 -131
q68 -49 168 -49q102 0 197 46h1v-70q-94 -41 -202 -41q-132 0 -221 69q-84 65 -111 176h-129z" />
    <glyph glyph-name="uni20B1" unicode="&#x20b1;" horiz-adv-x="872" 
d="M187 0v427h-117l10 54h107v219h292q124 0 193 -57q67 -55 73 -162h86v-54h-86q-9 -106 -80 -163q-70 -55 -192 -55h-213v-209h-73zM260 637v-157h413q-13 157 -198 157h-215zM260 272h216q184 0 197 156h-413v-156z" />
    <glyph glyph-name="uni20B9" unicode="&#x20b9;" horiz-adv-x="749" 
d="M587 0h-111l-358 233v56h194q106 0 149 43t50 106h-393v55h393q-15 149 -194 149h-199v58h583l-4 -58h-207q83 -45 93 -147h101l-4 -59h-97q-9 -91 -69 -144q-68 -59 -188 -59h-100z" />
    <glyph glyph-name="uni20BD" unicode="&#x20bd;" horiz-adv-x="811" 
d="M56 122l7 55h129v113h-116l6 57h110v353h300q255 0 255 -204q0 -206 -261 -206h-221v-113h346v-55h-346v-122h-73v122h-136zM265 347h221q189 0 189 145q0 74 -42 108q-46 37 -147 37h-221v-290z" />
    <glyph glyph-name="uni2116" unicode="&#x2116;" horiz-adv-x="1472" 
d="M1332 644q66 -64 66 -168q0 -103 -66 -168q-67 -66 -179 -66q-113 0 -178 65q-66 65 -66 169q0 102 66 166q68 66 178 66q115 0 179 -64zM146 0v700h100l400 -592h14v592h71v-700h-95l-405 599h-14v-599h-71zM1025 600q-47 -49 -47 -124q0 -79 47 -126q48 -49 128 -49
t129 49q47 49 47 126t-47 124q-48 48 -129 48q-78 0 -128 -48zM945 63h418l1 -63h-421z" />
    <glyph glyph-name="uni2117" unicode="&#x2117;" horiz-adv-x="969" 
d="M177 63q-115 106 -115 287q0 180 115 288q116 107 308 107t307 -107q115 -108 115 -288q0 -181 -115 -287q-114 -108 -307 -108q-192 0 -308 108zM749 100q98 93 98 250t-98 250q-97 93 -264 93t-265 -93t-98 -250t98 -250t265 -93t264 93zM334 169v364h201
q153 0 153 -128q0 -65 -42 -100q-40 -34 -114 -34h-142v-102h-56zM390 319h141q101 0 101 83t-102 83h-140v-166z" />
    <glyph glyph-name="uni2120" unicode="&#x2120;" horiz-adv-x="1003" 
d="M79 377v52q81 -48 168 -48q102 0 102 58q0 26 -25 39q-22 12 -94 27q-39 8 -66 16.5t-41 18.5q-36 23 -36 65q0 46 40 74q42 30 114 30q77 0 146 -34v-51h-1q-70 39 -148 39q-98 0 -98 -54q0 -24 24 -36q21 -11 93 -25q78 -17 108 -37q37 -24 37 -69q0 -40 -34 -73
t-123 -33q-92 0 -166 41zM512 343v357h81l122 -233l121 233h81v-357h-51v300l-7 1l-141 -263h-7l-141 263l-8 -1v-300h-50z" />
    <glyph glyph-name="trademark" unicode="&#x2122;" horiz-adv-x="995" 
d="M212 342v311h-151l2 47h352l3 -47h-152v-311h-54zM504 343v357h81l122 -232l121 232h81v-357h-51v300l-8 1l-141 -263h-6l-141 263l-8 -1v-300h-50z" />
    <glyph glyph-name="onethird" unicode="&#x2153;" horiz-adv-x="1030" 
d="M172 300v350h-116l9 50h168v-400h-61zM183 1l491 699h64v-1l-491 -699h-64v1zM635 23v55h1q85 -38 147 -38q53 0 84 21t31 55q0 37 -32 54q-36 17 -122 17h-18v30l156 132h-238l2 51h308v-49l-147 -124q152 -11 152 -112q0 -57 -46 -91t-124 -34q-77 0 -154 33z" />
    <glyph glyph-name="twothirds" unicode="&#x2154;" horiz-adv-x="1160" 
d="M80 300v49l149 123q29 25 50 43t34 31q22 22 22 51q0 61 -86 61q-73 0 -155 -67h-1v60q77 59 160 59q71 0 108 -30q35 -29 35 -79q0 -45 -31 -79q-8 -10 -33 -31.5t-67 -55.5l-101 -84h235v-51h-319zM313 1l491 699h64v-1l-491 -699h-64v1zM765 23v55h1q85 -38 147 -38
q53 0 84 21t31 55q0 37 -32 54q-36 17 -122 17h-18v30l156 132h-238l2 51h308v-49l-147 -124q152 -11 152 -112q0 -57 -46 -91t-124 -34q-77 0 -154 33z" />
    <glyph glyph-name="uni2155" unicode="&#x2155;" horiz-adv-x="1042" 
d="M172 300v350h-116l9 50h168v-400h-61zM183 1l491 699h64v-1l-491 -699h-64v1zM648 22v56h1q75 -37 153 -37q54 0 82 24q25 19 25 51q0 31 -16 44q-28 27 -139 27h-92l6 213h279l3 -51h-227l-3 -114h54q128 0 168 -43q28 -28 28 -75q0 -57 -44 -92q-46 -35 -123 -35
q-79 0 -155 32z" />
    <glyph glyph-name="uni2156" unicode="&#x2156;" horiz-adv-x="1171" 
d="M80 300v49l149 123q29 25 50 43t34 31q22 22 22 51q0 61 -86 61q-73 0 -155 -67h-1v60q77 59 160 59q71 0 108 -30q35 -29 35 -79q0 -45 -31 -79q-8 -10 -33 -31.5t-67 -55.5l-101 -84h235v-51h-319zM313 1l491 699h64v-1l-491 -699h-64v1zM777 22v56h1q75 -37 153 -37
q54 0 82 24q25 19 25 51q0 31 -16 44q-28 27 -139 27h-92l6 213h279l3 -51h-227l-3 -114h54q128 0 168 -43q28 -28 28 -75q0 -57 -44 -92q-46 -35 -123 -35q-79 0 -155 32z" />
    <glyph glyph-name="uni2157" unicode="&#x2157;" horiz-adv-x="1146" 
d="M79 323v55h1q85 -38 147 -38q53 0 84 21t31 55q0 37 -32 54q-36 17 -122 17h-18v30l156 132h-238l2 51h308v-49l-147 -124q152 -11 152 -112q0 -57 -46 -91t-124 -34q-77 0 -154 33zM287 1l491 699h64v-1l-491 -699h-64v1zM752 22v56h1q75 -37 153 -37q54 0 82 24
q25 19 25 51q0 31 -16 44q-28 27 -139 27h-92l6 213h279l3 -51h-227l-3 -114h54q128 0 168 -43q28 -28 28 -75q0 -57 -44 -92q-46 -35 -123 -35q-79 0 -155 32z" />
    <glyph glyph-name="uni2158" unicode="&#x2158;" horiz-adv-x="1160" 
d="M305 301v91h-254v45l140 263h171v-258h75l-3 -50h-72v-91h-57zM114 441h192v209h-78zM301 1l491 699h64v-1l-491 -699h-64v1zM766 22v56h1q75 -37 153 -37q54 0 82 24q25 19 25 51q0 31 -16 44q-28 27 -139 27h-92l6 213h279l3 -51h-227l-3 -114h54q128 0 168 -43
q28 -28 28 -75q0 -57 -44 -92q-46 -35 -123 -35q-79 0 -155 32z" />
    <glyph glyph-name="uni2159" unicode="&#x2159;" horiz-adv-x="1004" 
d="M172 300v350h-116l9 50h168v-400h-61zM183 1l491 699h64v-1l-491 -699h-64v1zM648 39q-47 52 -47 146q0 108 56 167q54 57 146 57q65 0 116 -24v-53h-1q-55 28 -114 28q-139 0 -145 -152q56 43 135 43q66 0 103 -30q40 -31 40 -90q0 -66 -48 -105q-45 -36 -113 -36
q-82 0 -128 49zM659 162q3 -60 35 -92t83 -32q45 0 73 24q30 24 30 66q0 77 -97 77q-71 0 -124 -43z" />
    <glyph glyph-name="uni215A" unicode="&#x215a;" horiz-adv-x="1110" 
d="M80 322v56h1q75 -37 153 -37q54 0 82 24q25 19 25 51q0 31 -16 44q-28 27 -139 27h-92l6 213h279l3 -51h-227l-3 -114h54q128 0 168 -43q28 -28 28 -75q0 -57 -44 -92q-46 -35 -123 -35q-79 0 -155 32zM289 1l491 699h64v-1l-491 -699h-64v1zM754 39q-47 52 -47 146
q0 108 56 167q54 57 146 57q65 0 116 -24v-53h-1q-55 28 -114 28q-139 0 -145 -152q56 43 135 43q66 0 103 -30q40 -31 40 -90q0 -66 -48 -105q-45 -36 -113 -36q-82 0 -128 49zM765 162q3 -60 35 -92t83 -32q45 0 73 24q30 24 30 66q0 77 -97 77q-71 0 -124 -43z" />
    <glyph glyph-name="oneeighth" unicode="&#x215b;" horiz-adv-x="1026" 
d="M172 300v350h-116l9 50h168v-400h-61zM183 1l491 699h64v-1l-491 -699h-64v1zM660 19q-44 30 -44 81q0 75 98 101q-88 19 -88 94q0 51 44 83q43 31 119 31t119 -31q44 -32 44 -83q0 -75 -88 -94q98 -26 98 -101q0 -51 -44 -81q-46 -31 -129 -31t-129 31zM895 289
q0 34 -28 53q-29 20 -78 20t-78 -20q-28 -19 -28 -53q0 -68 106 -68t106 68zM873 55q30 20 30 52q0 34 -31 53q-32 20 -83 20q-50 0 -82 -20t-32 -53q0 -32 30 -52q31 -20 84 -20t84 20z" />
    <glyph glyph-name="threeeighths" unicode="&#x215c;" horiz-adv-x="1130" 
d="M79 323v55h1q85 -38 147 -38q53 0 84 21t31 55q0 37 -32 54q-36 17 -122 17h-18v30l156 132h-238l2 51h308v-49l-147 -124q152 -11 152 -112q0 -57 -46 -91t-124 -34q-77 0 -154 33zM287 1l491 699h64v-1l-491 -699h-64v1zM764 19q-44 30 -44 81q0 75 98 101
q-88 19 -88 94q0 51 44 83q43 31 119 31t119 -31q44 -32 44 -83q0 -75 -88 -94q98 -26 98 -101q0 -51 -44 -81q-46 -31 -129 -31t-129 31zM999 289q0 34 -28 53q-29 20 -78 20t-78 -20q-28 -19 -28 -53q0 -68 106 -68t106 68zM977 55q30 20 30 52q0 34 -31 53q-32 20 -83 20
q-50 0 -82 -20t-32 -53q0 -32 30 -52q31 -20 84 -20t84 20z" />
    <glyph glyph-name="fiveeighths" unicode="&#x215d;" horiz-adv-x="1132" 
d="M80 322v56h1q75 -37 153 -37q54 0 82 24q25 19 25 51q0 31 -16 44q-28 27 -139 27h-92l6 213h279l3 -51h-227l-3 -114h54q128 0 168 -43q28 -28 28 -75q0 -57 -44 -92q-46 -35 -123 -35q-79 0 -155 32zM289 1l491 699h64v-1l-491 -699h-64v1zM766 19q-44 30 -44 81
q0 75 98 101q-88 19 -88 94q0 51 44 83q43 31 119 31t119 -31q44 -32 44 -83q0 -75 -88 -94q98 -26 98 -101q0 -51 -44 -81q-46 -31 -129 -31t-129 31zM1001 289q0 34 -28 53q-29 20 -78 20t-78 -20q-28 -19 -28 -53q0 -68 106 -68t106 68zM979 55q30 20 30 52q0 34 -31 53
q-32 20 -83 20q-50 0 -82 -20t-32 -53q0 -32 30 -52q31 -20 84 -20t84 20z" />
    <glyph glyph-name="seveneighths" unicode="&#x215e;" horiz-adv-x="1066" 
d="M80 565v135h327v-84l-182 -316h-66l186 323v27h-211v-85h-54zM223 1l491 699h64v-1l-491 -699h-64v1zM700 19q-44 30 -44 81q0 75 98 101q-88 19 -88 94q0 51 44 83q43 31 119 31t119 -31q44 -32 44 -83q0 -75 -88 -94q98 -26 98 -101q0 -51 -44 -81q-46 -31 -129 -31
t-129 31zM935 289q0 34 -28 53q-29 20 -78 20t-78 -20q-28 -19 -28 -53q0 -68 106 -68t106 68zM913 55q30 20 30 52q0 34 -31 53q-32 20 -83 20q-50 0 -82 -20t-32 -53q0 -32 30 -52q31 -20 84 -20t84 20z" />
    <glyph glyph-name="arrowleft" unicode="&#x2190;" horiz-adv-x="1020" 
d="M252 401h627v-70h-627l291 -258h-108l-331 293l331 293h108z" />
    <glyph glyph-name="arrowup" unicode="&#x2191;" horiz-adv-x="890" 
d="M407 -22v629l-265 -290v105l303 331l303 -331v-105l-265 290v-629h-76z" />
    <glyph glyph-name="arrowright" unicode="&#x2192;" horiz-adv-x="1020" 
d="M768 329h-627v70h627l-291 258h108l331 -293l-331 -293h-108z" />
    <glyph glyph-name="arrowdown" unicode="&#x2193;" horiz-adv-x="890" 
d="M445 -53l-303 331v105l265 -290v629h76v-629l265 290v-105z" />
    <glyph glyph-name="uni21A2" unicode="&#x21a2;" horiz-adv-x="2050" 
d="M1935 519l-202 -155l202 -155h-566l-189 120h-521l120 -168v-9l-700 212l700 212v-9l-120 -168h521l189 120h566zM565 364l74 104l-366 -104l366 -104zM1246 364l145 -93h371l-120 93l120 93h-371z" />
    <glyph glyph-name="uni21A3" unicode="&#x21a3;" horiz-adv-x="2050" 
d="M115 209l202 155l-202 155h566l189 -120h521l-120 168v9l700 -212l-700 -212v9l120 168h-521l-189 -120h-566zM1485 364l-74 -104l366 104l-366 104zM804 364l-145 93h-371l120 -93l-120 -93h371z" />
    <glyph glyph-name="minus" unicode="&#x2212;" horiz-adv-x="705" 
d="M107 316v68h492v-68h-492z" />
    <glyph glyph-name="circleplus" unicode="&#x2295;" horiz-adv-x="1078" 
d="M238 62q-112 108 -112 288t112 288q113 108 301 108q189 0 301 -108t112 -288t-112 -288t-301 -108q-188 0 -301 108zM785 112q89 89 89 238q0 150 -89 239q-91 88 -246 88q-154 0 -245 -89q-90 -88 -90 -238q0 -151 90 -238q91 -89 245 -89t246 89zM320 317v70h181v184
h76v-184h181v-70h-181v-184h-76v184h-181z" />
    <glyph glyph-name="uni2296" unicode="&#x2296;" horiz-adv-x="1078" 
d="M238 62q-112 108 -112 288t112 288q113 108 301 108q189 0 301 -108t112 -288t-112 -288t-301 -108q-188 0 -301 108zM785 112q89 89 89 238q0 150 -89 239q-91 88 -246 88q-154 0 -245 -89q-90 -88 -90 -238q0 -151 90 -238q91 -89 245 -89t246 89zM310 317v70h458v-70
h-458z" />
    <glyph glyph-name="circlemultiply" unicode="&#x2297;" horiz-adv-x="1078" 
d="M238 62q-112 108 -112 288t112 288q113 108 301 108q189 0 301 -108t112 -288t-112 -288t-301 -108q-188 0 -301 108zM785 112q89 89 89 238q0 150 -89 239q-91 88 -246 88q-154 0 -245 -89q-90 -88 -90 -238q0 -151 90 -238q91 -89 245 -89t246 89zM340 206l146 144
l-146 144l53 53l146 -147l146 147l53 -53l-146 -144l146 -144l-53 -53l-146 147l-146 -147z" />
    <glyph glyph-name="uni2299" unicode="&#x2299;" horiz-adv-x="1078" 
d="M238 62q-112 108 -112 288t112 288q113 108 301 108q189 0 301 -108t112 -288t-112 -288t-301 -108q-188 0 -301 108zM785 112q89 89 89 238q0 150 -89 239q-91 88 -246 88q-154 0 -245 -89q-90 -88 -90 -238q0 -151 90 -238q91 -89 245 -89t246 89zM419 231
q-44 44 -44 119q0 74 44 120q44 44 120 44q77 0 121 -44q43 -43 43 -120q0 -76 -43 -119q-43 -45 -121 -45q-76 0 -120 45z" />
    <glyph glyph-name="dotmath" unicode="&#x22c5;" horiz-adv-x="327" 
d="M118 310q-16 16 -16 40q0 23 16 39q17 18 46 18t45 -18q16 -16 16 -39q0 -24 -16 -40q-16 -18 -45 -18q-28 0 -46 18z" />
    <glyph glyph-name="house" unicode="&#x2302;" horiz-adv-x="1050" 
d="M879 -29h-708v489l354 293l354 -293v-489zM803 41v386l-278 232l-278 -232v-386h556z" />
    <glyph glyph-name="uni238C" unicode="&#x238c;" horiz-adv-x="1041" 
d="M258 261h293q148 0 218 49q70 48 71 150q4 199 -289 199h-399l3 70h415q341 0 346 -269t-346 -269h-312l261 -209h-111l-301 244l299 244h113z" />
    <glyph glyph-name="uni2397" unicode="&#x2397;" horiz-adv-x="1082" 
d="M689 729v-566h-521v566h521zM613 659h-369v-426h369v426zM823 554h76v-583h-543l-3 70h470v513z" />
    <glyph glyph-name="uni2398" unicode="&#x2398;" horiz-adv-x="1082" 
d="M259 146h-76v583h543l3 -70h-470v-513zM393 -29v566h521v-566h-521zM469 41h369v426h-369v-426z" />
    <glyph glyph-name="filledbox" unicode="&#x25a0;" horiz-adv-x="1117" 
d="M172 -29v758h773v-758h-773z" />
    <glyph glyph-name="H22073" unicode="&#x25a1;" horiz-adv-x="1117" 
d="M172 -29v758h773v-758h-773zM248 41h621v618h-621v-618z" />
    <glyph glyph-name="H18543" unicode="&#x25aa;" horiz-adv-x="808" 
d="M172 123v454h464v-454h-464z" />
    <glyph glyph-name="H18551" unicode="&#x25ab;" horiz-adv-x="808" 
d="M172 123v454h464v-454h-464zM248 193h312v314h-312v-314z" />
    <glyph glyph-name="triagup" unicode="&#x25b2;" horiz-adv-x="1000" 
d="M114 -29l385 787h2l385 -787h-772zM229 41h542l-271 559z" />
    <glyph glyph-name="uni25B4" unicode="&#x25b4;" horiz-adv-x="924" 
d="M100 364l361 433h2l361 -433h-724zM254 434h416l-207 245h-2z" />
    <glyph glyph-name="uni25B6" unicode="&#x25b6;" horiz-adv-x="1050" 
d="M169 -34v768l782 -383v-2zM245 81l554 269l-554 269v-538z" />
    <glyph glyph-name="uni25B8" unicode="&#x25b8;" horiz-adv-x="1010" 
d="M901 366l-733 -273v546zM717 366l-473 169v-338z" />
    <glyph glyph-name="triagdn" unicode="&#x25bc;" horiz-adv-x="1000" 
d="M499 -58l-385 787h772l-385 -787h-2zM500 100l271 559h-542z" />
    <glyph glyph-name="uni25BE" unicode="&#x25be;" horiz-adv-x="924" 
d="M461 -70l-361 433h724l-361 -433h-2zM461 48h2l207 245h-416z" />
    <glyph glyph-name="uni25C0" unicode="&#x25c0;" horiz-adv-x="1050" 
d="M881 -34l-782 383v2l782 383v-768zM805 81v538l-554 -269z" />
    <glyph glyph-name="uni25C2" unicode="&#x25c2;" horiz-adv-x="1010" 
d="M842 93l-733 273l733 273v-546zM766 197v338l-473 -169z" />
    <glyph glyph-name="circle" unicode="&#x25cb;" horiz-adv-x="1078" 
d="M238 62q-112 108 -112 288t112 288q113 108 301 108q189 0 301 -108t112 -288t-112 -288t-301 -108q-188 0 -301 108zM785 112q89 89 89 238q0 150 -89 239q-91 88 -246 88q-154 0 -245 -89q-90 -88 -90 -238q0 -151 90 -238q91 -89 245 -89t246 89z" />
    <glyph glyph-name="H18533" unicode="&#x25cf;" horiz-adv-x="1078" 
d="M238 62q-112 108 -112 288t112 288q113 108 301 108q189 0 301 -108t112 -288t-112 -288t-301 -108q-188 0 -301 108z" />
    <glyph glyph-name="uni25D0" unicode="&#x25d0;" horiz-adv-x="1078" 
d="M238 62q-112 108 -112 288t112 288q113 108 301 108q189 0 301 -108t112 -288t-112 -288t-301 -108q-188 0 -301 108zM539 23q154 0 246 89q89 89 89 238q0 150 -89 239q-91 88 -246 88v-654z" />
    <glyph glyph-name="uni25E9" unicode="&#x25e9;" horiz-adv-x="1117" 
d="M172 -29v758h773v-758h-773zM246 41h623v612z" />
    <glyph glyph-name="uni2600" unicode="&#x2600;" horiz-adv-x="1039" 
d="M588 -52l-115 130l-164 -75l-6 174l-175 47l110 137l-106 150l175 35l13 180l155 -82l127 127l66 -163l178 17l-54 -167l149 -104l-149 -92l47 -174l-172 25zM573 63l56 121l123 -18l-34 127l106 65l-108 75l38 119l-128 -11l-48 116l-93 -92l-109 59l-10 -132l-126 -25
l77 -109l-79 -98l127 -34l4 -126l120 56z" />
    <glyph glyph-name="uni2605" unicode="&#x2605;" horiz-adv-x="1050" 
d="M236 -35l109 323l-270 197l340 2l110 318l110 -318l340 -2l-270 -197l108 -323l-288 204zM356 125l169 122l168 -122l-66 192l153 105l-192 -1l-63 192l-63 -192l-193 1l155 -105z" />
    <glyph glyph-name="uni260E" unicode="&#x260e;" horiz-adv-x="1158" 
d="M201 -29l-43 176l128 236h-159q-24 50 -24 106q0 110 112 179q128 78 364 78q237 0 364 -78q112 -69 112 -179q0 -56 -24 -106h-159l128 -236l-43 -176h-756zM186 449h136l59 108q99 26 198 26q29 0 56.5 -2t55.5 -6q43 -6 86 -18l59 -108h136q7 21 7 36q0 98 -113 148
q-102 46 -287 46t-287 -46q-113 -50 -113 -148q0 -15 7 -36zM260 41h638l25 102l-189 356q-66 19 -155 19t-155 -19l-189 -356zM438 188q-47 38 -47 95t47 95q53 42 141 42q89 0 141 -42q47 -38 47 -95t-47 -95q-52 -42 -141 -42q-88 0 -141 42zM664 233q28 19 28 50t-28 50
q-32 23 -85 23t-85 -23q-28 -19 -28 -50t28 -50q32 -23 85 -23t85 23z" />
    <glyph glyph-name="uni2611" unicode="&#x2611;" horiz-adv-x="1117" 
d="M452 241l327 645h109l-359 -645h-77zM172 -29v758h427l-35 -70h-316v-618h621v623l37 65h39v-758h-773z" />
    <glyph glyph-name="uni2612" unicode="&#x2612;" horiz-adv-x="1117" 
d="M172 -29v758h773v-758h-773zM248 41h621v618h-621v-618zM339 185l167 165l-167 165l53 53l167 -168l167 168l53 -53l-167 -165l167 -165l-53 -53l-167 168l-167 -168z" />
    <glyph glyph-name="uni261A" unicode="&#x261a;" horiz-adv-x="1750" 
d="M658 636q26 4 43 5.5t26 1.5q11 0 27.5 -1.5t37.5 -3.5l783 -80v-60l-791 82l-17 1l-15 2q-10 1 -16 1.5t-9 0.5q-4 0 -10 -0.5t-15 -1.5l-17 -2l-18 -2l-585 -75q0 -42 21 -62q29 -30 105 -30h10.5t13.5 1l26 2l264 25l-36 -149q-7 -40 13 -53q18 -11 55 1l61 19l-1 -56
q-1 -42 17 -56q10 -7 27 -7q10 0 32 5l61 15l-3 -52q-2 -36 21 -50q20 -11 55 1l369 128l382 -86v-60l-380 84l-346 -119q-30 -11 -59 -11q-34 0 -53 13q-42 26 -42 77v10l-4 -1q-27 -8 -46 -8q-24 0 -47 12q-17 11 -26 29q-12 23 -12 55v10q-33 -11 -56 -11q-25 0 -44 11
q-34 21 -34 62q0 29 12 72l14 53l-182 -17l-15 -1l-14 -1q-8 -1 -15 -1h-12q-190 0 -190 137q0 13 2 27.5t6 31.5z" />
    <glyph glyph-name="uni261B" unicode="&#x261b;" horiz-adv-x="1750" 
d="M1681 554q4 -17 6 -31.5t2 -27.5q0 -137 -190 -137h-12t-15 1l-14 1l-15 1l-182 17l14 -53q12 -43 12 -72q0 -41 -34 -62q-19 -11 -44 -11q-23 0 -56 11v-10q0 -60 -38 -84q-19 -12 -47 -12q-10 0 -24 3q-9 1 -22 5l-4 1v-10q0 -51 -42 -77q-19 -13 -53 -13q-29 0 -59 11
l-346 119l-380 -84v60l382 86l369 -128q35 -12 55 -1q23 14 21 50l-3 52l61 -15q22 -5 32 -5q17 0 27 7q18 14 17 56l-1 56l61 -19q37 -12 55 -1q20 13 13 53l-36 149l264 -25l14 -1l13 -1q7 -1 12.5 -1h10.5q76 0 105 29q21 20 21 62l-585 76l-18 2l-17 2q-9 1 -15 1.5
t-10 0.5q-3 0 -9 -0.5t-16 -1.5l-15 -2l-17 -1l-791 -82v60l783 80q21 2 37.5 3.5t27.5 1.5q9 0 26 -1.5t43 -5.5z" />
    <glyph glyph-name="sun" unicode="&#x263c;" horiz-adv-x="1039" 
d="M588 -52l-115 130l-164 -75l-6 174l-175 47l110 137l-106 150l175 35l13 180l155 -82l127 127l66 -163l178 17l-54 -167l149 -104l-149 -92l47 -174l-172 25zM573 63l56 121l123 -18l-34 127l106 65l-108 75l38 119l-128 -11l-48 116l-93 -92l-109 59l-10 -132l-126 -25
l77 -109l-79 -98l127 -34l4 -126l120 56zM435 276q-33 35 -33 86q0 52 33 86q35 35 92 35t92 -35q33 -34 33 -86q0 -51 -33 -86q-35 -35 -92 -35t-92 35z" />
    <glyph glyph-name="heart" unicode="&#x2665;" horiz-adv-x="1010" 
d="M502 -52q-388 342 -388 574q0 109 63 170q56 54 136 54q119 0 191 -120q72 120 191 120q81 0 136 -54q63 -61 63 -170q0 -232 -388 -574h-4zM816 522q0 71 -36 114q-35 41 -85 41q-40 0 -71 -19q-36 -23 -75 -77l-43 -60h-4l-43 60q-40 55 -74 77q-31 19 -72 19
q-50 0 -85 -41q-36 -43 -36 -114q0 -188 311 -475q313 283 313 475z" />
    <glyph glyph-name="uni2691" unicode="&#x2691;" horiz-adv-x="890" 
d="M715 -40h-76v361h-513v408h589v-769zM639 659h-437v-268h437v268z" />
    <glyph glyph-name="uni2698" unicode="&#x2698;" horiz-adv-x="1060" 
d="M510 -40q-29 56 -55.5 98t-51.5 71q-58 -85 -151 -85q-117 0 -190 130v1q73 109 184 109q71 0 138 -51q73 -55 119 -150l-9 175q-290 92 -301 286l-7 164l3 3q114 -43 217 -152q50 141 123 204h2q74 -63 123 -204q103 109 217 152l3 -3l-7 -164q-11 -194 -301 -286
l-9 -175q47 96 120 150q68 51 137 51q111 0 184 -109v-1q-73 -130 -190 -130q-93 0 -151 85q-25 -29 -51.5 -71t-55.5 -98h-40zM798 548l4 57q-40 -25 -84 -63q-53 -43 -86 -84q-67 167 -102 210q-34 -43 -102 -210q-33 41 -86 84q-43 38 -84 63l4 -57q9 -165 268 -237
q259 72 268 237zM253 104q65 0 108 70q-34 31 -64 41q-24 8 -48 8q-62 0 -108 -52q43 -67 112 -67zM763 215q-30 -10 -64 -41q43 -70 108 -70q69 0 112 67q-46 52 -108 52q-24 0 -48 -8z" />
    <glyph glyph-name="uni2709" unicode="&#x2709;" horiz-adv-x="1417" 
d="M172 -29v758h1073v-758h-1073zM709 285l416 374h-834zM248 300l-1 -189l245 270l-245 220l1 -145v-156zM1170 601l-245 -220l245 -270l-1 189v156zM949 41l184 -1l-265 290l-159 -143l-160 143l-265 -290l184 1h481z" />
    <glyph glyph-name="uni272B" unicode="&#x272b;" horiz-adv-x="1050" 
d="M236 -35l109 323l-270 197l340 2l110 318l110 -318l340 -2l-270 -197l108 -323l-288 204zM343 106l182 139l181 -139l-77 210l169 111l-209 -4l-64 207l-64 -207l-210 4l171 -111zM525 262l-97 94l97 94l97 -94z" />
    <glyph glyph-name="uni2731" unicode="&#x2731;" horiz-adv-x="1020" 
d="M232 38l-53 53l243 227l-310 -1v70l306 -1l-239 225l53 53l241 -234l-1 310h76l-1 -310l241 234l53 -53l-240 -225l307 1v-70l-308 1l241 -227l-53 -53l-241 234l1 -312h-76l1 312z" />
    <glyph glyph-name="uni2735" unicode="&#x2735;" horiz-adv-x="979" 
d="M561 -64l-109 196l-179 -140l41 220l-227 9l175 140l-170 154l224 -4l-31 226l169 -147l122 194l34 -222l218 71l-118 -193l214 -86l-214 -74l109 -200l-210 81zM539 91l30 146l127 -48l-67 123l136 47l-139 55l73 121l-136 -45l-20 140l-79 -124l-108 92l21 -145l-140 3
l110 -99l-110 -88l143 -6l-26 -138l117 90z" />
    <glyph glyph-name="uni274C" unicode="&#x274c;" horiz-adv-x="1020" 
d="M201 4l-52 54l312 293l-312 293l51 53l310 -300l309 300l52 -54l-312 -293l312 -293l-51 -53l-309 300z" />
    <glyph glyph-name="uni276C" unicode="&#x276c;" horiz-adv-x="921" 
d="M482 -170l-406 510l406 510h274v-1020h-274zM518 -100h162v880h-162l-351 -438z" />
    <glyph glyph-name="uni276D" unicode="&#x276d;" horiz-adv-x="921" 
d="M165 -170v1020h274l406 -510l-406 -510h-274zM241 -100h162l351 438l-351 442h-162v-880z" />
    <glyph glyph-name="uni2770" unicode="&#x2770;" horiz-adv-x="921" 
d="M749 850v-1020h-279l-396 504v12l396 504h279z" />
    <glyph glyph-name="uni2771" unicode="&#x2771;" horiz-adv-x="921" 
d="M172 -170v1020h279l396 -504v-12l-396 -504h-279z" />
    <glyph glyph-name="uni2795" unicode="&#x2795;" horiz-adv-x="1020" 
d="M115 317v70h357v353h76v-353h357v-70h-357v-357h-76v357h-357z" />
    <glyph glyph-name="uni27A1" unicode="&#x27a1;" horiz-adv-x="1020" 
d="M446 208h-329v316h329l-2 207h23l484 -365l-484 -365h-23zM839 367l-326 245l1 -155h-324v-182h324l-1 -153z" />
    <glyph glyph-name="glyph444" unicode="&#xe000;" horiz-adv-x="782" 
d="M205 173q-69 68 -69 177q0 111 69 178q67 67 185 67q120 0 187 -67q69 -67 69 -178q0 -109 -69 -177q-71 -68 -187 -68q-114 0 -185 68z" />
    <glyph glyph-name="glyph445" unicode="&#xe001;" horiz-adv-x="782" 
d="M205 172q-70 67 -70 178t70 178q71 68 185 68q117 0 188 -68q69 -67 69 -178t-70 -178q-71 -68 -187 -68q-114 0 -185 68zM520 223q49 49 49 127t-49 127q-50 50 -130 50t-128 -50q-49 -49 -49 -127t49 -127q48 -50 128 -50t130 50z" />
    <glyph glyph-name="glyph446" unicode="&#xe002;" horiz-adv-x="1100" 
d="M181 599q-17 17 -17 44t17 44t46 17q28 0 45 -17t17 -44t-17 -44t-45 -17q-29 0 -46 17zM488 643q0 61 62 61q29 0 46 -17t17 -44t-17 -44t-46 -17q-62 0 -62 61zM828 599q-17 17 -17 44t17 44t46 17q28 0 45 -17t17 -44t-17 -44t-45 -17q-29 0 -46 17zM181 306
q-17 17 -17 44t17 44t46 17q28 0 45 -17t17 -44t-17 -44t-45 -17q-29 0 -46 17zM488 350q0 61 62 61q29 0 46 -17t17 -44t-17 -44t-46 -17q-62 0 -62 61zM828 306q-17 17 -17 44t17 44t46 17q28 0 45 -17t17 -44t-17 -44t-45 -17q-29 0 -46 17zM181 13q-17 17 -17 44
q0 62 63 62q28 0 45 -17t17 -45q0 -27 -17 -44t-45 -17q-29 0 -46 17zM488 57q0 62 62 62q63 0 63 -62q0 -27 -17 -44t-46 -17q-62 0 -62 61zM828 13q-17 17 -17 44q0 62 63 62q28 0 45 -17t17 -45q0 -27 -17 -44t-45 -17q-29 0 -46 17z" />
    <glyph glyph-name="glyph447" unicode="&#xe003;" horiz-adv-x="1020" 
d="M574 524h329v-316h-329l2 -207h-23l-484 365l484 365h23zM181 365l326 -245l-1 155h324v182h-324l1 153z" />
    <glyph glyph-name="glyph448" unicode="&#xe004;" horiz-adv-x="910" 
d="M628 278v-299h-346v299l-208 -2v15l381 462l381 -462v-15zM454 641l-248 -298l149 1v-298h200v298l147 -1z" />
    <glyph glyph-name="glyph449" unicode="&#xe005;" horiz-adv-x="910" 
d="M282 422v299h346v-299l208 2v-15l-381 -462l-381 462v15zM456 59l248 298l-149 -1v298h-200v-298l-147 1z" />
    <glyph glyph-name="glyph450" unicode="&#xe006;" horiz-adv-x="1487" 
d="M145 179v374h1048l184 -187l-184 -187h-1048z" />
    <glyph glyph-name="glyph451" unicode="&#xe007;" horiz-adv-x="1487" 
d="M145 179v374h1048l184 -187l-184 -187h-1048zM221 249h941l113 117l-113 117h-941v-234z" />
    <glyph glyph-name="glyph452" unicode="&#xe008;" horiz-adv-x="1487" 
d="M145 179v374h1048l184 -187l-184 -187h-1048zM221 249h918v234h-918v-234z" />
    <glyph glyph-name="glyph453" unicode="&#xe009;" horiz-adv-x="1300" 
d="M145 301v130h1010v-130h-1010z" />
    <glyph glyph-name="glyph454" unicode="&#xe00a;" horiz-adv-x="1300" 
d="M145 462v70h1010v-70h-1010zM145 200v70h1010v-70h-1010z" />
    <glyph glyph-name="glyph455" unicode="&#xe00b;" horiz-adv-x="1300" 
d="M145 576v70h1010v-70h-1010zM145 329v70h1010v-70h-1010zM145 82v70h1010v-70h-1010z" />
    <glyph glyph-name="glyph456" unicode="&#xe00c;" horiz-adv-x="1098" 
d="M276 157q-91 37 -91 99t91 99q98 39 273 39q176 0 273 -39q91 -37 91 -99t-91 -99q-97 -39 -273 -39q-175 0 -273 39zM750 206q80 20 80 50t-80 51q-83 20 -201 20t-200 -20q-81 -21 -81 -51t81 -50q80 -21 200 -21t201 21zM311 -32q-98 30 -123 64v78q16 -36 113 -68
q106 -34 248 -34t248 34q97 32 113 68v-78q-25 -34 -123 -64q-99 -29 -238 -29t-238 29z" />
    <glyph glyph-name="glyph457" unicode="&#xe00d;" horiz-adv-x="1098" 
d="M276 336q-91 37 -91 99t91 99q98 39 273 39q176 0 273 -39q91 -37 91 -99t-91 -99q-97 -39 -273 -39q-175 0 -273 39zM750 385q80 20 80 50t-80 51q-83 20 -201 20t-200 -20q-81 -21 -81 -51t81 -50q80 -21 200 -21t201 21zM311 148q-96 29 -123 63v78q16 -36 113 -68
q106 -34 248 -34t248 34q97 32 113 68v-78q-27 -34 -123 -63q-96 -30 -238 -30t-238 30zM311 -32q-98 30 -123 64v78q16 -36 113 -68q106 -34 248 -34t248 34q97 32 113 68v-78q-25 -34 -123 -64q-99 -29 -238 -29t-238 29z" />
    <glyph glyph-name="glyph458" unicode="&#xe00e;" horiz-adv-x="1098" 
d="M276 515q-91 37 -91 99t91 99q98 39 273 39q176 0 273 -39q91 -37 91 -99t-91 -99q-97 -39 -273 -39q-175 0 -273 39zM750 564q80 20 80 50t-80 51q-83 20 -201 20t-200 -20q-81 -21 -81 -51t81 -50q80 -21 200 -21t201 21zM311 327q-96 29 -123 63v78q16 -36 113 -68
q106 -34 248 -34t248 34q97 32 113 68v-78q-27 -34 -123 -63q-96 -30 -238 -30t-238 30zM311 148q-96 29 -123 63v78q16 -36 113 -68q106 -34 248 -34t248 34q97 32 113 68v-78q-27 -34 -123 -63q-96 -30 -238 -30t-238 30zM311 -32q-98 30 -123 64v78q16 -36 113 -68
q106 -34 248 -34t248 34q97 32 113 68v-78q-25 -34 -123 -64q-99 -29 -238 -29t-238 29z" />
    <glyph glyph-name="glyph459" unicode="&#xe00f;" horiz-adv-x="1098" 
d="M549 107l-411 153v2l411 153l411 -153v-2zM549 176l240 85l-240 85l-240 -85zM549 -76l-396 142v70l396 -142l396 142v-70z" />
    <glyph glyph-name="glyph460" unicode="&#xe010;" horiz-adv-x="1098" 
d="M549 290l-411 153v2l411 153l411 -153v-2zM549 359l240 85l-240 85l-240 -85zM549 107l-396 142v70l396 -142l396 142v-70zM549 -76l-396 142v70l396 -142l396 142v-70z" />
    <glyph glyph-name="glyph461" unicode="&#xe011;" horiz-adv-x="1098" 
d="M549 473l-411 153v2l411 153l411 -153v-2zM549 542l240 85l-240 85l-240 -85zM549 290l-396 142v70l396 -142l396 142v-70zM549 107l-396 142v70l396 -142l396 142v-70zM549 -76l-396 142v70l396 -142l396 142v-70z" />
    <glyph glyph-name="glyph462" unicode="&#xe012;" horiz-adv-x="1078" 
d="M238 62q-112 108 -112 288t112 288q113 108 301 108q189 0 301 -108t112 -288t-112 -288t-301 -108q-188 0 -301 108zM785 112q89 89 89 238q0 150 -89 239q-91 88 -246 88q-154 0 -245 -89q-90 -88 -90 -238q0 -151 90 -238q91 -89 245 -89t246 89zM376 521
q74 51 181 51q75 0 124 -32q48 -31 48 -86q0 -53 -47 -94q-58 -52 -188 -79v70q153 42 153 96q0 52 -87 52q-89 0 -183 -58h-1v80zM491 145q-14 14 -14 34q0 18 14 34q14 15 38 15q25 0 38 -15q14 -16 14 -34q0 -20 -14 -34q-13 -15 -38 -15q-24 0 -38 15z" />
    <glyph glyph-name="glyph463" unicode="&#xe013;" horiz-adv-x="1078" 
d="M238 62q-112 108 -112 288t112 288q113 108 301 108q189 0 301 -108t112 -288t-112 -288t-301 -108q-188 0 -301 108zM785 112q89 89 89 238q0 150 -89 239q-91 88 -246 88q-154 0 -245 -89q-90 -88 -90 -238q0 -151 90 -238q91 -89 245 -89t246 89zM512 291l-24 275v1
h102v-1l-24 -275h-54zM501 145q-14 14 -14 34q0 18 14 34q14 15 38 15q25 0 38 -15q14 -16 14 -34q0 -20 -14 -34q-13 -15 -38 -15q-24 0 -38 15z" />
    <glyph glyph-name="glyph464" unicode="&#xe014;" horiz-adv-x="1079" 
d="M360 -36l-214 214v344l214 214h359l214 -214v-344l-214 -214h-359zM391 34h297l169 173v286l-169 173h-297l-169 -173v-286zM331 315v70h417v-70h-417z" />
    <glyph glyph-name="glyph465" unicode="&#xe015;" horiz-adv-x="1034" 
d="M177 -29v758h420l290 -275v-483h-710zM253 41h558v350h-281v268h-277v-618zM606 625v-164h173z" />
    <glyph glyph-name="glyph466" unicode="&#xe016;" horiz-adv-x="1135" 
d="M158 584q-17 17 -17 44t17 44t46 17q28 0 45 -17t17 -44t-17 -44t-45 -17q-29 0 -46 17zM376 593v70h606l-3 -70h-603zM158 306q-17 17 -17 44t17 44t46 17q28 0 45 -17t17 -44t-17 -44t-45 -17q-29 0 -46 17zM376 315v70h606l-3 -70h-603zM158 28q-17 17 -17 44t17 44
t46 17q28 0 45 -17t17 -44t-17 -44t-45 -17q-29 0 -46 17zM376 37v70h606l-3 -70h-603z" />
    <glyph glyph-name="glyph467" unicode="&#xe017;" horiz-adv-x="825" 
d="M197 85v676l513 -471h-257l130 -285l-67 -31l-133 290zM270 247l118 108h148l-266 246v-354z" />
    <glyph glyph-name="glyph468" unicode="&#xe018;" horiz-adv-x="960" 
d="M123 287q-25 24 -25 63t25 63q24 24 66 24q36 0 59 -19l381 196v3q0 39 24 63q26 24 66 24q41 0 65 -24t24 -63t-24 -63q-24 -25 -65 -25q-40 0 -66 24l-376 -193v-20l375 -193q24 26 67 26q41 0 65 -25t24 -65q0 -39 -24 -63t-65 -24q-40 0 -66 24q-24 24 -24 63v3
l-381 196q-23 -19 -59 -19q-42 0 -66 24z" />
    <glyph glyph-name="glyph469" unicode="&#xe019;" horiz-adv-x="1078" 
d="M238 62q-112 108 -112 288t112 288q113 108 301 108q189 0 301 -108t112 -288t-112 -288t-301 -108q-188 0 -301 108zM785 112q89 89 89 238q0 150 -89 239q-91 88 -246 88q-154 0 -245 -89q-90 -88 -90 -238q0 -151 90 -238q91 -89 245 -89t246 89zM421 144v7l83 217
q-36 9 -56 37t-20 59q0 43 31 73q32 30 80 30q50 0 81 -30q30 -30 30 -73q0 -31 -20 -59t-56 -37l83 -217v-7h-236z" />
    <glyph glyph-name="glyph470" unicode="&#xe01a;" horiz-adv-x="1116" 
d="M304 7l-11 19l44 93l-199 155l-22 47l4 54l50 44l-14 65l19 39l63 26l7 65l32 31l65 2l34 60l39 16l64 -20l54 43h46l54 -43l64 20l39 -16l34 -60l65 -2l32 -31l7 -65l63 -26l19 -39l-14 -65l50 -44l4 -54l-22 -47l-199 -155l44 -93l-11 -19h-164l-88 -69l-88 69h-164z
M386 71h101l69 -51l69 51h101l-31 62l224 180v37l-49 45l17 79l-1 2l-75 30l-6 73l-2 2l-74 2l-37 66l-3 2l-73 -20l-60 45l-60 -45l-73 20l-3 -2l-37 -66l-74 -2l-2 -2l-6 -73l-75 -30l-1 -2l17 -79l-49 -45v-37l227 -178z" />
    <glyph glyph-name="glyph471" unicode="&#xe01b;" horiz-adv-x="1020" 
d="M254 59q-119 93 -118 199q0 42 21 115q20 75 20 115q0 54 -45 124l125 119q47 -40 100 -40q70 0 152 73h2q82 -73 152 -73q53 0 100 40l125 -119q-45 -70 -45 -124q0 -27 6 -59l7 -28l8 -28q20 -75 20 -115q1 -106 -118 -199q-99 -78 -256 -127q-157 49 -256 127z
M710 105q100 72 100 152q0 25 -6 59q-2 11 -5.5 26t-8.5 35q-21 81 -21 111q0 52 28 112l-50 46q-42 -21 -91 -21q-69 0 -146 53q-77 -53 -146 -53q-49 0 -91 21l-50 -46q28 -60 28 -112q0 -28 -20 -111q-21 -79 -21 -120q0 -80 100 -152q35 -25 84.5 -51t115.5 -52
q66 26 115.5 52t84.5 51z" />
    <glyph glyph-name="glyph472" unicode="&#xe01c;" horiz-adv-x="870" 
d="M695 -40h-76v311h-513v12l174 217l-174 217v12h589v-769zM619 659h-378v-1l128 -160l-125 -156v-1h375v318z" />
    <glyph glyph-name="glyph473" unicode="&#xe01d;" horiz-adv-x="1020" 
d="M258 55l-25 139l-127 81v19l135 66l-86 183l15 28l211 -55l116 247h26l116 -247l211 55l15 -28l-86 -183l135 -66v-19l-127 -81l-25 -139l-216 112l1 -207h-74l1 207zM308 149l166 88v100h72v-100l166 -88l18 82l78 52l-111 54l74 153l-168 -43l-93 201l-93 -201l-168 43
l74 -153l-111 -54l78 -52z" />
    <glyph glyph-name="glyph474" unicode="&#xe01e;" horiz-adv-x="1020" 
d="M472 -40l1 145l-408 75v2l199 146l-102 38v2l181 138l-77 33v2l243 222h2l243 -222v-2l-77 -33l181 -138v-2l-102 -38l199 -146v-2l-408 -75l1 -145h-76zM510 160l298 54l-171 127l104 41l-174 133l85 41l-142 121l-142 -121l85 -41l-174 -133l104 -41l-171 -127z" />
    <glyph glyph-name="glyph475" unicode="&#xe01f;" horiz-adv-x="1000" 
d="M181 -29l56 423l-95 121l21 214h180l15 -109h42l16 109h168l16 -109h42l15 109h180l21 -214l-95 -121l56 -423h-638zM261 39h478l-49 370l96 125l-11 134h-64l-13 -104h-154l-14 104h-60l-14 -104h-154l-13 104h-64l-11 -134l96 -125z" />
    <glyph glyph-name="glyph476" unicode="&#xe020;" horiz-adv-x="820" 
d="M645 -40h-76v301l-533 222v12l594 259h15v-794zM569 651l-373 -161v-2l373 -151v314z" />
    <glyph glyph-name="glyph477" unicode="&#xe021;" horiz-adv-x="1020" 
d="M406 567v70h208v-70h-208zM258 316v70h504v-70h-504zM95 65v70h830v-70h-830z" />
    <glyph glyph-name="glyph478" unicode="&#xe022;" horiz-adv-x="1020" 
d="M95 567v70h830v-70h-830zM258 316v70h504v-70h-504zM406 65v70h208v-70h-208z" />
    <glyph glyph-name="glyph479" unicode="&#xe023;" horiz-adv-x="815" 
d="M587 -170l-447 509l448 511h94l-446 -509l446 -511h-95z" />
    <glyph glyph-name="glyph480" unicode="&#xe024;" horiz-adv-x="815" 
d="M133 -170l446 509l-446 511h95l447 -509l-448 -511h-94z" />
    <glyph glyph-name="glyph481" unicode="&#xe025;" horiz-adv-x="902" 
d="M197 -63v792h508v-792h-10l-244 223l-244 -223h-10zM269 88h1l181 163l181 -163h1v571h-364v-571z" />
    <glyph glyph-name="glyph482" unicode="&#xe026;" horiz-adv-x="1004" 
d="M331 327q-56 73 -56 175q0 111 56 179q60 70 171 70t171 -70q56 -68 56 -179q0 -102 -56 -175q-63 -80 -171 -80t-171 80zM619 374q34 49 34 128q0 180 -151 180t-151 -180q0 -79 34 -128q40 -58 117 -58t117 58zM61 -29l8 101q5 62 54 87q26 14 59 24.5t71 18.5l79 17
q66 -79 170 -79t170 79l79 -17q79 -16 131 -43q49 -26 53 -87l8 -101h-76l-6 83q-1 33 -28 50q-22 14 -86 28l-53 11q-76 -72 -192 -72q-115 0 -192 72l-53 -11q-64 -14 -86 -28q-27 -17 -28 -50l-6 -83h-76z" />
    <glyph glyph-name="glyph483" unicode="&#xe027;" horiz-adv-x="1000" 
d="M438 655q0 61 62 61q29 0 46 -17t17 -44t-17 -44t-46 -17q-62 0 -62 61zM171 453q-17 17 -17 44t17 44t46 17q28 0 45 -17t17 -44t-17 -44t-45 -17q-29 0 -46 17zM738 453q-17 17 -17 44t17 44t46 17q28 0 45 -17t17 -44t-17 -44t-45 -17q-29 0 -46 17zM453 306
q-18 17 -18 44t18 45t47 18t47 -18t18 -45t-18 -44q-18 -18 -47 -18t-47 18zM171 159q-17 17 -17 44q0 62 63 62q28 0 45 -17t17 -45q0 -27 -17 -44t-45 -17q-29 0 -46 17zM738 159q-17 17 -17 44q0 62 63 62q28 0 45 -17t17 -45q0 -27 -17 -44t-45 -17q-29 0 -46 17z
M438 57q0 62 62 62q63 0 63 -62q0 -27 -17 -44t-46 -17q-62 0 -62 61z" />
    <glyph glyph-name="glyph484" unicode="&#xe028;" horiz-adv-x="796" 
d="M189 26q-77 72 -77 203v242q0 130 77 204q77 71 209 71t209 -71q77 -74 77 -204v-242q0 -131 -77 -203q-76 -72 -209 -72q-132 0 -209 72zM608 243v214q0 219 -210 219t-210 -219v-214q0 -219 210 -219t210 219zM327 402q-26 26 -26 68t26 68q27 27 71 27t71 -27
q26 -26 26 -68t-26 -68q-27 -27 -71 -27t-71 27z" />
    <glyph glyph-name="glyph485" unicode="&#xe029;" horiz-adv-x="796" 
d="M189 26q-77 72 -77 203v242q0 130 77 204q77 71 209 71t209 -71q77 -74 77 -204v-242q0 -131 -77 -203q-76 -72 -209 -72q-132 0 -209 72zM608 243v214q0 219 -210 219t-210 -219v-214q0 -219 210 -219t210 219zM327 162q-26 26 -26 68t26 68q27 27 71 27t71 -27
q26 -26 26 -68t-26 -68q-27 -27 -71 -27t-71 27z" />
    <glyph glyph-name="glyph486" unicode="&#xe02a;" horiz-adv-x="1072" 
d="M442 -39l-94 74l-108 -74l-112 114l74 98l-74 88l74 88l-74 88l74 88l-74 98l112 114l108 -74l94 74l94 -74l94 74l94 -74l108 74l112 -114l-74 -98l74 -88l-74 -88l74 -88l-74 -88l74 -98l-112 -114l-108 74l-94 -74l-94 74zM442 37l94 72l94 -72l94 72l100 -67l38 40
l-70 91l74 88l-74 88l74 88l-74 88l70 91l-38 39l-100 -66l-94 72l-94 -72l-94 72l-94 -72l-100 66l-38 -39l70 -91l-74 -88l74 -88l-74 -88l74 -88l-70 -91l38 -40l100 67z" />
    <glyph glyph-name="glyph487" unicode="&#xe10b;" horiz-adv-x="698" 
d="M52 -100v800h594v-800h-594zM331 201q45 -45 85 -45q33 0 56 26q22 25 24 68l-7 2q-15 -29 -43 -29q-27 0 -62 41q19 24 46 42q15 -25 43 -25q21 0 36 15q14 17 14 39t-14 38q-16 14 -36 14q-34 0 -60 -38q-1 38 -49 37q9 17 9 34q0 29 -25 50q-27 24 -70 24
q-48 0 -80 -26q-29 -26 -29 -59q0 -38 31 -69q-82 -25 -82 -91q0 -39 32 -66t77 -27q64 0 104 45zM249 428q0 29 27 29q29 0 29 -38q0 -21 -18 -50q-38 35 -38 59zM336 319q-6 7 -11.5 12.5l-10.5 10.5q13 8 23.5 17t18.5 17q15 -15 15 -34q0 -17 -16 -46zM226 234
q-15 17 -15 39q0 24 16 40l15 -15q5 -5 9 -9.5t9 -9.5q11 -13 21 -25t20 -23q-15 -12 -38 -12q-22 0 -37 15zM354 73h6l4 8q5 -8 14 -8t13 7q3 6 3 14q0 20 -15 20q-3 0 -8 -3q-3 -1 -5 -6v27h-18v-7h6v-52zM127 74h30v7h-10v16h4q4 0 6 -8h7v23h-7q-2 -8 -6 -8h-4v18h12
q10 0 11 -13h8v20h-51v-7h7v-41h-7v-7zM302 86l-5 2q-1 -2 -1 -3t-1 -2l-2 -2h-1q-4 0 -4 5v20h13v7h-13v11l-12 -2v-9h-7v-7h7v-20q0 -13 12 -13q13 0 14 13zM221 74h22v7h-4v15q0 10 7 10q6 0 6 -7v-18h-4v-7h22v7h-6v19q0 14 -12 14q-9 0 -14 -11v10h-17v-7h6v-25h-6v-7z
M218 94q0 20 -21 20t-21 -20q0 -21 21 -21t21 21zM339 86q0 11 -12 12q-12 2 -12 6q0 1 1 2q2 2 4 2q6 0 10 -7h7v13h-6l-2 -5q-2 5 -11 5q-6 0 -10 -4t-4 -8q0 -10 12 -12q12 -3 12 -7q0 -1 -1 -2q-2 -2 -4 -2q-4 0 -12 9h-7v-14h7l1 4l2 -1l3 -2q6 -2 8 -2q14 0 14 13z
M424 75l13 31h5v7h-17v-7h5l-8 -20l-9 20h6v7h-25v-7h5l10 -20t6 -13q-2 -8 -8 -8q3 3 1 6q-1 4 -6 4q-7 0 -7 -7q0 -9 11 -9t18 16zM189 94q0 15 8 15t8 -15q0 -16 -8 -16t-8 16zM366 93q0 13 8 13q7 0 7 -13t-7 -13q-8 0 -8 13zM278 0h23v7h-5v25h14v-25h-5v-7h23v7h-6v52
l-10 -2q-1 1 -4 1q-2 1 -5 1q-8 0 -13 -5q-6 -4 -6 -14v-1h-7v-7h7v-25h-6v-7zM524 22h-8q-1 -16 -14 -16q-16 0 -16 22t14 22q11 0 15 -16h8v22h-8l-1 -6q-7 7 -16 7q-10 0 -18 -9q-9 -9 -9 -21q0 -28 29 -28q22 0 24 23zM126 0h29v7h-8v18h22v-18h-8v-7h29v7h-8v41h8v7
h-29v-7h8v-16h-22v16h8v7h-29v-7h8v-41h-8v-7zM296 39v3q0 12 6 12q2 0 3 -1q-1 -1 -1 -3q0 -6 6 -6v-5h-14zM442 5q5 -6 12 -6q12 0 13 12l-5 1l-2 -4q-1 -1 -2 -1h-1l-2 1q-1 1 -1.5 2t-1.5 2l5 7l4 7h5v7h-18v-7h6q-1 -1 -3 -5l-2 -3l-1 -1l-6 6q-2 3 -6 7q11 5 11 12
q0 4 -4 8t-10 4q-17 0 -17 -14q0 -6 6 -12q-13 -1 -13 -15t18 -14q9 0 15 6zM427 43q0 5 5 5q6 0 6 -6q0 -7 -5 -9q-6 6 -6 10zM275 13h-7q-1 -7 -9 -7q-10 0 -10 12h26q1 22 -19 22t-20 -21q0 -20 21 -20q16 0 18 14zM368 13h-7q-1 -7 -9 -7q-10 0 -10 12h26q1 22 -19 22
t-20 -21q0 -20 21 -20q16 0 18 14zM233 20q0 20 -21 20t-21 -20q0 -21 21 -21t21 21zM569 20q0 20 -21 20t-21 -20q0 -21 21 -21t21 21zM370 0h26v7h-8v16q2 4 4 6l2 2l1 1v-1q0 -6 6 -6q7 0 7 7q0 8 -8 8q-7 0 -12 -11v10h-18v-7h6v-25h-6v-7zM204 20q0 15 8 15t8 -15
q0 -16 -8 -16t-8 16zM540 20q0 15 8 15t8 -15q0 -16 -8 -16t-8 16zM249 23q0 12 7 12t7 -12h-14zM342 23q0 12 7 12t7 -12h-14zM421 16q0 2 2 6l1 2l1 1l7 -8l7 -8l-5 -2q-1 -1 -3 -1q-10 0 -10 10zM585 6q0 7 -7 7t-7 -7t7 -7t7 7z" />
    <glyph glyph-name="uniFEFF" unicode="&#xfeff;" horiz-adv-x="0" 
 />
    <glyph glyph-name="u1F441" horiz-adv-x="978" 
d="M720 131q-106 -77 -231 -77q-234 0 -423 296q189 296 423 296q125 0 231 -77q98 -72 192 -219q-94 -147 -192 -219zM304 183q84 -60 185 -60t185 60q38 26 76 68t76 99q-77 115 -152 168q-85 59 -185 59q-101 0 -185 -60q-38 -27 -76 -68.5t-76 -98.5q38 -57 76 -98.5
t76 -68.5zM391 255q-39 38 -39 95q0 58 39 95q37 37 98 37q62 0 99 -37q38 -38 38 -95q0 -56 -38 -94q-40 -38 -99 -38q-61 0 -98 37z" />
    <glyph glyph-name="u1F451" horiz-adv-x="1180" 
d="M228 112l-128 451l2 2l200 -124h2l33 207l2 1l146 -172h2l102 257h2l102 -257h2l146 172l2 -1l33 -207h2l200 124l2 -2l-128 -451h-724zM280 180h620l70 248l-142 -81l-28 163l-125 -147l-86 206l-86 -206l-125 147l-28 -163l-140 81z" />
    <glyph glyph-name="u1F4AC" horiz-adv-x="1098" 
d="M137 -31q165 116 248 241q-115 29 -177 89q-64 63 -64 149q0 121 109 206q119 92 306 92q189 0 307 -94q108 -85 108 -202q0 -101 -55 -175q-66 -90 -222 -165q-110 -54 -247.5 -93.5t-305.5 -67.5zM664 172q132 65 183 134t51 144q0 89 -95 157q-99 69 -244 69
q-147 0 -244 -67q-95 -66 -95 -161q0 -151 284 -192q-70 -122 -163 -200q179 48 323 116z" />
    <glyph glyph-name="u1F4C8" horiz-adv-x="1062" 
d="M762 -40v769h78v-769h-78zM472 -40v559h78v-559h-78zM182 -40v349h78v-349h-78z" />
    <glyph glyph-name="u1F4C9" horiz-adv-x="1062" 
d="M222 -40v769h78v-769h-78zM512 -40v559h78v-559h-78zM802 -40v349h78v-349h-78z" />
    <glyph glyph-name="u1F4D5" horiz-adv-x="1019" 
d="M152 552q0 95 49 143q35 35 107 35h424v-187h160v-572h-524q-64 0 -99 15q-33 13 -72 57q-45 50 -45 122v387zM656 543v118h-318q-82 0 -82 -32q0 -9 15 -26q9 -12 30 -33q27 -27 87 -27h268zM816 40v435h-407q-110 0 -144 34l-5 5l-5 5l-11 12q-13 14 -13 20
q-5 -10 -5 -68v-319q0 -46 37 -86q38 -38 103 -38h450z" />
    <glyph glyph-name="u1F4F1" horiz-adv-x="917" 
d="M315 -42q-153 0 -153 153v478q0 153 153 153h287q153 0 153 -153v-478q0 -153 -153 -153h-287zM593 28q86 0 86 94v456q0 94 -86 94h-269q-86 0 -86 -94v-456q0 -94 86 -94h269zM371 109q-47 0 -47 42q0 41 47 41h176q46 0 46 -41q0 -42 -46 -42h-176z" />
    <glyph glyph-name="u1F50D" horiz-adv-x="919" 
d="M231 225q-88 85 -88 219q0 133 88 217q88 85 229 85q140 0 229 -83q87 -84 87 -219q0 -87 -40 -157q-41 -69 -110 -107l157 -255l-68 -36l-163 263q-23 -5 -46 -8t-46 -3q-140 0 -229 84zM632 276q65 65 65 168q0 106 -65 169q-64 63 -172 63q-107 0 -172 -65
q-66 -64 -66 -167t66 -168q68 -65 172 -65q107 0 172 65z" />
    <glyph glyph-name="u1F512" horiz-adv-x="1066" 
d="M162 -29v468h135v46q0 261 236 261t236 -261v-46h135v-468h-742zM375 439h316v48q0 97 -33 140q-37 49 -125 49t-125 -49q-33 -43 -33 -140v-48zM238 41h590v328h-590v-328z" />
    <glyph glyph-name="u1F514" horiz-adv-x="1034" 
d="M121 71l1 64q1 106 57 151l46 39l13 93q12 99 49 151q34 48 102 71l17 114h222l17 -114q70 -23 103 -71q36 -53 48 -151l13 -93l46 -39q56 -45 57 -151l1 -64h-792zM196 135h642l-1 34q0 6 -2 16q-1 5 -2 9.5t-3 9.5q-7 22 -27 37l-59 50l-16 120q-19 138 -105 168
l-42 15l-13 94h-102l-13 -94l-42 -15q-85 -30 -105 -168l-16 -120l-59 -50q-20 -15 -27 -37q-2 -5 -3 -9.5t-2 -9.5q-2 -10 -2 -16zM454 -138q-23 23 -23 60t24 60q23 24 62 24t63 -24q23 -23 23 -60t-23 -60q-24 -24 -63 -24t-63 24z" />
    <glyph glyph-name="u1F517" horiz-adv-x="1462" 
d="M394 -15q-274 130 -274 354q0 162 115 268q118 109 309 109q195 0 310 -99q109 -93 109 -237q0 -48 -14 -109l-78 -11q3 11 6 25t5 31t3 31t1 25q0 124 -95 201q-95 74 -243 74q-157 0 -254 -88q-95 -86 -95 -216q0 -189 259 -312zM608 84q-109 93 -109 237q0 48 14 109
l78 11q-3 -11 -6 -25t-5 -31t-3 -31t-1 -25q0 -125 95 -200t243 -75q157 0 254 88q95 86 95 216q0 189 -259 312l64 46q274 -130 274 -354q0 -162 -115 -268q-118 -109 -309 -109q-194 0 -310 99z" />
    <glyph glyph-name="u1F553" horiz-adv-x="1078" 
d="M238 62q-112 108 -112 288t112 288q113 108 301 108q189 0 301 -108t112 -288t-112 -288t-301 -108q-188 0 -301 108zM785 112q89 89 89 238q0 150 -89 239q-91 88 -246 88q-154 0 -245 -89q-90 -88 -90 -238q0 -151 90 -238q91 -89 245 -89t246 89zM504 318v283h76v-250
l172 -113v-83z" />
    <glyph glyph-name="u1F5DD" horiz-adv-x="853" 
d="M669 105v-70h-222v-75h-76v403q-112 9 -180 55q-77 51 -77 133q0 89 91 144q83 50 204 50q119 0 204 -50q91 -54 91 -144q0 -80 -77 -133q-70 -46 -180 -55v-97h222v-70h-222v-91h222zM262 643q-64 -33 -64 -91q0 -57 63 -89q58 -29 148 -29q87 0 147 29q64 31 64 89
t-64 91q-58 30 -147 30q-88 0 -147 -30z" />
    <glyph glyph-name="u1F6AB" horiz-adv-x="1078" 
d="M238 62q-112 108 -112 288t112 288q113 108 301 108q189 0 301 -108t112 -288t-112 -288t-301 -108q-188 0 -301 108zM266 144l495 465q-88 68 -222 68q-154 0 -245 -89q-90 -88 -90 -238q0 -123 62 -206zM785 112q89 89 89 238q0 123 -62 206l-495 -465q88 -68 222 -68
q154 0 246 89z" />
    <glyph glyph-name="u1F6D2" horiz-adv-x="1077" 
d="M76 659l5 70h195l31 -157h611l-51 -331l-558 -52l-95 470h-138zM829 502h-508l48 -237l429 41zM280 10q-21 20 -21 53q0 32 21 53q20 20 54 20q35 0 55 -20t20 -53t-20 -53q-19 -21 -55 -21q-34 0 -54 21zM749 10q-21 20 -21 53q0 32 21 53q20 20 54 20q35 0 55 -20
t20 -53t-20 -53q-19 -21 -55 -21q-34 0 -54 21z" />
    <glyph glyph-name="u1F6E1" horiz-adv-x="1020" 
d="M509 -55q-178 101 -264 213q-101 133 -101 308q0 95 32 223q182 60 334 60q153 0 334 -60q32 -128 32 -223q0 -175 -101 -308q-85 -112 -264 -213h-2zM720 208q80 113 80 258q0 40 -4.5 81.5t-14.5 84.5q-118 48 -271 48q-152 0 -271 -48q-10 -43 -14.5 -84.5t-4.5 -81.5
q0 -145 80 -258q69 -97 210 -183q141 86 210 183z" />
    <glyph glyph-name="A.1" horiz-adv-x="743" 
d="M58 0l231 575h165l231 -575h-77l-60 149h-354l-59 -149h-77zM340 511l-122 -300h306l-121 300h-63z" />
    <glyph glyph-name="Euro.aalt" horiz-adv-x="724" 
d="M29 232l6 53h107l-1 13l-1 14l-1 28q0 18 1 34t3 30h-94l6 53h99q32 117 114 184q89 72 217 72q99 0 178 -43v-70h-1q-88 48 -179 48q-97 0 -164 -52q-65 -52 -92 -139h306v-53h-317q-2 -17 -3.5 -32.5t-1.5 -30.5q0 -17 1 -31t3 -25h318v-53h-307q26 -85 88 -131
q64 -49 161 -49q87 0 187 44h1v-70q-88 -39 -190 -39q-129 0 -215 69q-80 65 -107 176h-122z" />
    <glyph glyph-name="uni1E9E.1" horiz-adv-x="779" 
d="M200 0h-74v575h559v-61l-212 -194l47 -13q112 -30 154 -73q33 -34 33 -94q0 -71 -52 -111q-53 -43 -156 -43q-106 0 -190 37v65h1q92 -42 188 -42q136 0 136 97q0 43 -32 67q-35 26 -137 52l-68 17v48l200 186h-397v-513z" />
    <glyph glyph-name="uni1E9E.1118" horiz-adv-x="1332" 
d="M86 52v74h1q57 -37 131 -57q74 -21 136 -21q84 0 127 28q43 27 43 74q0 45 -38 66q-36 20 -153 45q-130 25 -175 54q-57 35 -57 106q0 74 61 120q65 48 177 48q127 0 234 -58v-74h-1q-119 68 -238 68q-72 0 -116 -26q-43 -27 -43 -72q0 -44 40 -63q19 -10 56.5 -21
t95.5 -22q122 -22 174 -57q57 -37 57 -108q0 -73 -53 -118q-64 -54 -191 -54q-159 0 -268 68zM752 52v74h1q57 -37 131 -57q74 -21 136 -21q84 0 127 28q43 27 43 74q0 45 -38 66q-36 20 -153 45q-130 25 -175 54q-57 35 -57 106q0 74 61 120q65 48 177 48q127 0 234 -58
v-74h-1q-119 68 -238 68q-72 0 -116 -26q-43 -27 -43 -72q0 -44 40 -63q19 -10 56.5 -21t95.5 -22q122 -22 174 -57q57 -37 57 -108q0 -73 -53 -118q-64 -54 -191 -54q-159 0 -268 68z" />
    <glyph glyph-name="Idotaccent.1" horiz-adv-x="334" 
d="M130 0v575h73v-575h-73zM128 698q-15 14 -15 35q0 20 15 33q15 15 38 15q24 0 39 -15q15 -13 15 -33q0 -21 -14 -35q-16 -14 -39 -14t-39 14z" />
    <glyph glyph-name="O.1" 
d="M166 63q-88 82 -88 223q0 137 89 223q89 84 234 84q147 0 233 -82q88 -82 88 -223q0 -137 -89 -223q-88 -84 -234 -84q-147 0 -233 82zM578 110q70 66 70 177q0 110 -70 176q-67 64 -178 64q-110 0 -178 -63q-69 -64 -69 -177q0 -112 69 -177q68 -63 178 -63
q111 0 178 63z" />
    <glyph glyph-name="R_p" horiz-adv-x="1480" 
d="M147 0v700h324q122 0 189 -59q63 -58 63 -164q0 -87 -46 -143q-48 -59 -137 -74l203 -260h-87l-191 249h-245v-249h-73zM220 315h250q95 0 137 47q41 47 41 112q0 73 -41 114q-46 46 -137 46h-250v-319zM879 -186v714h72l1 -83q85 97 208 97q106 0 175 -70
q72 -75 72 -203q0 -119 -79 -201t-200 -82q-100 0 -176 61v-233h-73zM1275 112q59 62 59 153q0 104 -57 162q-53 53 -138 53q-112 0 -187 -90v-267q74 -74 171 -74q92 0 152 63z" />
    <glyph glyph-name="_252" horiz-adv-x="434" 
d="M82 48q-44 56 -44 151q0 93 46 151q45 59 134 59q87 0 135 -58q44 -56 44 -151q0 -91 -45 -150q-46 -60 -136 -60q-88 0 -134 58zM307 86q30 41 30 113q0 75 -30 115q-32 44 -90 44q-57 0 -89 -44q-30 -42 -30 -114q0 -73 30 -115q32 -44 89 -44q59 0 90 45z" />
    <glyph glyph-name="_253" horiz-adv-x="326" 
d="M152 0v350h-116l9 50h168v-400h-61z" />
    <glyph glyph-name="_254" horiz-adv-x="434" 
d="M396 49v-49h-322v49h137v301h-139l8 50h193v-351h123z" />
    <glyph glyph-name="_255" horiz-adv-x="434" 
d="M60 0v49l149 123q29 25 50 43t34 31q22 22 22 51q0 61 -86 61q-73 0 -155 -67h-1v60q77 59 160 59q71 0 108 -30q35 -29 35 -79q0 -45 -31 -79q-8 -10 -33 -31.5t-67 -55.5l-101 -84h235v-51h-319z" />
    <glyph glyph-name="_256" horiz-adv-x="434" 
d="M59 23v55h1q85 -38 147 -38q53 0 84 21t31 55q0 37 -32 54q-36 17 -122 17h-18v30l156 132h-238l2 51h308v-49l-147 -124q152 -11 152 -112q0 -57 -46 -91t-124 -34q-77 0 -154 33z" />
    <glyph glyph-name="_257" horiz-adv-x="434" 
d="M285 1v91h-254v45l140 263h171v-258h75l-3 -50h-72v-91h-57zM94 141h192v209h-78z" />
    <glyph glyph-name="_258" horiz-adv-x="434" 
d="M60 22v56h1q75 -37 153 -37q54 0 82 24q25 19 25 51q0 31 -16 44q-28 27 -139 27h-92l6 213h279l3 -51h-227l-3 -114h54q128 0 168 -43q28 -28 28 -75q0 -57 -44 -92q-46 -35 -123 -35q-79 0 -155 32z" />
    <glyph glyph-name="_259" horiz-adv-x="434" 
d="M98 39q-47 52 -47 146q0 108 56 167q54 57 146 57q65 0 116 -24v-53h-1q-55 28 -114 28q-139 0 -145 -152q56 43 135 43q66 0 103 -30q40 -31 40 -90q0 -66 -48 -105q-45 -36 -113 -36q-82 0 -128 49zM109 162q3 -60 35 -92t83 -32q45 0 73 24q30 24 30 66q0 77 -97 77
q-71 0 -124 -43z" />
    <glyph glyph-name="_260" horiz-adv-x="434" 
d="M60 265v135h327v-84l-182 -316h-66l186 323v27h-211v-85h-54z" />
    <glyph glyph-name="_261" horiz-adv-x="434" 
d="M88 19q-44 30 -44 81q0 75 98 101q-88 19 -88 94q0 51 44 83q43 31 119 31t119 -31q44 -32 44 -83q0 -75 -88 -94q98 -26 98 -101q0 -51 -44 -81q-46 -31 -129 -31t-129 31zM323 289q0 34 -28 53q-29 20 -78 20t-78 -20q-28 -19 -28 -53q0 -68 106 -68t106 68zM301 55
q30 20 30 52q0 34 -31 53q-32 20 -83 20q-50 0 -82 -20t-32 -53q0 -32 30 -52q31 -20 84 -20t84 20z" />
    <glyph glyph-name="_262" horiz-adv-x="434" 
d="M336 360q47 -52 47 -146q0 -108 -56 -167q-54 -57 -146 -57q-65 0 -116 24v53h1q55 -28 114 -28q139 0 145 152q-56 -43 -135 -43q-65 0 -103 30q-40 31 -40 90q0 66 48 105q45 36 113 36q82 0 128 -49zM201 194q71 0 124 43q-3 60 -35 92t-83 32q-44 0 -73 -24
q-30 -24 -30 -66q0 -77 97 -77z" />
    <glyph glyph-name="_737" horiz-adv-x="500" 
d="M189 610v171h78v-6l-35 -165h-43z" />
    <glyph glyph-name="_748" horiz-adv-x="500" 
d="M346 841l-77 -205h-85v6l113 199h49z" />
    <glyph glyph-name="a.smcp" horiz-adv-x="743" 
d="M58 0l231 575h165l231 -575h-77l-60 149h-354l-59 -149h-77zM340 511l-122 -300h306l-121 300h-63z" />
    <glyph glyph-name="aacute.1" horiz-adv-x="743" 
d="M58 0l231 575h165l231 -575h-77l-60 149h-354l-59 -149h-77zM340 511l-122 -300h306l-121 300h-63zM326 683l133 164h99v-3l-163 -161h-69z" />
    <glyph glyph-name="aacute.1160" horiz-adv-x="743" 
d="M58 0l231 575h165l231 -575h-77l-60 149h-354l-59 -149h-77zM340 511l-122 -300h306l-121 300h-63zM326 683l133 164h99v-3l-163 -161h-69z" />
    <glyph glyph-name="abreve.1" horiz-adv-x="743" 
d="M58 0l231 575h165l231 -575h-77l-60 149h-354l-59 -149h-77zM340 511l-122 -300h306l-121 300h-63zM251 711q-49 37 -49 104q0 8 1.5 19t3.5 25h60l-1 -10l-1 -8q-1 -5 -1 -9.5v-6.5q0 -94 110 -94t110 94q0 8 -1 17t-3 17h61q2 -11 3 -22t1 -22q0 -66 -48 -104
q-46 -36 -123 -36q-76 0 -123 36z" />
    <glyph glyph-name="abreve.1163" horiz-adv-x="743" 
d="M58 0l231 575h165l231 -575h-77l-60 149h-354l-59 -149h-77zM340 511l-122 -300h306l-121 300h-63zM251 711q-49 37 -49 104q0 8 1.5 19t3.5 25h60l-1 -10l-1 -8q-1 -5 -1 -9.5v-6.5q0 -94 110 -94t110 94q0 8 -1 17t-3 17h61q2 -11 3 -22t1 -22q0 -66 -48 -104
q-46 -36 -123 -36q-76 0 -123 36z" />
    <glyph glyph-name="acircumflex.1" horiz-adv-x="743" 
d="M58 0l231 575h165l231 -575h-77l-60 149h-354l-59 -149h-77zM340 511l-122 -300h306l-121 300h-63zM178 683l140 171h112l140 -171h-78l-98 119h-40l-98 -119h-78z" />
    <glyph glyph-name="acircumflex.1162" horiz-adv-x="743" 
d="M58 0l231 575h165l231 -575h-77l-60 149h-354l-59 -149h-77zM340 511l-122 -300h306l-121 300h-63zM178 683l140 171h112l140 -171h-78l-98 119h-40l-98 -119h-78z" />
    <glyph glyph-name="adieresis.1" horiz-adv-x="743" 
d="M58 0l231 575h165l231 -575h-77l-60 149h-354l-59 -149h-77zM340 511l-122 -300h306l-121 300h-63zM210 698q-14 14 -14 33q0 18 14 32t37 14q22 0 38 -14q13 -13 13 -32q0 -20 -13 -33q-16 -14 -38 -14q-23 0 -37 14zM464 698q-14 14 -14 33q0 18 14 32t37 14
q22 0 38 -14q13 -13 13 -32q0 -20 -13 -33q-16 -14 -38 -14q-23 0 -37 14z" />
    <glyph glyph-name="adieresis.1165" horiz-adv-x="743" 
d="M58 0l231 575h165l231 -575h-77l-60 149h-354l-59 -149h-77zM340 511l-122 -300h306l-121 300h-63zM210 698q-14 14 -14 33q0 18 14 32t37 14q22 0 38 -14q13 -13 13 -32q0 -20 -13 -33q-16 -14 -38 -14q-23 0 -37 14zM464 698q-14 14 -14 33q0 18 14 32t37 14
q22 0 38 -14q13 -13 13 -32q0 -20 -13 -33q-16 -14 -38 -14q-23 0 -37 14z" />
    <glyph glyph-name="ae.1" horiz-adv-x="1105" 
d="M536 0v153h-315l-102 -153h-81l386 575h592l3 -63h-409v-188h334v-61h-334v-200h425l-4 -63h-495zM464 512l-202 -297h274v297h-72z" />
    <glyph glyph-name="ae.1143" horiz-adv-x="1105" 
d="M536 0v153h-315l-102 -153h-81l386 575h592l3 -63h-409v-188h334v-61h-334v-200h425l-4 -63h-495zM464 512l-202 -297h274v297h-72z" />
    <glyph glyph-name="aeacute.1" horiz-adv-x="1105" 
d="M536 0v153h-315l-102 -153h-81l386 575h592l3 -63h-409v-188h334v-61h-334v-200h425l-4 -63h-495zM464 512l-202 -297h274v297h-72zM568 683l133 164h99v-3l-163 -161h-69z" />
    <glyph glyph-name="aeacute.1232" horiz-adv-x="1105" 
d="M536 0v153h-315l-102 -153h-81l386 575h592l3 -63h-409v-188h334v-61h-334v-200h425l-4 -63h-495zM464 512l-202 -297h274v297h-72zM568 683l133 164h99v-3l-163 -161h-69z" />
    <glyph glyph-name="agrave.1" horiz-adv-x="743" 
d="M58 0l231 575h165l231 -575h-77l-60 149h-354l-59 -149h-77zM340 511l-122 -300h306l-121 300h-63zM423 683h-69l-163 161v3h99z" />
    <glyph glyph-name="agrave.1161" horiz-adv-x="743" 
d="M58 0l231 575h165l231 -575h-77l-60 149h-354l-59 -149h-77zM340 511l-122 -300h306l-121 300h-63zM423 683h-69l-163 161v3h99z" />
    <glyph glyph-name="amacron.1" horiz-adv-x="743" 
d="M58 0l231 575h165l231 -575h-77l-60 149h-354l-59 -149h-77zM340 511l-122 -300h306l-121 300h-63zM194 700v58h360v-58h-360z" />
    <glyph glyph-name="amacron.1166" horiz-adv-x="743" 
d="M58 0l231 575h165l231 -575h-77l-60 149h-354l-59 -149h-77zM340 511l-122 -300h306l-121 300h-63zM194 700v58h360v-58h-360z" />
    <glyph glyph-name="ampersand.1" horiz-adv-x="774" 
d="M124 21q-46 37 -46 101q0 57 44 109q42 48 139 110l34 21l-142 146v67h450l4 -60h-368l300 -312l170 142v-78l-129 -108l156 -159h-89l-116 118q-91 -73 -156 -102q-64 -30 -134 -30q-73 0 -117 35zM178 69q26 -21 69 -21q44 0 101 23q53 23 140 92l-152 156l-31 -19
q-85 -55 -119 -92q-35 -38 -35 -79q0 -39 27 -60z" />
    <glyph glyph-name="aogonek.1" horiz-adv-x="743" 
d="M58 0l231 575h165l231 -575l-57 -57q-77 -79 -77 -118q0 -58 81 -58q52 0 91 27v-60q-48 -23 -103 -23q-68 0 -104 30q-33 27 -33 73q0 63 99 158l27 26l-61 151h-354l-59 -149h-77zM340 511l-122 -300h306l-121 300h-63z" />
    <glyph glyph-name="aogonek.1153" horiz-adv-x="743" 
d="M58 0l231 575h165l231 -575l-57 -57q-77 -79 -77 -118q0 -58 81 -58q52 0 91 27v-60q-48 -23 -103 -23q-68 0 -104 30q-33 27 -33 73q0 63 99 158l27 26l-61 151h-354l-59 -149h-77zM340 511l-122 -300h306l-121 300h-63z" />
    <glyph glyph-name="aring.1" horiz-adv-x="743" 
d="M58 0l231 575h165l231 -575h-77l-60 149h-354l-59 -149h-77zM340 511l-122 -300h306l-121 300h-63zM263 711q-42 35 -42 95t42 96q41 37 111 37q69 0 111 -36t42 -96q0 -58 -42 -96q-42 -36 -112 -36q-69 0 -110 36zM444 745q28 22 28 61t-28 63q-29 23 -71 23
q-43 0 -71 -23q-28 -22 -28 -62q0 -39 29 -62q28 -23 71 -23q42 0 70 23z" />
    <glyph glyph-name="aring.1157" horiz-adv-x="743" 
d="M58 0l231 575h165l231 -575h-77l-60 149h-354l-59 -149h-77zM340 511l-122 -300h306l-121 300h-63zM263 711q-42 35 -42 95t42 96q41 37 111 37q69 0 111 -36t42 -96q0 -58 -42 -96q-42 -36 -112 -36q-69 0 -110 36zM444 745q28 22 28 61t-28 63q-29 23 -71 23
q-43 0 -71 -23q-28 -22 -28 -62q0 -39 29 -62q28 -23 71 -23q42 0 70 23z" />
    <glyph glyph-name="aringacute.1" horiz-adv-x="743" 
d="M58 0l231 575h165l231 -575h-77l-60 149h-354l-59 -149h-77zM340 511l-122 -300h306l-121 300h-63zM263 711q-42 35 -42 95t42 96q41 37 111 37q69 0 111 -36t42 -96q0 -58 -42 -96q-42 -36 -112 -36q-69 0 -110 36zM444 745q28 22 28 61t-28 63q-29 23 -71 23
q-43 0 -71 -23q-28 -22 -28 -62q0 -39 29 -62q28 -23 71 -23q42 0 70 23zM326 1020l133 164h99v-3l-163 -161h-69z" />
    <glyph glyph-name="aringacute.1158" horiz-adv-x="743" 
d="M58 0l231 575h165l231 -575h-77l-60 149h-354l-59 -149h-77zM340 511l-122 -300h306l-121 300h-63zM263 711q-42 35 -42 95t42 96q41 37 111 37q69 0 111 -36t42 -96q0 -58 -42 -96q-42 -36 -112 -36q-69 0 -110 36zM444 745q28 22 28 61t-28 63q-29 23 -71 23
q-43 0 -71 -23q-28 -22 -28 -62q0 -39 29 -62q28 -23 71 -23q42 0 70 23zM326 1020l133 164h99v-3l-163 -161h-69z" />
    <glyph glyph-name="asciicircum.aalt" horiz-adv-x="724" 
d="M106 379l191 321h127l193 -321h-80l-152 253h-50l-150 -253h-79z" />
    <glyph glyph-name="asciitilde.aalt" horiz-adv-x="724" 
d="M81 350q61 88 150 88q57 0 146 -56q46 -28 68 -37q20 -10 49 -10q72 0 147 109h1v-93q-61 -88 -150 -88q-61 0 -146 55q-25 15 -42 24.5t-26 14.5q-22 9 -49 9q-72 0 -147 -109h-1v93z" />
    <glyph glyph-name="at.1" horiz-adv-x="1099" 
d="M689 233q-83 -83 -176 -83q-59 0 -94 29t-35 76q0 45 30 75q57 57 265 68v20q0 97 -102 97q-87 0 -165 -60h-1v58q77 56 173 56q156 0 156 -152v-123q0 -94 84 -94q124 0 124 203q0 143 -88 231q-98 95 -272 95q-191 0 -304 -104q-115 -106 -115 -293q0 -177 107 -272
q104 -90 287 -90q166 0 302 70v-60q-127 -66 -303 -66q-217 0 -336 110q-121 110 -119 308q0 210 134 333q131 120 346 120q198 0 312 -108q109 -103 109 -273q0 -118 -47 -186q-49 -69 -140 -69q-109 0 -132 84zM679 271v86q-174 -10 -216 -52q-10 -10 -15 -24
q-3 -10 -3 -22q0 -61 80 -61q81 0 154 73z" />
    <glyph glyph-name="atilde.1" horiz-adv-x="743" 
d="M58 0l231 575h165l231 -575h-77l-60 149h-354l-59 -149h-77zM340 511l-122 -300h306l-121 300h-63zM555 735q-42 -61 -98 -61q-34 0 -93 36q-48 30 -74 30q-44 0 -95 -76h-1v75q39 61 98 61q35 0 93 -35q47 -31 73 -31q45 0 96 76h1v-75z" />
    <glyph glyph-name="atilde.1164" horiz-adv-x="743" 
d="M58 0l231 575h165l231 -575h-77l-60 149h-354l-59 -149h-77zM340 511l-122 -300h306l-121 300h-63zM555 735q-42 -61 -98 -61q-34 0 -93 36q-48 30 -74 30q-44 0 -95 -76h-1v75q39 61 98 61q35 0 93 -35q47 -31 73 -31q45 0 96 76h1v-75z" />
    <glyph glyph-name="b.1" horiz-adv-x="739" 
d="M126 0v575h318q202 0 202 -144q0 -108 -125 -134q137 -35 137 -139q0 -158 -230 -158h-302zM198 323h225q151 0 151 97q0 93 -139 93h-237v-190zM198 62l231 1q157 0 157 103q0 100 -160 100h-228v-204z" />
    <glyph glyph-name="b.1119" horiz-adv-x="739" 
d="M126 0v575h318q202 0 202 -144q0 -108 -125 -134q137 -35 137 -139q0 -158 -230 -158h-302zM198 323h225q151 0 151 97q0 93 -139 93h-237v-190zM198 62l231 1q157 0 157 103q0 100 -160 100h-228v-204z" />
    <glyph glyph-name="backslash.1" horiz-adv-x="521" 
d="M452 -116h-69l-314 932h70z" />
    <glyph glyph-name="bar.1" horiz-adv-x="511" 
d="M221 -116v932h69v-932h-69z" />
    <glyph glyph-name="bar.2" horiz-adv-x="543" 
d="M236 -116v932h69v-932h-69z" />
    <glyph glyph-name="braceleft.1" horiz-adv-x="535" 
d="M45 343v14l146 125q-4 25 -7.5 47.5t-5.5 44.5q-2 17 -3 28.5t-1 17.5q-7 110 48 159q54 48 142 48q50 0 98 -13v-63h-1q-45 13 -88 13q-137 0 -128 -147q0 -11 4.5 -50.5t14.5 -108.5l-131 -108l131 -108q-10 -69 -14.5 -108.5t-4.5 -50.5q-9 -145 128 -145q48 0 88 13
h1v-65q-48 -13 -98 -13q-88 0 -142 48q-55 49 -48 159q0 6 1 18t3 29q2 21 5.5 43.5t7.5 47.5z" />
    <glyph glyph-name="braceright.1" horiz-adv-x="535" 
d="M490 357v-14l-146 -125q4 -25 7.5 -47.5t5.5 -43.5q2 -17 3 -29t1 -18q7 -109 -47 -159q-55 -48 -143 -48q-50 0 -98 13v63h1q45 -13 88 -13q137 0 128 147q0 11 -4.5 50.5t-14.5 108.5l131 108l-131 108q10 69 14.5 108.5t4.5 50.5q9 145 -128 145q-48 0 -88 -13h-1v65
q48 13 98 13q88 0 143 -48q54 -50 47 -159q0 -6 -1 -17.5t-3 -28.5q-2 -22 -5.5 -44.5t-7.5 -47.5z" />
    <glyph glyph-name="bracketleft.1" horiz-adv-x="460" 
d="M113 -116v932h274v-59h-204v-814h204v-59h-274z" />
    <glyph glyph-name="bracketright.1" horiz-adv-x="460" 
d="M347 816v-932h-274v59h204v814h-204v59h274z" />
    <glyph glyph-name="bullet.1" horiz-adv-x="391" 
d="M122 285q-26 26 -26 65v1q0 38 26 64q28 28 73 28q46 0 74 -28q26 -26 26 -64v-1q0 -37 -26 -65q-28 -28 -74 -28q-45 0 -73 28z" />
    <glyph glyph-name="c.1" horiz-adv-x="715" 
d="M158 74q-80 82 -80 213q0 129 87 213q89 86 236 86q136 0 233 -76v-74h-1q-106 85 -232 85q-113 0 -181 -67q-67 -64 -67 -167q0 -104 62 -168q65 -66 184 -66q123 0 234 84h1v-75q-98 -74 -239 -74q-151 0 -237 86z" />
    <glyph glyph-name="c.1120" horiz-adv-x="715" 
d="M158 74q-80 82 -80 213q0 129 87 213q89 86 236 86q136 0 233 -76v-74h-1q-106 85 -232 85q-113 0 -181 -67q-67 -64 -67 -167q0 -104 62 -168q65 -66 184 -66q123 0 234 84h1v-75q-98 -74 -239 -74q-151 0 -237 86z" />
    <glyph glyph-name="cacute.1" horiz-adv-x="715" 
d="M158 74q-80 82 -80 213q0 129 87 213q89 86 236 86q136 0 233 -76v-74h-1q-106 85 -232 85q-113 0 -181 -67q-67 -64 -67 -167q0 -104 62 -168q65 -66 184 -66q123 0 234 84h1v-75q-98 -74 -239 -74q-151 0 -237 86zM346 694l133 164h99v-3l-163 -161h-69z" />
    <glyph glyph-name="cacute.1167" horiz-adv-x="715" 
d="M158 74q-80 82 -80 213q0 129 87 213q89 86 236 86q136 0 233 -76v-74h-1q-106 85 -232 85q-113 0 -181 -67q-67 -64 -67 -167q0 -104 62 -168q65 -66 184 -66q123 0 234 84h1v-75q-98 -74 -239 -74q-151 0 -237 86zM346 694l133 164h99v-3l-163 -161h-69z" />
    <glyph glyph-name="ccaron.1" horiz-adv-x="715" 
d="M158 74q-80 82 -80 213q0 129 87 213q89 86 236 86q136 0 233 -76v-74h-1q-106 85 -232 85q-113 0 -181 -67q-67 -64 -67 -167q0 -104 62 -168q65 -66 184 -66q123 0 234 84h1v-75q-98 -74 -239 -74q-151 0 -237 86zM590 865l-140 -171h-112l-140 171h78l98 -119h40
l98 119h78z" />
    <glyph glyph-name="ccaron.1168" horiz-adv-x="715" 
d="M158 74q-80 82 -80 213q0 129 87 213q89 86 236 86q136 0 233 -76v-74h-1q-106 85 -232 85q-113 0 -181 -67q-67 -64 -67 -167q0 -104 62 -168q65 -66 184 -66q123 0 234 84h1v-75q-98 -74 -239 -74q-151 0 -237 86zM590 865l-140 -171h-112l-140 171h78l98 -119h40
l98 119h78z" />
    <glyph glyph-name="ccedilla.1" horiz-adv-x="715" 
d="M634 62q-75 -57 -191 -71l-121 -181h-96v3l150 175q-143 6 -222 91q-76 79 -76 208t87 213q89 86 236 86q136 0 233 -76v-74h-1q-106 85 -232 85q-113 0 -181 -67q-67 -64 -67 -167q0 -104 62 -168q65 -66 184 -66q123 0 234 84h1v-75z" />
    <glyph glyph-name="ccedilla.1151" horiz-adv-x="715" 
d="M634 62q-75 -57 -191 -71l-121 -181h-96v3l150 175q-143 6 -222 91q-76 79 -76 208t87 213q89 86 236 86q136 0 233 -76v-74h-1q-106 85 -232 85q-113 0 -181 -67q-67 -64 -67 -167q0 -104 62 -168q65 -66 184 -66q123 0 234 84h1v-75z" />
    <glyph glyph-name="cdotaccent.1" horiz-adv-x="715" 
d="M158 74q-80 82 -80 213q0 129 87 213q89 86 236 86q136 0 233 -76v-74h-1q-106 85 -232 85q-113 0 -181 -67q-67 -64 -67 -167q0 -104 62 -168q65 -66 184 -66q123 0 234 84h1v-75q-98 -74 -239 -74q-151 0 -237 86zM355 709q-15 14 -15 35q0 20 15 33q15 15 38 15
q24 0 39 -15q15 -13 15 -33q0 -21 -14 -35q-16 -14 -39 -14t-39 14z" />
    <glyph glyph-name="cdotaccent.1169" horiz-adv-x="715" 
d="M158 74q-80 82 -80 213q0 129 87 213q89 86 236 86q136 0 233 -76v-74h-1q-106 85 -232 85q-113 0 -181 -67q-67 -64 -67 -167q0 -104 62 -168q65 -66 184 -66q123 0 234 84h1v-75q-98 -74 -239 -74q-151 0 -237 86zM355 709q-15 14 -15 35q0 20 15 33q15 15 38 15
q24 0 39 -15q15 -13 15 -33q0 -21 -14 -35q-16 -14 -39 -14t-39 14z" />
    <glyph glyph-name="cent.aalt" horiz-adv-x="724" 
d="M357 -34v140q-102 10 -164 75t-62 165q0 101 64 168q65 68 167 80v117h68v-116q94 -6 155 -48v-68h-1q-82 55 -175 55q-91 0 -148 -51q-58 -51 -58 -135q0 -83 55 -132q56 -50 150 -50q96 0 175 55h1v-68q-67 -43 -159 -48v-131z" />
    <glyph glyph-name="colon.1" horiz-adv-x="347" 
d="M128 489q-16 16 -16 39v1q0 23 16 39q17 18 46 18t45 -18q16 -16 16 -39v-1q0 -23 -16 -39q-16 -18 -45 -18t-46 18zM128 132q-16 16 -16 39v1q0 23 16 39q17 17 46 17q28 0 45 -17q16 -16 16 -39v-1q0 -23 -16 -39q-16 -18 -45 -18t-46 18z" />
    <glyph glyph-name="colon.2" horiz-adv-x="362" 
d="M135 363q-16 16 -16 39v1q0 23 16 39q17 18 46 18t45 -18q16 -16 16 -39v-1q0 -23 -16 -39q-16 -18 -45 -18t-46 18zM135 6q-16 16 -16 39v1q0 23 16 39q17 17 46 17q28 0 45 -17q16 -16 16 -39v-1q0 -23 -16 -39q-16 -18 -45 -18t-46 18z" />
    <glyph glyph-name="comma.aalt" horiz-adv-x="362" 
d="M98 -163l60 284h101v-6l-116 -278h-45z" />
    <glyph glyph-name="d.1" horiz-adv-x="773" 
d="M126 0v575h261q147 0 228 -78q79 -76 79 -209q0 -134 -79 -210q-81 -78 -228 -78h-261zM200 64h179q240 0 240 222q0 107 -58 165q-61 60 -181 60h-180v-447z" />
    <glyph glyph-name="d.1121" horiz-adv-x="773" 
d="M126 0v575h261q147 0 228 -78q79 -76 79 -209q0 -134 -79 -210q-81 -78 -228 -78h-261zM200 64h179q240 0 240 222q0 107 -58 165q-61 60 -181 60h-180v-447z" />
    <glyph glyph-name="dcaron.1" horiz-adv-x="773" 
d="M126 0v575h261q147 0 228 -78q79 -76 79 -209q0 -134 -79 -210q-81 -78 -228 -78h-261zM200 64h179q240 0 240 222q0 107 -58 165q-61 60 -181 60h-180v-447zM573 854l-140 -171h-112l-140 171h78l98 -119h40l98 119h78z" />
    <glyph glyph-name="dcaron.1170" horiz-adv-x="773" 
d="M126 0v575h261q147 0 228 -78q79 -76 79 -209q0 -134 -79 -210q-81 -78 -228 -78h-261zM200 64h179q240 0 240 222q0 107 -58 165q-61 60 -181 60h-180v-447zM573 854l-140 -171h-112l-140 171h78l98 -119h40l98 119h78z" />
    <glyph glyph-name="dcroat.1" horiz-adv-x="798" 
d="M151 0v264h-105l6 55h99v256h261q147 0 228 -78q78 -76 78 -209t-78 -210q-81 -78 -228 -78h-261zM225 64h179q240 0 240 222q0 107 -58 165q-61 60 -181 60h-180v-192h187v-55h-187v-200z" />
    <glyph glyph-name="dcroat.1147" horiz-adv-x="798" 
d="M151 0v264h-105l6 55h99v256h261q147 0 228 -78q78 -76 78 -209t-78 -210q-81 -78 -228 -78h-261zM225 64h179q240 0 240 222q0 107 -58 165q-61 60 -181 60h-180v-192h187v-55h-187v-200z" />
    <glyph glyph-name="degree.aalt" horiz-adv-x="634" 
d="M167 370q-59 53 -59 143q0 89 59 145q58 55 150 55t151 -53q58 -54 58 -144t-58 -145t-151 -55q-91 0 -150 54zM420 411q41 39 41 104t-40 104q-40 37 -104 37q-61 0 -102 -38q-42 -40 -42 -105t41 -103t104 -38q62 0 102 39z" />
    <glyph glyph-name="divide.aalt" horiz-adv-x="724" 
d="M402 608q15 -13 15 -36q0 -21 -15 -35q-16 -15 -40 -15t-41 15q-15 14 -15 35t15 36q17 15 40 15q26 0 41 -15zM82 317v66h560v-66h-560zM322 92q-15 15 -15 36q0 22 15 35q17 15 40 15q25 0 41 -15q15 -13 15 -35t-15 -36q-15 -15 -41 -15q-23 0 -40 15z" />
    <glyph glyph-name="dollar.aalt" horiz-adv-x="724" 
d="M338 -114v129q-125 12 -236 77v74h1q135 -87 284 -87q85 0 133 33q46 31 46 87q0 49 -43 77q-43 27 -160 50q-59 11 -103.5 26t-76.5 32q-65 35 -65 117q0 73 60 125q59 52 165 59v120h68v-121q115 -9 206 -64v-75h-1q-115 76 -247 76q-78 0 -126 -30q-49 -31 -49 -85
q0 -53 53 -76q57 -25 155 -44q116 -24 178 -62q62 -39 62 -120q0 -76 -54 -127q-62 -58 -182 -64v-119z" />
    <glyph glyph-name="dotlessi.1" horiz-adv-x="334" 
d="M130 0v575h73v-575h-73z" />
    <glyph glyph-name="e.1" horiz-adv-x="695" 
d="M126 0v575h480l3 -63h-409v-188h334v-61h-334v-200h425l-4 -63h-495z" />
    <glyph glyph-name="e.1122" horiz-adv-x="695" 
d="M126 0v575h480l3 -63h-409v-188h334v-61h-334v-200h425l-4 -63h-495z" />
    <glyph glyph-name="eacute.1" horiz-adv-x="695" 
d="M126 0v575h480l3 -63h-409v-188h334v-61h-334v-200h425l-4 -63h-495zM324 683l133 164h99v-3l-163 -161h-69z" />
    <glyph glyph-name="eacute.1171" horiz-adv-x="695" 
d="M126 0v575h480l3 -63h-409v-188h334v-61h-334v-200h425l-4 -63h-495zM324 683l133 164h99v-3l-163 -161h-69z" />
    <glyph glyph-name="ebreve.1" horiz-adv-x="695" 
d="M126 0v575h480l3 -63h-409v-188h334v-61h-334v-200h425l-4 -63h-495zM249 711q-49 37 -49 104q0 8 1.5 19t3.5 25h60l-1 -10l-1 -8q-1 -5 -1 -9.5v-6.5q0 -94 110 -94t110 94q0 8 -1 17t-3 17h61q2 -11 3 -22t1 -22q0 -66 -48 -104q-46 -36 -123 -36q-76 0 -123 36z" />
    <glyph glyph-name="ebreve.1175" horiz-adv-x="695" 
d="M126 0v575h480l3 -63h-409v-188h334v-61h-334v-200h425l-4 -63h-495zM249 711q-49 37 -49 104q0 8 1.5 19t3.5 25h60l-1 -10l-1 -8q-1 -5 -1 -9.5v-6.5q0 -94 110 -94t110 94q0 8 -1 17t-3 17h61q2 -11 3 -22t1 -22q0 -66 -48 -104q-46 -36 -123 -36q-76 0 -123 36z" />
    <glyph glyph-name="ecaron.1" horiz-adv-x="695" 
d="M126 0v575h480l3 -63h-409v-188h334v-61h-334v-200h425l-4 -63h-495zM568 854l-140 -171h-112l-140 171h78l98 -119h40l98 119h78z" />
    <glyph glyph-name="ecaron.1174" horiz-adv-x="695" 
d="M126 0v575h480l3 -63h-409v-188h334v-61h-334v-200h425l-4 -63h-495zM568 854l-140 -171h-112l-140 171h78l98 -119h40l98 119h78z" />
    <glyph glyph-name="ecircumflex.1" horiz-adv-x="695" 
d="M126 0v575h480l3 -63h-409v-188h334v-61h-334v-200h425l-4 -63h-495zM176 683l140 171h112l140 -171h-78l-98 119h-40l-98 -119h-78z" />
    <glyph glyph-name="ecircumflex.1173" horiz-adv-x="695" 
d="M126 0v575h480l3 -63h-409v-188h334v-61h-334v-200h425l-4 -63h-495zM176 683l140 171h112l140 -171h-78l-98 119h-40l-98 -119h-78z" />
    <glyph glyph-name="edieresis.1" horiz-adv-x="695" 
d="M126 0v575h480l3 -63h-409v-188h334v-61h-334v-200h425l-4 -63h-495zM208 698q-14 14 -14 33q0 18 14 32t37 14q22 0 38 -14q13 -13 13 -32q0 -20 -13 -33q-16 -14 -38 -14q-23 0 -37 14zM462 698q-14 14 -14 33q0 18 14 32t37 14q22 0 38 -14q13 -13 13 -32
q0 -20 -13 -33q-16 -14 -38 -14q-23 0 -37 14z" />
    <glyph glyph-name="edieresis.1177" horiz-adv-x="695" 
d="M126 0v575h480l3 -63h-409v-188h334v-61h-334v-200h425l-4 -63h-495zM208 698q-14 14 -14 33q0 18 14 32t37 14q22 0 38 -14q13 -13 13 -32q0 -20 -13 -33q-16 -14 -38 -14q-23 0 -37 14zM462 698q-14 14 -14 33q0 18 14 32t37 14q22 0 38 -14q13 -13 13 -32
q0 -20 -13 -33q-16 -14 -38 -14q-23 0 -37 14z" />
    <glyph glyph-name="edotaccent.1" horiz-adv-x="695" 
d="M126 0v575h480l3 -63h-409v-188h334v-61h-334v-200h425l-4 -63h-495zM334 698q-15 14 -15 35q0 20 15 33q15 15 38 15q24 0 39 -15q15 -13 15 -33q0 -21 -14 -35q-16 -14 -39 -14t-39 14z" />
    <glyph glyph-name="edotaccent.1178" horiz-adv-x="695" 
d="M126 0v575h480l3 -63h-409v-188h334v-61h-334v-200h425l-4 -63h-495zM334 698q-15 14 -15 35q0 20 15 33q15 15 38 15q24 0 39 -15q15 -13 15 -33q0 -21 -14 -35q-16 -14 -39 -14t-39 14z" />
    <glyph glyph-name="egrave.1" horiz-adv-x="695" 
d="M126 0v575h480l3 -63h-409v-188h334v-61h-334v-200h425l-4 -63h-495zM421 683h-69l-163 161v3h99z" />
    <glyph glyph-name="egrave.1172" horiz-adv-x="695" 
d="M126 0v575h480l3 -63h-409v-188h334v-61h-334v-200h425l-4 -63h-495zM421 683h-69l-163 161v3h99z" />
    <glyph glyph-name="eight.1" horiz-adv-x="703" 
d="M150 33q-73 52 -73 141q0 63 39 109q41 48 117 69q-139 43 -139 168q0 85 67 140q71 59 191 59q119 0 190 -59q67 -55 67 -140q0 -125 -139 -168q77 -21 117 -69q39 -46 39 -109q0 -88 -71 -141q-73 -55 -203 -55q-129 0 -202 55zM487 417q49 37 49 99q0 61 -50 102
q-52 41 -134 41q-86 0 -136 -40q-49 -40 -49 -103q0 -62 49 -99q51 -39 136 -39q86 0 135 39zM498 78q54 39 54 103q0 63 -54 103q-55 40 -146 40q-92 0 -147 -40q-54 -39 -54 -103t54 -103q56 -39 147 -39q92 0 146 39z" />
    <glyph glyph-name="eight.2" horiz-adv-x="724" 
d="M146 33q-75 53 -75 142q0 133 170 177q-154 37 -154 167q0 87 73 144q74 56 202 56q130 0 203 -57q72 -57 72 -143q0 -130 -154 -167q170 -44 170 -177q0 -89 -74 -142q-76 -55 -217 -55q-139 0 -216 55zM506 414q55 36 55 101q0 64 -53 103q-54 39 -146 39
q-91 0 -146 -38q-53 -39 -53 -104t55 -101q53 -36 144 -36q92 0 144 36zM519 78q58 37 58 103q0 68 -61 105q-58 37 -154 37q-92 0 -154 -36q-61 -37 -61 -106q0 -66 58 -103q58 -38 157 -38t157 38z" />
    <glyph glyph-name="eight.dnom" horiz-adv-x="434" 
d="M68 19q-44 30 -44 81q0 75 98 101q-88 19 -88 94q0 51 44 83q43 31 119 31t119 -31q44 -32 44 -83q0 -75 -88 -94q98 -26 98 -101q0 -51 -44 -81q-46 -31 -129 -31t-129 31zM303 289q0 34 -28 53q-29 20 -78 20t-78 -20q-28 -19 -28 -53q0 -68 106 -68t106 68zM281 55
q30 20 30 52q0 34 -31 53q-32 20 -83 20q-50 0 -82 -20t-32 -53q0 -32 30 -52q31 -20 84 -20t84 20z" />
    <glyph glyph-name="eight.numr" horiz-adv-x="434" 
d="M108 319q-44 30 -44 81q0 75 98 101q-88 19 -88 94q0 51 44 83q43 31 119 31t119 -31q44 -32 44 -83q0 -75 -88 -94q98 -26 98 -101q0 -51 -44 -81q-46 -31 -129 -31t-129 31zM343 589q0 34 -28 53q-29 20 -78 20t-78 -20q-28 -19 -28 -53q0 -68 106 -68t106 68zM321 355
q30 20 30 52q0 34 -31 53q-32 20 -83 20q-50 0 -82 -20t-32 -53q0 -32 30 -52q31 -20 84 -20t84 20z" />
    <glyph glyph-name="emacron.1" horiz-adv-x="695" 
d="M126 0v575h480l3 -63h-409v-188h334v-61h-334v-200h425l-4 -63h-495zM192 700v58h360v-58h-360z" />
    <glyph glyph-name="emacron.1176" horiz-adv-x="695" 
d="M126 0v575h480l3 -63h-409v-188h334v-61h-334v-200h425l-4 -63h-495zM192 700v58h360v-58h-360z" />
    <glyph glyph-name="emdash.1" horiz-adv-x="860" 
d="M80 316v68h700v-68h-700z" />
    <glyph glyph-name="endash.1" horiz-adv-x="698" 
d="M80 316v68h538v-68h-538z" />
    <glyph glyph-name="endash.2" horiz-adv-x="724" 
d="M77 316v68h570v-68h-570z" />
    <glyph glyph-name="eogonek.1" horiz-adv-x="695" 
d="M126 0v575h480l3 -63h-409v-188h334v-61h-334v-200h425l-4 -63h-1l-57 -57q-77 -79 -77 -118q0 -58 81 -58q52 0 91 27v-60q-48 -23 -103 -23q-68 0 -104 30q-33 27 -33 73q0 63 99 158l29 28h-420z" />
    <glyph glyph-name="eogonek.1154" horiz-adv-x="695" 
d="M126 0v575h480l3 -63h-409v-188h334v-61h-334v-200h425l-4 -63h-1l-57 -57q-77 -79 -77 -118q0 -58 81 -58q52 0 91 27v-60q-48 -23 -103 -23q-68 0 -104 30q-33 27 -33 73q0 63 99 158l29 28h-420z" />
    <glyph glyph-name="equal.aalt" horiz-adv-x="724" 
d="M100 454v65h529v-65h-529zM100 181v65h529v-65h-529z" />
    <glyph glyph-name="eth.1" horiz-adv-x="798" 
d="M151 0v264h-105l6 55h99v256h261q147 0 228 -78q78 -76 78 -209t-78 -210q-81 -78 -228 -78h-261zM225 64h179q240 0 240 222q0 107 -58 165q-61 60 -181 60h-180v-192h187v-55h-187v-200z" />
    <glyph glyph-name="eth.1146" horiz-adv-x="798" 
d="M151 0v264h-105l6 55h99v256h261q147 0 228 -78q78 -76 78 -209t-78 -210q-81 -78 -228 -78h-261zM225 64h179q240 0 240 222q0 107 -58 165q-61 60 -181 60h-180v-192h187v-55h-187v-200z" />
    <glyph glyph-name="exclamdown.1" horiz-adv-x="374" 
d="M232 694q16 -16 16 -39v-1q0 -23 -16 -39q-17 -17 -45 -17q-27 0 -46 17q-16 16 -16 39v1q0 23 16 39q18 18 46 18q29 0 45 -18zM216 477l19 -476v-1h-96v1l19 476h58z" />
    <glyph glyph-name="f.1" horiz-adv-x="657" 
d="M126 0v575h470l5 -64h-401v-193h334v-64h-334v-254h-74z" />
    <glyph glyph-name="f.1123" horiz-adv-x="657" 
d="M126 0v575h470l5 -64h-401v-193h334v-64h-334v-254h-74z" />
    <glyph glyph-name="five.1" horiz-adv-x="651" 
d="M86 -101v69h1q121 -47 225 -47q96 0 145 45q50 47 50 109q0 58 -33 91q-55 54 -238 54h-120l5 355h431l3 -64h-368l-4 -229l99 -1q299 -2 299 -204q0 -96 -72 -156q-75 -63 -197 -63q-108 0 -226 41z" />
    <glyph glyph-name="five.2" horiz-adv-x="724" 
d="M87 47v73h1q141 -70 267 -70q105 0 161 47q47 41 47 104q0 55 -32 87q-27 28 -83 42q-26 7 -68.5 10t-100.5 3h-165l9 357h480l4 -66h-416l-6 -225h114q220 0 296 -76q46 -46 46 -129q0 -96 -73 -156q-76 -64 -212 -64q-134 0 -269 63z" />
    <glyph glyph-name="five.dnom" horiz-adv-x="434" 
d="M40 22v56h1q75 -37 153 -37q54 0 82 24q25 19 25 51q0 31 -16 44q-28 27 -139 27h-92l6 213h279l3 -51h-227l-3 -114h54q128 0 168 -43q28 -28 28 -75q0 -57 -44 -92q-46 -35 -123 -35q-79 0 -155 32z" />
    <glyph glyph-name="five.numr" horiz-adv-x="434" 
d="M80 322v56h1q75 -37 153 -37q54 0 82 24q25 19 25 51q0 31 -16 44q-28 27 -139 27h-92l6 213h279l3 -51h-227l-3 -114h54q128 0 168 -43q28 -28 28 -75q0 -57 -44 -92q-46 -35 -123 -35q-79 0 -155 32z" />
    <glyph glyph-name="fiveeighths.aalt" horiz-adv-x="1086" 
d="M80 322v56h1q75 -37 153 -37q54 0 82 24q25 19 25 51q0 31 -16 44q-28 27 -139 27h-92l6 213h279l3 -51h-227l-3 -114h54q128 0 168 -43q28 -28 28 -75q0 -57 -44 -92q-46 -35 -123 -35q-79 0 -155 32zM268 1l491 699h65v-1l-491 -699h-65v1zM720 19q-44 30 -44 81
q0 75 98 101q-88 19 -88 94q0 51 44 83q43 31 119 31t119 -31q44 -32 44 -83q0 -75 -88 -94q98 -26 98 -101q0 -51 -44 -81q-46 -31 -129 -31t-129 31zM955 289q0 34 -28 53q-29 20 -78 20t-78 -20q-28 -19 -28 -53q0 -68 106 -68t106 68zM933 55q30 20 30 52q0 34 -31 53
q-32 20 -83 20q-50 0 -82 -20t-32 -53q0 -32 30 -52q31 -20 84 -20t84 20z" />
    <glyph glyph-name="uni215A.aalt" horiz-adv-x="1086" 
d="M80 322v56h1q75 -37 153 -37q54 0 82 24q25 19 25 51q0 31 -16 44q-28 27 -139 27h-92l6 213h279l3 -51h-227l-3 -114h54q128 0 168 -43q28 -28 28 -75q0 -57 -44 -92q-46 -35 -123 -35q-79 0 -155 32zM277 1l491 699h65v-1l-491 -699h-65v1zM730 39q-47 52 -47 146
q0 108 56 167q54 57 146 57q65 0 116 -24v-53h-1q-55 28 -114 28q-139 0 -145 -152q56 43 135 43q66 0 103 -30q40 -31 40 -90q0 -66 -48 -105q-45 -36 -113 -36q-82 0 -128 49zM741 162q3 -60 35 -92t83 -32q45 0 73 24q30 24 30 66q0 77 -97 77q-71 0 -124 -43z" />
    <glyph glyph-name="four.1" horiz-adv-x="708" 
d="M472 -134v187h-410v55l262 467h217v-461h137l-3 -61h-134v-187h-69zM142 114h330v396h-110z" />
    <glyph glyph-name="four.2" horiz-adv-x="724" 
d="M491 1v171h-441v56l265 472h247v-464h133l-3 -64h-130v-171h-71zM134 236h357v398h-135z" />
    <glyph glyph-name="four.dnom" horiz-adv-x="434" 
d="M265 1v91h-254v45l140 263h171v-258h75l-3 -50h-72v-91h-57zM74 141h192v209h-78z" />
    <glyph glyph-name="four.numr" horiz-adv-x="434" 
d="M305 301v91h-254v45l140 263h171v-258h75l-3 -50h-72v-91h-57zM114 441h192v209h-78z" />
    <glyph glyph-name="uni2158.aalt" horiz-adv-x="1086" 
d="M305 301v91h-254v45l140 263h171v-258h75l-3 -50h-72v-91h-57zM114 441h192v209h-78zM271 1l491 699h65v-1l-491 -699h-65v1zM692 22v56h1q75 -37 153 -37q54 0 82 24q25 19 25 51q0 31 -16 44q-28 27 -139 27h-92l6 213h279l3 -51h-227l-3 -114h54q128 0 168 -43
q28 -28 28 -75q0 -57 -44 -92q-46 -35 -123 -35q-79 0 -155 32z" />
    <glyph glyph-name="fraction.aalt" horiz-adv-x="218" 
d="M-169 1l491 699h65v-1l-491 -699h-65v1z" />
    <glyph glyph-name="g.1" horiz-adv-x="770" 
d="M161 68q-83 81 -83 212q0 133 88 218q91 88 239 88q142 0 237 -76v-75h-1q-112 86 -238 86q-113 0 -181 -67q-69 -67 -69 -172q0 -104 65 -169t182 -65q105 0 167 56q59 54 59 145h-254v61h325q1 -3 1 -16v-19q0 -140 -86 -217q-82 -74 -216 -74q-148 0 -235 84z" />
    <glyph glyph-name="g.1124" horiz-adv-x="770" 
d="M161 68q-83 81 -83 212q0 133 88 218q91 88 239 88q142 0 237 -76v-75h-1q-112 86 -238 86q-113 0 -181 -67q-69 -67 -69 -172q0 -104 65 -169t182 -65q105 0 167 56q59 54 59 145h-254v61h325q1 -3 1 -16v-19q0 -140 -86 -217q-82 -74 -216 -74q-148 0 -235 84z" />
    <glyph glyph-name="gbreve.1" horiz-adv-x="770" 
d="M161 68q-83 81 -83 212q0 133 88 218q91 88 239 88q142 0 237 -76v-75h-1q-112 86 -238 86q-113 0 -181 -67q-69 -67 -69 -172q0 -104 65 -169t182 -65q105 0 167 56q59 54 59 145h-254v61h325q1 -3 1 -16v-19q0 -140 -86 -217q-82 -74 -216 -74q-148 0 -235 84zM267 722
q-49 37 -49 104q0 8 1.5 19t3.5 25h60l-1 -10l-1 -8q-1 -5 -1 -9.5v-6.5q0 -94 110 -94t110 94q0 8 -1 17t-3 17h61q2 -11 3 -22t1 -22q0 -66 -48 -104q-46 -36 -123 -36q-76 0 -123 36z" />
    <glyph glyph-name="gbreve.1179" horiz-adv-x="770" 
d="M161 68q-83 81 -83 212q0 133 88 218q91 88 239 88q142 0 237 -76v-75h-1q-112 86 -238 86q-113 0 -181 -67q-69 -67 -69 -172q0 -104 65 -169t182 -65q105 0 167 56q59 54 59 145h-254v61h325q1 -3 1 -16v-19q0 -140 -86 -217q-82 -74 -216 -74q-148 0 -235 84zM267 722
q-49 37 -49 104q0 8 1.5 19t3.5 25h60l-1 -10l-1 -8q-1 -5 -1 -9.5v-6.5q0 -94 110 -94t110 94q0 8 -1 17t-3 17h61q2 -11 3 -22t1 -22q0 -66 -48 -104q-46 -36 -123 -36q-76 0 -123 36z" />
    <glyph glyph-name="gcommaaccent.1" horiz-adv-x="770" 
d="M161 68q-83 81 -83 212q0 133 88 218q91 88 239 88q142 0 237 -76v-75h-1q-112 86 -238 86q-113 0 -181 -67q-69 -67 -69 -172q0 -104 65 -169t182 -65q105 0 167 56q59 54 59 145h-254v61h325q1 -3 1 -16v-19q0 -140 -86 -217q-82 -74 -216 -74q-148 0 -235 84z
M283 -338l77 205h85v-6l-113 -199h-49z" />
    <glyph glyph-name="gcommaaccent.1181" horiz-adv-x="770" 
d="M161 68q-83 81 -83 212q0 133 88 218q91 88 239 88q142 0 237 -76v-75h-1q-112 86 -238 86q-113 0 -181 -67q-69 -67 -69 -172q0 -104 65 -169t182 -65q105 0 167 56q59 54 59 145h-254v61h325q1 -3 1 -16v-19q0 -140 -86 -217q-82 -74 -216 -74q-148 0 -235 84z
M283 -338l77 205h85v-6l-113 -199h-49z" />
    <glyph glyph-name="gdotaccent.1" horiz-adv-x="770" 
d="M161 68q-83 81 -83 212q0 133 88 218q91 88 239 88q142 0 237 -76v-75h-1q-112 86 -238 86q-113 0 -181 -67q-69 -67 -69 -172q0 -104 65 -169t182 -65q105 0 167 56q59 54 59 145h-254v61h325q1 -3 1 -16v-19q0 -140 -86 -217q-82 -74 -216 -74q-148 0 -235 84zM352 709
q-15 14 -15 35q0 20 15 33q15 15 38 15q24 0 39 -15q15 -13 15 -33q0 -21 -14 -35q-16 -14 -39 -14t-39 14z" />
    <glyph glyph-name="gdotaccent.1180" horiz-adv-x="770" 
d="M161 68q-83 81 -83 212q0 133 88 218q91 88 239 88q142 0 237 -76v-75h-1q-112 86 -238 86q-113 0 -181 -67q-69 -67 -69 -172q0 -104 65 -169t182 -65q105 0 167 56q59 54 59 145h-254v61h325q1 -3 1 -16v-19q0 -140 -86 -217q-82 -74 -216 -74q-148 0 -235 84zM352 709
q-15 14 -15 35q0 20 15 33q15 15 38 15q24 0 39 -15q15 -13 15 -33q0 -21 -14 -35q-16 -14 -39 -14t-39 14z" />
    <glyph glyph-name="greater.aalt" horiz-adv-x="724" 
d="M162 606l424 -222v-71l-424 -221v74l349 183l-349 184v73z" />
    <glyph glyph-name="guillemotleft.1" horiz-adv-x="735" 
d="M358 573l-195 -223l195 -223h-83l-194 220v6l194 220h83zM644 573l-195 -223l195 -223h-83l-194 220v6l194 220h83z" />
    <glyph glyph-name="guillemotright.1" horiz-adv-x="735" 
d="M377 127l195 223l-195 223h83l194 -220v-6l-194 -220h-83zM91 127l195 223l-195 223h83l194 -220v-6l-194 -220h-83z" />
    <glyph glyph-name="guilsinglleft.1" horiz-adv-x="451" 
d="M359 127h-84l-194 220v6l194 220h84l-194 -223z" />
    <glyph glyph-name="guilsinglright.1" horiz-adv-x="451" 
d="M92 573h84l194 -220v-6l-194 -220h-84l194 223z" />
    <glyph glyph-name="h.1" horiz-adv-x="795" 
d="M126 0v575h74v-252h396v252h73v-575h-73v260h-396v-260h-74z" />
    <glyph glyph-name="h.1125" horiz-adv-x="795" 
d="M126 0v575h74v-252h396v252h73v-575h-73v260h-396v-260h-74z" />
    <glyph glyph-name="hbar.1" horiz-adv-x="845" 
d="M151 0v416h-105l4 55h101v104h74v-106h396v106h73v-104h101l4 -55h-105v-416h-73v232h-396v-232h-74zM225 296h396v123h-396v-123z" />
    <glyph glyph-name="hbar.1148" horiz-adv-x="845" 
d="M151 0v416h-105l4 55h101v104h74v-106h396v106h73v-104h101l4 -55h-105v-416h-73v232h-396v-232h-74zM225 296h396v123h-396v-123z" />
    <glyph glyph-name="hyphen.1" horiz-adv-x="436" 
d="M56 315v70h324v-70h-324z" />
    <glyph glyph-name="hyphen.2" horiz-adv-x="362" 
d="M35 315v70h292v-70h-292z" />
    <glyph glyph-name="i.1" horiz-adv-x="334" 
d="M130 0v575h73v-575h-73z" />
    <glyph glyph-name="i.1126" horiz-adv-x="334" 
d="M130 0v575h73v-575h-73z" />
    <glyph glyph-name="i.2" horiz-adv-x="286" 
d="M104 651q-14 14 -14 35q0 19 14 33q15 15 39 15t39 -15q14 -14 14 -33q0 -21 -14 -35q-16 -14 -39 -14t-39 14zM107 0v528h72v-528h-72z" />
    <glyph glyph-name="i.3" horiz-adv-x="334" 
d="M130 0v575h73v-575h-73zM128 698q-15 14 -15 35q0 20 15 33q15 15 38 15q24 0 39 -15q15 -13 15 -33q0 -21 -14 -35q-16 -14 -39 -14t-39 14z" />
    <glyph glyph-name="iacute.1" horiz-adv-x="334" 
d="M130 0v575h73v-575h-73zM132 683l133 164h99v-3l-163 -161h-69z" />
    <glyph glyph-name="iacute.1182" horiz-adv-x="334" 
d="M130 0v575h73v-575h-73zM132 683l133 164h99v-3l-163 -161h-69z" />
    <glyph glyph-name="ibreve.1" horiz-adv-x="334" 
d="M130 0v575h73v-575h-73zM44 711q-49 37 -49 104q0 8 1.5 19t3.5 25h60l-1 -10l-1 -8q-1 -5 -1 -9.5v-6.5q0 -94 110 -94t110 94q0 8 -1 17t-3 17h61q2 -11 3 -22t1 -22q0 -66 -48 -104q-46 -36 -123 -36q-76 0 -123 36z" />
    <glyph glyph-name="ibreve.1185" horiz-adv-x="334" 
d="M130 0v575h73v-575h-73zM44 711q-49 37 -49 104q0 8 1.5 19t3.5 25h60l-1 -10l-1 -8q-1 -5 -1 -9.5v-6.5q0 -94 110 -94t110 94q0 8 -1 17t-3 17h61q2 -11 3 -22t1 -22q0 -66 -48 -104q-46 -36 -123 -36q-76 0 -123 36z" />
    <glyph glyph-name="icircumflex.1" horiz-adv-x="334" 
d="M130 0v575h73v-575h-73zM-29 683l140 171h112l140 -171h-78l-98 119h-40l-98 -119h-78z" />
    <glyph glyph-name="icircumflex.1184" horiz-adv-x="334" 
d="M130 0v575h73v-575h-73zM-29 683l140 171h112l140 -171h-78l-98 119h-40l-98 -119h-78z" />
    <glyph glyph-name="idieresis.1" horiz-adv-x="334" 
d="M130 0v575h73v-575h-73zM3 698q-14 14 -14 33q0 18 14 32t37 14q22 0 38 -14q13 -13 13 -32q0 -20 -13 -33q-16 -14 -38 -14q-23 0 -37 14zM257 698q-14 14 -14 33q0 18 14 32t37 14q22 0 38 -14q13 -13 13 -32q0 -20 -13 -33q-16 -14 -38 -14q-23 0 -37 14z" />
    <glyph glyph-name="idieresis.1187" horiz-adv-x="334" 
d="M130 0v575h73v-575h-73zM3 698q-14 14 -14 33q0 18 14 32t37 14q22 0 38 -14q13 -13 13 -32q0 -20 -13 -33q-16 -14 -38 -14q-23 0 -37 14zM257 698q-14 14 -14 33q0 18 14 32t37 14q22 0 38 -14q13 -13 13 -32q0 -20 -13 -33q-16 -14 -38 -14q-23 0 -37 14z" />
    <glyph glyph-name="igrave.1" horiz-adv-x="334" 
d="M130 0v575h73v-575h-73zM202 683h-69l-163 161v3h99z" />
    <glyph glyph-name="igrave.1183" horiz-adv-x="334" 
d="M130 0v575h73v-575h-73zM202 683h-69l-163 161v3h99z" />
    <glyph glyph-name="imacron.1" horiz-adv-x="334" 
d="M130 0v575h73v-575h-73zM-13 700v58h360v-58h-360z" />
    <glyph glyph-name="imacron.1186" horiz-adv-x="334" 
d="M130 0v575h73v-575h-73zM-13 700v58h360v-58h-360z" />
    <glyph glyph-name="indianrupee.aalt" horiz-adv-x="724" 
d="M656 436h-98q-8 -87 -69 -145t-176 -58h-91l349 -233h-110l-346 233v56h182q173 0 190 149h-372v55h372q-15 149 -194 149h-178v58h562l-4 -58h-206q80 -42 90 -147h102z" />
    <glyph glyph-name="iogonek.1" horiz-adv-x="334" 
d="M241 -266q-48 -23 -103 -23q-68 0 -104 30q-33 27 -33 73q0 63 99 158l30 29v574h73v-575l-57 -57q-77 -79 -77 -118q0 -58 81 -58q52 0 91 27v-60z" />
    <glyph glyph-name="iogonek.1155" horiz-adv-x="334" 
d="M241 -266q-48 -23 -103 -23q-68 0 -104 30q-33 27 -33 73q0 63 99 158l30 29v574h73v-575l-57 -57q-77 -79 -77 -118q0 -58 81 -58q52 0 91 27v-60z" />
    <glyph glyph-name="j.1" horiz-adv-x="286" 
d="M104 645q-14 14 -14 34t14 34q15 15 39 15t39 -15q14 -14 14 -34t-14 -34q-15 -15 -39 -15t-39 15zM107 -217v745h72v-716z" />
    <glyph glyph-name="j.1127" horiz-adv-x="656" 
d="M81 55v75h1q113 -78 225 -78q160 0 160 146v314h-272l3 63h342v-387q0 -201 -232 -201q-123 0 -227 68z" />
    <glyph glyph-name="j.smcp" horiz-adv-x="656" 
d="M81 55v75h1q113 -78 225 -78q160 0 160 146v314h-272l3 63h342v-387q0 -201 -232 -201q-123 0 -227 68z" />
    <glyph glyph-name="k.1" horiz-adv-x="729" 
d="M126 0v575h74v-249h150l232 249h86v-1l-258 -277l271 -297h-89l-244 262h-148v-262h-74z" />
    <glyph glyph-name="k.1128" horiz-adv-x="729" 
d="M126 0v575h74v-249h150l232 249h86v-1l-258 -277l271 -297h-89l-244 262h-148v-262h-74z" />
    <glyph glyph-name="kcommaaccent.1" horiz-adv-x="729" 
d="M126 0v575h74v-249h150l232 249h86v-1l-258 -277l271 -297h-89l-244 262h-148v-262h-74zM260 -300l77 205h85v-6l-113 -199h-49z" />
    <glyph glyph-name="kcommaaccent.1188" horiz-adv-x="729" 
d="M126 0v575h74v-249h150l232 249h86v-1l-258 -277l271 -297h-89l-244 262h-148v-262h-74zM260 -300l77 205h85v-6l-113 -199h-49z" />
    <glyph glyph-name="l.1" horiz-adv-x="626" 
d="M126 0v575h74v-510h380l-4 -65h-450z" />
    <glyph glyph-name="l.1129" horiz-adv-x="626" 
d="M126 0v575h74v-510h380l-4 -65h-450z" />
    <glyph glyph-name="lacute.1" horiz-adv-x="626" 
d="M126 0v575h74v-510h380l-4 -65h-450zM128 683l133 164h99v-3l-163 -161h-69z" />
    <glyph glyph-name="lacute.1189" horiz-adv-x="626" 
d="M126 0v575h74v-510h380l-4 -65h-450zM128 683l133 164h99v-3l-163 -161h-69z" />
    <glyph glyph-name="lcaron.1" horiz-adv-x="626" 
d="M126 0v575h74v-510h380l-4 -65h-450zM312 403v171h78v-6l-35 -165h-43z" />
    <glyph glyph-name="lcaron.1190" horiz-adv-x="626" 
d="M126 0v575h74v-510h380l-4 -65h-450zM312 403v171h78v-6l-35 -165h-43z" />
    <glyph glyph-name="lcommaaccent.1" horiz-adv-x="626" 
d="M126 0v575h74v-510h380l-4 -65h-450zM239 -322l77 205h85v-6l-113 -199h-49z" />
    <glyph glyph-name="lcommaaccent.1191" horiz-adv-x="626" 
d="M126 0v575h74v-510h380l-4 -65h-450zM239 -322l77 205h85v-6l-113 -199h-49z" />
    <glyph glyph-name="ldot.1" horiz-adv-x="633" 
d="M126 0v575h74v-510h380l-4 -65h-450zM440 333q-14 14 -14 34t14 34q15 15 39 15t39 -15q15 -13 15 -34q0 -20 -15 -34q-15 -15 -39 -15t-39 15z" />
    <glyph glyph-name="ldot.1159" horiz-adv-x="633" 
d="M126 0v575h74v-510h380l-4 -65h-450zM440 333q-14 14 -14 34t14 34q15 15 39 15t39 -15q15 -13 15 -34q0 -20 -15 -34q-15 -15 -39 -15t-39 15z" />
    <glyph glyph-name="less.aalt" horiz-adv-x="724" 
d="M562 95l-424 222v71l424 221v-74l-349 -183l349 -184v-73z" />
    <glyph glyph-name="lslash.1" horiz-adv-x="659" 
d="M153 0v204l-104 -56v64l104 57v306h73v-266l231 126v-64l-231 -127v-179h380l-3 -65h-450z" />
    <glyph glyph-name="lslash.1149" horiz-adv-x="659" 
d="M153 0v204l-104 -56v64l104 57v306h73v-266l231 126v-64l-231 -127v-179h380l-3 -65h-450z" />
    <glyph glyph-name="m.1" horiz-adv-x="921" 
d="M126 0v575h99l237 -402l235 402h98v-575h-71v475h-10l-251 -423h-5l-250 422h-11v-474h-71z" />
    <glyph glyph-name="m.1130" horiz-adv-x="921" 
d="M126 0v575h99l237 -402l235 402h98v-575h-71v475h-10l-251 -423h-5l-250 422h-11v-474h-71z" />
    <glyph glyph-name="minus.aalt" horiz-adv-x="724" 
d="M116 316v68h492v-68h-492z" />
    <glyph glyph-name="multiply.aalt" horiz-adv-x="724" 
d="M126 539l47 46l189 -188l190 188l46 -46l-189 -188l189 -189l-46 -46l-190 188l-189 -188l-47 46l190 189z" />
    <glyph glyph-name="n.1" 
d="M126 0v575h96l370 -475h11v475h71v-575h-90l-375 480h-11v-480h-72z" />
    <glyph glyph-name="n.1131" 
d="M126 0v575h96l370 -475h11v475h71v-575h-90l-375 480h-11v-480h-72z" />
    <glyph glyph-name="nacute.1" 
d="M126 0v575h96l370 -475h11v475h71v-575h-90l-375 480h-11v-480h-72zM364 659l133 164h99v-3l-163 -161h-69z" />
    <glyph glyph-name="nacute.1192" 
d="M126 0v575h96l370 -475h11v475h71v-575h-90l-375 480h-11v-480h-72zM364 659l133 164h99v-3l-163 -161h-69z" />
    <glyph glyph-name="nbspace233" horiz-adv-x="25000" 
 />
    <glyph glyph-name="ncaron.1" 
d="M126 0v575h96l370 -475h11v475h71v-575h-90l-375 480h-11v-480h-72zM608 830l-140 -171h-112l-140 171h78l98 -119h40l98 119h78z" />
    <glyph glyph-name="ncaron.1193" 
d="M126 0v575h96l370 -475h11v475h71v-575h-90l-375 480h-11v-480h-72zM608 830l-140 -171h-112l-140 171h78l98 -119h40l98 119h78z" />
    <glyph glyph-name="ncommaaccent.1" 
d="M126 0v575h96l370 -475h11v475h71v-575h-90l-375 480h-11v-480h-72zM280 -300l77 205h85v-6l-113 -199h-49z" />
    <glyph glyph-name="ncommaaccent.1195" 
d="M126 0v575h96l370 -475h11v475h71v-575h-90l-375 480h-11v-480h-72zM280 -300l77 205h85v-6l-113 -199h-49z" />
    <glyph glyph-name="nine.1" horiz-adv-x="702" 
d="M547 503q75 -87 75 -243q0 -183 -90 -291q-93 -112 -256 -112q-82 0 -163 30l1 66h1q86 -33 156 -33q131 0 204 85q69 78 75 211q-104 -91 -234 -91q-106 0 -171 56q-68 59 -68 158q0 111 76 181q74 69 187 69q132 0 207 -86zM203 224q50 -38 129 -38q122 0 219 91
q-1 120 -60 186q-55 63 -154 63q-80 0 -133 -51q-55 -52 -55 -132q0 -77 54 -119z" />
    <glyph glyph-name="nine.2" horiz-adv-x="724" 
d="M564 631q84 -90 84 -254q0 -188 -101 -295q-93 -98 -245 -98q-102 0 -200 48v70h1q103 -53 198 -53q118 0 191 71q78 77 83 229q-103 -90 -249 -90q-118 0 -185 55q-70 55 -70 156q0 113 83 182q77 64 194 64q137 0 216 -85zM201 358q52 -37 141 -37q129 0 232 87
q-3 121 -67 182q-65 62 -163 62q-83 0 -138 -46q-61 -49 -61 -133q0 -74 56 -115z" />
    <glyph glyph-name="nine.dnom" horiz-adv-x="434" 
d="M316 360q47 -52 47 -146q0 -108 -56 -167q-54 -57 -146 -57q-65 0 -116 24v53h1q55 -28 114 -28q139 0 145 152q-56 -43 -135 -43q-65 0 -103 30q-40 31 -40 90q0 66 48 105q45 36 113 36q82 0 128 -49zM181 194q71 0 124 43q-3 60 -35 92t-83 32q-44 0 -73 -24
q-30 -24 -30 -66q0 -77 97 -77z" />
    <glyph glyph-name="nine.numr" horiz-adv-x="434" 
d="M356 660q47 -52 47 -146q0 -108 -56 -167q-54 -57 -146 -57q-65 0 -116 24v53h1q55 -28 114 -28q139 0 145 152q-56 -43 -135 -43q-65 0 -103 30q-40 31 -40 90q0 66 48 105q45 36 113 36q82 0 128 -49zM221 494q71 0 124 43q-3 60 -35 92t-83 32q-44 0 -73 -24
q-30 -24 -30 -66q0 -77 97 -77z" />
    <glyph glyph-name="ntilde.1" 
d="M126 0v575h96l370 -475h11v475h71v-575h-90l-375 480h-11v-480h-72zM593 735q-42 -61 -98 -61q-34 0 -93 36q-48 30 -74 30q-44 0 -95 -76h-1v75q39 61 98 61q35 0 93 -35q47 -31 73 -31q45 0 96 76h1v-75z" />
    <glyph glyph-name="ntilde.1194" 
d="M126 0v575h96l370 -475h11v475h71v-575h-90l-375 480h-11v-480h-72zM593 735q-42 -61 -98 -61q-34 0 -93 36q-48 30 -74 30q-44 0 -95 -76h-1v75q39 61 98 61q35 0 93 -35q47 -31 73 -31q45 0 96 76h1v-75z" />
    <glyph glyph-name="numbersign.1" horiz-adv-x="724" 
d="M86 0l35 156h-113v59h127l61 270h-128v59h142l35 156h67l-36 -156h260l36 156h66l-35 -156h113v-59h-127l-61 -270h128v-59h-142l-35 -156h-67l36 156h-260l-36 -156h-66zM201 215h260l62 270h-260z" />
    <glyph glyph-name="o.smcp" 
d="M166 63q-88 82 -88 223q0 137 89 223q89 84 234 84q147 0 233 -82q88 -82 88 -223q0 -137 -89 -223q-88 -84 -234 -84q-147 0 -233 82zM578 110q70 66 70 177q0 110 -70 176q-67 64 -178 64q-110 0 -178 -63q-69 -64 -69 -177q0 -112 69 -177q68 -63 178 -63
q111 0 178 63z" />
    <glyph glyph-name="oacute.1" 
d="M166 63q-88 82 -88 223q0 137 89 223q89 84 234 84q147 0 233 -82q88 -82 88 -223q0 -137 -89 -223q-88 -84 -234 -84q-147 0 -233 82zM578 110q70 66 70 177q0 110 -70 176q-67 64 -178 64q-110 0 -178 -63q-69 -64 -69 -177q0 -112 69 -177q68 -63 178 -63
q111 0 178 63zM352 701l133 164h99v-3l-163 -161h-69z" />
    <glyph glyph-name="oacute.1196" 
d="M166 63q-88 82 -88 223q0 137 89 223q89 84 234 84q147 0 233 -82q88 -82 88 -223q0 -137 -89 -223q-88 -84 -234 -84q-147 0 -233 82zM578 110q70 66 70 177q0 110 -70 176q-67 64 -178 64q-110 0 -178 -63q-69 -64 -69 -177q0 -112 69 -177q68 -63 178 -63
q111 0 178 63zM352 701l133 164h99v-3l-163 -161h-69z" />
    <glyph glyph-name="obreve.1" 
d="M166 63q-88 82 -88 223q0 137 89 223q89 84 234 84q147 0 233 -82q88 -82 88 -223q0 -137 -89 -223q-88 -84 -234 -84q-147 0 -233 82zM578 110q70 66 70 177q0 110 -70 176q-67 64 -178 64q-110 0 -178 -63q-69 -64 -69 -177q0 -112 69 -177q68 -63 178 -63
q111 0 178 63zM277 729q-49 37 -49 104q0 8 1.5 19t3.5 25h60l-1 -10l-1 -8q-1 -5 -1 -9.5v-6.5q0 -94 110 -94t110 94q0 8 -1 17t-3 17h61q2 -11 3 -22t1 -22q0 -66 -48 -104q-46 -36 -123 -36q-76 0 -123 36z" />
    <glyph glyph-name="obreve.1200" 
d="M166 63q-88 82 -88 223q0 137 89 223q89 84 234 84q147 0 233 -82q88 -82 88 -223q0 -137 -89 -223q-88 -84 -234 -84q-147 0 -233 82zM578 110q70 66 70 177q0 110 -70 176q-67 64 -178 64q-110 0 -178 -63q-69 -64 -69 -177q0 -112 69 -177q68 -63 178 -63
q111 0 178 63zM277 729q-49 37 -49 104q0 8 1.5 19t3.5 25h60l-1 -10l-1 -8q-1 -5 -1 -9.5v-6.5q0 -94 110 -94t110 94q0 8 -1 17t-3 17h61q2 -11 3 -22t1 -22q0 -66 -48 -104q-46 -36 -123 -36q-76 0 -123 36z" />
    <glyph glyph-name="ocircumflex.1" 
d="M166 63q-88 82 -88 223q0 137 89 223q89 84 234 84q147 0 233 -82q88 -82 88 -223q0 -137 -89 -223q-88 -84 -234 -84q-147 0 -233 82zM578 110q70 66 70 177q0 110 -70 176q-67 64 -178 64q-110 0 -178 -63q-69 -64 -69 -177q0 -112 69 -177q68 -63 178 -63
q111 0 178 63zM204 701l140 171h112l140 -171h-78l-98 119h-40l-98 -119h-78z" />
    <glyph glyph-name="ocircumflex.1199" 
d="M166 63q-88 82 -88 223q0 137 89 223q89 84 234 84q147 0 233 -82q88 -82 88 -223q0 -137 -89 -223q-88 -84 -234 -84q-147 0 -233 82zM578 110q70 66 70 177q0 110 -70 176q-67 64 -178 64q-110 0 -178 -63q-69 -64 -69 -177q0 -112 69 -177q68 -63 178 -63
q111 0 178 63zM204 701l140 171h112l140 -171h-78l-98 119h-40l-98 -119h-78z" />
    <glyph glyph-name="odieresis.1" 
d="M166 63q-88 82 -88 223q0 137 89 223q89 84 234 84q147 0 233 -82q88 -82 88 -223q0 -137 -89 -223q-88 -84 -234 -84q-147 0 -233 82zM578 110q70 66 70 177q0 110 -70 176q-67 64 -178 64q-110 0 -178 -63q-69 -64 -69 -177q0 -112 69 -177q68 -63 178 -63
q111 0 178 63zM236 716q-14 14 -14 33q0 18 14 32t37 14q22 0 38 -14q13 -13 13 -32q0 -20 -13 -33q-16 -14 -38 -14q-23 0 -37 14zM490 716q-14 14 -14 33q0 18 14 32t37 14q22 0 38 -14q13 -13 13 -32q0 -20 -13 -33q-16 -14 -38 -14q-23 0 -37 14z" />
    <glyph glyph-name="odieresis.1202" 
d="M166 63q-88 82 -88 223q0 137 89 223q89 84 234 84q147 0 233 -82q88 -82 88 -223q0 -137 -89 -223q-88 -84 -234 -84q-147 0 -233 82zM578 110q70 66 70 177q0 110 -70 176q-67 64 -178 64q-110 0 -178 -63q-69 -64 -69 -177q0 -112 69 -177q68 -63 178 -63
q111 0 178 63zM236 716q-14 14 -14 33q0 18 14 32t37 14q22 0 38 -14q13 -13 13 -32q0 -20 -13 -33q-16 -14 -38 -14q-23 0 -37 14zM490 716q-14 14 -14 33q0 18 14 32t37 14q22 0 38 -14q13 -13 13 -32q0 -20 -13 -33q-16 -14 -38 -14q-23 0 -37 14z" />
    <glyph glyph-name="oe.1" horiz-adv-x="1142" 
d="M158 497q81 78 228 78h667l3 -63h-410v-188h335v-61h-335v-200h425l-3 -63h-682q-147 0 -228 78q-79 75 -79 209t79 210zM573 511h-180q-239 0 -239 -223q0 -224 239 -224h180v447z" />
    <glyph glyph-name="oe.1144" horiz-adv-x="1142" 
d="M158 497q81 78 228 78h667l3 -63h-410v-188h335v-61h-335v-200h425l-3 -63h-682q-147 0 -228 78q-79 75 -79 209t79 210zM573 511h-180q-239 0 -239 -223q0 -224 239 -224h180v447z" />
    <glyph glyph-name="ograve.1" 
d="M166 63q-88 82 -88 223q0 137 89 223q89 84 234 84q147 0 233 -82q88 -82 88 -223q0 -137 -89 -223q-88 -84 -234 -84q-147 0 -233 82zM578 110q70 66 70 177q0 110 -70 176q-67 64 -178 64q-110 0 -178 -63q-69 -64 -69 -177q0 -112 69 -177q68 -63 178 -63
q111 0 178 63zM449 701h-69l-163 161v3h99z" />
    <glyph glyph-name="ograve.1198" 
d="M166 63q-88 82 -88 223q0 137 89 223q89 84 234 84q147 0 233 -82q88 -82 88 -223q0 -137 -89 -223q-88 -84 -234 -84q-147 0 -233 82zM578 110q70 66 70 177q0 110 -70 176q-67 64 -178 64q-110 0 -178 -63q-69 -64 -69 -177q0 -112 69 -177q68 -63 178 -63
q111 0 178 63zM449 701h-69l-163 161v3h99z" />
    <glyph glyph-name="ohungarumlaut.1" 
d="M166 63q-88 82 -88 223q0 137 89 223q89 84 234 84q147 0 233 -82q88 -82 88 -223q0 -137 -89 -223q-88 -84 -234 -84q-147 0 -233 82zM578 110q70 66 70 177q0 110 -70 176q-67 64 -178 64q-110 0 -178 -63q-69 -64 -69 -177q0 -112 69 -177q68 -63 178 -63
q111 0 178 63zM486 701l129 164h86v-3l-156 -161h-59zM273 701l128 164h87v-3l-156 -161h-59z" />
    <glyph glyph-name="ohungarumlaut.1197" 
d="M166 63q-88 82 -88 223q0 137 89 223q89 84 234 84q147 0 233 -82q88 -82 88 -223q0 -137 -89 -223q-88 -84 -234 -84q-147 0 -233 82zM578 110q70 66 70 177q0 110 -70 176q-67 64 -178 64q-110 0 -178 -63q-69 -64 -69 -177q0 -112 69 -177q68 -63 178 -63
q111 0 178 63zM486 701l129 164h86v-3l-156 -161h-59zM273 701l128 164h87v-3l-156 -161h-59z" />
    <glyph glyph-name="omacron.1" 
d="M166 63q-88 82 -88 223q0 137 89 223q89 84 234 84q147 0 233 -82q88 -82 88 -223q0 -137 -89 -223q-88 -84 -234 -84q-147 0 -233 82zM578 110q70 66 70 177q0 110 -70 176q-67 64 -178 64q-110 0 -178 -63q-69 -64 -69 -177q0 -112 69 -177q68 -63 178 -63
q111 0 178 63zM220 718v58h360v-58h-360z" />
    <glyph glyph-name="omacron.1201" 
d="M166 63q-88 82 -88 223q0 137 89 223q89 84 234 84q147 0 233 -82q88 -82 88 -223q0 -137 -89 -223q-88 -84 -234 -84q-147 0 -233 82zM578 110q70 66 70 177q0 110 -70 176q-67 64 -178 64q-110 0 -178 -63q-69 -64 -69 -177q0 -112 69 -177q68 -63 178 -63
q111 0 178 63zM220 718v58h360v-58h-360z" />
    <glyph glyph-name="one.1" horiz-adv-x="392" 
d="M159 700h74v-700h-74v700z" />
    <glyph glyph-name="one.2" horiz-adv-x="456" 
d="M224 0v511h-162l10 64h225v-575h-73z" />
    <glyph glyph-name="one.3" horiz-adv-x="724" 
d="M664 65v-65h-549v65h251v570h-251l10 65h315v-635h224z" />
    <glyph glyph-name="one.4" horiz-adv-x="326" 
d="M172 300v350h-116l9 50h168v-400h-61z" />
    <glyph glyph-name="one.5" horiz-adv-x="326" 
d="M132 0v350h-116l9 50h168v-400h-61z" />
    <glyph glyph-name="one.aalt" horiz-adv-x="434" 
d="M416 349v-49h-322v49h137v301h-139l8 50h193v-351h123z" />
    <glyph glyph-name="one.aalt.1" horiz-adv-x="434" 
d="M376 49v-49h-322v49h137v301h-139l8 50h193v-351h123z" />
    <glyph glyph-name="one.sinf.aalt" horiz-adv-x="474" 
d="M416 -137v-49h-322v49h137v301h-139l8 50h193v-351h123z" />
    <glyph glyph-name="oneeighth.aalt" horiz-adv-x="1086" 
d="M416 349v-49h-322v49h137v301h-139l8 50h193v-351h123zM277 1l491 699h65v-1l-491 -699h-65v1zM720 19q-44 30 -44 81q0 75 98 101q-88 19 -88 94q0 51 44 83q43 31 119 31t119 -31q44 -32 44 -83q0 -75 -88 -94q98 -26 98 -101q0 -51 -44 -81q-46 -31 -129 -31t-129 31z
M955 289q0 34 -28 53q-29 20 -78 20t-78 -20q-28 -19 -28 -53q0 -68 106 -68t106 68zM933 55q30 20 30 52q0 34 -31 53q-32 20 -83 20q-50 0 -82 -20t-32 -53q0 -32 30 -52q31 -20 84 -20t84 20z" />
    <glyph glyph-name="uni2155.aalt" horiz-adv-x="1086" 
d="M416 349v-49h-322v49h137v301h-139l8 50h193v-351h123zM277 1l491 699h65v-1l-491 -699h-65v1zM692 22v56h1q75 -37 153 -37q54 0 82 24q25 19 25 51q0 31 -16 44q-28 27 -139 27h-92l6 213h279l3 -51h-227l-3 -114h54q128 0 168 -43q28 -28 28 -75q0 -57 -44 -92
q-46 -35 -123 -35q-79 0 -155 32z" />
    <glyph glyph-name="onehalf.aalt" horiz-adv-x="1086" 
d="M416 349v-49h-322v49h137v301h-139l8 50h193v-351h123zM289 1l491 699h65v-1l-491 -699h-65v1zM692 0v49l149 123q29 25 50 43t34 31q22 22 22 51q0 61 -86 61q-73 0 -155 -67h-1v60q77 59 160 59q71 0 108 -30q35 -29 35 -79q0 -45 -31 -79q-8 -10 -33 -31.5t-67 -55.5
l-101 -84h235v-51h-319z" />
    <glyph glyph-name="onequarter.aalt" horiz-adv-x="1086" 
d="M416 349v-49h-322v49h137v301h-139l8 50h193v-351h123zM295 1l491 699h65v-1l-491 -699h-65v1zM917 1v91h-254v45l140 263h171v-258h75l-3 -50h-72v-91h-57zM726 141h192v209h-78z" />
    <glyph glyph-name="uni2159.aalt" horiz-adv-x="1086" 
d="M416 349v-49h-322v49h137v301h-139l8 50h193v-351h123zM283 1l491 699h65v-1l-491 -699h-65v1zM730 39q-47 52 -47 146q0 108 56 167q54 57 146 57q65 0 116 -24v-53h-1q-55 28 -114 28q-139 0 -145 -152q56 43 135 43q66 0 103 -30q40 -31 40 -90q0 -66 -48 -105
q-45 -36 -113 -36q-82 0 -128 49zM741 162q3 -60 35 -92t83 -32q45 0 73 24q30 24 30 66q0 77 -97 77q-71 0 -124 -43z" />
    <glyph glyph-name="uni00B9.aalt" horiz-adv-x="474" 
d="M416 403v-49h-322v49h137v301h-139l8 50h193v-351h123z" />
    <glyph glyph-name="onethird.aalt" horiz-adv-x="1086" 
d="M416 349v-49h-322v49h137v301h-139l8 50h193v-351h123zM277 1l491 699h65v-1l-491 -699h-65v1zM691 23v55h1q85 -38 147 -38q53 0 84 21t31 55q0 37 -32 54q-36 17 -122 17h-18v30l156 132h-238l2 51h308v-49l-147 -124q152 -11 152 -112q0 -57 -46 -91t-124 -34
q-77 0 -154 33z" />
    <glyph glyph-name="oslash.1" 
d="M212 28l-72 -82h-81l105 119q-86 83 -86 221q0 137 89 223q89 84 234 84q111 0 187 -48l73 82h80l-105 -118q86 -83 86 -221q0 -137 -89 -223q-88 -84 -234 -84q-104 0 -187 47zM213 116l333 375q-62 38 -146 38q-113 0 -180 -64q-69 -66 -69 -178q0 -106 62 -171z
M580 109q69 66 69 178q0 106 -62 171l-331 -376q59 -37 144 -37q113 0 180 64z" />
    <glyph glyph-name="oslash.1150" 
d="M212 28l-72 -82h-81l105 119q-86 83 -86 221q0 137 89 223q89 84 234 84q111 0 187 -48l73 82h80l-105 -118q86 -83 86 -221q0 -137 -89 -223q-88 -84 -234 -84q-104 0 -187 47zM213 116l333 375q-62 38 -146 38q-113 0 -180 -64q-69 -66 -69 -178q0 -106 62 -171z
M580 109q69 66 69 178q0 106 -62 171l-331 -376q59 -37 144 -37q113 0 180 64z" />
    <glyph glyph-name="oslashacute.1" 
d="M212 28l-72 -82h-81l105 119q-86 83 -86 221q0 137 89 223q89 84 234 84q111 0 187 -48l73 82h80l-105 -118q86 -83 86 -221q0 -137 -89 -223q-88 -84 -234 -84q-104 0 -187 47zM213 116l333 375q-62 38 -146 38q-113 0 -180 -64q-69 -66 -69 -178q0 -106 62 -171z
M580 109q69 66 69 178q0 106 -62 171l-331 -376q59 -37 144 -37q113 0 180 64zM345 696l133 164h99v-3l-163 -161h-69z" />
    <glyph glyph-name="oslashacute.1204" 
d="M212 28l-72 -82h-81l105 119q-86 83 -86 221q0 137 89 223q89 84 234 84q111 0 187 -48l73 82h80l-105 -118q86 -83 86 -221q0 -137 -89 -223q-88 -84 -234 -84q-104 0 -187 47zM213 116l333 375q-62 38 -146 38q-113 0 -180 -64q-69 -66 -69 -178q0 -106 62 -171z
M580 109q69 66 69 178q0 106 -62 171l-331 -376q59 -37 144 -37q113 0 180 64zM345 696l133 164h99v-3l-163 -161h-69z" />
    <glyph glyph-name="otilde.1" 
d="M166 63q-88 82 -88 223q0 137 89 223q89 84 234 84q147 0 233 -82q88 -82 88 -223q0 -137 -89 -223q-88 -84 -234 -84q-147 0 -233 82zM578 110q70 66 70 177q0 110 -70 176q-67 64 -178 64q-110 0 -178 -63q-69 -64 -69 -177q0 -112 69 -177q68 -63 178 -63
q111 0 178 63zM581 753q-42 -61 -98 -61q-34 0 -93 36q-48 30 -74 30q-44 0 -95 -76h-1v75q39 61 98 61q35 0 93 -35q47 -31 73 -31q45 0 96 76h1v-75z" />
    <glyph glyph-name="otilde.1203" 
d="M166 63q-88 82 -88 223q0 137 89 223q89 84 234 84q147 0 233 -82q88 -82 88 -223q0 -137 -89 -223q-88 -84 -234 -84q-147 0 -233 82zM578 110q70 66 70 177q0 110 -70 176q-67 64 -178 64q-110 0 -178 -63q-69 -64 -69 -177q0 -112 69 -177q68 -63 178 -63
q111 0 178 63zM581 753q-42 -61 -98 -61q-34 0 -93 36q-48 30 -74 30q-44 0 -95 -76h-1v75q39 61 98 61q35 0 93 -35q47 -31 73 -31q45 0 96 76h1v-75z" />
    <glyph glyph-name="p.1" horiz-adv-x="707" 
d="M126 0v575h301q107 0 163 -52q55 -49 55 -142q0 -95 -59 -148q-58 -52 -165 -52h-221v-181h-74zM200 245h220q151 0 151 134q0 132 -152 132h-219v-266z" />
    <glyph glyph-name="p.1132" horiz-adv-x="707" 
d="M126 0v575h301q107 0 163 -52q55 -49 55 -142q0 -95 -59 -148q-58 -52 -165 -52h-221v-181h-74zM200 245h220q151 0 151 134q0 132 -152 132h-219v-266z" />
    </font>
</defs>
</svg>
