<?xml version="1.0" standalone="no"?>
<!DOCTYPE svg PUBLIC "-//W3C//DTD SVG 1.1//EN" "http://www.w3.org/Graphics/SVG/1.1/DTD/svg11.dtd" >
<svg xmlns="http://www.w3.org/2000/svg" xmlns:xlink="http://www.w3.org/1999/xlink" version="1.1">
<metadata>
Created by FontForge 20201107 at Fri Sep 12 12:11:10 2025
 By 
Copyright (c) 2020-2023 OH no Type Company, LLC. All rights reserved.
</metadata>
<defs>
<font id="Degular-Black" horiz-adv-x="1091" >
  <font-face 
    font-family="Degular Black"
    font-weight="900"
    font-stretch="normal"
    units-per-em="2048"
    panose-1="2 11 9 4 5 5 3 6 2 4"
    ascent="1638"
    descent="-410"
    x-height="979"
    cap-height="1229"
    bbox="-694 -463 2636 1985"
    underline-thickness="102"
    underline-position="-337"
    unicode-range="U+000D-FEFF"
  />
<missing-glyph horiz-adv-x="1751" 
d="M324 496q-56 27 -88.5 81.5t-32.5 127.5q0 68 33 123.5t92 84.5q-16 137 55 249t210 175.5t318 63.5q313 0 474 -157.5t161 -446.5q0 -113 -22.5 -212t-69 -184.5t-124.5 -150t-183 -98.5q-17 -97 -17 -134q-133 -86 -385 -86q-295 0 -442 129q-11 301 21 435zM1208 553
l17 -21q-19 -69 -43 -188q155 113 155 367q0 226 -113 342t-335 116q-144 0 -251 -64.5t-144 -170.5q85 -16 126.5 -79.5t41.5 -145.5q0 -99 -55.5 -158t-135.5 -72q3 -55 8 -260q24 -24 108 -40.5t156 -16.5q50 0 86 5.5t78.5 17t69.5 16.5q0 31 5 60.5t16 55.5t21.5 47.5
t29.5 44t31 36.5t35 34t32.5 27.5t33 25.5t27.5 21zM942 944q110 0 172 -68.5t62 -160.5q0 -111 -77 -185.5t-175 -74.5q-101 0 -166.5 65.5t-65.5 179.5q0 63 25.5 116.5t84 90.5t140.5 37z" />
    <glyph glyph-name=".notdef" horiz-adv-x="1751" 
d="M324 496q-56 27 -88.5 81.5t-32.5 127.5q0 68 33 123.5t92 84.5q-16 137 55 249t210 175.5t318 63.5q313 0 474 -157.5t161 -446.5q0 -113 -22.5 -212t-69 -184.5t-124.5 -150t-183 -98.5q-17 -97 -17 -134q-133 -86 -385 -86q-295 0 -442 129q-11 301 21 435zM1208 553
l17 -21q-19 -69 -43 -188q155 113 155 367q0 226 -113 342t-335 116q-144 0 -251 -64.5t-144 -170.5q85 -16 126.5 -79.5t41.5 -145.5q0 -99 -55.5 -158t-135.5 -72q3 -55 8 -260q24 -24 108 -40.5t156 -16.5q50 0 86 5.5t78.5 17t69.5 16.5q0 31 5 60.5t16 55.5t21.5 47.5
t29.5 44t31 36.5t35 34t32.5 27.5t33 25.5t27.5 21zM942 944q110 0 172 -68.5t62 -160.5q0 -111 -77 -185.5t-175 -74.5q-101 0 -166.5 65.5t-65.5 179.5q0 63 25.5 116.5t84 90.5t140.5 37z" />
    <glyph glyph-name="uni0000" horiz-adv-x="0" 
 />
    <glyph glyph-name="uni0000" horiz-adv-x="0" 
 />
    <glyph glyph-name="uni000D" unicode="&#xd;" horiz-adv-x="358" 
 />
    <glyph glyph-name="space" unicode=" " horiz-adv-x="358" 
 />
    <glyph glyph-name="exclam" unicode="!" horiz-adv-x="524" 
d="M436 1229v-762h-348v762h348zM84 0v344h356v-344h-356z" />
    <glyph glyph-name="quotedbl" unicode="&#x22;" horiz-adv-x="821" 
d="M78 659l-47 570h356l-39 -570h-270zM481 659l-47 570h357l-39 -570h-271z" />
    <glyph glyph-name="numbersign" unicode="#" horiz-adv-x="1396" 
d="M1323 1006v-308h-238l-18 -188h256v-307h-287l-20 -203h-275l19 203h-205l-20 -203h-273l19 203h-207v307h233l19 188h-252v308h278l21 223h284l-22 -223h196l21 223h287l-23 -223h207zM840 729h-265l-24 -248h266z" />
    <glyph glyph-name="dollar" unicode="$" horiz-adv-x="1175" 
d="M717 -6l20 -248h-288l20 250q-400 47 -430 352l350 76q37 -164 234 -164q153 0 153 78q0 34 -19.5 55t-77.5 40.5t-167 37.5q-127 18 -214.5 53t-138 87t-72 115.5t-21.5 147.5q0 313 399 359l-16 213h288l-18 -213q359 -42 401 -330l-366 -69q-18 77 -56.5 111
t-122.5 34q-145 0 -145 -86q0 -22 6.5 -36t29 -30.5t73.5 -31t133 -27.5q117 -20 202.5 -52t137.5 -68.5t82.5 -85t41.5 -95.5t11 -107q0 -330 -430 -366z" />
    <glyph glyph-name="percent" unicode="%" horiz-adv-x="1589" 
d="M1178 -18q-173 0 -274 98t-101 270q0 170 101.5 268.5t273.5 98.5q174 0 275 -98.5t101 -268.5q0 -172 -101 -270t-275 -98zM416 516q-173 0 -274 98.5t-101 270.5q0 171 101 268.5t274 97.5q174 0 275.5 -97.5t101.5 -268.5q0 -172 -101.5 -270.5t-275.5 -98.5zM774 537
l-215 -535h-500v12l672 549zM829 694l213 535h500v-12l-672 -549zM416 737q49 0 79.5 38t30.5 110q0 74 -30 109.5t-80 35.5t-79.5 -35.5t-29.5 -109.5q0 -72 30 -110t79 -38zM1178 201q50 0 80 37t30 112q0 72 -30 109t-80 37q-49 0 -79 -37t-30 -109q0 -75 29.5 -112
t79.5 -37z" />
    <glyph glyph-name="ampersand" unicode="&#x26;" horiz-adv-x="1452" 
d="M1401 336l14 -336q-57 -14 -164 -14q-218 0 -436 131q-54 -66 -158 -101.5t-231 -35.5q-182 0 -296 87t-114 252q0 131 75 214t214 139q-61 131 -61 231q0 93 35.5 163.5t96.5 111t133 60t153 19.5q201 0 301 -76.5t100 -207.5q0 -64 -24.5 -115t-61 -83.5t-91.5 -58
t-104.5 -39t-111.5 -24.5q114 -145 260 -225q124 173 174 389l307 -45q-30 -138 -97.5 -240t-178.5 -186q75 -16 143 -16q76 0 123 6zM639 244q-175 152 -277 321q-40 -55 -40 -151q0 -82 50 -132.5t165 -50.5q58 0 102 13zM600 766q85 30 125.5 70t40.5 100q0 37 -26 60.5
t-70 23.5q-53 0 -79 -31.5t-26 -81.5q0 -63 35 -141z" />
    <glyph glyph-name="quotesingle" unicode="'" horiz-adv-x="417" 
d="M78 659l-47 570h356l-39 -570h-270z" />
    <glyph glyph-name="parenleft" unicode="(" horiz-adv-x="729" 
d="M426 520q0 -241 56.5 -433t205.5 -388l-231 -156q-387 372 -387 977q0 610 387 977l233 -156q-153 -187 -208.5 -382t-55.5 -439z" />
    <glyph glyph-name="parenright" unicode=")" horiz-adv-x="729" 
d="M305 520q0 240 -57.5 432t-206.5 389l231 156q390 -369 390 -977q0 -603 -390 -977l-231 156q152 189 208 384t56 437z" />
    <glyph glyph-name="asterisk" unicode="*" horiz-adv-x="1095" 
d="M428 862l-393 2l115 350l317 -229zM631 987l317 230l115 -351l-393 -2zM541 768l-123 -373l-297 217l317 232zM483 999l-121 373h369l-121 -373h-127zM664 844l317 -232l-299 -215l-119 373z" />
    <glyph glyph-name="plus" unicode="+" horiz-adv-x="1036" 
d="M692 143h-348v322h-303v313h303v320h348v-320h303v-313h-303v-322z" />
    <glyph glyph-name="comma" unicode="," horiz-adv-x="434" 
d="M-63 -248l124 592h351l-222 -604h-253v12z" />
    <glyph glyph-name="hyphen" unicode="-" horiz-adv-x="716" 
d="M31 344v318h655v-318h-655z" />
    <glyph glyph-name="period" unicode="." horiz-adv-x="417" 
d="M31 0v344h356v-344h-356z" />
    <glyph glyph-name="slash" unicode="/" horiz-adv-x="688" 
d="M702 1315l-335 -1624h-367l344 1624h358z" />
    <glyph glyph-name="zero" unicode="0" horiz-adv-x="1228" 
d="M625 1260q265 0 418 -162t153 -480q0 -321 -150.5 -485t-420.5 -164t-421 164.5t-151 484.5q0 160 42 283.5t118.5 201.5t180 117.5t231.5 39.5zM625 942q-105 0 -155 -79.5t-50 -244.5q0 -335 201 -335q107 0 157.5 84t50.5 251q0 165 -49.5 244.5t-154.5 79.5z" />
    <glyph glyph-name="one" unicode="1" horiz-adv-x="950" 
d="M70 0v307h274v582q-81 -45 -217 -94l-113 288l473 146h205v-922h211v-307h-833z" />
    <glyph glyph-name="two" unicode="2" horiz-adv-x="1200" 
d="M623 961q-183 0 -199 -222l-344 37q20 231 149.5 356t397.5 125q514 0 514 -430q0 -175 -137 -277.5t-381 -141.5q-141 -24 -198 -48.5t-69 -72.5q167 22 316 22h463v-309h-1090q-6 86 -6 178q0 141 43 232t129 144t233 87q151 37 223.5 67t92.5 57t20 75q0 56 -39 88.5
t-118 32.5z" />
    <glyph glyph-name="three" unicode="3" horiz-adv-x="1177" 
d="M598 -20q-260 0 -395.5 91.5t-153.5 297.5l357 37q5 -38 13.5 -60.5t29 -43.5t58.5 -30.5t97 -9.5q164 0 164 117q0 57 -34.5 83.5t-119.5 26.5h-206v244h208q73 0 102.5 23.5t29.5 83.5q0 66 -36 94.5t-116 28.5q-51 0 -85 -10t-52 -31t-26 -46t-11 -63l-340 27
q21 200 144 304.5t368 104.5q259 0 375 -82.5t116 -251.5q0 -121 -75 -190t-222 -96v-27q189 -17 264.5 -79.5t75.5 -192.5q0 -164 -128 -257t-402 -93z" />
    <glyph glyph-name="four" unicode="4" horiz-adv-x="1200" 
d="M680 0v258h-647v246l538 725h457v-690h135v-281h-135v-258h-348zM680 967l-21 6l-315 -441l12 -18q155 22 324 25v428z" />
    <glyph glyph-name="five" unicode="5" horiz-adv-x="1177" 
d="M590 260q99 0 138.5 33t39.5 94q0 133 -172 133q-123 0 -215 -63l-281 106v666h957v-332q-312 0 -639 29v-228q122 66 299 66q105 0 184.5 -29t128 -81.5t72.5 -120t24 -148.5q0 -208 -135 -306.5t-403 -98.5q-241 0 -373.5 79.5t-167.5 245.5l342 84q20 -59 65.5 -94
t135.5 -35z" />
    <glyph glyph-name="six" unicode="6" horiz-adv-x="1206" 
d="M399 526l27 -4q42 116 128 164.5t214 48.5q85 0 152.5 -18.5t119.5 -57t80.5 -105t28.5 -157.5q0 -205 -136 -313.5t-403 -108.5q-103 0 -186 19.5t-154 65.5t-118.5 119t-74 183.5t-26.5 255.5q0 132 33.5 244.5t100 201.5t177.5 140t256 51q134 0 226.5 -24.5
t149.5 -77t86 -124t40 -175.5l-350 -37q-13 74 -45 107.5t-111 33.5q-124 0 -169.5 -97t-45.5 -335zM616 532q-102 0 -144 -34t-42 -95q0 -135 188 -135q101 0 139 36.5t38 98.5q0 59 -38 94t-141 35z" />
    <glyph glyph-name="seven" unicode="7" horiz-adv-x="1077" 
d="M428 903h-401v326h1026v-326q-172 -183 -258 -404.5t-97 -498.5h-409q20 568 469 924q-206 -21 -330 -21z" />
    <glyph glyph-name="eight" unicode="8" horiz-adv-x="1193" 
d="M598 -25q-283 0 -414 93.5t-131 261.5q0 117 76 183.5t236 96.5v25q-135 31 -202 96t-67 184q0 170 119 255t383 85q260 0 380 -85t120 -255q0 -119 -67 -184t-202 -96v-27q160 -26 236 -93t76 -185q0 -168 -130.5 -261.5t-412.5 -93.5zM598 496q-103 0 -142.5 -27.5
t-39.5 -89.5q0 -117 182 -117q180 0 180 117q0 62 -39.5 89.5t-140.5 27.5zM598 963q-85 0 -121.5 -27t-36.5 -90t37 -91t121 -28q80 0 118 28.5t38 90.5t-37.5 89.5t-118.5 27.5z" />
    <glyph glyph-name="nine" unicode="9" horiz-adv-x="1187" 
d="M799 678l-25 4q-82 -219 -328 -219q-395 0 -395 356q0 211 134.5 323.5t394.5 112.5q106 0 190.5 -19.5t156.5 -66t120 -119.5t75 -184t27 -256q0 -132 -33.5 -244.5t-101 -201t-179 -139t-257.5 -50.5q-252 0 -374 89t-151 262l346 61q17 -62 60 -88.5t127 -26.5
q121 0 167 91t46 315zM588 666q180 0 180 151q0 66 -44.5 105t-137.5 39q-96 0 -138 -42t-42 -106q0 -63 45 -105t137 -42z" />
    <glyph glyph-name="colon" unicode=":" horiz-adv-x="464" 
d="M55 641v344h357v-344h-357zM55 0v344h357v-344h-357z" />
    <glyph glyph-name="semicolon" unicode=";" horiz-adv-x="499" 
d="M-23 -248l125 592h351l-222 -604h-254v12zM72 641v344h356v-344h-356z" />
    <glyph glyph-name="less" unicode="&#x3c;" horiz-adv-x="1044" 
d="M254 541v-31q32 -5 115.5 -18t124.5 -21l469 -80v-383l-912 334v365l912 340v-385l-469 -82q-36 -5 -119.5 -19t-120.5 -20z" />
    <glyph glyph-name="equal" unicode="=" horiz-adv-x="1077" 
d="M975 551v-272h-873v272h873zM975 961v-273h-873v273h873z" />
    <glyph glyph-name="greater" unicode="&#x3e;" horiz-adv-x="1044" 
d="M762 514v31q-28 5 -114 18t-128 21l-469 80v383l912 -334v-365l-912 -340v385l469 82q33 5 115.5 18.5t126.5 20.5z" />
    <glyph glyph-name="question" unicode="?" horiz-adv-x="1019" 
d="M743 559q-73 -26 -73 -88v-25h-330q-2 16 -2 50q0 92 39 142.5t141 98.5q68 33 95.5 60.5t27.5 72.5q0 91 -113 91q-84 0 -120.5 -49.5t-49.5 -147.5l-338 47q26 217 147 330.5t365 113.5q232 0 353 -88t121 -264q0 -64 -13.5 -114.5t-35 -84.5t-57 -62.5t-71 -46
t-86.5 -36.5zM324 0v344h356v-344h-356z" />
    <glyph glyph-name="at" unicode="@" horiz-adv-x="1734" 
d="M995 727h17l30 225h281l-66 -499q-12 -86 56 -86q50 0 85.5 82.5t35.5 252.5q0 406 -512 406q-114 0 -210.5 -34.5t-164.5 -95t-115.5 -142.5t-70.5 -176.5t-23 -198.5q0 -237 127.5 -341t376.5 -104q102 0 221.5 21.5t191.5 56.5h13v-231q-186 -92 -430 -92
q-191 0 -335.5 38t-249 119.5t-158.5 214.5t-54 316q0 145 36.5 278t112 248t183 200.5t259.5 134t331 48.5q192 0 338 -51t232.5 -140.5t129.5 -202.5t43 -247q0 -153 -35 -270.5t-96 -187.5t-138.5 -105t-168.5 -35q-289 0 -289 238v41h-21q-52 -140 -117.5 -209.5
t-158.5 -69.5q-107 0 -169 70.5t-62 214.5q0 150 39.5 277t121.5 208.5t191 81.5q94 0 137.5 -62.5t54.5 -191.5zM985 559l4 23q13 76 -13 118.5t-79 42.5q-74 0 -113 -81t-39 -193q0 -102 76 -102q58 0 104 60.5t60 131.5z" />
    <glyph glyph-name="A" unicode="A" horiz-adv-x="1249" 
d="M823 223h-411l-62 -223h-379l398 1229h512l397 -1229h-395zM641 913h-43q-51 -205 -70 -274l-43 -152h267l-41 152q-19 69 -70 274z" />
    <glyph glyph-name="B" unicode="B" horiz-adv-x="1204" 
d="M84 0v1229h563q252 0 367.5 -76t115.5 -238q0 -236 -268 -290v-21q176 -13 244 -72t68 -194q0 -338 -469 -338h-621zM453 481v-215h239q59 0 88 28t29 79q0 58 -26 83t-97 25h-233zM453 954v-229h188q74 0 106.5 27t32.5 90q0 60 -30 86t-103 26h-194z" />
    <glyph glyph-name="C" unicode="C" horiz-adv-x="1275" 
d="M655 -31q-289 0 -450.5 170.5t-161.5 478.5q0 305 168 473.5t455 168.5q248 0 392 -124.5t169 -363.5l-353 -65q-19 121 -69.5 177t-151.5 56q-126 0 -184.5 -90t-58.5 -232q0 -164 57.5 -249.5t183.5 -85.5q105 0 154.5 55.5t75.5 181.5l348 -57q-26 -238 -175.5 -366
t-398.5 -128z" />
    <glyph glyph-name="D" unicode="D" horiz-adv-x="1308" 
d="M631 0h-547v1229h557q324 0 475.5 -151t151.5 -445q0 -293 -169 -463t-468 -170zM453 928v-627h151q159 0 228 77.5t69 254.5q0 168 -68 231.5t-237 63.5h-143z" />
    <glyph glyph-name="E" unicode="E" horiz-adv-x="1134" 
d="M1063 0h-979v1229h979v-318h-610v-163h569v-261h-569v-170h610v-317z" />
    <glyph glyph-name="F" unicode="F" horiz-adv-x="1067" 
d="M453 336v-336h-369v1229h938v-338h-569v-240h528v-315h-528z" />
    <glyph glyph-name="G" unicode="G" horiz-adv-x="1312" 
d="M498 -23q-96 0 -178 39.5t-144.5 115t-98.5 195.5t-36 271q0 319 155.5 490.5t458.5 171.5q254 0 384.5 -98.5t166.5 -303.5l-346 -72q-21 79 -65 116.5t-142 37.5q-129 0 -185 -85t-56 -257q0 -160 57.5 -242t189.5 -82q226 0 226 168h-238v252h582v-694h-334v262h-31
q-89 -285 -366 -285zM885 442l2 -6v6h-2z" />
    <glyph glyph-name="H" unicode="H" horiz-adv-x="1314" 
d="M84 0v1229h369v-453h409v453h369v-1229h-369v446h-409v-446h-369z" />
    <glyph glyph-name="I" unicode="I" horiz-adv-x="536" 
d="M453 1229v-1229h-369v1229h369z" />
    <glyph glyph-name="J" unicode="J" horiz-adv-x="659" 
d="M207 403v826h368v-826q0 -187 -88 -303t-301 -116q-78 0 -172 16l17 311q58 -10 88 -10q43 0 65.5 28t22.5 74z" />
    <glyph glyph-name="K" unicode="K" horiz-adv-x="1210" 
d="M84 0v1229h369v-506h61l293 506h418v-23l-437 -600l439 -583v-23h-428l-279 430h-67v-430h-369z" />
    <glyph glyph-name="L" unicode="L" horiz-adv-x="987" 
d="M84 1229h369v-901h495v-328h-864v1229z" />
    <glyph glyph-name="M" unicode="M" horiz-adv-x="1712" 
d="M868 449h27q43 239 84 385l104 395h545v-1229h-368v451q0 131 14 481h-27q-50 -239 -141 -549l-98 -324h-332l-94 334q-86 300 -138 539h-26q4 -308 4 -481v-451h-338v1229h590l110 -410q59 -250 84 -370z" />
    <glyph glyph-name="N" unicode="N" horiz-adv-x="1347" 
d="M1264 0h-486l-176 399q-49 110 -182 498l-25 -2q27 -314 27 -584v-311h-338v1229h516l148 -328q92 -208 178 -510l24 4q-24 305 -24 510v324h338v-1229z" />
    <glyph glyph-name="O" unicode="O" horiz-adv-x="1343" 
d="M672 -31q-299 0 -464 172.5t-165 476.5q0 301 170 471.5t459 170.5q293 0 460.5 -169.5t167.5 -472.5q0 -304 -164.5 -476.5t-463.5 -172.5zM670 283q141 0 202.5 85t61.5 253q0 319 -262 319t-262 -319q0 -166 61.5 -252t198.5 -86z" />
    <glyph glyph-name="P" unicode="P" horiz-adv-x="1155" 
d="M635 305h-182v-305h-369v1229h537q514 0 514 -465q0 -94 -34 -176.5t-96 -145.5t-158 -100t-212 -37zM590 920h-137v-316h141q95 0 135.5 38.5t40.5 119.5q0 80 -42 119t-138 39z" />
    <glyph glyph-name="Q" unicode="Q" horiz-adv-x="1345" 
d="M1096 104l184 -266v-22h-393l-96 161q-52 -8 -119 -8q-299 0 -464 172.5t-165 476.5q0 301 170 471.5t459 170.5q293 0 460.5 -169.5t167.5 -472.5q0 -346 -204 -514zM670 283q141 0 202.5 85t61.5 253q0 319 -262 319t-262 -319q0 -166 61.5 -252t198.5 -86z" />
    <glyph glyph-name="R" unicode="R" horiz-adv-x="1230" 
d="M588 379h-135v-379h-369v1229h565q246 0 375 -107t129 -325q0 -263 -211 -363l283 -411v-23h-428zM623 922h-170v-275h176q89 0 124 31.5t35 105.5q0 73 -39 105.5t-126 32.5z" />
    <glyph glyph-name="S" unicode="S" horiz-adv-x="1196" 
d="M606 -31q-123 0 -219 21t-157.5 55.5t-103 85t-61 102.5t-26.5 115l350 76q37 -164 234 -164q153 0 153 78q0 34 -19.5 55t-77.5 40.5t-167 37.5q-127 18 -214.5 53t-138 87t-72 115.5t-21.5 147.5q0 188 132 287t398 99q473 0 524 -357l-366 -69q-18 77 -56.5 111
t-122.5 34q-145 0 -145 -86q0 -22 6.5 -36t29 -30.5t73.5 -31t133 -27.5q117 -20 202.5 -52t137.5 -68.5t82.5 -85t41.5 -95.5t11 -107q0 -391 -541 -391z" />
    <glyph glyph-name="T" unicode="T" horiz-adv-x="1064" 
d="M348 891h-323v338h1015v-338h-323v-891h-369v891z" />
    <glyph glyph-name="U" unicode="U" horiz-adv-x="1300" 
d="M651 295q112 0 155.5 54t43.5 165v715h369v-746q0 -247 -146.5 -379.5t-421.5 -132.5q-276 0 -421.5 132.5t-145.5 379.5v746h369v-715q0 -111 43.5 -165t154.5 -54z" />
    <glyph glyph-name="V" unicode="V" horiz-adv-x="1239" 
d="M606 317h37q55 214 72 273l174 639h379l-398 -1229h-501l-398 1229h396l170 -639q15 -54 39 -152.5t30 -120.5z" />
    <glyph glyph-name="W" unicode="W" horiz-adv-x="1775" 
d="M893 934h-29q-18 -176 -47 -412l-61 -522h-502l-283 1229h396l82 -488q39 -234 61 -428h29q27 244 57 428l80 488h463l75 -488q22 -131 54 -428h30q6 54 62 428l70 488h374l-274 -1229h-531l-65 522q-28 226 -41 412z" />
    <glyph glyph-name="X" unicode="X" horiz-adv-x="1173" 
d="M0 1229h410l190 -432h21l163 432h390v-23l-330 -618l336 -565v-23h-412l-184 449h-19l-182 -449h-387v23l336 616l-332 567v23z" />
    <glyph glyph-name="Y" unicode="Y" horiz-adv-x="1146" 
d="M758 375v-375h-369v375l-428 831v23h410l186 -541h35l196 541h398v-23z" />
    <glyph glyph-name="Z" unicode="Z" horiz-adv-x="1212" 
d="M836 336h305v-336h-1075v328l591 571l-10 21q-226 -27 -321 -27h-244v336h1048v-328l-600 -579l7 -15q205 29 299 29z" />
    <glyph glyph-name="bracketleft" unicode="[" horiz-adv-x="677" 
d="M651 -389h-219h-348v1810h567v-293h-219v-1224h219v-293z" />
    <glyph glyph-name="backslash" unicode="\" horiz-adv-x="688" 
d="M707 -309h-367l-336 1624h358z" />
    <glyph glyph-name="bracketright" unicode="]" horiz-adv-x="677" 
d="M594 -389h-127h-440v293h219v1224h-219v293h567v-1810z" />
    <glyph glyph-name="asciicircum" unicode="^" horiz-adv-x="997" 
d="M809 496l-309 282l-312 -282l-157 147l389 481h158l389 -481z" />
    <glyph glyph-name="underscore" unicode="_" horiz-adv-x="942" 
d="M0 -279v279h942v-279h-942z" />
    <glyph glyph-name="grave" unicode="`" horiz-adv-x="692" 
d="M651 1206l-86 -166l-524 213l121 234z" />
    <glyph glyph-name="a" unicode="a" horiz-adv-x="1044" 
d="M305 -20q-121 0 -198.5 71t-77.5 211q0 137 89 214t283 77h217v68q0 114 -108 114q-99 0 -117 -104l-325 71q24 137 135 221.5t321 84.5q229 0 335 -99t106 -291v-618h-328v233h-29q-83 -253 -303 -253zM618 385v37h-143q-52 0 -85.5 -25.5t-33.5 -66.5q0 -90 113 -90
q67 0 108 40.5t41 104.5z" />
    <glyph glyph-name="b" unicode="b" 
d="M1051 489q0 -253 -82 -386.5t-230 -133.5q-106 0 -181 74.5t-114 208.5h-16v-252h-348v1315h348v-576h18q41 131 118 201t181 70q147 0 226.5 -135t79.5 -386zM428 522v-78q0 -78 38 -124t101 -46q77 0 111.5 52.5t34.5 160.5q0 209 -146 209q-65 0 -102 -47t-37 -127z
" />
    <glyph glyph-name="c" unicode="c" horiz-adv-x="1058" 
d="M1010 621l-320 -58q-21 72 -50.5 108t-92.5 36q-150 0 -150 -213q0 -224 154 -224q115 0 141 152l318 -74q-21 -180 -134 -279.5t-323 -99.5q-240 0 -376 126t-136 376q0 257 134 398t378 141q219 0 325 -97.5t132 -291.5z" />
    <glyph glyph-name="d" unicode="d" 
d="M43 481q0 257 80.5 393t230.5 136q204 0 293 -271h19v576h348v-1315h-348v252h-19q-39 -134 -115 -208.5t-184 -74.5q-144 0 -224.5 131.5t-80.5 380.5zM666 440v78q0 81 -38.5 129.5t-101.5 48.5q-77 0 -111 -52t-34 -163q0 -106 34 -156.5t111 -50.5q62 0 101 45.5
t39 120.5z" />
    <glyph glyph-name="e" unicode="e" horiz-adv-x="1048" 
d="M547 -31q-111 0 -202 30t-159.5 89t-106.5 154t-38 219q0 261 133 405t379 144q225 0 336.5 -119t111.5 -328q0 -84 -6 -135h-612q7 -100 46.5 -141t119.5 -41q71 0 102 25.5t47 74.5l291 -78q-18 -66 -47 -116t-78.5 -93.5t-129.5 -66.5t-187 -23zM383 561h301v10
q0 183 -141 183q-76 0 -114.5 -44.5t-45.5 -148.5z" />
    <glyph glyph-name="f" unicode="f" horiz-adv-x="696" 
d="M492 1006v-27h188v-270h-188v-709h-349v709h-118v270h118v37q0 154 93 246t278 92q85 0 176 -17l-12 -233q-46 6 -88 6q-98 0 -98 -104z" />
    <glyph glyph-name="g" unicode="g" horiz-adv-x="1038" 
d="M211 301l70 31q-234 73 -234 307q0 161 121 250.5t340 89.5h510v-254h-100q-109 0 -183 6v-20q48 -10 81.5 -21t65.5 -28.5t48 -44.5t16 -62q0 -114 -118 -183t-322 -69q-95 0 -164 14l-6 -14q-12 -27 -12 -47q0 -24 15.5 -32.5t61.5 -8.5q53 0 157.5 3t152.5 3
q167 0 247 -69.5t80 -196.5q0 -111 -51.5 -180.5t-174.5 -106.5t-325 -37q-138 0 -233.5 13.5t-149 39.5t-76 59.5t-22.5 78.5q0 63 66.5 108.5t171.5 67.5v12q-172 18 -172 140q0 46 35 86t104 65zM506 723q-152 0 -152 -100q0 -43 34.5 -72t117.5 -29q81 0 116 29t35 72
q0 45 -37 72.5t-114 27.5zM692 6h-321q-49 0 -80 -17.5t-31 -47.5q0 -28 18 -42.5t73.5 -23t162.5 -8.5q104 0 162 9t79 25.5t21 45.5q0 59 -84 59z" />
    <glyph glyph-name="h" unicode="h" horiz-adv-x="1087" 
d="M428 1315v-600h14q94 295 318 295q122 0 188 -88t66 -248v-674h-348v573q0 57 -28 90t-79 33q-60 0 -95.5 -44.5t-35.5 -114.5v-537h-348v1315h348z" />
    <glyph glyph-name="i" unicode="i" horiz-adv-x="507" 
d="M428 979v-979h-348v979h348zM428 1315v-232h-348v232h348z" />
    <glyph glyph-name="j" unicode="j" horiz-adv-x="524" 
d="M444 979v-887q0 -204 -90.5 -312t-300.5 -108q-37 0 -90 9l14 296q30 -6 58 -6q61 0 61 72v936h348zM444 1315v-232h-348v232h348z" />
    <glyph glyph-name="k" unicode="k" horiz-adv-x="1060" 
d="M80 1315h348v-694h55l189 358h395v-23l-307 -452l317 -481v-23h-395l-209 373h-45v-373h-348v1315z" />
    <glyph glyph-name="l" unicode="l" horiz-adv-x="507" 
d="M80 1315h348v-1315h-348v1315z" />
    <glyph glyph-name="m" unicode="m" horiz-adv-x="1677" 
d="M418 979v-264h22q42 146 123 220.5t189 74.5q236 0 249 -295h25q42 147 121 221t186 74q130 0 198 -87.5t68 -248.5v-674h-348v573q0 58 -27.5 90.5t-78.5 32.5q-60 0 -95.5 -44.5t-35.5 -114.5v-537h-348v573q0 57 -28 90t-79 33q-60 0 -95.5 -44.5t-35.5 -114.5v-537
h-348v979h338z" />
    <glyph glyph-name="n" unicode="n" horiz-adv-x="1087" 
d="M418 979v-264h22q42 147 123.5 221t192.5 74q124 0 191 -88t67 -248v-674h-348v573q0 57 -28 90t-79 33q-60 0 -95.5 -44.5t-35.5 -114.5v-537h-348v979h338z" />
    <glyph glyph-name="o" unicode="o" horiz-adv-x="1110" 
d="M557 -31q-242 0 -379 138t-137 382q0 245 137 383t379 138q239 0 375.5 -138t136.5 -383q0 -244 -137 -382t-375 -138zM555 721q-89 0 -127.5 -57.5t-38.5 -174.5q0 -116 38 -171.5t128 -55.5t129 55.5t39 171.5t-39 174t-129 58z" />
    <glyph glyph-name="p" unicode="p" 
d="M1051 489q0 -253 -82 -386.5t-230 -133.5q-106 0 -181 74.5t-114 208.5h-16v-561h-348v1288h348v-240h18q41 131 118 201t181 70q147 0 226.5 -135t79.5 -386zM428 522v-78q0 -78 38 -124t101 -46q77 0 111.5 52.5t34.5 160.5q0 209 -146 209q-65 0 -102 -47t-37 -127z
" />
    <glyph glyph-name="q" unicode="q" 
d="M43 481q0 257 80.5 393t230.5 136q204 0 293 -271h19v240h348v-1288h-348v561h-19q-39 -134 -115 -208.5t-184 -74.5q-144 0 -224.5 131.5t-80.5 380.5zM666 440v78q0 81 -38.5 129.5t-101.5 48.5q-77 0 -111 -52t-34 -163q0 -106 34 -156.5t111 -50.5q62 0 101 45.5
t39 120.5z" />
    <glyph glyph-name="r" unicode="r" horiz-adv-x="745" 
d="M408 979v-344l28 -2q26 116 52.5 188t58.5 108.5t63.5 48t79.5 11.5h25v-401h-66q-95 0 -141.5 -17t-63 -53.5t-16.5 -111.5v-406h-348v979h328z" />
    <glyph glyph-name="s" unicode="s" horiz-adv-x="976" 
d="M498 -31q-103 0 -181.5 16t-128.5 42t-83.5 65.5t-49.5 82t-22 95.5l309 64q32 -127 164 -127q97 0 100 61q0 31 -36.5 54t-149.5 49q-208 49 -287.5 121t-79.5 206q0 152 109 232t327 80q111 0 190 -19.5t127 -58.5t73.5 -87.5t38.5 -115.5l-308 -63q-11 61 -39 86.5
t-90 25.5q-100 0 -100 -59q0 -23 8.5 -37t48.5 -32t119 -36q118 -26 196 -59.5t117.5 -77t54.5 -88t15 -104.5q0 -316 -442 -316z" />
    <glyph glyph-name="t" unicode="t" horiz-adv-x="751" 
d="M25 709v270h100v240h348v-240h223v-270h-223v-328q0 -44 19.5 -64t68.5 -20q41 0 115 22l37 -311q-49 -15 -74.5 -21.5t-69.5 -12t-102 -5.5q-89 0 -156 28t-107 77t-59.5 110t-19.5 133v392h-100z" />
    <glyph glyph-name="u" unicode="u" 
d="M674 0v266h-23q-42 -149 -123 -223t-190 -74q-127 0 -193.5 87.5t-66.5 248.5v674h348v-571q0 -60 27.5 -92.5t78.5 -32.5q61 0 96.5 44t35.5 117v535h348v-979h-338z" />
    <glyph glyph-name="v" unicode="v" horiz-adv-x="1015" 
d="M1040 979l-295 -979h-473l-295 979h377l84 -389q9 -46 29.5 -138t28.5 -139h30q22 110 62 277l86 389h366z" />
    <glyph glyph-name="w" unicode="w" horiz-adv-x="1544" 
d="M598 979h385l66 -389q17 -112 43 -320h30q7 53 24 158.5t25 161.5l58 389h340l-248 -979h-455l-57 416q-21 137 -33 295h-26q-6 -57 -18 -161.5t-15 -133.5l-49 -416h-443l-248 979h359l72 -389q31 -150 53 -320h28q13 146 43 320z" />
    <glyph glyph-name="x" unicode="x" horiz-adv-x="1044" 
d="M4 979h404l114 -348h29l100 348h371v-23l-229 -493l243 -440v-23h-403l-113 354h-31l-98 -354h-391v23l246 495l-242 438v23z" />
    <glyph glyph-name="y" unicode="y" horiz-adv-x="1017" 
d="M342 14l-334 965h379l80 -367q7 -33 26 -126.5t29 -145.5h23q9 50 26.5 139t24.5 127l70 373h374l-366 -973q-67 -177 -179 -255.5t-311 -78.5q-49 0 -166 17l45 278q72 -14 127 -14q64 0 98 13t54 48z" />
    <glyph glyph-name="z" unicode="z" horiz-adv-x="1042" 
d="M715 287h252v-287h-901v297l499 408l-8 14q-201 -27 -287 -27h-188v287h881v-295l-502 -414l4 -10q177 27 250 27z" />
    <glyph glyph-name="braceleft" unicode="{" horiz-adv-x="778" 
d="M342 547v-31q160 -12 224.5 -58.5t64.5 -140.5q0 -71 -28.5 -135.5t-56.5 -113.5t-28 -82q0 -70 121 -70q61 0 98 2v-289q-153 -6 -207 -6q-393 0 -393 246q0 52 17 99.5t41.5 84t49 71.5t41.5 77t17 86q0 47 -25.5 69.5t-93.5 22.5h-147v295h145q144 0 144 114
q0 46 -19.5 89.5t-47.5 79.5t-55.5 74t-47 87t-19.5 103q0 121 95 183t298 62q156 0 207 -6v-286q-18 0 -50.5 1t-47.5 1q-121 0 -121 -70q0 -35 28 -84.5t56.5 -113t28.5 -132.5q0 -100 -70.5 -156t-218.5 -73z" />
    <glyph glyph-name="bar" unicode="|" horiz-adv-x="516" 
d="M432 1419v-1779h-348v1779h348z" />
    <glyph glyph-name="braceright" unicode="}" horiz-adv-x="778" 
d="M438 541v30q-161 12 -226 58.5t-65 140.5q0 56 17.5 109.5t39 87t39 71t17.5 66.5q0 70 -121 70q-6 0 -98 -5v289q55 6 207 6q203 0 298 -62t95 -183q0 -52 -17 -99.5t-41 -84t-48 -71.5t-41 -77t-17 -86q0 -47 25.5 -69.5t91.5 -22.5h147v-293h-145q-141 0 -141 -117
q0 -46 19 -89t46.5 -79.5t55 -74t46.5 -86.5t19 -103q0 -246 -393 -246q-42 0 -207 6v289q39 -2 98 -2q121 0 121 70q0 27 -17.5 64.5t-39 71t-39 86t-17.5 105.5q0 100 71 156.5t220 73.5z" />
    <glyph glyph-name="asciitilde" unicode="~" horiz-adv-x="1011" 
d="M698 532q-67 0 -121 24.5t-86.5 59.5t-59 70t-51 59.5t-48.5 24.5q-50 0 -68 -52.5t-12 -164.5h-184q-9 83 -9 147q0 194 57.5 288.5t184.5 94.5q66 0 119.5 -24.5t87 -59.5t60.5 -69.5t52 -59t48 -24.5q50 0 68 52.5t12 164.5h184q8 -68 8 -148q0 -194 -57.5 -288.5
t-184.5 -94.5z" />
    <glyph glyph-name="uni00A0" unicode="&#xa0;" horiz-adv-x="358" 
 />
    <glyph glyph-name="exclamdown" unicode="&#xa1;" horiz-adv-x="524" 
d="M88 -250v764h348v-764h-348zM440 979v-342h-356v342h356z" />
    <glyph glyph-name="cent" unicode="&#xa2;" horiz-adv-x="1058" 
d="M670 -2l20 -252h-289l21 254q-182 30 -281.5 148.5t-99.5 322.5q0 211 99.5 342.5t283.5 163.5l-23 264h289l-20 -260q159 -24 239 -114t101 -246l-320 -58q-21 72 -49.5 108t-89.5 36q-154 0 -154 -213q0 -104 38 -164t116 -60q115 0 141 152l318 -74
q-35 -303 -340 -350z" />
    <glyph glyph-name="sterling" unicode="&#xa3;" horiz-adv-x="1165" 
d="M1102 0h-1071v299h182q10 48 10 82q0 15 -4 51h-188v252h116q-32 112 -32 203q0 169 125.5 265.5t367.5 96.5q107 0 189.5 -21.5t133.5 -56t86 -86.5t51.5 -102.5t25.5 -114.5l-314 -73q-20 85 -55.5 120t-116.5 35q-151 0 -151 -135q0 -25 18 -131h469v-252h-455
q-11 -68 -79 -133h692v-299z" />
    <glyph glyph-name="yen" unicode="&#xa5;" horiz-adv-x="1255" 
d="M1182 463v-215h-369v-248h-369v248h-368v215h321l-57 112h-264v228h147l-207 403v23h408l188 -541h33l197 541h399v-23l-209 -403h150v-228h-267l-57 -112h324z" />
    <glyph glyph-name="brokenbar" unicode="&#xa6;" horiz-adv-x="516" 
d="M432 428v-788h-348v788h348zM432 1419v-788h-348v788h348z" />
    <glyph glyph-name="section" unicode="&#xa7;" horiz-adv-x="1294" 
d="M195 717q-56 67 -56 186q0 174 124.5 265.5t369.5 91.5q119 0 206 -16.5t144 -46t94.5 -78t56 -104t29.5 -132.5l-354 -58q-14 97 -55.5 136.5t-132.5 39.5q-142 0 -142 -88q0 -18 3.5 -29.5t21 -28t50 -29.5t94 -28.5t149.5 -29.5q117 -18 201.5 -43t137.5 -55t84 -69.5
t42.5 -81t11.5 -95.5q0 -160 -127 -252q57 -69 57 -199q0 -175 -135.5 -261.5t-417.5 -86.5q-124 0 -219.5 19t-157 50.5t-104.5 80t-64.5 100t-33.5 117.5l348 82q12 -40 29 -69.5t46.5 -57t77.5 -42t113 -14.5q172 0 172 78q0 30 -18.5 49t-83 39.5t-191.5 42.5
q-209 39 -328 88.5t-168 113t-49 157.5q0 157 175 258zM295 559q0 -32 12.5 -54.5t52.5 -48t123.5 -49t216.5 -47.5q200 -36 310 -90q8 24 8 58q0 57 -29.5 88.5t-121 62t-292.5 72.5q-177 35 -266 80q-14 -38 -14 -72z" />
    <glyph glyph-name="dieresis" unicode="&#xa8;" horiz-adv-x="743" 
d="M59 1135v270h283v-270h-283zM401 1135v270h281v-270h-281z" />
    <glyph glyph-name="copyright" unicode="&#xa9;" horiz-adv-x="1851" 
d="M926 1481q218 0 384.5 -62t272 -177t158.5 -272.5t53 -353.5q0 -156 -32.5 -288.5t-101.5 -240t-170.5 -182.5t-244.5 -116t-319 -41q-218 0 -385.5 62.5t-272.5 178.5t-158 273.5t-53 353.5q0 156 33.5 288t103 239t171.5 182t244.5 115.5t316.5 40.5zM926 6
q157 0 272 43.5t184 125.5t101.5 191t32.5 250q0 289 -142.5 448t-447.5 159q-154 0 -268 -42.5t-184 -123t-104 -190.5t-34 -251t32.5 -250t101.5 -191t184 -125.5t272 -43.5zM1337 717l-282 -37q-14 64 -40 96.5t-81 32.5q-133 0 -133 -184q0 -195 133 -195q58 0 85.5 35
t35.5 100l286 -39q-14 -181 -107 -268.5t-300 -87.5q-209 0 -327 109t-118 325q0 222 117 344.5t330 122.5q104 0 178 -24.5t119.5 -73t69.5 -110.5t34 -146z" />
    <glyph glyph-name="ordfeminine" unicode="&#xaa;" horiz-adv-x="841" 
d="M502 821h-19q-69 -170 -229 -170q-98 0 -159.5 47t-61.5 152q0 90 67 148.5t207 58.5h180v45q0 86 -71 86q-66 0 -78 -78l-272 55q19 104 106.5 166t255.5 62q186 0 270 -74.5t84 -224.5v-426h-280v153zM487 924v47h-79q-46 0 -75.5 -21t-29.5 -57q0 -70 84 -70
q46 0 73 28.5t27 72.5z" />
    <glyph glyph-name="guillemotleft" unicode="&#xab;" horiz-adv-x="1341" 
d="M760 967l-371 -439l371 -436v-29h-336l-399 455v21l399 454h336v-26zM1333 967l-370 -439l370 -436v-29h-336l-399 455v21l399 454h336v-26z" />
    <glyph glyph-name="uni00AD" unicode="&#xad;" horiz-adv-x="0" 
 />
    <glyph glyph-name="registered" unicode="&#xae;" horiz-adv-x="1851" 
d="M926 -252q-218 0 -385.5 62.5t-272.5 178.5t-158 273.5t-53 353.5q0 156 33.5 288t103 239t171.5 182t244.5 115.5t316.5 40.5q218 0 384.5 -62t272 -177t158.5 -272.5t53 -353.5q0 -156 -32.5 -288.5t-101.5 -240t-170.5 -182.5t-244.5 -116t-319 -41zM926 6
q157 0 272 43.5t184 125.5t101.5 191t32.5 250q0 289 -142.5 448t-447.5 159q-154 0 -268 -42.5t-184 -123t-104 -190.5t-34 -251t32.5 -250t101.5 -191t184 -125.5t272 -43.5zM1184 483l172 -247v-23h-316l-127 229h-94v-229h-289v815h435q362 0 362 -299q0 -178 -143 -246
zM819 805v-170h117q56 0 81 20.5t25 63.5q0 46 -26.5 66t-83.5 20h-113z" />
    <glyph glyph-name="macron" unicode="&#xaf;" horiz-adv-x="636" 
d="M41 1130v228h555v-228h-555z" />
    <glyph glyph-name="degree" unicode="&#xb0;" horiz-adv-x="745" 
d="M373 602q-152 0 -242 88t-90 236t90 235.5t242 87.5t242 -87.5t90 -235.5t-90 -236t-242 -88zM373 805q57 0 86.5 33.5t29.5 87.5q0 56 -29 88.5t-87 32.5t-87.5 -32.5t-29.5 -88.5q0 -54 29.5 -87.5t87.5 -33.5z" />
    <glyph glyph-name="twosuperior" unicode="&#xb2;" horiz-adv-x="761" 
d="M389 1204q-92 0 -102 -114l-236 28q27 273 342 273q320 0 320 -244q0 -105 -70.5 -153t-241.5 -74q-78 -12 -110.5 -27.5t-38.5 -42.5q101 16 178 16h285v-211h-684q0 16 -1 50.5t-1 52.5q0 120 56.5 186.5t207.5 97.5q109 23 141.5 44.5t32.5 56.5q0 61 -78 61z" />
    <glyph glyph-name="threesuperior" unicode="&#xb3;" horiz-adv-x="735" 
d="M498 1030v-24q109 -12 152.5 -49t43.5 -109q0 -97 -83.5 -152t-250.5 -55q-164 0 -246 56t-94 173l232 37q7 -41 30 -61.5t80 -20.5q89 0 89 60q0 28 -18.5 41.5t-63.5 13.5h-95v150h95q42 0 58.5 13.5t16.5 41.5q0 59 -84 59q-55 0 -76 -19t-30 -61l-221 43
q41 222 325 222q320 0 320 -199q0 -68 -43.5 -107.5t-136.5 -52.5z" />
    <glyph glyph-name="acute" unicode="&#xb4;" horiz-adv-x="692" 
d="M651 1253l-524 -213l-86 166l489 281z" />
    <glyph glyph-name="paragraph" unicode="&#xb6;" horiz-adv-x="1470" 
d="M643 -309v524h-74q-252 0 -392 128t-140 362q0 269 138 396.5t394 127.5h396v-1538h-322zM1386 1229v-1538h-321v1538h321z" />
    <glyph glyph-name="periodcentered" unicode="&#xb7;" horiz-adv-x="454" 
d="M49 328v344h357v-344h-357z" />
    <glyph glyph-name="cedilla" unicode="&#xb8;" horiz-adv-x="464" 
d="M252 -344q-129 0 -209 55l59 96q68 -43 150 -43q59 0 59 43q0 46 -63 46q-36 0 -70 -15l-80 33l66 184l123 -2l-54 -139q33 10 66 10q147 0 147 -129q0 -53 -45.5 -96t-148.5 -43z" />
    <glyph glyph-name="onesuperior" unicode="&#xb9;" horiz-adv-x="598" 
d="M41 655v207h168v299q-80 -46 -131 -63l-72 184l268 90h175v-510h133v-207h-541z" />
    <glyph glyph-name="ordmasculine" unicode="&#xba;" horiz-adv-x="817" 
d="M416 657q-177 0 -276 98t-99 271q0 172 99 269.5t276 97.5q171 0 270.5 -98t99.5 -269q0 -172 -99.5 -270.5t-270.5 -98.5zM414 1188q-65 0 -93 -40.5t-28 -121.5q0 -82 28 -122t93 -40t93 40t28 122q0 81 -28 121.5t-93 40.5z" />
    <glyph glyph-name="guillemotright" unicode="&#xbb;" horiz-adv-x="1341" 
d="M10 92l369 436l-369 439v26h334l401 -454v-21l-401 -455h-334v29zM584 92l368 436l-368 439v26h334l401 -454v-21l-401 -455h-334v29z" />
    <glyph glyph-name="onequarter" unicode="&#xbc;" horiz-adv-x="1501" 
d="M41 655v207h168v299q-80 -46 -131 -63l-72 184l268 90h175v-510h133v-207h-541zM674 537l-215 -535h-500v12l672 549zM729 694l213 535h500v-12l-672 -549zM1100 -143v147h-387v154l313 415h307v-393h76v-176h-76v-147h-233zM1100 422l-8 2l-185 -252l4 -6q86 10 189 14
v242z" />
    <glyph glyph-name="onehalf" unicode="&#xbd;" horiz-adv-x="1464" 
d="M41 655v207h168v299q-80 -46 -131 -63l-72 184l268 90h175v-510h133v-207h-541zM637 537l-215 -535h-500v12l672 549zM692 694l213 535h500v-12l-672 -549zM1051 406q-93 0 -103 -115l-235 28q27 273 342 273q319 0 319 -244q0 -105 -70 -153t-241 -74
q-78 -12 -111 -27.5t-39 -42.5q107 17 179 17h284v-211h-684q0 16 -1 50t-1 52q0 120 56.5 187t207.5 98q75 16 114 32t49.5 30.5t10.5 37.5q0 62 -77 62z" />
    <glyph glyph-name="threequarters" unicode="&#xbe;" horiz-adv-x="1546" 
d="M719 537l-215 -535h-500v12l672 549zM774 694l213 535h500v-12l-672 -549zM1133 -143v147h-388v154l314 415h307v-393h76v-176h-76v-147h-233zM1133 422l-9 2l-184 -252l4 -6q86 10 189 14v242zM498 1030v-24q109 -12 152.5 -49t43.5 -109q0 -97 -83.5 -152t-250.5 -55
q-164 0 -246 56t-94 173l232 37q7 -41 30 -61.5t80 -20.5q89 0 89 60q0 28 -18.5 41.5t-63.5 13.5h-95v150h95q42 0 58.5 13.5t16.5 41.5q0 59 -84 59q-55 0 -76 -19t-30 -61l-221 43q41 222 325 222q320 0 320 -199q0 -68 -43.5 -107.5t-136.5 -52.5z" />
    <glyph glyph-name="questiondown" unicode="&#xbf;" horiz-adv-x="1019" 
d="M283 420q71 26 71 90v25h330q2 -18 2 -50q0 -94 -38.5 -144t-139.5 -99q-70 -32 -97.5 -60t-27.5 -73q0 -89 115 -89q82 0 118.5 48.5t49.5 148.5l338 -49q-26 -217 -146.5 -329.5t-363.5 -112.5q-476 0 -476 352q0 78 18.5 135t57 96t81.5 63t108 48zM700 979v-342h-356
v342h356z" />
    <glyph glyph-name="Agrave" unicode="&#xc0;" horiz-adv-x="1249" 
d="M823 223h-411l-62 -223h-379l398 1229h512l397 -1229h-395zM641 913h-43q-51 -205 -70 -274l-43 -152h267l-41 152q-19 69 -70 274zM846 1491l-55 -174l-553 129l77 246z" />
    <glyph glyph-name="Aacute" unicode="&#xc1;" horiz-adv-x="1249" 
d="M823 223h-411l-62 -223h-379l398 1229h512l397 -1229h-395zM641 913h-43q-51 -205 -70 -274l-43 -152h267l-41 152q-19 69 -70 274zM1004 1446l-553 -129l-56 174l531 201z" />
    <glyph glyph-name="Acircumflex" unicode="&#xc2;" horiz-adv-x="1249" 
d="M823 223h-411l-62 -223h-379l398 1229h512l397 -1229h-395zM641 913h-43q-51 -205 -70 -274l-43 -152h267l-41 152q-19 69 -70 274zM864 1298l-237 148l-238 -148l-100 119l289 271h100l287 -271z" />
    <glyph glyph-name="Atilde" unicode="&#xc3;" horiz-adv-x="1249" 
d="M823 223h-411l-62 -223h-379l398 1229h512l397 -1229h-395zM641 913h-43q-51 -205 -70 -274l-43 -152h267l-41 152q-19 69 -70 274zM481 1696q42 0 78 -16t59.5 -38.5t43.5 -45t40 -38.5t39 -16q39 0 52.5 33.5t13.5 107.5h139q6 -52 6 -96q0 -137 -48 -204.5t-136 -67.5
q-38 0 -70.5 16t-55.5 38.5t-43 44.5t-43 38t-46 16q-36 0 -50 -32t-14 -109h-139q-6 50 -6 94q0 133 49 204t131 71z" />
    <glyph glyph-name="Adieresis" unicode="&#xc4;" horiz-adv-x="1249" 
d="M823 223h-411l-62 -223h-379l398 1229h512l397 -1229h-395zM641 913h-43q-51 -205 -70 -274l-43 -152h267l-41 152q-19 69 -70 274zM307 1337v271h283v-271h-283zM649 1337v271h281v-271h-281z" />
    <glyph glyph-name="Aring" unicode="&#xc5;" horiz-adv-x="1249" 
d="M823 223h-411l-62 -223h-379l398 1229h512l397 -1229h-395zM641 913h-43q-51 -205 -70 -274l-43 -152h267l-41 152q-19 69 -70 274zM870 1540q0 -105 -65.5 -168t-179.5 -63q-112 0 -179 62.5t-67 166.5q0 105 67 168t179 63q115 0 180 -62t65 -167zM535 1538
q0 -37 24.5 -59.5t65.5 -22.5t65.5 23t24.5 61q0 37 -24.5 60.5t-65.5 23.5t-65.5 -23.5t-24.5 -62.5z" />
    <glyph glyph-name="AE" unicode="&#xc6;" horiz-adv-x="1804" 
d="M487 1229h267h979v-318h-611v-163h570v-261h-570v-170h611v-317h-979v231h-310l-86 -231h-381v12zM754 500v430h-62q-10 -32 -28.5 -91t-34 -107.5t-31.5 -92.5l-53 -139h209z" />
    <glyph glyph-name="Ccedilla" unicode="&#xc7;" horiz-adv-x="1275" 
d="M655 -31h-2l-22 -55q38 10 65 10q150 0 150 -129q0 -53 -47 -96t-150 -43q-123 0 -209 55l62 96q65 -43 147 -43q62 0 62 43q0 46 -64 46q-38 0 -72 -15l-79 33l39 106q-235 36 -363.5 201t-128.5 440q0 305 168 473.5t455 168.5q248 0 392 -124.5t169 -363.5l-353 -65
q-19 121 -69.5 177t-151.5 56q-126 0 -184.5 -90t-58.5 -232q0 -164 57.5 -249.5t183.5 -85.5q105 0 154.5 55.5t75.5 181.5l348 -57q-26 -238 -175.5 -366t-398.5 -128z" />
    <glyph glyph-name="Egrave" unicode="&#xc8;" horiz-adv-x="1134" 
d="M1063 0h-610h-369v1229h979v-318h-610v-163h569v-261h-569v-170h610v-317zM795 1491l-56 -174l-553 129l78 246z" />
    <glyph glyph-name="Eacute" unicode="&#xc9;" horiz-adv-x="1134" 
d="M1063 0h-610h-369v1229h979v-318h-610v-163h569v-261h-569v-170h610v-317zM952 1446l-553 -129l-55 174l530 201z" />
    <glyph glyph-name="Ecircumflex" unicode="&#xca;" horiz-adv-x="1134" 
d="M1063 0h-610h-369v1229h979v-318h-610v-163h569v-261h-569v-170h610v-317zM813 1298l-238 148l-237 -148l-100 119l288 271h101l286 -271z" />
    <glyph glyph-name="Edieresis" unicode="&#xcb;" horiz-adv-x="1134" 
d="M1063 0h-610h-369v1229h979v-318h-610v-163h569v-261h-569v-170h610v-317zM256 1337v271h283v-271h-283zM598 1337v271h281v-271h-281z" />
    <glyph glyph-name="Igrave" unicode="&#xcc;" horiz-adv-x="536" 
d="M453 1229v-1229h-369v1229h369zM489 1491l-55 -174l-553 129l78 246z" />
    <glyph glyph-name="Iacute" unicode="&#xcd;" horiz-adv-x="536" 
d="M453 1229v-1229h-369v1229h369zM647 1446l-553 -129l-55 174l530 201z" />
    <glyph glyph-name="Icircumflex" unicode="&#xce;" horiz-adv-x="536" 
d="M453 1229v-1229h-369v1229h369zM508 1298l-238 148l-237 -148l-101 119l289 271h101l286 -271z" />
    <glyph glyph-name="Idieresis" unicode="&#xcf;" horiz-adv-x="536" 
d="M453 1229v-1229h-369v1229h369zM-45 1337v271h283v-271h-283zM297 1337v271h281v-271h-281z" />
    <glyph glyph-name="Eth" unicode="&#xd0;" horiz-adv-x="1353" 
d="M31 508v209h98v512h557q324 0 475.5 -151t151.5 -445q0 -293 -169 -463t-468 -170h-547v508h-98zM498 928v-211h225v-209h-225v-207h151q159 0 228 77.5t69 254.5q0 168 -68 231.5t-237 63.5h-143z" />
    <glyph glyph-name="Ntilde" unicode="&#xd1;" horiz-adv-x="1347" 
d="M1264 0h-486l-176 399q-49 110 -182 498l-25 -2q27 -314 27 -584v-311h-338v1229h516l148 -328q92 -208 178 -510l24 4q-24 305 -24 510v324h338v-1229zM530 1696q42 0 78 -16t60 -38.5t44 -45t40 -38.5t39 -16q39 0 52 33t13 108h139q6 -52 6 -96q0 -137 -48 -204.5
t-136 -67.5q-38 0 -70.5 16t-55.5 38.5t-43 44.5t-43 38t-46 16q-36 0 -49.5 -32t-13.5 -109h-140q-6 50 -6 94q0 133 49 204t131 71z" />
    <glyph glyph-name="Ograve" unicode="&#xd2;" horiz-adv-x="1343" 
d="M672 -31q-299 0 -464 172.5t-165 476.5q0 301 170 471.5t459 170.5q293 0 460.5 -169.5t167.5 -472.5q0 -304 -164.5 -476.5t-463.5 -172.5zM670 283q141 0 202.5 85t61.5 253q0 319 -262 319t-262 -319q0 -166 61.5 -252t198.5 -86zM893 1491l-55 -174l-553 129l77 246z
" />
    <glyph glyph-name="Oacute" unicode="&#xd3;" horiz-adv-x="1343" 
d="M672 -31q-299 0 -464 172.5t-165 476.5q0 301 170 471.5t459 170.5q293 0 460.5 -169.5t167.5 -472.5q0 -304 -164.5 -476.5t-463.5 -172.5zM670 283q141 0 202.5 85t61.5 253q0 319 -262 319t-262 -319q0 -166 61.5 -252t198.5 -86zM1051 1446l-553 -129l-56 174
l531 201z" />
    <glyph glyph-name="Ocircumflex" unicode="&#xd4;" horiz-adv-x="1343" 
d="M672 -31q-299 0 -464 172.5t-165 476.5q0 301 170 471.5t459 170.5q293 0 460.5 -169.5t167.5 -472.5q0 -304 -164.5 -476.5t-463.5 -172.5zM670 283q141 0 202.5 85t61.5 253q0 319 -262 319t-262 -319q0 -166 61.5 -252t198.5 -86zM911 1298l-237 148l-238 -148
l-100 119l289 271h100l287 -271z" />
    <glyph glyph-name="Otilde" unicode="&#xd5;" horiz-adv-x="1343" 
d="M672 -31q-299 0 -464 172.5t-165 476.5q0 301 170 471.5t459 170.5q293 0 460.5 -169.5t167.5 -472.5q0 -304 -164.5 -476.5t-463.5 -172.5zM670 283q141 0 202.5 85t61.5 253q0 319 -262 319t-262 -319q0 -166 61.5 -252t198.5 -86zM528 1696q42 0 78 -16t59.5 -38.5
t43.5 -45t40 -38.5t39 -16q39 0 52.5 33.5t13.5 107.5h139q6 -52 6 -96q0 -137 -48 -204.5t-136 -67.5q-38 0 -70.5 16t-55.5 38.5t-43 44.5t-43 38t-46 16q-36 0 -49.5 -32t-13.5 -109h-140q-6 50 -6 94q0 133 49 204t131 71z" />
    <glyph glyph-name="Odieresis" unicode="&#xd6;" horiz-adv-x="1343" 
d="M672 -31q-299 0 -464 172.5t-165 476.5q0 301 170 471.5t459 170.5q293 0 460.5 -169.5t167.5 -472.5q0 -304 -164.5 -476.5t-463.5 -172.5zM670 283q141 0 202.5 85t61.5 253q0 319 -262 319t-262 -319q0 -166 61.5 -252t198.5 -86zM354 1337v271h283v-271h-283z
M696 1337v271h281v-271h-281z" />
    <glyph glyph-name="multiply" unicode="&#xd7;" horiz-adv-x="1060" 
d="M530 422q-26 -30 -76.5 -89.5t-84.5 -98t-70 -76.5l-246 241q15 13 273 226q-39 32 -95.5 77.5t-98.5 79.5t-79 68l246 242q36 -39 71.5 -80.5t81.5 -96t78 -90.5q212 245 232 267l246 -242q-39 -34 -81 -68.5t-97.5 -79t-94.5 -77.5q37 -31 94 -76.5t98.5 -79.5
t80.5 -70l-246 -241q-28 30 -58.5 64t-52.5 59t-59.5 69t-61.5 72z" />
    <glyph glyph-name="Oslash" unicode="&#xd8;" horiz-adv-x="1345" 
d="M266 0h-264v12l164 178q-123 164 -123 428q0 301 170 471.5t459 170.5q209 0 360 -91l51 60h260v-12l-165 -179q122 -162 122 -420q0 -304 -164.5 -476.5t-463.5 -172.5q-213 0 -359 88zM670 272q149 0 215.5 89t66.5 260q0 82 -20 143l-408 -459q56 -33 146 -33z
M412 461l405 454q-61 37 -145 37q-75 0 -130.5 -26.5t-87 -73.5t-46.5 -104.5t-15 -126.5q0 -89 19 -160z" />
    <glyph glyph-name="Ugrave" unicode="&#xd9;" horiz-adv-x="1300" 
d="M651 295q112 0 155.5 54t43.5 165v715h369v-746q0 -247 -146.5 -379.5t-421.5 -132.5q-276 0 -421.5 132.5t-145.5 379.5v746h369v-715q0 -111 43.5 -165t154.5 -54zM872 1491l-55 -174l-553 129l78 246z" />
    <glyph glyph-name="Uacute" unicode="&#xda;" horiz-adv-x="1300" 
d="M651 295q112 0 155.5 54t43.5 165v715h369v-746q0 -247 -146.5 -379.5t-421.5 -132.5q-276 0 -421.5 132.5t-145.5 379.5v746h369v-715q0 -111 43.5 -165t154.5 -54zM1030 1446l-553 -129l-55 174l530 201z" />
    <glyph glyph-name="Ucircumflex" unicode="&#xdb;" horiz-adv-x="1300" 
d="M651 295q112 0 155.5 54t43.5 165v715h369v-746q0 -247 -146.5 -379.5t-421.5 -132.5q-276 0 -421.5 132.5t-145.5 379.5v746h369v-715q0 -111 43.5 -165t154.5 -54zM891 1298l-238 148l-237 -148l-101 119l289 271h101l286 -271z" />
    <glyph glyph-name="Udieresis" unicode="&#xdc;" horiz-adv-x="1300" 
d="M651 295q112 0 155.5 54t43.5 165v715h369v-746q0 -247 -146.5 -379.5t-421.5 -132.5q-276 0 -421.5 132.5t-145.5 379.5v746h369v-715q0 -111 43.5 -165t154.5 -54zM334 1337v271h282v-271h-282zM676 1337v271h280v-271h-280z" />
    <glyph glyph-name="Yacute" unicode="&#xdd;" horiz-adv-x="1146" 
d="M758 375v-375h-369v375l-428 831v23h410l186 -541h35l196 541h398v-23zM952 1446l-553 -129l-55 174l530 201z" />
    <glyph glyph-name="Thorn" unicode="&#xde;" horiz-adv-x="1185" 
d="M84 0v1229h369v-135h200q514 0 514 -467q0 -215 -129.5 -341t-375.5 -126h-209v-160h-369zM453 784v-315h172q96 0 138 39t42 119t-42.5 118.5t-139.5 38.5h-170z" />
    <glyph glyph-name="germandbls" unicode="&#xdf;" horiz-adv-x="1187" 
d="M684 -20q-109 0 -217 34l70 312q63 -29 125 -29q76 0 108.5 30.5t32.5 94.5q0 58 -31 87.5t-106 29.5h-125v282h51q59 0 90 33.5t31 87.5q0 121 -131 121q-85 0 -119.5 -49t-34.5 -135v-879h-348v891q0 222 130.5 333t375.5 111q229 0 348 -90t119 -233
q0 -131 -70 -200.5t-205 -90.5v-39q199 -17 281 -93t82 -229q0 -175 -112 -277.5t-345 -102.5z" />
    <glyph glyph-name="agrave" unicode="&#xe0;" horiz-adv-x="1044" 
d="M305 -20q-121 0 -198.5 71t-77.5 211q0 137 89 214t283 77h217v68q0 114 -108 114q-99 0 -117 -104l-325 71q24 137 135 221.5t321 84.5q229 0 335 -99t106 -291v-618h-328v233h-29q-83 -253 -303 -253zM618 385v37h-143q-52 0 -85.5 -25.5t-33.5 -66.5q0 -90 113 -90
q67 0 108 40.5t41 104.5zM770 1206l-86 -166l-524 213l121 234z" />
    <glyph glyph-name="aacute" unicode="&#xe1;" horiz-adv-x="1044" 
d="M305 -20q-121 0 -198.5 71t-77.5 211q0 137 89 214t283 77h217v68q0 114 -108 114q-99 0 -117 -104l-325 71q24 137 135 221.5t321 84.5q229 0 335 -99t106 -291v-618h-328v233h-29q-83 -253 -303 -253zM618 385v37h-143q-52 0 -85.5 -25.5t-33.5 -66.5q0 -90 113 -90
q67 0 108 40.5t41 104.5zM920 1253l-525 -213l-86 166l490 281z" />
    <glyph glyph-name="acircumflex" unicode="&#xe2;" horiz-adv-x="1044" 
d="M305 -20q-121 0 -198.5 71t-77.5 211q0 137 89 214t283 77h217v68q0 114 -108 114q-99 0 -117 -104l-325 71q24 137 135 221.5t321 84.5q229 0 335 -99t106 -291v-618h-328v233h-29q-83 -253 -303 -253zM618 385v37h-143q-52 0 -85.5 -25.5t-33.5 -66.5q0 -90 113 -90
q67 0 108 40.5t41 104.5zM745 1044l-227 173l-227 -173l-111 119l289 305h100l287 -305z" />
    <glyph glyph-name="atilde" unicode="&#xe3;" horiz-adv-x="1044" 
d="M305 -20q-121 0 -198.5 71t-77.5 211q0 137 89 214t283 77h217v68q0 114 -108 114q-99 0 -117 -104l-325 71q24 137 135 221.5t321 84.5q229 0 335 -99t106 -291v-618h-328v233h-29q-83 -253 -303 -253zM618 385v37h-143q-52 0 -85.5 -25.5t-33.5 -66.5q0 -90 113 -90
q67 0 108 40.5t41 104.5zM373 1456q42 0 78 -16t59.5 -38t43.5 -44.5t40 -38.5t39 -16q39 0 52 33t13 108h140q6 -52 6 -96q0 -137 -48.5 -205t-136.5 -68q-38 0 -70.5 16t-55.5 38.5t-43 45t-43 38.5t-46 16q-36 0 -49.5 -32.5t-13.5 -109.5h-139q-6 49 -6 95
q0 133 49 203.5t131 70.5z" />
    <glyph glyph-name="adieresis" unicode="&#xe4;" horiz-adv-x="1044" 
d="M305 -20q-121 0 -198.5 71t-77.5 211q0 137 89 214t283 77h217v68q0 114 -108 114q-99 0 -117 -104l-325 71q24 137 135 221.5t321 84.5q229 0 335 -99t106 -291v-618h-328v233h-29q-83 -253 -303 -253zM618 385v37h-143q-52 0 -85.5 -25.5t-33.5 -66.5q0 -90 113 -90
q67 0 108 40.5t41 104.5zM207 1135v270h282v-270h-282zM549 1135v270h280v-270h-280z" />
    <glyph glyph-name="aring" unicode="&#xe5;" horiz-adv-x="1044" 
d="M305 -20q-121 0 -198.5 71t-77.5 211q0 137 89 214t283 77h217v68q0 114 -108 114q-99 0 -117 -104l-325 71q24 137 135 221.5t321 84.5q229 0 335 -99t106 -291v-618h-328v233h-29q-83 -253 -303 -253zM618 385v37h-143q-52 0 -85.5 -25.5t-33.5 -66.5q0 -90 113 -90
q67 0 108 40.5t41 104.5zM764 1317q0 -111 -65.5 -176.5t-180.5 -65.5q-112 0 -179 65.5t-67 174.5t67 175t179 66q114 0 180 -66t66 -173zM428 1315q0 -43 24.5 -68.5t65.5 -25.5t65.5 26t24.5 70q0 42 -24.5 68t-65.5 26t-65.5 -26.5t-24.5 -69.5z" />
    <glyph glyph-name="ae" unicode="&#xe6;" horiz-adv-x="1626" 
d="M688 223q-93 -248 -366 -248q-125 0 -209 72.5t-84 214.5q0 137 89 214t283 77h217v68q0 114 -108 114q-99 0 -117 -104l-325 71q25 136 128.5 221t280.5 85q237 0 326 -150q112 152 327 152q225 0 337 -119t112 -328q0 -84 -6 -135h-612q7 -100 46 -141t119 -41
q71 0 102.5 25.5t47.5 74.5l291 -78q-19 -68 -45.5 -116.5t-74.5 -92.5t-128 -67t-191 -23q-74 0 -139.5 14t-124.5 43t-104.5 79t-71.5 118zM961 561h301q3 193 -142 193q-76 0 -114 -44.5t-45 -148.5zM618 385v37h-143q-52 0 -85.5 -25.5t-33.5 -66.5q0 -90 113 -90
q67 0 108 40.5t41 104.5z" />
    <glyph glyph-name="ccedilla" unicode="&#xe7;" horiz-adv-x="1058" 
d="M1010 621l-320 -58q-21 72 -50.5 108t-92.5 36q-150 0 -150 -213q0 -224 154 -224q115 0 141 152l318 -74q-21 -180 -134 -279.5t-323 -99.5h-14l-23 -55q38 10 66 10q149 0 149 -129q0 -53 -46.5 -96t-149.5 -43q-123 0 -209 55l61 96q65 -43 148 -43q61 0 61 43
q0 46 -64 46q-37 0 -71 -15l-80 33l39 109q-181 31 -280 155t-99 336q0 257 134 398t378 141q219 0 325 -97.5t132 -291.5z" />
    <glyph glyph-name="egrave" unicode="&#xe8;" horiz-adv-x="1048" 
d="M547 -31q-111 0 -202 30t-159.5 89t-106.5 154t-38 219q0 261 133 405t379 144q225 0 336.5 -119t111.5 -328q0 -84 -6 -135h-612q7 -100 46.5 -141t119.5 -41q71 0 102 25.5t47 74.5l291 -78q-18 -66 -47 -116t-78.5 -93.5t-129.5 -66.5t-187 -23zM383 561h301
q3 193 -141 193q-76 0 -114.5 -44.5t-45.5 -148.5zM786 1206l-86 -166l-524 213l121 234z" />
    <glyph glyph-name="eacute" unicode="&#xe9;" horiz-adv-x="1048" 
d="M547 -31q-111 0 -202 30t-159.5 89t-106.5 154t-38 219q0 261 133 405t379 144q225 0 336.5 -119t111.5 -328q0 -84 -6 -135h-612q7 -100 46.5 -141t119.5 -41q71 0 102 25.5t47 74.5l291 -78q-18 -66 -47 -116t-78.5 -93.5t-129.5 -66.5t-187 -23zM383 561h301
q3 193 -141 193q-76 0 -114.5 -44.5t-45.5 -148.5zM936 1253l-524 -213l-86 166l489 281z" />
    <glyph glyph-name="ecircumflex" unicode="&#xea;" horiz-adv-x="1048" 
d="M547 -31q-111 0 -202 30t-159.5 89t-106.5 154t-38 219q0 261 133 405t379 144q225 0 336.5 -119t111.5 -328q0 -84 -6 -135h-612q7 -100 46.5 -141t119.5 -41q71 0 102 25.5t47 74.5l291 -78q-18 -66 -47 -116t-78.5 -93.5t-129.5 -66.5t-187 -23zM383 561h301
q3 193 -141 193q-76 0 -114.5 -44.5t-45.5 -148.5zM762 1044l-227 173l-228 -173l-110 119l288 305h101l286 -305z" />
    <glyph glyph-name="edieresis" unicode="&#xeb;" horiz-adv-x="1048" 
d="M547 -31q-111 0 -202 30t-159.5 89t-106.5 154t-38 219q0 261 133 405t379 144q225 0 336.5 -119t111.5 -328q0 -84 -6 -135h-612q7 -100 46.5 -141t119.5 -41q71 0 102 25.5t47 74.5l291 -78q-18 -66 -47 -116t-78.5 -93.5t-129.5 -66.5t-187 -23zM383 561h301
q3 193 -141 193q-76 0 -114.5 -44.5t-45.5 -148.5zM223 1135v270h283v-270h-283zM565 1135v270h281v-270h-281z" />
    <glyph glyph-name="igrave" unicode="&#xec;" horiz-adv-x="507" 
d="M428 979v-979h-348v979h348zM506 1206l-86 -166l-524 213l120 234z" />
    <glyph glyph-name="iacute" unicode="&#xed;" horiz-adv-x="507" 
d="M428 979v-979h-348v979h348zM643 1253l-524 -213l-86 166l489 281z" />
    <glyph glyph-name="icircumflex" unicode="&#xee;" horiz-adv-x="507" 
d="M428 979v-979h-348v979h348zM483 1044l-227 173l-227 -173l-111 119l289 305h100l287 -305z" />
    <glyph glyph-name="idieresis" unicode="&#xef;" horiz-adv-x="507" 
d="M428 979v-979h-348v979h348zM-57 1135v270h282v-270h-282zM285 1135v270h280v-270h-280z" />
    <glyph glyph-name="eth" unicode="&#xf0;" horiz-adv-x="1112" 
d="M555 -31q-243 0 -378.5 130t-135.5 378q0 224 108 342.5t273 118.5q98 0 171 -67t120 -177l20 8q-51 200 -211 363l-227 -86l-64 162l146 55q-42 32 -109 74l101 157q148 -52 272 -129l231 91l62 -164l-133 -51q270 -264 270 -644q0 -276 -133 -418.5t-383 -142.5z
M727 477q0 115 -39.5 172.5t-132.5 57.5q-83 0 -125.5 -61.5t-42.5 -153.5q0 -226 174 -226q81 0 123.5 55.5t42.5 155.5z" />
    <glyph glyph-name="ntilde" unicode="&#xf1;" horiz-adv-x="1087" 
d="M418 979v-264h22q42 147 123.5 221t192.5 74q124 0 191 -88t67 -248v-674h-348v573q0 57 -28 90t-79 33q-60 0 -95.5 -44.5t-35.5 -114.5v-537h-348v979h338zM403 1456q52 0 95 -24t66.5 -52.5t50.5 -52.5t49 -24q39 0 52 33t13 108h139q6 -52 6 -96q0 -137 -48 -205
t-136 -68q-38 0 -70.5 16t-55.5 38.5t-43 45t-43 38.5t-46 16q-36 0 -49.5 -32.5t-13.5 -109.5h-140q-6 49 -6 95q0 133 49 203.5t131 70.5z" />
    <glyph glyph-name="ograve" unicode="&#xf2;" horiz-adv-x="1110" 
d="M557 -31q-242 0 -379 138t-137 382q0 245 137 383t379 138q239 0 375.5 -138t136.5 -383q0 -244 -137 -382t-375 -138zM555 721q-89 0 -127.5 -57.5t-38.5 -174.5q0 -116 38 -171.5t128 -55.5t129 55.5t39 171.5t-39 174t-129 58zM807 1206l-86 -166l-524 213l120 234z
" />
    <glyph glyph-name="oacute" unicode="&#xf3;" horiz-adv-x="1110" 
d="M557 -31q-242 0 -379 138t-137 382q0 245 137 383t379 138q239 0 375.5 -138t136.5 -383q0 -244 -137 -382t-375 -138zM555 721q-89 0 -127.5 -57.5t-38.5 -174.5q0 -116 38 -171.5t128 -55.5t129 55.5t39 171.5t-39 174t-129 58zM956 1253l-524 -213l-86 166l490 281z
" />
    <glyph glyph-name="ocircumflex" unicode="&#xf4;" horiz-adv-x="1110" 
d="M557 -31q-242 0 -379 138t-137 382q0 245 137 383t379 138q239 0 375.5 -138t136.5 -383q0 -244 -137 -382t-375 -138zM555 721q-89 0 -127.5 -57.5t-38.5 -174.5q0 -116 38 -171.5t128 -55.5t129 55.5t39 171.5t-39 174t-129 58zM784 1044l-227 173l-227 -173l-111 119
l289 305h100l287 -305z" />
    <glyph glyph-name="otilde" unicode="&#xf5;" horiz-adv-x="1110" 
d="M557 -31q-242 0 -379 138t-137 382q0 245 137 383t379 138q239 0 375.5 -138t136.5 -383q0 -244 -137 -382t-375 -138zM555 721q-89 0 -127.5 -57.5t-38.5 -174.5q0 -116 38 -171.5t128 -55.5t129 55.5t39 171.5t-39 174t-129 58zM412 1456q42 0 78 -16t59.5 -38
t43.5 -44.5t40 -38.5t39 -16q39 0 52 33t13 108h140q6 -52 6 -96q0 -137 -48.5 -205t-136.5 -68q-38 0 -70.5 16t-55.5 38.5t-43 45t-43 38.5t-46 16q-36 0 -49.5 -32.5t-13.5 -109.5h-139q-7 58 -7 95q0 133 49.5 203.5t131.5 70.5z" />
    <glyph glyph-name="odieresis" unicode="&#xf6;" horiz-adv-x="1110" 
d="M557 -31q-242 0 -379 138t-137 382q0 245 137 383t379 138q239 0 375.5 -138t136.5 -383q0 -244 -137 -382t-375 -138zM555 721q-89 0 -127.5 -57.5t-38.5 -174.5q0 -116 38 -171.5t128 -55.5t129 55.5t39 171.5t-39 174t-129 58zM244 1135v270h282v-270h-282zM586 1135
v270h280v-270h-280z" />
    <glyph glyph-name="divide" unicode="&#xf7;" horiz-adv-x="995" 
d="M934 791v-308h-873v308h873zM385 160v239h246v-239h-246zM385 877v239h246v-239h-246z" />
    <glyph glyph-name="oslash" unicode="&#xf8;" horiz-adv-x="1110" 
d="M258 45l-31 -45h-239v12l143 152q-90 131 -90 325q0 245 137 383t379 138q173 0 301 -78l35 47h231v-12l-145 -152q90 -134 90 -326q0 -244 -137 -382t-375 -138q-177 0 -299 76zM555 748q-109 0 -157 -65t-48 -194q0 -51 6 -92l310 326q-45 25 -111 25zM752 578
l-303 -322q41 -20 106 -20q110 0 157.5 62.5t47.5 190.5q0 53 -8 89z" />
    <glyph glyph-name="ugrave" unicode="&#xf9;" 
d="M674 0v266h-23q-42 -149 -123 -223t-190 -74q-127 0 -193.5 87.5t-66.5 248.5v674h348v-571q0 -60 27.5 -92.5t78.5 -32.5q61 0 96.5 44t35.5 117v535h348v-979h-338zM797 1206l-86 -166l-525 213l121 234z" />
    <glyph glyph-name="uacute" unicode="&#xfa;" 
d="M674 0v266h-23q-42 -149 -123 -223t-190 -74q-127 0 -193.5 87.5t-66.5 248.5v674h348v-571q0 -60 27.5 -92.5t78.5 -32.5q61 0 96.5 44t35.5 117v535h348v-979h-338zM946 1253l-524 -213l-86 166l489 281z" />
    <glyph glyph-name="ucircumflex" unicode="&#xfb;" 
d="M674 0v266h-23q-42 -149 -123 -223t-190 -74q-127 0 -193.5 87.5t-66.5 248.5v674h348v-571q0 -60 27.5 -92.5t78.5 -32.5q61 0 96.5 44t35.5 117v535h348v-979h-338zM774 1044l-227 173l-228 -173l-110 119l289 305h100l287 -305z" />
    <glyph glyph-name="udieresis" unicode="&#xfc;" 
d="M674 0v266h-23q-42 -149 -123 -223t-190 -74q-127 0 -193.5 87.5t-66.5 248.5v674h348v-571q0 -60 27.5 -92.5t78.5 -32.5q61 0 96.5 44t35.5 117v535h348v-979h-338zM233 1135v270h283v-270h-283zM575 1135v270h281v-270h-281z" />
    <glyph glyph-name="yacute" unicode="&#xfd;" horiz-adv-x="1005" 
d="M342 14l-334 965h379l80 -367q7 -33 26 -126.5t29 -145.5h23q9 50 26.5 139t24.5 127l70 373h374l-366 -973q-67 -177 -179 -255.5t-311 -78.5q-49 0 -166 17l45 278q72 -14 127 -14q64 0 98 13t54 48zM913 1253l-524 -213l-86 166l490 281z" />
    <glyph glyph-name="thorn" unicode="&#xfe;" 
d="M1051 489q0 -253 -82 -386.5t-230 -133.5q-106 0 -181 74.5t-114 208.5h-16v-561h-348v1624h348v-576h18q41 131 118 201t181 70q147 0 226.5 -135t79.5 -386zM428 522v-78q0 -78 38 -124t101 -46q77 0 111.5 52.5t34.5 160.5q0 209 -146 209q-65 0 -102 -47t-37 -127z
" />
    <glyph glyph-name="ydieresis" unicode="&#xff;" horiz-adv-x="1005" 
d="M342 14l-334 965h379l80 -367q7 -33 26 -126.5t29 -145.5h23q9 50 26.5 139t24.5 127l70 373h374l-366 -973q-67 -177 -179 -255.5t-311 -78.5q-49 0 -166 17l45 278q72 -14 127 -14q64 0 98 13t54 48zM201 1135v270h282v-270h-282zM543 1135v270h280v-270h-280z" />
    <glyph glyph-name="Amacron" unicode="&#x100;" horiz-adv-x="1249" 
d="M823 223h-411l-62 -223h-379l398 1229h512l397 -1229h-395zM641 913h-43q-51 -205 -70 -274l-43 -152h267l-41 152q-19 69 -70 274zM344 1358v225h565v-225h-565z" />
    <glyph glyph-name="amacron" unicode="&#x101;" horiz-adv-x="1044" 
d="M305 -20q-121 0 -198.5 71t-77.5 211q0 137 89 214t283 77h217v68q0 114 -108 114q-99 0 -117 -104l-325 71q24 137 135 221.5t321 84.5q229 0 335 -99t106 -291v-618h-328v233h-29q-83 -253 -303 -253zM618 385v37h-143q-52 0 -85.5 -25.5t-33.5 -66.5q0 -90 113 -90
q67 0 108 40.5t41 104.5zM242 1130v228h555v-228h-555z" />
    <glyph glyph-name="Abreve" unicode="&#x102;" horiz-adv-x="1249" 
d="M823 223h-411l-62 -223h-379l398 1229h512l397 -1229h-395zM641 913h-43q-51 -205 -70 -274l-43 -152h267l-41 152q-19 69 -70 274zM625 1542q67 0 106.5 28.5t50.5 102.5h148q0 -181 -74 -260.5t-231 -79.5t-231.5 79.5t-74.5 260.5h148q11 -74 51 -102.5t107 -28.5z
" />
    <glyph glyph-name="abreve" unicode="&#x103;" horiz-adv-x="1044" 
d="M305 -20q-121 0 -198.5 71t-77.5 211q0 137 89 214t283 77h217v68q0 114 -108 114q-99 0 -117 -104l-325 71q24 137 135 221.5t321 84.5q229 0 335 -99t106 -291v-618h-328v233h-29q-83 -253 -303 -253zM618 385v37h-143q-52 0 -85.5 -25.5t-33.5 -66.5q0 -90 113 -90
q67 0 108 40.5t41 104.5zM518 1292q67 0 107 33t51 119h147q0 -193 -74 -277t-231 -84t-231 84t-74 277h147q11 -86 51 -119t107 -33z" />
    <glyph glyph-name="Aogonek" unicode="&#x104;" horiz-adv-x="1245" 
d="M881 1229l397 -1229q-104 -18 -148.5 -38t-44.5 -54q0 -47 89 -47q47 0 104 14v-211q-72 -10 -127 -10q-248 0 -248 160q0 67 51.5 113.5t143.5 72.5h-215l-60 223h-411l-62 -223h-379l398 1229h512zM528 639l-43 -152h267l-41 152q-19 69 -70 274h-43q-51 -205 -70 -274
z" />
    <glyph glyph-name="aogonek" unicode="&#x105;" horiz-adv-x="1101" 
d="M305 -20q-121 0 -198.5 71t-77.5 211q0 137 89 214t283 77h217v68q0 114 -108 114q-99 0 -117 -104l-325 71q24 137 135 221.5t321 84.5q229 0 335 -99t106 -291v-618q-106 -18 -150.5 -38t-44.5 -54q0 -47 88 -47q47 0 107 14v-211q-78 -10 -127 -10q-248 0 -248 160
q0 132 192 186h-145v233h-29q-83 -253 -303 -253zM618 385v37h-143q-52 0 -85.5 -25.5t-33.5 -66.5q0 -90 113 -90q67 0 108 40.5t41 104.5z" />
    <glyph glyph-name="Cacute" unicode="&#x106;" horiz-adv-x="1275" 
d="M655 -31q-289 0 -450.5 170.5t-161.5 478.5q0 305 168 473.5t455 168.5q248 0 392 -124.5t169 -363.5l-353 -65q-19 121 -69.5 177t-151.5 56q-126 0 -184.5 -90t-58.5 -232q0 -164 57.5 -249.5t183.5 -85.5q105 0 154.5 55.5t75.5 181.5l348 -57q-26 -238 -175.5 -366
t-398.5 -128zM1030 1446l-553 -129l-55 174l530 201z" />
    <glyph glyph-name="cacute" unicode="&#x107;" horiz-adv-x="1058" 
d="M1010 621l-320 -58q-21 72 -50.5 108t-92.5 36q-150 0 -150 -213q0 -224 154 -224q115 0 141 152l318 -74q-21 -180 -134 -279.5t-323 -99.5q-240 0 -376 126t-136 376q0 257 134 398t378 141q219 0 325 -97.5t132 -291.5zM973 1253l-524 -213l-87 166l490 281z" />
    <glyph glyph-name="Ccircumflex" unicode="&#x108;" horiz-adv-x="1275" 
d="M655 -31q-289 0 -450.5 170.5t-161.5 478.5q0 305 168 473.5t455 168.5q248 0 392 -124.5t169 -363.5l-353 -65q-19 121 -69.5 177t-151.5 56q-126 0 -184.5 -90t-58.5 -232q0 -164 57.5 -249.5t183.5 -85.5q105 0 154.5 55.5t75.5 181.5l348 -57q-26 -238 -175.5 -366
t-398.5 -128zM891 1298l-238 148l-237 -148l-101 119l289 271h101l286 -271z" />
    <glyph glyph-name="ccircumflex" unicode="&#x109;" horiz-adv-x="1058" 
d="M1010 621l-320 -58q-21 72 -50.5 108t-92.5 36q-150 0 -150 -213q0 -224 154 -224q115 0 141 152l318 -74q-21 -180 -134 -279.5t-323 -99.5q-240 0 -376 126t-136 376q0 257 134 398t378 141q219 0 325 -97.5t132 -291.5zM774 1044l-227 173l-228 -173l-110 119l289 305
h100l287 -305z" />
    <glyph glyph-name="Cdotaccent" unicode="&#x10a;" horiz-adv-x="1275" 
d="M655 -31q-289 0 -450.5 170.5t-161.5 478.5q0 305 168 473.5t455 168.5q248 0 392 -124.5t169 -363.5l-353 -65q-19 121 -69.5 177t-151.5 56q-126 0 -184.5 -90t-58.5 -232q0 -164 57.5 -249.5t183.5 -85.5q105 0 154.5 55.5t75.5 181.5l348 -57q-26 -238 -175.5 -366
t-398.5 -128zM496 1329v299h313v-299h-313z" />
    <glyph glyph-name="cdotaccent" unicode="&#x10b;" horiz-adv-x="1058" 
d="M1010 621l-320 -58q-21 72 -50.5 108t-92.5 36q-150 0 -150 -213q0 -224 154 -224q115 0 141 152l318 -74q-21 -180 -134 -279.5t-323 -99.5q-240 0 -376 126t-136 376q0 257 134 398t378 141q219 0 325 -97.5t132 -291.5zM391 1124v299h314v-299h-314z" />
    <glyph glyph-name="Ccaron" unicode="&#x10c;" horiz-adv-x="1275" 
d="M655 -31q-289 0 -450.5 170.5t-161.5 478.5q0 305 168 473.5t455 168.5q248 0 392 -124.5t169 -363.5l-353 -65q-19 121 -69.5 177t-151.5 56q-126 0 -184.5 -90t-58.5 -232q0 -164 57.5 -249.5t183.5 -85.5q105 0 154.5 55.5t75.5 181.5l348 -57q-26 -238 -175.5 -366
t-398.5 -128zM416 1698l237 -148l238 148l100 -119l-289 -270h-100l-287 270z" />
    <glyph glyph-name="ccaron" unicode="&#x10d;" horiz-adv-x="1058" 
d="M1010 621l-320 -58q-21 72 -50.5 108t-92.5 36q-150 0 -150 -213q0 -224 154 -224q115 0 141 152l318 -74q-21 -180 -134 -279.5t-323 -99.5q-240 0 -376 126t-136 376q0 257 134 398t378 141q219 0 325 -97.5t132 -291.5zM317 1495l228 -174l227 174l111 -119l-289 -305
h-100l-287 305z" />
    <glyph glyph-name="Dcaron" unicode="&#x10e;" horiz-adv-x="1308" 
d="M631 0h-547v1229h557q324 0 475.5 -151t151.5 -445q0 -293 -169 -463t-468 -170zM453 928v-627h151q159 0 228 77.5t69 254.5q0 168 -68 231.5t-237 63.5h-143zM410 1698l237 -148l238 148l100 -119l-289 -270h-100l-287 270z" />
    <glyph glyph-name="dcaron" unicode="&#x10f;" horiz-adv-x="1323" 
d="M43 481q0 257 80.5 393t230.5 136q204 0 293 -271h19v576h348v-1315h-348v252h-19q-39 -134 -115 -208.5t-184 -74.5q-144 0 -224.5 131.5t-80.5 380.5zM666 440v78q0 81 -38.5 129.5t-101.5 48.5q-77 0 -111 -52t-34 -163q0 -106 34 -156.5t111 -50.5q62 0 101 45.5
t39 120.5zM1063 797l27 518h253l-67 -518h-213z" />
    <glyph glyph-name="Dcroat" unicode="&#x110;" horiz-adv-x="1353" 
d="M31 508v209h98v512h557q324 0 475.5 -151t151.5 -445q0 -293 -169 -463t-468 -170h-547v508h-98zM498 928v-211h225v-209h-225v-207h151q159 0 228 77.5t69 254.5q0 168 -68 231.5t-237 63.5h-143z" />
    <glyph glyph-name="dcroat" unicode="&#x111;" horiz-adv-x="1120" 
d="M1114 1219v-168h-100v-1051h-348v252h-19q-39 -134 -115 -208.5t-184 -74.5q-144 0 -224.5 131.5t-80.5 380.5q0 257 80.5 393t230.5 136q204 0 293 -271h19v312h-213v168h213v96h348v-96h100zM666 440v78q0 81 -38.5 129.5t-101.5 48.5q-77 0 -111 -52t-34 -163
q0 -106 34 -156.5t111 -50.5q62 0 101 45.5t39 120.5z" />
    <glyph glyph-name="Emacron" unicode="&#x112;" horiz-adv-x="1134" 
d="M1063 0h-610h-369v1229h979v-318h-610v-163h569v-261h-569v-170h610v-317zM293 1358v225h565v-225h-565z" />
    <glyph glyph-name="emacron" unicode="&#x113;" horiz-adv-x="1048" 
d="M547 -31q-111 0 -202 30t-159.5 89t-106.5 154t-38 219q0 261 133 405t379 144q225 0 336.5 -119t111.5 -328q0 -84 -6 -135h-612q7 -100 46.5 -141t119.5 -41q71 0 102 25.5t47 74.5l291 -78q-18 -66 -47 -116t-78.5 -93.5t-129.5 -66.5t-187 -23zM383 561h301
q3 193 -141 193q-76 0 -114.5 -44.5t-45.5 -148.5zM258 1130v228h555v-228h-555z" />
    <glyph glyph-name="Ebreve" unicode="&#x114;" horiz-adv-x="1134" 
d="M1063 0h-610h-369v1229h979v-318h-610v-163h569v-261h-569v-170h610v-317zM573 1542q67 0 107 28.5t51 102.5h148q0 -181 -74.5 -260.5t-231.5 -79.5t-231 79.5t-74 260.5h148q11 -74 50.5 -102.5t106.5 -28.5z" />
    <glyph glyph-name="ebreve" unicode="&#x115;" horiz-adv-x="1048" 
d="M547 -31q-111 0 -202 30t-159.5 89t-106.5 154t-38 219q0 261 133 405t379 144q225 0 336.5 -119t111.5 -328q0 -84 -6 -135h-612q7 -100 46.5 -141t119.5 -41q71 0 102 25.5t47 74.5l291 -78q-18 -66 -47 -116t-78.5 -93.5t-129.5 -66.5t-187 -23zM383 561h301
q3 193 -141 193q-76 0 -114.5 -44.5t-45.5 -148.5zM535 1292q67 0 106.5 33t50.5 119h148q0 -193 -74 -277t-231 -84t-231.5 84t-74.5 277h148q11 -86 51 -119t107 -33z" />
    <glyph glyph-name="Edotaccent" unicode="&#x116;" horiz-adv-x="1134" 
d="M1063 0h-610h-369v1229h979v-318h-610v-163h569v-261h-569v-170h610v-317zM418 1329v299h313v-299h-313z" />
    <glyph glyph-name="edotaccent" unicode="&#x117;" horiz-adv-x="1048" 
d="M547 -31q-111 0 -202 30t-159.5 89t-106.5 154t-38 219q0 261 133 405t379 144q225 0 336.5 -119t111.5 -328q0 -84 -6 -135h-612q7 -100 46.5 -141t119.5 -41q71 0 102 25.5t47 74.5l291 -78q-18 -66 -47 -116t-78.5 -93.5t-129.5 -66.5t-187 -23zM383 561h301
q3 193 -141 193q-76 0 -114.5 -44.5t-45.5 -148.5zM379 1124v299h313v-299h-313z" />
    <glyph glyph-name="Eogonek" unicode="&#x118;" horiz-adv-x="1134" 
d="M883 0h-430h-369v1229h979v-318h-610v-163h569v-261h-569v-170h610v-317q-104 -18 -148.5 -38t-44.5 -54q0 -47 88 -47q48 0 105 14v-211q-72 -10 -127 -10q-248 0 -248 160q0 67 51.5 113.5t143.5 72.5z" />
    <glyph glyph-name="eogonek" unicode="&#x119;" horiz-adv-x="1048" 
d="M791 14q-98 -45 -244 -45q-111 0 -202 30t-159.5 89t-106.5 154t-38 219q0 261 133 405t379 144q225 0 336.5 -119t111.5 -328q0 -84 -6 -135h-612q7 -100 46.5 -141t119.5 -41q71 0 102 25.5t47 74.5l291 -78q-2 -2 -2 -4l2 2q-23 -91 -67.5 -154t-112.5 -118
q-32 -25 -45.5 -44t-13.5 -44q0 -60 96 -60q37 0 117 17v-248q-72 -10 -127 -10q-291 0 -291 180q0 24 8 46.5t19 40t30.5 35t35.5 29t41 25t40 20.5t39.5 18t32.5 15zM383 561h301q3 193 -141 193q-76 0 -114.5 -44.5t-45.5 -148.5z" />
    <glyph glyph-name="Ecaron" unicode="&#x11a;" horiz-adv-x="1134" 
d="M1063 0h-610h-369v1229h979v-318h-610v-163h569v-261h-569v-170h610v-317zM338 1698l237 -148l238 148l100 -119l-288 -270h-101l-286 270z" />
    <glyph glyph-name="ecaron" unicode="&#x11b;" horiz-adv-x="1048" 
d="M547 -31q-111 0 -202 30t-159.5 89t-106.5 154t-38 219q0 261 133 405t379 144q225 0 336.5 -119t111.5 -328q0 -84 -6 -135h-612q7 -100 46.5 -141t119.5 -41q71 0 102 25.5t47 74.5l291 -78q-18 -66 -47 -116t-78.5 -93.5t-129.5 -66.5t-187 -23zM383 561h301
q3 193 -141 193q-76 0 -114.5 -44.5t-45.5 -148.5zM307 1495l228 -174l227 174l110 -119l-288 -305h-101l-286 305z" />
    <glyph glyph-name="Gcircumflex" unicode="&#x11c;" horiz-adv-x="1312" 
d="M498 -23q-96 0 -178 39.5t-144.5 115t-98.5 195.5t-36 271q0 319 155.5 490.5t458.5 171.5q254 0 384.5 -98.5t166.5 -303.5l-346 -72q-21 79 -65 116.5t-142 37.5q-129 0 -185 -85t-56 -257q0 -160 57.5 -242t189.5 -82q226 0 226 168h-238v252h582v-694h-334v262h-31
q-89 -285 -366 -285zM885 442l2 -6v6h-2zM883 1298l-238 148l-237 -148l-101 119l289 271h100l287 -271z" />
    <glyph glyph-name="gcircumflex" unicode="&#x11d;" horiz-adv-x="1038" 
d="M211 301l70 31q-234 73 -234 307q0 161 121 250.5t340 89.5h510v-254h-100q-109 0 -183 6v-20q48 -10 81.5 -21t65.5 -28.5t48 -44.5t16 -62q0 -114 -118 -183t-322 -69q-95 0 -164 14l-6 -14q-12 -27 -12 -47q0 -24 15.5 -32.5t61.5 -8.5q53 0 157.5 3t152.5 3
q167 0 247 -69.5t80 -196.5q0 -111 -51.5 -180.5t-174.5 -106.5t-325 -37q-138 0 -233.5 13.5t-149 39.5t-76 59.5t-22.5 78.5q0 63 66.5 108.5t171.5 67.5v12q-172 18 -172 140q0 46 35 86t104 65zM692 6h-321q-49 0 -80 -17.5t-31 -47.5q0 -28 18 -42.5t73.5 -23
t162.5 -8.5q104 0 162 9t79 25.5t21 45.5q0 59 -84 59zM506 723q-152 0 -152 -100q0 -43 34.5 -72t117.5 -29q81 0 116 29t35 72q0 45 -37 72.5t-114 27.5zM733 1044l-227 173l-227 -173l-111 119l289 305h100l287 -305z" />
    <glyph glyph-name="Gbreve" unicode="&#x11e;" horiz-adv-x="1312" 
d="M498 -23q-96 0 -178 39.5t-144.5 115t-98.5 195.5t-36 271q0 319 155.5 490.5t458.5 171.5q254 0 384.5 -98.5t166.5 -303.5l-346 -72q-21 79 -65 116.5t-142 37.5q-129 0 -185 -85t-56 -257q0 -160 57.5 -242t189.5 -82q226 0 226 168h-238v252h582v-694h-334v262h-31
q-89 -285 -366 -285zM885 442l2 -6v6h-2zM645 1542q67 0 107 28.5t51 102.5h147q0 -181 -74 -260.5t-231 -79.5t-231 79.5t-74 260.5h147q11 -74 51 -102.5t107 -28.5z" />
    <glyph glyph-name="gbreve" unicode="&#x11f;" horiz-adv-x="1038" 
d="M211 301l70 31q-234 73 -234 307q0 161 121 250.5t340 89.5h510v-254h-100q-109 0 -183 6v-20q48 -10 81.5 -21t65.5 -28.5t48 -44.5t16 -62q0 -114 -118 -183t-322 -69q-95 0 -164 14l-6 -14q-12 -27 -12 -47q0 -24 15.5 -32.5t61.5 -8.5q53 0 157.5 3t152.5 3
q167 0 247 -69.5t80 -196.5q0 -111 -51.5 -180.5t-174.5 -106.5t-325 -37q-138 0 -233.5 13.5t-149 39.5t-76 59.5t-22.5 78.5q0 63 66.5 108.5t171.5 67.5v12q-172 18 -172 140q0 46 35 86t104 65zM692 6h-321q-49 0 -80 -17.5t-31 -47.5q0 -28 18 -42.5t73.5 -23
t162.5 -8.5q104 0 162 9t79 25.5t21 45.5q0 59 -84 59zM506 723q-152 0 -152 -100q0 -43 34.5 -72t117.5 -29q81 0 116 29t35 72q0 45 -37 72.5t-114 27.5zM504 1292q67 0 107 33t51 119h147q0 -193 -74 -277t-231 -84t-231 84t-74 277h147q11 -86 51 -119t107 -33z" />
    <glyph glyph-name="Gdotaccent" unicode="&#x120;" horiz-adv-x="1312" 
d="M498 -23q-96 0 -178 39.5t-144.5 115t-98.5 195.5t-36 271q0 319 155.5 490.5t458.5 171.5q254 0 384.5 -98.5t166.5 -303.5l-346 -72q-21 79 -65 116.5t-142 37.5q-129 0 -185 -85t-56 -257q0 -160 57.5 -242t189.5 -82q226 0 226 168h-238v252h582v-694h-334v262h-31
q-89 -285 -366 -285zM885 442l2 -6v6h-2zM489 1329v299h314v-299h-314z" />
    <glyph glyph-name="gdotaccent" unicode="&#x121;" horiz-adv-x="1038" 
d="M211 301l70 31q-234 73 -234 307q0 161 121 250.5t340 89.5h510v-254h-100q-109 0 -183 6v-20q48 -10 81.5 -21t65.5 -28.5t48 -44.5t16 -62q0 -114 -118 -183t-322 -69q-95 0 -164 14l-6 -14q-12 -27 -12 -47q0 -24 15.5 -32.5t61.5 -8.5q53 0 157.5 3t152.5 3
q167 0 247 -69.5t80 -196.5q0 -111 -51.5 -180.5t-174.5 -106.5t-325 -37q-138 0 -233.5 13.5t-149 39.5t-76 59.5t-22.5 78.5q0 63 66.5 108.5t171.5 67.5v12q-172 18 -172 140q0 46 35 86t104 65zM692 6h-321q-49 0 -80 -17.5t-31 -47.5q0 -28 18 -42.5t73.5 -23
t162.5 -8.5q104 0 162 9t79 25.5t21 45.5q0 59 -84 59zM506 723q-152 0 -152 -100q0 -43 34.5 -72t117.5 -29q81 0 116 29t35 72q0 45 -37 72.5t-114 27.5zM348 1124v299h314v-299h-314z" />
    <glyph glyph-name="uni0122" unicode="&#x122;" horiz-adv-x="1312" 
d="M498 -23q-96 0 -178 39.5t-144.5 115t-98.5 195.5t-36 271q0 319 155.5 490.5t458.5 171.5q254 0 384.5 -98.5t166.5 -303.5l-346 -72q-21 79 -65 116.5t-142 37.5q-129 0 -185 -85t-56 -257q0 -160 57.5 -242t189.5 -82q226 0 226 168h-238v252h582v-694h-334v262h-31
q-89 -285 -366 -285zM885 442l2 -6v6h-2zM416 -444l78 348h321l-145 -367h-254v19z" />
    <glyph glyph-name="uni0123" unicode="&#x123;" horiz-adv-x="1038" 
d="M211 301l70 31q-234 73 -234 307q0 161 121 250.5t340 89.5h510v-254h-100q-109 0 -183 6v-20q48 -10 81.5 -21t65.5 -28.5t48 -44.5t16 -62q0 -114 -118 -183t-322 -69q-95 0 -164 14l-6 -14q-12 -27 -12 -47q0 -24 15.5 -32.5t61.5 -8.5q53 0 157.5 3t152.5 3
q167 0 247 -69.5t80 -196.5q0 -111 -51.5 -180.5t-174.5 -106.5t-325 -37q-138 0 -233.5 13.5t-149 39.5t-76 59.5t-22.5 78.5q0 63 66.5 108.5t171.5 67.5v12q-172 18 -172 140q0 46 35 86t104 65zM782 1440l-77 -348h-322l145 366h254v-18zM692 6h-321q-49 0 -80 -17.5
t-31 -47.5q0 -28 18 -42.5t73.5 -23t162.5 -8.5q104 0 162 9t79 25.5t21 45.5q0 59 -84 59zM506 723q-152 0 -152 -100q0 -43 34.5 -72t117.5 -29q81 0 116 29t35 72q0 45 -37 72.5t-114 27.5z" />
    <glyph glyph-name="Hcircumflex" unicode="&#x124;" horiz-adv-x="1314" 
d="M84 0v1229h369v-453h409v453h369v-1229h-369v446h-409v-446h-369zM897 1298l-238 148l-237 -148l-100 119l288 271h101l286 -271z" />
    <glyph glyph-name="hcircumflex" unicode="&#x125;" horiz-adv-x="1087" 
d="M428 1315v-600h14q94 295 318 295q122 0 188 -88t66 -248v-674h-348v573q0 57 -28 90t-79 33q-60 0 -95.5 -44.5t-35.5 -114.5v-537h-348v1315h348zM492 1333l-238 148l-238 -148l-100 119l289 270h100l287 -270z" />
    <glyph glyph-name="Hbar" unicode="&#x126;" horiz-adv-x="1435" 
d="M143 1059v170h369v-170h410v170h368v-170h121v-225h-121v-834h-368v385h-410v-385h-369v834h-118v225h118zM922 834h-410v-140h410v140z" />
    <glyph glyph-name="hbar" unicode="&#x127;" horiz-adv-x="1110" 
d="M700 1219v-168h-254v-336h15q94 295 317 295q122 0 188 -88t66 -248v-674h-348v573q0 58 -27.5 90.5t-78.5 32.5q-61 0 -96.5 -44.5t-35.5 -114.5v-537h-348v1051h-92v168h92v96h348v-96h254z" />
    <glyph glyph-name="Itilde" unicode="&#x128;" horiz-adv-x="536" 
d="M453 1229v-1229h-369v1229h369zM125 1696q42 0 78 -16t59.5 -38.5t43.5 -45t40 -38.5t39 -16q39 0 52.5 33.5t13.5 107.5h139q6 -52 6 -96q0 -137 -48 -204.5t-136 -67.5q-38 0 -70.5 16t-55.5 38.5t-43 44.5t-43 38t-46 16q-36 0 -50 -32t-14 -109h-139q-6 49 -6 94
q0 133 49 204t131 71z" />
    <glyph glyph-name="itilde" unicode="&#x129;" horiz-adv-x="507" 
d="M428 979v-979h-348v979h348zM111 1456q42 0 78 -16t59.5 -38t43.5 -44.5t40 -38.5t39 -16q39 0 52 33t13 108h139q7 -61 7 -96q0 -137 -48.5 -205t-136.5 -68q-38 0 -70.5 16t-55.5 38.5t-43 45t-43 38.5t-46 16q-36 0 -49.5 -32.5t-13.5 -109.5h-139q-7 58 -7 95
q0 133 49.5 203.5t131.5 70.5z" />
    <glyph glyph-name="Imacron" unicode="&#x12a;" horiz-adv-x="536" 
d="M453 1229v-1229h-369v1229h369zM-12 1358v225h565v-225h-565z" />
    <glyph glyph-name="imacron" unicode="&#x12b;" horiz-adv-x="507" 
d="M428 979v-979h-348v979h348zM-23 1130v228h555v-228h-555z" />
    <glyph glyph-name="Ibreve" unicode="&#x12c;" horiz-adv-x="536" 
d="M453 1229v-1229h-369v1229h369zM268 1542q67 0 107 28.5t51 102.5h147q0 -181 -74 -260.5t-231 -79.5t-231 79.5t-74 260.5h148q11 -74 50.5 -102.5t106.5 -28.5z" />
    <glyph glyph-name="ibreve" unicode="&#x12d;" horiz-adv-x="507" 
d="M428 979v-979h-348v979h348zM254 1292q67 0 107 33t51 119h147q0 -193 -74 -277t-231 -84t-231 84t-74 277h147q11 -86 51 -119t107 -33z" />
    <glyph glyph-name="Iogonek" unicode="&#x12e;" horiz-adv-x="536" 
d="M453 1229v-1229q-104 -18 -148.5 -38t-44.5 -54q0 -47 88 -47q48 0 105 14v-211q-72 -10 -127 -10q-248 0 -248 160q0 131 194 186h-188v1229h369z" />
    <glyph glyph-name="iogonek" unicode="&#x12f;" horiz-adv-x="507" 
d="M428 979v-979h-348v979h348zM428 1315v-232h-348v232h348zM397 29l33 -29q-106 -18 -150 -38t-44 -54q0 -47 88 -47q46 0 106 14v-211q-78 -10 -127 -10q-248 0 -248 160q0 175 342 215z" />
    <glyph glyph-name="Idotaccent" unicode="&#x130;" horiz-adv-x="536" 
d="M453 1229v-1229h-369v1229h369zM113 1329v299h313v-299h-313z" />
    <glyph glyph-name="dotlessi" unicode="&#x131;" horiz-adv-x="507" 
d="M428 979v-979h-348v979h348z" />
    <glyph glyph-name="IJ" unicode="&#x132;" horiz-adv-x="1196" 
d="M453 1229v-1229h-369v1229h369zM743 403v826h369v-826q0 -187 -88 -303t-301 -116q-78 0 -172 16l16 311q58 -10 88 -10q43 0 65.5 28t22.5 74z" />
    <glyph glyph-name="ij" unicode="&#x133;" horiz-adv-x="1032" 
d="M428 979v-979h-348v979h348zM428 1315v-232h-348v232h348zM952 979v-887q0 -204 -90.5 -312t-300.5 -108q-37 0 -90 9l14 296q30 -6 58 -6q61 0 61 72v936h348zM952 1315v-232h-348v232h348z" />
    <glyph glyph-name="Jcircumflex" unicode="&#x134;" horiz-adv-x="659" 
d="M207 403v826h368v-826q0 -187 -88 -303t-301 -116q-78 0 -172 16l17 311q58 -10 88 -10q43 0 65.5 28t22.5 74zM631 1298l-238 148l-237 -148l-101 119l289 271h100l287 -271z" />
    <glyph glyph-name="jcircumflex" unicode="&#x135;" horiz-adv-x="540" 
d="M444 979v-918q0 -204 -90.5 -311.5t-300.5 -107.5q-43 0 -90 8l14 301q30 -6 58 -6q61 0 61 71v963h348zM440 1073l-172 133l-168 -133l-100 109l219 250h100l222 -250z" />
    <glyph glyph-name="uni0136" unicode="&#x136;" horiz-adv-x="1210" 
d="M84 0v1229h369v-506h61l293 506h418v-23l-437 -600l439 -583v-23h-428l-279 430h-67v-430h-369zM391 -444l78 348h322l-146 -367h-254v19z" />
    <glyph glyph-name="uni0137" unicode="&#x137;" horiz-adv-x="1060" 
d="M80 1315h348v-694h55l189 358h395v-23l-307 -452l317 -481v-23h-395l-209 373h-45v-373h-348v1315zM334 -444l78 348h321l-145 -367h-254v19z" />
    <glyph glyph-name="kgreenlandic" unicode="&#x138;" horiz-adv-x="1060" 
d="M80 979h348v-358h55l189 358h395v-23l-307 -452l317 -481v-23h-395l-209 373h-45v-373h-348v979z" />
    <glyph glyph-name="Lacute" unicode="&#x139;" horiz-adv-x="987" 
d="M84 1229h369v-901h495v-328h-864v1229zM725 1446l-553 -129l-55 174l530 201z" />
    <glyph glyph-name="lacute" unicode="&#x13a;" horiz-adv-x="507" 
d="M80 1315h348v-1315h-348v1315zM637 1559l-553 -129l-55 174l530 200z" />
    <glyph glyph-name="uni013B" unicode="&#x13b;" horiz-adv-x="987" 
d="M84 1229h369v-901h495v-328h-864v1229zM283 -444l77 348h322l-145 -367h-254v19z" />
    <glyph glyph-name="uni013C" unicode="&#x13c;" horiz-adv-x="507" 
d="M80 1315h348v-1315h-348v1315zM20 -444l78 348h322l-146 -367h-254v19z" />
    <glyph glyph-name="Lcaron" unicode="&#x13d;" horiz-adv-x="987" 
d="M84 1229h369v-901h495v-328h-864v1229zM711 725l26 518h254l-67 -518h-213z" />
    <glyph glyph-name="lcaron" unicode="&#x13e;" horiz-adv-x="792" 
d="M80 1315h348v-1315h-348v1315zM512 797l27 518h254l-68 -518h-213z" />
    <glyph glyph-name="Ldot" unicode="&#x13f;" horiz-adv-x="987" 
d="M84 1229h369v-901h495v-328h-864v1229zM635 588v289h305v-289h-305z" />
    <glyph glyph-name="ldot" unicode="&#x140;" horiz-adv-x="851" 
d="M80 1315h348v-1315h-348v1315zM528 520v299h314v-299h-314z" />
    <glyph glyph-name="Lslash" unicode="&#x141;" horiz-adv-x="1048" 
d="M31 375v213l114 47v594h369v-441l246 105v-217l-246 -103v-245h496v-328h-865v422z" />
    <glyph glyph-name="lslash" unicode="&#x142;" horiz-adv-x="630" 
d="M16 354v207l125 64v690h348v-514l127 65v-211l-127 -63v-592h-348v418z" />
    <glyph glyph-name="Nacute" unicode="&#x143;" horiz-adv-x="1347" 
d="M1264 0h-486l-176 399q-49 110 -182 498l-25 -2q27 -314 27 -584v-311h-338v1229h516l148 -328q92 -208 178 -510l24 4q-24 305 -24 510v324h338v-1229zM1053 1446l-553 -129l-56 174l531 201z" />
    <glyph glyph-name="nacute" unicode="&#x144;" horiz-adv-x="1087" 
d="M418 979v-264h22q42 147 123.5 221t192.5 74q124 0 191 -88t67 -248v-674h-348v573q0 57 -28 90t-79 33q-60 0 -95.5 -44.5t-35.5 -114.5v-537h-348v979h338zM948 1253l-524 -213l-86 166l489 281z" />
    <glyph glyph-name="uni0145" unicode="&#x145;" horiz-adv-x="1347" 
d="M1264 0h-486l-176 399q-49 110 -182 498l-25 -2q27 -314 27 -584v-311h-338v1229h516l148 -328q92 -208 178 -510l24 4q-24 305 -24 510v324h338v-1229zM451 -444l77 348h322l-145 -367h-254v19z" />
    <glyph glyph-name="uni0146" unicode="&#x146;" horiz-adv-x="1087" 
d="M418 979v-264h22q42 147 123.5 221t192.5 74q124 0 191 -88t67 -248v-674h-348v573q0 57 -28 90t-79 33q-60 0 -95.5 -44.5t-35.5 -114.5v-537h-348v979h338zM324 -444l77 348h322l-145 -367h-254v19z" />
    <glyph glyph-name="Ncaron" unicode="&#x147;" horiz-adv-x="1347" 
d="M1264 0h-486l-176 399q-49 110 -182 498l-25 -2q27 -314 27 -584v-311h-338v1229h516l148 -328q92 -208 178 -510l24 4q-24 305 -24 510v324h338v-1229zM438 1698l238 -148l237 148l101 -119l-289 -270h-100l-287 270z" />
    <glyph glyph-name="ncaron" unicode="&#x148;" horiz-adv-x="1087" 
d="M418 979v-264h22q42 147 123.5 221t192.5 74q124 0 191 -88t67 -248v-674h-348v573q0 57 -28 90t-79 33q-60 0 -95.5 -44.5t-35.5 -114.5v-537h-348v979h338zM322 1495l227 -174l227 174l111 -119l-289 -305h-100l-287 305z" />
    <glyph glyph-name="napostrophe" unicode="&#x149;" horiz-adv-x="1398" 
d="M39 643l63 586h351l-222 -598h-192v12zM725 979v-264h23q42 147 123 221t192 74q124 0 191 -88t67 -248v-674h-348v573q0 57 -28 90t-79 33q-60 0 -95.5 -44.5t-35.5 -114.5v-537h-348v979h338z" />
    <glyph glyph-name="Eng" unicode="&#x14a;" horiz-adv-x="1347" 
d="M422 0h-338v1229h516l162 -301q103 -205 176 -408l8 2q-20 210 -20 404v303h338v-1172q0 -387 -390 -387q-72 0 -172 17l17 286q72 -14 108 -14q40 0 60 16.5t20 44.5l-229 371q-50 76 -130.5 230t-135.5 278h-17q27 -317 27 -588v-311z" />
    <glyph glyph-name="eng" unicode="&#x14b;" horiz-adv-x="1087" 
d="M666 47v526q0 57 -28 90t-79 33q-60 0 -95.5 -44.5t-35.5 -114.5v-537h-348v979h338v-264h22q42 147 123.5 221t192.5 74q124 0 191 -88t67 -248v-582q0 -204 -90.5 -312t-300.5 -108q-39 0 -91 9l15 301q35 -7 57 -7q62 0 62 72z" />
    <glyph glyph-name="Omacron" unicode="&#x14c;" horiz-adv-x="1343" 
d="M672 -31q-299 0 -464 172.5t-165 476.5q0 301 170 471.5t459 170.5q293 0 460.5 -169.5t167.5 -472.5q0 -304 -164.5 -476.5t-463.5 -172.5zM670 283q141 0 202.5 85t61.5 253q0 319 -262 319t-262 -319q0 -166 61.5 -252t198.5 -86zM391 1358v225h565v-225h-565z" />
    <glyph glyph-name="omacron" unicode="&#x14d;" horiz-adv-x="1110" 
d="M557 -31q-242 0 -379 138t-137 382q0 245 137 383t379 138q239 0 375.5 -138t136.5 -383q0 -244 -137 -382t-375 -138zM555 721q-89 0 -127.5 -57.5t-38.5 -174.5q0 -116 38 -171.5t128 -55.5t129 55.5t39 171.5t-39 174t-129 58zM279 1130v228h555v-228h-555z" />
    <glyph glyph-name="Obreve" unicode="&#x14e;" horiz-adv-x="1343" 
d="M672 -31q-299 0 -464 172.5t-165 476.5q0 301 170 471.5t459 170.5q293 0 460.5 -169.5t167.5 -472.5q0 -304 -164.5 -476.5t-463.5 -172.5zM670 283q141 0 202.5 85t61.5 253q0 319 -262 319t-262 -319q0 -166 61.5 -252t198.5 -86zM672 1542q67 0 106.5 28.5
t50.5 102.5h148q0 -181 -74 -260.5t-231 -79.5t-231 79.5t-74 260.5h147q11 -74 51 -102.5t107 -28.5z" />
    <glyph glyph-name="obreve" unicode="&#x14f;" horiz-adv-x="1110" 
d="M557 -31q-242 0 -379 138t-137 382q0 245 137 383t379 138q239 0 375.5 -138t136.5 -383q0 -244 -137 -382t-375 -138zM555 721q-89 0 -127.5 -57.5t-38.5 -174.5q0 -116 38 -171.5t128 -55.5t129 55.5t39 171.5t-39 174t-129 58zM555 1292q67 0 107 33t51 119h147
q0 -193 -74 -277t-231 -84t-231 84t-74 277h147q11 -86 51 -119t107 -33z" />
    <glyph glyph-name="Ohungarumlaut" unicode="&#x150;" horiz-adv-x="1343" 
d="M672 -31q-299 0 -464 172.5t-165 476.5q0 301 170 471.5t459 170.5q293 0 460.5 -169.5t167.5 -472.5q0 -304 -164.5 -476.5t-463.5 -172.5zM670 283q141 0 202.5 85t61.5 253q0 319 -262 319t-262 -319q0 -166 61.5 -252t198.5 -86zM1110 1591l-227 -282l-146 100
l183 307zM776 1604l-198 -295l-156 86l156 321z" />
    <glyph glyph-name="ohungarumlaut" unicode="&#x151;" horiz-adv-x="1110" 
d="M557 -31q-242 0 -379 138t-137 382q0 245 137 383t379 138q239 0 375.5 -138t136.5 -383q0 -244 -137 -382t-375 -138zM555 721q-89 0 -127.5 -57.5t-38.5 -174.5q0 -116 38 -171.5t128 -55.5t129 55.5t39 171.5t-39 174t-129 58zM967 1362l-252 -303l-133 96l206 326z
M643 1378l-215 -321l-143 80l170 346z" />
    <glyph glyph-name="OE" unicode="&#x152;" horiz-adv-x="1857" 
d="M698 1229h260h828v-318h-610v-163h569v-261h-569v-170h610v-317h-1088q-304 0 -479.5 162t-175.5 456q0 194 84.5 333.5t231 208.5t339.5 69zM807 317v594h-109q-140 0 -214 -76.5t-74 -213.5q0 -304 286 -304h111z" />
    <glyph glyph-name="oe" unicode="&#x153;" horiz-adv-x="1732" 
d="M516 -31q-223 0 -349 138t-126 382q0 246 126 383.5t349 137.5q135 0 229.5 -67t139.5 -191h24q89 258 379 258q197 0 297.5 -119.5t100.5 -327.5q0 -75 -7 -135h-612q7 -100 46.5 -141t119.5 -41q71 0 102 25.5t47 74.5l291 -78q-18 -66 -44.5 -115.5t-70.5 -93
t-112.5 -67t-159.5 -23.5q-287 0 -379 248h-26q-45 -119 -138.5 -183.5t-226.5 -64.5zM555 721q-89 0 -127.5 -57.5t-38.5 -174.5q0 -116 38 -171.5t128 -55.5t129 55.5t39 171.5t-39 174t-129 58zM1067 561h301q3 193 -141 193q-76 0 -114.5 -44.5t-45.5 -148.5z" />
    <glyph glyph-name="Racute" unicode="&#x154;" horiz-adv-x="1230" 
d="M588 379h-135v-379h-369v1229h565q246 0 375 -107t129 -325q0 -263 -211 -363l283 -411v-23h-428zM623 922h-170v-275h176q89 0 124 31.5t35 105.5q0 73 -39 105.5t-126 32.5zM975 1446l-553 -129l-55 174l530 201z" />
    <glyph glyph-name="racute" unicode="&#x155;" horiz-adv-x="745" 
d="M408 979v-344l28 -2q26 116 52.5 188t58.5 108.5t63.5 48t79.5 11.5h25v-401h-66q-95 0 -141.5 -17t-63 -53.5t-16.5 -111.5v-406h-348v979h328zM797 1253l-525 -213l-86 166l490 281z" />
    <glyph glyph-name="uni0156" unicode="&#x156;" horiz-adv-x="1230" 
d="M588 379h-135v-379h-369v1229h565q246 0 375 -107t129 -325q0 -263 -211 -363l283 -411v-23h-428zM623 922h-170v-275h176q89 0 124 31.5t35 105.5q0 73 -39 105.5t-126 32.5zM381 -444l78 348h321l-145 -367h-254v19z" />
    <glyph glyph-name="uni0157" unicode="&#x157;" horiz-adv-x="745" 
d="M408 979v-344l28 -2q26 116 52.5 188t58.5 108.5t63.5 48t79.5 11.5h25v-401h-66q-95 0 -141.5 -17t-63 -53.5t-16.5 -111.5v-406h-348v979h328zM23 -444l77 348h322l-146 -367h-253v19z" />
    <glyph glyph-name="Rcaron" unicode="&#x158;" horiz-adv-x="1230" 
d="M588 379h-135v-379h-369v1229h565q246 0 375 -107t129 -325q0 -263 -211 -363l283 -411v-23h-428zM623 922h-170v-275h176q89 0 124 31.5t35 105.5q0 73 -39 105.5t-126 32.5zM360 1698l238 -148l238 148l100 -119l-289 -270h-100l-287 270z" />
    <glyph glyph-name="rcaron" unicode="&#x159;" horiz-adv-x="745" 
d="M408 979v-344l28 -2q26 116 52.5 188t58.5 108.5t63.5 48t79.5 11.5h25v-401h-66q-95 0 -141.5 -17t-63 -53.5t-16.5 -111.5v-406h-348v979h328zM168 1495l227 -174l228 174l110 -119l-289 -305h-100l-287 305z" />
    <glyph glyph-name="Sacute" unicode="&#x15a;" horiz-adv-x="1196" 
d="M606 -31q-123 0 -219 21t-157.5 55.5t-103 85t-61 102.5t-26.5 115l350 76q37 -164 234 -164q153 0 153 78q0 34 -19.5 55t-77.5 40.5t-167 37.5q-127 18 -214.5 53t-138 87t-72 115.5t-21.5 147.5q0 188 132 287t398 99q473 0 524 -357l-366 -69q-18 77 -56.5 111
t-122.5 34q-145 0 -145 -86q0 -22 6.5 -36t29 -30.5t73.5 -31t133 -27.5q117 -20 202.5 -52t137.5 -68.5t82.5 -85t41.5 -95.5t11 -107q0 -391 -541 -391zM936 1446l-553 -129l-55 174l530 201z" />
    <glyph glyph-name="sacute" unicode="&#x15b;" horiz-adv-x="991" 
d="M498 -31q-103 0 -181.5 16t-128.5 42t-83.5 65.5t-49.5 82t-22 95.5l309 64q32 -127 164 -127q97 0 100 61q0 31 -36.5 54t-149.5 49q-208 49 -287.5 121t-79.5 206q0 152 109 232t327 80q111 0 190 -19.5t127 -58.5t73.5 -87.5t38.5 -115.5l-308 -63q-11 61 -39 86.5
t-90 25.5q-100 0 -100 -59q0 -23 8.5 -37t48.5 -32t119 -36q118 -26 196 -59.5t117.5 -77t54.5 -88t15 -104.5q0 -316 -442 -316zM899 1253l-524 -213l-86 166l489 281z" />
    <glyph glyph-name="Scircumflex" unicode="&#x15c;" horiz-adv-x="1196" 
d="M606 -31q-123 0 -219 21t-157.5 55.5t-103 85t-61 102.5t-26.5 115l350 76q37 -164 234 -164q153 0 153 78q0 34 -19.5 55t-77.5 40.5t-167 37.5q-127 18 -214.5 53t-138 87t-72 115.5t-21.5 147.5q0 188 132 287t398 99q473 0 524 -357l-366 -69q-18 77 -56.5 111
t-122.5 34q-145 0 -145 -86q0 -22 6.5 -36t29 -30.5t73.5 -31t133 -27.5q117 -20 202.5 -52t137.5 -68.5t82.5 -85t41.5 -95.5t11 -107q0 -391 -541 -391zM827 1298l-237 148l-238 -148l-100 119l289 271h100l287 -271z" />
    <glyph glyph-name="scircumflex" unicode="&#x15d;" horiz-adv-x="991" 
d="M498 -31q-103 0 -181.5 16t-128.5 42t-83.5 65.5t-49.5 82t-22 95.5l309 64q32 -127 164 -127q97 0 100 61q0 31 -36.5 54t-149.5 49q-208 49 -287.5 121t-79.5 206q0 152 109 232t327 80q111 0 190 -19.5t127 -58.5t73.5 -87.5t38.5 -115.5l-308 -63q-11 61 -39 86.5
t-90 25.5q-100 0 -100 -59q0 -23 8.5 -37t48.5 -32t119 -36q118 -26 196 -59.5t117.5 -77t54.5 -88t15 -104.5q0 -316 -442 -316zM725 1044l-227 173l-228 -173l-110 119l289 305h100l287 -305z" />
    <glyph glyph-name="Scedilla" unicode="&#x15e;" horiz-adv-x="1196" 
d="M612 -344q-123 0 -209 55l62 96q65 -43 147 -43q62 0 62 43q0 46 -64 46q-37 0 -71 -15l-80 33l37 102q-418 36 -457 375l350 76q37 -164 234 -164q153 0 153 78q0 34 -19.5 55t-77.5 40.5t-167 37.5q-127 18 -214.5 53t-138 87t-72 115.5t-21.5 147.5q0 188 132 287
t398 99q473 0 524 -357l-366 -69q-18 77 -56.5 111t-122.5 34q-145 0 -145 -86q0 -22 6.5 -36t29 -30.5t73.5 -31t133 -27.5q117 -20 202.5 -52t137.5 -68.5t82.5 -85t41.5 -95.5t11 -107q0 -388 -531 -391l-22 -55q38 10 65 10q150 0 150 -129q0 -53 -47 -96t-150 -43z" />
    <glyph glyph-name="scedilla" unicode="&#x15f;" horiz-adv-x="991" 
d="M506 -344q-129 0 -209 55l59 96q68 -43 150 -43q59 0 59 43q0 46 -63 46q-36 0 -70 -15l-80 33l37 102q-95 11 -163 37.5t-107.5 67.5t-59.5 87t-26 105l309 64q32 -127 164 -127q97 0 100 61q0 31 -36.5 54t-149.5 49q-208 49 -287.5 121t-79.5 206q0 152 109 232
t327 80q111 0 190 -19.5t127 -58.5t73.5 -87.5t38.5 -115.5l-308 -63q-11 61 -39 86.5t-90 25.5q-100 0 -100 -59q0 -23 8.5 -37t48.5 -32t119 -36q118 -26 196 -59.5t117.5 -77t54.5 -88t15 -104.5q0 -313 -432 -316l-21 -55q33 10 66 10q147 0 147 -129q0 -53 -45.5 -96
t-148.5 -43z" />
    <glyph glyph-name="Scaron" unicode="&#x160;" horiz-adv-x="1196" 
d="M606 -31q-123 0 -219 21t-157.5 55.5t-103 85t-61 102.5t-26.5 115l350 76q37 -164 234 -164q153 0 153 78q0 34 -19.5 55t-77.5 40.5t-167 37.5q-127 18 -214.5 53t-138 87t-72 115.5t-21.5 147.5q0 188 132 287t398 99q473 0 524 -357l-366 -69q-18 77 -56.5 111
t-122.5 34q-145 0 -145 -86q0 -22 6.5 -36t29 -30.5t73.5 -31t133 -27.5q117 -20 202.5 -52t137.5 -68.5t82.5 -85t41.5 -95.5t11 -107q0 -391 -541 -391zM352 1698l238 -148l237 148l101 -119l-289 -270h-100l-287 270z" />
    <glyph glyph-name="scaron" unicode="&#x161;" horiz-adv-x="991" 
d="M498 -31q-103 0 -181.5 16t-128.5 42t-83.5 65.5t-49.5 82t-22 95.5l309 64q32 -127 164 -127q97 0 100 61q0 31 -36.5 54t-149.5 49q-208 49 -287.5 121t-79.5 206q0 152 109 232t327 80q111 0 190 -19.5t127 -58.5t73.5 -87.5t38.5 -115.5l-308 -63q-11 61 -39 86.5
t-90 25.5q-100 0 -100 -59q0 -23 8.5 -37t48.5 -32t119 -36q118 -26 196 -59.5t117.5 -77t54.5 -88t15 -104.5q0 -316 -442 -316zM270 1495l228 -174l227 174l111 -119l-289 -305h-101l-286 305z" />
    <glyph glyph-name="uni0162" unicode="&#x162;" horiz-adv-x="1064" 
d="M348 891h-323v338h1015v-338h-323v-891h-170l-33 -86q38 10 66 10q149 0 149 -129q0 -53 -47 -96t-150 -43q-122 0 -208 55l61 96q65 -43 147 -43q62 0 62 43q0 46 -64 46q-37 0 -71 -15l-80 33l47 129h-78v891z" />
    <glyph glyph-name="uni0163" unicode="&#x163;" horiz-adv-x="751" 
d="M25 709v270h100v240h348v-240h223v-270h-223v-328q0 -44 19.5 -64t68.5 -20q41 0 115 22l37 -311q-49 -15 -74.5 -21.5t-69.5 -12t-102 -5.5q-41 0 -78 6l-24 -61q38 10 65 10q150 0 150 -129q0 -53 -47 -96t-150 -43q-123 0 -209 55l62 96q65 -43 147 -43q61 0 61 43
q0 46 -63 46q-38 0 -72 -15l-80 33l52 141q-79 43 -117.5 122.5t-38.5 182.5v392h-100z" />
    <glyph glyph-name="Tcaron" unicode="&#x164;" horiz-adv-x="1064" 
d="M348 891h-323v338h1015v-338h-323v-891h-369v891zM297 1698l238 -148l237 148l100 -119l-288 -270h-101l-286 270z" />
    <glyph glyph-name="tcaron" unicode="&#x165;" horiz-adv-x="772" 
d="M25 709v270h100v240h348v-240h223v-270h-223v-328q0 -44 19.5 -64t68.5 -20q41 0 115 22l37 -311q-49 -15 -74.5 -21.5t-69.5 -12t-102 -5.5q-89 0 -156 28t-107 77t-59.5 110t-19.5 133v392h-100zM575 1085l9 326h239l-49 -326h-199z" />
    <glyph glyph-name="Tbar" unicode="&#x166;" horiz-adv-x="1081" 
d="M969 598v-192h-242v-406h-369v406h-241v192h241v293h-323v338h1016v-338h-324v-293h242z" />
    <glyph glyph-name="tbar" unicode="&#x167;" horiz-adv-x="751" 
d="M657 596v-172h-184v-43q0 -44 19.5 -64t68.5 -20q41 0 115 22l37 -311q-49 -15 -74.5 -21.5t-69.5 -12t-102 -5.5q-89 0 -156 28t-107 77t-59.5 110t-19.5 133v107h-72v172h72v113h-100v270h100v240h348v-240h223v-270h-223v-113h184z" />
    <glyph glyph-name="Utilde" unicode="&#x168;" horiz-adv-x="1300" 
d="M651 295q112 0 155.5 54t43.5 165v715h369v-746q0 -247 -146.5 -379.5t-421.5 -132.5q-276 0 -421.5 132.5t-145.5 379.5v746h369v-715q0 -111 43.5 -165t154.5 -54zM508 1696q42 0 78 -16t59.5 -38.5t43.5 -45t40 -38.5t39 -16q39 0 52.5 33.5t13.5 107.5h139
q6 -52 6 -96q0 -137 -48 -204.5t-136 -67.5q-38 0 -70.5 16t-55.5 38.5t-43 44.5t-43 38t-46 16q-36 0 -50 -32t-14 -109h-139q-6 50 -6 94q0 133 49 204t131 71z" />
    <glyph glyph-name="utilde" unicode="&#x169;" 
d="M674 0v266h-23q-42 -149 -123 -223t-190 -74q-127 0 -193.5 87.5t-66.5 248.5v674h348v-571q0 -60 27.5 -92.5t78.5 -32.5q61 0 96.5 44t35.5 117v535h348v-979h-338zM401 1456q52 0 95 -24t66.5 -52.5t50.5 -52.5t49 -24q39 0 52 33t13 108h139q6 -52 6 -96
q0 -137 -48 -205t-136 -68q-38 0 -70.5 16t-55.5 38.5t-43 45t-43 38.5t-46 16q-36 0 -49.5 -32.5t-13.5 -109.5h-140q-6 49 -6 95q0 133 49 203.5t131 70.5z" />
    <glyph glyph-name="Umacron" unicode="&#x16a;" horiz-adv-x="1300" 
d="M651 295q112 0 155.5 54t43.5 165v715h369v-746q0 -247 -146.5 -379.5t-421.5 -132.5q-276 0 -421.5 132.5t-145.5 379.5v746h369v-715q0 -111 43.5 -165t154.5 -54zM371 1358v225h565v-225h-565z" />
    <glyph glyph-name="umacron" unicode="&#x16b;" 
d="M674 0v266h-23q-42 -149 -123 -223t-190 -74q-127 0 -193.5 87.5t-66.5 248.5v674h348v-571q0 -60 27.5 -92.5t78.5 -32.5q61 0 96.5 44t35.5 117v535h348v-979h-338zM268 1130v228h555v-228h-555z" />
    <glyph glyph-name="Ubreve" unicode="&#x16c;" horiz-adv-x="1300" 
d="M651 295q112 0 155.5 54t43.5 165v715h369v-746q0 -247 -146.5 -379.5t-421.5 -132.5q-276 0 -421.5 132.5t-145.5 379.5v746h369v-715q0 -111 43.5 -165t154.5 -54zM651 1542q67 0 107 28.5t51 102.5h147q0 -181 -74 -260.5t-231 -79.5t-231 79.5t-74 260.5h148
q11 -74 50.5 -102.5t106.5 -28.5z" />
    <glyph glyph-name="ubreve" unicode="&#x16d;" 
d="M674 0v266h-23q-42 -149 -123 -223t-190 -74q-127 0 -193.5 87.5t-66.5 248.5v674h348v-571q0 -60 27.5 -92.5t78.5 -32.5q61 0 96.5 44t35.5 117v535h348v-979h-338zM545 1292q67 0 106.5 33t50.5 119h148q0 -193 -74 -277t-231 -84t-231 84t-74 277h147q11 -86 51 -119
t107 -33z" />
    <glyph glyph-name="Uring" unicode="&#x16e;" horiz-adv-x="1300" 
d="M651 295q112 0 155.5 54t43.5 165v715h369v-746q0 -247 -146.5 -379.5t-421.5 -132.5q-276 0 -421.5 132.5t-145.5 379.5v746h369v-715q0 -111 43.5 -165t154.5 -54zM897 1540q0 -105 -66 -168t-180 -63q-112 0 -178.5 62.5t-66.5 166.5q0 105 66.5 168t178.5 63
q115 0 180.5 -62t65.5 -167zM561 1538q0 -37 24.5 -59.5t65.5 -22.5t65.5 23t24.5 61q0 37 -24.5 60.5t-65.5 23.5t-65.5 -23.5t-24.5 -62.5z" />
    <glyph glyph-name="uring" unicode="&#x16f;" 
d="M674 0v266h-23q-42 -149 -123 -223t-190 -74q-127 0 -193.5 87.5t-66.5 248.5v674h348v-571q0 -60 27.5 -92.5t78.5 -32.5q61 0 96.5 44t35.5 117v535h348v-979h-338zM791 1317q0 -111 -65.5 -176.5t-180.5 -65.5q-112 0 -179 65.5t-67 174.5t67 175t179 66
q114 0 180 -66t66 -173zM455 1315q0 -43 24.5 -68.5t65.5 -25.5t65.5 26t24.5 70q0 42 -24.5 68t-65.5 26t-65.5 -26.5t-24.5 -69.5z" />
    <glyph glyph-name="Uhungarumlaut" unicode="&#x170;" horiz-adv-x="1300" 
d="M651 295q112 0 155.5 54t43.5 165v715h369v-746q0 -247 -146.5 -379.5t-421.5 -132.5q-276 0 -421.5 132.5t-145.5 379.5v746h369v-715q0 -111 43.5 -165t154.5 -54zM1090 1591l-228 -282l-145 100l182 307zM756 1604l-199 -295l-156 86l156 321z" />
    <glyph glyph-name="uhungarumlaut" unicode="&#x171;" 
d="M674 0v266h-23q-42 -149 -123 -223t-190 -74q-127 0 -193.5 87.5t-66.5 248.5v674h348v-571q0 -60 27.5 -92.5t78.5 -32.5q61 0 96.5 44t35.5 117v535h348v-979h-338zM956 1362l-251 -303l-134 96l207 326zM633 1378l-215 -321l-144 80l170 346z" />
    <glyph glyph-name="Uogonek" unicode="&#x172;" horiz-adv-x="1300" 
d="M651 295q112 0 155.5 54t43.5 165v715h369v-746q0 -220 -117 -350t-338 -156q-88 -24 -88 -69q0 -47 88 -47q46 0 106 14v-211q-78 -10 -127 -10q-247 0 -247 160q0 101 118 157q-258 10 -394 142t-136 370v746h369v-715q0 -111 43.5 -165t154.5 -54z" />
    <glyph glyph-name="uogonek" unicode="&#x173;" 
d="M1012 979v-979q-104 -18 -148.5 -38t-44.5 -54q0 -47 88 -47q48 0 105 14v-211q-72 -10 -127 -10q-248 0 -248 160q0 131 194 186h-157v266h-23q-42 -149 -123 -223t-190 -74q-127 0 -193.5 87.5t-66.5 248.5v674h348v-571q0 -60 27.5 -92.5t78.5 -32.5q61 0 96.5 44
t35.5 117v535h348z" />
    <glyph glyph-name="Wcircumflex" unicode="&#x174;" horiz-adv-x="1775" 
d="M893 934h-29q-18 -176 -47 -412l-61 -522h-502l-283 1229h396l82 -488q39 -234 61 -428h29q27 244 57 428l80 488h463l75 -488q22 -131 54 -428h30q6 54 62 428l70 488h374l-274 -1229h-531l-65 522q-28 226 -41 412zM1126 1298l-237 148l-238 -148l-100 119l289 271h100
l287 -271z" />
    <glyph glyph-name="wcircumflex" unicode="&#x175;" horiz-adv-x="1544" 
d="M598 979h385l66 -389q17 -112 43 -320h30q7 53 24 158.5t25 161.5l58 389h340l-248 -979h-455l-57 416q-21 137 -33 295h-26q-6 -57 -18 -161.5t-15 -133.5l-49 -416h-443l-248 979h359l72 -389q31 -150 53 -320h28q13 146 43 320zM1006 1044l-228 173l-227 -173
l-111 119l289 305h100l287 -305z" />
    <glyph glyph-name="Ycircumflex" unicode="&#x176;" horiz-adv-x="1146" 
d="M758 375v-375h-369v375l-428 831v23h410l186 -541h35l196 541h398v-23zM813 1298l-238 148l-237 -148l-100 119l288 271h101l286 -271z" />
    <glyph glyph-name="ycircumflex" unicode="&#x177;" horiz-adv-x="1005" 
d="M342 14l-334 965h379l80 -367q7 -33 26 -126.5t29 -145.5h23q9 50 26.5 139t24.5 127l70 373h374l-366 -973q-67 -177 -179 -255.5t-311 -78.5q-49 0 -166 17l45 278q72 -14 127 -14q64 0 98 13t54 48zM741 1044l-227 173l-227 -173l-111 119l289 305h100l287 -305z" />
    <glyph glyph-name="Ydieresis" unicode="&#x178;" horiz-adv-x="1146" 
d="M758 375v-375h-369v375l-428 831v23h410l186 -541h35l196 541h398v-23zM256 1337v271h283v-271h-283zM598 1337v271h281v-271h-281z" />
    <glyph glyph-name="Zacute" unicode="&#x179;" horiz-adv-x="1212" 
d="M836 336h305v-336h-1075v328l591 571l-10 21q-226 -27 -321 -27h-244v336h1048v-328l-600 -579l7 -15q205 29 299 29zM983 1446l-553 -129l-55 174l530 201z" />
    <glyph glyph-name="zacute" unicode="&#x17a;" horiz-adv-x="1042" 
d="M715 287h252v-287h-901v297l499 408l-8 14q-201 -27 -287 -27h-188v287h881v-295l-502 -414l4 -10q177 27 250 27zM920 1253l-525 -213l-86 166l490 281z" />
    <glyph glyph-name="Zdotaccent" unicode="&#x17b;" horiz-adv-x="1212" 
d="M836 336h305v-336h-1075v328l591 571l-10 21q-226 -27 -321 -27h-244v336h1048v-328l-600 -579l7 -15q205 29 299 29zM446 1329v299h314v-299h-314z" />
    <glyph glyph-name="zdotaccent" unicode="&#x17c;" horiz-adv-x="1042" 
d="M715 287h252v-287h-901v297l499 408l-8 14q-201 -27 -287 -27h-188v287h881v-295l-502 -414l4 -10q177 27 250 27zM360 1124v299h314v-299h-314z" />
    <glyph glyph-name="Zcaron" unicode="&#x17d;" horiz-adv-x="1212" 
d="M836 336h305v-336h-1075v328l591 571l-10 21q-226 -27 -321 -27h-244v336h1048v-328l-600 -579l7 -15q205 29 299 29zM367 1698l237 -148l238 148l100 -119l-289 -270h-100l-287 270z" />
    <glyph glyph-name="zcaron" unicode="&#x17e;" horiz-adv-x="1042" 
d="M715 287h252v-287h-901v297l499 408l-8 14q-201 -27 -287 -27h-188v287h881v-295l-502 -414l4 -10q177 27 250 27zM291 1495l227 -174l227 174l111 -119l-289 -305h-100l-287 305z" />
    <glyph glyph-name="Aringacute" unicode="&#x1fa;" horiz-adv-x="1245" 
d="M883 1352q0 -70 -27 -123h25l397 -1229h-395l-60 223h-411l-62 -223h-379l398 1229h22q-24 53 -24 121q0 116 70 184t188 68t188 -68.5t70 -181.5zM973 1751l-533 -121l-51 166l512 189zM485 487h267l-41 152q-19 69 -70 274h-43q-51 -205 -70 -274zM530 1350
q0 -42 26 -66t69 -24t68.5 24.5t25.5 67.5q0 41 -25.5 65.5t-68.5 24.5t-69 -25t-26 -67z" />
    <glyph glyph-name="aringacute" unicode="&#x1fb;" horiz-adv-x="1044" 
d="M305 -20q-121 0 -198.5 71t-77.5 211q0 137 89 214t283 77h217v68q0 114 -108 114q-99 0 -117 -104l-325 71q24 137 135 221.5t321 84.5q229 0 335 -99t106 -291v-618h-328v233h-29q-83 -253 -303 -253zM522 1065q-112 0 -179 62.5t-67 166.5q0 105 67 168.5t179 63.5
q115 0 180.5 -62.5t65.5 -167.5t-66 -168t-180 -63zM897 1681l-532 -120l-50 163l512 189zM618 385v37h-143q-52 0 -85.5 -25.5t-33.5 -66.5q0 -90 113 -90q67 0 108 40.5t41 104.5zM522 1212q41 0 65.5 23t24.5 61q0 37 -24.5 60.5t-65.5 23.5t-65.5 -23.5t-24.5 -62.5
q0 -37 24.5 -59.5t65.5 -22.5z" />
    <glyph glyph-name="AEacute" unicode="&#x1fc;" horiz-adv-x="1804" 
d="M487 1229h267h979v-318h-611v-163h570v-261h-570v-170h611v-317h-979v231h-310l-86 -231h-381v12zM754 500v430h-62q-10 -32 -28.5 -91t-34 -107.5t-31.5 -92.5l-53 -139h209zM1264 1446l-553 -129l-56 174l531 201z" />
    <glyph glyph-name="aeacute" unicode="&#x1fd;" horiz-adv-x="1628" 
d="M688 223q-93 -248 -366 -248q-125 0 -209 72.5t-84 214.5q0 137 89 214t283 77h217v68q0 114 -108 114q-99 0 -117 -104l-325 71q25 136 128.5 221t280.5 85q237 0 326 -150q112 152 327 152q225 0 337 -119t112 -328q0 -84 -6 -135h-612q7 -100 46 -141t119 -41
q71 0 102.5 25.5t47.5 74.5l291 -78q-19 -68 -45.5 -116.5t-74.5 -92.5t-128 -67t-191 -23q-74 0 -139.5 14t-124.5 43t-104.5 79t-71.5 118zM961 561h301q3 193 -142 193q-76 0 -114 -44.5t-45 -148.5zM618 385v37h-143q-52 0 -85.5 -25.5t-33.5 -66.5q0 -90 113 -90
q67 0 108 40.5t41 104.5zM1204 1253l-524 -213l-86 166l489 281z" />
    <glyph glyph-name="Oslashacute" unicode="&#x1fe;" horiz-adv-x="1345" 
d="M266 0h-264v12l164 178q-123 164 -123 428q0 301 170 471.5t459 170.5q209 0 360 -91l51 60h260v-12l-165 -179q122 -162 122 -420q0 -304 -164.5 -476.5t-463.5 -172.5q-213 0 -359 88zM670 272q149 0 215.5 89t66.5 260q0 82 -20 143l-408 -459q56 -33 146 -33z
M412 461l405 454q-61 37 -145 37q-75 0 -130.5 -26.5t-87 -73.5t-46.5 -104.5t-15 -126.5q0 -89 19 -160zM1051 1446l-553 -129l-56 174l531 201z" />
    <glyph glyph-name="oslashacute" unicode="&#x1ff;" horiz-adv-x="1110" 
d="M258 45l-31 -45h-239v12l143 152q-90 131 -90 325q0 245 137 383t379 138q173 0 301 -78l35 47h231v-12l-145 -152q90 -134 90 -326q0 -244 -137 -382t-375 -138q-177 0 -299 76zM555 748q-109 0 -157 -65t-48 -194q0 -51 6 -92l310 326q-45 25 -111 25zM752 578
l-303 -322q41 -20 106 -20q110 0 157.5 62.5t47.5 190.5q0 53 -8 89zM961 1253l-525 -213l-86 166l490 281z" />
    <glyph glyph-name="uni0218" unicode="&#x218;" horiz-adv-x="1196" 
d="M606 -31q-123 0 -219 21t-157.5 55.5t-103 85t-61 102.5t-26.5 115l350 76q37 -164 234 -164q153 0 153 78q0 34 -19.5 55t-77.5 40.5t-167 37.5q-127 18 -214.5 53t-138 87t-72 115.5t-21.5 147.5q0 188 132 287t398 99q473 0 524 -357l-366 -69q-18 77 -56.5 111
t-122.5 34q-145 0 -145 -86q0 -22 6.5 -36t29 -30.5t73.5 -31t133 -27.5q117 -20 202.5 -52t137.5 -68.5t82.5 -85t41.5 -95.5t11 -107q0 -391 -541 -391zM369 -444l77 348h322l-145 -367h-254v19z" />
    <glyph glyph-name="uni0219" unicode="&#x219;" horiz-adv-x="991" 
d="M498 -31q-103 0 -181.5 16t-128.5 42t-83.5 65.5t-49.5 82t-22 95.5l309 64q32 -127 164 -127q97 0 100 61q0 31 -36.5 54t-149.5 49q-208 49 -287.5 121t-79.5 206q0 152 109 232t327 80q111 0 190 -19.5t127 -58.5t73.5 -87.5t38.5 -115.5l-308 -63q-11 61 -39 86.5
t-90 25.5q-100 0 -100 -59q0 -23 8.5 -37t48.5 -32t119 -36q118 -26 196 -59.5t117.5 -77t54.5 -88t15 -104.5q0 -316 -442 -316zM260 -444l78 348h321l-145 -367h-254v19z" />
    <glyph glyph-name="uni021A" unicode="&#x21a;" horiz-adv-x="1064" 
d="M348 891h-323v338h1015v-338h-323v-891h-369v891zM309 -444l78 348h322l-146 -367h-254v19z" />
    <glyph glyph-name="uni021B" unicode="&#x21b;" horiz-adv-x="751" 
d="M25 709v270h100v240h348v-240h223v-270h-223v-328q0 -44 19.5 -64t68.5 -20q41 0 115 22l37 -311q-49 -15 -74.5 -21.5t-69.5 -12t-102 -5.5q-89 0 -156 28t-107 77t-59.5 110t-19.5 133v392h-100zM164 -444l78 348h321l-145 -367h-254v19z" />
    <glyph glyph-name="circumflex" unicode="&#x2c6;" horiz-adv-x="757" 
d="M606 1044l-227 173l-227 -173l-111 119l289 305h100l287 -305z" />
    <glyph glyph-name="caron" unicode="&#x2c7;" horiz-adv-x="757" 
d="M152 1495l227 -174l227 174l111 -119l-289 -305h-100l-287 305z" />
    <glyph glyph-name="breve" unicode="&#x2d8;" horiz-adv-x="671" 
d="M346 1292q67 0 107 33t51 119h147q0 -193 -74 -277t-231 -84t-231 84t-74 277h147q11 -86 51 -119t107 -33z" />
    <glyph glyph-name="dotaccent" unicode="&#x2d9;" horiz-adv-x="436" 
d="M61 1124v299h314v-299h-314z" />
    <glyph glyph-name="ring" unicode="&#x2da;" horiz-adv-x="614" 
d="M553 1317q0 -111 -65.5 -176.5t-180.5 -65.5q-112 0 -179 65.5t-67 174.5t67 175t179 66q114 0 180 -66t66 -173zM217 1315q0 -43 24.5 -68.5t65.5 -25.5t65.5 26t24.5 70q0 42 -24.5 68t-65.5 26t-65.5 -26.5t-24.5 -69.5z" />
    <glyph glyph-name="ogonek" unicode="&#x2db;" horiz-adv-x="454" 
d="M381 29l33 -29q-106 -18 -150.5 -38t-44.5 -54q0 -47 88 -47q47 0 107 14v-211q-78 -10 -127 -10q-248 0 -248 160q0 175 342 215z" />
    <glyph glyph-name="tilde" unicode="&#x2dc;" horiz-adv-x="733" 
d="M227 1456q42 0 78 -16t59.5 -38t43.5 -44.5t40 -38.5t39 -16q39 0 52.5 33.5t13.5 107.5h139q6 -52 6 -96q0 -137 -48 -205t-136 -68q-38 0 -70.5 16t-55.5 38.5t-43 45t-43 38.5t-46 16q-36 0 -49.5 -32.5t-13.5 -109.5h-140q-6 49 -6 95q0 133 49 203.5t131 70.5z" />
    <glyph glyph-name="hungarumlaut" unicode="&#x2dd;" horiz-adv-x="700" 
d="M715 1362l-252 -303l-133 96l207 326zM391 1378l-215 -321l-143 80l170 346z" />
    <glyph glyph-name="Wgrave" unicode="&#x1e80;" horiz-adv-x="1775" 
d="M893 934h-29q-18 -176 -47 -412l-61 -522h-502l-283 1229h396l82 -488q39 -234 61 -428h29q27 244 57 428l80 488h463l75 -488q22 -131 54 -428h30q6 54 62 428l70 488h374l-274 -1229h-531l-65 522q-28 226 -41 412zM1110 1491l-55 -174l-553 129l78 246z" />
    <glyph glyph-name="wgrave" unicode="&#x1e81;" horiz-adv-x="1544" 
d="M598 979h385l66 -389q17 -112 43 -320h30q7 53 24 158.5t25 161.5l58 389h340l-248 -979h-455l-57 416q-21 137 -33 295h-26q-6 -57 -18 -161.5t-15 -133.5l-49 -416h-443l-248 979h359l72 -389q31 -150 53 -320h28q13 146 43 320zM1030 1206l-86 -166l-524 213l121 234z
" />
    <glyph glyph-name="Wacute" unicode="&#x1e82;" horiz-adv-x="1775" 
d="M893 934h-29q-18 -176 -47 -412l-61 -522h-502l-283 1229h396l82 -488q39 -234 61 -428h29q27 244 57 428l80 488h463l75 -488q22 -131 54 -428h30q6 54 62 428l70 488h374l-274 -1229h-531l-65 522q-28 226 -41 412zM1266 1446l-553 -129l-56 174l531 201z" />
    <glyph glyph-name="wacute" unicode="&#x1e83;" horiz-adv-x="1544" 
d="M598 979h385l66 -389q17 -112 43 -320h30q7 53 24 158.5t25 161.5l58 389h340l-248 -979h-455l-57 416q-21 137 -33 295h-26q-6 -57 -18 -161.5t-15 -133.5l-49 -416h-443l-248 979h359l72 -389q31 -150 53 -320h28q13 146 43 320zM1180 1253l-525 -213l-86 166l490 281z
" />
    <glyph glyph-name="Wdieresis" unicode="&#x1e84;" horiz-adv-x="1775" 
d="M893 934h-29q-18 -176 -47 -412l-61 -522h-502l-283 1229h396l82 -488q39 -234 61 -428h29q27 244 57 428l80 488h463l75 -488q22 -131 54 -428h30q6 54 62 428l70 488h374l-274 -1229h-531l-65 522q-28 226 -41 412zM569 1337v271h283v-271h-283zM911 1337v271h281v-271
h-281z" />
    <glyph glyph-name="wdieresis" unicode="&#x1e85;" horiz-adv-x="1544" 
d="M598 979h385l66 -389q17 -112 43 -320h30q7 53 24 158.5t25 161.5l58 389h340l-248 -979h-455l-57 416q-21 137 -33 295h-26q-6 -57 -18 -161.5t-15 -133.5l-49 -416h-443l-248 979h359l72 -389q31 -150 53 -320h28q13 146 43 320zM467 1135v270h283v-270h-283zM809 1135
v270h281v-270h-281z" />
    <glyph glyph-name="Germandbls" unicode="&#x1e9e;" horiz-adv-x="1257" 
d="M780 913l-2 19q-57 -8 -203 -8q-122 0 -122 -140v-784h-369v795q0 211 138 322.5t405 111.5h471v-297q-242 -76 -242 -156q0 -33 24.5 -56.5t73.5 -45.5q46 -24 74 -41t66.5 -48.5t60 -64t37.5 -82.5t16 -110q0 -348 -401 -348q-168 0 -301 63l88 303q107 -57 219 -57
q74 0 74 45q0 27 -26.5 46t-92.5 50q-29 13 -35.5 15.5t-34.5 16t-36.5 20t-31.5 21.5t-32 26t-24.5 29.5t-21.5 36t-11.5 41t-5.5 48.5q0 87 56.5 142.5t188.5 86.5z" />
    <glyph glyph-name="uni2002" unicode="&#x2002;" horiz-adv-x="1024" 
 />
    <glyph glyph-name="uni2003" unicode="&#x2003;" horiz-adv-x="2048" 
 />
    <glyph glyph-name="uni2004" unicode="&#x2004;" horiz-adv-x="681" 
 />
    <glyph glyph-name="uni2005" unicode="&#x2005;" horiz-adv-x="512" 
 />
    <glyph glyph-name="uni2007" unicode="&#x2007;" horiz-adv-x="1228" 
 />
    <glyph glyph-name="uni2008" unicode="&#x2008;" horiz-adv-x="417" 
 />
    <glyph glyph-name="uni2009" unicode="&#x2009;" horiz-adv-x="169" 
 />
    <glyph glyph-name="uni200A" unicode="&#x200a;" horiz-adv-x="108" 
 />
    <glyph glyph-name="uni200B" unicode="&#x200b;" horiz-adv-x="0" 
 />
    <glyph glyph-name="uni200C" unicode="&#x200c;" horiz-adv-x="0" 
 />
    <glyph glyph-name="uni200D" unicode="&#x200d;" horiz-adv-x="0" 
 />
    <glyph glyph-name="endash" unicode="&#x2013;" horiz-adv-x="974" 
d="M31 344v318h913v-318h-913z" />
    <glyph glyph-name="emdash" unicode="&#x2014;" horiz-adv-x="1761" 
d="M31 344v318h1700v-318h-1700z" />
    <glyph glyph-name="quoteleft" unicode="&#x2018;" horiz-adv-x="475" 
d="M436 1217l-63 -586h-350l221 598h192v-12z" />
    <glyph glyph-name="quoteright" unicode="&#x2019;" horiz-adv-x="475" 
d="M39 643l63 586h351l-222 -598h-192v12z" />
    <glyph glyph-name="quotesinglbase" unicode="&#x201a;" horiz-adv-x="475" 
d="M39 -248l63 586h351l-222 -598h-192v12z" />
    <glyph glyph-name="quotedblleft" unicode="&#x201c;" horiz-adv-x="878" 
d="M436 1217l-63 -586h-350l221 598h192v-12zM840 1217l-64 -586h-350l221 598h193v-12z" />
    <glyph glyph-name="quotedblright" unicode="&#x201d;" horiz-adv-x="884" 
d="M39 643l63 586h351l-222 -598h-192v12zM449 643l63 586h350l-221 -598h-192v12z" />
    <glyph glyph-name="quotedblbase" unicode="&#x201e;" horiz-adv-x="884" 
d="M39 -248l63 586h351l-222 -598h-192v12zM449 -248l63 586h350l-221 -598h-192v12z" />
    <glyph glyph-name="dagger" unicode="&#x2020;" horiz-adv-x="1282" 
d="M825 715v-1145h-368v1145h-138v-318h-278v582h416v393h368v-393h416v-582h-278v318h-138z" />
    <glyph glyph-name="daggerdbl" unicode="&#x2021;" horiz-adv-x="1323" 
d="M477 979v393h369v-393h416v-385h-279v121h-137v-451h137v121h279v-385h-416v-430h-369v430h-416v385h279v-121h137v451h-137v-121h-279v385h416z" />
    <glyph glyph-name="bullet" unicode="&#x2022;" horiz-adv-x="624" 
d="M59 260v483h506v-483h-506z" />
    <glyph glyph-name="ellipsis" unicode="&#x2026;" horiz-adv-x="1323" 
d="M31 0v344h356v-344h-356zM489 0v344h357v-344h-357zM946 0v344h357v-344h-357z" />
    <glyph glyph-name="uni202F" unicode="&#x202f;" horiz-adv-x="169" 
 />
    <glyph glyph-name="perthousand" unicode="&#x2030;" horiz-adv-x="2367" 
d="M1178 -18q-173 0 -274 98t-101 270q0 170 101.5 268.5t273.5 98.5q174 0 275 -98.5t101 -268.5q0 -172 -101 -270t-275 -98zM1966 -18q-174 0 -274.5 98t-100.5 270q0 170 101 268.5t274 98.5q172 0 273.5 -98.5t101.5 -268.5q0 -172 -101 -270t-274 -98zM416 516
q-173 0 -274 98.5t-101 270.5q0 171 101 268.5t274 97.5q174 0 275.5 -97.5t101.5 -268.5q0 -172 -101.5 -270.5t-275.5 -98.5zM774 537l-215 -535h-500v12l672 549zM829 694l213 535h500v-12l-672 -549zM416 737q49 0 79.5 38t30.5 110q0 74 -30 109.5t-80 35.5
t-79.5 -35.5t-29.5 -109.5q0 -72 30 -110t79 -38zM1178 201q50 0 80 37t30 112q0 72 -30 109t-80 37q-49 0 -79 -37t-30 -109q0 -75 29.5 -112t79.5 -37zM1966 201q50 0 80.5 37t30.5 112q0 72 -30.5 109t-80.5 37q-51 0 -81 -36.5t-30 -109.5q0 -75 29.5 -112t81.5 -37z
" />
    <glyph glyph-name="guilsinglleft" unicode="&#x2039;" horiz-adv-x="768" 
d="M760 967l-371 -439l371 -436v-29h-336l-399 455v21l399 454h336v-26z" />
    <glyph glyph-name="guilsinglright" unicode="&#x203a;" horiz-adv-x="768" 
d="M10 92l369 436l-369 439v26h334l401 -454v-21l-401 -455h-334v29z" />
    <glyph glyph-name="fraction" unicode="&#x2044;" horiz-adv-x="94" 
d="M20 537l-215 -535h-499v12l671 549zM76 694l213 535h499v-12l-671 -549z" />
    <glyph glyph-name="Euro" unicode="&#x20ac;" horiz-adv-x="1370" 
d="M41 434v119h109v65v48h-109v118h123q41 229 197.5 352.5t396.5 123.5q248 0 393.5 -125t171.5 -363l-352 -65q-21 126 -73 184.5t-155 58.5q-90 0 -142.5 -42t-76.5 -124h219v-118h-237v-48v-65h237v-119h-217q46 -162 215 -162q107 0 157.5 58.5t76.5 189.5l350 -57
q-26 -238 -177 -366t-400 -128q-237 0 -388 121t-194 344h-125z" />
    <glyph glyph-name="uni2116" unicode="&#x2116;" horiz-adv-x="2277" 
d="M1264 0h-486l-176 399q-49 110 -182 498l-25 -2q27 -314 27 -584v-311h-338v1229h516l148 -328q92 -208 178 -510l24 4q-24 305 -24 510v324h338v-1229zM1790 428q-198 0 -311 109t-113 301t113 301.5t311 109.5q193 0 306.5 -110t113.5 -301t-113.5 -300.5
t-306.5 -109.5zM1399 51v303h782v-303h-782zM1790 680q125 0 125 158q0 159 -125 159q-129 0 -129 -159q0 -158 129 -158z" />
    <glyph glyph-name="trademark" unicode="&#x2122;" horiz-adv-x="1918" 
d="M1313 819h18q10 39 66 219l63 191h406v-707h-267v256q0 49 5 234h-31q-53 -158 -90 -258l-84 -232h-223l-80 228q-24 70 -82 260h-31q0 -37 1 -116t1 -116v-256h-217v707h424l59 -193q42 -129 62 -217zM236 1004h-201v225h667v-225h-200v-482h-266v482z" />
    <glyph glyph-name="arrowleft" unicode="&#x2190;" horiz-adv-x="1595" 
d="M674 -55l-604 596v94l604 596l223 -268q-174 -132 -369 -246v-2q266 35 654 35h311v-324h-311q-388 0 -654 35v-2q183 -107 369 -246z" />
    <glyph glyph-name="arrowup" unicode="&#x2191;" horiz-adv-x="1499" 
d="M102 758l596 606h95l596 -606l-269 -223q-135 177 -246 368h-2q35 -266 35 -653v-311h-323v311q0 395 34 653h-2q-108 -185 -245 -368z" />
    <glyph glyph-name="arrowright" unicode="&#x2192;" horiz-adv-x="1595" 
d="M922 1239l606 -596v-94l-606 -596l-224 268q174 132 369 246v2q-266 -35 -653 -35h-312v324h312q387 0 653 -35v2q-183 107 -369 246z" />
    <glyph glyph-name="arrowdown" unicode="&#x2193;" horiz-adv-x="1499" 
d="M1393 489l-596 -604h-95l-596 604l269 224q132 -174 246 -369h2q-35 266 -35 653v312h323v-312q0 -395 -34 -653h2q111 189 245 369z" />
    <glyph glyph-name="minus" unicode="&#x2212;" horiz-adv-x="995" 
d="M934 791v-308h-873v308h873z" />
    <glyph glyph-name="filledbox" unicode="&#x25a0;" horiz-adv-x="1843" 
d="M74 -244q4 190 4 848q0 661 -4 848q285 -6 848 -6q566 0 847 6q-4 -562 -4 -848q0 -278 4 -848q-847 12 -1695 0z" />
    <glyph glyph-name="triagup" unicode="&#x25b2;" horiz-adv-x="1843" 
d="M1692 0h-1538v8l768 1264h8l762 -1264v-8z" />
    <glyph glyph-name="uni25B3" unicode="&#x25b3;" horiz-adv-x="1843" 
d="M1692 0h-1538v8l768 1264h8l762 -1264v-8zM936 760h-21q-106 -247 -243 -461l10 -20q168 16 244 16q77 0 245 -16l9 18q-142 223 -244 463z" />
    <glyph glyph-name="uni25B6" unicode="&#x25b6;" horiz-adv-x="1843" 
d="M369 -147v1538h8l1263 -768v-9l-1263 -761h-8z" />
    <glyph glyph-name="uni25B7" unicode="&#x25b7;" horiz-adv-x="1843" 
d="M369 -147v1538h8l1263 -768v-9l-1263 -761h-8zM1128 608v21q-245 104 -460 243l-21 -10q17 -179 17 -244q0 -66 -17 -245l19 -8q221 140 462 243z" />
    <glyph glyph-name="triagdn" unicode="&#x25bc;" horiz-adv-x="1843" 
d="M152 1229h1538v-8l-768 -1264h-9l-761 1264v8z" />
    <glyph glyph-name="uni25BD" unicode="&#x25bd;" horiz-adv-x="1843" 
d="M152 1229h1538v-8l-768 -1264h-9l-761 1264v8zM907 469h21q106 247 243 461l-10 20q-147 -14 -243 -14q-99 0 -246 14l-8 -18q139 -219 243 -463z" />
    <glyph glyph-name="uni25C0" unicode="&#x25c0;" horiz-adv-x="1843" 
d="M1466 1391h9v-1538h-9l-1263 761v9z" />
    <glyph glyph-name="uni25C1" unicode="&#x25c1;" horiz-adv-x="1843" 
d="M1466 1391h9v-1538h-9l-1263 761v9zM715 629v-21q244 -104 463 -243l18 8q-14 147 -14 245q0 97 14 244l-20 10q-214 -137 -461 -243z" />
    <glyph glyph-name="uni25C6" unicode="&#x25c6;" horiz-adv-x="1843" 
d="M922 -395q-483 521 -990 989q540 502 990 989q457 -493 989 -989q-500 -461 -989 -989z" />
    <glyph glyph-name="uni25CF" unicode="&#x25cf;" horiz-adv-x="1843" 
d="M-6 602q0 284 112.5 494t323 322t494.5 112q427 0 676 -249.5t249 -678.5q0 -428 -249 -678t-676 -250q-430 0 -680 250t-250 678z" />
    <glyph glyph-name="uni25EF" unicode="&#x25ef;" horiz-adv-x="1771" 
d="M885 1464q200 0 359.5 -62.5t263.5 -174.5t159 -264.5t55 -335.5q0 -147 -34.5 -275.5t-104 -232.5t-169 -178.5t-234.5 -115t-295 -40.5q-199 0 -358 62.5t-263.5 175t-159.5 266.5t-55 338q0 183 55 335.5t159 264.5t263.5 174.5t358.5 62.5zM885 35q281 0 428 161.5
t147 430.5q0 266 -147 426.5t-428 160.5q-142 0 -252.5 -43.5t-180 -122t-105.5 -185t-36 -236.5q0 -131 36 -238.5t105.5 -187t180 -123t252.5 -43.5z" />
    <glyph glyph-name="uni2605" unicode="&#x2605;" horiz-adv-x="1843" 
d="M926 1464l243 -553l605 -63l2 -8l-451 -404l125 -592l-2 -4l-526 305l-523 -305l-6 4l125 592l-450 404l2 8l604 63l244 553h8z" />
    <glyph glyph-name="uni2610" unicode="&#x2610;" horiz-adv-x="1843" 
d="M1489 1133v-1133h-1133v1133h1133zM1241 567q0 144 10 326q-41 -1 -153 -4.5t-174 -3.5q-65 0 -179 3.5t-149 4.5q1 -37 4.5 -150.5t3.5 -175.5t-3.5 -175t-4.5 -150q35 1 149 4.5t179 3.5q62 0 174 -3.5t153 -4.5q-10 182 -10 325z" />
    <glyph glyph-name="uni2611" unicode="&#x2611;" horiz-adv-x="1843" 
d="M1489 0h-1133v1133h809v-7l-153 -239q-16 0 -44 -1t-44 -1q-183 0 -328 8q1 -37 4.5 -150.5t3.5 -175.5t-3.5 -175t-4.5 -150q36 1 151 4.5t177 3.5t175.5 -3.5t153.5 -4.5q-10 137 -10 252l240 311h6v-805zM645 659l184 181q72 -83 140 -193q199 341 499 754l238 -180
q-126 -154 -194.5 -239.5t-164.5 -211t-172.5 -239.5t-148.5 -236h-127q-88 169 -254 364z" />
    <glyph glyph-name="uni2612" unicode="&#x2612;" horiz-adv-x="1843" 
d="M1489 1133v-1133h-1133v1133h1133zM1241 567q0 144 10 326q-41 -1 -153 -4.5t-174 -3.5q-65 0 -179 3.5t-149 4.5q1 -37 4.5 -150.5t3.5 -175.5t-3.5 -175t-4.5 -150q35 1 149 4.5t179 3.5q62 0 174 -3.5t153 -4.5q-10 182 -10 325zM924 688q13 16 46 55t57.5 66.5
t49.5 52.5l142 -143q-71 -66 -175 -150q85 -69 175 -149l-142 -144q-59 60 -153 175q-12 -13 -67 -78t-85 -97l-143 144q12 11 172 149q-151 131 -172 150l143 143q23 -25 152 -174z" />
    <glyph glyph-name="uni2661" unicode="&#x2661;" horiz-adv-x="1843" 
d="M928 -111h-8q-62 108 -155.5 195.5t-244.5 196.5q-100 73 -169.5 135.5t-129.5 137t-89.5 157t-29.5 174.5q0 205 108 318.5t296 113.5q165 0 262 -78t147 -244h15q48 167 144.5 244.5t264.5 77.5q185 0 293.5 -113.5t108.5 -318.5q0 -92 -29.5 -174.5t-89 -157
t-129 -137.5t-168.5 -135q-150 -109 -243.5 -196.5t-153.5 -195.5zM934 317q99 106 229 183q262 155 262 342q0 198 -182 198q-107 0 -180.5 -89.5t-99.5 -235.5h-58q-27 146 -101 235.5t-181 89.5q-183 0 -183 -198q0 -187 262 -342q127 -74 232 -183z" />
    <glyph glyph-name="heart" unicode="&#x2665;" horiz-adv-x="1843" 
d="M928 -111h-8q-62 108 -155.5 195.5t-244.5 196.5q-100 73 -169.5 135.5t-129.5 137t-89.5 157t-29.5 174.5q0 205 108 318.5t296 113.5q165 0 262 -78t147 -244h15q48 167 144.5 244.5t264.5 77.5q185 0 293.5 -113.5t108.5 -318.5q0 -92 -29.5 -174.5t-89 -157
t-129 -137.5t-168.5 -135q-150 -109 -243.5 -196.5t-153.5 -195.5z" />
    <glyph glyph-name="heart" unicode="&#x2764;" horiz-adv-x="1843" 
d="M928 -111h-8q-62 108 -155.5 195.5t-244.5 196.5q-100 73 -169.5 135.5t-129.5 137t-89.5 157t-29.5 174.5q0 205 108 318.5t296 113.5q165 0 262 -78t147 -244h15q48 167 144.5 244.5t264.5 77.5q185 0 293.5 -113.5t108.5 -318.5q0 -92 -29.5 -174.5t-89 -157
t-129 -137.5t-168.5 -135q-150 -109 -243.5 -196.5t-153.5 -195.5z" />
    <glyph glyph-name="uni26AB" unicode="&#x26ab;" horiz-adv-x="1771" 
d="M885 1464q200 0 359.5 -62.5t263.5 -174.5t159 -264.5t55 -335.5q0 -147 -34.5 -275.5t-104 -232.5t-169 -178.5t-234.5 -115t-295 -40.5q-199 0 -358 62.5t-263.5 175t-159.5 266.5t-55 338q0 183 55 335.5t159 264.5t263.5 174.5t358.5 62.5z" />
    <glyph glyph-name="uni2726" unicode="&#x2726;" horiz-adv-x="1843" 
d="M1690 616v-24q-275 -85 -473 -284.5t-285 -471.5h-23q-88 273 -284 472t-473 284v24q277 85 473 284t284 472h23q87 -272 285 -471.5t473 -284.5z" />
    <glyph glyph-name="uni2727" unicode="&#x2727;" horiz-adv-x="1843" 
d="M1692 606v-8q-277 -85 -477 -287t-287 -475h-8q-87 272 -289 475.5t-477 288.5v8q275 85 475.5 288.5t288.5 475.5h8q87 -272 289 -476.5t477 -289.5zM1243 594v18q-135 29 -208.5 102t-102.5 208h-17q-29 -135 -102.5 -208t-208.5 -102v-18q135 -29 208.5 -101.5
t102.5 -207.5h17q29 135 102.5 207.5t208.5 101.5z" />
    <glyph glyph-name="uni2728" unicode="&#x2728;" horiz-adv-x="1843" 
d="M1255 424v-8q-225 -68 -387.5 -233t-232.5 -388h-10q-70 223 -234.5 389t-390.5 234v8q227 71 391 236t234 387h8q73 -223 235.5 -388.5t386.5 -236.5zM1843 793v-9q-169 -50 -291.5 -174.5t-177.5 -294.5h-8q-51 168 -175.5 292.5t-297.5 178.5v9q171 53 293.5 177.5
t177.5 293.5h8q55 -169 178 -294.5t293 -178.5zM1194 1204v-10q-103 -32 -176.5 -107.5t-106.5 -179.5h-10q-31 104 -105.5 180.5t-179.5 108.5v8q104 32 178 108t107 181h8q33 -104 107.5 -180.5t177.5 -108.5zM623 152h8q26 112 91.5 177t178.5 91v10q-114 30 -179 94
t-91 176h-8q-29 -112 -93.5 -176.5t-177.5 -93.5v-10q112 -26 177 -90.5t94 -177.5zM1589 786v11q-91 23 -142.5 74.5t-74.5 142.5h-8q-23 -91 -74.5 -142.5t-142.5 -74.5v-11q174 -43 217 -215h8q43 172 217 215zM1044 1198v8q-106 27 -133 133h-8q-27 -106 -131 -133v-8
q104 -27 131 -133h8q27 106 133 133z" />
    <glyph glyph-name="uni2744" unicode="&#x2744;" horiz-adv-x="2635" 
d="M1942 16q-11 -30 -123 -30l-50 2q9 223 14 528.5t7 386.5q-51 -157 -109.5 -386t-94 -367t-48.5 -146q-15 -12 -43 -12q-10 0 -47.5 5.5t-67.5 6.5q4 86 4 420q-63 2 -190 2q2 -51 2 -164q0 -244 -20 -256q-12 -10 -54 -10q-22 0 -58 3t-46 3h-6q14 199 14 422
q-30 0 -84 -1t-78 -1v-92q0 -56 1 -146t1 -112q0 -39 -2 -41q-10 -26 -39 -33.5t-123 -9.5q-2 59 -2 162q0 76 5 266q-114 -4 -132 -4q-159 -277 -215 -408q-9 4 -45 4q-19 0 -40.5 -2.5t-33.5 -5.5l-12 -2q-5 51 -32 102q-10 17 -57.5 92.5t-89.5 143t-46 80.5q-4 16 -4 24
q0 38 27 90q-11 26 -11 50q0 32 17 98q12 36 48.5 121t93 213.5t91.5 212.5q70 0 144 20q97 -249 180 -667q6 0 121 -5v25q0 42 -1 161t-1 181q0 241 16 262q16 29 147 31q-6 -123 -6 -236q0 -70 2 -191t2 -171v-64q26 0 79.5 -1t78.5 -1q0 183 -3 357.5t-3 185.5
q0 53 4 70.5t16 25.5q18 13 78 13h64q0 -26 -1 -78t-1 -76q0 -121 5 -296.5t5 -199.5q40 1 106.5 4.5t87.5 4.5q0 54 -1 150t-1 138q0 317 17 344q20 29 86 29q15 0 41.5 -2t34.5 -2q-17 -136 -17 -541v-164q207 676 250 697q19 8 61 8l95 -6q-6 -294 -6 -350q0 -130 3 -370
t3 -316q0 -166 -8 -179zM2292 1245q24 -12 57 -12q40 0 61 24q148 -468 226 -763q-187 -488 -246 -500q-4 -2 -18 -2q-46 0 -136 37q-1 34 -24 87t-45 91t-59 96.5t-42 67.5q-22 42 -22 61q0 12 4.5 21.5t12.5 18.5t10 13q6 9 6 21q0 28 -35 37l10 25q10 26 28.5 71.5
t40.5 102.5t47 124.5t48 133t43.5 131t32.5 114.5zM143 520q0 -16 24.5 -61t64.5 -116.5t65 -127.5q24 63 58 136.5t52.5 115.5t18.5 61v4q0 36 -96 431q-187 -405 -187 -443zM2359 948q-23 -71 -67 -180.5t-71.5 -182.5t-27.5 -96v-4q3 -28 70.5 -141.5t79.5 -140.5
q28 66 58 142.5t45.5 117t15.5 39.5q-23 128 -61 276t-42 170z" />
    <glyph glyph-name="uni2780" unicode="&#x2780;" horiz-adv-x="1771" 
d="M885 1464q200 0 359.5 -62.5t263.5 -174.5t159 -264.5t55 -335.5q0 -147 -34.5 -275.5t-104 -232.5t-169 -178.5t-234.5 -115t-295 -40.5q-199 0 -358 62.5t-263.5 175t-159.5 266.5t-55 338q0 183 55 335.5t159 264.5t263.5 174.5t358.5 62.5zM885 35q281 0 428 161.5
t147 430.5q0 266 -147 426.5t-428 160.5q-142 0 -252.5 -43.5t-180 -122t-105.5 -185t-36 -236.5q0 -131 36 -238.5t105.5 -187t180 -123t252.5 -43.5zM1210 188h-157h-275h-200v232h200v391q-57 -32 -155 -63l-91 217l361 104h160v-649h157v-232z" />
    <glyph glyph-name="uni2781" unicode="&#x2781;" horiz-adv-x="1771" 
d="M885 1464q200 0 359.5 -62.5t263.5 -174.5t159 -264.5t55 -335.5q0 -147 -34.5 -275.5t-104 -232.5t-169 -178.5t-234.5 -115t-295 -40.5q-199 0 -358 62.5t-263.5 175t-159.5 266.5t-55 338q0 183 55 335.5t159 264.5t263.5 174.5t358.5 62.5zM885 35q281 0 428 161.5
t147 430.5q0 266 -147 426.5t-428 160.5q-142 0 -252.5 -43.5t-180 -122t-105.5 -185t-36 -236.5q0 -131 36 -238.5t105.5 -187t180 -123t252.5 -43.5zM905 879q-127 0 -139 -150l-270 29q13 165 110 254.5t303 89.5q191 0 292.5 -76.5t101.5 -234.5q0 -127 -106.5 -201.5
t-289.5 -100.5q-100 -14 -141 -28.5t-53 -42.5q164 16 237 16h346v-233h-827q-4 29 -4 133q0 149 68.5 221.5t230.5 108.5q115 26 169.5 47t68.5 38.5t14 49.5q0 80 -111 80z" />
    <glyph glyph-name="uni2782" unicode="&#x2782;" horiz-adv-x="1771" 
d="M885 1464q200 0 359.5 -62.5t263.5 -174.5t159 -264.5t55 -335.5q0 -147 -34.5 -275.5t-104 -232.5t-169 -178.5t-234.5 -115t-295 -40.5q-199 0 -358 62.5t-263.5 175t-159.5 266.5t-55 338q0 183 55 335.5t159 264.5t263.5 174.5t358.5 62.5zM885 35q281 0 428 161.5
t147 430.5q0 266 -147 426.5t-428 160.5q-142 0 -252.5 -43.5t-180 -122t-105.5 -185t-36 -236.5q0 -131 36 -238.5t105.5 -187t180 -123t252.5 -43.5zM887 176q-198 0 -301 64.5t-115 212.5l283 28q7 -49 32.5 -71.5t104.5 -22.5q113 0 113 78q0 37 -23.5 54.5t-81.5 17.5
h-156v182h158q51 0 70.5 15.5t19.5 53.5q0 82 -106 82q-70 0 -94.5 -24t-26.5 -74l-270 19q18 146 109.5 220t279.5 74q199 0 288 -59t89 -180q0 -88 -58 -137t-172 -68v-18q145 -12 202.5 -57t57.5 -138q0 -117 -98 -184.5t-305 -67.5z" />
    <glyph glyph-name="uni2783" unicode="&#x2783;" horiz-adv-x="1771" 
d="M885 1464q200 0 359.5 -62.5t263.5 -174.5t159 -264.5t55 -335.5q0 -147 -34.5 -275.5t-104 -232.5t-169 -178.5t-234.5 -115t-295 -40.5q-199 0 -358 62.5t-263.5 175t-159.5 266.5t-55 338q0 183 55 335.5t159 264.5t263.5 174.5t358.5 62.5zM885 35q281 0 428 161.5
t147 430.5q0 266 -147 426.5t-428 160.5q-142 0 -252.5 -43.5t-180 -122t-105.5 -185t-36 -236.5q0 -131 36 -238.5t105.5 -187t180 -123t252.5 -43.5zM895 195v182h-479v184l393 514h362v-487h97v-211h-97v-182h-276zM895 881l-16 4l-222 -301l11 -15q129 16 227 19v293z
" />
    <glyph glyph-name="uni2784" unicode="&#x2784;" horiz-adv-x="1771" 
d="M885 1464q200 0 359.5 -62.5t263.5 -174.5t159 -264.5t55 -335.5q0 -147 -34.5 -275.5t-104 -232.5t-169 -178.5t-234.5 -115t-295 -40.5q-199 0 -358 62.5t-263.5 175t-159.5 266.5t-55 338q0 183 55 335.5t159 264.5t263.5 174.5t358.5 62.5zM885 35q281 0 428 161.5
t147 430.5q0 266 -147 426.5t-428 160.5q-142 0 -252.5 -43.5t-180 -122t-105.5 -185t-36 -236.5q0 -131 36 -238.5t105.5 -187t180 -123t252.5 -43.5zM885 385q73 0 100 21t27 61q0 86 -121 86q-90 0 -158 -43l-219 80v479h729v-250q-287 0 -479 23v-152q77 47 225 47
q153 0 229 -75.5t76 -196.5q0 -151 -101.5 -221t-307.5 -70q-361 0 -408 234l271 59q9 -34 42 -58t95 -24z" />
    <glyph glyph-name="uni2785" unicode="&#x2785;" horiz-adv-x="1771" 
d="M885 1464q200 0 359.5 -62.5t263.5 -174.5t159 -264.5t55 -335.5q0 -147 -34.5 -275.5t-104 -232.5t-169 -178.5t-234.5 -115t-295 -40.5q-199 0 -358 62.5t-263.5 175t-159.5 266.5t-55 338q0 183 55 335.5t159 264.5t263.5 174.5t358.5 62.5zM885 35q281 0 428 161.5
t147 430.5q0 266 -147 426.5t-428 160.5q-142 0 -252.5 -43.5t-180 -122t-105.5 -185t-36 -236.5q0 -131 36 -238.5t105.5 -187t180 -123t252.5 -43.5zM737 580l21 -5q33 83 96 116.5t156 33.5q132 0 208 -57.5t76 -184.5q0 -148 -102.5 -225.5t-304.5 -77.5q-99 0 -174 23
t-133.5 75.5t-88.5 144.5t-30 222q0 93 25.5 173t76.5 143.5t135.5 100t194.5 36.5q102 0 172 -17t113 -54.5t64.5 -89.5t29.5 -128l-277 -27q-9 47 -31 69.5t-77 22.5q-86 0 -118 -65.5t-32 -228.5zM889 573q-73 0 -100 -21.5t-27 -62.5q0 -88 129 -88q72 0 97.5 23.5
t25.5 62.5q0 38 -25.5 62t-99.5 24z" />
    <glyph glyph-name="uni2786" unicode="&#x2786;" horiz-adv-x="1771" 
d="M885 1464q200 0 359.5 -62.5t263.5 -174.5t159 -264.5t55 -335.5q0 -147 -34.5 -275.5t-104 -232.5t-169 -178.5t-234.5 -115t-295 -40.5q-199 0 -358 62.5t-263.5 175t-159.5 266.5t-55 338q0 183 55 335.5t159 264.5t263.5 174.5t358.5 62.5zM885 35q281 0 428 161.5
t147 430.5q0 266 -147 426.5t-428 160.5q-142 0 -252.5 -43.5t-180 -122t-105.5 -185t-36 -236.5q0 -131 36 -238.5t105.5 -187t180 -123t252.5 -43.5zM797 821h-297v246h774v-246q-127 -128 -189.5 -283.5t-68.5 -351.5h-324q11 404 348 650q-139 -15 -243 -15z" />
    <glyph glyph-name="uni2787" unicode="&#x2787;" horiz-adv-x="1771" 
d="M885 1464q200 0 359.5 -62.5t263.5 -174.5t159 -264.5t55 -335.5q0 -147 -34.5 -275.5t-104 -232.5t-169 -178.5t-234.5 -115t-295 -40.5q-199 0 -358 62.5t-263.5 175t-159.5 266.5t-55 338q0 183 55 335.5t159 264.5t263.5 174.5t358.5 62.5zM885 35q281 0 428 161.5
t147 430.5q0 266 -147 426.5t-428 160.5q-142 0 -252.5 -43.5t-180 -122t-105.5 -185t-36 -236.5q0 -131 36 -238.5t105.5 -187t180 -123t252.5 -43.5zM887 176q-412 0 -412 256q0 84 57 131t177 68v18q-102 21 -152.5 68.5t-50.5 132.5q0 122 91 183t290 61t290 -61
t91 -183q0 -85 -50.5 -132.5t-152.5 -68.5v-18q120 -20 176.5 -67.5t56.5 -131.5q0 -256 -411 -256zM887 547q-70 0 -97.5 -18t-27.5 -60q0 -78 125 -78t125 78q0 42 -27.5 60t-97.5 18zM887 874q-59 0 -85 -16.5t-26 -58.5q0 -43 25.5 -61.5t85.5 -18.5q57 0 82.5 18.5
t25.5 61.5q0 42 -25.5 58.5t-82.5 16.5z" />
    <glyph glyph-name="uni2788" unicode="&#x2788;" horiz-adv-x="1771" 
d="M885 1464q200 0 359.5 -62.5t263.5 -174.5t159 -264.5t55 -335.5q0 -147 -34.5 -275.5t-104 -232.5t-169 -178.5t-234.5 -115t-295 -40.5q-199 0 -358 62.5t-263.5 175t-159.5 266.5t-55 338q0 183 55 335.5t159 264.5t263.5 174.5t358.5 62.5zM885 35q281 0 428 161.5
t147 430.5q0 266 -147 426.5t-428 160.5q-142 0 -252.5 -43.5t-180 -122t-105.5 -185t-36 -236.5q0 -131 36 -238.5t105.5 -187t180 -123t252.5 -43.5zM1034 674l-20 2q-63 -152 -240 -152q-297 0 -297 254q0 153 101 233.5t301 80.5q101 0 177 -23t135 -74.5t89.5 -143.5
t30.5 -222q0 -95 -25.5 -175.5t-76.5 -144t-136 -99.5t-196 -36q-130 0 -215 31t-126 84t-57 135l275 47q21 -74 129 -74q86 0 117.5 62t33.5 215zM887 676q123 0 123 100q0 42 -30.5 68t-94.5 26q-69 0 -98 -27.5t-29 -68.5q0 -42 31 -70t98 -28z" />
    <glyph glyph-name="uni2789" unicode="&#x2789;" horiz-adv-x="1763" 
d="M885 1464q200 0 359.5 -62.5t263.5 -174.5t159 -264.5t55 -335.5q0 -147 -34.5 -275.5t-104 -232.5t-169 -178.5t-234.5 -115t-295 -40.5q-199 0 -358 62.5t-263.5 175t-159.5 266.5t-55 338q0 183 55 335.5t159 264.5t263.5 174.5t358.5 62.5zM885 35q281 0 428 161.5
t147 430.5q0 266 -147 426.5t-428 160.5q-142 0 -252.5 -43.5t-180 -122t-105.5 -185t-36 -236.5q0 -131 36 -238.5t105.5 -187t180 -123t252.5 -43.5zM1081 1049q129 0 203 -106t74 -316q0 -214 -73 -321t-204 -107q-129 0 -201.5 107t-72.5 321q0 210 74 316t200 106z
M473 221v191h82v405q-16 -9 -53 -24l-62 170l201 65h113v-616h53v-191h-334zM1081 854q-69 0 -69 -227q0 -238 67 -238q37 0 55.5 64.5t18.5 173.5q0 227 -72 227z" />
    <glyph glyph-name="uni278A" unicode="&#x278a;" horiz-adv-x="1771" 
d="M885 1464q200 0 359.5 -62.5t263.5 -174.5t159 -264.5t55 -335.5q0 -147 -34.5 -275.5t-104 -232.5t-169 -178.5t-234.5 -115t-295 -40.5q-199 0 -358 62.5t-263.5 175t-159.5 266.5t-55 338q0 183 55 335.5t159 264.5t263.5 174.5t358.5 62.5zM778 420h-203v-232h635
v232h-157v649h-162l-359 -104l89 -217q118 41 157 65v-393z" />
    <glyph glyph-name="uni278B" unicode="&#x278b;" horiz-adv-x="1771" 
d="M885 1464q200 0 359.5 -62.5t263.5 -174.5t159 -264.5t55 -335.5q0 -147 -34.5 -275.5t-104 -232.5t-169 -178.5t-234.5 -115t-295 -40.5q-199 0 -358 62.5t-263.5 175t-159.5 266.5t-55 338q0 183 55 335.5t159 264.5t263.5 174.5t358.5 62.5zM893 877q55 0 83 -21
t28 -57q0 -32 -14 -50t-69 -39.5t-169 -47.5q-161 -33 -230 -107t-69 -221q0 -106 4 -133h827v231h-346q-90 0 -238 -20q10 30 52 45.5t143 29.5q183 28 289 102.5t106 198.5q0 312 -393 312q-206 0 -303.5 -88.5t-110.5 -255.5l271 -27q13 148 139 148z" />
    <glyph glyph-name="uni278C" unicode="&#x278c;" horiz-adv-x="1771" 
d="M885 1464q200 0 359.5 -62.5t263.5 -174.5t159 -264.5t55 -335.5q0 -147 -34.5 -275.5t-104 -232.5t-169 -178.5t-234.5 -115t-295 -40.5q-199 0 -358 62.5t-263.5 175t-159.5 266.5t-55 338q0 183 55 335.5t159 264.5t263.5 174.5t358.5 62.5zM887 176q208 0 305.5 66.5
t97.5 183.5q0 93 -57.5 138t-202.5 57v20q114 19 172 68t58 137q0 121 -89 180t-288 59q-188 0 -279.5 -75.5t-109.5 -221.5l270 -18q2 52 26.5 76t94.5 24q106 0 106 -82q0 -41 -19 -55t-71 -14h-158v-182h156q58 0 81.5 -18t23.5 -56q0 -76 -113 -76q-79 0 -104.5 22.5
t-32.5 71.5l-283 -28q12 -148 115 -212.5t301 -64.5z" />
    <glyph glyph-name="uni278D" unicode="&#x278d;" horiz-adv-x="1771" 
d="M885 1464q200 0 359.5 -62.5t263.5 -174.5t159 -264.5t55 -335.5q0 -147 -34.5 -275.5t-104 -232.5t-169 -178.5t-234.5 -115t-295 -40.5q-199 0 -358 62.5t-263.5 175t-159.5 266.5t-55 338q0 183 55 335.5t159 264.5t263.5 174.5t358.5 62.5zM1171 377h97v211h-97v487
h-362l-393 -514v-184h479v-182h276v182zM895 586h-23q-47 0 -202 -21l-13 19l222 301l16 -6v-293z" />
    <glyph glyph-name="uni278E" unicode="&#x278e;" horiz-adv-x="1771" 
d="M885 1464q200 0 359.5 -62.5t263.5 -174.5t159 -264.5t55 -335.5q0 -147 -34.5 -275.5t-104 -232.5t-169 -178.5t-234.5 -115t-295 -40.5q-199 0 -358 62.5t-263.5 175t-159.5 266.5t-55 338q0 183 55 335.5t159 264.5t263.5 174.5t358.5 62.5zM885 385q-116 0 -137 82
l-271 -59q43 -234 408 -234q205 0 306 70t101 221q0 121 -76 196.5t-229 75.5q-144 0 -225 -49v156q238 -25 479 -25v250h-727v-479l219 -80q68 43 156 43q121 0 121 -86q0 -39 -27.5 -60.5t-97.5 -21.5z" />
    <glyph glyph-name="uni278F" unicode="&#x278f;" horiz-adv-x="1771" 
d="M885 1464q200 0 359.5 -62.5t263.5 -174.5t159 -264.5t55 -335.5q0 -147 -34.5 -275.5t-104 -232.5t-169 -178.5t-234.5 -115t-295 -40.5q-199 0 -358 62.5t-263.5 175t-159.5 266.5t-55 338q0 183 55 335.5t159 264.5t263.5 174.5t358.5 62.5zM1294 481
q0 127 -76.5 185.5t-207.5 58.5q-93 0 -155 -33.5t-91 -118.5l-27 7q0 167 32 230.5t118 63.5q55 0 77 -22.5t31 -69.5l277 27q-8 76 -29.5 128t-64.5 89.5t-113 54.5t-172 17q-110 0 -194.5 -36t-135.5 -99.5t-76.5 -144t-25.5 -175.5q0 -131 30 -223t88.5 -143.5t133 -74
t174.5 -22.5q201 0 304 77t103 224zM889 573q74 0 99.5 -24t25.5 -62q0 -39 -25.5 -62.5t-97.5 -23.5q-129 0 -129 86q0 41 27.5 63.5t99.5 22.5z" />
    <glyph glyph-name="uni2790" unicode="&#x2790;" horiz-adv-x="1771" 
d="M885 1464q200 0 359.5 -62.5t263.5 -174.5t159 -264.5t55 -335.5q0 -147 -34.5 -275.5t-104 -232.5t-169 -178.5t-234.5 -115t-295 -40.5q-199 0 -358 62.5t-263.5 175t-159.5 266.5t-55 338q0 183 55 335.5t159 264.5t263.5 174.5t358.5 62.5zM498 1067v-246h297
q115 0 252 19q-346 -252 -357 -654h326q6 197 68 352t188 283v246h-774z" />
    <glyph glyph-name="uni2791" unicode="&#x2791;" horiz-adv-x="1771" 
d="M885 1464q200 0 359.5 -62.5t263.5 -174.5t159 -264.5t55 -335.5q0 -147 -34.5 -275.5t-104 -232.5t-169 -178.5t-234.5 -115t-295 -40.5q-199 0 -358 62.5t-263.5 175t-159.5 266.5t-55 338q0 183 55 335.5t159 264.5t263.5 174.5t358.5 62.5zM885 176q213 0 313 67.5
t100 186.5q0 84 -56.5 131.5t-176.5 67.5v20q102 21 151.5 67.5t49.5 133.5q0 122 -91 183t-290 61t-289 -61t-90 -183q0 -87 50 -133.5t153 -67.5v-20q-123 -21 -179.5 -67.5t-56.5 -131.5q0 -119 100 -186.5t312 -67.5zM885 545q71 0 99 -18t28 -58q0 -78 -127 -78
q-125 0 -125 78q0 40 27.5 58t97.5 18zM885 872q59 0 84.5 -16.5t25.5 -58.5q0 -43 -25 -61.5t-85 -18.5q-57 0 -83 18.5t-26 61.5q0 42 26 58.5t83 16.5z" />
    <glyph glyph-name="uni2792" unicode="&#x2792;" horiz-adv-x="1771" 
d="M885 1464q200 0 359.5 -62.5t263.5 -174.5t159 -264.5t55 -335.5q0 -147 -34.5 -275.5t-104 -232.5t-169 -178.5t-234.5 -115t-295 -40.5q-199 0 -358 62.5t-263.5 175t-159.5 266.5t-55 338q0 183 55 335.5t159 264.5t263.5 174.5t358.5 62.5zM1311 627q0 130 -30.5 222
t-89.5 144.5t-135 75.5t-177 23q-199 0 -300.5 -81.5t-101.5 -232.5q0 -256 297 -256q176 0 234 156l26 -6q-2 -153 -33.5 -214t-117.5 -61q-108 0 -129 74l-275 -47q16 -82 57 -135t126 -84t215 -31q111 0 196 36t136 99t76.5 143t25.5 175zM887 674q-67 0 -98 28t-31 70
q0 98 127 98q64 0 94.5 -26t30.5 -70q0 -100 -123 -100z" />
    <glyph glyph-name="uni2793" unicode="&#x2793;" horiz-adv-x="1763" 
d="M885 1464q200 0 359.5 -62.5t263.5 -174.5t159 -264.5t55 -335.5q0 -147 -34.5 -275.5t-104 -232.5t-169 -178.5t-234.5 -115t-295 -40.5q-199 0 -358 62.5t-263.5 175t-159.5 266.5t-55 338q0 183 55 335.5t159 264.5t263.5 174.5t358.5 62.5zM1083 1049
q-126 0 -200 -106t-74 -316q0 -214 72.5 -321t201.5 -107q131 0 204 107t73 321q0 210 -74 316t-203 106zM537 412h-82v-191h333v191h-53v616h-112l-201 -65l61 -170q38 15 54 28v-409zM1083 854q72 0 72 -227q0 -109 -18.5 -173.5t-55.5 -64.5q-67 0 -67 238q0 227 69 227z
" />
    <glyph glyph-name="uni279A" unicode="&#x279a;" horiz-adv-x="1843" 
d="M1280 754v-754h-1081v1081h786v-6l-231 -241q-7 0 -301 6q8 -117 8 -260q0 -63 -3.5 -176.5t-4.5 -147.5q37 1 150 4.5t175 3.5q144 0 264 -8q-8 101 -8 231l240 267h6zM811 1393h758l53 -54v-768h-266q11 218 51 441l-10 6q-274 -312 -445 -481l-207 -207l-186 188
l205 207q38 38 83.5 81.5t76.5 72t89.5 81t76.5 68t86 75.5t73 64l-4 11q-223 -41 -434 -52v267z" />
    <glyph glyph-name="uni2B1B" unicode="&#x2b1b;" horiz-adv-x="1843" 
d="M1489 1133v-1133h-1133v1133h1133z" />
    <glyph glyph-name="uni2B1C" unicode="&#x2b1c;" horiz-adv-x="1843" 
d="M1489 1133v-1133h-1133v1133h1133zM1241 567q0 144 10 326q-41 -1 -153 -4.5t-174 -3.5q-65 0 -179 3.5t-149 4.5q1 -37 4.5 -150.5t3.5 -175.5t-3.5 -175t-4.5 -150q35 1 149 4.5t179 3.5q62 0 174 -3.5t153 -4.5q-10 182 -10 325z" />
    <glyph glyph-name="uniF8FF" unicode="&#xf8ff;" horiz-adv-x="2635" 
d="M1942 16q-11 -30 -123 -30l-50 2q9 223 14 528.5t7 386.5q-51 -157 -109.5 -386t-94 -367t-48.5 -146q-15 -12 -43 -12q-10 0 -47.5 5.5t-67.5 6.5q4 86 4 420q-63 2 -190 2q2 -51 2 -164q0 -244 -20 -256q-12 -10 -54 -10q-22 0 -58 3t-46 3h-6q14 199 14 422
q-30 0 -84 -1t-78 -1v-92q0 -56 1 -146t1 -112q0 -39 -2 -41q-10 -26 -39 -33.5t-123 -9.5q-2 59 -2 162q0 76 5 266q-114 -4 -132 -4q-159 -277 -215 -408q-9 4 -45 4q-19 0 -40.5 -2.5t-33.5 -5.5l-12 -2q-5 51 -32 102q-10 17 -57.5 92.5t-89.5 143t-46 80.5q-4 16 -4 24
q0 38 27 90q-11 26 -11 50q0 32 17 98q12 36 48.5 121t93 213.5t91.5 212.5q70 0 144 20q97 -249 180 -667q6 0 121 -5v25q0 42 -1 161t-1 181q0 241 16 262q16 29 147 31q-6 -123 -6 -236q0 -70 2 -191t2 -171v-64q26 0 79.5 -1t78.5 -1q0 183 -3 357.5t-3 185.5
q0 53 4 70.5t16 25.5q18 13 78 13h64q0 -26 -1 -78t-1 -76q0 -121 5 -296.5t5 -199.5q40 1 106.5 4.5t87.5 4.5q0 54 -1 150t-1 138q0 317 17 344q20 29 86 29q15 0 41.5 -2t34.5 -2q-17 -136 -17 -541v-164q207 676 250 697q19 8 61 8l95 -6q-6 -294 -6 -350q0 -130 3 -370
t3 -316q0 -166 -8 -179zM2292 1245q24 -12 57 -12q40 0 61 24q148 -468 226 -763q-187 -488 -246 -500q-4 -2 -18 -2q-46 0 -136 37q-1 34 -24 87t-45 91t-59 96.5t-42 67.5q-22 42 -22 61q0 12 4.5 21.5t12.5 18.5t10 13q6 9 6 21q0 28 -35 37l10 25q10 26 28.5 71.5
t40.5 102.5t47 124.5t48 133t43.5 131t32.5 114.5zM143 520q0 -16 24.5 -61t64.5 -116.5t65 -127.5q24 63 58 136.5t52.5 115.5t18.5 61v4q0 36 -96 431q-187 -405 -187 -443zM2359 948q-23 -71 -67 -180.5t-71.5 -182.5t-27.5 -96v-4q3 -28 70.5 -141.5t79.5 -140.5
q28 66 58 142.5t45.5 117t15.5 39.5q-23 128 -61 276t-42 170z" />
    <glyph glyph-name="fi" unicode="&#xfb01;" horiz-adv-x="1204" 
d="M492 1006v-27h188v-270h-188v-709h-349v709h-118v270h118v37q0 154 93 246t278 92q85 0 176 -17l-12 -233q-46 6 -88 6q-98 0 -98 -104zM1124 979v-979h-348v979h348zM1124 1315v-232h-348v232h348z" />
    <glyph glyph-name="fl" unicode="&#xfb02;" horiz-adv-x="1204" 
d="M492 1006v-27h188v-270h-188v-709h-349v709h-118v270h118v37q0 154 93 246t278 92q85 0 176 -17l-12 -233q-46 6 -88 6q-98 0 -98 -104zM776 1315h348v-1315h-348v1315z" />
    <glyph glyph-name="uniFEFF" unicode="&#xfeff;" horiz-adv-x="0" 
 />
    <glyph glyph-name="dollar.c2sc" horiz-adv-x="1095" 
d="M670 -4l20 -223h-278l18 225q-362 36 -393 309l340 72q18 -70 72.5 -102.5t130.5 -32.5q129 0 129 59q0 40 -47 64t-191 47q-230 32 -322 120t-92 244q0 282 371 322l-16 192h278l-16 -190q333 -37 373 -293l-357 -68q-14 64 -47.5 92.5t-105.5 28.5q-123 0 -123 -65
q0 -18 5 -29.5t25 -25.5t65.5 -26t119.5 -24q108 -18 188 -46.5t128 -61.5t77 -77t39 -86.5t10 -96.5q0 -295 -401 -328z" />
    <glyph glyph-name="dollar.onum" horiz-adv-x="1087" 
d="M655 -18l17 -236h-228l15 236q-114 7 -196 34t-129 71t-71 95.5t-30 116.5l346 72q34 -142 184 -142q110 0 113 68q0 24 -13.5 40t-60 34.5t-133.5 38.5q-233 52 -323.5 132.5t-90.5 227.5q0 145 101.5 231t302.5 99l-15 219h228l-15 -221q177 -18 259.5 -92t109.5 -203
l-344 -70q-12 67 -44.5 95t-100.5 28q-113 0 -113 -63q0 -26 9.5 -41.5t54 -34.5t133.5 -39q132 -30 218.5 -67t132 -84t62.5 -96t17 -116q0 -149 -96 -232.5t-300 -100.5z" />
    <glyph glyph-name="percent.c2sc" horiz-adv-x="1462" 
d="M379 457q-164 0 -258 88t-94 243q0 154 94 242t258 88q162 0 256 -88.5t94 -241.5q0 -155 -94 -243t-256 -88zM1085 -16q-163 0 -256.5 87t-93.5 244q0 153 94 241.5t256 88.5q164 0 258.5 -88t94.5 -242q0 -157 -94 -244t-259 -87zM760 616l184 482h488v-11l-633 -493z
M526 2h-485v10l631 494l39 -23zM1085 188q44 0 70.5 31.5t26.5 95.5q0 61 -27 92t-70 31t-68.5 -31t-25.5 -92q0 -64 26.5 -95.5t67.5 -31.5zM379 664q41 0 67.5 31t26.5 93t-26.5 92.5t-67.5 30.5q-94 0 -94 -123q0 -63 25 -93.5t69 -30.5z" />
    <glyph glyph-name="ampersand.c2sc" horiz-adv-x="1347" 
d="M1305 315l12 -315q-66 -12 -156 -12q-204 0 -409 118q-54 -57 -149.5 -90.5t-207.5 -33.5q-169 0 -276 77.5t-107 227.5q0 117 70.5 190.5t198.5 122.5q-58 116 -58 205q0 68 23 123.5t60.5 91t89 59.5t106.5 34.5t114 10.5q184 0 276.5 -70t92.5 -186q0 -53 -21.5 -96.5
t-54 -72.5t-81 -52.5t-93.5 -36.5t-100 -24q96 -117 231 -189q112 151 158 338l297 -43q-25 -119 -86.5 -207t-163.5 -163q71 -11 117 -11q23 0 117 4zM584 225q-138 116 -246 273q-27 -52 -27 -121q0 -160 195 -160q47 0 78 8zM567 690q71 26 105.5 59t34.5 82
q0 31 -22 50.5t-60 19.5q-46 0 -67 -25.5t-21 -64.5q0 -57 30 -121z" />
    <glyph glyph-name="parenleft.c2sc" horiz-adv-x="700" 
d="M401 526q0 -210 55 -376.5t197 -346.5l-202 -153q-396 348 -396 876q0 532 396 875l204 -150q-148 -165 -201 -337.5t-53 -387.5z" />
    <glyph glyph-name="parenleft.case" horiz-adv-x="729" 
d="M70 623q0 221 84 456q82 230 301 437l231 -156q-145 -180 -202.5 -354.5t-57.5 -382.5t57.5 -383t202.5 -355l-231 -155q-219 207 -301 436q-84 235 -84 457z" />
    <glyph glyph-name="parenright.c2sc" horiz-adv-x="700" 
d="M299 524q0 209 -55 374.5t-197 348.5l203 154q395 -342 395 -877q0 -532 -395 -874l-205 149q147 167 200.5 339t53.5 386z" />
    <glyph glyph-name="parenright.case" horiz-adv-x="722" 
d="M668 614q0 -525 -385 -893l-232 156q145 180 202.5 354.5t57.5 382.5t-57.5 383t-202.5 355l232 155q385 -368 385 -893z" />
    <glyph glyph-name="plus.1" horiz-adv-x="1036" 
d="M692 78h-348v321h-303v314h303v319h348v-319h303v-314h-303v-321z" />
    <glyph glyph-name="hyphen.1" horiz-adv-x="716" 
d="M31 471v317h655v-317h-655z" />
    <glyph glyph-name="hyphen.2" horiz-adv-x="716" 
d="M31 387v318h655v-318h-655z" />
    <glyph glyph-name="period.1" horiz-adv-x="454" 
d="M49 457v344h357v-344h-357z" />
    <glyph glyph-name="period.2" horiz-adv-x="448" 
d="M47 381v344h356v-344h-356z" />
    <glyph glyph-name="zero.c2sc" horiz-adv-x="1140" 
d="M571 1126q246 0 389.5 -144t143.5 -429q0 -288 -140.5 -435t-392.5 -147t-393 147t-141 435q0 144 39 254.5t111 179.5t168.5 104t215.5 35zM571 827q-93 0 -135.5 -66t-42.5 -208q0 -287 174 -287q181 0 181 287q0 141 -43 207.5t-134 66.5z" />
    <glyph glyph-name="zero.dnom" horiz-adv-x="794" 
d="M399 594q170 0 270.5 -97.5t100.5 -279.5t-100 -280.5t-271 -98.5q-173 0 -272.5 98t-99.5 281q0 182 101 279.5t271 97.5zM399 395q-68 0 -97.5 -43t-29.5 -135t29 -135t96 -43t97 43t30 135t-29 135t-96 43z" />
    <glyph glyph-name="zero.frac" horiz-adv-x="794" 
d="M399 1393q170 0 270.5 -97.5t100.5 -279.5t-100 -280.5t-271 -98.5q-173 0 -272.5 98t-99.5 281q0 182 101 279.5t271 97.5zM399 1194q-68 0 -97.5 -43t-29.5 -135t29 -135t96 -43t97 43t30 135t-29 135t-96 43z" />
    <glyph glyph-name="zero.onum" horiz-adv-x="1187" 
d="M594 1126q263 0 407 -145.5t144 -435.5q0 -287 -142 -431.5t-409 -144.5t-409 144.5t-142 431.5q0 289 146 435t405 146zM594 817q-184 0 -184 -272q0 -138 41 -207.5t139 -69.5q104 0 146 69t42 208q0 272 -184 272z" />
    <glyph glyph-name="zero.tnum" horiz-adv-x="1249" 
d="M625 1260q265 0 418 -162t153 -480q0 -321 -150.5 -485t-420.5 -164t-421 164.5t-151 484.5q0 160 42 283.5t118.5 201.5t180 117.5t231.5 39.5zM625 942q-105 0 -155 -79.5t-50 -244.5q0 -335 201 -335q107 0 157.5 84t50.5 251q0 165 -49.5 244.5t-154.5 79.5z" />
    <glyph glyph-name="zero_tnum" horiz-adv-x="1249" 
d="M625 1126q263 0 407 -145.5t144 -435.5q0 -287 -142 -431.5t-409 -144.5t-409 144.5t-142 431.5q0 289 146 435t405 146zM625 817q-185 0 -185 -272q0 -138 41 -207.5t140 -69.5q104 0 146 69t42 208q0 272 -184 272z" />
    <glyph glyph-name="one.c2sc" horiz-adv-x="944" 
d="M63 0v289h275v499q-83 -51 -217 -102l-107 277l445 135h221v-809h217v-289h-834z" />
    <glyph glyph-name="one.dnom" horiz-adv-x="598" 
d="M41 -143v206h168v299q-80 -46 -131 -63l-72 184l268 90h175v-510h133v-206h-541z" />
    <glyph glyph-name="one.frac" horiz-adv-x="598" 
d="M41 655v207h168v299q-80 -46 -131 -63l-72 184l268 90h175v-510h133v-207h-541z" />
    <glyph glyph-name="one.onum" horiz-adv-x="913" 
d="M66 0v287h262v528q-107 -70 -211 -108l-101 260l414 131h246v-811h201v-287h-811z" />
    <glyph glyph-name="one.tnum" horiz-adv-x="1249" 
d="M125 0v307h403v580q-128 -74 -307 -137l-117 303l568 176h205v-922h282v-307h-1034z" />
    <glyph glyph-name="one_tnum" horiz-adv-x="1249" 
d="M127 0v287h420v547q-190 -104 -357 -138l-71 271l530 131h246v-811h268v-287h-1036z" />
    <glyph glyph-name="two.c2sc" horiz-adv-x="1110" 
d="M569 844q-157 0 -170 -185l-333 35q34 430 507 430q484 0 484 -389q0 -158 -129 -250t-355 -125q-123 -20 -173.5 -38t-63.5 -52q206 21 282 21h431v-291h-1016q-6 80 -6 166q0 185 85.5 276.5t286.5 135.5q142 33 207 57.5t83 46.5t18 63q0 45 -34.5 72t-103.5 27z" />
    <glyph glyph-name="two.dnom" horiz-adv-x="753" 
d="M389 406q-92 0 -102 -115l-236 28q27 273 342 273q320 0 320 -244q0 -105 -70.5 -153t-241.5 -74q-78 -12 -110.5 -27.5t-38.5 -42.5q107 17 178 17h285v-211h-684q0 16 -1 50t-1 52q0 120 56.5 187t207.5 98q75 16 114 32t49.5 30.5t10.5 37.5q0 62 -78 62z" />
    <glyph glyph-name="two.frac" horiz-adv-x="753" 
d="M389 1204q-92 0 -102 -114l-236 28q27 273 342 273q320 0 320 -244q0 -105 -70.5 -153t-241.5 -74q-78 -12 -110.5 -27.5t-38.5 -42.5q101 16 178 16h285v-211h-684q0 16 -1 50.5t-1 52.5q0 120 56.5 186.5t207.5 97.5q109 23 141.5 44.5t32.5 56.5q0 61 -78 61z" />
    <glyph glyph-name="two.onum" horiz-adv-x="1171" 
d="M604 838q-83 0 -127.5 -54t-50.5 -151l-334 41q38 444 516 444q490 0 490 -358q0 -66 -20.5 -116.5t-54.5 -85t-96 -64t-126 -49t-162 -42.5q-195 -46 -230 -60q-55 -21 -65 -57l-2 -12q183 33 457 33h286v-307h-1022q-6 86 -6 178q0 86 22 146.5t74 104t117 72t172 60.5
q132 40 193 66t81.5 50.5t20.5 63.5q0 97 -133 97z" />
    <glyph glyph-name="two.tnum" horiz-adv-x="1249" 
d="M645 961q-183 0 -199 -222l-344 37q20 231 149.5 356t397.5 125q514 0 514 -430q0 -175 -137 -277.5t-381 -141.5q-141 -24 -197.5 -48.5t-68.5 -72.5q167 22 315 22h463v-309h-1089q-7 100 -7 178q0 141 43.5 232t129.5 144t233 87q151 37 223.5 67t92.5 57t20 75
q0 56 -39.5 88.5t-118.5 32.5z" />
    <glyph glyph-name="two_tnum" horiz-adv-x="1249" 
d="M641 838q-83 0 -127.5 -54t-50.5 -151l-334 41q38 444 516 444q490 0 490 -358q0 -66 -20.5 -116.5t-54.5 -85t-96 -64t-126 -49t-162 -42.5q-195 -46 -230 -60q-55 -21 -65 -57l-2 -12q183 33 457 33h286v-307h-1022q-6 86 -6 178q0 86 22 146.5t74 104t117 72t172 60.5
q132 40 193 66t81.5 50.5t20.5 63.5q0 97 -133 97z" />
    <glyph glyph-name="three.c2sc" horiz-adv-x="1099" 
d="M557 -18q-242 0 -367.5 80.5t-142.5 265.5l346 34q3 -29 10.5 -47t25 -35t50 -24.5t82.5 -7.5q139 0 139 94q0 46 -29 68t-100 22h-192v227h194q64 0 88.5 18.5t24.5 67.5q0 54 -31.5 78.5t-99.5 24.5q-89 0 -116.5 -28.5t-32.5 -94.5l-330 23q20 180 133 274t344 94
q245 0 353 -73.5t108 -225.5q0 -109 -70.5 -170.5t-208.5 -85.5v-24q175 -13 246.5 -70t71.5 -172q0 -145 -121 -229t-375 -84z" />
    <glyph glyph-name="three.dnom" horiz-adv-x="724" 
d="M498 231v-24q109 -12 152.5 -49t43.5 -109q0 -97 -83.5 -152t-250.5 -55q-163 0 -245.5 56t-94.5 174l232 37q7 -41 30 -61.5t80 -20.5q89 0 89 59q0 28 -18.5 41.5t-63.5 13.5h-95v150h95q42 0 58.5 13.5t16.5 41.5q0 60 -84 60q-55 0 -76 -19t-30 -61l-221 43
q40 221 325 221q320 0 320 -199q0 -68 -43.5 -107.5t-136.5 -52.5z" />
    <glyph glyph-name="three.frac" horiz-adv-x="724" 
d="M498 1030v-24q109 -12 152.5 -49t43.5 -109q0 -97 -83.5 -152t-250.5 -55q-164 0 -246 56t-94 173l232 37q7 -41 30 -61.5t80 -20.5q89 0 89 60q0 28 -18.5 41.5t-63.5 13.5h-95v150h95q42 0 58.5 13.5t16.5 41.5q0 59 -84 59q-55 0 -76 -19t-30 -61l-221 43
q41 222 325 222q320 0 320 -199q0 -68 -43.5 -107.5t-136.5 -52.5z" />
    <glyph glyph-name="three.onum" horiz-adv-x="1177" 
d="M598 -141q-260 0 -395.5 91.5t-153.5 297.5l357 37q5 -38 13.5 -60.5t29 -43.5t58.5 -30.5t97 -9.5q164 0 164 117q0 58 -34.5 84.5t-119.5 26.5h-206v243h208q73 0 102.5 23.5t29.5 83.5q0 66 -36 94.5t-116 28.5q-51 0 -85 -10t-52 -31t-26 -46t-11 -63l-340 27
q21 200 144 304.5t368 104.5q259 0 375 -82t116 -251q0 -121 -75 -190.5t-222 -96.5v-27q189 -17 264.5 -79.5t75.5 -192.5q0 -164 -128 -257t-402 -93z" />
    <glyph glyph-name="three.tnum" horiz-adv-x="1249" 
d="M635 -20q-260 0 -395.5 91.5t-153.5 297.5l356 37q5 -37 13.5 -60t29 -44t59 -30.5t97.5 -9.5q164 0 164 117q0 57 -34.5 83.5t-119.5 26.5h-207v244h209q72 0 101.5 23.5t29.5 83.5q0 66 -35.5 94.5t-115.5 28.5q-51 0 -85 -10t-52 -31t-26 -46t-11 -63l-340 27
q21 200 144 304.5t368 104.5q259 0 375 -82.5t116 -251.5q0 -121 -75 -190t-222 -96v-27q189 -17 264.5 -79.5t75.5 -192.5q0 -164 -128 -257t-402 -93z" />
    <glyph glyph-name="three_tnum" horiz-adv-x="1249" 
d="M635 -141q-260 0 -395.5 91.5t-153.5 297.5l356 37q5 -37 13.5 -60t29 -44t59 -30.5t97.5 -9.5q164 0 164 117q0 58 -34.5 84.5t-119.5 26.5h-207v243h209q72 0 101.5 23.5t29.5 83.5q0 66 -35.5 94.5t-115.5 28.5q-51 0 -85 -10t-52 -31t-26 -46t-11 -63l-340 27
q21 200 144 304.5t368 104.5q259 0 375 -82t116 -251q0 -121 -75 -190.5t-222 -96.5v-27q189 -17 264.5 -79.5t75.5 -192.5q0 -164 -128 -257t-402 -93z" />
    <glyph glyph-name="four.c2sc" horiz-adv-x="1118" 
d="M621 0v227h-590v232l483 639h447v-609h120v-262h-120v-227h-340zM621 854l-19 4l-270 -373l12 -16q113 16 277 20v365z" />
    <glyph glyph-name="four.dnom" horiz-adv-x="749" 
d="M412 -143v147h-387v154l313 415h307v-393h76v-176h-76v-147h-233zM412 422l-9 2l-184 -252l4 -6q86 10 189 14v242z" />
    <glyph glyph-name="four.frac" horiz-adv-x="749" 
d="M412 655v148h-387v153l313 416h307v-393h76v-176h-76v-148h-233zM412 1221l-9 2l-184 -252l4 -6q86 10 189 14v242z" />
    <glyph glyph-name="four.onum" horiz-adv-x="1200" 
d="M709 -131v258h-648v246l539 725h457v-690h135v-281h-135v-258h-348zM709 836l-21 6l-315 -441l12 -18q155 22 324 25v428z" />
    <glyph glyph-name="four.tnum" horiz-adv-x="1249" 
d="M709 0v258h-648v246l539 725h457v-690h135v-281h-135v-258h-348zM709 967l-21 6l-315 -441l12 -18q155 22 324 25v428z" />
    <glyph glyph-name="four_tnum" horiz-adv-x="1249" 
d="M709 -131v258h-648v246l539 725h457v-690h135v-281h-135v-258h-348zM709 836l-21 6l-315 -441l12 -18q155 22 324 25v428z" />
    <glyph glyph-name="five.c2sc" horiz-adv-x="1097" 
d="M553 246q85 0 117 26.5t32 75.5q0 111 -149 111q-61 0 -102.5 -14t-88.5 -44l-272 101v596h895v-322q-306 0 -586 27v-174q110 55 273 55q97 0 171 -26.5t118 -73.5t66 -107t22 -131q0 -188 -125 -276t-379 -88q-233 0 -354.5 70t-149.5 239l342 59q34 -104 170 -104z
" />
    <glyph glyph-name="five.dnom" horiz-adv-x="737" 
d="M375 23q52 0 71 16t19 45q0 66 -94 66q-70 0 -123 -35l-185 69v389h596v-208q-191 0 -387 16v-113q69 37 183 37q124 0 185.5 -62.5t61.5 -160.5q0 -122 -83.5 -180t-251.5 -58q-312 0 -332 209l233 33q15 -63 107 -63z" />
    <glyph glyph-name="five.frac" horiz-adv-x="737" 
d="M375 821q51 0 70.5 16t19.5 46q0 65 -94 65q-70 0 -123 -35l-185 70v389h596v-209q-179 0 -387 17v-113q69 37 183 37q124 0 185.5 -62.5t61.5 -160.5q0 -122 -83.5 -180t-251.5 -58q-312 0 -332 209l233 33q16 -64 107 -64z" />
    <glyph glyph-name="five.onum" horiz-adv-x="1177" 
d="M590 129q99 0 138.5 33t39.5 94q0 133 -172 133q-123 0 -215 -63l-281 106v666h957v-332q-312 0 -639 29v-228q122 66 299 66q105 0 184.5 -29t128 -81.5t72.5 -120t24 -148.5q0 -208 -135 -307t-403 -99q-241 0 -373.5 80t-167.5 246l342 84q20 -59 65.5 -94t135.5 -35z
" />
    <glyph glyph-name="five.tnum" horiz-adv-x="1249" 
d="M623 260q99 0 138.5 33t39.5 94q0 133 -172 133q-123 0 -215 -63l-281 106v666h957v-332q-312 0 -639 29v-228q122 66 299 66q105 0 184.5 -29t128 -81.5t72.5 -120t24 -148.5q0 -208 -135 -306.5t-403 -98.5q-241 0 -373.5 79.5t-167.5 245.5l342 84q20 -59 65.5 -94
t135.5 -35z" />
    <glyph glyph-name="five_tnum" horiz-adv-x="1249" 
d="M623 129q99 0 138.5 33t39.5 94q0 133 -172 133q-123 0 -215 -63l-281 106v666h957v-332q-312 0 -639 29v-228q122 66 299 66q105 0 184.5 -29t128 -81.5t72.5 -120t24 -148.5q0 -208 -135 -307t-403 -99q-241 0 -373.5 80t-167.5 246l342 84q20 -59 65.5 -94t135.5 -35z
" />
    <glyph glyph-name="six.c2sc" horiz-adv-x="1128" 
d="M389 473l25 -4q40 104 117 146t192 42q79 0 141 -16.5t110 -51t73.5 -93.5t25.5 -140q0 -185 -126 -282t-376 -97q-97 0 -174 17.5t-143.5 59t-110.5 107t-69 165t-25 229.5q0 117 31.5 217t94 179.5t166 125t237.5 45.5q128 0 214 -21.5t138.5 -68.5t78 -111t35.5 -159
l-337 -33q-12 58 -39 85.5t-95 27.5q-107 0 -145.5 -82.5t-38.5 -286.5zM573 467q-86 0 -120.5 -28t-34.5 -77q0 -108 160 -108q88 0 119.5 28.5t31.5 77.5q0 48 -32 77.5t-124 29.5z" />
    <glyph glyph-name="six.dnom" horiz-adv-x="755" 
d="M268 168l17 -4q27 68 77.5 94.5t124.5 26.5q107 0 169.5 -47t62.5 -150q0 -119 -85 -182.5t-251 -63.5q-81 0 -142 18.5t-108 60.5t-71.5 117.5t-24.5 182.5q0 76 20.5 141t61.5 117t110 81.5t160 29.5q161 0 229 -56t82 -180l-233 -24q-7 36 -24 53.5t-58 17.5
q-68 0 -92.5 -51.5t-24.5 -181.5zM385 158q-56 0 -76 -16t-20 -48q0 -67 98 -67q57 0 76.5 17.5t19.5 47.5t-19.5 48t-78.5 18z" />
    <glyph glyph-name="six.frac" horiz-adv-x="755" 
d="M268 967l17 -4q27 67 77.5 93.5t124.5 26.5q232 0 232 -196q0 -119 -85 -182.5t-251 -63.5q-81 0 -142 18.5t-108 60.5t-71.5 117.5t-24.5 182.5q0 76 20.5 141t61.5 117t110 81.5t160 29.5q161 0 229 -56t82 -180l-233 -25q-7 36 -24 54t-58 18q-68 0 -92.5 -51.5
t-24.5 -181.5zM385 956q-56 0 -76 -15.5t-20 -47.5q0 -68 98 -68q57 0 76.5 18t19.5 48q0 29 -19.5 47t-78.5 18z" />
    <glyph glyph-name="six.onum" horiz-adv-x="1204" 
d="M399 526l27 -4q42 116 128 164.5t214 48.5q85 0 152.5 -18.5t119.5 -57t80.5 -105t28.5 -157.5q0 -205 -136 -313.5t-403 -108.5q-103 0 -186 19.5t-154 65.5t-118.5 119t-74 183.5t-26.5 255.5q0 132 33.5 244.5t100 201.5t177.5 140t256 51q134 0 226.5 -24.5
t149.5 -77t86 -124t40 -175.5l-350 -37q-13 74 -45 107.5t-111 33.5q-124 0 -169.5 -97t-45.5 -335zM616 532q-102 0 -144 -34t-42 -95q0 -135 188 -135q101 0 139 36.5t38 98.5q0 59 -38 94t-141 35z" />
    <glyph glyph-name="six.tnum" horiz-adv-x="1249" 
d="M430 526l27 -4q42 116 128 164.5t214 48.5q85 0 152.5 -18.5t119.5 -57t80.5 -105t28.5 -157.5q0 -205 -136 -313.5t-403 -108.5q-103 0 -186 19.5t-154 65.5t-118.5 119t-74 183.5t-26.5 255.5q0 132 33.5 244.5t100 201.5t177.5 140t256 51q134 0 226.5 -24.5
t149.5 -77t86 -124t40 -175.5l-350 -37q-13 74 -45 107.5t-111 33.5q-124 0 -169.5 -97t-45.5 -335zM647 532q-102 0 -144 -34t-42 -95q0 -135 188 -135q101 0 138.5 36.5t37.5 98.5q0 59 -37.5 94t-140.5 35z" />
    <glyph glyph-name="six_tnum" horiz-adv-x="1249" 
d="M430 526l27 -4q42 116 128 164.5t214 48.5q85 0 152.5 -18.5t119.5 -57t80.5 -105t28.5 -157.5q0 -205 -136 -313.5t-403 -108.5q-103 0 -186 19.5t-154 65.5t-118.5 119t-74 183.5t-26.5 255.5q0 132 33.5 244.5t100 201.5t177.5 140t256 51q134 0 226.5 -24.5
t149.5 -77t86 -124t40 -175.5l-350 -37q-13 74 -45 107.5t-111 33.5q-124 0 -169.5 -97t-45.5 -335zM647 532q-102 0 -144 -34t-42 -95q0 -135 188 -135q101 0 138.5 36.5t37.5 98.5q0 59 -37.5 94t-140.5 35z" />
    <glyph glyph-name="seven.c2sc" horiz-adv-x="1003" 
d="M395 782h-368v316h950v-305q-155 -161 -232 -354.5t-83 -438.5h-400q14 494 412 797q-158 -15 -279 -15z" />
    <glyph glyph-name="seven.dnom" horiz-adv-x="675" 
d="M264 367h-241v206h630v-204q-102 -103 -150.5 -227.5t-53.5 -284.5h-275q8 318 283 522q-88 -12 -193 -12z" />
    <glyph glyph-name="seven.frac" horiz-adv-x="675" 
d="M264 1165h-241v207h630v-205q-102 -103 -150.5 -227.5t-53.5 -284.5h-275q8 319 283 523q-96 -13 -193 -13z" />
    <glyph glyph-name="seven.onum" horiz-adv-x="1103" 
d="M438 772h-401v326h1026v-326q-172 -183 -257.5 -404t-96.5 -499h-410q20 568 469 924q-206 -21 -330 -21z" />
    <glyph glyph-name="seven.tnum" horiz-adv-x="1249" 
d="M530 903h-401v326h1026v-326q-172 -183 -257.5 -404t-96.5 -499h-410q20 568 469 924q-206 -21 -330 -21z" />
    <glyph glyph-name="seven_tnum" horiz-adv-x="1249" 
d="M530 772h-401v326h1026v-326q-172 -183 -257.5 -404t-96.5 -499h-410q20 568 469 924q-206 -21 -330 -21z" />
    <glyph glyph-name="eight.c2sc" horiz-adv-x="1116" 
d="M559 -23q-263 0 -385.5 84.5t-122.5 233.5q0 105 70 165t217 85v22q-126 27 -187 85t-61 165q0 153 111.5 229t357.5 76q245 0 356 -76t111 -229q0 -106 -62 -164t-186 -86v-22q145 -25 216 -85.5t71 -164.5q0 -149 -123 -233.5t-383 -84.5zM559 438q-89 0 -122.5 -22
t-33.5 -74q0 -94 156 -94q154 0 154 94q0 52 -34 74t-120 22zM559 846q-74 0 -104.5 -20.5t-30.5 -73.5q0 -54 30.5 -76.5t104.5 -22.5q70 0 101.5 23t31.5 76q0 52 -31.5 73t-101.5 21z" />
    <glyph glyph-name="eight.dnom" horiz-adv-x="749" 
d="M377 -158q-344 0 -344 207q0 71 47.5 108.5t148.5 51.5v20q-89 18 -130.5 54.5t-41.5 105.5q0 101 76 151t244 50q164 0 239.5 -50.5t75.5 -150.5q0 -69 -42 -105.5t-128 -54.5v-20q101 -14 149 -51.5t48 -108.5q0 -97 -82.5 -152t-259.5 -55zM377 139q-59 0 -82 -13
t-23 -44q0 -59 105 -59q100 0 100 59q0 31 -22 44t-78 13zM377 406q-50 0 -72 -14t-22 -46q0 -33 20.5 -47t73.5 -14q49 0 70.5 14.5t21.5 46.5q0 60 -92 60z" />
    <glyph glyph-name="eight.frac" horiz-adv-x="749" 
d="M377 641q-344 0 -344 207q0 71 47.5 108.5t148.5 51.5v20q-89 18 -130.5 54.5t-41.5 105.5q0 101 76 151t244 50q164 0 239.5 -50.5t75.5 -150.5q0 -69 -42 -105.5t-128 -54.5v-20q101 -14 149 -51.5t48 -108.5q0 -97 -82.5 -152t-259.5 -55zM377 938q-59 0 -82 -13
t-23 -44q0 -60 105 -60q100 0 100 60q0 31 -22 44t-78 13zM377 1204q-50 0 -72 -13.5t-22 -45.5q0 -33 20.5 -47.5t73.5 -14.5q49 0 70.5 14.5t21.5 47.5q0 59 -92 59z" />
    <glyph glyph-name="eight.onum" horiz-adv-x="1193" 
d="M598 -25q-283 0 -414 93.5t-131 261.5q0 117 76 183.5t236 96.5v25q-135 31 -202 96t-67 184q0 170 119 255t383 85q260 0 380 -85t120 -255q0 -119 -67 -184t-202 -96v-27q160 -26 236 -93t76 -185q0 -168 -130.5 -261.5t-412.5 -93.5zM598 496q-103 0 -142.5 -27.5
t-39.5 -89.5q0 -117 182 -117q180 0 180 117q0 62 -39.5 89.5t-140.5 27.5zM598 963q-85 0 -121.5 -27t-36.5 -90t37 -91t121 -28q80 0 118 28.5t38 90.5t-37.5 89.5t-118.5 27.5z" />
    <glyph glyph-name="eight.tnum" horiz-adv-x="1249" 
d="M627 -25q-283 0 -414 93.5t-131 261.5q0 117 75.5 183.5t235.5 96.5v25q-135 31 -201.5 96t-66.5 184q0 170 119 255t383 85q260 0 379.5 -85t119.5 -255q0 -119 -66.5 -184t-201.5 -96v-27q159 -26 235 -93t76 -185q0 -168 -130.5 -261.5t-411.5 -93.5zM627 496
q-103 0 -143 -27.5t-40 -89.5q0 -117 183 -117q180 0 180 117q0 62 -39.5 89.5t-140.5 27.5zM627 963q-85 0 -121.5 -27t-36.5 -90t37 -91t121 -28q80 0 117.5 28t37.5 91q0 62 -37 89.5t-118 27.5z" />
    <glyph glyph-name="eight_tnum" horiz-adv-x="1249" 
d="M627 -25q-283 0 -414 93.5t-131 261.5q0 117 75.5 183.5t235.5 96.5v25q-135 31 -201.5 96t-66.5 184q0 170 119 255t383 85q260 0 379.5 -85t119.5 -255q0 -119 -66.5 -184t-201.5 -96v-27q159 -26 235 -93t76 -185q0 -168 -130.5 -261.5t-411.5 -93.5zM627 496
q-103 0 -143 -27.5t-40 -89.5q0 -117 183 -117q180 0 180 117q0 62 -39.5 89.5t-140.5 27.5zM627 963q-85 0 -121.5 -27t-36.5 -90t37 -91t121 -28q80 0 117.5 28t37.5 91q0 62 -37 89.5t-118 27.5z" />
    <glyph glyph-name="nine.c2sc" horiz-adv-x="1112" 
d="M731 600l-24 4q-75 -192 -293 -192q-172 0 -269.5 76t-97.5 241q0 190 126 291.5t370 101.5q124 0 217 -29t165 -94t109 -179.5t37 -276.5q0 -117 -31.5 -217t-94 -179t-167 -124.5t-239.5 -45.5q-121 0 -209.5 21t-145 63t-88 97t-45.5 131l336 57q13 -49 50 -69.5
t110 -20.5q106 0 145 76.5t39 267.5zM551 602q151 0 151 125q0 54 -36.5 86.5t-116.5 32.5q-84 0 -120 -35.5t-36 -87.5q0 -50 39 -85.5t119 -35.5z" />
    <glyph glyph-name="nine.dnom" horiz-adv-x="745" 
d="M362 -158q-107 0 -176.5 25.5t-102.5 68.5t-46 109l231 39q15 -53 101 -53q66 0 90 47.5t24 167.5l-16 2q-47 -121 -191 -121q-241 0 -241 207q0 124 83.5 190t246.5 66q168 0 260 -87.5t92 -293.5q0 -76 -21 -141t-63 -116t-111.5 -80.5t-159.5 -29.5zM373 252
q92 0 92 78q0 73 -96 73q-99 0 -99 -73q0 -33 25 -55.5t78 -22.5z" />
    <glyph glyph-name="nine.frac" horiz-adv-x="745" 
d="M362 641q-107 0 -176.5 25.5t-102.5 68.5t-46 109l231 39q15 -54 101 -54q66 0 90 47.5t24 167.5l-16 3q-47 -121 -191 -121q-241 0 -241 207q0 124 83.5 190t246.5 66q168 0 260 -87.5t92 -293.5q0 -76 -21 -141t-63 -116t-111.5 -80.5t-159.5 -29.5zM373 1051
q92 0 92 77q0 74 -96 74q-99 0 -99 -74q0 -33 25 -55t78 -22z" />
    <glyph glyph-name="nine.onum" horiz-adv-x="1187" 
d="M799 557l-25 4q-82 -219 -328 -219q-395 0 -395 356q0 211 134.5 324t394.5 113q133 0 233.5 -32.5t178 -105.5t117.5 -200.5t40 -307.5q0 -132 -33.5 -244.5t-101 -201t-179 -138.5t-257.5 -50q-171 0 -283.5 43.5t-167.5 118.5t-74 188l346 61q17 -62 60 -88t127 -26
q121 0 167 90.5t46 314.5zM588 545q180 0 180 151q0 66 -44.5 105t-137.5 39q-96 0 -138 -42t-42 -106q0 -63 45 -105t137 -42z" />
    <glyph glyph-name="nine.tnum" horiz-adv-x="1249" 
d="M829 678l-24 4q-82 -219 -328 -219q-395 0 -395 356q0 211 134 323.5t394 112.5q106 0 190.5 -19.5t156.5 -66t120.5 -119.5t75.5 -184t27 -256q0 -132 -33.5 -244.5t-101 -201t-179.5 -139t-258 -50.5q-252 0 -373.5 89t-150.5 262l346 61q17 -62 59.5 -88.5
t126.5 -26.5q121 0 167 91t46 315zM618 666q94 0 137.5 40.5t43.5 110.5q0 66 -44.5 105t-138.5 39q-96 0 -138 -42t-42 -106q0 -63 45 -105t137 -42z" />
    <glyph glyph-name="nine_tnum" horiz-adv-x="1249" 
d="M829 557l-24 4q-82 -219 -328 -219q-395 0 -395 356q0 211 134 324t394 113q106 0 190.5 -19.5t156.5 -66t120.5 -120t75.5 -184.5t27 -256q0 -105 -20.5 -198t-65.5 -173.5t-111 -138.5t-162 -91t-213 -33q-130 0 -225 23.5t-155.5 70.5t-95 109.5t-48.5 146.5l346 61
q17 -62 59.5 -88t126.5 -26q121 0 167 90.5t46 314.5zM618 545q94 0 137.5 40.5t43.5 110.5q0 66 -44.5 105t-138.5 39q-96 0 -138 -42t-42 -106q0 -63 45 -105t137 -42z" />
    <glyph glyph-name="equal.1" horiz-adv-x="1019" 
d="M946 485v-272h-872v272h872zM946 895v-272h-872v272h872z" />
    <glyph glyph-name="G.salt" horiz-adv-x="1277" 
d="M885 449h-238v251h582v-194q0 -84 -19 -159t-62.5 -143.5t-109 -118t-164 -79t-221.5 -29.5q-304 0 -458 159t-154 462q0 319 155.5 490.5t458.5 171.5q253 0 384 -97.5t167 -298.5l-346 -71q-20 75 -65.5 111t-143.5 36q-129 0 -184 -85t-55 -257q0 -159 57 -235
t190 -76q120 0 170.5 43.5t55.5 118.5z" />
    <glyph glyph-name="bracketleft.c2sc" horiz-adv-x="643" 
d="M623 -303h-203h-338v1651h541v-240h-203v-1171h203v-240z" />
    <glyph glyph-name="bracketleft.case" horiz-adv-x="677" 
d="M651 -203h-219h-348v1635h567v-293h-219v-1049h219v-293z" />
    <glyph glyph-name="bracketright.c2sc" horiz-adv-x="643" 
d="M563 -303h-123h-417v240h202v1171h-202v240h540v-1651z" />
    <glyph glyph-name="bracketright.case" horiz-adv-x="677" 
d="M594 -193h-127h-440v293h219v1051h-219v293h567v-1637z" />
    <glyph glyph-name="a.c2sc" horiz-adv-x="1171" 
d="M762 188h-367l-53 -188h-369l365 1098h498l362 -1098h-385zM600 801h-37q-9 -38 -29.5 -115t-29.5 -115l-39 -135h229l-35 135q-21 69 -59 230z" />
    <glyph glyph-name="a.salt" 
d="M348 -31q-144 0 -224.5 131.5t-80.5 380.5q0 257 80.5 393t230.5 136q204 0 293 -271h19v240h348v-979h-348v252h-19q-39 -134 -115 -208.5t-184 -74.5zM666 440v78q0 81 -38.5 129.5t-101.5 48.5q-77 0 -111 -52t-34 -163q0 -106 34 -156.5t111 -50.5q62 0 101 45.5
t39 120.5z" />
    <glyph glyph-name="b.c2sc" horiz-adv-x="1128" 
d="M76 0v1098h530q239 0 347 -67t108 -214q0 -209 -252 -260v-16q164 -13 227.5 -66t63.5 -172q0 -303 -441 -303h-583zM434 424v-174h213q98 0 98 86q0 47 -22 67.5t-82 20.5h-207zM434 840v-189h164q67 0 95 22.5t28 76.5q0 49 -26 69.5t-89 20.5h-172z" />
    <glyph glyph-name="c.c2sc" horiz-adv-x="1189" 
d="M612 -29q-270 0 -420.5 152.5t-150.5 429.5q0 274 156.5 423.5t425.5 149.5q230 0 363.5 -112t156.5 -326l-342 -61q-18 104 -61 152t-132 48q-75 0 -123.5 -39t-68 -98t-19.5 -137q0 -141 49.5 -214t161.5 -73q92 0 132 46t67 157l338 -55q-25 -214 -164 -328.5
t-369 -114.5z" />
    <glyph glyph-name="d.c2sc" horiz-adv-x="1222" 
d="M592 0h-516v1098h526q301 0 441.5 -135t140.5 -396q0 -264 -156 -415.5t-436 -151.5zM434 817v-536h131q141 0 201.5 66t60.5 220q0 144 -59.5 197t-210.5 53h-123z" />
    <glyph glyph-name="e.c2sc" horiz-adv-x="1064" 
d="M997 0h-563h-358v1098h921v-297h-563v-127h529v-244h-529v-133h563v-297z" />
    <glyph glyph-name="f.c2sc" horiz-adv-x="1005" 
d="M440 297v-297h-358v1098h883v-316h-525v-200h490v-285h-490z" />
    <glyph glyph-name="g.c2sc" horiz-adv-x="1224" 
d="M457 -20q-180 0 -299 144t-119 411q0 287 144.5 439t428.5 152q235 0 356 -92t154 -284l-336 -68q-14 50 -31 78.5t-55 47.5t-98 19q-110 0 -156.5 -71t-46.5 -221q0 -141 49 -209t166 -68q179 0 195 113h-205v237h541v-608h-326v233h-26q-88 -253 -336 -253z" />
    <glyph glyph-name="g_salt" horiz-adv-x="1206" 
d="M829 412h-227v227h555v-170q0 -74 -17.5 -142.5t-57.5 -133t-100 -112t-152 -76t-205 -28.5q-289 0 -436.5 146t-147.5 428q0 275 146 425t429 150q238 0 361 -85.5t156 -264.5l-334 -69q-18 61 -58.5 89.5t-126.5 28.5q-208 0 -208 -274q0 -141 53.5 -212t179.5 -71
q190 0 190 144z" />
    <glyph glyph-name="g.salt" 
d="M43 500q0 254 80 382t231 128q204 0 293 -271h19v240h348v-891q0 -195 -121.5 -308.5t-345.5 -113.5q-231 0 -348.5 72t-141.5 217l344 53q24 -78 134 -78q76 0 103.5 36t27.5 120v217h-21q-38 -110 -115 -179t-176 -69q-149 0 -230 113.5t-81 331.5zM666 479v56
q0 73 -38.5 117t-101.5 44q-145 0 -145 -188q0 -178 145 -178q62 0 101 41.5t39 107.5z" />
    <glyph glyph-name="h.c2sc" horiz-adv-x="1228" 
d="M76 0v1098h358v-398h361v398h358v-1098h-358v393h-361v-393h-358z" />
    <glyph glyph-name="i.1" horiz-adv-x="507" 
d="M428 979v-979h-348v979h348zM428 1315v-232h-348v232h348z" />
    <glyph glyph-name="i.c2sc" horiz-adv-x="512" 
d="M434 1098v-1098h-358v1098h358z" />
    <glyph glyph-name="i_c2sc" horiz-adv-x="512" 
d="M434 1098v-1098h-358v1098h358zM98 1227v299h314v-299h-314z" />
    <glyph glyph-name="j.c2sc" horiz-adv-x="620" 
d="M186 367v731h359v-729q0 -181 -89.5 -282t-279.5 -101q-87 0 -162 14l17 293q48 -10 80 -10q36 0 55.5 23t19.5 61z" />
    <glyph glyph-name="k.c2sc" horiz-adv-x="1136" 
d="M76 0v1098h358v-447h55l254 447h408v-21l-395 -534l393 -523v-20h-416l-239 379h-60v-379h-358z" />
    <glyph glyph-name="l.c2sc" horiz-adv-x="927" 
d="M76 0v1098h358v-811h455v-287h-813z" />
    <glyph glyph-name="m.c2sc" horiz-adv-x="1605" 
d="M815 418h25q35 184 73 342l86 338h529v-1098h-359v389q0 135 13 432h-23q-61 -279 -129 -493l-82 -275h-321l-78 281q-67 230 -125 487h-23q5 -342 5 -432v-389h-330v1098h573l92 -353q47 -193 74 -327z" />
    <glyph glyph-name="n.c2sc" horiz-adv-x="1263" 
d="M1186 0h-473l-146 340q-66 139 -166 448l-20 -2q25 -350 25 -522v-264h-330v1098h502l120 -275q95 -217 160 -456l23 2q-23 266 -23 454v275h328v-1098z" />
    <glyph glyph-name="o.c2sc" horiz-adv-x="1253" 
d="M627 -29q-279 0 -432.5 154.5t-153.5 427.5q0 271 158 422t428 151q272 0 428.5 -151.5t156.5 -421.5q0 -274 -153 -428t-432 -154zM625 266q124 0 177.5 72t53.5 217q0 132 -53.5 202t-175.5 70q-230 0 -230 -272q0 -144 53.5 -216.5t174.5 -72.5z" />
    <glyph glyph-name="p.c2sc" horiz-adv-x="1085" 
d="M594 262h-160v-262h-358v1098h504q244 0 364.5 -107.5t120.5 -314.5q0 -83 -32 -158t-90.5 -132t-148.5 -90.5t-200 -33.5zM549 809h-115v-270h119q84 0 121 33t37 102q0 70 -37 102.5t-125 32.5z" />
    <glyph glyph-name="q.c2sc" horiz-adv-x="1255" 
d="M1024 94l174 -235v-21h-383l-88 139q-49 -6 -100 -6q-279 0 -432.5 154.5t-153.5 427.5q0 271 158 422t428 151q272 0 428.5 -151.5t156.5 -421.5q0 -306 -188 -459zM625 266q124 0 177.5 72t53.5 217q0 132 -53.5 202t-175.5 70q-230 0 -230 -272q0 -144 53.5 -216.5
t174.5 -72.5z" />
    <glyph glyph-name="r.c2sc" horiz-adv-x="1150" 
d="M547 330h-113v-330h-358v1098h532q230 0 351.5 -97t121.5 -292q0 -232 -188 -324l256 -365v-20h-416zM582 811h-148v-229h154q78 0 108.5 25.5t30.5 86.5q0 64 -34.5 90.5t-110.5 26.5z" />
    <glyph glyph-name="s.c2sc" horiz-adv-x="1120" 
d="M567 -29q-497 0 -528 338l340 70q16 -71 71 -103t134 -32q131 0 131 59q0 40 -49.5 65.5t-192.5 45.5q-228 32 -322 121.5t-94 240.5q0 172 125.5 261t376.5 89q448 0 492 -317l-357 -68q-14 65 -47 93t-108 28q-123 0 -123 -67q0 -18 5 -29t25 -25t65.5 -25.5
t119.5 -23.5q110 -18 190 -46t128.5 -61t77 -76.5t38.5 -86t10 -96.5q0 -355 -508 -355z" />
    <glyph glyph-name="t.c2sc" horiz-adv-x="997" 
d="M319 782h-292v316h946v-316h-295v-782h-359v782z" />
    <glyph glyph-name="t.salt" horiz-adv-x="647" 
d="M25 709v270h100v240h348v-240h150v-270h-150v-709h-348v709h-100z" />
    <glyph glyph-name="u.c2sc" horiz-adv-x="1216" 
d="M608 276q98 0 137 46.5t39 140.5v635h359v-664q0 -222 -138.5 -341.5t-396.5 -119.5q-257 0 -394.5 119.5t-137.5 341.5v664h358v-637q0 -94 38 -139.5t136 -45.5z" />
    <glyph glyph-name="v.c2sc" horiz-adv-x="1161" 
d="M569 297h33q33 141 60 229l157 572h369l-363 -1098h-487l-365 1098h385l154 -572q9 -38 28.5 -114.5t28.5 -114.5z" />
    <glyph glyph-name="w.c2sc" horiz-adv-x="1658" 
d="M834 823h-25q-11 -130 -39 -358l-49 -465h-490l-258 1098h385l70 -426q27 -163 55 -379h25q29 273 49 379l68 426h450l64 -426q17 -114 45 -379h26q8 68 27 194.5t27 184.5l59 426h363l-250 -1098h-516l-54 465q-9 72 -32 358z" />
    <glyph glyph-name="x.c2sc" horiz-adv-x="1099" 
d="M0 1098h399l166 -379h15l141 379h377v-21l-299 -553l305 -504v-20h-399l-160 393h-15l-157 -393h-375v20l305 553l-303 504v21z" />
    <glyph glyph-name="y.c2sc" horiz-adv-x="1077" 
d="M717 0h-359v332l-393 745v21h397l162 -473h29l172 473h387v-21l-395 -747v-330z" />
    <glyph glyph-name="z.c2sc" horiz-adv-x="1136" 
d="M788 317h281v-317h-1006v287l531 504l-8 16q-195 -25 -291 -25h-217v316h981v-287l-539 -510l4 -10q162 26 264 26z" />
    <glyph glyph-name="braceleft.c2sc" horiz-adv-x="737" 
d="M332 528v-22q149 -13 208.5 -59.5t59.5 -139.5q0 -43 -18 -86t-39.5 -72t-39.5 -62.5t-18 -59.5q0 -78 121 -78q57 0 92 2v-242q-153 -6 -198 -6q-182 0 -267.5 61t-85.5 181q0 54 24.5 104.5t53.5 84t53.5 77.5t24.5 86q0 43 -28 62.5t-99 19.5h-137v262h135
q139 0 139 94q0 43 -26 90t-57 83t-57 89.5t-26 108.5q0 119 85 179.5t268 60.5q154 0 196 -5v-241q-35 2 -90 2q-121 0 -121 -78q0 -29 28.5 -72.5t57.5 -96t29 -105.5q0 -180 -268 -222z" />
    <glyph glyph-name="braceleft.case" horiz-adv-x="778" 
d="M737 63v-288q-153 -6 -207 -6q-380 0 -380 235q0 46 17 88.5t41 74t47.5 62t40.5 66.5t17 74q0 47 -27.5 69.5t-101.5 22.5h-147v295h145q144 0 144 114q0 36 -18 71.5t-44 65.5t-52 62t-44 74.5t-18 89.5q0 233 380 233q156 0 207 -6v-286q-18 0 -50.5 1t-47.5 1
q-58 0 -84.5 -19t-26.5 -47q0 -23 16 -53t35.5 -57t35.5 -68.5t16 -83.5q0 -94 -71 -147t-220 -70v-37q161 -12 226 -60t65 -145q0 -44 -16 -85.5t-35.5 -67.5t-35.5 -57t-16 -56q0 -62 111 -62q61 0 98 2z" />
    <glyph glyph-name="braceright.c2sc" horiz-adv-x="737" 
d="M406 520v23q-149 13 -208 59t-59 139q0 43 18 86t39.5 72t39.5 63t18 60q0 34 -29 56t-92 22q-59 0 -92 -2v241q57 7 199 7q352 0 352 -242q0 -54 -24.5 -104.5t-53.5 -84t-53.5 -77.5t-24.5 -86q0 -43 27.5 -62.5t99.5 -19.5h137v-262h-135q-74 0 -106.5 -23.5
t-32.5 -71.5q0 -43 26 -90t57 -82.5t57 -89t26 -108.5q0 -119 -85.5 -179.5t-266.5 -60.5q-99 0 -197 4v242q33 -2 90 -2q121 0 121 78q0 24 -18 57t-39.5 61.5t-39.5 71t-18 84.5q0 179 267 221z" />
    <glyph glyph-name="braceright.case" horiz-adv-x="778" 
d="M41 1184v289q55 6 207 6q383 0 383 -234q0 -47 -17 -90t-41.5 -74.5t-49 -62t-41.5 -66.5t-17 -73q0 -48 27.5 -70.5t101.5 -22.5h147v-292h-145q-141 0 -141 -117q0 -36 18 -71.5t44 -66t52 -62t44 -73.5t18 -88q0 -235 -383 -235q-42 0 -207 6v289q39 -2 98 -2
q113 0 113 63q0 28 -26 67.5t-52.5 90t-26.5 104.5q0 94 71 147t220 70v37q-161 12 -226 60t-65 145q0 55 26.5 105.5t52.5 90.5t26 70q0 64 -113 64q-24 0 -98 -4z" />
    <glyph glyph-name="exclamdown.1" horiz-adv-x="524" 
d="M88 0v764h348v-764h-348zM440 1229v-342h-356v342h356z" />
    <glyph glyph-name="sterling.c2sc" horiz-adv-x="1085" 
d="M1028 0h-1001v281h168q8 31 8 65q0 13 -4 37h-172v235h102q-29 92 -29 175q0 150 118.5 236.5t346.5 86.5q100 0 178 -19.5t126.5 -50.5t81 -76.5t47.5 -91.5t22 -102l-305 -69q-18 71 -49 100t-101 29q-133 0 -133 -115q0 -21 14 -103h435v-235h-426q-15 -54 -72 -102
h645v-281z" />
    <glyph glyph-name="sterling.onum" horiz-adv-x="1155" 
d="M219 432h-188v162h135q-39 86 -39 182q0 155 123.5 250.5t357.5 95.5q434 0 484 -350l-320 -67q-19 66 -53 97t-105 32q-73 0 -110 -30t-37 -83q0 -54 25 -127h452v-162h-432q-11 -70 -63 -133h653v-299h-1071v299h180q10 49 10 100q0 23 -2 33z" />
    <glyph glyph-name="yen.c2sc" horiz-adv-x="1173" 
d="M1102 414v-201h-336v-213h-358v213h-336v201h290l-49 96h-241v213h129l-189 354v21h398l161 -473h29l172 473h387v-21l-188 -354h131v-213h-242l-51 -96h293z" />
    <glyph glyph-name="yen.onum" horiz-adv-x="1255" 
d="M1182 397v-164h-369v-233h-369v233h-368v164h336l-70 115h-266v170h166l-226 379v22h418l176 -469h37l184 469h410v-22l-227 -379h168v-170h-269l-69 -115h338z" />
    <glyph glyph-name="guillemotleft.case" horiz-adv-x="1341" 
d="M760 1071l-371 -438l371 -436v-29h-336l-399 455v20l399 455h336v-27zM1333 1071l-370 -438l370 -436v-29h-336l-399 455v20l399 455h336v-27z" />
    <glyph glyph-name="guillemotright.1" horiz-adv-x="1341" 
d="M10 197l369 436l-369 438v27h334l401 -455v-20l-401 -455h-334v29zM584 197l368 436l-368 438v27h334l401 -455v-20l-401 -455h-334v29z" />
    <glyph glyph-name="questiondown.1" horiz-adv-x="1019" 
d="M283 670q71 26 71 90v24h330q2 -18 2 -49q0 -94 -38.5 -144t-139.5 -99q-69 -32 -97 -60.5t-28 -73.5q0 -48 29 -68t86 -20q82 0 118.5 48.5t49.5 148.5l338 -49q-26 -217 -146.5 -330t-363.5 -113q-476 0 -476 353q0 78 18.5 135t57 96t81.5 63t108 48zM700 1229v-342
h-356v342h356z" />
    <glyph glyph-name="multiply.1" horiz-adv-x="1060" 
d="M530 340q-26 -30 -76.5 -89.5t-84.5 -98t-70 -76.5l-246 241q15 13 273 226q-39 32 -95.5 77.5t-98.5 79.5t-79 68l246 242q36 -39 71.5 -80.5t81.5 -96t78 -90.5q212 245 232 267l246 -242q-39 -34 -81 -68.5t-97.5 -79t-94.5 -77.5q37 -31 94 -76.5t98.5 -79.5
t80.5 -70l-246 -241q-28 30 -58.5 64t-52.5 59t-59.5 69t-61.5 72z" />
    <glyph glyph-name="germandbls.c2sc" horiz-adv-x="1204" 
d="M805 -18q-198 0 -328 112l148 238q77 -66 161 -66q62 0 62 39q0 19 -20.5 35t-69.5 35q-103 38 -161 89t-58 134q0 75 49.5 124t152.5 75l-4 18q-57 -8 -190 -8q-62 0 -89.5 -34t-27.5 -118v-655h-354v684q0 200 121 307t354 107h496v-283q-116 -19 -166 -43.5t-50 -62.5
q0 -35 25 -56t90 -47q76 -32 121.5 -67t72.5 -93.5t27 -142.5q0 -156 -96 -238.5t-266 -82.5z" />
    <glyph glyph-name="agrave.c2sc" horiz-adv-x="1171" 
d="M762 188h-367l-53 -188h-369l365 1098h498l362 -1098h-385zM600 801h-37q-9 -38 -29.5 -115t-29.5 -115l-39 -135h229l-35 135q-21 69 -59 230zM838 1309l-86 -166l-525 213l121 233z" />
    <glyph glyph-name="agrave.salt" 
d="M776 1206l-86 -166l-524 213l121 234zM348 -31q-144 0 -224.5 131.5t-80.5 380.5q0 257 80.5 393t230.5 136q204 0 293 -271h19v240h348v-979h-348v252h-19q-39 -134 -115 -208.5t-184 -74.5zM666 440v78q0 81 -38.5 129.5t-101.5 48.5q-77 0 -111 -52t-34 -163
q0 -106 34 -156.5t111 -50.5q62 0 101 45.5t39 120.5z" />
    <glyph glyph-name="aacute.c2sc" horiz-adv-x="1171" 
d="M762 188h-367l-53 -188h-369l365 1098h498l362 -1098h-385zM600 801h-37q-9 -38 -29.5 -115t-29.5 -115l-39 -135h229l-35 135q-21 69 -59 230zM987 1356l-524 -213l-86 166l489 280z" />
    <glyph glyph-name="aacute.salt" 
d="M936 1253l-524 -213l-86 166l489 281zM348 -31q-144 0 -224.5 131.5t-80.5 380.5q0 257 80.5 393t230.5 136q204 0 293 -271h19v240h348v-979h-348v252h-19q-39 -134 -115 -208.5t-184 -74.5zM666 440v78q0 81 -38.5 129.5t-101.5 48.5q-77 0 -111 -52t-34 -163
q0 -106 34 -156.5t111 -50.5q62 0 101 45.5t39 120.5z" />
    <glyph glyph-name="acircumflex.c2sc" horiz-adv-x="1171" 
d="M762 188h-367l-53 -188h-369l365 1098h498l362 -1098h-385zM600 801h-37q-9 -38 -29.5 -115t-29.5 -115l-39 -135h229l-35 135q-21 69 -59 230zM813 1147l-227 172l-228 -172l-110 119l289 305h100l287 -305z" />
    <glyph glyph-name="acircumflex.salt" 
d="M768 1044l-227 173l-228 -173l-110 119l289 305h100l287 -305zM348 -31q-144 0 -224.5 131.5t-80.5 380.5q0 257 80.5 393t230.5 136q204 0 293 -271h19v240h348v-979h-348v252h-19q-39 -134 -115 -208.5t-184 -74.5zM666 440v78q0 81 -38.5 129.5t-101.5 48.5
q-77 0 -111 -52t-34 -163q0 -106 34 -156.5t111 -50.5q62 0 101 45.5t39 120.5z" />
    <glyph glyph-name="atilde.c2sc" horiz-adv-x="1171" 
d="M762 188h-367l-53 -188h-369l365 1098h498l362 -1098h-385zM600 801h-37q-9 -38 -29.5 -115t-29.5 -115l-39 -135h229l-35 135q-21 69 -59 230zM442 1559q42 0 78 -16t59.5 -38.5t43.5 -45t40 -38.5t39 -16q39 0 52.5 33.5t13.5 107.5h139q6 -52 6 -96q0 -137 -48 -204.5
t-136 -67.5q-38 0 -70.5 16t-55.5 38t-43 44.5t-43 38.5t-46 16q-36 0 -49.5 -32t-13.5 -109h-140q-6 50 -6 94q0 133 49 204t131 71z" />
    <glyph glyph-name="atilde.salt" 
d="M393 1456q42 0 78 -16t59.5 -38t43.5 -44.5t40 -38.5t39 -16q39 0 52.5 33.5t13.5 107.5h139q6 -52 6 -96q0 -137 -48 -205t-136 -68q-38 0 -70.5 16t-55.5 38.5t-43 45t-43 38.5t-46 16q-36 0 -50 -32.5t-14 -109.5h-139q-6 49 -6 95q0 133 49 203.5t131 70.5zM348 -31
q-144 0 -224.5 131.5t-80.5 380.5q0 257 80.5 393t230.5 136q204 0 293 -271h19v240h348v-979h-348v252h-19q-39 -134 -115 -208.5t-184 -74.5zM666 440v78q0 81 -38.5 129.5t-101.5 48.5q-77 0 -111 -52t-34 -163q0 -106 34 -156.5t111 -50.5q62 0 101 45.5t39 120.5z" />
    <glyph glyph-name="adieresis.c2sc" horiz-adv-x="1171" 
d="M762 188h-367l-53 -188h-369l365 1098h498l362 -1098h-385zM600 801h-37q-9 -38 -29.5 -115t-29.5 -115l-39 -135h229l-35 135q-21 69 -59 230zM274 1237v270h283v-270h-283zM616 1237v270h281v-270h-281z" />
    <glyph glyph-name="adieresis.salt" 
d="M236 1135v270h282v-270h-282zM578 1135v270h280v-270h-280zM348 -31q-144 0 -224.5 131.5t-80.5 380.5q0 257 80.5 393t230.5 136q204 0 293 -271h19v240h348v-979h-348v252h-19q-39 -134 -115 -208.5t-184 -74.5zM666 440v78q0 81 -38.5 129.5t-101.5 48.5
q-77 0 -111 -52t-34 -163q0 -106 34 -156.5t111 -50.5q62 0 101 45.5t39 120.5z" />
    <glyph glyph-name="aring.c2sc" horiz-adv-x="1171" 
d="M762 188h-367l-53 -188h-369l365 1098h498l362 -1098h-385zM600 801h-37q-9 -38 -29.5 -115t-29.5 -115l-39 -135h229l-35 135q-21 69 -59 230zM831 1419q0 -111 -65 -176t-180 -65q-112 0 -179 65t-67 174t67 175.5t179 66.5q114 0 179.5 -66t65.5 -174zM496 1417
q0 -43 24.5 -68.5t65.5 -25.5t65.5 26t24.5 70q0 42 -24.5 68t-65.5 26t-65.5 -26.5t-24.5 -69.5z" />
    <glyph glyph-name="aring.salt" 
d="M784 1317q0 -111 -65 -176.5t-180 -65.5q-112 0 -179 65.5t-67 174.5t67 175t179 66q114 0 179.5 -66t65.5 -173zM449 1315q0 -43 24.5 -68.5t65.5 -25.5t65.5 26t24.5 70q0 42 -24.5 68t-65.5 26t-65.5 -26.5t-24.5 -69.5zM348 -31q-144 0 -224.5 131.5t-80.5 380.5
q0 257 80.5 393t230.5 136q204 0 293 -271h19v240h348v-979h-348v252h-19q-39 -134 -115 -208.5t-184 -74.5zM666 440v78q0 81 -38.5 129.5t-101.5 48.5q-77 0 -111 -52t-34 -163q0 -106 34 -156.5t111 -50.5q62 0 101 45.5t39 120.5z" />
    <glyph glyph-name="ae.c2sc" horiz-adv-x="1675" 
d="M424 1098h262h922v-297h-564v-127h529v-244h-529v-133h564v-297h-922v180h-276l-66 -180h-371zM686 434v389h-57q-43 -165 -76 -254l-51 -135h184z" />
    <glyph glyph-name="ccedilla.c2sc" horiz-adv-x="1189" 
d="M612 -29h-6l-22 -57q33 10 65 10q148 0 148 -129q0 -53 -46 -96t-149 -43q-129 0 -209 55l60 96q68 -43 149 -43q60 0 60 43q0 46 -64 46q-36 0 -70 -15l-79 33l38 111q-212 32 -329 180t-117 391q0 274 156.5 423.5t425.5 149.5q230 0 363.5 -112t156.5 -326l-342 -61
q-18 104 -61 152t-132 48q-75 0 -123.5 -39t-68 -98t-19.5 -137q0 -141 49.5 -214t161.5 -73q92 0 132 46t67 157l338 -55q-25 -214 -164 -328.5t-369 -114.5z" />
    <glyph glyph-name="egrave.c2sc" horiz-adv-x="1064" 
d="M997 0h-563h-358v1098h921v-297h-563v-127h529v-244h-529v-133h563v-297zM788 1309l-86 -166l-524 213l121 233z" />
    <glyph glyph-name="eacute.c2sc" horiz-adv-x="1064" 
d="M997 0h-563h-358v1098h921v-297h-563v-127h529v-244h-529v-133h563v-297zM938 1356l-524 -213l-86 166l489 280z" />
    <glyph glyph-name="ecircumflex.c2sc" horiz-adv-x="1064" 
d="M997 0h-563h-358v1098h921v-297h-563v-127h529v-244h-529v-133h563v-297zM766 1147l-227 172l-228 -172l-110 119l288 305h101l287 -305z" />
    <glyph glyph-name="edieresis.c2sc" horiz-adv-x="1064" 
d="M997 0h-563h-358v1098h921v-297h-563v-127h529v-244h-529v-133h563v-297zM225 1237v270h283v-270h-283zM567 1237v270h281v-270h-281z" />
    <glyph glyph-name="igrave.c2sc" horiz-adv-x="512" 
d="M434 1098v-1098h-358v1098h358zM508 1309l-86 -166l-524 213l120 233z" />
    <glyph glyph-name="iacute.c2sc" horiz-adv-x="512" 
d="M434 1098v-1098h-358v1098h358zM657 1356l-524 -213l-86 166l490 280z" />
    <glyph glyph-name="icircumflex.c2sc" horiz-adv-x="512" 
d="M434 1098v-1098h-358v1098h358zM483 1147l-227 172l-227 -172l-111 119l289 305h100l287 -305z" />
    <glyph glyph-name="idieresis.c2sc" horiz-adv-x="512" 
d="M434 1098v-1098h-358v1098h358zM-55 1237v270h282v-270h-282zM287 1237v270h280v-270h-280z" />
    <glyph glyph-name="eth.c2sc" horiz-adv-x="1271" 
d="M119 444h-90v201h90v453h526q301 0 441.5 -135t140.5 -396q0 -264 -156 -415.5t-436 -151.5h-516v444zM477 817v-172h189v-201h-189v-163h131q141 0 201.5 66t60.5 220q0 144 -59.5 197t-210.5 53h-123z" />
    <glyph glyph-name="ntilde.c2sc" horiz-adv-x="1263" 
d="M1186 0h-473l-146 340q-66 139 -166 448l-20 -2q25 -350 25 -522v-264h-330v1098h502l120 -275q95 -217 160 -456l23 2q-23 266 -23 454v275h328v-1098zM487 1559q42 0 78 -16t60 -38.5t44 -45t40 -38.5t39 -16q39 0 52 33t13 108h139q6 -52 6 -96q0 -137 -48 -204.5
t-136 -67.5q-38 0 -70.5 16t-55.5 38t-43 44.5t-43 38.5t-46 16q-36 0 -49.5 -32t-13.5 -109h-140q-6 50 -6 94q0 133 49 204t131 71z" />
    <glyph glyph-name="ograve.c2sc" horiz-adv-x="1253" 
d="M627 -29q-279 0 -432.5 154.5t-153.5 427.5q0 271 158 422t428 151q272 0 428.5 -151.5t156.5 -421.5q0 -274 -153 -428t-432 -154zM625 266q124 0 177.5 72t53.5 217q0 132 -53.5 202t-175.5 70q-230 0 -230 -272q0 -144 53.5 -216.5t174.5 -72.5zM879 1337l-86 -166
l-525 213l121 234z" />
    <glyph glyph-name="oacute.c2sc" horiz-adv-x="1253" 
d="M627 -29q-279 0 -432.5 154.5t-153.5 427.5q0 271 158 422t428 151q272 0 428.5 -151.5t156.5 -421.5q0 -274 -153 -428t-432 -154zM625 266q124 0 177.5 72t53.5 217q0 132 -53.5 202t-175.5 70q-230 0 -230 -272q0 -144 53.5 -216.5t174.5 -72.5zM1028 1384l-524 -213
l-86 166l489 281z" />
    <glyph glyph-name="ocircumflex.c2sc" horiz-adv-x="1253" 
d="M627 -29q-279 0 -432.5 154.5t-153.5 427.5q0 271 158 422t428 151q272 0 428.5 -151.5t156.5 -421.5q0 -274 -153 -428t-432 -154zM625 266q124 0 177.5 72t53.5 217q0 132 -53.5 202t-175.5 70q-230 0 -230 -272q0 -144 53.5 -216.5t174.5 -72.5zM856 1176l-227 172
l-228 -172l-110 118l289 305h100l287 -305z" />
    <glyph glyph-name="otilde.c2sc" horiz-adv-x="1253" 
d="M627 -29q-279 0 -432.5 154.5t-153.5 427.5q0 271 158 422t428 151q272 0 428.5 -151.5t156.5 -421.5q0 -274 -153 -428t-432 -154zM625 266q124 0 177.5 72t53.5 217q0 132 -53.5 202t-175.5 70q-230 0 -230 -272q0 -144 53.5 -216.5t174.5 -72.5zM481 1587q42 0 78 -16
t59.5 -38.5t43.5 -44.5t40 -38t39 -16q39 0 52.5 33.5t13.5 107.5h139q6 -53 6 -96q0 -137 -48 -205t-136 -68q-38 0 -70.5 16t-55.5 38.5t-43 45t-43 38.5t-46 16q-36 0 -50 -32t-14 -109h-139q-6 49 -6 94q0 133 49 203.5t131 70.5z" />
    <glyph glyph-name="odieresis.c2sc" horiz-adv-x="1253" 
d="M627 -29q-279 0 -432.5 154.5t-153.5 427.5q0 271 158 422t428 151q272 0 428.5 -151.5t156.5 -421.5q0 -274 -153 -428t-432 -154zM625 266q124 0 177.5 72t53.5 217q0 132 -53.5 202t-175.5 70q-230 0 -230 -272q0 -144 53.5 -216.5t174.5 -72.5zM315 1266v270h283
v-270h-283zM657 1266v270h281v-270h-281z" />
    <glyph glyph-name="divide.1" horiz-adv-x="974" 
d="M924 711v-308h-873v308h873zM375 80v239h246v-239h-246zM375 797v239h246v-239h-246z" />
    <glyph glyph-name="oslash.c2sc" horiz-adv-x="1251" 
d="M289 51l-41 -51h-256v12l160 158q-115 151 -115 383q0 271 159 422t429 151q198 0 342 -84l49 56h252v-11l-166 -165q110 -143 110 -369q0 -273 -154 -427.5t-433 -154.5q-197 0 -336 80zM385 422l373 397q-52 27 -133 27q-254 0 -254 -291q0 -81 14 -133zM623 246
q137 0 197.5 77.5t60.5 231.5q0 61 -13 115l-372 -400q52 -24 127 -24z" />
    <glyph glyph-name="ugrave.c2sc" horiz-adv-x="1216" 
d="M608 276q98 0 137 46.5t39 140.5v635h359v-664q0 -222 -138.5 -341.5t-396.5 -119.5q-257 0 -394.5 119.5t-137.5 341.5v664h358v-637q0 -94 38 -139.5t136 -45.5zM862 1309l-86 -166l-524 213l121 233z" />
    <glyph glyph-name="uacute.c2sc" horiz-adv-x="1216" 
d="M608 276q98 0 137 46.5t39 140.5v635h359v-664q0 -222 -138.5 -341.5t-396.5 -119.5q-257 0 -394.5 119.5t-137.5 341.5v664h358v-637q0 -94 38 -139.5t136 -45.5zM1012 1356l-525 -213l-86 166l490 280z" />
    <glyph glyph-name="ucircumflex.c2sc" horiz-adv-x="1216" 
d="M608 276q98 0 137 46.5t39 140.5v635h359v-664q0 -222 -138.5 -341.5t-396.5 -119.5q-257 0 -394.5 119.5t-137.5 341.5v664h358v-637q0 -94 38 -139.5t136 -45.5zM838 1147l-228 172l-227 -172l-111 119l289 305h101l286 -305z" />
    <glyph glyph-name="udieresis.c2sc" horiz-adv-x="1216" 
d="M608 276q98 0 137 46.5t39 140.5v635h359v-664q0 -222 -138.5 -341.5t-396.5 -119.5q-257 0 -394.5 119.5t-137.5 341.5v664h358v-637q0 -94 38 -139.5t136 -45.5zM297 1237v270h283v-270h-283zM639 1237v270h281v-270h-281z" />
    <glyph glyph-name="yacute.c2sc" horiz-adv-x="1077" 
d="M717 0h-359v332l-393 745v21h397l162 -473h29l172 473h387v-21l-395 -747v-330zM940 1356l-524 -213l-86 166l489 280z" />
    <glyph glyph-name="thorn.c2sc" horiz-adv-x="1120" 
d="M78 0v1098h354v-123h180q486 0 486 -422q0 -197 -123 -311.5t-357 -114.5h-186v-127h-354zM432 686v-270h154q159 0 159 135q0 68 -38.5 101.5t-122.5 33.5h-152z" />
    <glyph glyph-name="ydieresis.c2sc" horiz-adv-x="1077" 
d="M717 0h-359v332l-393 745v21h397l162 -473h29l172 473h387v-21l-395 -747v-330zM227 1237v270h283v-270h-283zM569 1237v270h281v-270h-281z" />
    <glyph glyph-name="amacron.c2sc" horiz-adv-x="1171" 
d="M762 188h-367l-53 -188h-369l365 1098h498l362 -1098h-385zM600 801h-37q-9 -38 -29.5 -115t-29.5 -115l-39 -135h229l-35 135q-21 69 -59 230zM309 1233v227h555v-227h-555z" />
    <glyph glyph-name="amacron.salt" 
d="M256 1130v228h555v-228h-555zM348 -31q-144 0 -224.5 131.5t-80.5 380.5q0 257 80.5 393t230.5 136q204 0 293 -271h19v240h348v-979h-348v252h-19q-39 -134 -115 -208.5t-184 -74.5zM666 440v78q0 81 -38.5 129.5t-101.5 48.5q-77 0 -111 -52t-34 -163q0 -106 34 -156.5
t111 -50.5q62 0 101 45.5t39 120.5z" />
    <glyph glyph-name="abreve.c2sc" horiz-adv-x="1171" 
d="M762 188h-367l-53 -188h-369l365 1098h498l362 -1098h-385zM600 801h-37q-9 -38 -29.5 -115t-29.5 -115l-39 -135h229l-35 135q-21 69 -59 230zM586 1395q67 0 106.5 32.5t50.5 118.5h148q0 -193 -74 -276.5t-231 -83.5t-231 83.5t-74 276.5h147q11 -86 51 -118.5
t107 -32.5z" />
    <glyph glyph-name="abreve.salt" 
d="M549 1292q67 0 107 33t51 119h147q0 -193 -74 -277t-231 -84t-231 84t-74 277h147q11 -86 51 -119t107 -33zM348 -31q-144 0 -224.5 131.5t-80.5 380.5q0 257 80.5 393t230.5 136q204 0 293 -271h19v240h348v-979h-348v252h-19q-39 -134 -115 -208.5t-184 -74.5zM666 440
v78q0 81 -38.5 129.5t-101.5 48.5q-77 0 -111 -52t-34 -163q0 -106 34 -156.5t111 -50.5q62 0 101 45.5t39 120.5z" />
    <glyph glyph-name="aogonek.c2sc" horiz-adv-x="1171" 
d="M836 1098l362 -1098q-106 -18 -150 -38t-44 -54q0 -47 88 -47q46 0 106 14v-211q-78 -10 -127 -10q-248 0 -248 160q0 67 51 113.5t142 72.5h-203l-51 188h-367l-53 -188h-369l365 1098h498zM504 571l-39 -135h229l-35 135q-21 69 -59 230h-37q-9 -38 -29.5 -115
t-29.5 -115z" />
    <glyph glyph-name="aogonek.salt" 
d="M887 -346q-248 0 -248 160q0 132 192 186h-165v252h-19q-39 -134 -115 -208.5t-184 -74.5q-144 0 -224.5 131.5t-80.5 380.5q0 257 80.5 393t230.5 136q204 0 293 -271h19v240h348v-979q-106 -18 -150.5 -38t-44.5 -54q0 -47 88 -47q47 0 107 14v-211q-78 -10 -127 -10z
M666 440v78q0 81 -38.5 129.5t-101.5 48.5q-77 0 -111 -52t-34 -163q0 -106 34 -156.5t111 -50.5q62 0 101 45.5t39 120.5z" />
    <glyph glyph-name="cacute.c2sc" horiz-adv-x="1189" 
d="M612 -29q-270 0 -420.5 152.5t-150.5 429.5q0 274 156.5 423.5t425.5 149.5q230 0 363.5 -112t156.5 -326l-342 -61q-18 104 -61 152t-132 48q-75 0 -123.5 -39t-68 -98t-19.5 -137q0 -141 49.5 -214t161.5 -73q92 0 132 46t67 157l338 -55q-25 -214 -164 -328.5
t-369 -114.5zM995 1384l-524 -213l-86 166l489 281z" />
    <glyph glyph-name="ccircumflex.c2sc" horiz-adv-x="1189" 
d="M612 -29q-270 0 -420.5 152.5t-150.5 429.5q0 274 156.5 423.5t425.5 149.5q230 0 363.5 -112t156.5 -326l-342 -61q-18 104 -61 152t-132 48q-75 0 -123.5 -39t-68 -98t-19.5 -137q0 -141 49.5 -214t161.5 -73q92 0 132 46t67 157l338 -55q-25 -214 -164 -328.5
t-369 -114.5zM821 1176l-227 172l-227 -172l-111 118l289 305h100l287 -305z" />
    <glyph glyph-name="cdotaccent.c2sc" horiz-adv-x="1189" 
d="M612 -29q-270 0 -420.5 152.5t-150.5 429.5q0 274 156.5 423.5t425.5 149.5q230 0 363.5 -112t156.5 -326l-342 -61q-18 104 -61 152t-132 48q-75 0 -123.5 -39t-68 -98t-19.5 -137q0 -141 49.5 -214t161.5 -73q92 0 132 46t67 157l338 -55q-25 -214 -164 -328.5
t-369 -114.5zM438 1255v299h314v-299h-314z" />
    <glyph glyph-name="ccaron.c2sc" horiz-adv-x="1189" 
d="M612 -29q-270 0 -420.5 152.5t-150.5 429.5q0 274 156.5 423.5t425.5 149.5q230 0 363.5 -112t156.5 -326l-342 -61q-18 104 -61 152t-132 48q-75 0 -123.5 -39t-68 -98t-19.5 -137q0 -141 49.5 -214t161.5 -73q92 0 132 46t67 157l338 -55q-25 -214 -164 -328.5
t-369 -114.5zM367 1626l227 -174l227 174l111 -119l-289 -305h-100l-287 305z" />
    <glyph glyph-name="dcaron.c2sc" horiz-adv-x="1222" 
d="M592 0h-516v1098h526q301 0 441.5 -135t140.5 -396q0 -264 -156 -415.5t-436 -151.5zM434 817v-536h131q141 0 201.5 66t60.5 220q0 144 -59.5 197t-210.5 53h-123zM391 1597l227 -174l228 174l110 -118l-288 -305h-101l-286 305z" />
    <glyph glyph-name="dcroat.c2sc" horiz-adv-x="1271" 
d="M119 444h-90v201h90v453h526q301 0 441.5 -135t140.5 -396q0 -264 -156 -415.5t-436 -151.5h-516v444zM477 817v-172h189v-201h-189v-163h131q141 0 201.5 66t60.5 220q0 144 -59.5 197t-210.5 53h-123z" />
    <glyph glyph-name="emacron.c2sc" horiz-adv-x="1064" 
d="M997 0h-563h-358v1098h921v-297h-563v-127h529v-244h-529v-133h563v-297zM260 1233v227h555v-227h-555z" />
    <glyph glyph-name="ebreve.c2sc" horiz-adv-x="1064" 
d="M997 0h-563h-358v1098h921v-297h-563v-127h529v-244h-529v-133h563v-297zM537 1395q67 0 106.5 32.5t50.5 118.5h148q0 -193 -74 -276.5t-231 -83.5t-231.5 83.5t-74.5 276.5h148q11 -86 51 -118.5t107 -32.5z" />
    <glyph glyph-name="edotaccent.c2sc" horiz-adv-x="1064" 
d="M997 0h-563h-358v1098h921v-297h-563v-127h529v-244h-529v-133h563v-297zM381 1227v299h313v-299h-313z" />
    <glyph glyph-name="eogonek.c2sc" horiz-adv-x="1064" 
d="M817 0h-383h-358v1098h921v-297h-563v-127h529v-244h-529v-133h563v-297q-104 -18 -148 -38t-44 -54q0 -47 88 -47q47 0 104 14v-211q-72 -10 -127 -10q-247 0 -247 160q0 131 194 186z" />
    <glyph glyph-name="ecaron.c2sc" horiz-adv-x="1064" 
d="M997 0h-563h-358v1098h921v-297h-563v-127h529v-244h-529v-133h563v-297zM311 1597l228 -174l227 174l111 -118l-289 -305h-101l-286 305z" />
    <glyph glyph-name="Gcircumflex.salt" horiz-adv-x="1277" 
d="M885 449h-238v251h582v-194q0 -84 -19 -159t-62.5 -143.5t-109 -118t-164 -79t-221.5 -29.5q-304 0 -458 159t-154 462q0 319 155.5 490.5t458.5 171.5q253 0 384 -97.5t167 -298.5l-346 -71q-20 75 -65.5 111t-143.5 36q-129 0 -184 -85t-55 -257q0 -159 57 -235
t190 -76q120 0 170.5 43.5t55.5 118.5zM889 1298l-238 148l-237 -148l-101 119l289 271h100l287 -271z" />
    <glyph glyph-name="gcircumflex.c2sc" horiz-adv-x="1224" 
d="M457 -20q-180 0 -299 144t-119 411q0 287 144.5 439t428.5 152q235 0 356 -92t154 -284l-336 -68q-14 50 -31 78.5t-55 47.5t-98 19q-110 0 -156.5 -71t-46.5 -221q0 -141 49 -209t166 -68q179 0 195 113h-205v237h541v-608h-326v233h-26q-88 -253 -336 -253zM821 1176
l-227 172l-227 -172l-111 118l289 305h100l287 -305z" />
    <glyph glyph-name="gcircumflex_salt" horiz-adv-x="1206" 
d="M829 412h-227v227h555v-170q0 -74 -17.5 -142.5t-57.5 -133t-100 -112t-152 -76t-205 -28.5q-289 0 -436.5 146t-147.5 428q0 275 146 425t429 150q238 0 361 -85.5t156 -264.5l-334 -69q-18 61 -58.5 89.5t-126.5 28.5q-208 0 -208 -274q0 -141 53.5 -212t179.5 -71
q190 0 190 144zM836 1176l-228 172l-227 -172l-111 118l289 305h100l287 -305z" />
    <glyph glyph-name="gcircumflex.salt" 
d="M762 1044l-227 173l-228 -173l-110 119l288 305h101l286 -305zM43 500q0 254 80 382t231 128q204 0 293 -271h19v240h348v-891q0 -195 -121.5 -308.5t-345.5 -113.5q-231 0 -348.5 72t-141.5 217l344 53q24 -78 134 -78q76 0 103.5 36t27.5 120v217h-21
q-38 -110 -115 -179t-176 -69q-149 0 -230 113.5t-81 331.5zM666 479v56q0 73 -38.5 117t-101.5 44q-145 0 -145 -188q0 -178 145 -178q62 0 101 41.5t39 107.5z" />
    <glyph glyph-name="Gbreve.salt" horiz-adv-x="1277" 
d="M885 449h-238v251h582v-194q0 -84 -19 -159t-62.5 -143.5t-109 -118t-164 -79t-221.5 -29.5q-304 0 -458 159t-154 462q0 319 155.5 490.5t458.5 171.5q253 0 384 -97.5t167 -298.5l-346 -71q-20 75 -65.5 111t-143.5 36q-129 0 -184 -85t-55 -257q0 -159 57 -235
t190 -76q120 0 170.5 43.5t55.5 118.5zM651 1542q67 0 107 28.5t51 102.5h147q0 -181 -74 -260.5t-231 -79.5t-231 79.5t-74 260.5h148q11 -74 50.5 -102.5t106.5 -28.5z" />
    <glyph glyph-name="gbreve.c2sc" horiz-adv-x="1224" 
d="M457 -20q-180 0 -299 144t-119 411q0 287 144.5 439t428.5 152q235 0 356 -92t154 -284l-336 -68q-14 50 -31 78.5t-55 47.5t-98 19q-110 0 -156.5 -71t-46.5 -221q0 -141 49 -209t166 -68q179 0 195 113h-205v237h541v-608h-326v233h-26q-88 -253 -336 -253zM594 1423
q67 0 107 33t51 119h147q0 -193 -74 -277t-231 -84t-231 84t-74 277h147q11 -86 51 -119t107 -33z" />
    <glyph glyph-name="gbreve_salt" horiz-adv-x="1206" 
d="M829 412h-227v227h555v-170q0 -74 -17.5 -142.5t-57.5 -133t-100 -112t-152 -76t-205 -28.5q-289 0 -436.5 146t-147.5 428q0 275 146 425t429 150q238 0 361 -85.5t156 -264.5l-334 -69q-18 61 -58.5 89.5t-126.5 28.5q-208 0 -208 -274q0 -141 53.5 -212t179.5 -71
q190 0 190 144zM606 1423q67 0 107 33t51 119h147q0 -193 -74 -277t-231 -84t-231 84t-74 277h148q11 -86 50.5 -119t106.5 -33z" />
    <glyph glyph-name="gbreve.salt" 
d="M541 1292q67 0 106.5 33t50.5 119h148q0 -193 -74 -277t-231 -84t-231 84t-74 277h147q11 -86 51 -119t107 -33zM43 500q0 254 80 382t231 128q204 0 293 -271h19v240h348v-891q0 -195 -121.5 -308.5t-345.5 -113.5q-231 0 -348.5 72t-141.5 217l344 53q24 -78 134 -78
q76 0 103.5 36t27.5 120v217h-21q-38 -110 -115 -179t-176 -69q-149 0 -230 113.5t-81 331.5zM666 479v56q0 73 -38.5 117t-101.5 44q-145 0 -145 -188q0 -178 145 -178q62 0 101 41.5t39 107.5z" />
    <glyph glyph-name="Gdotaccent.salt" horiz-adv-x="1277" 
d="M885 449h-238v251h582v-194q0 -84 -19 -159t-62.5 -143.5t-109 -118t-164 -79t-221.5 -29.5q-304 0 -458 159t-154 462q0 319 155.5 490.5t458.5 171.5q253 0 384 -97.5t167 -298.5l-346 -71q-20 75 -65.5 111t-143.5 36q-129 0 -184 -85t-55 -257q0 -159 57 -235
t190 -76q120 0 170.5 43.5t55.5 118.5zM496 1329v299h313v-299h-313z" />
    <glyph glyph-name="gdotaccent.c2sc" horiz-adv-x="1224" 
d="M457 -20q-180 0 -299 144t-119 411q0 287 144.5 439t428.5 152q235 0 356 -92t154 -284l-336 -68q-14 50 -31 78.5t-55 47.5t-98 19q-110 0 -156.5 -71t-46.5 -221q0 -141 49 -209t166 -68q179 0 195 113h-205v237h541v-608h-326v233h-26q-88 -253 -336 -253zM436 1255
v299h314v-299h-314z" />
    <glyph glyph-name="gdotaccent_salt" horiz-adv-x="1206" 
d="M829 412h-227v227h555v-170q0 -74 -17.5 -142.5t-57.5 -133t-100 -112t-152 -76t-205 -28.5q-289 0 -436.5 146t-147.5 428q0 275 146 425t429 150q238 0 361 -85.5t156 -264.5l-334 -69q-18 61 -58.5 89.5t-126.5 28.5q-208 0 -208 -274q0 -141 53.5 -212t179.5 -71
q190 0 190 144zM451 1255v299h313v-299h-313z" />
    <glyph glyph-name="gdotaccent.salt" horiz-adv-x="1093" 
d="M375 1124v299h313v-299h-313zM43 500q0 254 80 382t231 128q204 0 293 -271h19v240h348v-891q0 -195 -121.5 -308.5t-345.5 -113.5q-231 0 -348.5 72t-141.5 217l344 53q24 -78 134 -78q76 0 103.5 36t27.5 120v217h-21q-38 -110 -115 -179t-176 -69q-149 0 -230 113.5
t-81 331.5zM666 479v56q0 73 -38.5 117t-101.5 44q-145 0 -145 -188q0 -178 145 -178q62 0 101 41.5t39 107.5z" />
    <glyph glyph-name="uni0122.salt" horiz-adv-x="1277" 
d="M885 449h-238v251h582v-194q0 -84 -19 -159t-62.5 -143.5t-109 -118t-164 -79t-221.5 -29.5q-304 0 -458 159t-154 462q0 319 155.5 490.5t458.5 171.5q253 0 384 -97.5t167 -298.5l-346 -71q-20 75 -65.5 111t-143.5 36q-129 0 -184 -85t-55 -257q0 -159 57 -235
t190 -76q120 0 170.5 43.5t55.5 118.5zM432 -444l78 348h321l-145 -367h-254v19z" />
    <glyph glyph-name="uni0123.c2sc" horiz-adv-x="1224" 
d="M457 -20q-180 0 -299 144t-119 411q0 287 144.5 439t428.5 152q235 0 356 -92t154 -284l-336 -68q-14 50 -31 78.5t-55 47.5t-98 19q-110 0 -156.5 -71t-46.5 -221q0 -141 49 -209t166 -68q179 0 195 113h-205v237h541v-608h-326v233h-26q-88 -253 -336 -253zM369 -444
l77 348h322l-145 -367h-254v19z" />
    <glyph glyph-name="uni0123_salt" horiz-adv-x="1206" 
d="M829 412h-227v227h555v-170q0 -74 -17.5 -142.5t-57.5 -133t-100 -112t-152 -76t-205 -28.5q-289 0 -436.5 146t-147.5 428q0 275 146 425t429 150q238 0 361 -85.5t156 -264.5l-334 -69q-18 61 -58.5 89.5t-126.5 28.5q-208 0 -208 -274q0 -141 53.5 -212t179.5 -71
q190 0 190 144zM389 -444l78 348h321l-145 -367h-254v19z" />
    <glyph glyph-name="uni0123.salt" 
d="M43 500q0 254 80 382t231 128q204 0 293 -271h19v240h348v-891q0 -195 -121.5 -308.5t-345.5 -113.5q-231 0 -348.5 72t-141.5 217l344 53q24 -78 134 -78q76 0 103.5 36t27.5 120v217h-21q-38 -110 -115 -179t-176 -69q-149 0 -230 113.5t-81 331.5zM780 1450l-75 -348
h-322l143 366h254v-18zM666 479v56q0 73 -38.5 117t-101.5 44q-145 0 -145 -188q0 -178 145 -178q62 0 101 41.5t39 107.5z" />
    <glyph glyph-name="hcircumflex.c2sc" horiz-adv-x="1228" 
d="M76 0v1098h358v-398h361v398h358v-1098h-358v393h-361v-393h-358zM842 1147l-228 172l-227 -172l-111 119l289 305h101l286 -305z" />
    <glyph glyph-name="hbar.c2sc" horiz-adv-x="1298" 
d="M465 311v-311h-359v727h-92v191h92v180h359v-180h358v180h359v-180h102v-191h-102v-727h-359v311h-358zM465 727v-129h358v129h-358z" />
    <glyph glyph-name="itilde.c2sc" horiz-adv-x="512" 
d="M434 1098v-1098h-358v1098h358zM111 1559q42 0 78 -16t59.5 -38.5t43.5 -45t40 -38.5t39 -16q39 0 52 33t13 108h139q7 -61 7 -96q0 -136 -48.5 -204t-136.5 -68q-38 0 -70.5 16t-55.5 38t-43 44.5t-43 38.5t-46 16q-36 0 -49.5 -32t-13.5 -109h-139q-7 58 -7 94
q0 133 49.5 204t131.5 71z" />
    <glyph glyph-name="imacron.c2sc" horiz-adv-x="512" 
d="M434 1098v-1098h-358v1098h358zM-20 1233v227h555v-227h-555z" />
    <glyph glyph-name="ibreve.c2sc" horiz-adv-x="512" 
d="M434 1098v-1098h-358v1098h358zM256 1395q67 0 107 32.5t51 118.5h147q0 -193 -74 -276.5t-231 -83.5t-231 83.5t-74 276.5h147q11 -86 51 -118.5t107 -32.5z" />
    <glyph glyph-name="iogonek.c2sc" horiz-adv-x="512" 
d="M434 1098v-1098q-104 -18 -148 -38t-44 -54q0 -47 88 -47q47 0 104 14v-211q-72 -10 -127 -10q-248 0 -248 160q0 67 51.5 113.5t143.5 72.5h-178v1098h358z" />
    <glyph glyph-name="ij.c2sc" horiz-adv-x="1132" 
d="M434 1098v-1098h-358v1098h358zM698 367v731h359v-729q0 -181 -89.5 -282t-279.5 -101q-87 0 -162 14l17 293q48 -10 80 -10q36 0 55.5 23t19.5 61z" />
    <glyph glyph-name="jcircumflex.c2sc" horiz-adv-x="620" 
d="M186 367v731h359v-729q0 -181 -89.5 -282t-279.5 -101q-87 0 -162 14l17 293q48 -10 80 -10q36 0 55.5 23t19.5 61zM590 1147l-228 172l-227 -172l-110 119l288 305h101l286 -305z" />
    <glyph glyph-name="uni0137.c2sc" horiz-adv-x="1136" 
d="M76 0v1098h358v-447h55l254 447h408v-21l-395 -534l393 -523v-20h-416l-239 379h-60v-379h-358zM391 -444l78 348h322l-146 -367h-254v19z" />
    <glyph glyph-name="lacute.c2sc" horiz-adv-x="927" 
d="M76 0v1098h358v-811h455v-287h-813zM762 1356l-524 -213l-86 166l489 280z" />
    <glyph glyph-name="uni013C.c2sc" horiz-adv-x="927" 
d="M76 0v1098h358v-811h455v-287h-813zM260 -444l78 348h321l-145 -367h-254v19z" />
    <glyph glyph-name="lcaron.c2sc" horiz-adv-x="956" 
d="M76 0v1098h358v-811h455v-287h-813zM631 582l26 518h254l-67 -518h-213z" />
    <glyph glyph-name="ldot.c2sc" horiz-adv-x="929" 
d="M76 0v1098h358v-811h455v-287h-813zM580 547v258h268v-258h-268z" />
    <glyph glyph-name="lslash.c2sc" horiz-adv-x="962" 
d="M682 817v-207l-213 -88v-235h455v-287h-813v375l-93 -37v205l93 39v516h358v-369z" />
    <glyph glyph-name="nacute.c2sc" horiz-adv-x="1263" 
d="M1186 0h-473l-146 340q-66 139 -166 448l-20 -2q25 -350 25 -522v-264h-330v1098h502l120 -275q95 -217 160 -456l23 2q-23 266 -23 454v275h328v-1098zM1032 1356l-524 -213l-86 166l489 280z" />
    <glyph glyph-name="uni0146.c2sc" horiz-adv-x="1263" 
d="M1186 0h-473l-146 340q-66 139 -166 448l-20 -2q25 -350 25 -522v-264h-330v1098h502l120 -275q95 -217 160 -456l23 2q-23 266 -23 454v275h328v-1098zM408 -444l77 348h322l-145 -367h-254v19z" />
    <glyph glyph-name="ncaron.c2sc" horiz-adv-x="1263" 
d="M1186 0h-473l-146 340q-66 139 -166 448l-20 -2q25 -350 25 -522v-264h-330v1098h502l120 -275q95 -217 160 -456l23 2q-23 266 -23 454v275h328v-1098zM403 1597l228 -174l227 174l111 -118l-289 -305h-100l-287 305z" />
    <glyph glyph-name="eng.c2sc" horiz-adv-x="1261" 
d="M406 0h-330v1098h502l131 -275q88 -180 163 -385l13 2q-27 238 -27 383v275h328v-1069q0 -359 -385 -359q-72 0 -172 17l16 286q75 -14 115 -14q68 0 86 39l-232 324q-43 56 -104 196t-111 281l-20 -2q27 -283 27 -533v-264z" />
    <glyph glyph-name="omacron.c2sc" horiz-adv-x="1253" 
d="M627 -29q-279 0 -432.5 154.5t-153.5 427.5q0 271 158 422t428 151q272 0 428.5 -151.5t156.5 -421.5q0 -274 -153 -428t-432 -154zM625 266q124 0 177.5 72t53.5 217q0 132 -53.5 202t-175.5 70q-230 0 -230 -272q0 -144 53.5 -216.5t174.5 -72.5zM350 1262v227h555
v-227h-555z" />
    <glyph glyph-name="obreve.c2sc" horiz-adv-x="1253" 
d="M627 -29q-279 0 -432.5 154.5t-153.5 427.5q0 271 158 422t428 151q272 0 428.5 -151.5t156.5 -421.5q0 -274 -153 -428t-432 -154zM625 266q124 0 177.5 72t53.5 217q0 132 -53.5 202t-175.5 70q-230 0 -230 -272q0 -144 53.5 -216.5t174.5 -72.5zM627 1423
q67 0 106.5 33t50.5 119h148q0 -193 -74 -277t-231 -84t-231 84t-74 277h147q11 -86 51 -119t107 -33z" />
    <glyph glyph-name="ohungarumlaut.c2sc" horiz-adv-x="1253" 
d="M627 -29q-279 0 -432.5 154.5t-153.5 427.5q0 271 158 422t428 151q272 0 428.5 -151.5t156.5 -421.5q0 -274 -153 -428t-432 -154zM625 266q124 0 177.5 72t53.5 217q0 132 -53.5 202t-175.5 70q-230 0 -230 -272q0 -144 53.5 -216.5t174.5 -72.5zM1038 1493l-252 -303
l-133 96l207 326zM715 1509l-215 -321l-144 80l170 346z" />
    <glyph glyph-name="oe.c2sc" horiz-adv-x="1701" 
d="M641 1098h72h921v-297h-563v-127h528v-244h-528v-133h563v-297h-993q-282 0 -441 146.5t-159 406.5q0 254 164.5 399.5t435.5 145.5zM713 289v522h-72q-124 0 -184 -67t-60 -189q0 -266 242 -266h74z" />
    <glyph glyph-name="racute.c2sc" horiz-adv-x="1150" 
d="M547 330h-113v-330h-358v1098h532q230 0 351.5 -97t121.5 -292q0 -232 -188 -324l256 -365v-20h-416zM582 811h-148v-229h154q78 0 108.5 25.5t30.5 86.5q0 64 -34.5 90.5t-110.5 26.5zM1014 1356l-525 -213l-86 166l490 280z" />
    <glyph glyph-name="uni0157.c2sc" horiz-adv-x="1150" 
d="M547 330h-113v-330h-358v1098h532q230 0 351.5 -97t121.5 -292q0 -232 -188 -324l256 -365v-20h-416zM582 811h-148v-229h154q78 0 108.5 25.5t30.5 86.5q0 64 -34.5 90.5t-110.5 26.5zM389 -444l78 348h321l-145 -367h-254v19z" />
    <glyph glyph-name="rcaron.c2sc" horiz-adv-x="1150" 
d="M547 330h-113v-330h-358v1098h532q230 0 351.5 -97t121.5 -292q0 -232 -188 -324l256 -365v-20h-416zM582 811h-148v-229h154q78 0 108.5 25.5t30.5 86.5q0 64 -34.5 90.5t-110.5 26.5zM340 1599l227 -174l228 174l110 -118l-289 -305h-100l-287 305z" />
    <glyph glyph-name="sacute.c2sc" horiz-adv-x="1120" 
d="M567 -29q-497 0 -528 338l340 70q16 -71 71 -103t134 -32q131 0 131 59q0 40 -49.5 65.5t-192.5 45.5q-228 32 -322 121.5t-94 240.5q0 172 125.5 261t376.5 89q448 0 492 -317l-357 -68q-14 65 -47 93t-108 28q-123 0 -123 -67q0 -18 5 -29t25 -25t65.5 -25.5
t119.5 -23.5q110 -18 190 -46t128.5 -61t77 -76.5t38.5 -86t10 -96.5q0 -355 -508 -355zM958 1384l-524 -213l-86 166l490 281z" />
    <glyph glyph-name="scircumflex.c2sc" horiz-adv-x="1120" 
d="M567 -29q-497 0 -528 338l340 70q16 -71 71 -103t134 -32q131 0 131 59q0 40 -49.5 65.5t-192.5 45.5q-228 32 -322 121.5t-94 240.5q0 172 125.5 261t376.5 89q448 0 492 -317l-357 -68q-14 65 -47 93t-108 28q-123 0 -123 -67q0 -18 5 -29t25 -25t65.5 -25.5
t119.5 -23.5q110 -18 190 -46t128.5 -61t77 -76.5t38.5 -86t10 -96.5q0 -355 -508 -355zM784 1176l-227 172l-227 -172l-111 118l289 305h100l287 -305z" />
    <glyph glyph-name="scedilla.c2sc" horiz-adv-x="1120" 
d="M565 -344q-129 0 -209 55l60 96q68 -43 149 -43q60 0 60 43q0 46 -64 46q-35 0 -69 -15l-80 33l37 106q-380 36 -410 332l340 70q16 -71 71 -103t134 -32q131 0 131 59q0 40 -49.5 65.5t-192.5 45.5q-228 32 -322 121.5t-94 240.5q0 172 125.5 261t376.5 89
q448 0 492 -317l-357 -68q-14 65 -47 93t-108 28q-123 0 -123 -67q0 -18 5 -29t25 -25t65.5 -25.5t119.5 -23.5q110 -18 190 -46t128.5 -61t77 -76.5t38.5 -86t10 -96.5q0 -355 -506 -355l-22 -57q33 10 65 10q148 0 148 -129q0 -53 -46 -96t-149 -43z" />
    <glyph glyph-name="scaron.c2sc" horiz-adv-x="1120" 
d="M567 -29q-497 0 -528 338l340 70q16 -71 71 -103t134 -32q131 0 131 59q0 40 -49.5 65.5t-192.5 45.5q-228 32 -322 121.5t-94 240.5q0 172 125.5 261t376.5 89q448 0 492 -317l-357 -68q-14 65 -47 93t-108 28q-123 0 -123 -67q0 -18 5 -29t25 -25t65.5 -25.5
t119.5 -23.5q110 -18 190 -46t128.5 -61t77 -76.5t38.5 -86t10 -96.5q0 -355 -508 -355zM330 1626l227 -174l227 174l111 -119l-289 -305h-100l-287 305z" />
    <glyph glyph-name="uni0163.c2sc" horiz-adv-x="997" 
d="M319 782h-292v316h946v-316h-295v-782h-168l-33 -86q38 10 66 10q149 0 149 -129q0 -53 -46.5 -96t-149.5 -43q-123 0 -209 55l61 96q65 -43 148 -43q61 0 61 43q0 46 -63 46q-38 0 -72 -15l-80 33l47 129h-70v782z" />
    <glyph glyph-name="uni0163.salt" horiz-adv-x="647" 
d="M25 709v270h100v240h348v-240h150v-270h-150v-709h-164l-33 -86q33 10 66 10q147 0 147 -129q0 -53 -45.5 -96t-148.5 -43q-129 0 -209 55l59 96q68 -43 150 -43q59 0 59 43q0 46 -63 46q-36 0 -70 -15l-80 33l45 129h-61v709h-100z" />
    <glyph glyph-name="tcaron.c2sc" horiz-adv-x="997" 
d="M319 782h-292v316h946v-316h-295v-782h-359v782zM272 1599l228 -174l227 174l111 -118l-289 -305h-100l-287 305z" />
    <glyph glyph-name="tcaron.salt" horiz-adv-x="671" 
d="M25 709v270h100v240h348v-240h150v-270h-150v-709h-348v709h-100zM535 1085l8 326h217l-49 -326h-176z" />
    <glyph glyph-name="tbar.c2sc" horiz-adv-x="1001" 
d="M903 530v-186h-225v-344h-359v344h-215v186h215v252h-292v316h946v-316h-295v-252h225z" />
    <glyph glyph-name="tbar.salt" horiz-adv-x="647" 
d="M602 489v-170h-129v-319h-348v319h-80v170h80v220h-100v270h100v240h348v-240h150v-270h-150v-220h129z" />
    <glyph glyph-name="utilde.c2sc" horiz-adv-x="1216" 
d="M608 276q98 0 137 46.5t39 140.5v635h359v-664q0 -222 -138.5 -341.5t-396.5 -119.5q-257 0 -394.5 119.5t-137.5 341.5v664h358v-637q0 -94 38 -139.5t136 -45.5zM465 1559q42 0 78 -16t59.5 -38.5t43.5 -45t40 -38.5t39 -16q39 0 52.5 33.5t13.5 107.5h139q6 -52 6 -96
q0 -137 -48 -204.5t-136 -67.5q-38 0 -70.5 16t-55.5 38t-43 44.5t-43 38.5t-46 16q-36 0 -50 -32t-14 -109h-139q-6 50 -6 94q0 133 49 204t131 71z" />
    <glyph glyph-name="umacron.c2sc" horiz-adv-x="1216" 
d="M608 276q98 0 137 46.5t39 140.5v635h359v-664q0 -222 -138.5 -341.5t-396.5 -119.5q-257 0 -394.5 119.5t-137.5 341.5v664h358v-637q0 -94 38 -139.5t136 -45.5zM332 1233v227h555v-227h-555z" />
    <glyph glyph-name="ubreve.c2sc" horiz-adv-x="1216" 
d="M608 276q98 0 137 46.5t39 140.5v635h359v-664q0 -222 -138.5 -341.5t-396.5 -119.5q-257 0 -394.5 119.5t-137.5 341.5v664h358v-637q0 -94 38 -139.5t136 -45.5zM610 1395q67 0 107 32.5t51 118.5h147q0 -193 -74 -276.5t-231 -83.5t-231 83.5t-74 276.5h148
q11 -86 50.5 -118.5t106.5 -32.5z" />
    </font>
</defs>
</svg>
