<?xml version="1.0" standalone="no"?>
<!DOCTYPE svg PUBLIC "-//W3C//DTD SVG 1.1//EN" "http://www.w3.org/Graphics/SVG/1.1/DTD/svg11.dtd" >
<svg xmlns="http://www.w3.org/2000/svg" xmlns:xlink="http://www.w3.org/1999/xlink" version="1.1">
<metadata>
Created by FontForge 20201107 at Fri Sep 12 12:11:09 2025
 By 
Copyright (c) 2020-2023 OH no Type Company, LLC. All rights reserved.
</metadata>
<defs>
<font id="Degular-Regular" horiz-adv-x="1249" >
  <font-face 
    font-family="Degular"
    font-weight="400"
    font-stretch="normal"
    units-per-em="2048"
    panose-1="2 11 5 4 5 5 3 6 2 4"
    ascent="1638"
    descent="-410"
    x-height="952"
    cap-height="1229"
    bbox="-575 -434 2636 1864"
    underline-thickness="102"
    underline-position="-337"
    unicode-range="U+000D-FEFF"
  />
<missing-glyph horiz-adv-x="1751" 
d="M330 487q-58 26 -92.5 80.5t-34.5 130.5q0 69 33.5 125.5t93.5 85.5q-3 215 154.5 353.5t426.5 138.5q303 0 459 -157.5t156 -446.5q0 -142 -37 -259.5t-123.5 -211t-216.5 -136.5q-19 -141 -19 -172q-133 -86 -385 -86q-281 0 -430 131q-10 267 15 424zM1208 547l21 -21
q-29 -61 -62 -231q122 70 184 185t62 292q0 514 -512 514q-199 0 -326 -97t-159 -257q8 2 24 2q111 0 165 -67.5t54 -164.5q0 -78 -39 -133t-91.5 -77.5t-108.5 -22.5h-10q3 -67 5 -177.5t5 -168.5q57 -28 144.5 -46t180.5 -18q65 0 108 5t104.5 18t89.5 18q0 165 49 278.5
t112 168.5zM944 938q113 0 174.5 -68t61.5 -161q0 -109 -77 -184.5t-177 -75.5t-166 66.5t-66 180.5q0 98 64.5 170t185.5 72z" />
    <glyph glyph-name=".notdef" horiz-adv-x="1751" 
d="M330 487q-58 26 -92.5 80.5t-34.5 130.5q0 69 33.5 125.5t93.5 85.5q-3 215 154.5 353.5t426.5 138.5q303 0 459 -157.5t156 -446.5q0 -142 -37 -259.5t-123.5 -211t-216.5 -136.5q-19 -141 -19 -172q-133 -86 -385 -86q-281 0 -430 131q-10 267 15 424zM1208 547l21 -21
q-29 -61 -62 -231q122 70 184 185t62 292q0 514 -512 514q-199 0 -326 -97t-159 -257q8 2 24 2q111 0 165 -67.5t54 -164.5q0 -78 -39 -133t-91.5 -77.5t-108.5 -22.5h-10q3 -67 5 -177.5t5 -168.5q57 -28 144.5 -46t180.5 -18q65 0 108 5t104.5 18t89.5 18q0 165 49 278.5
t112 168.5zM944 938q113 0 174.5 -68t61.5 -161q0 -109 -77 -184.5t-177 -75.5t-166 66.5t-66 180.5q0 98 64.5 170t185.5 72z" />
    <glyph glyph-name="uni0000" horiz-adv-x="0" 
 />
    <glyph glyph-name="uni0000" horiz-adv-x="0" 
 />
    <glyph glyph-name="uni000D" unicode="&#xd;" horiz-adv-x="405" 
 />
    <glyph glyph-name="space" unicode=" " horiz-adv-x="405" 
 />
    <glyph glyph-name="exclam" unicode="!" horiz-adv-x="481" 
d="M313 1229v-797h-145v797h145zM143 0v193h195v-193h-195z" />
    <glyph glyph-name="quotedbl" unicode="&#x22;" horiz-adv-x="657" 
d="M137 686l-35 543h152l-25 -543h-92zM436 686l-35 543h152l-25 -543h-92z" />
    <glyph glyph-name="numbersign" unicode="#" horiz-adv-x="1392" 
d="M1321 903v-131h-334l-31 -309h365v-131h-379l-33 -332h-112l28 332h-315l-35 -332h-113l31 332h-321v131h334l28 309h-362v131h372l31 326h125l-33 -326h312l28 326h127l-35 -326h322zM883 786h-342l-35 -337h346z" />
    <glyph glyph-name="dollar" unicode="$" horiz-adv-x="1122" 
d="M633 -10l10 -244h-129l10 246q-408 32 -461 399l142 31q27 -155 121 -233t268 -78q155 0 231 56.5t76 154.5q0 97 -75 150t-263 85q-242 44 -342 131.5t-100 226.5q0 144 103 230.5t300 93.5l-10 221h129l-10 -225q170 -16 260.5 -104.5t124.5 -243.5l-148 -31
q-22 91 -55.5 146t-98.5 86.5t-165 31.5q-140 0 -212.5 -52t-72.5 -146q0 -44 14.5 -76.5t52 -63t106.5 -55t173 -43.5q127 -24 214 -58.5t135 -80.5t68 -96.5t20 -116.5q0 -152 -102 -242t-314 -100z" />
    <glyph glyph-name="percent" unicode="%" horiz-adv-x="1505" 
d="M395 563q-148 0 -234.5 93t-86.5 253q0 159 86.5 249.5t234.5 90.5q147 0 233.5 -90.5t86.5 -249.5t-86.5 -252.5t-233.5 -93.5zM1112 -20q-148 0 -234.5 93t-86.5 253q0 159 86.5 249.5t234.5 90.5q147 0 234.5 -91t87.5 -249q0 -159 -87.5 -252.5t-234.5 -93.5z
M393 670q99 0 152 63.5t53 175.5q0 111 -53.5 173.5t-149.5 62.5q-98 0 -151.5 -62.5t-53.5 -173.5q0 -113 51 -176t152 -63zM1110 84q101 0 153 64.5t52 177.5q0 111 -52.5 172t-150.5 61t-151.5 -61t-53.5 -172q0 -113 51.5 -177.5t151.5 -64.5zM717 500l-381 -500h-182
v12l516 529zM797 729l381 500h182v-12l-516 -529z" />
    <glyph glyph-name="ampersand" unicode="&#x26;" horiz-adv-x="1368" 
d="M1325 125l2 -129q-49 -10 -108 -10q-198 0 -400 125q-69 -61 -169 -96t-214 -35q-172 0 -272.5 83.5t-100.5 239.5q0 133 76 218.5t217 140.5q-61 143 -61 253q0 161 100 248.5t248 87.5q154 0 230.5 -72t76.5 -188q0 -47 -14.5 -89t-38.5 -73.5t-60 -59.5t-72.5 -47.5
t-83 -37.5t-86 -29t-85.5 -22q58 -112 149.5 -215.5t200.5 -175.5q206 228 244 503l131 -16q-19 -153 -98.5 -290.5t-204.5 -237.5q146 -78 295 -78q67 0 98 2zM741 166q-220 167 -356 432q-188 -82 -188 -274q0 -106 71.5 -167t200.5 -61q139 0 272 70zM477 702
q172 45 256 113t84 166q0 73 -42 115.5t-130 42.5q-100 0 -157.5 -58.5t-57.5 -165.5q0 -98 47 -213z" />
    <glyph glyph-name="quotesingle" unicode="'" horiz-adv-x="356" 
d="M137 686l-35 543h152l-25 -543h-92z" />
    <glyph glyph-name="parenleft" unicode="(" horiz-adv-x="677" 
d="M272 520q0 -261 77.5 -470t262.5 -406l-86 -72q-211 199 -305 435t-94 513t94 513t305 435l86 -71q-187 -194 -263.5 -404.5t-76.5 -472.5z" />
    <glyph glyph-name="parenright" unicode=")" horiz-adv-x="677" 
d="M406 520q0 248 -74 461q-72 207 -269 416l89 71q211 -199 305 -435t94 -513t-94 -513t-305 -435l-89 72q187 194 265 405t78 471z" />
    <glyph glyph-name="asterisk" unicode="*" horiz-adv-x="1028" 
d="M483 999l-45 373h154l-41 -373h-68zM403 893l-368 74l47 147l342 -156zM606 956l340 158l47 -147l-366 -76zM477 788l-180 -329l-125 90l250 278zM602 825l258 -274l-125 -92l-184 327z" />
    <glyph glyph-name="plus" unicode="+" horiz-adv-x="1017" 
d="M580 176h-144v383h-370v129h370v377h144v-377h370v-129h-370v-383z" />
    <glyph glyph-name="comma" unicode="," horiz-adv-x="342" 
d="M-37 -295l164 539h145l-204 -551h-105v12z" />
    <glyph glyph-name="hyphen" unicode="-" horiz-adv-x="716" 
d="M47 428v135h623v-135h-623z" />
    <glyph glyph-name="period" unicode="." horiz-adv-x="368" 
d="M88 0v193h193v-193h-193z" />
    <glyph glyph-name="slash" unicode="/" horiz-adv-x="632" 
d="M604 1315l-426 -1624h-143l430 1624h139z" />
    <glyph glyph-name="zero" unicode="0" horiz-adv-x="1163" 
d="M596 1251q244 0 378 -171.5t134 -463.5q0 -192 -57 -334.5t-173.5 -223.5t-281.5 -81t-281.5 81t-173.5 223.5t-57 334.5q0 292 134.5 463.5t377.5 171.5zM596 1120q-183 0 -274 -134t-91 -370q0 -233 91.5 -371.5t273.5 -138.5q122 0 205 66.5t121.5 179t38.5 264.5
q0 236 -91 370t-274 134z" />
    <glyph glyph-name="one" unicode="1" horiz-adv-x="929" 
d="M92 0v129h350v967q-145 -71 -321 -138l-49 125l430 146h84v-1100h270v-129h-764z" />
    <glyph glyph-name="two" unicode="2" horiz-adv-x="1150" 
d="M621 1124q-158 0 -245 -89t-112 -275l-139 20q66 471 493 471q208 0 318.5 -92t110.5 -268q0 -84 -31 -150t-94 -115t-142 -84.5t-190 -68.5q-220 -68 -295 -140t-78 -220q230 16 426 16h424v-129h-979q-2 31 -2 94q0 138 47 229t136.5 147t246.5 105q215 64 300 135
t85 185q0 105 -69 167t-211 62z" />
    <glyph glyph-name="three" unicode="3" horiz-adv-x="1136" 
d="M598 -20q-462 0 -528 415l143 21q27 -157 119 -235.5t266 -78.5q153 0 235 63t82 175q0 78 -25 124t-92 71.5t-186 25.5h-209v115h201q115 0 186.5 54t71.5 169q0 120 -65.5 173.5t-202.5 53.5q-147 0 -223 -70t-103 -210l-139 18q68 385 463 385q206 0 309 -79.5
t103 -243.5q0 -119 -64.5 -190.5t-191.5 -102.5v-21q176 -17 245.5 -82.5t69.5 -199.5q0 -166 -114 -258t-351 -92z" />
    <glyph glyph-name="four" unicode="4" horiz-adv-x="1177" 
d="M825 0v305h-745v115l723 809h168v-803h192v-121h-192v-305h-146zM825 1079l-10 4l-584 -659l9 -16q225 18 374 18h211v653z" />
    <glyph glyph-name="five" unicode="5" horiz-adv-x="1163" 
d="M614 102q159 0 236.5 66.5t77.5 208.5q0 125 -77.5 186.5t-238.5 61.5q-91 0 -178.5 -25t-136.5 -61l-121 47v643h830v-135q-330 0 -699 18v-471q143 96 342 96q208 0 316 -91.5t108 -270.5q0 -199 -121.5 -297t-341.5 -98q-203 0 -331.5 83t-200.5 261l139 49
q54 -132 148.5 -201.5t248.5 -69.5z" />
    <glyph glyph-name="six" unicode="6" horiz-adv-x="1148" 
d="M211 477l20 -2q76 277 424 277q86 0 157.5 -20.5t128 -61.5t88.5 -111.5t32 -163.5q0 -195 -122 -306.5t-355 -111.5q-510 0 -510 609q0 117 18 215.5t57.5 182.5t99 142.5t147.5 91.5t198 33t189 -25t130.5 -76t81 -118.5t45.5 -163.5l-141 -20q-31 143 -99.5 209.5
t-205.5 66.5q-199 0 -291 -136.5t-92 -420.5v-90zM616 645q-184 0 -282 -78t-98 -190q0 -118 93.5 -195.5t260.5 -77.5q325 0 325 293q0 248 -299 248z" />
    <glyph glyph-name="seven" unicode="7" horiz-adv-x="1052" 
d="M459 1096h-430v133h1001v-133q-447 -452 -500 -1096h-159q25 302 164 596t366 518q-236 -18 -442 -18z" />
    <glyph glyph-name="eight" unicode="8" horiz-adv-x="1138" 
d="M569 -23q-256 0 -375.5 89.5t-119.5 250.5q0 115 80 193t256 100v23q-277 54 -277 293q2 153 109 239t327 86t328.5 -86.5t108.5 -238.5q0 -239 -277 -293v-23q178 -22 257 -100t79 -193q0 -161 -120 -250.5t-376 -89.5zM569 563q-82 0 -144.5 -13.5t-100.5 -35.5
t-62 -53.5t-32.5 -62.5t-8.5 -68q0 -109 87 -168.5t261 -59.5t261.5 60t87.5 168q0 46 -15.5 84.5t-52 73.5t-108.5 55t-173 20zM569 1124q-293 0 -293 -223q0 -116 79 -172.5t214 -56.5t214 56.5t79 172.5q0 223 -293 223z" />
    <glyph glyph-name="nine" unicode="9" horiz-adv-x="1155" 
d="M938 748l-20 2q-36 -130 -141 -201.5t-275 -71.5q-86 0 -157.5 20.5t-128 62t-88.5 113t-32 165.5q0 189 122 301t349 112q118 0 208 -32t159 -102t105 -189.5t36 -284.5q0 -117 -17 -215.5t-56 -183t-97.5 -143t-145 -91.5t-196.5 -33q-219 0 -334 95t-147 276l139 25
q52 -269 344 -269q193 0 284 136t91 417q0 12 -1 41t-1 50zM541 584q177 0 274.5 78.5t97.5 187.5q0 118 -92 196t-256 78q-165 0 -244 -78t-79 -210q0 -127 78 -189.5t221 -62.5z" />
    <glyph glyph-name="colon" unicode=":" horiz-adv-x="401" 
d="M104 762v192h193v-192h-193zM104 0v193h193v-193h-193z" />
    <glyph glyph-name="semicolon" unicode=";" horiz-adv-x="409" 
d="M-16 -295l163 539h146l-205 -551h-104v12zM109 762v192h192v-192h-192z" />
    <glyph glyph-name="less" unicode="&#x3c;" horiz-adv-x="1058" 
d="M170 553v-53q195 -65 385 -146l397 -161v-158l-884 420v141l884 422v-158l-397 -162q-144 -62 -385 -145z" />
    <glyph glyph-name="equal" unicode="=" horiz-adv-x="1077" 
d="M975 506v-121h-873v121h873zM975 852v-121h-873v121h873z" />
    <glyph glyph-name="greater" unicode="&#x3e;" horiz-adv-x="1058" 
d="M881 502v53q-209 71 -383 145l-400 162v158l887 -420v-141l-887 -422v158l400 161q148 64 383 146z" />
    <glyph glyph-name="question" unicode="?" horiz-adv-x="993" 
d="M674 569q-73 -33 -98 -77.5t-25 -98.5v-22h-141v26q0 93 40.5 151t139.5 107q115 58 159 109t44 139q0 106 -67 162.5t-196 56.5q-159 0 -241.5 -88t-106.5 -260l-141 19q62 458 489 458q197 0 303.5 -89t106.5 -251q0 -56 -14.5 -104t-37.5 -82.5t-59 -64.5t-72 -50.5
t-83 -40.5zM383 0v193h195v-193h-195z" />
    <glyph glyph-name="at" unicode="@" horiz-adv-x="1708" 
d="M1057 762h10l25 184h122l-69 -520q-24 -190 121 -190q110 0 182 113.5t72 352.5q0 94 -19 174t-63 150t-110.5 119t-167 77.5t-228.5 28.5q-143 0 -263.5 -42.5t-206.5 -116.5t-146.5 -175.5t-89.5 -219.5t-29 -248q0 -568 616 -568q101 0 222 23t196 59h20v-100
q-189 -92 -442 -92q-174 0 -308 39t-231.5 119.5t-148.5 210.5t-51 306q0 147 35 282t107 252t174.5 203t246.5 135.5t313 49.5q177 0 313 -52t217.5 -143t122.5 -206t41 -250q0 -121 -21 -220.5t-57 -167t-85.5 -113t-105.5 -66.5t-118 -21q-231 0 -231 227q0 37 2 60h-14
q-105 -287 -305 -287q-103 0 -162.5 72t-59.5 219q0 146 38 265.5t119.5 196t193.5 76.5q93 0 149 -52.5t74 -143.5zM1040 578l9 65q13 96 -38 150.5t-151 54.5q-122 0 -186 -111t-64 -305q0 -192 133 -192q113 0 193.5 99.5t103.5 238.5z" />
    <glyph glyph-name="A" unicode="A" horiz-adv-x="1181" 
d="M879 371h-580l-141 -371h-156l494 1229h192l492 -1229h-158zM614 1098h-49q-59 -189 -164 -459l-57 -152h490l-60 152q-90 233 -160 459z" />
    <glyph glyph-name="B" unicode="B" horiz-adv-x="1153" 
d="M150 0v1229h483q395 0 395 -314q0 -115 -61.5 -186t-175.5 -98v-19q154 -19 227.5 -86t73.5 -194q0 -154 -102 -243t-314 -89h-526zM297 557v-436h373q138 0 206 58.5t68 160.5q0 108 -66.5 162.5t-220.5 54.5h-360zM297 1106v-432h332q254 0 254 223q0 106 -57.5 157.5
t-184.5 51.5h-344z" />
    <glyph glyph-name="C" unicode="C" horiz-adv-x="1275" 
d="M649 -23q-276 0 -426.5 171.5t-150.5 467.5q0 293 154 464t427 171q229 0 369 -120.5t176 -335.5l-139 -29q-73 352 -406 352q-215 0 -324.5 -134.5t-109.5 -367.5q0 -240 108 -373.5t322 -133.5q179 0 279.5 92.5t136.5 271.5l141 -29q-36 -219 -178.5 -343t-378.5 -124
z" />
    <glyph glyph-name="D" unicode="D" horiz-adv-x="1292" 
d="M616 0h-466v1229h460q306 0 459.5 -155t153.5 -453q0 -291 -162 -456t-445 -165zM297 1102v-975h307q471 0 471 494q0 247 -116.5 364t-368.5 117h-293z" />
    <glyph glyph-name="E" unicode="E" horiz-adv-x="1083" 
d="M975 0h-678h-150v1229h828v-133h-678v-404h606v-131h-606v-428h678v-133z" />
    <glyph glyph-name="F" unicode="F" horiz-adv-x="1011" 
d="M297 512v-512h-147v1229h790v-137h-643v-449h569v-131h-569z" />
    <glyph glyph-name="G" unicode="G" horiz-adv-x="1312" 
d="M623 -20q-260 0 -410 159.5t-150 460.5q0 197 65 342t198.5 227t324.5 82q233 0 369 -117t174 -331l-139 -31q-38 177 -136.5 261.5t-265.5 84.5q-228 0 -334 -136.5t-106 -381.5q0 -235 110.5 -363t338.5 -128q115 0 197 29.5t126 82t63 113t19 135.5l2 -4l-2 22h-410
v129h551v-616h-139v281h-14q-47 -135 -153 -218t-279 -83z" />
    <glyph glyph-name="H" unicode="H" horiz-adv-x="1304" 
d="M150 0v1229h147v-549h711v549h147v-1229h-147v547h-711v-547h-147z" />
    <glyph glyph-name="I" unicode="I" horiz-adv-x="446" 
d="M297 1229v-1229h-147v1229h147z" />
    <glyph glyph-name="J" unicode="J" horiz-adv-x="622" 
d="M328 309v920h147v-918q0 -327 -297 -327q-80 0 -151 14l8 131q71 -12 127 -12q166 0 166 192z" />
    <glyph glyph-name="K" unicode="K" horiz-adv-x="1140" 
d="M150 0v1229h147v-582h96l545 582h168v-23l-598 -612l631 -571v-23h-174l-566 520h-102v-520h-147z" />
    <glyph glyph-name="L" unicode="L" horiz-adv-x="933" 
d="M150 1229h147v-1094h592v-135h-739v1229z" />
    <glyph glyph-name="M" unicode="M" horiz-adv-x="1613" 
d="M788 225h39q104 299 144 402l252 602h241v-1229h-147v643q0 62 6 461h-41q-90 -278 -176 -488l-229 -538h-158l-225 545q-87 218 -168 481h-37q0 -53 1 -182.5t1 -192.5v-86v-643h-144v1229h254l244 -604q24 -60 143 -400z" />
    <glyph glyph-name="N" unicode="N" horiz-adv-x="1300" 
d="M1153 0h-199l-407 657q-100 158 -230 433l-45 -3q19 -263 19 -598v-489h-144v1229h222l358 -578q130 -212 262 -487h41q-18 369 -18 575v490h141v-1229z" />
    <glyph glyph-name="O" unicode="O" horiz-adv-x="1347" 
d="M674 -23q-286 0 -445 175t-159 464q0 288 160 461.5t444 173.5t444 -173.5t160 -461.5q0 -289 -159 -464t-445 -175zM674 109q226 0 341 137t115 370q0 231 -115 366.5t-341 135.5q-224 0 -340.5 -136t-116.5 -366q0 -233 115.5 -370t341.5 -137z" />
    <glyph glyph-name="P" unicode="P" horiz-adv-x="1071" 
d="M618 469h-321v-469h-147v1229h464q418 0 418 -381q0 -174 -108.5 -276.5t-305.5 -102.5zM600 1100h-303v-506h305q148 0 216.5 61t68.5 191q0 136 -65 195t-222 59z" />
    <glyph glyph-name="Q" unicode="Q" horiz-adv-x="1349" 
d="M1038 80l164 -258v-23h-151l-127 221q-113 -43 -250 -43q-286 0 -445 175t-159 464q0 288 160 461.5t444 173.5t444 -173.5t160 -461.5q0 -178 -61 -315t-179 -221zM674 109q226 0 341 137t115 370q0 231 -115 366.5t-341 135.5q-224 0 -340.5 -136t-116.5 -366
q0 -233 115.5 -370t341.5 -137z" />
    <glyph glyph-name="R" unicode="R" horiz-adv-x="1196" 
d="M586 512h-289v-512h-150v1229h478q428 0 428 -352q0 -144 -81 -236.5t-233 -118.5l385 -499v-23h-170zM610 1100h-313v-459h313q142 0 218.5 59t76.5 174q0 117 -66.5 171.5t-228.5 54.5z" />
    <glyph glyph-name="S" unicode="S" horiz-adv-x="1126" 
d="M590 -23q-242 0 -370.5 109t-156.5 305l142 31q27 -159 121.5 -239.5t267.5 -80.5q156 0 231.5 57t75.5 158q0 99 -75.5 153.5t-262.5 86.5q-242 44 -342 132.5t-100 230.5q0 153 112 242t324 89q206 0 314 -93.5t147 -270.5l-148 -31q-22 94 -56 150.5t-98.5 88
t-164.5 31.5q-140 0 -212.5 -52t-72.5 -146q0 -61 27.5 -102.5t104.5 -77.5t214 -64q103 -19 179 -46t125 -58.5t79 -72t42 -83.5t12 -96q0 -166 -111.5 -258.5t-347.5 -92.5z" />
    <glyph glyph-name="T" unicode="T" horiz-adv-x="1040" 
d="M446 1092h-413v137h975v-137h-414v-1092h-148v1092z" />
    <glyph glyph-name="U" unicode="U" horiz-adv-x="1284" 
d="M653 111q183 0 258.5 92.5t75.5 263.5v762h150v-768q0 -237 -124.5 -360.5t-359.5 -123.5q-240 0 -371.5 123.5t-131.5 360.5v768h147v-750q0 -368 356 -368z" />
    <glyph glyph-name="V" unicode="V" horiz-adv-x="1179" 
d="M567 131h47q92 268 166 459l244 639h154l-492 -1229h-190l-494 1229h158l246 -639q95 -245 161 -459z" />
    <glyph glyph-name="W" unicode="W" horiz-adv-x="1710" 
d="M874 1092h-43q-74 -347 -135 -580l-133 -512h-221l-332 1229h162l147 -604q66 -265 111 -494h57q47 231 113 492l164 606h192l164 -606q55 -220 111 -492h55q20 107 109 494l149 604h156l-332 -1229h-225l-133 512q-104 410 -136 580z" />
    <glyph glyph-name="X" unicode="X" horiz-adv-x="1132" 
d="M35 1229h158l358 -535h35l358 535h152v-23l-428 -592l436 -591v-23h-158l-373 547h-28l-365 -547h-151v23l432 598l-426 585v23z" />
    <glyph glyph-name="Y" unicode="Y" horiz-adv-x="1081" 
d="M614 422v-422h-147v426l-473 780v23h158l378 -682h25l377 682h153v-23z" />
    <glyph glyph-name="Z" unicode="Z" horiz-adv-x="1146" 
d="M717 137h338v-137h-981v135l800 961l-10 20q-281 -24 -430 -24h-336v137h955v-133l-807 -963l10 -22q243 26 461 26z" />
    <glyph glyph-name="bracketleft" unicode="[" horiz-adv-x="583" 
d="M530 -381h-247h-144v1794h391v-125h-247v-1544h247v-125z" />
    <glyph glyph-name="backslash" unicode="\" horiz-adv-x="632" 
d="M614 -309h-143l-426 1624h139z" />
    <glyph glyph-name="bracketright" unicode="]" horiz-adv-x="583" 
d="M444 -381h-47h-344v125h248v1544h-248v125h391v-1794z" />
    <glyph glyph-name="asciicircum" unicode="^" horiz-adv-x="1013" 
d="M870 512l-362 418l-363 -418l-73 61l395 494h78l397 -494z" />
    <glyph glyph-name="underscore" unicode="_" horiz-adv-x="942" 
d="M0 -123v123h942v-123h-942z" />
    <glyph glyph-name="grave" unicode="`" horiz-adv-x="622" 
d="M573 1145l-34 -72l-496 236l61 112z" />
    <glyph glyph-name="a" unicode="a" horiz-adv-x="1003" 
d="M377 -20q-143 0 -222 65t-79 197q0 124 85 201t249 77h327v88q0 123 -54 184.5t-179 61.5q-107 0 -169 -52.5t-87 -158.5l-135 35q33 141 134 218t259 77q371 0 371 -363v-610h-134v227h-16q-36 -120 -127 -183.5t-223 -63.5zM737 350v66h-311q-213 0 -213 -162
q0 -69 48 -113.5t155 -44.5q144 0 232.5 72t88.5 182z" />
    <glyph glyph-name="b" unicode="b" horiz-adv-x="1095" 
d="M1024 475q0 -239 -100 -368.5t-275 -129.5q-142 0 -233.5 76.5t-128.5 206.5h-11v-260h-141v1315h141v-619h13q38 129 124.5 204t225.5 75q186 0 285.5 -130t99.5 -370zM276 510v-72q0 -150 86 -243t228 -93q293 0 293 373q0 189 -72 280t-221 91q-143 0 -228.5 -90.5
t-85.5 -245.5z" />
    <glyph glyph-name="c" unicode="c" horiz-adv-x="1046" 
d="M969 631l-133 -29q-28 123 -96 184.5t-201 61.5q-154 0 -239 -95.5t-85 -277.5q0 -174 86 -272.5t244 -98.5q58 0 103.5 13.5t75 34.5t53.5 56t37.5 68t27.5 80l131 -34q-74 -345 -426 -345q-223 0 -349 132.5t-126 365.5t128.5 366.5t340.5 133.5q189 0 292 -87
t136 -257z" />
    <glyph glyph-name="d" unicode="d" horiz-adv-x="1095" 
d="M72 473q0 243 100 372.5t281 129.5q272 0 354 -281h12v621h139v-1315h-139v256h-12q-37 -127 -128.5 -203t-227.5 -76q-183 0 -281 128.5t-98 367.5zM819 436v74q0 150 -85.5 243t-227.5 93q-295 0 -295 -373q0 -369 295 -369q142 0 227.5 90t85.5 242z" />
    <glyph glyph-name="e" unicode="e" horiz-adv-x="1036" 
d="M543 -23q-221 0 -346 131.5t-125 364.5t127 367.5t340 134.5q206 0 315 -118t109 -320q0 -69 -5 -101h-745q8 -161 93 -249.5t237 -88.5q68 0 119 16.5t83.5 48t52.5 68.5t33 86l125 -36q-76 -304 -413 -304zM215 545h616q-13 313 -296 313q-141 0 -224 -79.5t-96 -233.5
z" />
    <glyph glyph-name="f" unicode="f" horiz-adv-x="710" 
d="M367 1016v-64h315v-121h-315v-831h-140v831h-184v121h184v66q0 150 76.5 235.5t226.5 85.5q70 0 158 -18l-8 -111q-92 15 -133 15q-95 0 -137.5 -52.5t-42.5 -156.5z" />
    <glyph glyph-name="g" unicode="g" horiz-adv-x="1017" 
d="M225 283l72 49q-100 35 -153.5 110t-53.5 179q0 160 106 245.5t298 85.5h452v-116h-117q-68 0 -200 12l-2 -17q247 -49 247 -235q0 -141 -101 -216t-296 -75q-89 0 -160 21l-34 -52q-31 -46 -31 -69q0 -60 104 -60q55 0 166 1t164 1q140 0 213.5 -58t73.5 -165
q0 -93 -43 -149.5t-149 -86.5t-287 -30q-132 0 -223 14t-143 41.5t-74.5 64.5t-22.5 87q0 63 54 107.5t157 64.5v10q-107 24 -107 119q0 62 90 117zM477 834q-130 0 -193 -55.5t-63 -155.5q0 -103 61 -156t197 -53q269 0 269 209q0 99 -71 155t-200 56zM688 37h-350
q-91 0 -138.5 -40t-47.5 -93q0 -73 74 -103t272 -30q142 0 220.5 17t106 48t27.5 84t-41 85t-123 32z" />
    <glyph glyph-name="h" unicode="h" horiz-adv-x="1089" 
d="M276 1315v-608h15q39 125 131 196.5t225 71.5q159 0 238.5 -95t79.5 -257v-623h-142v592q0 117 -54.5 185.5t-172.5 68.5q-143 0 -231.5 -82t-88.5 -215v-549h-141v1315h141z" />
    <glyph glyph-name="i" unicode="i" horiz-adv-x="456" 
d="M299 952v-952h-141v952h141zM315 1298v-143h-174v143h174z" />
    <glyph glyph-name="j" unicode="j" horiz-adv-x="479" 
d="M322 950v-970q0 -147 -67 -230.5t-198 -83.5q-52 0 -94 10l8 125q41 -8 82 -8q129 0 129 176v981h140zM338 1298v-143h-172v143h172z" />
    <glyph glyph-name="k" unicode="k" horiz-adv-x="970" 
d="M147 1315h140v-780h100l383 417h162v-22l-432 -449l473 -458v-23h-164l-418 422h-104v-422h-140v1315z" />
    <glyph glyph-name="l" unicode="l" horiz-adv-x="434" 
d="M147 1315h140v-1315h-140v1315z" />
    <glyph glyph-name="m" unicode="m" horiz-adv-x="1777" 
d="M274 952v-245h17q39 126 130.5 197t223.5 71q138 0 215.5 -76t91.5 -209h19q34 135 122.5 210t235.5 75q160 0 242 -95t82 -257v-623h-142v592q0 116 -55.5 185t-173.5 69q-145 0 -231 -81.5t-86 -215.5v-549h-142v592q0 116 -55.5 185t-173.5 69q-143 0 -230.5 -82
t-87.5 -215v-549h-141v952h139z" />
    <glyph glyph-name="n" unicode="n" horiz-adv-x="1089" 
d="M274 952v-245h17q39 124 131.5 196t220.5 72q161 0 241.5 -95t80.5 -257v-623h-142v592q0 254 -229 254q-143 0 -230.5 -82t-87.5 -215v-549h-141v952h139z" />
    <glyph glyph-name="o" unicode="o" horiz-adv-x="1085" 
d="M543 -23q-224 0 -347.5 134t-123.5 368q0 231 127.5 363.5t343.5 132.5q213 0 342 -133.5t129 -362.5q0 -234 -123.5 -368t-347.5 -134zM543 850q-158 0 -244 -98t-86 -271q0 -177 83 -278t245 -101t246.5 101.5t84.5 277.5q0 174 -85.5 271.5t-243.5 97.5z" />
    <glyph glyph-name="p" unicode="p" horiz-adv-x="1095" 
d="M1024 475q0 -239 -100 -368.5t-275 -129.5q-142 0 -233.5 76.5t-128.5 206.5h-11v-573h-141v1265h141v-256h13q38 129 124.5 204t225.5 75q186 0 285.5 -130t99.5 -370zM276 510v-72q0 -150 86 -243t228 -93q293 0 293 373q0 189 -72 280t-221 91q-143 0 -228.5 -90.5
t-85.5 -245.5z" />
    <glyph glyph-name="q" unicode="q" horiz-adv-x="1095" 
d="M72 473q0 242 99.5 372t285.5 130q139 0 225.5 -75t124.5 -204h12v256h139v-1290h-139v594h-12q-37 -127 -130 -203t-231 -76q-178 0 -276 129t-98 367zM819 436v74q0 155 -85 245.5t-228 90.5q-150 0 -222.5 -91t-72.5 -280q0 -373 295 -373q140 0 226.5 93t86.5 241z
" />
    <glyph glyph-name="r" unicode="r" horiz-adv-x="663" 
d="M272 952v-256h13q67 267 303 267h39v-154h-45q-160 0 -233 -75t-73 -245v-489h-141v952h137z" />
    <glyph glyph-name="s" unicode="s" horiz-adv-x="927" 
d="M494 -25q-105 0 -182.5 22t-128 65t-80.5 99.5t-46 133.5l131 27q13 -53 34 -92.5t56.5 -72.5t90 -50t127.5 -17q227 0 227 162q0 74 -61.5 111.5t-219.5 64.5q-179 30 -256 97t-77 180q0 125 90.5 197.5t259.5 72.5q89 0 153.5 -19t107 -57.5t68 -86.5t43.5 -116
l-131 -30q-26 107 -83.5 151.5t-159.5 44.5q-103 0 -157 -39t-54 -112q0 -67 56 -108.5t196 -63.5q194 -32 279 -99t85 -184q0 -131 -90.5 -206t-277.5 -75z" />
    <glyph glyph-name="t" unicode="t" horiz-adv-x="714" 
d="M43 831v121h156v275h139v-275h324v-121h-324v-542q0 -92 38.5 -136t123.5 -44q66 0 151 24l21 -125q-114 -31 -197 -31q-138 0 -207 81.5t-69 220.5v552h-156z" />
    <glyph glyph-name="u" unicode="u" horiz-adv-x="1089" 
d="M815 0v246h-16q-37 -124 -131 -196.5t-222 -72.5q-162 0 -241.5 94t-79.5 259v622h141v-594q0 -115 54.5 -183.5t175.5 -68.5q143 0 230 81t87 216v549h141v-952h-139z" />
    <glyph glyph-name="v" unicode="v" horiz-adv-x="958" 
d="M961 952l-392 -952h-174l-397 952h154l141 -362q133 -351 170 -465h37q29 86 93.5 256.5t78.5 208.5l137 362h152z" />
    <glyph glyph-name="w" unicode="w" horiz-adv-x="1507" 
d="M676 952h164l112 -368q58 -184 127 -465h37q25 118 131 471l107 362h143l-311 -952h-185l-127 422q-62 206 -108 414h-29q-61 -257 -108 -414l-125 -422h-180l-314 952h146l110 -362q100 -319 137 -471h37q30 133 125 465z" />
    <glyph glyph-name="x" unicode="x" horiz-adv-x="995" 
d="M51 952h154l295 -424h6l289 424h143v-22l-338 -455l344 -452v-23h-151l-299 436h-7l-290 -436h-148v23l344 466l-342 441v22z" />
    <glyph glyph-name="y" unicode="y" horiz-adv-x="974" 
d="M428 6l-420 946h156l133 -336q130 -328 190 -491h25q94 261 180 487l127 340h150l-414 -964q-75 -178 -168 -255t-233 -77q-70 0 -140 12l23 129q61 -12 121 -12q63 0 103.5 15t82.5 64t84 142z" />
    <glyph glyph-name="z" unicode="z" horiz-adv-x="987" 
d="M629 127h268v-127h-815v127l655 707l-8 16q-308 -25 -414 -25h-215v127h789v-127l-656 -706l11 -19q226 27 385 27z" />
    <glyph glyph-name="braceleft" unicode="{" horiz-adv-x="741" 
d="M281 541v-19q140 -13 201 -64.5t61 -152.5q0 -58 -25.5 -119t-55.5 -104t-55.5 -96.5t-25.5 -98.5q0 -73 43.5 -106t142.5 -33q15 0 53.5 1t61.5 1l2 -121q-117 -6 -143 -6q-152 0 -231 64t-79 176q2 60 31 123.5t62.5 109t61.5 103t28 108.5q0 162 -232 162h-139v125
h139q104 0 171 40t67 122q0 42 -18.5 87t-45 85.5t-53 82.5t-45 92.5t-18.5 100.5q0 112 78.5 176t230.5 64q26 0 143 -6l-2 -121q-23 0 -62 1t-55 1q-98 0 -141 -33t-43 -106q0 -45 24 -98.5t53 -96.5t53 -103.5t24 -117.5q0 -95 -65 -148.5t-197 -74.5z" />
    <glyph glyph-name="bar" unicode="|" horiz-adv-x="421" 
d="M281 1419v-1779h-140v1779h140z" />
    <glyph glyph-name="braceright" unicode="}" horiz-adv-x="741" 
d="M459 512v20q-138 12 -199 64.5t-61 153.5q0 58 25 119t54.5 103.5t54.5 96t25 98.5q0 73 -43.5 106.5t-140.5 33.5q-29 0 -115 -4l-2 120q122 7 144 7q152 0 230.5 -63.5t76.5 -176.5q0 -49 -18.5 -98.5t-45 -91t-53 -82t-45 -86t-18.5 -87.5q0 -159 231 -159h139v-125
h-139q-105 0 -171 -41t-66 -123q0 -51 28 -110t61 -104.5t61 -109t28 -123.5q2 -113 -76.5 -176t-230.5 -63q-27 0 -144 6l2 121q86 -4 115 -4q98 0 141 33t43 106q0 46 -23.5 99.5t-52 95.5t-52 103t-23.5 120q0 95 65 148.5t195 72.5z" />
    <glyph glyph-name="asciitilde" unicode="~" horiz-adv-x="1069" 
d="M743 539q-59 0 -106 26.5t-76 66t-57 85.5t-50 85.5t-55 66t-71 26.5q-79 0 -108 -78t-23 -268h-97q-8 65 -8 131q0 169 60 255.5t170 86.5q70 0 122 -36.5t83 -88.5t58.5 -104t65 -88.5t86.5 -36.5q74 0 107 83.5t26 260.5h95q8 -47 8 -125q0 -169 -62 -258.5
t-168 -89.5z" />
    <glyph glyph-name="uni00A0" unicode="&#xa0;" horiz-adv-x="405" 
 />
    <glyph glyph-name="exclamdown" unicode="&#xa1;" horiz-adv-x="481" 
d="M168 -276v796h145v-796h-145zM338 952v-192h-195v192h195z" />
    <glyph glyph-name="cent" unicode="&#xa2;" horiz-adv-x="1040" 
d="M592 -6l10 -248h-127l10 250q-197 17 -305 142.5t-108 336.5t111.5 337t303.5 144l-12 242h127l-10 -242q164 -10 255.5 -92t121.5 -233l-133 -29q-28 119 -96 178.5t-201 59.5q-154 0 -239 -93.5t-85 -271.5q0 -168 86 -265t244 -97q71 0 123.5 18t85.5 53.5t53 75.5
t35 96l131 -34q-67 -308 -381 -328z" />
    <glyph glyph-name="sterling" unicode="&#xa3;" horiz-adv-x="1103" 
d="M1022 0h-944v127h209q24 96 24 201q0 43 -16 137h-213v117h184q-53 192 -53 315q0 164 99.5 258t291.5 94q103 0 178 -29.5t121 -85.5t72 -123t41 -157l-131 -27q-32 155 -94.5 225t-186.5 70q-131 0 -189.5 -64.5t-58.5 -172.5q0 -107 47 -303h478v-117h-453
q10 -55 10 -103q0 -140 -51 -235h635v-127z" />
    <glyph glyph-name="yen" unicode="&#xa5;" horiz-adv-x="1150" 
d="M1073 471v-106h-422v-365h-149v365h-424v106h397l-100 166h-297v111h229l-276 458v23h157l377 -682h25l377 682h153v-23l-274 -458h227v-111h-295l-98 -166h393z" />
    <glyph glyph-name="brokenbar" unicode="&#xa6;" horiz-adv-x="497" 
d="M317 1419v-817h-137v817h137zM317 422v-782h-137v782h137z" />
    <glyph glyph-name="section" unicode="&#xa7;" horiz-adv-x="1189" 
d="M231 774q-47 67 -47 164q0 142 99 227.5t295 85.5q88 0 157 -17t117 -47.5t84 -79t59 -104.5t41 -131l-141 -28q-38 148 -108.5 219.5t-208.5 71.5q-133 0 -196 -53t-63 -138q0 -44 13.5 -76t48 -61.5t100 -52.5t164.5 -41q185 -36 289 -84.5t143 -107t39 -144.5
q0 -72 -39.5 -134t-103.5 -102q57 -65 57 -176q0 -139 -101 -224t-315 -85q-237 0 -361.5 103t-164.5 304l143 35q32 -160 123.5 -241.5t263.5 -81.5q138 0 204.5 50t66.5 140q0 87 -66.5 134.5t-242.5 82.5q-285 54 -401 134.5t-116 211.5q0 72 45.5 136t122.5 110z
M186 553q0 -62 36 -104t131.5 -78.5t269.5 -71.5q211 -45 305 -115q67 70 67 170q0 99 -86 150.5t-327 101.5q-205 38 -308 121q-88 -68 -88 -174z" />
    <glyph glyph-name="dieresis" unicode="&#xa8;" horiz-adv-x="653" 
d="M57 1137v166h168v-166h-168zM428 1137v166h166v-166h-166z" />
    <glyph glyph-name="copyright" unicode="&#xa9;" horiz-adv-x="1851" 
d="M926 1427q205 0 362 -58t256 -166t149 -255.5t50 -331.5q0 -185 -49 -332.5t-147.5 -256.5t-256 -167.5t-364.5 -58.5q-205 0 -362 59t-256 167t-149 256.5t-50 332.5t50 331.5t149 255.5t256 166t362 58zM926 -82q183 0 317 50t214.5 144t118.5 219t38 285t-39 285.5
t-120 218.5t-214.5 142t-314.5 49t-314.5 -49t-214.5 -142t-120 -218.5t-39 -285.5t38.5 -285t119 -219t214.5 -144t316 -50zM1288 721l-127 -8q-8 112 -59 167.5t-172 55.5q-128 0 -196 -80t-68 -233q0 -152 66 -237t196 -85q225 0 235 199l127 -8q-6 -154 -97.5 -232
t-262.5 -78q-186 0 -293 114t-107 325q0 201 108.5 316.5t293.5 115.5q179 0 263.5 -83t92.5 -249z" />
    <glyph glyph-name="ordfeminine" unicode="&#xaa;" horiz-adv-x="788" 
d="M571 848h-10q-32 -91 -99.5 -143t-164.5 -52q-225 0 -225 193q0 80 64 132t186 52h241v92q0 71 -37.5 113.5t-119.5 42.5q-142 0 -195 -135l-111 33q32 92 110.5 146t197.5 54q138 0 208 -67.5t70 -184.5v-450h-115v174zM563 946v17h-217q-158 0 -158 -111
q0 -104 148 -104q102 0 164.5 55.5t62.5 142.5z" />
    <glyph glyph-name="guillemotleft" unicode="&#xab;" horiz-adv-x="1251" 
d="M698 963l-508 -428v-13l508 -428v-24h-137l-516 438v41l516 438h137v-24zM1188 963l-508 -428v-13l508 -428v-24h-137l-516 438v41l516 438h137v-24z" />
    <glyph glyph-name="uni00AD" unicode="&#xad;" horiz-adv-x="0" 
 />
    <glyph glyph-name="registered" unicode="&#xae;" horiz-adv-x="1855" 
d="M926 -199q-205 0 -362 59t-256 167t-149 256.5t-50 332.5t50 331.5t149 255.5t256 166t362 58t362 -58t256 -166t149 -255.5t50 -331.5q0 -185 -49 -332.5t-147.5 -256.5t-256 -167.5t-364.5 -58.5zM926 -82q183 0 317 50t214.5 144t118.5 219t38 285t-39 285.5
t-120 218.5t-214.5 142t-314.5 49t-314.5 -49t-214.5 -142t-120 -218.5t-39 -285.5t38.5 -285t119 -219t214.5 -144t316 -50zM1057 532l280 -307v-16h-149l-268 317h-215v-317h-132v819h410q157 0 231 -62t74 -186q0 -103 -59.5 -167t-171.5 -81zM705 922v-297h264
q89 0 137.5 37.5t48.5 111.5q0 77 -42 112.5t-144 35.5h-264z" />
    <glyph glyph-name="macron" unicode="&#xaf;" horiz-adv-x="655" 
d="M49 1145v110h557v-110h-557z" />
    <glyph glyph-name="degree" unicode="&#xb0;" horiz-adv-x="630" 
d="M315 737q-118 0 -188 70.5t-70 187.5q0 116 70 186t188 70q117 0 187.5 -70t70.5 -186q0 -117 -70.5 -187.5t-187.5 -70.5zM315 834q71 0 111.5 41.5t40.5 119.5q0 77 -41 118.5t-111 41.5q-72 0 -111.5 -41t-39.5 -119q0 -79 39 -120t112 -41z" />
    <glyph glyph-name="twosuperior" unicode="&#xb2;" horiz-adv-x="753" 
d="M397 1296q-185 0 -211 -190l-108 20q49 263 319 263q137 0 211 -56.5t74 -161.5q0 -95 -71 -148.5t-226 -92.5q-131 -37 -179 -76.5t-52 -114.5q143 15 272 15h268v-99h-639v58q0 119 64 182.5t219 105.5q134 37 182.5 73t48.5 97q0 125 -172 125z" />
    <glyph glyph-name="threesuperior" unicode="&#xb3;" horiz-adv-x="741" 
d="M479 1024v-16q108 -10 155.5 -48.5t47.5 -113.5q0 -100 -76.5 -153.5t-228.5 -53.5q-146 0 -229.5 60t-104.5 171l109 23q14 -81 68 -120.5t161 -39.5q188 0 188 123q0 62 -41 89.5t-147 27.5h-119v82h117q166 0 166 116q0 123 -170 123q-91 0 -138 -36.5t-65 -112.5
l-104 24q24 104 100 162t205 58q137 0 208.5 -51.5t71.5 -145.5q0 -138 -174 -168z" />
    <glyph glyph-name="acute" unicode="&#xb4;" horiz-adv-x="622" 
d="M573 1311l-495 -238l-35 72l471 274z" />
    <glyph glyph-name="paragraph" unicode="&#xb6;" horiz-adv-x="1300" 
d="M743 -334v653h-186q-232 0 -358.5 114t-126.5 333q0 231 119 347t364 116h326v-1563h-138zM1153 1229v-1563h-139v1563h139z" />
    <glyph glyph-name="periodcentered" unicode="&#xb7;" horiz-adv-x="421" 
d="M115 403v193h192v-193h-192z" />
    <glyph glyph-name="cedilla" unicode="&#xb8;" horiz-adv-x="464" 
d="M254 -344q-130 0 -207 59l45 70q77 -51 160 -51q50 0 74 18.5t24 46.5q0 58 -90 58q-38 0 -88 -13l-55 25l67 176l76 -4l-59 -150q46 17 86 17q67 0 108 -27t41 -86q0 -52 -43.5 -95.5t-138.5 -43.5z" />
    <glyph glyph-name="onesuperior" unicode="&#xb9;" horiz-adv-x="606" 
d="M49 655v101h230v524q-121 -64 -207 -96l-39 92l286 100h70v-620h189v-101h-529z" />
    <glyph glyph-name="ordmasculine" unicode="&#xba;" horiz-adv-x="782" 
d="M395 662q-160 0 -248 96.5t-88 265.5q0 165 90.5 258.5t245.5 93.5q151 0 241.5 -94t90.5 -258q0 -169 -87 -265.5t-245 -96.5zM395 1278q-107 0 -165 -67t-58 -185q0 -125 55.5 -194.5t165.5 -69.5q108 0 165.5 70t57.5 194q0 118 -58 185t-163 67z" />
    <glyph glyph-name="guillemotright" unicode="&#xbb;" horiz-adv-x="1257" 
d="M70 80l508 428v12l-508 428v25h137l516 -438v-41l-516 -439h-137v25zM559 80l508 428v12l-508 428v25h137l516 -438v-41l-516 -439h-137v25z" />
    <glyph glyph-name="onequarter" unicode="&#xbc;" horiz-adv-x="1517" 
d="M49 655v101h230v524q-121 -64 -207 -96l-39 92l286 100h70v-620h189v-101h-529zM772 729l381 500h182v-12l-518 -529zM690 500l-381 -500h-182v12l518 529zM1196 -143v174h-457v75l422 467h146v-450h118v-92h-118v-174h-111zM1196 483l-6 2l-334 -376l2 -3q170 17 238 17
h100v360z" />
    <glyph glyph-name="onehalf" unicode="&#xbd;" horiz-adv-x="1492" 
d="M49 655v101h230v524q-121 -64 -207 -96l-39 92l286 100h70v-620h189v-101h-529zM764 729l381 500h182v-12l-518 -529zM682 500l-381 -500h-182v12l518 529zM1126 498q-185 0 -211 -191l-108 21q49 262 319 262q137 0 211 -56t74 -161q0 -95 -71 -149t-226 -93
q-131 -37 -179 -76t-52 -114q133 14 272 14h268v-98h-639v57q0 120 64 183.5t219 105.5q134 37 182.5 73t48.5 97q0 125 -172 125z" />
    <glyph glyph-name="threequarters" unicode="&#xbe;" horiz-adv-x="1542" 
d="M838 729l381 500h182v-12l-518 -529zM756 500l-381 -500h-182v12l518 529zM1249 -143v174h-456v75l421 467h146v-450h119v-92h-119v-174h-111zM1249 483l-6 2l-334 -376l2 -3q170 17 238 17h100v360zM489 1024v-16q108 -10 155.5 -48.5t47.5 -113.5q0 -100 -76.5 -153.5
t-228.5 -53.5q-146 0 -229.5 60t-104.5 171l109 23q14 -81 68 -120.5t161 -39.5q189 0 189 123q0 62 -41.5 89.5t-147.5 27.5h-119v82h117q166 0 166 116q0 123 -170 123q-91 0 -138 -36.5t-65 -112.5l-104 24q24 104 100 162t205 58q138 0 209.5 -51.5t71.5 -145.5
q0 -138 -175 -168z" />
    <glyph glyph-name="questiondown" unicode="&#xbf;" horiz-adv-x="993" 
d="M317 383q74 33 99.5 77.5t25.5 98.5v23h140v-29q0 -91 -40.5 -149t-140.5 -107q-115 -58 -158.5 -109.5t-43.5 -140.5q0 -106 67 -162.5t195 -56.5q159 0 241.5 88t106.5 260l141 -18q-62 -457 -489 -457q-197 0 -303.5 89t-106.5 251q0 56 14.5 104t37.5 82.5t59 64.5
t72 50.5t83 40.5zM608 952v-192h-194v192h194z" />
    <glyph glyph-name="Agrave" unicode="&#xc0;" horiz-adv-x="1181" 
d="M879 371h-580l-141 -371h-156l494 1229h192l492 -1229h-158zM614 1098h-49q-59 -189 -164 -459l-57 -152h490l-60 152q-90 233 -160 459zM776 1436l-22 -78l-535 145l39 117z" />
    <glyph glyph-name="Aacute" unicode="&#xc1;" horiz-adv-x="1181" 
d="M879 371h-580l-141 -371h-156l494 1229h192l492 -1229h-158zM614 1098h-49q-59 -189 -164 -459l-57 -152h490l-60 152q-90 233 -160 459zM942 1499l-532 -141l-25 78l518 188z" />
    <glyph glyph-name="Acircumflex" unicode="&#xc2;" horiz-adv-x="1181" 
d="M879 371h-580l-141 -371h-156l494 1229h192l492 -1229h-158zM614 1098h-49q-59 -189 -164 -459l-57 -152h490l-60 152q-90 233 -160 459zM836 1329l-244 178l-246 -178l-49 64l264 233h62l264 -233z" />
    <glyph glyph-name="Atilde" unicode="&#xc3;" horiz-adv-x="1181" 
d="M879 371h-580l-141 -371h-156l494 1229h192l492 -1229h-158zM614 1098h-49q-59 -189 -164 -459l-57 -152h490l-60 152q-90 233 -160 459zM446 1669q46 0 83 -22t60.5 -53.5t44.5 -62.5t46 -53t53 -22q46 0 63 48.5t15 156.5h80q6 -50 6 -92q0 -107 -43.5 -164t-114.5 -57
q-43 0 -78.5 21.5t-59 53t-45 62.5t-47 52.5t-54.5 21.5q-50 0 -68 -45t-16 -152h-80q-6 50 -6 88q0 108 43 163.5t118 55.5z" />
    <glyph glyph-name="Adieresis" unicode="&#xc4;" horiz-adv-x="1181" 
d="M879 371h-580l-141 -371h-156l494 1229h192l492 -1229h-158zM614 1098h-49q-59 -189 -164 -459l-57 -152h490l-60 152q-90 233 -160 459zM322 1364v166h167v-166h-167zM692 1364v166h166v-166h-166z" />
    <glyph glyph-name="Aring" unicode="&#xc5;" horiz-adv-x="1181" 
d="M879 371h-580l-141 -371h-156l494 1229h192l492 -1229h-158zM614 1098h-49q-59 -189 -164 -459l-57 -152h490l-60 152q-90 233 -160 459zM801 1534q0 -93 -56.5 -149t-152.5 -56t-152.5 55t-56.5 148q0 94 56.5 149.5t152.5 55.5t152.5 -55t56.5 -148zM477 1532
q0 -55 30.5 -86t84.5 -31t84.5 31t30.5 88q0 55 -30.5 86t-84.5 31t-84.5 -31t-30.5 -88z" />
    <glyph glyph-name="AE" unicode="&#xc6;" horiz-adv-x="1742" 
d="M696 1229h176h762v-133h-680v-410h607v-119h-607v-434h678v-133h-825v307h-471l-168 -307h-152v12zM807 428v674h-53q-108 -224 -238 -463l-115 -211h406z" />
    <glyph glyph-name="Ccedilla" unicode="&#xc7;" horiz-adv-x="1277" 
d="M649 -23h-16l-35 -86q49 17 88 17q67 0 108.5 -27t41.5 -86q0 -51 -44.5 -95t-138.5 -44q-129 0 -209 59l45 70q40 -25 75 -38t85 -13q52 0 75.5 18.5t23.5 46.5q0 58 -91 58q-36 0 -86 -13l-55 25l43 113q-235 29 -361 197t-126 437q0 293 154 464t427 171
q229 0 369 -120.5t176 -335.5l-139 -29q-73 352 -406 352q-215 0 -324.5 -134.5t-109.5 -367.5q0 -240 108 -373.5t322 -133.5q179 0 279.5 92.5t136.5 271.5l141 -29q-36 -219 -178.5 -343t-378.5 -124z" />
    <glyph glyph-name="Egrave" unicode="&#xc8;" horiz-adv-x="1083" 
d="M975 0h-678h-150v1229h828v-133h-678v-404h606v-131h-606v-428h678v-133zM756 1436l-23 -78l-534 145l39 117z" />
    <glyph glyph-name="Eacute" unicode="&#xc9;" horiz-adv-x="1083" 
d="M975 0h-678h-150v1229h828v-133h-678v-404h606v-131h-606v-428h678v-133zM920 1499l-533 -141l-25 78l519 188z" />
    <glyph glyph-name="Ecircumflex" unicode="&#xca;" horiz-adv-x="1083" 
d="M975 0h-678h-150v1229h828v-133h-678v-404h606v-131h-606v-428h678v-133zM813 1329l-244 178l-245 -178l-50 64l265 233h61l264 -233z" />
    <glyph glyph-name="Edieresis" unicode="&#xcb;" horiz-adv-x="1083" 
d="M975 0h-678h-150v1229h828v-133h-678v-404h606v-131h-606v-428h678v-133zM299 1364v166h168v-166h-168zM670 1364v166h166v-166h-166z" />
    <glyph glyph-name="Igrave" unicode="&#xcc;" horiz-adv-x="446" 
d="M297 1229v-1229h-147v1229h147zM410 1436l-23 -78l-534 145l38 117z" />
    <glyph glyph-name="Iacute" unicode="&#xcd;" horiz-adv-x="446" 
d="M297 1229v-1229h-147v1229h147zM573 1499l-532 -141l-25 78l519 188z" />
    <glyph glyph-name="Icircumflex" unicode="&#xce;" horiz-adv-x="446" 
d="M297 1229v-1229h-147v1229h147zM467 1329l-244 178l-246 -178l-49 64l265 233h61l264 -233z" />
    <glyph glyph-name="Idieresis" unicode="&#xcf;" horiz-adv-x="446" 
d="M297 1229v-1229h-147v1229h147zM-47 1364v166h168v-166h-168zM324 1364v166h165v-166h-165z" />
    <glyph glyph-name="Eth" unicode="&#xd0;" horiz-adv-x="1363" 
d="M55 561v107h164v561h463q306 0 459 -155t153 -453q0 -291 -162 -456t-444 -165h-469v561h-164zM369 1102v-434h368v-107h-368v-434h307q471 0 471 494q0 247 -116.5 364t-368.5 117h-293z" />
    <glyph glyph-name="Ntilde" unicode="&#xd1;" horiz-adv-x="1300" 
d="M1153 0h-199l-407 657q-100 158 -230 433l-45 -3q19 -263 19 -598v-489h-144v1229h222l358 -578q130 -212 262 -487h41q-18 369 -18 575v490h141v-1229zM508 1669q46 0 83 -22t60.5 -53.5t44.5 -62.5t46 -53t53 -22q46 0 62.5 48t14.5 157h80q6 -50 6 -92
q0 -107 -43 -164t-114 -57q-43 0 -78.5 21.5t-59.5 53t-45.5 62.5t-47 52.5t-54.5 21.5q-50 0 -68 -45t-16 -152h-80q-6 50 -6 88q0 108 43 163.5t119 55.5z" />
    <glyph glyph-name="Ograve" unicode="&#xd2;" horiz-adv-x="1347" 
d="M674 -23q-286 0 -445 175t-159 464q0 288 160 461.5t444 173.5t444 -173.5t160 -461.5q0 -289 -159 -464t-445 -175zM674 109q226 0 341 137t115 370q0 231 -115 366.5t-341 135.5q-224 0 -340.5 -136t-116.5 -366q0 -233 115.5 -370t341.5 -137zM860 1436l-22 -78
l-535 145l39 117z" />
    <glyph glyph-name="Oacute" unicode="&#xd3;" horiz-adv-x="1347" 
d="M674 -23q-286 0 -445 175t-159 464q0 288 160 461.5t444 173.5t444 -173.5t160 -461.5q0 -289 -159 -464t-445 -175zM674 109q226 0 341 137t115 370q0 231 -115 366.5t-341 135.5q-224 0 -340.5 -136t-116.5 -366q0 -233 115.5 -370t341.5 -137zM1024 1499l-532 -141
l-25 78l518 188z" />
    <glyph glyph-name="Ocircumflex" unicode="&#xd4;" horiz-adv-x="1347" 
d="M674 -23q-286 0 -445 175t-159 464q0 288 160 461.5t444 173.5t444 -173.5t160 -461.5q0 -289 -159 -464t-445 -175zM674 109q226 0 341 137t115 370q0 231 -115 366.5t-341 135.5q-224 0 -340.5 -136t-116.5 -366q0 -233 115.5 -370t341.5 -137zM920 1329l-244 178
l-246 -178l-49 64l264 233h62l264 -233z" />
    <glyph glyph-name="Otilde" unicode="&#xd5;" horiz-adv-x="1347" 
d="M674 -23q-286 0 -445 175t-159 464q0 288 160 461.5t444 173.5t444 -173.5t160 -461.5q0 -289 -159 -464t-445 -175zM674 109q226 0 341 137t115 370q0 231 -115 366.5t-341 135.5q-224 0 -340.5 -136t-116.5 -366q0 -233 115.5 -370t341.5 -137zM530 1669q46 0 83 -22
t60.5 -53.5t44.5 -62.5t46 -53t53 -22q46 0 63 48.5t15 156.5h80q6 -50 6 -92q0 -107 -43.5 -164t-114.5 -57q-43 0 -78.5 21.5t-59 53t-45 62.5t-47 52.5t-54.5 21.5q-50 0 -68 -45t-16 -152h-80q-6 50 -6 88q0 108 43 163.5t118 55.5z" />
    <glyph glyph-name="Odieresis" unicode="&#xd6;" horiz-adv-x="1347" 
d="M674 -23q-286 0 -445 175t-159 464q0 288 160 461.5t444 173.5t444 -173.5t160 -461.5q0 -289 -159 -464t-445 -175zM674 109q226 0 341 137t115 370q0 231 -115 366.5t-341 135.5q-224 0 -340.5 -136t-116.5 -366q0 -233 115.5 -370t341.5 -137zM403 1364v166h168v-166
h-168zM774 1364v166h166v-166h-166z" />
    <glyph glyph-name="multiply" unicode="&#xd7;" horiz-adv-x="1007" 
d="M502 551q-103 -111 -307 -328l-101 101q127 122 332 303q-221 194 -332 301l101 100q32 -34 91.5 -96t111.5 -117.5t104 -112.5q44 47 148.5 157t158.5 169l102 -100q-122 -117 -331 -301q191 -174 331 -303l-102 -101q-45 49 -144.5 154.5t-162.5 173.5z" />
    <glyph glyph-name="Oslash" unicode="&#xd8;" horiz-adv-x="1341" 
d="M154 0h-123v10l170 174q-131 168 -131 432q0 288 160 461.5t444 173.5q267 0 422 -149l121 127h116v-10l-178 -185q123 -166 123 -418q0 -289 -159 -464t-445 -175q-256 0 -408 140zM299 285l700 719q-121 118 -325 118q-225 0 -343 -138.5t-118 -367.5q0 -198 86 -331z
M674 106q230 0 345.5 137.5t115.5 372.5q0 188 -78 316l-699 -719q120 -107 316 -107z" />
    <glyph glyph-name="Ugrave" unicode="&#xd9;" horiz-adv-x="1284" 
d="M653 111q183 0 258.5 92.5t75.5 263.5v762h150v-768q0 -237 -124.5 -360.5t-359.5 -123.5q-240 0 -371.5 123.5t-131.5 360.5v768h147v-750q0 -368 356 -368zM829 1436l-22 -78l-535 145l39 117z" />
    <glyph glyph-name="Uacute" unicode="&#xda;" horiz-adv-x="1284" 
d="M653 111q183 0 258.5 92.5t75.5 263.5v762h150v-768q0 -237 -124.5 -360.5t-359.5 -123.5q-240 0 -371.5 123.5t-131.5 360.5v768h147v-750q0 -368 356 -368zM993 1499l-532 -141l-25 78l518 188z" />
    <glyph glyph-name="Ucircumflex" unicode="&#xdb;" horiz-adv-x="1284" 
d="M653 111q183 0 258.5 92.5t75.5 263.5v762h150v-768q0 -237 -124.5 -360.5t-359.5 -123.5q-240 0 -371.5 123.5t-131.5 360.5v768h147v-750q0 -368 356 -368zM887 1329l-244 178l-246 -178l-49 64l264 233h62l264 -233z" />
    <glyph glyph-name="Udieresis" unicode="&#xdc;" horiz-adv-x="1284" 
d="M653 111q183 0 258.5 92.5t75.5 263.5v762h150v-768q0 -237 -124.5 -360.5t-359.5 -123.5q-240 0 -371.5 123.5t-131.5 360.5v768h147v-750q0 -368 356 -368zM373 1364v166h168v-166h-168zM743 1364v166h166v-166h-166z" />
    <glyph glyph-name="Yacute" unicode="&#xdd;" horiz-adv-x="1081" 
d="M614 422v-422h-147v426l-473 780v23h158l378 -682h25l377 682h153v-23zM891 1499l-533 -141l-24 78l518 188z" />
    <glyph glyph-name="Thorn" unicode="&#xde;" horiz-adv-x="1079" 
d="M150 0v1229h147v-213h328q417 0 417 -381q0 -177 -108.5 -280t-308.5 -103h-328v-252h-147zM297 887v-506h313q148 0 216.5 61t68.5 191q0 136 -65 195t-222 59h-311z" />
    <glyph glyph-name="germandbls" unicode="&#xdf;" horiz-adv-x="1140" 
d="M705 -20q-108 0 -186 36.5t-140 114.5l65 111q48 -70 110 -100.5t146 -30.5q112 0 167 63.5t55 177.5q0 124 -78 192t-271 68h-133v123h109q112 0 184 62.5t72 185.5q0 101 -60.5 166t-183.5 65q-146 0 -209 -75t-63 -213v-926h-142v928q0 192 107.5 299.5t306.5 107.5
q187 0 284 -93t97 -234q0 -255 -258 -314v-24q209 -18 293 -98.5t84 -233.5q0 -162 -89 -260t-267 -98z" />
    <glyph glyph-name="agrave" unicode="&#xe0;" horiz-adv-x="1003" 
d="M377 -20q-143 0 -222 65t-79 197q0 124 85 201t249 77h327v88q0 123 -54 184.5t-179 61.5q-107 0 -169 -52.5t-87 -158.5l-135 35q33 141 134 218t259 77q371 0 371 -363v-610h-134v227h-16q-36 -120 -127 -183.5t-223 -63.5zM737 350v66h-311q-213 0 -213 -162
q0 -69 48 -113.5t155 -44.5q144 0 232.5 72t88.5 182zM705 1145l-35 -72l-496 236l62 112z" />
    <glyph glyph-name="aacute" unicode="&#xe1;" horiz-adv-x="1003" 
d="M377 -20q-143 0 -222 65t-79 197q0 124 85 201t249 77h327v88q0 123 -54 184.5t-179 61.5q-107 0 -169 -52.5t-87 -158.5l-135 35q33 141 134 218t259 77q371 0 371 -363v-610h-134v227h-16q-36 -120 -127 -183.5t-223 -63.5zM737 350v66h-311q-213 0 -213 -162
q0 -69 48 -113.5t155 -44.5q144 0 232.5 72t88.5 182zM840 1311l-496 -238l-35 72l471 274z" />
    <glyph glyph-name="acircumflex" unicode="&#xe2;" horiz-adv-x="1003" 
d="M377 -20q-143 0 -222 65t-79 197q0 124 85 201t249 77h327v88q0 123 -54 184.5t-179 61.5q-107 0 -169 -52.5t-87 -158.5l-135 35q33 141 134 218t259 77q371 0 371 -363v-610h-134v227h-16q-36 -120 -127 -183.5t-223 -63.5zM737 350v66h-311q-213 0 -213 -162
q0 -69 48 -113.5t155 -44.5q144 0 232.5 72t88.5 182zM739 1071l-239 217l-242 -217l-55 59l266 283h61l267 -283z" />
    <glyph glyph-name="atilde" unicode="&#xe3;" horiz-adv-x="1003" 
d="M377 -20q-143 0 -222 65t-79 197q0 124 85 201t249 77h327v88q0 123 -54 184.5t-179 61.5q-107 0 -169 -52.5t-87 -158.5l-135 35q33 141 134 218t259 77q371 0 371 -363v-610h-134v227h-16q-36 -120 -127 -183.5t-223 -63.5zM737 350v66h-311q-213 0 -213 -162
q0 -69 48 -113.5t155 -44.5q144 0 232.5 72t88.5 182zM354 1423q46 0 83 -22t60.5 -53.5t44.5 -62.5t46 -53t53 -22q46 0 63 48.5t15 156.5h80q6 -50 6 -92q0 -107 -43.5 -164t-114.5 -57q-43 0 -78.5 21.5t-59.5 53t-45.5 62.5t-47 52.5t-54.5 21.5q-50 0 -67.5 -44.5
t-15.5 -152.5h-80q-6 49 -6 88q0 108 43 163.5t118 55.5z" />
    <glyph glyph-name="adieresis" unicode="&#xe4;" horiz-adv-x="1003" 
d="M377 -20q-143 0 -222 65t-79 197q0 124 85 201t249 77h327v88q0 123 -54 184.5t-179 61.5q-107 0 -169 -52.5t-87 -158.5l-135 35q33 141 134 218t259 77q371 0 371 -363v-610h-134v227h-16q-36 -120 -127 -183.5t-223 -63.5zM737 350v66h-311q-213 0 -213 -162
q0 -69 48 -113.5t155 -44.5q144 0 232.5 72t88.5 182zM229 1137v166h168v-166h-168zM600 1137v166h166v-166h-166z" />
    <glyph glyph-name="aring" unicode="&#xe5;" horiz-adv-x="1003" 
d="M377 -20q-143 0 -222 65t-79 197q0 124 85 201t249 77h327v88q0 123 -54 184.5t-179 61.5q-107 0 -169 -52.5t-87 -158.5l-135 35q33 141 134 218t259 77q371 0 371 -363v-610h-134v227h-16q-36 -120 -127 -183.5t-223 -63.5zM737 350v66h-311q-213 0 -213 -162
q0 -69 48 -113.5t155 -44.5q144 0 232.5 72t88.5 182zM723 1296q0 -100 -60.5 -160.5t-162.5 -60.5q-104 0 -165 60.5t-61 160.5t61 161t165 61q102 0 162.5 -61t60.5 -161zM369 1296q0 -63 34.5 -98t96.5 -35q60 0 94.5 35t34.5 98q0 62 -34.5 96.5t-94.5 34.5
q-62 0 -96.5 -34t-34.5 -97z" />
    <glyph glyph-name="ae" unicode="&#xe6;" horiz-adv-x="1699" 
d="M778 256q-35 -137 -143 -208t-254 -71q-144 0 -224.5 67t-80.5 200q0 121 85 195.5t249 74.5h327v94q0 123 -54.5 184.5t-180.5 61.5q-204 0 -256 -211l-133 37q31 138 131 216.5t252 78.5q280 0 340 -227q47 110 142.5 168.5t223.5 58.5q207 0 316.5 -118.5
t109.5 -324.5q0 -24 -4 -90h-747q8 -165 92 -254.5t237 -89.5q68 0 119 17t84 50t53 70t35 87l125 -37q-79 -308 -414 -308q-161 0 -274 74t-156 205zM879 528h618q-5 163 -76 246.5t-221 83.5q-144 0 -226.5 -83.5t-94.5 -246.5zM737 350v82h-309q-105 0 -160 -45t-55 -131
q0 -70 47.5 -114t155.5 -44q146 0 233.5 71t87.5 181z" />
    <glyph glyph-name="ccedilla" unicode="&#xe7;" horiz-adv-x="1062" 
d="M969 631l-133 -29q-28 123 -96 184.5t-201 61.5q-154 0 -239 -95.5t-85 -277.5q0 -174 86 -272.5t244 -98.5q58 0 103.5 13.5t75 34.5t53.5 56t37.5 68t27.5 80l131 -34q-74 -345 -426 -345h-31l-33 -86q46 17 88 17q148 0 148 -113q0 -53 -42.5 -96t-139.5 -43
q-127 0 -207 59l45 70q77 -51 160 -51q50 0 74 18.5t24 46.5q0 58 -90 58q-38 0 -88 -13l-56 25l45 117q-177 29 -274.5 157t-97.5 332q0 233 128.5 366.5t340.5 133.5q189 0 292 -87t136 -257z" />
    <glyph glyph-name="egrave" unicode="&#xe8;" horiz-adv-x="1036" 
d="M543 -23q-221 0 -346 131.5t-125 364.5t127 367.5t340 134.5q206 0 315 -118t109 -320q0 -69 -5 -101h-745q8 -161 93 -249.5t237 -88.5q68 0 119 16.5t83.5 48t52.5 68.5t33 86l125 -36q-76 -304 -413 -304zM215 545h616q-13 313 -296 313q-141 0 -224 -79.5t-96 -233.5
zM731 1145l-35 -72l-495 236l61 112z" />
    <glyph glyph-name="eacute" unicode="&#xe9;" horiz-adv-x="1036" 
d="M543 -23q-221 0 -346 131.5t-125 364.5t127 367.5t340 134.5q206 0 315 -118t109 -320q0 -69 -5 -101h-745q8 -161 93 -249.5t237 -88.5q68 0 119 16.5t83.5 48t52.5 68.5t33 86l125 -36q-76 -304 -413 -304zM215 545h616q-13 313 -296 313q-141 0 -224 -79.5t-96 -233.5
zM866 1311l-495 -238l-35 72l471 274z" />
    <glyph glyph-name="ecircumflex" unicode="&#xea;" horiz-adv-x="1036" 
d="M543 -23q-221 0 -346 131.5t-125 364.5t127 367.5t340 134.5q206 0 315 -118t109 -320q0 -69 -5 -101h-745q8 -161 93 -249.5t237 -88.5q68 0 119 16.5t83.5 48t52.5 68.5t33 86l125 -36q-76 -304 -413 -304zM215 545h616q-13 313 -296 313q-141 0 -224 -79.5t-96 -233.5
zM766 1071l-240 217l-241 -217l-56 59l267 283h61l266 -283z" />
    <glyph glyph-name="edieresis" unicode="&#xeb;" horiz-adv-x="1036" 
d="M543 -23q-221 0 -346 131.5t-125 364.5t127 367.5t340 134.5q206 0 315 -118t109 -320q0 -69 -5 -101h-745q8 -161 93 -249.5t237 -88.5q68 0 119 16.5t83.5 48t52.5 68.5t33 86l125 -36q-76 -304 -413 -304zM215 545h616q-13 313 -296 313q-141 0 -224 -79.5t-96 -233.5
zM256 1137v166h168v-166h-168zM627 1137v166h166v-166h-166z" />
    <glyph glyph-name="igrave" unicode="&#xec;" horiz-adv-x="520" 
d="M330 952v-952h-140v952h140zM465 1145l-35 -72l-496 236l62 112z" />
    <glyph glyph-name="iacute" unicode="&#xed;" horiz-adv-x="520" 
d="M330 952v-952h-140v952h140zM598 1311l-496 -238l-34 72l471 274z" />
    <glyph glyph-name="icircumflex" unicode="&#xee;" horiz-adv-x="520" 
d="M330 952v-952h-140v952h140zM502 1071l-240 217l-242 -217l-55 59l266 283h62l266 -283z" />
    <glyph glyph-name="idieresis" unicode="&#xef;" horiz-adv-x="520" 
d="M330 952v-952h-140v952h140zM-8 1137v166h168v-166h-168zM362 1137v166h166v-166h-166z" />
    <glyph glyph-name="eth" unicode="&#xf0;" horiz-adv-x="1056" 
d="M526 -23q-213 0 -333.5 123.5t-120.5 350.5q0 222 112 341t301 119q120 0 207 -66.5t133 -182.5l21 6q-58 246 -287 434l-287 -111l-32 84l233 92q-81 58 -180 107l47 88q151 -68 258 -145l229 90l33 -88l-178 -70q303 -265 303 -643q0 -246 -122.5 -387.5t-336.5 -141.5
zM846 469q0 151 -88 240.5t-242 89.5q-147 0 -226 -88.5t-79 -255.5q0 -171 81 -262t236 -91q150 0 234 100t84 267zM862 569l-6 -2q0 -8 2 -12l6 -4q-2 6 -2 18z" />
    <glyph glyph-name="ntilde" unicode="&#xf1;" horiz-adv-x="1089" 
d="M274 952v-245h17q39 124 131.5 196t220.5 72q161 0 241.5 -95t80.5 -257v-623h-142v592q0 254 -229 254q-143 0 -230.5 -82t-87.5 -215v-549h-141v952h139zM406 1423q46 0 83 -22t60.5 -53.5t44 -62.5t45.5 -53t53 -22q46 0 63 48.5t15 156.5h80q6 -50 6 -92
q0 -107 -43.5 -164t-114.5 -57q-43 0 -78.5 21.5t-59 53t-45 62.5t-47 52.5t-54.5 21.5q-50 0 -68 -45t-16 -152h-80q-6 49 -6 88q0 108 43 163.5t119 55.5z" />
    <glyph glyph-name="ograve" unicode="&#xf2;" horiz-adv-x="1085" 
d="M543 -23q-224 0 -347.5 134t-123.5 368q0 231 127.5 363.5t343.5 132.5q213 0 342 -133.5t129 -362.5q0 -234 -123.5 -368t-347.5 -134zM543 850q-158 0 -244 -98t-86 -271q0 -177 83 -278t245 -101t246.5 101.5t84.5 277.5q0 174 -85.5 271.5t-243.5 97.5zM737 1145
l-35 -72l-495 236l61 112z" />
    <glyph glyph-name="oacute" unicode="&#xf3;" horiz-adv-x="1085" 
d="M543 -23q-224 0 -347.5 134t-123.5 368q0 231 127.5 363.5t343.5 132.5q213 0 342 -133.5t129 -362.5q0 -234 -123.5 -368t-347.5 -134zM543 850q-158 0 -244 -98t-86 -271q0 -177 83 -278t245 -101t246.5 101.5t84.5 277.5q0 174 -85.5 271.5t-243.5 97.5zM870 1311
l-495 -238l-35 72l471 274z" />
    <glyph glyph-name="ocircumflex" unicode="&#xf4;" horiz-adv-x="1085" 
d="M543 -23q-224 0 -347.5 134t-123.5 368q0 231 127.5 363.5t343.5 132.5q213 0 342 -133.5t129 -362.5q0 -234 -123.5 -368t-347.5 -134zM543 850q-158 0 -244 -98t-86 -271q0 -177 83 -278t245 -101t246.5 101.5t84.5 277.5q0 174 -85.5 271.5t-243.5 97.5zM774 1071
l-239 217l-242 -217l-55 59l266 283h61l266 -283z" />
    <glyph glyph-name="otilde" unicode="&#xf5;" horiz-adv-x="1085" 
d="M543 -23q-224 0 -347.5 134t-123.5 368q0 231 127.5 363.5t343.5 132.5q213 0 342 -133.5t129 -362.5q0 -234 -123.5 -368t-347.5 -134zM543 850q-158 0 -244 -98t-86 -271q0 -177 83 -278t245 -101t246.5 101.5t84.5 277.5q0 174 -85.5 271.5t-243.5 97.5zM391 1423
q46 0 83 -22t60.5 -53.5t44.5 -62.5t46 -53t53 -22q46 0 63 48.5t15 156.5h80q6 -50 6 -92q0 -107 -43.5 -164t-114.5 -57q-43 0 -78.5 21.5t-59.5 53t-45.5 62.5t-47 52.5t-54.5 21.5q-50 0 -68 -45t-16 -152h-79q-7 58 -7 88q0 108 43 163.5t119 55.5z" />
    <glyph glyph-name="odieresis" unicode="&#xf6;" horiz-adv-x="1085" 
d="M543 -23q-224 0 -347.5 134t-123.5 368q0 231 127.5 363.5t343.5 132.5q213 0 342 -133.5t129 -362.5q0 -234 -123.5 -368t-347.5 -134zM543 850q-158 0 -244 -98t-86 -271q0 -177 83 -278t245 -101t246.5 101.5t84.5 277.5q0 174 -85.5 271.5t-243.5 97.5zM264 1137v166
h168v-166h-168zM635 1137v166h166v-166h-166z" />
    <glyph glyph-name="divide" unicode="&#xf7;" horiz-adv-x="1011" 
d="M942 688v-129h-872v129h872zM430 215v156h156v-156h-156zM430 877v155h156v-155h-156z" />
    <glyph glyph-name="oslash" unicode="&#xf8;" horiz-adv-x="1085" 
d="M221 90l-84 -90h-119v12l144 146q-90 128 -90 321q0 231 127.5 363.5t343.5 132.5q193 0 319 -111l82 88h113v-12l-137 -139q94 -131 94 -322q0 -232 -127 -367t-344 -135q-200 0 -322 113zM829 707l-520 -529q85 -82 232 -82q166 0 253 103.5t87 281.5q0 138 -52 226z
M543 856q-163 0 -250.5 -98.5t-87.5 -276.5q0 -140 49 -231l520 526q-86 80 -231 80z" />
    <glyph glyph-name="ugrave" unicode="&#xf9;" horiz-adv-x="1089" 
d="M815 0v246h-16q-37 -124 -131 -196.5t-222 -72.5q-162 0 -241.5 94t-79.5 259v622h141v-594q0 -115 54.5 -183.5t175.5 -68.5q143 0 230 81t87 216v549h141v-952h-139zM745 1145l-34 -72l-496 236l61 112z" />
    <glyph glyph-name="uacute" unicode="&#xfa;" horiz-adv-x="1089" 
d="M815 0v246h-16q-37 -124 -131 -196.5t-222 -72.5q-162 0 -241.5 94t-79.5 259v622h141v-594q0 -115 54.5 -183.5t175.5 -68.5q143 0 230 81t87 216v549h141v-952h-139zM881 1311l-496 -238l-35 72l471 274z" />
    <glyph glyph-name="ucircumflex" unicode="&#xfb;" horiz-adv-x="1089" 
d="M815 0v246h-16q-37 -124 -131 -196.5t-222 -72.5q-162 0 -241.5 94t-79.5 259v622h141v-594q0 -115 54.5 -183.5t175.5 -68.5q143 0 230 81t87 216v549h141v-952h-139zM780 1071l-239 217l-242 -217l-55 59l266 283h61l267 -283z" />
    <glyph glyph-name="udieresis" unicode="&#xfc;" horiz-adv-x="1089" 
d="M815 0v246h-16q-37 -124 -131 -196.5t-222 -72.5q-162 0 -241.5 94t-79.5 259v622h141v-594q0 -115 54.5 -183.5t175.5 -68.5q143 0 230 81t87 216v549h141v-952h-139zM272 1137v166h168v-166h-168zM643 1137v166h166v-166h-166z" />
    <glyph glyph-name="yacute" unicode="&#xfd;" horiz-adv-x="968" 
d="M428 6l-420 946h156l133 -336q130 -328 190 -491h25q94 261 180 487l127 340h150l-414 -964q-75 -178 -168 -255t-233 -77q-70 0 -140 12l23 129q61 -12 121 -12q63 0 103.5 15t82.5 64t84 142zM825 1311l-495 -238l-35 72l471 274z" />
    <glyph glyph-name="thorn" unicode="&#xfe;" horiz-adv-x="1095" 
d="M1024 475q0 -239 -100 -368.5t-275 -129.5q-142 0 -233.5 76.5t-128.5 206.5h-11v-573h-141v1628h141v-619h13q38 129 124.5 204t225.5 75q186 0 285.5 -130t99.5 -370zM276 510v-72q0 -150 86 -243t228 -93q293 0 293 373q0 189 -72 280t-221 91q-143 0 -228.5 -90.5
t-85.5 -245.5z" />
    <glyph glyph-name="ydieresis" unicode="&#xff;" horiz-adv-x="968" 
d="M428 6l-420 946h156l133 -336q130 -328 190 -491h25q94 261 180 487l127 340h150l-414 -964q-75 -178 -168 -255t-233 -77q-70 0 -140 12l23 129q61 -12 121 -12q63 0 103.5 15t82.5 64t84 142zM217 1137v166h168v-166h-168zM588 1137v166h166v-166h-166z" />
    <glyph glyph-name="Amacron" unicode="&#x100;" horiz-adv-x="1181" 
d="M879 371h-580l-141 -371h-156l494 1229h192l492 -1229h-158zM614 1098h-49q-59 -189 -164 -459l-57 -152h490l-60 152q-90 233 -160 459zM311 1374v113h559v-113h-559z" />
    <glyph glyph-name="amacron" unicode="&#x101;" horiz-adv-x="1003" 
d="M377 -20q-143 0 -222 65t-79 197q0 124 85 201t249 77h327v88q0 123 -54 184.5t-179 61.5q-107 0 -169 -52.5t-87 -158.5l-135 35q33 141 134 218t259 77q371 0 371 -363v-610h-134v227h-16q-36 -120 -127 -183.5t-223 -63.5zM737 350v66h-311q-213 0 -213 -162
q0 -69 48 -113.5t155 -44.5q144 0 232.5 72t88.5 182zM221 1145v110h557v-110h-557z" />
    <glyph glyph-name="Abreve" unicode="&#x102;" horiz-adv-x="1181" 
d="M879 371h-580l-141 -371h-156l494 1229h192l492 -1229h-158zM614 1098h-49q-59 -189 -164 -459l-57 -152h490l-60 152q-90 233 -160 459zM592 1448q181 0 194 174h86q0 -142 -75 -211.5t-205 -69.5t-205.5 69.5t-75.5 211.5h86q13 -174 195 -174z" />
    <glyph glyph-name="abreve" unicode="&#x103;" horiz-adv-x="1003" 
d="M377 -20q-143 0 -222 65t-79 197q0 124 85 201t249 77h327v88q0 123 -54 184.5t-179 61.5q-107 0 -169 -52.5t-87 -158.5l-135 35q33 141 134 218t259 77q371 0 371 -363v-610h-134v227h-16q-36 -120 -127 -183.5t-223 -63.5zM737 350v66h-311q-213 0 -213 -162
q0 -69 48 -113.5t155 -44.5q144 0 232.5 72t88.5 182zM500 1198q181 0 194 203h86q0 -155 -74 -231t-206 -76t-206.5 76t-74.5 231h86q7 -108 59.5 -155.5t135.5 -47.5z" />
    <glyph glyph-name="Aogonek" unicode="&#x104;" horiz-adv-x="1181" 
d="M688 1229l492 -1229q-128 -25 -186 -58.5t-58 -86.5q0 -80 133 -80q42 0 111 16l6 -113q-71 -12 -127 -12q-114 0 -168.5 39.5t-54.5 110.5q0 65 55 111.5t151 72.5h-20l-143 371h-580l-141 -371h-156l494 1229h192zM401 639l-57 -152h490l-60 152q-90 233 -160 459h-49
q-59 -189 -164 -459z" />
    <glyph glyph-name="aogonek" unicode="&#x105;" horiz-adv-x="1015" 
d="M377 -20q-143 0 -222 65t-79 197q0 124 85 201t249 77h327v88q0 123 -54 184.5t-179 61.5q-107 0 -169 -52.5t-87 -158.5l-135 35q33 141 134 218t259 77q371 0 371 -363v-610q-130 -25 -188 -58.5t-58 -86.5q0 -80 133 -80q44 0 110 16l7 -113q-67 -12 -125 -12
q-114 0 -169 39.5t-55 110.5q0 127 211 186v225h-16q-36 -120 -127 -183.5t-223 -63.5zM737 350v66h-311q-213 0 -213 -162q0 -69 48 -113.5t155 -44.5q144 0 232.5 72t88.5 182z" />
    <glyph glyph-name="Cacute" unicode="&#x106;" horiz-adv-x="1275" 
d="M649 -23q-276 0 -426.5 171.5t-150.5 467.5q0 293 154 464t427 171q229 0 369 -120.5t176 -335.5l-139 -29q-73 352 -406 352q-215 0 -324.5 -134.5t-109.5 -367.5q0 -240 108 -373.5t322 -133.5q179 0 279.5 92.5t136.5 271.5l141 -29q-36 -219 -178.5 -343t-378.5 -124
zM999 1499l-532 -141l-25 78l519 188z" />
    <glyph glyph-name="cacute" unicode="&#x107;" horiz-adv-x="1046" 
d="M969 631l-133 -29q-28 123 -96 184.5t-201 61.5q-154 0 -239 -95.5t-85 -277.5q0 -174 86 -272.5t244 -98.5q58 0 103.5 13.5t75 34.5t53.5 56t37.5 68t27.5 80l131 -34q-74 -345 -426 -345q-223 0 -349 132.5t-126 365.5t128.5 366.5t340.5 133.5q189 0 292 -87
t136 -257zM874 1311l-495 -238l-35 72l471 274z" />
    <glyph glyph-name="Ccircumflex" unicode="&#x108;" horiz-adv-x="1275" 
d="M649 -23q-276 0 -426.5 171.5t-150.5 467.5q0 293 154 464t427 171q229 0 369 -120.5t176 -335.5l-139 -29q-73 352 -406 352q-215 0 -324.5 -134.5t-109.5 -367.5q0 -240 108 -373.5t322 -133.5q179 0 279.5 92.5t136.5 271.5l141 -29q-36 -219 -178.5 -343t-378.5 -124
zM889 1329l-244 178l-246 -178l-49 64l264 233h62l264 -233z" />
    <glyph glyph-name="ccircumflex" unicode="&#x109;" horiz-adv-x="1046" 
d="M969 631l-133 -29q-28 123 -96 184.5t-201 61.5q-154 0 -239 -95.5t-85 -277.5q0 -174 86 -272.5t244 -98.5q58 0 103.5 13.5t75 34.5t53.5 56t37.5 68t27.5 80l131 -34q-74 -345 -426 -345q-223 0 -349 132.5t-126 365.5t128.5 366.5t340.5 133.5q189 0 292 -87
t136 -257zM776 1071l-239 217l-242 -217l-55 59l266 283h61l267 -283z" />
    <glyph glyph-name="Cdotaccent" unicode="&#x10a;" horiz-adv-x="1275" 
d="M649 -23q-276 0 -426.5 171.5t-150.5 467.5q0 293 154 464t427 171q229 0 369 -120.5t176 -335.5l-139 -29q-73 352 -406 352q-215 0 -324.5 -134.5t-109.5 -367.5q0 -240 108 -373.5t322 -133.5q179 0 279.5 92.5t136.5 271.5l141 -29q-36 -219 -178.5 -343t-378.5 -124
zM557 1401v174h178v-174h-178z" />
    <glyph glyph-name="cdotaccent" unicode="&#x10b;" horiz-adv-x="1046" 
d="M969 631l-133 -29q-28 123 -96 184.5t-201 61.5q-154 0 -239 -95.5t-85 -277.5q0 -174 86 -272.5t244 -98.5q58 0 103.5 13.5t75 34.5t53.5 56t37.5 68t27.5 80l131 -34q-74 -345 -426 -345q-223 0 -349 132.5t-126 365.5t128.5 366.5t340.5 133.5q189 0 292 -87
t136 -257zM449 1155v174h178v-174h-178z" />
    <glyph glyph-name="Ccaron" unicode="&#x10c;" horiz-adv-x="1275" 
d="M649 -23q-276 0 -426.5 171.5t-150.5 467.5q0 293 154 464t427 171q229 0 369 -120.5t176 -335.5l-139 -29q-73 352 -406 352q-215 0 -324.5 -134.5t-109.5 -367.5q0 -240 108 -373.5t322 -133.5q179 0 279.5 92.5t136.5 271.5l141 -29q-36 -219 -178.5 -343t-378.5 -124
zM401 1632l244 -178l246 178l49 -61l-264 -234h-64l-262 234z" />
    <glyph glyph-name="ccaron" unicode="&#x10d;" horiz-adv-x="1046" 
d="M969 631l-133 -29q-28 123 -96 184.5t-201 61.5q-154 0 -239 -95.5t-85 -277.5q0 -174 86 -272.5t244 -98.5q58 0 103.5 13.5t75 34.5t53.5 56t37.5 68t27.5 80l131 -34q-74 -345 -426 -345q-223 0 -349 132.5t-126 365.5t128.5 366.5t340.5 133.5q189 0 292 -87
t136 -257zM295 1425l240 -217l239 217l57 -57l-266 -283h-63l-264 283z" />
    <glyph glyph-name="Dcaron" unicode="&#x10e;" horiz-adv-x="1292" 
d="M616 0h-466v1229h460q306 0 459.5 -155t153.5 -453q0 -291 -162 -456t-445 -165zM297 1102v-975h307q471 0 471 494q0 247 -116.5 364t-368.5 117h-293zM401 1632l244 -178l246 178l49 -61l-264 -234h-64l-262 234z" />
    <glyph glyph-name="dcaron" unicode="&#x10f;" horiz-adv-x="1228" 
d="M72 473q0 243 100 372.5t281 129.5q272 0 354 -281h12v621h139v-1315h-139v256h-12q-37 -127 -128.5 -203t-227.5 -76q-183 0 -281 128.5t-98 367.5zM819 436v74q0 150 -85.5 243t-227.5 93q-295 0 -295 -373q0 -369 295 -369q142 0 227.5 90t85.5 242zM1085 801l25 514
h123l-55 -514h-93z" />
    <glyph glyph-name="Dcroat" unicode="&#x110;" horiz-adv-x="1363" 
d="M55 561v107h164v561h463q306 0 459 -155t153 -453q0 -291 -162 -456t-444 -165h-469v561h-164zM369 1102v-434h368v-107h-368v-434h307q471 0 471 494q0 247 -116.5 364t-368.5 117h-293z" />
    <glyph glyph-name="dcroat" unicode="&#x111;" horiz-adv-x="1122" 
d="M1085 1192v-96h-127v-1096h-139v256h-12q-37 -127 -128.5 -203t-227.5 -76q-183 0 -281 128.5t-98 367.5q0 243 100 372.5t281 129.5q272 0 354 -281h12v402h-309v96h309v123h139v-123h127zM819 436v74q0 150 -85.5 243t-227.5 93q-295 0 -295 -373q0 -369 295 -369
q142 0 227.5 90t85.5 242z" />
    <glyph glyph-name="Emacron" unicode="&#x112;" horiz-adv-x="1083" 
d="M975 0h-678h-150v1229h828v-133h-678v-404h606v-131h-606v-428h678v-133zM291 1374v113h559v-113h-559z" />
    <glyph glyph-name="emacron" unicode="&#x113;" horiz-adv-x="1036" 
d="M543 -23q-221 0 -346 131.5t-125 364.5t127 367.5t340 134.5q206 0 315 -118t109 -320q0 -69 -5 -101h-745q8 -161 93 -249.5t237 -88.5q68 0 119 16.5t83.5 48t52.5 68.5t33 86l125 -36q-76 -304 -413 -304zM215 545h616q-13 313 -296 313q-141 0 -224 -79.5t-96 -233.5
zM248 1145v110h557v-110h-557z" />
    <glyph glyph-name="Ebreve" unicode="&#x114;" horiz-adv-x="1083" 
d="M975 0h-678h-150v1229h828v-133h-678v-404h606v-131h-606v-428h678v-133zM569 1448q182 0 195 174h86q0 -142 -75.5 -211.5t-205.5 -69.5t-205 69.5t-75 211.5h86q13 -174 194 -174z" />
    <glyph glyph-name="ebreve" unicode="&#x115;" horiz-adv-x="1036" 
d="M543 -23q-221 0 -346 131.5t-125 364.5t127 367.5t340 134.5q206 0 315 -118t109 -320q0 -69 -5 -101h-745q8 -161 93 -249.5t237 -88.5q68 0 119 16.5t83.5 48t52.5 68.5t33 86l125 -36q-76 -304 -413 -304zM215 545h616q-13 313 -296 313q-141 0 -224 -79.5t-96 -233.5
zM526 1198q83 0 135.5 47.5t59.5 155.5h86q0 -155 -74.5 -231t-206.5 -76t-206 76t-74 231h86q13 -203 194 -203z" />
    <glyph glyph-name="Edotaccent" unicode="&#x116;" horiz-adv-x="1083" 
d="M975 0h-678h-150v1229h828v-133h-678v-404h606v-131h-606v-428h678v-133zM481 1401v174h178v-174h-178z" />
    <glyph glyph-name="edotaccent" unicode="&#x117;" horiz-adv-x="1036" 
d="M543 -23q-221 0 -346 131.5t-125 364.5t127 367.5t340 134.5q206 0 315 -118t109 -320q0 -69 -5 -101h-745q8 -161 93 -249.5t237 -88.5q68 0 119 16.5t83.5 48t52.5 68.5t33 86l125 -36q-76 -304 -413 -304zM215 545h616q-13 313 -296 313q-141 0 -224 -79.5t-96 -233.5
zM438 1155v174h178v-174h-178z" />
    <glyph glyph-name="Eogonek" unicode="&#x118;" horiz-adv-x="1083" 
d="M838 0h-541h-147v1229h825v-133h-678v-410h606v-119h-606v-434h678v-133q-130 -25 -188 -58.5t-58 -86.5q0 -80 133 -80q42 0 111 16l6 -113q-70 -12 -127 -12q-113 0 -167 39.5t-54 110.5q0 65 55 111.5t152 72.5z" />
    <glyph glyph-name="eogonek" unicode="&#x119;" horiz-adv-x="1036" 
d="M543 -23q-221 0 -346 131.5t-125 364.5t127 367.5t340 134.5q206 0 315 -118t109 -320q0 -69 -5 -101h-745q8 -161 93 -249.5t237 -88.5q68 0 119 16.5t83.5 48t52.5 68.5t33 86l125 -36q-2 -6 -2 -15q-22 -83 -65.5 -141.5t-114.5 -110.5q-117 -84 -117 -176
q0 -50 41.5 -72t104.5 -22q50 0 110 14l7 -118q-79 -11 -123 -11q-123 0 -182.5 45t-59.5 117q0 107 152 209q-77 -23 -164 -23zM215 545h616q-13 313 -296 313q-141 0 -224 -79.5t-96 -233.5z" />
    <glyph glyph-name="Ecaron" unicode="&#x11a;" horiz-adv-x="1083" 
d="M975 0h-678h-150v1229h828v-133h-678v-404h606v-131h-606v-428h678v-133zM326 1632l243 -178l246 178l49 -61l-264 -234h-63l-263 234z" />
    <glyph glyph-name="ecaron" unicode="&#x11b;" horiz-adv-x="1036" 
d="M543 -23q-221 0 -346 131.5t-125 364.5t127 367.5t340 134.5q206 0 315 -118t109 -320q0 -69 -5 -101h-745q8 -161 93 -249.5t237 -88.5q68 0 119 16.5t83.5 48t52.5 68.5t33 86l125 -36q-76 -304 -413 -304zM215 545h616q-13 313 -296 313q-141 0 -224 -79.5t-96 -233.5
zM287 1425l239 -217l240 217l57 -57l-266 -283h-63l-265 283z" />
    <glyph glyph-name="Gcircumflex" unicode="&#x11c;" horiz-adv-x="1312" 
d="M623 -20q-260 0 -410 159.5t-150 460.5q0 197 65 342t198.5 227t324.5 82q233 0 369 -117t174 -331l-139 -31q-38 177 -136.5 261.5t-265.5 84.5q-228 0 -334 -136.5t-106 -381.5q0 -235 110.5 -363t338.5 -128q115 0 197 29.5t126 82t63 113t19 135.5l2 -4l-2 22h-410
v129h551v-616h-139v281h-14q-47 -135 -153 -218t-279 -83zM891 1329l-244 178l-246 -178l-49 64l264 233h62l264 -233z" />
    <glyph glyph-name="gcircumflex" unicode="&#x11d;" horiz-adv-x="1017" 
d="M225 283l72 49q-100 35 -153.5 110t-53.5 179q0 160 106 245.5t298 85.5h452v-116h-117q-68 0 -200 12l-2 -17q247 -49 247 -235q0 -141 -101 -216t-296 -75q-89 0 -160 21l-34 -52q-31 -46 -31 -69q0 -60 104 -60q55 0 166 1t164 1q140 0 213.5 -58t73.5 -165
q0 -93 -43 -149.5t-149 -86.5t-287 -30q-132 0 -223 14t-143 41.5t-74.5 64.5t-22.5 87q0 63 54 107.5t157 64.5v10q-107 24 -107 119q0 62 90 117zM477 834q-130 0 -193 -55.5t-63 -155.5q0 -103 61 -156t197 -53q269 0 269 209q0 99 -71 155t-200 56zM688 37h-350
q-91 0 -138.5 -40t-47.5 -93q0 -73 74 -103t272 -30q142 0 220.5 17t106 48t27.5 84t-41 85t-123 32zM737 1071l-239 217l-242 -217l-55 59l266 283h61l267 -283z" />
    <glyph glyph-name="Gbreve" unicode="&#x11e;" horiz-adv-x="1312" 
d="M623 -20q-260 0 -410 159.5t-150 460.5q0 197 65 342t198.5 227t324.5 82q233 0 369 -117t174 -331l-139 -31q-38 177 -136.5 261.5t-265.5 84.5q-228 0 -334 -136.5t-106 -381.5q0 -235 110.5 -363t338.5 -128q115 0 197 29.5t126 82t63 113t19 135.5l2 -4l-2 22h-410
v129h551v-616h-139v281h-14q-47 -135 -153 -218t-279 -83zM647 1448q182 0 195 174h86q0 -142 -75.5 -211.5t-205.5 -69.5t-205 69.5t-75 211.5h86q13 -174 194 -174z" />
    <glyph glyph-name="gbreve" unicode="&#x11f;" horiz-adv-x="1017" 
d="M225 283l72 49q-100 35 -153.5 110t-53.5 179q0 160 106 245.5t298 85.5h452v-116h-117q-68 0 -200 12l-2 -17q247 -49 247 -235q0 -141 -101 -216t-296 -75q-89 0 -160 21l-34 -52q-31 -46 -31 -69q0 -60 104 -60q55 0 166 1t164 1q140 0 213.5 -58t73.5 -165
q0 -93 -43 -149.5t-149 -86.5t-287 -30q-132 0 -223 14t-143 41.5t-74.5 64.5t-22.5 87q0 63 54 107.5t157 64.5v10q-107 24 -107 119q0 62 90 117zM477 834q-130 0 -193 -55.5t-63 -155.5q0 -103 61 -156t197 -53q269 0 269 209q0 99 -71 155t-200 56zM688 37h-350
q-91 0 -138.5 -40t-47.5 -93q0 -73 74 -103t272 -30q142 0 220.5 17t106 48t27.5 84t-41 85t-123 32zM498 1198q181 0 194 203h86q0 -155 -74 -231t-206 -76t-206.5 76t-74.5 231h86q7 -108 59.5 -155.5t135.5 -47.5z" />
    <glyph glyph-name="Gdotaccent" unicode="&#x120;" horiz-adv-x="1312" 
d="M623 -20q-260 0 -410 159.5t-150 460.5q0 197 65 342t198.5 227t324.5 82q233 0 369 -117t174 -331l-139 -31q-38 177 -136.5 261.5t-265.5 84.5q-228 0 -334 -136.5t-106 -381.5q0 -235 110.5 -363t338.5 -128q115 0 197 29.5t126 82t63 113t19 135.5l2 -4l-2 22h-410
v129h551v-616h-139v281h-14q-47 -135 -153 -218t-279 -83zM559 1401v174h178v-174h-178z" />
    <glyph glyph-name="gdotaccent" unicode="&#x121;" horiz-adv-x="1017" 
d="M225 283l72 49q-100 35 -153.5 110t-53.5 179q0 160 106 245.5t298 85.5h452v-116h-117q-68 0 -200 12l-2 -17q247 -49 247 -235q0 -141 -101 -216t-296 -75q-89 0 -160 21l-34 -52q-31 -46 -31 -69q0 -60 104 -60q55 0 166 1t164 1q140 0 213.5 -58t73.5 -165
q0 -93 -43 -149.5t-149 -86.5t-287 -30q-132 0 -223 14t-143 41.5t-74.5 64.5t-22.5 87q0 63 54 107.5t157 64.5v10q-107 24 -107 119q0 62 90 117zM477 834q-130 0 -193 -55.5t-63 -155.5q0 -103 61 -156t197 -53q269 0 269 209q0 99 -71 155t-200 56zM688 37h-350
q-91 0 -138.5 -40t-47.5 -93q0 -73 74 -103t272 -30q142 0 220.5 17t106 48t27.5 84t-41 85t-123 32zM410 1155v174h178v-174h-178z" />
    <glyph glyph-name="uni0122" unicode="&#x122;" horiz-adv-x="1312" 
d="M623 -20q-260 0 -410 159.5t-150 460.5q0 197 65 342t198.5 227t324.5 82q233 0 369 -117t174 -331l-139 -31q-38 177 -136.5 261.5t-265.5 84.5q-228 0 -334 -136.5t-106 -381.5q0 -235 110.5 -363t338.5 -128q115 0 197 29.5t126 82t63 113t19 135.5l2 -4l-2 22h-410
v129h551v-616h-139v281h-14q-47 -135 -153 -218t-279 -83zM526 -416l92 299h140l-127 -317h-105v18z" />
    <glyph glyph-name="uni0123" unicode="&#x123;" horiz-adv-x="1017" 
d="M225 283l72 49q-100 35 -153.5 110t-53.5 179q0 160 106 245.5t298 85.5h452v-116h-117q-68 0 -200 12l-2 -17q247 -49 247 -235q0 -141 -101 -216t-296 -75q-89 0 -160 21l-34 -52q-31 -46 -31 -69q0 -60 104 -60q55 0 166 1t164 1q140 0 213.5 -58t73.5 -165
q0 -93 -43 -149.5t-149 -86.5t-287 -30q-132 0 -223 14t-143 41.5t-74.5 64.5t-22.5 87q0 63 54 107.5t157 64.5v10q-107 24 -107 119q0 62 90 117zM477 834q-130 0 -193 -55.5t-63 -155.5q0 -103 61 -156t197 -53q269 0 269 209q0 99 -71 155t-200 56zM688 37h-350
q-91 0 -138.5 -40t-47.5 -93q0 -73 74 -103t272 -30q142 0 220.5 17t106 48t27.5 84t-41 85t-123 32zM678 1391l-92 -299h-140l127 317h105v-18z" />
    <glyph glyph-name="Hcircumflex" unicode="&#x124;" horiz-adv-x="1304" 
d="M150 0v1229h147v-549h711v549h147v-1229h-147v547h-711v-547h-147zM897 1329l-244 178l-245 -178l-50 64l265 233h61l264 -233z" />
    <glyph glyph-name="hcircumflex" unicode="&#x125;" horiz-adv-x="1089" 
d="M276 1315v-608h15q39 125 131 196.5t225 71.5q159 0 238.5 -95t79.5 -257v-623h-142v592q0 117 -54.5 185.5t-172.5 68.5q-143 0 -231.5 -82t-88.5 -215v-549h-141v1315h141zM455 1339l-244 179l-246 -179l-49 64l264 233h62l264 -233z" />
    <glyph glyph-name="Hbar" unicode="&#x126;" horiz-adv-x="1384" 
d="M188 993v236h150v-236h709v236h149v-236h147v-112h-147v-881h-149v516h-709v-516h-150v881h-147v112h147zM1047 881h-709v-234h709v234z" />
    <glyph glyph-name="hbar" unicode="&#x127;" horiz-adv-x="1112" 
d="M621 1192v-98h-322v-387h14q39 125 131.5 196.5t225.5 71.5q158 0 237.5 -95t79.5 -257v-623h-141v592q0 117 -55 185.5t-173 68.5q-143 0 -231 -82t-88 -215v-549h-141v1094h-121v98h121v123h141v-123h322z" />
    <glyph glyph-name="Itilde" unicode="&#x128;" horiz-adv-x="446" 
d="M297 1229v-1229h-147v1229h147zM80 1669q46 0 83 -22t60.5 -53.5t44.5 -62.5t46 -53t53 -22q46 0 62.5 48t14.5 157h80q6 -49 6 -92q0 -107 -43 -164t-114 -57q-43 0 -78.5 21.5t-59.5 53t-45.5 62.5t-47 52.5t-54.5 21.5q-50 0 -68 -45t-16 -152h-80q-6 50 -6 88
q0 108 43 163.5t119 55.5z" />
    <glyph glyph-name="itilde" unicode="&#x129;" horiz-adv-x="520" 
d="M330 952v-952h-140v952h140zM117 1423q46 0 83 -22t60.5 -53.5t44 -62.5t45.5 -53t53 -22q46 0 63 48.5t15 156.5h80q6 -50 6 -92q0 -107 -43 -164t-114 -57q-43 0 -78.5 21.5t-59.5 53t-45.5 62.5t-47 52.5t-54.5 21.5q-50 0 -68 -45t-16 -152h-80q-6 50 -6 88
q0 108 43 163.5t119 55.5z" />
    <glyph glyph-name="Imacron" unicode="&#x12a;" horiz-adv-x="446" 
d="M297 1229v-1229h-147v1229h147zM-57 1374v113h559v-113h-559z" />
    <glyph glyph-name="imacron" unicode="&#x12b;" horiz-adv-x="520" 
d="M330 952v-952h-140v952h140zM-18 1145v110h557v-110h-557z" />
    <glyph glyph-name="Ibreve" unicode="&#x12c;" horiz-adv-x="446" 
d="M297 1229v-1229h-147v1229h147zM223 1448q182 0 195 174h86q0 -142 -75.5 -211.5t-205.5 -69.5t-205 69.5t-75 211.5h86q13 -174 194 -174z" />
    <glyph glyph-name="ibreve" unicode="&#x12d;" horiz-adv-x="520" 
d="M330 952v-952h-140v952h140zM260 1198q83 0 135.5 47.5t59.5 155.5h86q0 -155 -74.5 -231t-206.5 -76t-206 76t-74 231h86q13 -203 194 -203z" />
    <glyph glyph-name="Iogonek" unicode="&#x12e;" horiz-adv-x="446" 
d="M297 1229v-1229q-130 -25 -188 -58.5t-58 -86.5q0 -80 133 -80q45 0 111 16l6 -113q-67 -12 -125 -12q-114 0 -168.5 39.5t-54.5 110.5q0 65 55.5 111.5t151.5 72.5h-10v1229h147z" />
    <glyph glyph-name="iogonek" unicode="&#x12f;" horiz-adv-x="456" 
d="M299 952v-952h-141v952h141zM315 1298v-143h-174v143h174zM262 20l37 -20q-129 -25 -186.5 -58.5t-57.5 -86.5q0 -80 133 -80q43 0 109 16l6 -113q-67 -12 -125 -12q-114 0 -168.5 39.5t-54.5 110.5q0 157 307 204z" />
    <glyph glyph-name="Idotaccent" unicode="&#x130;" horiz-adv-x="446" 
d="M297 1229v-1229h-147v1229h147zM135 1401v174h178v-174h-178z" />
    <glyph glyph-name="dotlessi" unicode="&#x131;" horiz-adv-x="520" 
d="M330 952v-952h-140v952h140z" />
    <glyph glyph-name="IJ" unicode="&#x132;" horiz-adv-x="1069" 
d="M297 1229v-1229h-147v1229h147zM774 309v920h148v-918q0 -327 -297 -327q-81 0 -152 14l8 131q71 -12 127 -12q166 0 166 192z" />
    <glyph glyph-name="ij" unicode="&#x133;" horiz-adv-x="935" 
d="M299 952v-952h-141v952h141zM315 1298v-143h-174v143h174zM778 950v-970q0 -147 -66.5 -230.5t-197.5 -83.5q-52 0 -94 10l8 125q41 -8 82 -8q129 0 129 176v981h139zM795 1298v-143h-172v143h172z" />
    <glyph glyph-name="Jcircumflex" unicode="&#x134;" horiz-adv-x="622" 
d="M328 309v920h147v-918q0 -327 -297 -327q-80 0 -151 14l8 131q71 -12 127 -12q166 0 166 192zM657 1329l-243 178l-246 -178l-49 64l264 233h61l265 -233z" />
    <glyph glyph-name="jcircumflex" unicode="&#x135;" horiz-adv-x="483" 
d="M322 950v-977q0 -147 -66.5 -230t-198.5 -83q-18 0 -35.5 1.5t-34 3.5t-24.5 3l8 127q41 -8 82 -8q129 0 129 176v987h140zM455 1102l-205 184l-203 -184l-55 55l227 248h64l225 -248z" />
    <glyph glyph-name="uni0136" unicode="&#x136;" horiz-adv-x="1140" 
d="M150 0v1229h147v-582h96l545 582h168v-23l-598 -612l631 -571v-23h-174l-566 520h-102v-520h-147zM438 -416l92 299h140l-127 -317h-105v18z" />
    <glyph glyph-name="uni0137" unicode="&#x137;" horiz-adv-x="970" 
d="M147 1315h140v-780h100l383 417h162v-22l-432 -449l473 -458v-23h-164l-418 422h-104v-422h-140v1315zM379 -416l92 299h139l-127 -317h-104v18z" />
    <glyph glyph-name="kgreenlandic" unicode="&#x138;" horiz-adv-x="970" 
d="M147 952h140v-417h100l383 417h162v-22l-432 -449l473 -458v-23h-164l-418 422h-104v-422h-140v952z" />
    <glyph glyph-name="Lacute" unicode="&#x139;" horiz-adv-x="933" 
d="M150 1229h147v-1094h592v-135h-739v1229zM745 1499l-532 -141l-25 78l519 188z" />
    <glyph glyph-name="lacute" unicode="&#x13a;" horiz-adv-x="434" 
d="M147 1315h140v-1315h-140v1315zM594 1524l-533 -142l-24 78l518 189z" />
    <glyph glyph-name="uni013B" unicode="&#x13b;" horiz-adv-x="933" 
d="M150 1229h147v-1094h592v-135h-739v1229zM379 -416l92 299h139l-127 -317h-104v18z" />
    <glyph glyph-name="uni013C" unicode="&#x13c;" horiz-adv-x="434" 
d="M147 1315h140v-1315h-140v1315zM74 -416l92 299h139l-127 -317h-104v18z" />
    <glyph glyph-name="Lcaron" unicode="&#x13d;" horiz-adv-x="933" 
d="M150 1229h147v-1094h592v-135h-739v1229zM711 729l24 514h123l-55 -514h-92z" />
    <glyph glyph-name="lcaron" unicode="&#x13e;" horiz-adv-x="552" 
d="M147 1315h140v-1315h-140v1315zM403 801l25 514h123l-55 -514h-93z" />
    <glyph glyph-name="Ldot" unicode="&#x13f;" horiz-adv-x="933" 
d="M150 1229h147v-1094h592v-135h-739v1229zM672 602v170h178v-170h-178z" />
    <glyph glyph-name="ldot" unicode="&#x140;" horiz-adv-x="655" 
d="M147 1315h140v-1315h-140v1315zM467 571v174h178v-174h-178z" />
    <glyph glyph-name="Lslash" unicode="&#x141;" horiz-adv-x="962" 
d="M39 399v109l139 72v649h148v-574l344 179l-2 -111l-342 -176v-412h592v-135h-740v469z" />
    <glyph glyph-name="lslash" unicode="&#x142;" horiz-adv-x="518" 
d="M18 381v111l168 92v731h142v-653l172 94v-111l-172 -94v-551h-142v473z" />
    <glyph glyph-name="Nacute" unicode="&#x143;" horiz-adv-x="1300" 
d="M1153 0h-199l-407 657q-100 158 -230 433l-45 -3q19 -263 19 -598v-489h-144v1229h222l358 -578q130 -212 262 -487h41q-18 369 -18 575v490h141v-1229zM1001 1499l-532 -141l-25 78l519 188z" />
    <glyph glyph-name="nacute" unicode="&#x144;" horiz-adv-x="1089" 
d="M274 952v-245h17q39 124 131.5 196t220.5 72q161 0 241.5 -95t80.5 -257v-623h-142v592q0 254 -229 254q-143 0 -230.5 -82t-87.5 -215v-549h-141v952h139zM891 1311l-496 -238l-35 72l471 274z" />
    <glyph glyph-name="uni0145" unicode="&#x145;" horiz-adv-x="1300" 
d="M1153 0h-199l-407 657q-100 158 -230 433l-45 -3q19 -263 19 -598v-489h-144v1229h222l358 -578q130 -212 262 -487h41q-18 369 -18 575v490h141v-1229zM522 -416l92 299h140l-127 -317h-105v18z" />
    <glyph glyph-name="uni0146" unicode="&#x146;" horiz-adv-x="1089" 
d="M274 952v-245h17q39 124 131.5 196t220.5 72q161 0 241.5 -95t80.5 -257v-623h-142v592q0 254 -229 254q-143 0 -230.5 -82t-87.5 -215v-549h-141v952h139zM422 -416l92 299h139l-127 -317h-104v18z" />
    <glyph glyph-name="Ncaron" unicode="&#x147;" horiz-adv-x="1300" 
d="M1153 0h-199l-407 657q-100 158 -230 433l-45 -3q19 -263 19 -598v-489h-144v1229h222l358 -578q130 -212 262 -487h41q-18 369 -18 575v490h141v-1229zM408 1632l243 -178l246 178l49 -61l-264 -234h-64l-262 234z" />
    <glyph glyph-name="ncaron" unicode="&#x148;" horiz-adv-x="1089" 
d="M274 952v-245h17q39 124 131.5 196t220.5 72q161 0 241.5 -95t80.5 -257v-623h-142v592q0 254 -229 254q-143 0 -230.5 -82t-87.5 -215v-549h-141v952h139zM311 1425l240 -217l240 217l57 -57l-266 -283h-64l-264 283z" />
    <glyph glyph-name="napostrophe" unicode="&#x149;" horiz-adv-x="1359" 
d="M68 692l96 537h151l-165 -549h-82v12zM477 952v-245h17q39 124 131.5 196t220.5 72q161 0 241 -95t80 -257v-623h-141v592q0 254 -229 254q-143 0 -230.5 -82t-87.5 -215v-549h-141v952h139z" />
    <glyph glyph-name="Eng" unicode="&#x14a;" horiz-adv-x="1300" 
d="M291 0h-141v1229h219l391 -604q97 -148 239 -426l31 2q-18 284 -18 542v486h141v-1243q0 -320 -297 -320q-75 0 -151 15l8 124q70 -12 131 -12q88 0 127 46.5t39 137.5v13l-447 667q-119 180 -246 428h-45q19 -266 19 -596v-489z" />
    <glyph glyph-name="eng" unicode="&#x14b;" horiz-adv-x="1089" 
d="M823 -31v623q0 256 -229 256q-143 0 -230.5 -82t-87.5 -217v-549h-141v952h139v-245h17q39 124 131.5 196t220.5 72q161 0 241.5 -95t80.5 -257v-643q0 -147 -67 -230.5t-198 -83.5q-52 0 -94 10l8 125q39 -8 82 -8q127 0 127 176z" />
    <glyph glyph-name="Omacron" unicode="&#x14c;" horiz-adv-x="1347" 
d="M674 -23q-286 0 -445 175t-159 464q0 288 160 461.5t444 173.5t444 -173.5t160 -461.5q0 -289 -159 -464t-445 -175zM674 109q226 0 341 137t115 370q0 231 -115 366.5t-341 135.5q-224 0 -340.5 -136t-116.5 -366q0 -233 115.5 -370t341.5 -137zM395 1374v113h559v-113
h-559z" />
    <glyph glyph-name="omacron" unicode="&#x14d;" horiz-adv-x="1085" 
d="M543 -23q-224 0 -347.5 134t-123.5 368q0 231 127.5 363.5t343.5 132.5q213 0 342 -133.5t129 -362.5q0 -234 -123.5 -368t-347.5 -134zM543 850q-158 0 -244 -98t-86 -271q0 -177 83 -278t245 -101t246.5 101.5t84.5 277.5q0 174 -85.5 271.5t-243.5 97.5zM256 1145v110
h557v-110h-557z" />
    <glyph glyph-name="Obreve" unicode="&#x14e;" horiz-adv-x="1347" 
d="M674 -23q-286 0 -445 175t-159 464q0 288 160 461.5t444 173.5t444 -173.5t160 -461.5q0 -289 -159 -464t-445 -175zM674 109q226 0 341 137t115 370q0 231 -115 366.5t-341 135.5q-224 0 -340.5 -136t-116.5 -366q0 -233 115.5 -370t341.5 -137zM674 1448q181 0 194 174
h86q0 -142 -75 -211.5t-205 -69.5t-205.5 69.5t-75.5 211.5h86q13 -174 195 -174z" />
    <glyph glyph-name="obreve" unicode="&#x14f;" horiz-adv-x="1085" 
d="M543 -23q-224 0 -347.5 134t-123.5 368q0 231 127.5 363.5t343.5 132.5q213 0 342 -133.5t129 -362.5q0 -234 -123.5 -368t-347.5 -134zM543 850q-158 0 -244 -98t-86 -271q0 -177 83 -278t245 -101t246.5 101.5t84.5 277.5q0 174 -85.5 271.5t-243.5 97.5zM535 1198
q181 0 194 203h86q0 -155 -74 -231t-206 -76t-206.5 76t-74.5 231h86q7 -108 59.5 -155.5t135.5 -47.5z" />
    <glyph glyph-name="Ohungarumlaut" unicode="&#x150;" horiz-adv-x="1347" 
d="M674 -23q-286 0 -445 175t-159 464q0 288 160 461.5t444 173.5t444 -173.5t160 -461.5q0 -289 -159 -464t-445 -175zM674 109q226 0 341 137t115 370q0 231 -115 366.5t-341 135.5q-224 0 -340.5 -136t-116.5 -366q0 -233 115.5 -370t341.5 -137zM1061 1599l-264 -280
l-66 49l225 309zM772 1606l-250 -287l-69 43l213 317z" />
    <glyph glyph-name="ohungarumlaut" unicode="&#x151;" horiz-adv-x="1085" 
d="M543 -23q-224 0 -347.5 134t-123.5 368q0 231 127.5 363.5t343.5 132.5q213 0 342 -133.5t129 -362.5q0 -234 -123.5 -368t-347.5 -134zM543 850q-158 0 -244 -98t-86 -271q0 -177 83 -278t245 -101t246.5 101.5t84.5 277.5q0 174 -85.5 271.5t-243.5 97.5zM885 1374
l-238 -301l-67 47l200 324zM602 1380l-221 -309l-70 43l185 332z" />
    <glyph glyph-name="OE" unicode="&#x152;" horiz-adv-x="1785" 
d="M680 1229h235h762v-133h-678v-410h607v-119h-607v-434h676v-133h-995q-288 0 -449 167.5t-161 448.5t162.5 447t447.5 166zM850 131v965h-170q-226 0 -344.5 -128.5t-118.5 -351.5q0 -226 117.5 -355.5t345.5 -129.5h170z" />
    <glyph glyph-name="oe" unicode="&#x153;" horiz-adv-x="1837" 
d="M535 -23q-221 0 -342 134t-121 368q0 231 126 363.5t337 132.5q154 0 260 -87t143 -245h8q38 158 143.5 245t260.5 87q200 0 306.5 -118.5t106.5 -319.5q0 -25 -4 -91h-747q6 -167 90.5 -257.5t238.5 -90.5q68 0 119 17t84 50t53 70t35 87l125 -37q-79 -308 -401 -308
q-163 0 -268 85.5t-142 244.5h-8q-37 -157 -140.5 -243.5t-262.5 -86.5zM543 850q-158 0 -244 -98t-86 -271q0 -177 83 -278t245 -101t246.5 101.5t84.5 277.5q0 174 -85.5 271.5t-243.5 97.5zM1014 535h618q-9 323 -297 323q-144 0 -226.5 -82t-94.5 -241z" />
    <glyph glyph-name="Racute" unicode="&#x154;" horiz-adv-x="1196" 
d="M586 512h-289v-512h-150v1229h478q428 0 428 -352q0 -144 -81 -236.5t-233 -118.5l385 -499v-23h-170zM610 1100h-313v-459h313q142 0 218.5 59t76.5 174q0 117 -66.5 171.5t-228.5 54.5zM930 1499l-533 -141l-24 78l518 188z" />
    <glyph glyph-name="racute" unicode="&#x155;" horiz-adv-x="663" 
d="M272 952v-256h13q67 267 303 267h39v-154h-45q-160 0 -233 -75t-73 -245v-489h-141v952h137zM719 1311l-496 -238l-35 72l471 274z" />
    <glyph glyph-name="uni0156" unicode="&#x156;" horiz-adv-x="1196" 
d="M586 512h-289v-512h-150v1229h478q428 0 428 -352q0 -144 -81 -236.5t-233 -118.5l385 -499v-23h-170zM610 1100h-313v-459h313q142 0 218.5 59t76.5 174q0 117 -66.5 171.5t-228.5 54.5zM485 -416l93 299h139l-127 -317h-105v18z" />
    <glyph glyph-name="uni0157" unicode="&#x157;" horiz-adv-x="663" 
d="M272 952v-256h13q67 267 303 267h39v-154h-45q-160 0 -233 -75t-73 -245v-489h-141v952h137zM86 -416l92 299h139l-127 -317h-104v18z" />
    <glyph glyph-name="Rcaron" unicode="&#x158;" horiz-adv-x="1196" 
d="M586 512h-289v-512h-150v1229h478q428 0 428 -352q0 -144 -81 -236.5t-233 -118.5l385 -499v-23h-170zM610 1100h-313v-459h313q142 0 218.5 59t76.5 174q0 117 -66.5 171.5t-228.5 54.5zM338 1632l244 -178l245 178l50 -61l-265 -234h-63l-262 234z" />
    <glyph glyph-name="rcaron" unicode="&#x159;" horiz-adv-x="663" 
d="M272 952v-256h13q67 267 303 267h39v-154h-45q-160 0 -233 -75t-73 -245v-489h-141v952h137zM139 1425l240 -217l239 217l58 -57l-266 -283h-64l-264 283z" />
    <glyph glyph-name="Sacute" unicode="&#x15a;" horiz-adv-x="1126" 
d="M590 -23q-242 0 -370.5 109t-156.5 305l142 31q27 -159 121.5 -239.5t267.5 -80.5q156 0 231.5 57t75.5 158q0 99 -75.5 153.5t-262.5 86.5q-242 44 -342 132.5t-100 230.5q0 153 112 242t324 89q206 0 314 -93.5t147 -270.5l-148 -31q-22 94 -56 150.5t-98.5 88
t-164.5 31.5q-140 0 -212.5 -52t-72.5 -146q0 -61 27.5 -102.5t104.5 -77.5t214 -64q103 -19 179 -46t125 -58.5t79 -72t42 -83.5t12 -96q0 -166 -111.5 -258.5t-347.5 -92.5zM901 1499l-532 -141l-25 78l518 188z" />
    <glyph glyph-name="sacute" unicode="&#x15b;" horiz-adv-x="929" 
d="M494 -25q-105 0 -182.5 22t-128 65t-80.5 99.5t-46 133.5l131 27q13 -53 34 -92.5t56.5 -72.5t90 -50t127.5 -17q227 0 227 162q0 74 -61.5 111.5t-219.5 64.5q-179 30 -256 97t-77 180q0 125 90.5 197.5t259.5 72.5q89 0 153.5 -19t107 -57.5t68 -86.5t43.5 -116
l-131 -30q-26 107 -83.5 151.5t-159.5 44.5q-103 0 -157 -39t-54 -112q0 -67 56 -108.5t196 -63.5q194 -32 279 -99t85 -184q0 -131 -90.5 -206t-277.5 -75zM827 1311l-495 -238l-35 72l471 274z" />
    <glyph glyph-name="Scircumflex" unicode="&#x15c;" horiz-adv-x="1126" 
d="M590 -23q-242 0 -370.5 109t-156.5 305l142 31q27 -159 121.5 -239.5t267.5 -80.5q156 0 231.5 57t75.5 158q0 99 -75.5 153.5t-262.5 86.5q-242 44 -342 132.5t-100 230.5q0 153 112 242t324 89q206 0 314 -93.5t147 -270.5l-148 -31q-22 94 -56 150.5t-98.5 88
t-164.5 31.5q-140 0 -212.5 -52t-72.5 -146q0 -61 27.5 -102.5t104.5 -77.5t214 -64q103 -19 179 -46t125 -58.5t79 -72t42 -83.5t12 -96q0 -166 -111.5 -258.5t-347.5 -92.5zM801 1329l-244 178l-246 -178l-49 64l264 233h62l264 -233z" />
    <glyph glyph-name="scircumflex" unicode="&#x15d;" horiz-adv-x="929" 
d="M494 -25q-105 0 -182.5 22t-128 65t-80.5 99.5t-46 133.5l131 27q13 -53 34 -92.5t56.5 -72.5t90 -50t127.5 -17q227 0 227 162q0 74 -61.5 111.5t-219.5 64.5q-179 30 -256 97t-77 180q0 125 90.5 197.5t259.5 72.5q89 0 153.5 -19t107 -57.5t68 -86.5t43.5 -116
l-131 -30q-26 107 -83.5 151.5t-159.5 44.5q-103 0 -157 -39t-54 -112q0 -67 56 -108.5t196 -63.5q194 -32 279 -99t85 -184q0 -131 -90.5 -206t-277.5 -75zM711 1071l-240 217l-242 -217l-55 59l266 283h62l266 -283z" />
    <glyph glyph-name="Scedilla" unicode="&#x15e;" horiz-adv-x="1126" 
d="M590 -23h-25l-35 -86q49 17 88 17q67 0 108.5 -27t41.5 -86q0 -52 -44 -95.5t-140 -43.5q-127 0 -207 59l45 70q77 -51 160 -51q51 0 74.5 18.5t23.5 46.5q0 58 -90 58q-38 0 -88 -13l-53 25l43 115q-195 23 -300 128t-129 279l142 31q27 -159 121.5 -239.5t267.5 -80.5
q156 0 231.5 57t75.5 158q0 99 -75.5 153.5t-262.5 86.5q-242 44 -342 132.5t-100 230.5q0 153 112 242t324 89q206 0 314 -93.5t147 -270.5l-148 -31q-22 94 -56 150.5t-98.5 88t-164.5 31.5q-140 0 -212.5 -52t-72.5 -146q0 -61 27.5 -102.5t104.5 -77.5t214 -64
q103 -19 179 -46t125 -58.5t79 -72t42 -83.5t12 -96q0 -166 -111.5 -258.5t-347.5 -92.5z" />
    <glyph glyph-name="scedilla" unicode="&#x15f;" horiz-adv-x="929" 
d="M494 -25h-37l-33 -84q46 17 88 17q67 0 108.5 -27t41.5 -86q0 -52 -44.5 -95.5t-140.5 -43.5q-127 0 -207 59l45 70q77 -51 160 -51q51 0 74.5 18.5t23.5 46.5q0 58 -90 58q-38 0 -88 -13l-55 25l45 115q-147 19 -223.5 97.5t-104.5 213.5l131 27q13 -53 34 -92.5
t56.5 -72.5t90 -50t127.5 -17q227 0 227 162q0 74 -61.5 111.5t-219.5 64.5q-179 30 -256 97t-77 180q0 125 90.5 197.5t259.5 72.5q89 0 153.5 -19t107 -57.5t68 -86.5t43.5 -116l-131 -30q-26 107 -83.5 151.5t-159.5 44.5q-103 0 -157 -39t-54 -112q0 -67 56 -108.5
t196 -63.5q194 -32 279 -99t85 -184q0 -131 -90.5 -206t-277.5 -75z" />
    <glyph glyph-name="Scaron" unicode="&#x160;" horiz-adv-x="1126" 
d="M590 -23q-242 0 -370.5 109t-156.5 305l142 31q27 -159 121.5 -239.5t267.5 -80.5q156 0 231.5 57t75.5 158q0 99 -75.5 153.5t-262.5 86.5q-242 44 -342 132.5t-100 230.5q0 153 112 242t324 89q206 0 314 -93.5t147 -270.5l-148 -31q-22 94 -56 150.5t-98.5 88
t-164.5 31.5q-140 0 -212.5 -52t-72.5 -146q0 -61 27.5 -102.5t104.5 -77.5t214 -64q103 -19 179 -46t125 -58.5t79 -72t42 -83.5t12 -96q0 -166 -111.5 -258.5t-347.5 -92.5zM317 1632l244 -178l246 178l49 -61l-264 -234h-64l-262 234z" />
    <glyph glyph-name="scaron" unicode="&#x161;" horiz-adv-x="929" 
d="M494 -25q-105 0 -182.5 22t-128 65t-80.5 99.5t-46 133.5l131 27q13 -53 34 -92.5t56.5 -72.5t90 -50t127.5 -17q227 0 227 162q0 74 -61.5 111.5t-219.5 64.5q-179 30 -256 97t-77 180q0 125 90.5 197.5t259.5 72.5q89 0 153.5 -19t107 -57.5t68 -86.5t43.5 -116
l-131 -30q-26 107 -83.5 151.5t-159.5 44.5q-103 0 -157 -39t-54 -112q0 -67 56 -108.5t196 -63.5q194 -32 279 -99t85 -184q0 -131 -90.5 -206t-277.5 -75zM229 1425l240 -217l240 217l57 -57l-266 -283h-64l-264 283z" />
    <glyph glyph-name="uni0162" unicode="&#x162;" horiz-adv-x="1040" 
d="M446 1092h-413v137h975v-137h-414v-1092h-70l-43 -109q46 17 88 17q148 0 148 -113q0 -53 -42.5 -96t-139.5 -43q-127 0 -207 59l45 70q77 -51 159 -51q50 0 74.5 18.5t24.5 46.5q0 58 -90 58q-38 0 -88 -13l-56 25l52 131h-3v1092z" />
    <glyph glyph-name="uni0163" unicode="&#x163;" horiz-adv-x="714" 
d="M43 831v121h156v275h139v-275h324v-121h-324v-542q0 -92 38.5 -136t123.5 -44q66 0 151 24l21 -125q-114 -31 -197 -31q-41 0 -76 9l-37 -95q49 17 89 17q67 0 108 -27t41 -86q0 -52 -44 -95.5t-140 -43.5q-127 0 -207 59l45 70q77 -51 160 -51q51 0 74.5 18.5t23.5 46.5
q0 58 -90 58q-38 0 -88 -13l-53 25l51 139q-133 69 -133 271v552h-156z" />
    <glyph glyph-name="Tcaron" unicode="&#x164;" horiz-adv-x="1040" 
d="M446 1092h-413v137h975v-137h-414v-1092h-148v1092zM276 1632l244 -178l246 178l49 -61l-264 -234h-64l-262 234z" />
    <glyph glyph-name="tcaron" unicode="&#x165;" horiz-adv-x="718" 
d="M43 831v121h156v275h139v-275h324v-121h-324v-542q0 -92 38.5 -136t123.5 -44q66 0 151 24l21 -125q-114 -31 -197 -31q-138 0 -207 81.5t-69 220.5v552h-156zM561 1051l6 329h121l-39 -329h-88z" />
    <glyph glyph-name="Tbar" unicode="&#x166;" horiz-adv-x="1040" 
d="M889 618v-102h-293v-516h-147v516h-297v102h297v474h-414v137h975v-137h-414v-474h293z" />
    <glyph glyph-name="tbar" unicode="&#x167;" horiz-adv-x="714" 
d="M635 567v-98h-297v-180q0 -92 38.5 -136t123.5 -44q66 0 151 24l21 -125q-114 -31 -197 -31q-138 0 -207 81.5t-69 220.5v190h-129v98h129v264h-156v121h156v275h139v-275h324v-121h-324v-264h297z" />
    <glyph glyph-name="Utilde" unicode="&#x168;" horiz-adv-x="1284" 
d="M653 111q183 0 258.5 92.5t75.5 263.5v762h150v-768q0 -237 -124.5 -360.5t-359.5 -123.5q-240 0 -371.5 123.5t-131.5 360.5v768h147v-750q0 -368 356 -368zM500 1669q46 0 83 -22t60.5 -53.5t44 -62.5t45.5 -53t53 -22q46 0 63 48.5t15 156.5h80q6 -50 6 -92
q0 -107 -43 -164t-114 -57q-43 0 -78.5 21.5t-59.5 53t-45.5 62.5t-47 52.5t-54.5 21.5q-50 0 -68 -45t-16 -152h-80q-6 50 -6 88q0 108 43 163.5t119 55.5z" />
    <glyph glyph-name="utilde" unicode="&#x169;" horiz-adv-x="1089" 
d="M815 0v246h-16q-37 -124 -131 -196.5t-222 -72.5q-162 0 -241.5 94t-79.5 259v622h141v-594q0 -115 54.5 -183.5t175.5 -68.5q143 0 230 81t87 216v549h141v-952h-139zM397 1423q46 0 83 -22t60.5 -53.5t44.5 -62.5t46 -53t53 -22q46 0 63 48.5t15 156.5h80q6 -50 6 -92
q0 -107 -43.5 -164t-114.5 -57q-43 0 -78.5 21.5t-59 53t-45 62.5t-47 52.5t-54.5 21.5q-50 0 -68 -45t-16 -152h-80q-6 49 -6 88q0 108 43 163.5t118 55.5z" />
    <glyph glyph-name="Umacron" unicode="&#x16a;" horiz-adv-x="1284" 
d="M653 111q183 0 258.5 92.5t75.5 263.5v762h150v-768q0 -237 -124.5 -360.5t-359.5 -123.5q-240 0 -371.5 123.5t-131.5 360.5v768h147v-750q0 -368 356 -368zM362 1374v113h560v-113h-560z" />
    <glyph glyph-name="umacron" unicode="&#x16b;" horiz-adv-x="1089" 
d="M815 0v246h-16q-37 -124 -131 -196.5t-222 -72.5q-162 0 -241.5 94t-79.5 259v622h141v-594q0 -115 54.5 -183.5t175.5 -68.5q143 0 230 81t87 216v549h141v-952h-139zM262 1145v110h557v-110h-557z" />
    <glyph glyph-name="Ubreve" unicode="&#x16c;" horiz-adv-x="1284" 
d="M653 111q183 0 258.5 92.5t75.5 263.5v762h150v-768q0 -237 -124.5 -360.5t-359.5 -123.5q-240 0 -371.5 123.5t-131.5 360.5v768h147v-750q0 -368 356 -368zM643 1448q182 0 195 174h86q0 -142 -75.5 -211.5t-205.5 -69.5t-205.5 69.5t-75.5 211.5h87q13 -174 194 -174z
" />
    <glyph glyph-name="ubreve" unicode="&#x16d;" horiz-adv-x="1089" 
d="M815 0v246h-16q-37 -124 -131 -196.5t-222 -72.5q-162 0 -241.5 94t-79.5 259v622h141v-594q0 -115 54.5 -183.5t175.5 -68.5q143 0 230 81t87 216v549h141v-952h-139zM541 1198q181 0 194 203h86q0 -155 -74 -231t-206 -76t-206.5 76t-74.5 231h86q7 -108 59.5 -155.5
t135.5 -47.5z" />
    <glyph glyph-name="Uring" unicode="&#x16e;" horiz-adv-x="1284" 
d="M653 111q183 0 258.5 92.5t75.5 263.5v762h150v-768q0 -237 -124.5 -360.5t-359.5 -123.5q-240 0 -371.5 123.5t-131.5 360.5v768h147v-750q0 -368 356 -368zM852 1534q0 -93 -56.5 -149t-152.5 -56t-152.5 55t-56.5 148q0 94 56.5 149.5t152.5 55.5t152.5 -55t56.5 -148
zM528 1532q0 -55 30.5 -86t84.5 -31t84.5 31t30.5 88q0 55 -30.5 86t-84.5 31t-84.5 -31t-30.5 -88z" />
    <glyph glyph-name="uring" unicode="&#x16f;" horiz-adv-x="1089" 
d="M815 0v246h-16q-37 -124 -131 -196.5t-222 -72.5q-162 0 -241.5 94t-79.5 259v622h141v-594q0 -115 54.5 -183.5t175.5 -68.5q143 0 230 81t87 216v549h141v-952h-139zM764 1296q0 -100 -60.5 -160.5t-162.5 -60.5q-104 0 -165 60.5t-61 160.5t61 161t165 61
q102 0 162.5 -61t60.5 -161zM410 1296q0 -63 34.5 -98t96.5 -35q60 0 94.5 35t34.5 98q0 62 -34 96.5t-95 34.5q-62 0 -96.5 -34t-34.5 -97z" />
    <glyph glyph-name="Uhungarumlaut" unicode="&#x170;" horiz-adv-x="1284" 
d="M653 111q183 0 258.5 92.5t75.5 263.5v762h150v-768q0 -237 -124.5 -360.5t-359.5 -123.5q-240 0 -371.5 123.5t-131.5 360.5v768h147v-750q0 -368 356 -368zM1028 1599l-264 -280l-66 49l226 309zM739 1606l-250 -287l-69 43l213 317z" />
    <glyph glyph-name="uhungarumlaut" unicode="&#x171;" horiz-adv-x="1089" 
d="M815 0v246h-16q-37 -124 -131 -196.5t-222 -72.5q-162 0 -241.5 94t-79.5 259v622h141v-594q0 -115 54.5 -183.5t175.5 -68.5q143 0 230 81t87 216v549h141v-952h-139zM893 1374l-238 -301l-67 47l200 324zM610 1380l-221 -309l-70 43l185 332z" />
    <glyph glyph-name="Uogonek" unicode="&#x172;" horiz-adv-x="1284" 
d="M653 111q183 0 258.5 92.5t75.5 263.5v762h150v-768q0 -207 -95 -328t-278 -147q-178 -46 -178 -131q0 -80 133 -80q41 0 110 16l7 -113q-70 -12 -127 -12q-114 0 -169 39.5t-55 110.5q0 105 142 161q-229 8 -353 131t-124 353v768h147v-750q0 -368 356 -368z" />
    <glyph glyph-name="uogonek" unicode="&#x173;" horiz-adv-x="1089" 
d="M817 0h-2v246h-16q-37 -124 -131 -196.5t-222 -72.5q-162 0 -241.5 94t-79.5 259v622h141v-594q0 -115 54.5 -183.5t175.5 -68.5q143 0 230 81t87 216v549h141v-952q-127 -25 -185 -58.5t-58 -86.5q0 -80 133 -80q41 0 110 16l7 -113q-70 -12 -127 -12q-114 0 -169 39.5
t-55 110.5q0 65 55.5 111.5t151.5 72.5z" />
    <glyph glyph-name="Wcircumflex" unicode="&#x174;" horiz-adv-x="1710" 
d="M874 1092h-43q-74 -347 -135 -580l-133 -512h-221l-332 1229h162l147 -604q66 -265 111 -494h57q47 231 113 492l164 606h192l164 -606q55 -220 111 -492h55q20 107 109 494l149 604h156l-332 -1229h-225l-133 512q-104 410 -136 580zM1098 1329l-244 178l-246 -178
l-49 64l264 233h62l264 -233z" />
    <glyph glyph-name="wcircumflex" unicode="&#x175;" horiz-adv-x="1507" 
d="M676 952h164l112 -368q58 -184 127 -465h37q25 118 131 471l107 362h143l-311 -952h-185l-127 422q-62 206 -108 414h-29q-61 -257 -108 -414l-125 -422h-180l-314 952h146l110 -362q100 -319 137 -471h37q30 133 125 465zM995 1071l-239 217l-242 -217l-55 59l266 283
h61l267 -283z" />
    <glyph glyph-name="Ycircumflex" unicode="&#x176;" horiz-adv-x="1081" 
d="M614 422v-422h-147v426l-473 780v23h158l378 -682h25l377 682h153v-23zM784 1329l-243 178l-246 -178l-49 64l264 233h61l265 -233z" />
    <glyph glyph-name="ycircumflex" unicode="&#x177;" horiz-adv-x="968" 
d="M428 6l-420 946h156l133 -336q130 -328 190 -491h25q94 261 180 487l127 340h150l-414 -964q-75 -178 -168 -255t-233 -77q-70 0 -140 12l23 129q61 -12 121 -12q63 0 103.5 15t82.5 64t84 142zM727 1071l-240 217l-241 -217l-56 59l267 283h61l266 -283z" />
    <glyph glyph-name="Ydieresis" unicode="&#x178;" horiz-adv-x="1081" 
d="M614 422v-422h-147v426l-473 780v23h158l378 -682h25l377 682h153v-23zM270 1364v166h168v-166h-168zM641 1364v166h166v-166h-166z" />
    <glyph glyph-name="Zacute" unicode="&#x179;" horiz-adv-x="1146" 
d="M717 137h338v-137h-981v135l800 961l-10 20q-281 -24 -430 -24h-336v137h955v-133l-807 -963l10 -22q243 26 461 26zM915 1499l-532 -141l-25 78l519 188z" />
    <glyph glyph-name="zacute" unicode="&#x17a;" horiz-adv-x="987" 
d="M629 127h268v-127h-815v127l655 707l-8 16q-308 -25 -414 -25h-215v127h789v-127l-656 -706l11 -19q226 27 385 27zM831 1311l-495 -238l-35 72l471 274z" />
    <glyph glyph-name="Zdotaccent" unicode="&#x17b;" horiz-adv-x="1146" 
d="M717 137h338v-137h-981v135l800 961l-10 20q-281 -24 -430 -24h-336v137h955v-133l-807 -963l10 -22q243 26 461 26zM475 1401v174h178v-174h-178z" />
    <glyph glyph-name="zdotaccent" unicode="&#x17c;" horiz-adv-x="987" 
d="M629 127h268v-127h-815v127l655 707l-8 16q-308 -25 -414 -25h-215v127h789v-127l-656 -706l11 -19q226 27 385 27zM401 1155v174h179v-174h-179z" />
    <glyph glyph-name="Zcaron" unicode="&#x17d;" horiz-adv-x="1146" 
d="M717 137h338v-137h-981v135l800 961l-10 20q-281 -24 -430 -24h-336v137h955v-133l-807 -963l10 -22q243 26 461 26zM322 1632l243 -178l246 178l49 -61l-264 -234h-64l-262 234z" />
    <glyph glyph-name="zcaron" unicode="&#x17e;" horiz-adv-x="987" 
d="M629 127h268v-127h-815v127l655 707l-8 16q-308 -25 -414 -25h-215v127h789v-127l-656 -706l11 -19q226 27 385 27zM252 1425l240 -217l239 217l57 -57l-266 -283h-63l-264 283z" />
    <glyph glyph-name="Aringacute" unicode="&#x1fa;" horiz-adv-x="1181" 
d="M805 1354q0 -128 -94 -183l469 -1171h-158l-143 371h-580l-141 -371h-156l471 1174q-92 56 -92 178q0 94 57.5 151.5t155.5 57.5q96 0 153.5 -56.5t57.5 -150.5zM344 487h490l-60 152q-90 233 -160 459h-49q-59 -189 -164 -459zM969 1737l-531 -140l-24 78l514 189z
M477 1352q0 -56 31.5 -87.5t85.5 -31.5t84.5 32t30.5 89q0 55 -30.5 85.5t-84.5 30.5q-55 0 -86 -31t-31 -87z" />
    <glyph glyph-name="aringacute" unicode="&#x1fb;" horiz-adv-x="1003" 
d="M375 -16q-144 0 -222.5 65.5t-78.5 198.5q0 123 85 199.5t249 76.5h327v88q0 123 -54.5 184.5t-180.5 61.5q-203 0 -256 -211l-133 37q31 141 132 218t261 77q370 0 370 -363v-612h-133v227h-16q-36 -120 -127.5 -183.5t-222.5 -63.5zM735 354v68h-311q-213 0 -213 -164
q0 -69 48 -112.5t155 -43.5q144 0 232.5 71t88.5 181zM498 1057q-96 0 -152.5 55t-56.5 148t56.5 147.5t152.5 54.5q98 0 153.5 -54.5t55.5 -147.5t-56 -148t-153 -55zM862 1661l-506 -133l-22 78l487 180zM498 1143q54 0 85 31t31 86t-31 85.5t-85 30.5q-52 0 -82.5 -30.5
t-30.5 -85.5q0 -56 30.5 -86.5t82.5 -30.5z" />
    <glyph glyph-name="AEacute" unicode="&#x1fc;" horiz-adv-x="1742" 
d="M696 1229h176h762v-133h-680v-410h607v-119h-607v-434h678v-133h-825v307h-471l-168 -307h-152v12zM807 428v674h-53q-108 -224 -238 -463l-115 -211h406zM1266 1499l-533 -141l-24 78l518 188z" />
    <glyph glyph-name="aeacute" unicode="&#x1fd;" horiz-adv-x="1699" 
d="M778 256q-35 -137 -143 -208t-254 -71q-144 0 -224.5 67t-80.5 200q0 121 85 195.5t249 74.5h327v94q0 123 -54.5 184.5t-180.5 61.5q-204 0 -256 -211l-133 37q31 138 131 216.5t252 78.5q280 0 340 -227q47 110 142.5 168.5t223.5 58.5q207 0 316.5 -118.5
t109.5 -324.5q0 -24 -4 -90h-747q8 -165 92 -254.5t237 -89.5q68 0 119 17t84 50t53 70t35 87l125 -37q-79 -308 -414 -308q-161 0 -274 74t-156 205zM879 528h618q-5 163 -76 246.5t-221 83.5q-144 0 -226.5 -83.5t-94.5 -246.5zM737 350v82h-309q-105 0 -160 -45t-55 -131
q0 -70 47.5 -114t155.5 -44q146 0 233.5 71t87.5 181zM1192 1311l-496 -238l-34 72l471 274z" />
    <glyph glyph-name="Oslashacute" unicode="&#x1fe;" horiz-adv-x="1341" 
d="M154 0h-123v10l170 174q-131 168 -131 432q0 288 160 461.5t444 173.5q267 0 422 -149l121 127h116v-10l-178 -185q123 -166 123 -418q0 -289 -159 -464t-445 -175q-256 0 -408 140zM299 285l700 719q-121 118 -325 118q-225 0 -343 -138.5t-118 -367.5q0 -198 86 -331z
M674 106q230 0 345.5 137.5t115.5 372.5q0 188 -78 316l-699 -719q120 -107 316 -107zM1032 1499l-532 -141l-25 78l518 188z" />
    <glyph glyph-name="oslashacute" unicode="&#x1ff;" horiz-adv-x="1085" 
d="M221 90l-84 -90h-119v12l144 146q-90 128 -90 321q0 231 127.5 363.5t343.5 132.5q193 0 319 -111l82 88h113v-12l-137 -139q94 -131 94 -322q0 -232 -127 -367t-344 -135q-200 0 -322 113zM829 707l-520 -529q85 -82 232 -82q166 0 253 103.5t87 281.5q0 138 -52 226z
M543 856q-163 0 -250.5 -98.5t-87.5 -276.5q0 -140 49 -231l520 526q-86 80 -231 80zM893 1311l-496 -238l-35 72l472 274z" />
    <glyph glyph-name="uni0218" unicode="&#x218;" horiz-adv-x="1126" 
d="M590 -23q-242 0 -370.5 109t-156.5 305l142 31q27 -159 121.5 -239.5t267.5 -80.5q156 0 231.5 57t75.5 158q0 99 -75.5 153.5t-262.5 86.5q-242 44 -342 132.5t-100 230.5q0 153 112 242t324 89q206 0 314 -93.5t147 -270.5l-148 -31q-22 94 -56 150.5t-98.5 88
t-164.5 31.5q-140 0 -212.5 -52t-72.5 -146q0 -61 27.5 -102.5t104.5 -77.5t214 -64q103 -19 179 -46t125 -58.5t79 -72t42 -83.5t12 -96q0 -166 -111.5 -258.5t-347.5 -92.5zM418 -416l92 299h139l-127 -317h-104v18z" />
    <glyph glyph-name="uni0219" unicode="&#x219;" horiz-adv-x="929" 
d="M494 -25q-105 0 -182.5 22t-128 65t-80.5 99.5t-46 133.5l131 27q13 -53 34 -92.5t56.5 -72.5t90 -50t127.5 -17q227 0 227 162q0 74 -61.5 111.5t-219.5 64.5q-179 30 -256 97t-77 180q0 125 90.5 197.5t259.5 72.5q89 0 153.5 -19t107 -57.5t68 -86.5t43.5 -116
l-131 -30q-26 107 -83.5 151.5t-159.5 44.5q-103 0 -157 -39t-54 -112q0 -67 56 -108.5t196 -63.5q194 -32 279 -99t85 -184q0 -131 -90.5 -206t-277.5 -75zM342 -416l92 299h139l-127 -317h-104v18z" />
    <glyph glyph-name="uni021A" unicode="&#x21a;" horiz-adv-x="1040" 
d="M446 1092h-413v137h975v-137h-414v-1092h-148v1092zM391 -416l92 299h140l-127 -317h-105v18z" />
    <glyph glyph-name="uni021B" unicode="&#x21b;" horiz-adv-x="714" 
d="M43 831v121h156v275h139v-275h324v-121h-324v-542q0 -92 38.5 -136t123.5 -44q66 0 151 24l21 -125q-114 -31 -197 -31q-138 0 -207 81.5t-69 220.5v552h-156zM248 -416l92 299h139l-127 -317h-104v18z" />
    <glyph glyph-name="circumflex" unicode="&#x2c6;" horiz-adv-x="675" 
d="M578 1071l-240 217l-242 -217l-55 59l266 283h62l266 -283z" />
    <glyph glyph-name="caron" unicode="&#x2c7;" horiz-adv-x="675" 
d="M98 1425l240 -217l240 217l57 -57l-266 -283h-64l-264 283z" />
    <glyph glyph-name="breve" unicode="&#x2d8;" horiz-adv-x="667" 
d="M336 1198q181 0 194 203h86q0 -155 -74 -231t-206 -76t-206.5 76t-74.5 231h86q7 -108 59.5 -155.5t135.5 -47.5z" />
    <glyph glyph-name="dotaccent" unicode="&#x2d9;" horiz-adv-x="296" 
d="M59 1155v174h179v-174h-179z" />
    <glyph glyph-name="ring" unicode="&#x2da;" horiz-adv-x="591" 
d="M520 1296q0 -100 -60.5 -160.5t-162.5 -60.5q-104 0 -164.5 60.5t-60.5 160.5t61 161t164 61q102 0 162.5 -61t60.5 -161zM166 1296q0 -63 34.5 -98t96.5 -35q60 0 94.5 35t34.5 98q0 62 -34 96.5t-95 34.5q-62 0 -96.5 -34t-34.5 -97z" />
    <glyph glyph-name="ogonek" unicode="&#x2db;" horiz-adv-x="438" 
d="M356 20l37 -20q-129 -25 -186 -58.5t-57 -86.5q0 -80 133 -80q42 0 108 16l6 -113q-67 -12 -125 -12q-114 0 -168.5 39.5t-54.5 110.5q0 157 307 204z" />
    <glyph glyph-name="tilde" unicode="&#x2dc;" horiz-adv-x="702" 
d="M209 1423q46 0 83 -22t60.5 -53.5t44.5 -62.5t46 -53t53 -22q46 0 62.5 48t14.5 157h80q6 -50 6 -92q0 -107 -43 -164t-114 -57q-43 0 -78.5 21.5t-59.5 53t-45.5 62.5t-47 52.5t-54.5 21.5q-50 0 -68 -45t-16 -152h-80q-6 50 -6 88q0 108 43 163.5t119 55.5z" />
    <glyph glyph-name="hungarumlaut" unicode="&#x2dd;" horiz-adv-x="706" 
d="M645 1374l-237 -301l-68 47l201 324zM362 1380l-221 -309l-69 43l184 332z" />
    <glyph glyph-name="Wgrave" unicode="&#x1e80;" horiz-adv-x="1710" 
d="M874 1092h-43q-74 -347 -135 -580l-133 -512h-221l-332 1229h162l147 -604q66 -265 111 -494h57q47 231 113 492l164 606h192l164 -606q55 -220 111 -492h55q20 107 109 494l149 604h156l-332 -1229h-225l-133 512q-104 410 -136 580zM1040 1436l-22 -78l-535 145l39 117
z" />
    <glyph glyph-name="wgrave" unicode="&#x1e81;" horiz-adv-x="1507" 
d="M676 952h164l112 -368q58 -184 127 -465h37q25 118 131 471l107 362h143l-311 -952h-185l-127 422q-62 206 -108 414h-29q-61 -257 -108 -414l-125 -422h-180l-314 952h146l110 -362q100 -319 137 -471h37q30 133 125 465zM961 1145l-35 -72l-496 236l62 112z" />
    <glyph glyph-name="Wacute" unicode="&#x1e82;" horiz-adv-x="1710" 
d="M874 1092h-43q-74 -347 -135 -580l-133 -512h-221l-332 1229h162l147 -604q66 -265 111 -494h57q47 231 113 492l164 606h192l164 -606q55 -220 111 -492h55q20 107 109 494l149 604h156l-332 -1229h-225l-133 512q-104 410 -136 580zM1206 1499l-532 -141l-25 78
l518 188z" />
    <glyph glyph-name="wacute" unicode="&#x1e83;" horiz-adv-x="1507" 
d="M676 952h164l112 -368q58 -184 127 -465h37q25 118 131 471l107 362h143l-311 -952h-185l-127 422q-62 206 -108 414h-29q-61 -257 -108 -414l-125 -422h-180l-314 952h146l110 -362q100 -319 137 -471h37q30 133 125 465zM1096 1311l-496 -238l-35 72l471 274z" />
    <glyph glyph-name="Wdieresis" unicode="&#x1e84;" horiz-adv-x="1710" 
d="M874 1092h-43q-74 -347 -135 -580l-133 -512h-221l-332 1229h162l147 -604q66 -265 111 -494h57q47 231 113 492l164 606h192l164 -606q55 -220 111 -492h55q20 107 109 494l149 604h156l-332 -1229h-225l-133 512q-104 410 -136 580zM586 1364v166h168v-166h-168z
M956 1364v166h166v-166h-166z" />
    <glyph glyph-name="wdieresis" unicode="&#x1e85;" horiz-adv-x="1507" 
d="M676 952h164l112 -368q58 -184 127 -465h37q25 118 131 471l107 362h143l-311 -952h-185l-127 422q-62 206 -108 414h-29q-61 -257 -108 -414l-125 -422h-180l-314 952h146l110 -362q100 -319 137 -471h37q30 133 125 465zM485 1137v166h168v-166h-168zM856 1137v166h166
v-166h-166z" />
    <glyph glyph-name="Germandbls" unicode="&#x1e9e;" horiz-adv-x="1216" 
d="M856 1104l-6 22q-116 -22 -283 -22q-270 0 -270 -289v-815h-147v825q0 197 111 300.5t327 103.5h397v-125q-161 -83 -237 -166t-76 -160q0 -30 11.5 -56t27 -43.5t46.5 -36.5t52.5 -29.5t62.5 -28.5q68 -29 114.5 -56t87.5 -64.5t61 -86t20 -109.5q0 -130 -81 -209
t-247 -79q-279 0 -368 208l76 93q78 -173 292 -170q189 0 189 157q0 41 -15 72.5t-47 55t-62 39t-79 34.5q-39 16 -57.5 23.5t-54 25t-54 31t-43.5 35.5t-37.5 44.5t-22 53.5t-9.5 66q0 192 321 356z" />
    <glyph glyph-name="uni2002" unicode="&#x2002;" horiz-adv-x="1024" 
 />
    <glyph glyph-name="uni2003" unicode="&#x2003;" horiz-adv-x="2048" 
 />
    <glyph glyph-name="uni2004" unicode="&#x2004;" horiz-adv-x="681" 
 />
    <glyph glyph-name="uni2005" unicode="&#x2005;" horiz-adv-x="512" 
 />
    <glyph glyph-name="uni2007" unicode="&#x2007;" horiz-adv-x="1222" 
 />
    <glyph glyph-name="uni2008" unicode="&#x2008;" horiz-adv-x="368" 
 />
    <glyph glyph-name="uni2009" unicode="&#x2009;" horiz-adv-x="182" 
 />
    <glyph glyph-name="uni200A" unicode="&#x200a;" horiz-adv-x="122" 
 />
    <glyph glyph-name="uni200B" unicode="&#x200b;" horiz-adv-x="0" 
 />
    <glyph glyph-name="uni200C" unicode="&#x200c;" horiz-adv-x="0" 
 />
    <glyph glyph-name="uni200D" unicode="&#x200d;" horiz-adv-x="0" 
 />
    <glyph glyph-name="endash" unicode="&#x2013;" horiz-adv-x="974" 
d="M47 434v129h881v-129h-881z" />
    <glyph glyph-name="emdash" unicode="&#x2014;" horiz-adv-x="1761" 
d="M47 434v129h1667v-129h-1667z" />
    <glyph glyph-name="quoteleft" unicode="&#x2018;" horiz-adv-x="380" 
d="M313 1217l-98 -537h-149l165 549h82v-12z" />
    <glyph glyph-name="quoteright" unicode="&#x2019;" horiz-adv-x="380" 
d="M68 692l96 537h151l-165 -549h-82v12z" />
    <glyph glyph-name="quotesinglbase" unicode="&#x201a;" horiz-adv-x="372" 
d="M59 -295l97 537h151l-166 -549h-82v12z" />
    <glyph glyph-name="quotedblleft" unicode="&#x201c;" horiz-adv-x="694" 
d="M328 1217l-99 -537h-149l166 549h82v-12zM643 1217l-98 -537h-150l166 549h82v-12z" />
    <glyph glyph-name="quotedblright" unicode="&#x201d;" horiz-adv-x="694" 
d="M68 692l96 537h151l-165 -549h-82v12zM383 692l96 537h152l-166 -549h-82v12z" />
    <glyph glyph-name="quotedblbase" unicode="&#x201e;" horiz-adv-x="669" 
d="M29 -295l96 537h151l-165 -549h-82v12zM342 -295l96 537h152l-166 -549h-82v12z" />
    <glyph glyph-name="dagger" unicode="&#x2020;" horiz-adv-x="1138" 
d="M643 834v-1264h-147v1264h-303v-404h-127v522h430v420h147v-420h430v-522h-129v404h-301z" />
    <glyph glyph-name="daggerdbl" unicode="&#x2021;" horiz-adv-x="1163" 
d="M508 1049v323h147v-323h430v-400h-127v281h-303v-811h303v278h127v-397h-430v-430h-147v430h-430v397h127v-278h303v811h-303v-281h-127v400h430z" />
    <glyph glyph-name="bullet" unicode="&#x2022;" horiz-adv-x="534" 
d="M121 354v293h293v-293h-293z" />
    <glyph glyph-name="ellipsis" unicode="&#x2026;" horiz-adv-x="1120" 
d="M88 0v193h193v-193h-193zM465 0v193h192v-193h-192zM842 0v193h192v-193h-192z" />
    <glyph glyph-name="uni202F" unicode="&#x202f;" horiz-adv-x="182" 
 />
    <glyph glyph-name="perthousand" unicode="&#x2030;" horiz-adv-x="2203" 
d="M395 563q-148 0 -234.5 93t-86.5 253q0 159 86.5 249.5t234.5 90.5q147 0 233.5 -90.5t86.5 -249.5t-86.5 -252.5t-233.5 -93.5zM1847 -20q-148 0 -234.5 93t-86.5 253q0 159 86.5 249.5t234.5 90.5q147 0 233.5 -90.5t86.5 -249.5t-86.5 -252.5t-233.5 -93.5zM1112 -20
q-148 0 -234.5 93t-86.5 253q0 159 86.5 249.5t234.5 90.5q147 0 234.5 -91t87.5 -249q0 -159 -87.5 -252.5t-234.5 -93.5zM393 670q99 0 152 63.5t53 175.5q0 111 -53.5 173.5t-149.5 62.5q-98 0 -151.5 -62.5t-53.5 -173.5q0 -113 51 -176t152 -63zM1110 84
q101 0 153 64.5t52 177.5q0 111 -52.5 172t-150.5 61t-151.5 -61t-53.5 -172q0 -113 51.5 -177.5t151.5 -64.5zM1845 84q98 0 151.5 65t53.5 177q0 110 -53 171.5t-150 61.5q-98 0 -151.5 -61t-53.5 -172q0 -113 51.5 -177.5t151.5 -64.5zM717 500l-381 -500h-182v12
l516 529zM797 729l381 500h182v-12l-516 -529z" />
    <glyph glyph-name="guilsinglleft" unicode="&#x2039;" horiz-adv-x="761" 
d="M698 963l-508 -428v-13l508 -428v-24h-137l-516 438v41l516 438h137v-24z" />
    <glyph glyph-name="guilsinglright" unicode="&#x203a;" horiz-adv-x="768" 
d="M70 80l508 430v10l-508 430v25h137l516 -438v-41l-516 -439h-137v23z" />
    <glyph glyph-name="fraction" unicode="&#x2044;" horiz-adv-x="53" 
d="M70 729l381 500h182v-12l-518 -529zM-12 500l-381 -500h-182v12l518 529z" />
    <glyph glyph-name="Euro" unicode="&#x20ac;" horiz-adv-x="1331" 
d="M41 451v86h135q-2 27 -2 79q0 43 2 66h-135v86h145q36 228 176 355.5t361 127.5q215 0 345.5 -120t166.5 -336l-139 -29q-73 354 -375 354q-327 0 -389 -352h358v-86h-368q-3 -35 -3 -66q0 -38 3 -79h368v-86h-356q30 -165 126.5 -255t258.5 -90q165 0 255.5 92
t127.5 275l141 -29q-36 -220 -169.5 -343.5t-356.5 -123.5q-220 0 -357 125.5t-174 348.5h-145z" />
    <glyph glyph-name="uni2116" unicode="&#x2116;" horiz-adv-x="2168" 
d="M1153 0h-199l-409 657q-100 163 -226 428l-47 -2q19 -266 19 -594v-489h-141v1229h219l362 -578q148 -246 254 -481l45 2q-18 295 -18 565v492h141v-1229zM1698 492q-166 0 -264.5 103t-98.5 279t98 275.5t265 99.5t264.5 -99.5t97.5 -275.5t-98 -279t-264 -103z
M1696 608q115 0 174 72t59 197q0 121 -59 188.5t-172 67.5q-114 0 -174 -68t-60 -188q0 -126 58.5 -197.5t173.5 -71.5zM1348 225v127h694v-127h-694z" />
    <glyph glyph-name="trademark" unicode="&#x2122;" horiz-adv-x="1804" 
d="M1241 684h25q47 132 141 350l84 195h190v-707h-118v256q0 50 6 344h-27q-68 -170 -141 -344l-98 -221h-113l-94 217q-86 187 -152 348h-31q1 -32 3 -101.5t3 -130.5t1 -112v-256h-109v707h207l82 -195q97 -228 141 -350zM305 1124h-258v105h637v-105h-258v-602h-121v602z
" />
    <glyph glyph-name="arrowleft" unicode="&#x2190;" horiz-adv-x="1548" 
d="M735 -23l-663 578v72l665 579l86 -106q-306 -255 -596 -449l6 -12q261 18 693 18h542v-133h-542q-388 0 -693 21l-6 -13q330 -227 596 -450z" />
    <glyph glyph-name="arrowup" unicode="&#x2191;" horiz-adv-x="1419" 
d="M94 649l580 664h71l580 -666l-106 -88q-253 302 -451 596l-12 -4q20 -297 20 -694v-543h-135v543q0 353 23 694l-15 4q-194 -289 -448 -596z" />
    <glyph glyph-name="arrowright" unicode="&#x2192;" horiz-adv-x="1548" 
d="M813 1206l664 -577v-72l-666 -580l-88 107q284 237 596 448l-4 13q-282 -19 -694 -19h-543v133h543q397 0 694 -20l4 12q-307 212 -596 451z" />
    <glyph glyph-name="arrowdown" unicode="&#x2193;" horiz-adv-x="1419" 
d="M1325 582l-580 -664h-71l-580 666l107 88q226 -270 450 -596l13 6q-21 301 -21 692v543h133v-543q0 -405 -20 -692l14 -6q200 298 449 596z" />
    <glyph glyph-name="minus" unicode="&#x2212;" horiz-adv-x="1011" 
d="M942 690v-129h-872v129h872z" />
    <glyph glyph-name="filledbox" unicode="&#x25a0;" horiz-adv-x="1843" 
d="M74 -244q4 190 4 848q0 661 -4 848q285 -6 848 -6q566 0 847 6q-4 -562 -4 -848q0 -278 4 -848q-847 12 -1695 0z" />
    <glyph glyph-name="triagup" unicode="&#x25b2;" horiz-adv-x="1843" 
d="M1692 0h-1538v8l768 1264h8l762 -1264v-8z" />
    <glyph glyph-name="uni25B3" unicode="&#x25b3;" horiz-adv-x="1843" 
d="M1692 0h-1538v8l768 1264h8l762 -1264v-8zM932 1085h-10q-243 -512 -578 -974l6 -11q357 29 576 29q245 0 575 -29l6 11q-339 467 -575 974z" />
    <glyph glyph-name="uni25B6" unicode="&#x25b6;" horiz-adv-x="1843" 
d="M369 -147v1538h8l1263 -768v-9l-1263 -761h-8z" />
    <glyph glyph-name="uni25B7" unicode="&#x25b7;" horiz-adv-x="1843" 
d="M369 -147v1538h8l1263 -768v-9l-1263 -761h-8zM1454 612v11q-518 246 -975 577l-10 -6q29 -357 29 -576q0 -245 -29 -575l10 -6q466 338 975 575z" />
    <glyph glyph-name="triagdn" unicode="&#x25bc;" horiz-adv-x="1843" 
d="M152 1229h1538v-8l-768 -1264h-9l-761 1264v8z" />
    <glyph glyph-name="uni25BD" unicode="&#x25bd;" horiz-adv-x="1843" 
d="M152 1229h1538v-8l-768 -1264h-9l-761 1264v8zM911 143h11q246 518 577 975l-6 10q-345 -28 -575 -28q-258 0 -576 28l-6 -10q338 -466 575 -975z" />
    <glyph glyph-name="uni25C0" unicode="&#x25c0;" horiz-adv-x="1843" 
d="M1466 1391h9v-1538h-9l-1263 761v9z" />
    <glyph glyph-name="uni25C1" unicode="&#x25c1;" horiz-adv-x="1843" 
d="M1466 1391h9v-1538h-9l-1263 761v9zM389 623v-11q509 -237 975 -575l10 6q-28 319 -28 575q0 231 28 576l-10 6q-457 -331 -975 -577z" />
    <glyph glyph-name="uni25C6" unicode="&#x25c6;" horiz-adv-x="1843" 
d="M922 -395q-483 521 -990 989q540 502 990 989q457 -493 989 -989q-500 -461 -989 -989z" />
    <glyph glyph-name="uni25CF" unicode="&#x25cf;" horiz-adv-x="1843" 
d="M-6 602q0 284 112.5 494t323 322t494.5 112q427 0 676 -249.5t249 -678.5q0 -428 -249 -678t-676 -250q-430 0 -680 250t-250 678z" />
    <glyph glyph-name="uni25EF" unicode="&#x25ef;" horiz-adv-x="1771" 
d="M885 1438q193 0 347.5 -60.5t256 -168.5t155.5 -256.5t54 -325.5q0 -178 -53.5 -327.5t-155 -258.5t-256.5 -170t-348 -61t-347.5 61t-255.5 170t-154.5 258.5t-53.5 327.5q0 177 54 325.5t155 256.5t255.5 168.5t346.5 60.5zM885 -74q170 0 302.5 52t216.5 146.5
t127.5 221.5t43.5 281q0 151 -44 277t-128.5 219.5t-217 145.5t-300.5 52t-300.5 -52t-216.5 -145.5t-127.5 -219.5t-43.5 -277q0 -154 43 -281t126.5 -221.5t216 -146.5t302.5 -52z" />
    <glyph glyph-name="uni2605" unicode="&#x2605;" horiz-adv-x="1843" 
d="M926 1464l243 -553l605 -63l2 -8l-451 -404l125 -592l-2 -4l-526 305l-523 -305l-6 4l125 592l-450 404l2 8l604 63l244 553h8z" />
    <glyph glyph-name="uni2610" unicode="&#x2610;" horiz-adv-x="1843" 
d="M1489 1133v-1133h-1133v1133h1133zM1374 567q0 173 15 465q-237 -12 -465 -12t-465 12q12 -312 12 -465t-12 -465q342 13 465 13t465 -13q-15 293 -15 465z" />
    <glyph glyph-name="uni2611" unicode="&#x2611;" horiz-adv-x="1843" 
d="M1489 0h-1133v1133h865v-7l-70 -104q-76 -2 -227 -2q-202 0 -465 10q12 -308 12 -463q0 -153 -12 -465q342 13 465 13t465 -13q-15 337 -15 539l109 152h6v-793zM625 627l80 86q186 -198 253 -301q84 154 196.5 329.5t198 298t218.5 308.5l110 -80q-371 -445 -688 -981
h-65q-64 91 -134 169t-169 171z" />
    <glyph glyph-name="uni2612" unicode="&#x2612;" horiz-adv-x="1843" 
d="M1489 1133v-1133h-1133v1133h1133zM1374 567q0 173 15 465q-237 -12 -465 -12t-465 12q12 -312 12 -465t-12 -465q342 13 465 13t465 -13q-15 293 -15 465zM924 610q79 98 233 264l74 -75q-162 -150 -266 -230q121 -93 266 -231l-74 -74q-106 112 -235 264
q-107 -132 -232 -264l-76 74q141 134 267 231q-110 85 -267 230l76 75q122 -132 234 -264z" />
    <glyph glyph-name="uni2661" unicode="&#x2661;" horiz-adv-x="1843" 
d="M928 -111h-8q-62 108 -155.5 195.5t-244.5 196.5q-100 73 -169.5 135.5t-129.5 137t-89.5 157t-29.5 174.5q0 205 108 318.5t296 113.5q164 0 259.5 -77.5t145.5 -244.5h21q50 167 146 244.5t261 77.5q185 0 293.5 -113.5t108.5 -318.5q0 -92 -29.5 -174.5t-89 -157
t-129 -137.5t-168.5 -135q-150 -109 -243.5 -196.5t-153.5 -195.5zM924 66h4q98 160 340 325q110 75 181.5 145.5t116 159.5t44.5 187q0 140 -72.5 224.5t-224.5 84.5q-147 0 -230.5 -100.5t-124.5 -290.5h-65q-41 190 -124.5 290.5t-229.5 100.5q-152 0 -224.5 -84.5
t-72.5 -224.5q0 -98 44.5 -187t116 -159.5t181.5 -145.5q242 -165 340 -325z" />
    <glyph glyph-name="heart" unicode="&#x2665;" horiz-adv-x="1843" 
d="M928 -111h-8q-62 108 -155.5 195.5t-244.5 196.5q-100 73 -169.5 135.5t-129.5 137t-89.5 157t-29.5 174.5q0 205 108 318.5t296 113.5q164 0 259.5 -77.5t145.5 -244.5h21q50 167 146 244.5t261 77.5q185 0 293.5 -113.5t108.5 -318.5q0 -92 -29.5 -174.5t-89 -157
t-129 -137.5t-168.5 -135q-150 -109 -243.5 -196.5t-153.5 -195.5z" />
    <glyph glyph-name="heart" unicode="&#x2764;" horiz-adv-x="1843" 
d="M928 -111h-8q-62 108 -155.5 195.5t-244.5 196.5q-100 73 -169.5 135.5t-129.5 137t-89.5 157t-29.5 174.5q0 205 108 318.5t296 113.5q164 0 259.5 -77.5t145.5 -244.5h21q50 167 146 244.5t261 77.5q185 0 293.5 -113.5t108.5 -318.5q0 -92 -29.5 -174.5t-89 -157
t-129 -137.5t-168.5 -135q-150 -109 -243.5 -196.5t-153.5 -195.5z" />
    <glyph glyph-name="uni26AB" unicode="&#x26ab;" horiz-adv-x="1771" 
d="M885 1438q193 0 347.5 -60.5t256 -168.5t155.5 -256.5t54 -325.5q0 -178 -53.5 -327.5t-155 -258.5t-256.5 -170t-348 -61t-347.5 61t-255.5 170t-154.5 258.5t-53.5 327.5q0 177 54 325.5t155 256.5t255.5 168.5t346.5 60.5z" />
    <glyph glyph-name="uni2726" unicode="&#x2726;" horiz-adv-x="1843" 
d="M1690 616v-24q-275 -85 -473 -284.5t-285 -471.5h-23q-88 273 -284 472t-473 284v24q277 85 473 284t284 472h23q87 -272 285 -471.5t473 -284.5z" />
    <glyph glyph-name="uni2727" unicode="&#x2727;" horiz-adv-x="1843" 
d="M1692 606v-8q-277 -85 -477 -287t-287 -475h-8q-87 272 -289 475.5t-477 288.5v8q275 85 475.5 288.5t288.5 475.5h8q87 -272 289 -476.5t477 -289.5zM1466 598v14q-205 73 -335 201.5t-203 335.5h-13q-74 -207 -204 -337.5t-332 -199.5v-14q204 -73 334.5 -202.5
t201.5 -334.5h13q73 206 203 335.5t335 201.5z" />
    <glyph glyph-name="uni2728" unicode="&#x2728;" horiz-adv-x="1843" 
d="M1255 424v-8q-225 -68 -387.5 -233t-232.5 -388h-10q-70 223 -234.5 389t-390.5 234v8q227 71 391 236t234 387h8q73 -223 235.5 -388.5t386.5 -236.5zM1843 793v-9q-169 -50 -291.5 -174.5t-177.5 -294.5h-8q-51 168 -175.5 292.5t-297.5 178.5v9q171 53 293.5 177.5
t177.5 293.5h8q55 -169 178 -294.5t293 -178.5zM623 -25h8q61 167 169 274t275 169v10q-168 62 -275.5 168.5t-168.5 273.5h-8q-61 -167 -168 -273.5t-273 -168.5v-10q166 -62 273 -169t168 -274zM1698 786v9q-124 44 -203 123t-123 202h-6q-44 -123 -123 -202t-201 -123v-9
q122 -45 201 -123t123 -200h6q44 123 122.5 201t203.5 122zM1194 1204v-10q-103 -32 -176.5 -107.5t-106.5 -179.5h-10q-31 104 -105.5 180.5t-179.5 108.5v8q104 32 178 108t107 181h8q33 -104 107.5 -180.5t177.5 -108.5zM1100 1198v4q-142 50 -191 193h-6
q-49 -143 -188 -193v-4q139 -50 188 -190h6q46 140 191 190z" />
    <glyph glyph-name="uni2744" unicode="&#x2744;" horiz-adv-x="2635" 
d="M1942 16q-11 -30 -123 -30l-50 2q9 223 14 528.5t7 386.5q-51 -157 -109.5 -386t-94 -367t-48.5 -146q-15 -12 -43 -12q-10 0 -47.5 5.5t-67.5 6.5q4 86 4 420q-63 2 -190 2q2 -51 2 -164q0 -244 -20 -256q-12 -10 -54 -10q-22 0 -58 3t-46 3h-6q14 199 14 422
q-30 0 -84 -1t-78 -1v-92q0 -56 1 -146t1 -112q0 -39 -2 -41q-10 -26 -39 -33.5t-123 -9.5q-2 59 -2 162q0 76 5 266q-114 -4 -132 -4q-159 -277 -215 -408q-9 4 -45 4q-19 0 -40.5 -2.5t-33.5 -5.5l-12 -2q-5 51 -32 102q-10 17 -57.5 92.5t-89.5 143t-46 80.5q-4 16 -4 24
q0 38 27 90q-11 26 -11 50q0 32 17 98q12 36 48.5 121t93 213.5t91.5 212.5q70 0 144 20q97 -249 180 -667q6 0 121 -5v25q0 42 -1 161t-1 181q0 241 16 262q16 29 147 31q-6 -123 -6 -236q0 -70 2 -191t2 -171v-64q26 0 79.5 -1t78.5 -1q0 183 -3 357.5t-3 185.5
q0 53 4 70.5t16 25.5q18 13 78 13h64q0 -26 -1 -78t-1 -76q0 -121 5 -296.5t5 -199.5q40 1 106.5 4.5t87.5 4.5q0 54 -1 150t-1 138q0 317 17 344q20 29 86 29q15 0 41.5 -2t34.5 -2q-17 -136 -17 -541v-164q207 676 250 697q19 8 61 8l95 -6q-6 -294 -6 -350q0 -130 3 -370
t3 -316q0 -166 -8 -179zM2292 1245q24 -12 57 -12q40 0 61 24q148 -468 226 -763q-187 -488 -246 -500q-4 -2 -18 -2q-46 0 -136 37q-1 34 -24 87t-45 91t-59 96.5t-42 67.5q-22 42 -22 61q0 12 4.5 21.5t12.5 18.5t10 13q6 9 6 21q0 28 -35 37l10 25q10 26 28.5 71.5
t40.5 102.5t47 124.5t48 133t43.5 131t32.5 114.5zM143 520q0 -16 24.5 -61t64.5 -116.5t65 -127.5q24 63 58 136.5t52.5 115.5t18.5 61v4q0 36 -96 431q-187 -405 -187 -443zM2359 948q-23 -71 -67 -180.5t-71.5 -182.5t-27.5 -96v-4q3 -28 70.5 -141.5t79.5 -140.5
q28 66 58 142.5t45.5 117t15.5 39.5q-23 128 -61 276t-42 170z" />
    <glyph glyph-name="uni2780" unicode="&#x2780;" horiz-adv-x="1771" 
d="M885 1438q193 0 347.5 -60.5t256 -168.5t155.5 -256.5t54 -325.5q0 -178 -53.5 -327.5t-155 -258.5t-256.5 -170t-348 -61t-347.5 61t-255.5 170t-154.5 258.5t-53.5 327.5q0 177 54 325.5t155 256.5t255.5 168.5t346.5 60.5zM885 -74q170 0 302.5 52t216.5 146.5
t127.5 221.5t43.5 281q0 151 -44 277t-128.5 219.5t-217 145.5t-300.5 52t-300.5 -52t-216.5 -145.5t-127.5 -219.5t-43.5 -277q0 -154 43 -281t126.5 -221.5t216 -146.5t302.5 -52zM1200 188h-221h-123h-281v107h281v666q-86 -42 -258 -105l-41 105l354 108h68v-774h221
v-107z" />
    <glyph glyph-name="uni2781" unicode="&#x2781;" horiz-adv-x="1771" 
d="M885 1438q193 0 347.5 -60.5t256 -168.5t155.5 -256.5t54 -325.5q0 -178 -53.5 -327.5t-155 -258.5t-256.5 -170t-348 -61t-347.5 61t-255.5 170t-154.5 258.5t-53.5 327.5q0 177 54 325.5t155 256.5t255.5 168.5t346.5 60.5zM885 -74q170 0 302.5 52t216.5 146.5
t127.5 221.5t43.5 281q0 151 -44 277t-128.5 219.5t-217 145.5t-300.5 52t-300.5 -52t-216.5 -145.5t-127.5 -219.5t-43.5 -277q0 -154 43 -281t126.5 -221.5t216 -146.5t302.5 -52zM901 981q-121 0 -185.5 -61t-90.5 -179l-121 21q71 325 395 325q162 0 249 -67t87 -197
q0 -117 -91.5 -184.5t-271.5 -114.5q-164 -46 -221 -93t-63 -144q200 12 362 12h297v-109h-770v74q0 145 78 221t258 125q169 48 232 93t63 122q0 156 -207 156z" />
    <glyph glyph-name="uni2782" unicode="&#x2782;" horiz-adv-x="1771" 
d="M885 1438q193 0 347.5 -60.5t256 -168.5t155.5 -256.5t54 -325.5q0 -178 -53.5 -327.5t-155 -258.5t-256.5 -170t-348 -61t-347.5 61t-255.5 170t-154.5 258.5t-53.5 327.5q0 177 54 325.5t155 256.5t255.5 168.5t346.5 60.5zM885 -74q170 0 302.5 52t216.5 146.5
t127.5 221.5t43.5 281q0 151 -44 277t-128.5 219.5t-217 145.5t-300.5 52t-300.5 -52t-216.5 -145.5t-127.5 -219.5t-43.5 -277q0 -154 43 -281t126.5 -221.5t216 -146.5t302.5 -52zM883 172q-341 0 -412 293l125 20q31 -108 97 -160.5t190 -52.5t185.5 42t61.5 118
q0 79 -49 114.5t-180 35.5h-162v94h158q86 0 139.5 36t53.5 113q0 79 -48 116.5t-155 37.5q-111 0 -168.5 -50t-85.5 -153l-117 17q57 288 371 288q323 0 323 -233q0 -165 -204 -207v-16q139 -12 194 -59t55 -144q0 -116 -91.5 -183t-280.5 -67z" />
    <glyph glyph-name="uni2783" unicode="&#x2783;" horiz-adv-x="1771" 
d="M885 1438q193 0 347.5 -60.5t256 -168.5t155.5 -256.5t54 -325.5q0 -178 -53.5 -327.5t-155 -258.5t-256.5 -170t-348 -61t-347.5 61t-255.5 170t-154.5 258.5t-53.5 327.5q0 177 54 325.5t155 256.5t255.5 168.5t346.5 60.5zM885 -74q170 0 302.5 52t216.5 146.5
t127.5 221.5t43.5 281q0 151 -44 277t-128.5 219.5t-217 145.5t-300.5 52t-300.5 -52t-216.5 -145.5t-127.5 -219.5t-43.5 -277q0 -154 43 -281t126.5 -221.5t216 -146.5t302.5 -52zM977 188v215h-576v91l553 575h148v-563h147v-103h-147v-215h-125zM977 952l-12 2
l-433 -452l9 -13q185 17 325 17h111v446z" />
    <glyph glyph-name="uni2784" unicode="&#x2784;" horiz-adv-x="1771" 
d="M885 1438q193 0 347.5 -60.5t256 -168.5t155.5 -256.5t54 -325.5q0 -178 -53.5 -327.5t-155 -258.5t-256.5 -170t-348 -61t-347.5 61t-255.5 170t-154.5 258.5t-53.5 327.5q0 177 54 325.5t155 256.5t255.5 168.5t346.5 60.5zM885 -74q170 0 302.5 52t216.5 146.5
t127.5 221.5t43.5 281q0 151 -44 277t-128.5 219.5t-217 145.5t-300.5 52t-300.5 -52t-216.5 -145.5t-127.5 -219.5t-43.5 -277q0 -154 43 -281t126.5 -221.5t216 -146.5t302.5 -52zM899 276q124 0 179 46t55 135q0 88 -57.5 129t-180.5 41q-73 0 -140.5 -16t-105.5 -40
l-98 35v463h655v-113q-317 0 -544 15v-326q117 76 270 76q158 0 241.5 -67.5t83.5 -196.5q0 -283 -364 -283q-155 0 -253.5 57.5t-168.5 178.5l117 45q49 -87 120.5 -133t190.5 -46z" />
    <glyph glyph-name="uni2785" unicode="&#x2785;" horiz-adv-x="1771" 
d="M885 1438q193 0 347.5 -60.5t256 -168.5t155.5 -256.5t54 -325.5q0 -178 -53.5 -327.5t-155 -258.5t-256.5 -170t-348 -61t-347.5 61t-255.5 170t-154.5 258.5t-53.5 327.5q0 177 54 325.5t155 256.5t255.5 168.5t346.5 60.5zM885 -74q170 0 302.5 52t216.5 146.5
t127.5 221.5t43.5 281q0 151 -44 277t-128.5 219.5t-217 145.5t-300.5 52t-300.5 -52t-216.5 -145.5t-127.5 -219.5t-43.5 -277q0 -154 43 -281t126.5 -221.5t216 -146.5t302.5 -52zM600 557l16 -2q76 172 328 172q140 0 228 -63t88 -193q0 -139 -96 -217t-279 -78
q-93 0 -163.5 22t-125 70t-83 132.5t-28.5 203.5q0 106 22.5 191.5t70 152t128.5 103t191 36.5q167 0 244.5 -70t97.5 -204l-119 -16q-21 96 -72 141t-153 45q-153 0 -224 -97.5t-71 -301.5v-27zM907 643q-139 0 -212.5 -52.5t-73.5 -127.5q0 -79 70 -131.5t198 -52.5
q244 0 244 194q0 170 -226 170z" />
    <glyph glyph-name="uni2786" unicode="&#x2786;" horiz-adv-x="1771" 
d="M885 1438q193 0 347.5 -60.5t256 -168.5t155.5 -256.5t54 -325.5q0 -178 -53.5 -327.5t-155 -258.5t-256.5 -170t-348 -61t-347.5 61t-255.5 170t-154.5 258.5t-53.5 327.5q0 177 54 325.5t155 256.5t255.5 168.5t346.5 60.5zM885 -74q170 0 302.5 52t216.5 146.5
t127.5 221.5t43.5 281q0 151 -44 277t-128.5 219.5t-217 145.5t-300.5 52t-300.5 -52t-216.5 -145.5t-127.5 -219.5t-43.5 -277q0 -154 43 -281t126.5 -221.5t216 -146.5t302.5 -52zM768 958h-281v111h783v-111q-341 -314 -381 -770h-139q19 215 128 421t289 364
q-216 -15 -399 -15z" />
    <glyph glyph-name="uni2787" unicode="&#x2787;" horiz-adv-x="1771" 
d="M885 1438q193 0 347.5 -60.5t256 -168.5t155.5 -256.5t54 -325.5q0 -178 -53.5 -327.5t-155 -258.5t-256.5 -170t-348 -61t-347.5 61t-255.5 170t-154.5 258.5t-53.5 327.5q0 177 54 325.5t155 256.5t255.5 168.5t346.5 60.5zM885 -74q170 0 302.5 52t216.5 146.5
t127.5 221.5t43.5 281q0 151 -44 277t-128.5 219.5t-217 145.5t-300.5 52t-300.5 -52t-216.5 -145.5t-127.5 -219.5t-43.5 -277q0 -154 43 -281t126.5 -221.5t216 -146.5t302.5 -52zM881 174q-387 0 -387 244q0 176 264 207v16q-219 43 -219 209q2 110 86.5 172.5
t255.5 62.5q174 0 260 -62.5t86 -172.5q0 -167 -221 -209v-16q266 -31 266 -207q0 -244 -391 -244zM881 586q-143 0 -201.5 -45t-58.5 -113q0 -154 260 -154q264 0 264 154q0 31 -12 57t-39.5 50t-82 37.5t-130.5 13.5zM881 983q-219 0 -222 -152q0 -154 222 -157
q223 3 223 157q0 152 -223 152z" />
    <glyph glyph-name="uni2788" unicode="&#x2788;" horiz-adv-x="1771" 
d="M885 1438q193 0 347.5 -60.5t256 -168.5t155.5 -256.5t54 -325.5q0 -178 -53.5 -327.5t-155 -258.5t-256.5 -170t-348 -61t-347.5 61t-255.5 170t-154.5 258.5t-53.5 327.5q0 177 54 325.5t155 256.5t255.5 168.5t346.5 60.5zM885 -74q170 0 302.5 52t216.5 146.5
t127.5 221.5t43.5 281q0 151 -44 277t-128.5 219.5t-217 145.5t-300.5 52t-300.5 -52t-216.5 -145.5t-127.5 -219.5t-43.5 -277q0 -154 43 -281t126.5 -221.5t216 -146.5t302.5 -52zM1161 698h-16q-35 -79 -115 -126.5t-207 -47.5q-136 0 -222.5 64.5t-86.5 197.5
q0 134 96.5 216.5t270.5 82.5q190 0 292.5 -100t102.5 -328q0 -108 -22 -194t-68 -152t-123.5 -101.5t-183.5 -35.5q-177 0 -265 71t-110 201l121 19q29 -186 254 -186q148 0 215 96t67 299v24zM862 610q134 0 206.5 54t72.5 133t-69 130.5t-193 51.5q-122 0 -182 -54.5
t-60 -142.5q0 -86 58.5 -129t166.5 -43z" />
    <glyph glyph-name="uni2789" unicode="&#x2789;" horiz-adv-x="1763" 
d="M885 1438q193 0 347.5 -60.5t256 -168.5t155.5 -256.5t54 -325.5q0 -178 -53.5 -327.5t-155 -258.5t-256.5 -170t-348 -61t-347.5 61t-255.5 170t-154.5 258.5t-53.5 327.5q0 177 54 325.5t155 256.5t255.5 168.5t346.5 60.5zM885 -74q170 0 302.5 52t216.5 146.5
t127.5 221.5t43.5 281q0 151 -44 277t-128.5 219.5t-217 145.5t-300.5 52t-300.5 -52t-216.5 -145.5t-127.5 -219.5t-43.5 -277q0 -154 43 -281t126.5 -221.5t216 -146.5t302.5 -52zM1120 1077q133 0 202 -117t69 -329q0 -213 -69 -332t-202 -119t-202.5 119t-69.5 332
q0 212 69.5 329t202.5 117zM1120 977q-164 0 -164 -346q0 -350 164 -350q162 0 162 350q0 346 -162 346zM395 197v98h191v670q-87 -39 -176 -72l-35 94l260 74h55v-766h135v-98h-430z" />
    <glyph glyph-name="uni278A" unicode="&#x278a;" horiz-adv-x="1771" 
d="M885 1438q193 0 347.5 -60.5t256 -168.5t155.5 -256.5t54 -325.5q0 -178 -53.5 -327.5t-155 -258.5t-256.5 -170t-348 -61t-347.5 61t-255.5 170t-154.5 258.5t-53.5 327.5q0 177 54 325.5t155 256.5t255.5 168.5t346.5 60.5zM856 297h-281v-109h625v109h-221v772h-68
l-354 -108l41 -105q148 55 258 100v-659z" />
    <glyph glyph-name="uni278B" unicode="&#x278b;" horiz-adv-x="1771" 
d="M885 1438q193 0 347.5 -60.5t256 -168.5t155.5 -256.5t54 -325.5q0 -178 -53.5 -327.5t-155 -258.5t-256.5 -170t-348 -61t-347.5 61t-255.5 170t-154.5 258.5t-53.5 327.5q0 177 54 325.5t155 256.5t255.5 168.5t346.5 60.5zM899 983q207 0 207 -156q0 -77 -63 -122
t-232 -93q-179 -49 -257.5 -125.5t-78.5 -220.5v-73h770v108h-297q-190 0 -362 -14q6 99 63 145.5t221 93.5q86 23 148 48t112.5 60t75.5 82.5t25 108.5q0 130 -86 197.5t-248 67.5q-322 0 -397 -326l123 -21q25 117 89.5 178.5t186.5 61.5z" />
    <glyph glyph-name="uni278C" unicode="&#x278c;" horiz-adv-x="1771" 
d="M885 1438q193 0 347.5 -60.5t256 -168.5t155.5 -256.5t54 -325.5q0 -178 -53.5 -327.5t-155 -258.5t-256.5 -170t-348 -61t-347.5 61t-255.5 170t-154.5 258.5t-53.5 327.5q0 177 54 325.5t155 256.5t255.5 168.5t346.5 60.5zM883 172q189 0 280.5 67t91.5 183
q0 97 -55 144t-194 59v16q204 42 204 207q0 233 -323 233q-314 0 -371 -288l117 -17q28 103 85.5 153t168.5 50q107 0 155 -37.5t48 -114.5t-53.5 -113t-139.5 -36h-158v-94h162q131 0 180 -36.5t49 -115.5q0 -76 -61.5 -117t-185.5 -41t-190 53t-97 158l-125 -20
q71 -293 412 -293z" />
    <glyph glyph-name="uni278D" unicode="&#x278d;" horiz-adv-x="1771" 
d="M885 1438q193 0 347.5 -60.5t256 -168.5t155.5 -256.5t54 -325.5q0 -178 -53.5 -327.5t-155 -258.5t-256.5 -170t-348 -61t-347.5 61t-255.5 170t-154.5 258.5t-53.5 327.5q0 177 54 325.5t155 256.5t255.5 168.5t346.5 60.5zM1102 406h147v100h-147v565h-146l-555 -577
v-88h576v-216h125v216zM977 506h-127q-136 0 -307 -14l-11 14l435 448l10 -2v-446z" />
    <glyph glyph-name="uni278E" unicode="&#x278e;" horiz-adv-x="1771" 
d="M885 1438q193 0 347.5 -60.5t256 -168.5t155.5 -256.5t54 -325.5q0 -178 -53.5 -327.5t-155 -258.5t-256.5 -170t-348 -61t-347.5 61t-255.5 170t-154.5 258.5t-53.5 327.5q0 177 54 325.5t155 256.5t255.5 168.5t346.5 60.5zM899 276q-119 0 -190.5 46t-120.5 133
l-117 -45q68 -121 167 -178.5t255 -57.5q364 0 364 283q0 129 -83.5 195.5t-243.5 66.5q-156 0 -268 -74v326q231 -15 542 -15v113h-655v-463l100 -35q38 24 105.5 40t140.5 16q123 0 180.5 -41t57.5 -129q0 -89 -55 -135t-179 -46z" />
    <glyph glyph-name="uni278F" unicode="&#x278f;" horiz-adv-x="1771" 
d="M885 1438q193 0 347.5 -60.5t256 -168.5t155.5 -256.5t54 -325.5q0 -178 -53.5 -327.5t-155 -258.5t-256.5 -170t-348 -61t-347.5 61t-255.5 170t-154.5 258.5t-53.5 327.5q0 177 54 325.5t155 256.5t255.5 168.5t346.5 60.5zM1257 471q0 67 -24.5 117.5t-68 80t-98.5 44
t-122 14.5q-128 0 -210.5 -45.5t-115.5 -128.5l-20 2q1 227 71.5 327.5t225.5 100.5q102 0 153 -45t72 -141l119 14q-22 134 -100 204t-242 70q-109 0 -190 -36t-129.5 -101.5t-71.5 -151t-23 -192.5q0 -118 29 -203t84 -133t126 -70t163 -22q183 0 277.5 78t94.5 217z
M907 641q226 0 226 -168q0 -194 -244 -194q-128 0 -198 52.5t-70 131.5q0 75 73.5 126.5t212.5 51.5z" />
    <glyph glyph-name="uni2790" unicode="&#x2790;" horiz-adv-x="1771" 
d="M885 1438q193 0 347.5 -60.5t256 -168.5t155.5 -256.5t54 -325.5q0 -178 -53.5 -327.5t-155 -258.5t-256.5 -170t-348 -61t-347.5 61t-255.5 170t-154.5 258.5t-53.5 327.5q0 177 54 325.5t155 256.5t255.5 168.5t346.5 60.5zM487 1069v-111h281q193 0 397 15
q-179 -160 -287.5 -365t-127.5 -420h139q40 460 383 770v111h-785z" />
    <glyph glyph-name="uni2791" unicode="&#x2791;" horiz-adv-x="1771" 
d="M885 1438q193 0 347.5 -60.5t256 -168.5t155.5 -256.5t54 -325.5q0 -178 -53.5 -327.5t-155 -258.5t-256.5 -170t-348 -61t-347.5 61t-255.5 170t-154.5 258.5t-53.5 327.5q0 177 54 325.5t155 256.5t255.5 168.5t346.5 60.5zM883 174q389 0 389 244q0 176 -264 207v18
q219 39 219 207q0 110 -85.5 172.5t-258.5 62.5t-257.5 -62.5t-84.5 -172.5q-3 -168 219 -207v-18q-264 -31 -264 -207q0 -244 387 -244zM883 586q262 0 262 -158q0 -154 -262 -154t-262 154q0 158 262 158zM883 983q221 0 221 -152q0 -80 -57.5 -116t-163.5 -41
q-105 5 -163 41t-58 116q0 152 221 152z" />
    <glyph glyph-name="uni2792" unicode="&#x2792;" horiz-adv-x="1771" 
d="M885 1438q193 0 347.5 -60.5t256 -168.5t155.5 -256.5t54 -325.5q0 -178 -53.5 -327.5t-155 -258.5t-256.5 -170t-348 -61t-347.5 61t-255.5 170t-154.5 258.5t-53.5 327.5q0 177 54 325.5t155 256.5t255.5 168.5t346.5 60.5zM1276 655q0 119 -27.5 203t-81.5 132.5
t-124 70.5t-164 22q-175 0 -271 -81.5t-96 -217.5q0 -67 24.5 -118t68 -81.5t98.5 -45.5t120 -15q238 0 322 176l16 -2q0 -222 -65 -320.5t-217 -98.5q-219 0 -256 184l-119 -19q22 -128 109.5 -199t263.5 -71q107 0 185.5 35.5t124.5 102t67.5 151.5t21.5 192zM862 608
q-227 0 -227 174q0 88 60.5 142.5t183.5 54.5q124 0 193 -51.5t69 -130.5t-73 -134t-206 -55z" />
    <glyph glyph-name="uni2793" unicode="&#x2793;" horiz-adv-x="1763" 
d="M885 1438q193 0 347.5 -60.5t256 -168.5t155.5 -256.5t54 -325.5q0 -178 -53.5 -327.5t-155 -258.5t-256.5 -170t-348 -61t-347.5 61t-255.5 170t-154.5 258.5t-53.5 327.5q0 177 54 325.5t155 256.5t255.5 168.5t346.5 60.5zM1120 1077q-133 0 -202.5 -117t-69.5 -329
q0 -213 69.5 -332t202.5 -119t202 119t69 332q0 212 -69 329t-202 117zM1120 977q164 0 164 -346q0 -350 -164 -350t-164 350q0 346 164 346zM582 295h-191v-98h430v98h-135v766h-55l-260 -74l35 -94q94 30 176 70v-668z" />
    <glyph glyph-name="uni279A" unicode="&#x279a;" horiz-adv-x="1843" 
d="M1317 729v-729h-1071v1071h739v-4l-104 -109q-239 0 -531 13q12 -209 12 -414q0 -228 -12 -453q334 13 453 13q113 0 414 -13q-13 368 -13 502l109 123h4zM872 1376h738l30 -28v-766h-122q15 419 47 647l-13 4q-207 -222 -606 -633l-262 -260l-86 82l264 262
q244 249 635 606l-4 10q-167 -29 -621 -45v121z" />
    <glyph glyph-name="uni2B1B" unicode="&#x2b1b;" horiz-adv-x="1843" 
d="M1489 1133v-1133h-1133v1133h1133z" />
    <glyph glyph-name="uni2B1C" unicode="&#x2b1c;" horiz-adv-x="1843" 
d="M1489 1133v-1133h-1133v1133h1133zM1374 567q0 173 15 465q-237 -12 -465 -12t-465 12q12 -312 12 -465t-12 -465q342 13 465 13t465 -13q-15 293 -15 465z" />
    <glyph glyph-name="uniF8FF" unicode="&#xf8ff;" horiz-adv-x="2635" 
d="M1942 16q-11 -30 -123 -30l-50 2q9 223 14 528.5t7 386.5q-51 -157 -109.5 -386t-94 -367t-48.5 -146q-15 -12 -43 -12q-10 0 -47.5 5.5t-67.5 6.5q4 86 4 420q-63 2 -190 2q2 -51 2 -164q0 -244 -20 -256q-12 -10 -54 -10q-22 0 -58 3t-46 3h-6q14 199 14 422
q-30 0 -84 -1t-78 -1v-92q0 -56 1 -146t1 -112q0 -39 -2 -41q-10 -26 -39 -33.5t-123 -9.5q-2 59 -2 162q0 76 5 266q-114 -4 -132 -4q-159 -277 -215 -408q-9 4 -45 4q-19 0 -40.5 -2.5t-33.5 -5.5l-12 -2q-5 51 -32 102q-10 17 -57.5 92.5t-89.5 143t-46 80.5q-4 16 -4 24
q0 38 27 90q-11 26 -11 50q0 32 17 98q12 36 48.5 121t93 213.5t91.5 212.5q70 0 144 20q97 -249 180 -667q6 0 121 -5v25q0 42 -1 161t-1 181q0 241 16 262q16 29 147 31q-6 -123 -6 -236q0 -70 2 -191t2 -171v-64q26 0 79.5 -1t78.5 -1q0 183 -3 357.5t-3 185.5
q0 53 4 70.5t16 25.5q18 13 78 13h64q0 -26 -1 -78t-1 -76q0 -121 5 -296.5t5 -199.5q40 1 106.5 4.5t87.5 4.5q0 54 -1 150t-1 138q0 317 17 344q20 29 86 29q15 0 41.5 -2t34.5 -2q-17 -136 -17 -541v-164q207 676 250 697q19 8 61 8l95 -6q-6 -294 -6 -350q0 -130 3 -370
t3 -316q0 -166 -8 -179zM2292 1245q24 -12 57 -12q40 0 61 24q148 -468 226 -763q-187 -488 -246 -500q-4 -2 -18 -2q-46 0 -136 37q-1 34 -24 87t-45 91t-59 96.5t-42 67.5q-22 42 -22 61q0 12 4.5 21.5t12.5 18.5t10 13q6 9 6 21q0 28 -35 37l10 25q10 26 28.5 71.5
t40.5 102.5t47 124.5t48 133t43.5 131t32.5 114.5zM143 520q0 -16 24.5 -61t64.5 -116.5t65 -127.5q24 63 58 136.5t52.5 115.5t18.5 61v4q0 36 -96 431q-187 -405 -187 -443zM2359 948q-23 -71 -67 -180.5t-71.5 -182.5t-27.5 -96v-4q3 -28 70.5 -141.5t79.5 -140.5
q28 66 58 142.5t45.5 117t15.5 39.5q-23 128 -61 276t-42 170z" />
    <glyph glyph-name="fi" unicode="&#xfb01;" horiz-adv-x="1155" 
d="M367 1016v-64h315v-121h-315v-831h-140v831h-184v121h184v66q0 150 76.5 235.5t226.5 85.5q70 0 158 -18l-8 -111q-92 15 -133 15q-95 0 -137.5 -52.5t-42.5 -156.5zM997 952v-952h-141v952h141zM1014 1298v-143h-174v143h174z" />
    <glyph glyph-name="fl" unicode="&#xfb02;" horiz-adv-x="1138" 
d="M367 1016v-64h315v-121h-315v-831h-140v831h-184v121h184v66q0 150 76.5 235.5t226.5 85.5q70 0 158 -18l-8 -111q-92 15 -133 15q-95 0 -137.5 -52.5t-42.5 -156.5zM852 1315h139v-1315h-139v1315z" />
    <glyph glyph-name="uniFEFF" unicode="&#xfeff;" horiz-adv-x="0" 
 />
    <glyph glyph-name="dollar.c2sc" horiz-adv-x="1040" 
d="M588 -8l10 -215h-123l8 217q-194 13 -297.5 103t-124.5 243l138 29q25 -132 110 -197.5t242 -65.5q141 0 209.5 46.5t68.5 128.5t-68.5 126.5t-240.5 73.5q-222 37 -314.5 114.5t-92.5 201.5q0 127 94.5 202.5t275.5 81.5l-8 195h123l-8 -197q156 -16 238.5 -93
t115.5 -210l-143 -28q-28 115 -92 168t-199 53q-126 0 -192 -43.5t-66 -120.5q0 -76 66.5 -122.5t250.5 -78.5q119 -22 199 -52.5t124.5 -71t62.5 -85.5t18 -104q0 -135 -94 -213.5t-291 -85.5z" />
    <glyph glyph-name="dollar.onum" horiz-adv-x="1011" 
d="M567 -4l8 -250h-112l8 252q-355 25 -410 344l140 29q56 -260 340 -260q128 0 193 45t65 131q0 85 -66 127t-233 69q-205 37 -292 110.5t-87 192.5q0 127 90.5 204.5t259.5 84.5l-8 244h112l-8 -246q81 -8 141 -33t100 -66t64.5 -90t40.5 -114l-141 -29q-27 115 -90 167.5
t-182 52.5q-112 0 -174 -44t-62 -122q0 -72 63.5 -118.5t225.5 -74.5q215 -37 303 -111t88 -198q0 -133 -93 -212t-284 -85z" />
    <glyph glyph-name="percent.c2sc" horiz-adv-x="1390" 
d="M365 489q-136 0 -217.5 82.5t-81.5 221.5q0 140 81.5 220.5t217.5 80.5q137 0 218 -80.5t81 -220.5q0 -139 -81 -221.5t-218 -82.5zM1028 -18q-137 0 -219 82.5t-82 222.5q0 138 81.5 217.5t219.5 79.5q136 0 216.5 -79.5t80.5 -217.5q0 -140 -80.5 -222.5t-216.5 -82.5z
M362 590q91 0 139 54t48 149q0 96 -48 148t-136 52t-136.5 -52t-48.5 -148t46.5 -149.5t135.5 -53.5zM1026 82q91 0 137.5 53.5t46.5 151.5q0 93 -48 145.5t-134 52.5q-90 0 -138 -52.5t-48 -145.5q0 -98 46.5 -151.5t137.5 -53.5zM317 0h-178v12l482 461l43 -35zM737 635
l344 438h181v-10l-484 -463z" />
    <glyph glyph-name="ampersand.c2sc" horiz-adv-x="1290" 
d="M1227 123l2 -127q-44 -8 -101 -8q-187 0 -370 110q-64 -54 -156.5 -85t-195.5 -31q-159 0 -253 73t-94 211q0 117 70.5 191.5t200.5 122.5q-56 124 -56 219q0 143 92 219t230 76q142 0 213.5 -63.5t71.5 -166.5q0 -57 -25.5 -104.5t-64 -79t-95 -57.5t-106.5 -40.5
t-111 -27.5q56 -96 139.5 -184t180.5 -148q184 187 223 432l125 -16q-17 -133 -90 -251t-187 -204q133 -65 265 -65q30 0 92 4zM680 150q-100 72 -183.5 170t-140.5 202q-168 -72 -168 -233q0 -92 65 -143.5t185 -51.5q127 0 242 56zM449 616q156 39 231.5 96.5t75.5 141.5
q0 133 -158 133q-89 0 -140.5 -48.5t-51.5 -139.5q0 -85 43 -183z" />
    <glyph glyph-name="parenleft.c2sc" horiz-adv-x="626" 
d="M262 528q0 -228 76 -411t256 -361l-82 -71q-207 180 -300 389t-93 454q0 242 91 449t294 385l82 -72q-177 -170 -250.5 -353.5t-73.5 -408.5z" />
    <glyph glyph-name="parenleft.case" horiz-adv-x="669" 
d="M127 612q0 242 87.5 448.5t279.5 387.5l88 -70q-166 -174 -238 -360t-72 -406q0 -223 71.5 -408.5t238.5 -359.5l-88 -71q-193 184 -280 390.5t-87 448.5z" />
    <glyph glyph-name="parenright.c2sc" horiz-adv-x="626" 
d="M365 526q0 227 -76.5 411t-255.5 359l82 72q393 -339 393 -842q0 -243 -91 -450t-294 -383l-82 71q177 166 250.5 350.5t73.5 411.5z" />
    <glyph glyph-name="parenright.case" horiz-adv-x="667" 
d="M545 625q0 -489 -367 -836l-88 70q166 174 237.5 360t71.5 406q0 223 -71.5 408.5t-237.5 359.5l88 71q192 -184 279.5 -391t87.5 -448z" />
    <glyph glyph-name="plus.1" horiz-adv-x="1017" 
d="M580 96h-144v383h-370v129h370v377h144v-377h370v-129h-370v-383z" />
    <glyph glyph-name="hyphen.1" horiz-adv-x="716" 
d="M47 551v135h623v-135h-623z" />
    <glyph glyph-name="hyphen.2" horiz-adv-x="716" 
d="M47 471v135h623v-135h-623z" />
    <glyph glyph-name="period.1" horiz-adv-x="421" 
d="M115 524v193h192v-193h-192z" />
    <glyph glyph-name="period.2" horiz-adv-x="399" 
d="M102 440v193h193v-193h-193z" />
    <glyph glyph-name="zero.c2sc" horiz-adv-x="1079" 
d="M541 1094q225 0 349 -149t124 -406q0 -259 -122.5 -409t-350.5 -150q-229 0 -352 150t-123 409q0 257 124.5 406t350.5 149zM541 969q-166 0 -249 -114.5t-83 -315.5q0 -200 83 -317.5t247 -117.5q166 0 248.5 117t82.5 318q0 202 -82 316t-247 114z" />
    <glyph glyph-name="zero.dnom" horiz-adv-x="800" 
d="M401 592q158 0 251 -100.5t93 -272.5q0 -174 -91 -276.5t-253 -102.5q-164 0 -255 102.5t-91 276.5q0 172 93 272.5t253 100.5zM401 496q-113 0 -173 -74.5t-60 -202.5q0 -129 59 -205.5t172 -76.5q114 0 174 76.5t60 205.5q0 127 -60.5 202t-171.5 75z" />
    <glyph glyph-name="zero.frac" horiz-adv-x="800" 
d="M401 1391q158 0 251 -100.5t93 -272.5q0 -174 -91 -276.5t-253 -102.5q-164 0 -255 102.5t-91 276.5q0 172 93 272.5t253 100.5zM401 1294q-113 0 -173 -74t-60 -202q0 -129 59 -206t172 -77q114 0 174 77t60 206q0 127 -60.5 201.5t-171.5 74.5z" />
    <glyph glyph-name="zero.onum" horiz-adv-x="1155" 
d="M588 1094q242 0 375 -148.5t133 -408.5q0 -261 -132 -410.5t-376 -149.5t-376 149.5t-132 410.5q0 260 133 408.5t375 148.5zM588 967q-179 0 -270 -115.5t-91 -314.5q0 -202 90.5 -317.5t270.5 -115.5q179 0 269.5 115.5t90.5 317.5q0 199 -90.5 314.5t-269.5 115.5z
" />
    <glyph glyph-name="zero.tnum" 
d="M625 1251q244 0 378 -171.5t134 -463.5q0 -192 -57 -334.5t-173.5 -223.5t-281.5 -81t-281.5 81t-173.5 223.5t-57 334.5q0 292 134.5 463.5t377.5 171.5zM625 1120q-183 0 -274 -134t-91 -370q0 -233 91.5 -371.5t273.5 -138.5q122 0 205 66.5t121 179t38 264.5
q0 236 -90.5 370t-273.5 134z" />
    <glyph glyph-name="zero_tnum" 
d="M625 1094q242 0 375 -148.5t133 -408.5q0 -261 -132 -410.5t-376 -149.5t-376 149.5t-132 410.5q0 260 133 408.5t375 148.5zM625 967q-179 0 -270 -115.5t-91 -314.5q0 -202 90.5 -317.5t270.5 -115.5q179 0 269.5 115.5t90.5 317.5q0 199 -90.5 314.5t-269.5 115.5z
" />
    <glyph glyph-name="one.c2sc" horiz-adv-x="878" 
d="M86 0v125h328v827q-81 -42 -299 -129l-45 121l399 129h86v-948h252v-125h-721z" />
    <glyph glyph-name="one.dnom" horiz-adv-x="606" 
d="M49 -143v100h230v524q-121 -64 -207 -96l-39 92l286 101h70v-621h189v-100h-529z" />
    <glyph glyph-name="one.frac" horiz-adv-x="606" 
d="M49 655v101h230v524q-121 -64 -207 -96l-39 92l286 100h70v-620h189v-101h-529z" />
    <glyph glyph-name="one.onum" horiz-adv-x="952" 
d="M94 0v123h361v838q-104 -62 -336 -154l-45 119l436 147h88v-950h285v-123h-789z" />
    <glyph glyph-name="one.tnum" 
d="M135 0v129h453v967q-153 -82 -416 -183l-49 127l528 189h80v-1100h371v-129h-967z" />
    <glyph glyph-name="one_tnum" 
d="M137 0v123h455v840q-135 -83 -426 -187l-41 121l520 176h90v-950h367v-123h-965z" />
    <glyph glyph-name="two.c2sc" horiz-adv-x="1069" 
d="M573 973q-142 0 -221 -75.5t-102 -233.5l-133 18q63 412 456 412q193 0 295.5 -81.5t102.5 -238.5q0 -74 -29 -132t-87.5 -100.5t-131.5 -73t-176 -58.5q-201 -59 -269 -120t-71 -188q223 21 389 21h391v-123h-905q-2 27 -2 86q0 121 43 201t126 129t226 90
q198 57 275 116.5t77 155.5q0 90 -62.5 142.5t-191.5 52.5z" />
    <glyph glyph-name="two.dnom" horiz-adv-x="753" 
d="M397 498q-185 0 -211 -191l-108 21q49 262 319 262q137 0 211 -56t74 -161q0 -95 -71 -149t-226 -93q-131 -37 -179 -76t-52 -114q133 14 272 14h268v-98h-639v57q0 120 64 183.5t219 105.5q134 37 182.5 73t48.5 97q0 125 -172 125z" />
    <glyph glyph-name="two.frac" horiz-adv-x="753" 
d="M397 1296q-185 0 -211 -190l-108 20q49 263 319 263q137 0 211 -56.5t74 -161.5q0 -95 -71 -148.5t-226 -92.5q-131 -37 -179 -76.5t-52 -114.5q143 15 272 15h268v-99h-639v58q0 119 64 182.5t219 105.5q134 37 182.5 73t48.5 97q0 125 -172 125z" />
    <glyph glyph-name="two.onum" horiz-adv-x="1146" 
d="M621 971q-313 0 -349 -330l-139 16q20 200 142 318.5t346 118.5q204 0 310.5 -83t106.5 -247q0 -134 -102.5 -213.5t-341.5 -142.5q-155 -40 -233 -77t-112 -87.5t-36 -134.5q212 20 498 20h346v-129h-965q-2 31 -2 94q0 167 98 253t328 147q156 41 237 79.5t109.5 80.5
t28.5 108q0 209 -270 209z" />
    <glyph glyph-name="two.tnum" 
d="M668 1124q-158 0 -245 -89t-112 -275l-139 20q66 471 494 471q208 0 318 -92t110 -268q0 -84 -31 -150t-94 -115t-142 -84.5t-190 -68.5q-220 -68 -295 -140t-78 -220q230 16 426 16h424v-129h-979q-2 31 -2 94q0 138 47 229t136.5 147t246.5 105q215 64 300 135t85 185
q0 105 -69 167t-211 62z" />
    <glyph glyph-name="two_tnum" 
d="M674 971q-312 0 -348 -330l-140 16q20 200 142 318.5t346 118.5q204 0 311 -83t107 -247q0 -134 -103 -213.5t-342 -142.5q-155 -40 -233 -77t-112 -87.5t-36 -134.5q212 20 498 20h346v-129h-965q-2 31 -2 94q0 167 98 253t328 147q156 41 237 79.5t109.5 80.5t28.5 108
q0 209 -270 209z" />
    <glyph glyph-name="three.c2sc" horiz-adv-x="1056" 
d="M555 -18q-424 0 -489 362l141 18q26 -132 108.5 -198t239.5 -66q139 0 213 54t74 149q0 97 -58.5 140.5t-216.5 43.5h-190v109h186q102 0 167 45.5t65 142.5q0 102 -59 147.5t-185 45.5q-131 0 -200 -60t-95 -178l-133 17q58 338 428 338q381 0 381 -285
q0 -200 -238 -254v-18q164 -17 227.5 -73.5t63.5 -174.5q0 -143 -106 -224t-324 -81z" />
    <glyph glyph-name="three.dnom" horiz-adv-x="747" 
d="M479 225v-16q108 -10 155.5 -48.5t47.5 -113.5q0 -100 -76.5 -153.5t-228.5 -53.5q-146 0 -229.5 60.5t-104.5 171.5l109 22q14 -81 68 -120.5t161 -39.5q188 0 188 123q0 62 -41 89.5t-147 27.5h-119v82h117q166 0 166 117q0 123 -170 123q-91 0 -138 -37t-65 -113
l-104 25q24 104 100 161.5t205 57.5q137 0 208.5 -51.5t71.5 -145.5q0 -138 -174 -168z" />
    <glyph glyph-name="three.frac" horiz-adv-x="739" 
d="M479 1024v-16q108 -10 155.5 -48.5t47.5 -113.5q0 -100 -76.5 -153.5t-228.5 -53.5q-146 0 -229.5 60t-104.5 171l109 23q14 -81 68 -120.5t161 -39.5q188 0 188 123q0 62 -41 89.5t-147 27.5h-119v82h117q166 0 166 116q0 123 -170 123q-91 0 -138 -36.5t-65 -112.5
l-104 24q24 104 100 162t205 58q137 0 208.5 -51.5t71.5 -145.5q0 -138 -174 -168z" />
    <glyph glyph-name="three.onum" horiz-adv-x="1144" 
d="M598 -174q-231 0 -363 106t-165 310l143 20q27 -157 119 -235t266 -78q153 0 235 62.5t82 174.5q0 117 -64.5 169.5t-238.5 52.5h-209v114h201q115 0 186.5 54t71.5 169q0 120 -65.5 174t-202.5 54q-146 0 -222 -70.5t-104 -210.5l-139 19q68 385 463 385q412 0 412 -324
q0 -119 -64.5 -190.5t-191.5 -102.5v-20q176 -17 245.5 -83t69.5 -200q0 -166 -114 -258t-351 -92z" />
    <glyph glyph-name="three.tnum" 
d="M651 -20q-462 0 -528 415l143 21q27 -157 119 -235.5t266 -78.5q153 0 235.5 63t82.5 175q0 78 -25 124t-92 71.5t-186 25.5h-209v115h200q115 0 186.5 54t71.5 169q0 120 -65.5 173.5t-202.5 53.5q-146 0 -221.5 -70t-103.5 -210l-140 18q68 385 463 385
q206 0 309 -79.5t103 -243.5q0 -119 -64.5 -190.5t-191.5 -102.5v-21q176 -17 245.5 -82.5t69.5 -199.5q0 -166 -114 -258t-351 -92z" />
    <glyph glyph-name="three_tnum" 
d="M651 -174q-231 0 -363 106t-165 310l143 20q27 -157 119 -235t266 -78q153 0 235.5 62.5t82.5 174.5q0 117 -64.5 169.5t-238.5 52.5h-209v114h200q115 0 186.5 54t71.5 169q0 120 -65.5 174t-202.5 54q-146 0 -221.5 -70.5t-103.5 -210.5l-140 19q68 385 463 385
q412 0 412 -324q0 -119 -64.5 -190.5t-191.5 -102.5v-20q176 -17 245.5 -83t69.5 -200q0 -166 -114 -258t-351 -92z" />
    <glyph glyph-name="four.c2sc" horiz-adv-x="1093" 
d="M731 0v262h-684v109l660 702h165v-692h177v-119h-177v-262h-141zM731 936l-12 4l-524 -565l8 -13q222 19 344 19h184v555z" />
    <glyph glyph-name="four.dnom" horiz-adv-x="749" 
d="M479 -143v174h-456v75l421 467h146v-450h119v-92h-119v-174h-111zM479 483l-6 2l-334 -376l2 -3q170 17 238 17h100v360z" />
    <glyph glyph-name="four.frac" horiz-adv-x="749" 
d="M479 655v174h-456v76l421 467h146v-450h119v-93h-119v-174h-111zM479 1282l-6 2l-334 -377l2 -2q170 17 238 17h100v360z" />
    <glyph glyph-name="four.onum" horiz-adv-x="1177" 
d="M831 -156v306h-745v114l723 809h168v-803h192v-120h-192v-306h-146zM831 924l-10 4l-583 -660l8 -16q225 18 375 18h210v654z" />
    <glyph glyph-name="four.tnum" 
d="M831 0v305h-745v115l723 809h168v-803h192v-121h-192v-305h-146zM831 1079l-10 4l-583 -659l8 -16q225 18 375 18h210v653z" />
    <glyph glyph-name="four_tnum" 
d="M831 -156v306h-745v114l723 809h168v-803h192v-120h-192v-306h-146zM831 924l-10 4l-583 -660l8 -16q225 18 375 18h210v654z" />
    <glyph glyph-name="five.c2sc" horiz-adv-x="1077" 
d="M559 98q283 0 283 232q0 105 -69.5 157t-215.5 52q-85 0 -163.5 -20.5t-123.5 -51.5l-118 43v563h770v-133q-351 0 -641 16v-393q137 82 313 82q191 0 290 -81t99 -236q0 -176 -111.5 -261t-318.5 -85q-188 0 -308 73.5t-182 233.5l138 39q47 -111 132 -170.5t226 -59.5z
" />
    <glyph glyph-name="five.dnom" horiz-adv-x="751" 
d="M385 -68q190 0 190 142q0 65 -43 97t-143 32q-132 0 -196 -41l-95 33v378h543v-102q-232 0 -440 16v-254q89 56 213 56q274 0 274 -215q0 -118 -80 -176t-225 -58q-267 0 -344 189l102 34q64 -131 244 -131z" />
    <glyph glyph-name="five.frac" horiz-adv-x="751" 
d="M385 731q190 0 190 141q0 65 -43 97t-143 32q-134 0 -196 -40l-95 32v379h543v-102q-232 0 -440 16v-254q87 55 213 55q274 0 274 -215q0 -118 -79.5 -175.5t-225.5 -57.5q-267 0 -344 188l102 35q64 -131 244 -131z" />
    <glyph glyph-name="five.onum" horiz-adv-x="1165" 
d="M612 -53q160 0 237 66.5t77 207.5q0 125 -77.5 186.5t-238.5 61.5q-91 0 -178.5 -25t-136.5 -61l-121 47v643h830v-135q-330 0 -699 18v-471q145 97 342 97q208 0 316 -92t108 -271q0 -199 -121.5 -297t-341.5 -98q-203 0 -331.5 83t-200.5 261l139 49
q54 -132 148.5 -201t248.5 -69z" />
    <glyph glyph-name="five.tnum" 
d="M647 102q159 0 236.5 66.5t77.5 208.5q0 125 -77.5 186.5t-238.5 61.5q-91 0 -178.5 -25t-136.5 -61l-121 47v643h829v-135q-329 0 -698 18v-471q143 96 342 96q208 0 316 -91.5t108 -270.5q0 -199 -121.5 -297t-341.5 -98q-203 0 -331.5 83t-200.5 261l139 49
q54 -132 148.5 -201.5t248.5 -69.5z" />
    <glyph glyph-name="five_tnum" 
d="M647 -53q160 0 237 66.5t77 207.5q0 125 -77.5 186.5t-238.5 61.5q-91 0 -178.5 -25t-136.5 -61l-121 47v643h829v-135q-329 0 -698 18v-471q145 97 342 97q208 0 316 -92t108 -271q0 -199 -121.5 -297t-341.5 -98q-203 0 -331.5 83t-200.5 261l139 49
q54 -132 148.5 -201t248.5 -69z" />
    <glyph glyph-name="six.c2sc" horiz-adv-x="1073" 
d="M207 420l20 -2q67 237 387 237q79 0 144 -17.5t117 -53.5t81 -97t29 -143q0 -170 -112 -267t-328 -97q-108 0 -191.5 28t-148 89.5t-98 167t-33.5 251.5q0 101 16 186.5t52.5 158.5t91.5 124t136.5 80t184.5 29q197 0 289 -82t121 -254l-136 -19q-18 81 -48.5 130
t-86.5 76.5t-141 27.5q-179 0 -262.5 -118t-83.5 -361v-74zM573 557q-167 0 -255.5 -66t-88.5 -161q0 -99 84.5 -164.5t237.5 -65.5q293 0 293 248q0 209 -271 209z" />
    <glyph glyph-name="six.dnom" horiz-adv-x="755" 
d="M156 190v-53l14 -2q47 154 266 154q118 0 192 -52t74 -159q0 -111 -81 -174.5t-236 -63.5q-336 0 -336 365q0 177 83 281t261 104q129 0 197 -49.5t102 -153.5l-102 -31q-26 70 -72.5 105t-124.5 35q-123 0 -180 -74.5t-57 -231.5zM406 213q-114 0 -174 -39.5t-60 -95.5
q0 -63 57 -103.5t162 -40.5t153 39.5t48 106.5q0 133 -186 133z" />
    <glyph glyph-name="six.frac" horiz-adv-x="759" 
d="M156 989v-53l14 -2q46 153 266 153q119 0 192.5 -51.5t73.5 -158.5q0 -111 -81 -174.5t-236 -63.5q-336 0 -336 365q0 177 83 281t261 104q129 0 197 -49.5t102 -153.5l-102 -31q-26 69 -72 104t-125 35q-124 0 -180.5 -74t-56.5 -231zM406 1012q-114 0 -174 -39.5
t-60 -95.5q0 -63 57 -103.5t162 -40.5t153 39.5t48 106.5q0 133 -186 133z" />
    <glyph glyph-name="six.onum" horiz-adv-x="1155" 
d="M217 477l21 -2q76 277 424 277q86 0 157 -20.5t127.5 -61.5t88.5 -111.5t32 -163.5q0 -195 -122 -306.5t-355 -111.5q-510 0 -510 609q0 117 18 215.5t57.5 182.5t99 142.5t147.5 91.5t198 33q88 0 156.5 -16.5t117.5 -47.5t83.5 -79t55.5 -106t34 -134l-142 -20
q-31 143 -99.5 209.5t-205.5 66.5q-199 0 -291 -136.5t-92 -420.5v-90zM623 645q-184 0 -282.5 -78.5t-98.5 -189.5q0 -118 93.5 -195.5t260.5 -77.5q326 0 326 293q0 248 -299 248z" />
    <glyph glyph-name="six.tnum" 
d="M262 477l21 -2q76 277 424 277q86 0 157 -20.5t127.5 -61.5t88.5 -111.5t32 -163.5q0 -195 -122 -306.5t-355 -111.5q-510 0 -510 609q0 117 18 215.5t57.5 182.5t99 142.5t147.5 91.5t198 33q88 0 156.5 -16.5t117.5 -47.5t83.5 -79t55.5 -106t34 -134l-142 -20
q-31 143 -99.5 209.5t-205.5 66.5q-199 0 -291 -136.5t-92 -420.5v-90zM668 645q-184 0 -282.5 -78.5t-98.5 -189.5q0 -118 93.5 -195.5t260.5 -77.5q326 0 326 293q0 248 -299 248z" />
    <glyph glyph-name="six_tnum" 
d="M262 477l21 -2q76 277 424 277q86 0 157 -20.5t127.5 -61.5t88.5 -111.5t32 -163.5q0 -195 -122 -306.5t-355 -111.5q-510 0 -510 609q0 117 18 215.5t57.5 182.5t99 142.5t147.5 91.5t198 33q88 0 156.5 -16.5t117.5 -47.5t83.5 -79t55.5 -106t34 -134l-142 -20
q-31 143 -99.5 209.5t-205.5 66.5q-199 0 -291 -136.5t-92 -420.5v-90zM668 645q-184 0 -282.5 -78.5t-98.5 -189.5q0 -118 93.5 -195.5t260.5 -77.5q326 0 326 293q0 248 -299 248z" />
    <glyph glyph-name="seven.c2sc" horiz-adv-x="974" 
d="M422 942h-393v131h923v-129q-410 -386 -454 -944h-156q24 263 147 513t330 443q-212 -14 -397 -14z" />
    <glyph glyph-name="seven.dnom" horiz-adv-x="690" 
d="M283 475h-258v98h641v-100q-269 -260 -297 -616h-123q13 172 99 336t228 296q-154 -14 -290 -14z" />
    <glyph glyph-name="seven.frac" horiz-adv-x="690" 
d="M283 1274h-258v98h641v-100q-269 -260 -297 -617h-123q13 172 99 336.5t228 296.5q-154 -14 -290 -14z" />
    <glyph glyph-name="seven.onum" horiz-adv-x="1062" 
d="M463 940h-430v133h1001v-133q-446 -451 -499 -1096h-160q25 302 164 596t366 518q-236 -18 -442 -18z" />
    <glyph glyph-name="seven.tnum" 
d="M555 1096h-430v133h1001v-133q-446 -451 -499 -1096h-160q25 302 164 596t366 518q-236 -18 -442 -18z" />
    <glyph glyph-name="seven_tnum" 
d="M555 940h-430v133h1001v-133q-446 -451 -499 -1096h-160q25 302 164 596t366 518q-236 -18 -442 -18z" />
    <glyph glyph-name="eight.c2sc" horiz-adv-x="1058" 
d="M528 -20q-456 0 -456 299q0 217 309 253v21q-259 48 -256 254q0 134 99.5 210.5t303.5 76.5t304 -76.5t100 -210.5q0 -206 -254 -254v-21q309 -36 309 -253q0 -299 -459 -299zM528 487q-91 0 -155 -16.5t-97.5 -45.5t-48 -61.5t-14.5 -72.5q0 -93 79 -143t236 -50
q158 0 237 50t79 143q0 196 -316 196zM528 973q-264 0 -264 -191q-1 -96 71 -144t193 -48q123 0 195 48t72 144q0 191 -267 191z" />
    <glyph glyph-name="eight.dnom" horiz-adv-x="768" 
d="M385 -160q-328 0 -328 205q0 141 219 162v16q-190 28 -190 170q0 91 75 144t224 53q148 0 223.5 -53t75.5 -144q0 -138 -180 -168v-18q209 -26 209 -162q0 -205 -328 -205zM385 174q-118 0 -167.5 -31.5t-49.5 -89.5q0 -121 217 -121q215 0 215 121q0 58 -48.5 89.5
t-166.5 31.5zM385 496q-100 0 -145 -30.5t-45 -92.5q0 -121 190 -121t190 121q0 62 -45 92.5t-145 30.5z" />
    <glyph glyph-name="eight.frac" horiz-adv-x="770" 
d="M385 639q-328 0 -328 205q0 141 219 162v16q-190 28 -190 170q0 91 75 144t224 53q148 0 223.5 -53t75.5 -144q0 -138 -180 -168v-18q209 -26 209 -162q0 -205 -328 -205zM385 973q-118 0 -167.5 -31.5t-49.5 -89.5q0 -121 217 -121q215 0 215 121q0 58 -48.5 89.5
t-166.5 31.5zM385 1294q-100 0 -145 -30.5t-45 -92.5q0 -120 190 -120t190 120q0 62 -45 92.5t-145 30.5z" />
    <glyph glyph-name="eight.onum" horiz-adv-x="1155" 
d="M578 -23q-256 0 -376 89.5t-120 250.5q0 115 80 193t256 100v23q-277 54 -277 293q2 152 109.5 238.5t327.5 86.5t328 -86.5t108 -238.5q0 -239 -277 -293v-23q178 -22 257 -100t79 -193q0 -161 -119.5 -250.5t-375.5 -89.5zM578 563q-101 0 -173 -20t-108.5 -55
t-52 -73.5t-15.5 -84.5q0 -108 87.5 -168t261.5 -60t261 59.5t87 168.5q0 37 -8.5 68t-32.5 62.5t-62 53.5t-100.5 35.5t-144.5 13.5zM578 1124q-293 0 -293 -223q0 -116 79 -172.5t214 -56.5t213.5 56.5t78.5 172.5q0 223 -292 223z" />
    <glyph glyph-name="eight.tnum" 
d="M625 -23q-256 0 -376 89.5t-120 250.5q0 115 80 193t256 100v23q-277 54 -277 293q2 152 109.5 238.5t327.5 86.5t328 -86.5t108 -238.5q0 -239 -277 -293v-23q178 -22 257 -100t79 -193q0 -161 -119.5 -250.5t-375.5 -89.5zM625 563q-101 0 -173 -20t-108.5 -55
t-52 -73.5t-15.5 -84.5q0 -108 87.5 -168t261.5 -60t261 59.5t87 168.5q0 37 -8.5 68t-32.5 62.5t-62 53.5t-100.5 35.5t-144.5 13.5zM625 1124q-293 0 -293 -223q0 -116 79 -172.5t214 -56.5t214 56.5t79 172.5q0 223 -293 223z" />
    <glyph glyph-name="eight_tnum" 
d="M625 -23q-256 0 -376 89.5t-120 250.5q0 115 80 193t256 100v23q-277 54 -277 293q2 152 109.5 238.5t327.5 86.5t328 -86.5t108 -238.5q0 -239 -277 -293v-23q178 -22 257 -100t79 -193q0 -161 -119.5 -250.5t-375.5 -89.5zM625 563q-101 0 -173 -20t-108.5 -55
t-52 -73.5t-15.5 -84.5q0 -108 87.5 -168t261.5 -60t261 59.5t87 168.5q0 37 -8.5 68t-32.5 62.5t-62 53.5t-100.5 35.5t-144.5 13.5zM625 1124q-293 0 -293 -223q0 -116 79 -172.5t214 -56.5t214 56.5t79 172.5q0 223 -293 223z" />
    <glyph glyph-name="nine.c2sc" horiz-adv-x="1075" 
d="M864 649h-20q-74 -231 -379 -231q-79 0 -145 17.5t-118.5 53.5t-82 98t-29.5 144q0 168 112.5 265.5t323.5 97.5q109 0 193 -28.5t147.5 -89.5t97 -166t33.5 -251q0 -127 -26.5 -229.5t-81.5 -182.5t-148.5 -123.5t-218.5 -43.5q-203 0 -308 82t-136 241l137 25
q24 -113 98.5 -170.5t210.5 -57.5q175 0 257.5 118t82.5 360v71zM504 514q161 0 248.5 66t87.5 161q0 101 -83.5 166.5t-232.5 65.5q-150 0 -220.5 -66t-70.5 -178q0 -108 70.5 -161.5t200.5 -53.5z" />
    <glyph glyph-name="nine.dnom" horiz-adv-x="747" 
d="M362 -160q-132 0 -207 48.5t-112 144.5l100 37q53 -136 219 -136q122 0 179 74.5t57 229.5v53h-14q-50 -158 -267 -158q-119 0 -192.5 52t-73.5 163q0 113 81 177.5t233 64.5q161 0 249 -85.5t88 -279.5q0 -85 -19 -153.5t-58.5 -121.5t-106 -81.5t-156.5 -28.5zM348 209
q112 0 173 41.5t61 101.5q0 62 -59 103t-161 41q-200 0 -200 -150q0 -68 48.5 -102.5t137.5 -34.5z" />
    <glyph glyph-name="nine.frac" horiz-adv-x="747" 
d="M362 639q-132 0 -207 48t-112 144l100 37q53 -135 219 -135q122 0 179 74t57 229v54h-14q-50 -158 -267 -158q-119 0 -192.5 52t-73.5 163q0 113 81 177.5t233 64.5q161 0 249 -85.5t88 -279.5q0 -85 -19 -153.5t-58.5 -121.5t-106 -81.5t-156.5 -28.5zM348 1008
q112 0 173 41.5t61 101.5q0 62 -58.5 102.5t-161.5 40.5q-200 0 -200 -149q0 -68 48.5 -102.5t137.5 -34.5z" />
    <glyph glyph-name="nine.onum" horiz-adv-x="1150" 
d="M930 594l-21 2q-36 -130 -140.5 -201t-274.5 -71q-86 0 -157.5 20t-128 62t-88.5 113t-32 165q0 189 122 301.5t349 112.5q117 0 207.5 -32.5t159.5 -102.5t105 -189.5t36 -284.5q0 -147 -28 -265t-87.5 -209.5t-160 -141t-236.5 -49.5q-219 0 -334 95t-147 276l139 24
q51 -268 344 -268q193 0 284 136t91 417q0 12 -1 40.5t-1 49.5zM532 430q177 0 275 78.5t98 187.5q0 118 -92 196.5t-256 78.5q-165 0 -244.5 -78.5t-79.5 -210.5q0 -127 78 -189.5t221 -62.5z" />
    <glyph glyph-name="nine.tnum" 
d="M965 748l-21 2q-36 -130 -141 -201.5t-275 -71.5q-86 0 -157 20.5t-128 62t-88.5 113t-31.5 165.5q0 189 122 301t349 112q118 0 208 -32t159 -102t105 -189.5t36 -284.5q0 -117 -17 -215.5t-56 -183t-97.5 -143t-145 -91.5t-196.5 -33q-219 0 -334 95t-147 276l139 25
q52 -269 344 -269q193 0 284 136t91 417q0 12 -1 41t-1 50zM567 584q177 0 275 78.5t98 187.5q0 118 -92 196t-256 78q-165 0 -244.5 -78t-79.5 -210q0 -127 78 -189.5t221 -62.5z" />
    <glyph glyph-name="nine_tnum" 
d="M965 594l-21 2q-36 -130 -141 -201t-275 -71q-86 0 -157 20t-128 62t-88.5 113t-31.5 165q0 189 122 301.5t349 112.5q117 0 207.5 -32.5t159.5 -102.5t105 -189.5t36 -284.5q0 -147 -28 -265t-87.5 -209.5t-160 -141t-236.5 -49.5q-219 0 -334 95t-147 276l139 24
q51 -268 344 -268q193 0 284 136t91 417q0 12 -1 40.5t-1 49.5zM567 430q177 0 275 78.5t98 187.5q0 118 -92 196.5t-256 78.5q-165 0 -244.5 -78.5t-79.5 -210.5q0 -127 78 -189.5t221 -62.5z" />
    <glyph glyph-name="equal.1" horiz-adv-x="1064" 
d="M969 440v-121h-873v121h873zM969 786v-120h-873v120h873z" />
    <glyph glyph-name="G.salt" horiz-adv-x="1280" 
d="M1067 494h-410v129h551v-111q0 -113 -31 -207t-94 -168t-170.5 -115.5t-250.5 -41.5q-286 0 -442.5 158.5t-156.5 461.5q0 197 65 342t198.5 227t324.5 82q233 0 369 -115t174 -327l-139 -31q-38 172 -136.5 256t-265.5 84q-228 0 -334 -136.5t-106 -381.5
q0 -236 110.5 -365t342.5 -129q394 0 401 388z" />
    <glyph glyph-name="bracketleft.c2sc" horiz-adv-x="557" 
d="M512 -272h-236h-141v1587h377v-113h-236v-1362h236v-112z" />
    <glyph glyph-name="bracketleft.case" horiz-adv-x="583" 
d="M530 -160h-247h-144v1553h391v-127h-247v-1301h247v-125z" />
    <glyph glyph-name="bracketright.c2sc" horiz-adv-x="557" 
d="M420 -266h-45h-330v112h236v1362h-236v111h375v-1585z" />
    <glyph glyph-name="bracketright.case" horiz-adv-x="583" 
d="M444 -152h-47h-344v125h248v1301h-248v125h391v-1551z" />
    <glyph glyph-name="a.c2sc" horiz-adv-x="1099" 
d="M815 313h-536l-125 -313h-150l453 1073h188l451 -1073h-154zM575 948h-51q-63 -180 -145 -389l-53 -133h444l-53 133q-100 251 -142 389z" />
    <glyph glyph-name="a.salt" horiz-adv-x="1095" 
d="M451 -23q-183 0 -281 128.5t-98 367.5q0 243 100 372.5t281 129.5q272 0 354 -281h12v258h139v-952h-139v256h-12q-37 -127 -128.5 -203t-227.5 -76zM819 436v74q0 150 -85.5 243t-227.5 93q-295 0 -295 -373q0 -369 295 -369q142 0 227.5 90t85.5 242z" />
    <glyph glyph-name="b.c2sc" horiz-adv-x="1073" 
d="M139 0v1073h449q187 0 276.5 -68t89.5 -206q0 -198 -219 -248v-16q141 -14 210 -73.5t69 -170.5q0 -136 -94 -213.5t-293 -77.5h-488zM283 481v-366h340q123 0 185 49.5t62 134.5q0 91 -59.5 136.5t-200.5 45.5h-327zM283 956v-364h301q107 0 169 45t62 143
q0 89 -52 132.5t-167 43.5h-313z" />
    <glyph glyph-name="c.c2sc" horiz-adv-x="1181" 
d="M600 -20q-255 0 -393.5 149.5t-138.5 409.5q0 258 143 406.5t395 148.5q210 0 339.5 -106t162.5 -294l-137 -28q-63 301 -367 301q-195 0 -294 -114.5t-99 -313.5q0 -203 99 -318t292 -115q162 0 252.5 78.5t122.5 231.5l137 -25q-31 -195 -162 -303t-352 -108z" />
    <glyph glyph-name="d.c2sc" horiz-adv-x="1198" 
d="M573 0h-434v1073h428q284 0 425 -134.5t141 -395.5q0 -253 -150 -398t-410 -145zM283 950v-827h278q428 0 428 420q0 212 -104.5 309.5t-335.5 97.5h-266z" />
    <glyph glyph-name="e.c2sc" horiz-adv-x="1009" 
d="M905 0h-622h-144v1073h768v-127h-624v-342h559v-115h-559v-362h622v-127z" />
    <glyph glyph-name="f.c2sc" horiz-adv-x="942" 
d="M285 440v-440h-146v1073h735v-131h-589v-379h524v-123h-524z" />
    <glyph glyph-name="g.c2sc" horiz-adv-x="1216" 
d="M569 -18q-235 0 -371.5 139t-136.5 403q0 263 139.5 416.5t403.5 153.5q215 0 338.5 -101.5t159.5 -290.5l-133 -28q-37 149 -125.5 221t-239.5 72q-397 0 -397 -443q0 -420 403 -420q105 0 180 25t114.5 69.5t57 95.5t17.5 114v-2v20h-371v113h508v-539h-135v246h-14
q-40 -120 -138 -192t-260 -72z" />
    <glyph glyph-name="g_salt" horiz-adv-x="1200" 
d="M983 436h-365v109h500v-96q0 -78 -17.5 -146t-57 -128t-98 -103t-145 -67.5t-194.5 -24.5q-261 0 -402 142.5t-141 416.5q0 256 137.5 405.5t399.5 149.5q218 0 344.5 -100.5t159.5 -286.5l-135 -29q-65 287 -367 287q-203 0 -298 -112.5t-95 -313.5q0 -207 97.5 -320
t305.5 -113q371 0 371 330z" />
    <glyph glyph-name="g.salt" horiz-adv-x="1095" 
d="M72 506q0 227 100 348t281 121q272 0 354 -281h12v258h139v-848q0 -438 -442 -438q-382 0 -444 283l139 33q45 -197 301 -197q172 0 239.5 80t67.5 239v195h-14q-39 -111 -131 -179.5t-223 -68.5q-183 0 -281 117.5t-98 337.5zM819 477v37q0 149 -85.5 240.5t-227.5 91.5
q-295 0 -295 -338q0 -336 295 -336q142 0 227.5 83t85.5 222z" />
    <glyph glyph-name="h.c2sc" horiz-adv-x="1210" 
d="M139 0v1073h144v-473h645v473h143v-1073h-143v471h-645v-471h-144z" />
    <glyph glyph-name="i.1" horiz-adv-x="456" 
d="M299 952v-952h-141v952h141zM315 1298v-143h-174v143h174z" />
    <glyph glyph-name="i.c2sc" horiz-adv-x="421" 
d="M283 1073v-1073h-144v1073h144z" />
    <glyph glyph-name="i_c2sc" horiz-adv-x="421" 
d="M283 1073v-1073h-144v1073h144zM123 1268v174h178v-174h-178z" />
    <glyph glyph-name="j.c2sc" horiz-adv-x="581" 
d="M299 276v797h143v-797q0 -290 -274 -290q-68 0 -141 12l6 127q64 -12 117 -12q79 0 114 41t35 122z" />
    <glyph glyph-name="k.c2sc" horiz-adv-x="1062" 
d="M139 0v1073h144v-504h94l487 504h162v-18l-539 -537l570 -498v-20h-168l-504 451h-102v-451h-144z" />
    <glyph glyph-name="l.c2sc" horiz-adv-x="868" 
d="M139 0v1073h144v-948h542v-125h-686z" />
    <glyph glyph-name="m.c2sc" horiz-adv-x="1499" 
d="M731 213h45q87 258 125 348l223 512h236v-1073h-143v549q0 42 6 405h-41q-68 -204 -162 -430l-203 -458h-153l-199 464q-97 250 -154 424h-37q2 -98 2 -331v-74v-549h-137v1073h246l219 -516q20 -49 127 -344z" />
    <glyph glyph-name="n.c2sc" horiz-adv-x="1210" 
d="M1071 0h-194l-365 559q-106 165 -207 379l-45 -2q16 -300 16 -520v-416h-137v1073h215l324 -491q113 -183 231 -420l43 2q-18 261 -18 491v418h137v-1073z" />
    <glyph glyph-name="o.c2sc" 
d="M625 -20q-265 0 -412 152.5t-147 406.5q0 253 148 404t411 151q262 0 409.5 -151t147.5 -404q0 -254 -146.5 -406.5t-410.5 -152.5zM625 106q204 0 308.5 117t104.5 316q0 198 -104.5 313t-308.5 115q-205 0 -310.5 -115.5t-105.5 -312.5q0 -200 104.5 -316.5
t311.5 -116.5z" />
    <glyph glyph-name="p.c2sc" horiz-adv-x="997" 
d="M573 395h-290v-395h-144v1073h432q390 0 390 -338q0 -153 -101.5 -246.5t-286.5 -93.5zM557 948h-274v-430h276q134 0 196 52t62 163q0 115 -58 165t-202 50z" />
    <glyph glyph-name="q.c2sc" 
d="M963 72l151 -226v-20h-149l-115 188q-101 -34 -225 -34q-265 0 -412 152.5t-147 406.5q0 253 148 404t411 151q262 0 409.5 -151t147.5 -404q0 -155 -55.5 -275.5t-163.5 -191.5zM625 106q204 0 308.5 117t104.5 316q0 198 -104.5 313t-308.5 115q-205 0 -310.5 -115.5
t-105.5 -312.5q0 -200 104.5 -316.5t311.5 -116.5z" />
    <glyph glyph-name="r.c2sc" horiz-adv-x="1110" 
d="M545 438h-262v-438h-144v1073h451q197 0 293 -82.5t96 -238.5q0 -125 -72 -204t-211 -102l346 -426v-20h-161zM578 950h-295v-395h297q132 0 194 48.5t62 146.5q0 102 -58.5 151t-199.5 49z" />
    <glyph glyph-name="s.c2sc" horiz-adv-x="1046" 
d="M547 -20q-431 0 -486 360l138 29q25 -134 110.5 -201.5t241.5 -67.5q278 0 278 179q0 82 -68.5 127.5t-240.5 74.5q-222 38 -314.5 116t-92.5 204q0 137 103.5 215t301.5 78q192 0 291 -81.5t135 -236.5l-141 -28q-31 119 -94.5 173t-196.5 54q-128 0 -193 -43.5
t-65 -122.5q0 -38 13 -66.5t47 -54.5t97 -46.5t158 -37.5q118 -22 198.5 -53t125 -71.5t62.5 -86t18 -104.5q0 -146 -103.5 -227.5t-322.5 -81.5z" />
    <glyph glyph-name="t.c2sc" horiz-adv-x="964" 
d="M412 942h-379v131h901v-131h-379v-942h-143v942z" />
    <glyph glyph-name="t.salt" horiz-adv-x="616" 
d="M43 831v121h156v275h139v-275h237v-121h-237v-831h-139v831h-156z" />
    <glyph glyph-name="u.c2sc" horiz-adv-x="1193" 
d="M606 109q168 0 236.5 78t68.5 225v661h144v-670q0 -207 -114.5 -315t-334.5 -108q-224 0 -345.5 108t-121.5 315v670h144v-653q0 -146 74.5 -228.5t248.5 -82.5z" />
    <glyph glyph-name="v.c2sc" horiz-adv-x="1097" 
d="M526 127h47q65 186 148 389l223 557h150l-451 -1073h-186l-453 1073h154l225 -557q82 -210 143 -389z" />
    <glyph glyph-name="w.c2sc" horiz-adv-x="1585" 
d="M811 944h-39q-60 -271 -121 -495l-121 -449h-215l-305 1073h160l133 -520q57 -236 98 -428h58q55 266 98 426l148 522h188l147 -522q69 -275 97 -426h55q16 84 98 428l133 520h150l-301 -1073h-219l-121 449q-69 229 -121 495z" />
    <glyph glyph-name="x.c2sc" horiz-adv-x="1052" 
d="M35 1073h151l324 -463h39l321 463h148v-18l-383 -518l389 -517v-20h-154l-333 471h-35l-328 -471h-145v20l387 523l-381 512v18z" />
    <glyph glyph-name="y.c2sc" horiz-adv-x="1005" 
d="M575 0h-145v369l-434 686v18h154l339 -586h29l340 586h150v-18l-433 -688v-367z" />
    <glyph glyph-name="z.c2sc" horiz-adv-x="1067" 
d="M672 131h307v-131h-909v127l729 819l-8 19q-251 -23 -394 -23h-305v131h885v-123l-735 -825l8 -16q271 22 422 22z" />
    <glyph glyph-name="braceleft.c2sc" horiz-adv-x="698" 
d="M256 537v-17q128 -12 184 -58.5t56 -139.5q0 -48 -22 -99t-49 -87.5t-49 -82t-22 -84.5q0 -65 41.5 -96t141.5 -31q71 0 112 2v-110q-105 -6 -137 -6q-149 0 -222 59.5t-73 161.5q0 42 16.5 85t39.5 78.5t46 69.5t39.5 71.5t16.5 72.5q0 74 -49 108.5t-154 34.5h-129v117
h129q90 0 147.5 35.5t57.5 105.5q0 36 -15.5 74.5t-38 72.5t-45 69.5t-38 79t-15.5 87.5q-2 99 72 159t223 60q20 0 137 -6v-109q-62 3 -112 3q-101 0 -142 -30.5t-41 -96.5q0 -38 21 -84t46 -82.5t46 -87t21 -97.5q0 -88 -60 -136t-180 -66z" />
    <glyph glyph-name="braceleft.case" horiz-adv-x="741" 
d="M682 -96l2 -121q-117 -6 -143 -6q-152 0 -228.5 57t-76.5 162q0 57 28 116t62 101t62 95t28 100q0 143 -234 143h-139v125h139q104 0 171 40t67 122q0 36 -18 75t-44 74t-52 71t-44 79.5t-18 85.5q0 105 76.5 163t228.5 58q26 0 143 -6l-2 -121q-23 0 -62 1t-55 1
q-96 0 -139 -29.5t-43 -91.5q0 -32 15.5 -67t38 -67.5t45 -66t38 -74t15.5 -79.5q0 -95 -65.5 -148.5t-196.5 -72.5v-19q140 -12 201 -60t61 -143q0 -52 -25 -106.5t-55 -94t-55 -89t-25 -91.5q0 -62 43.5 -91t140.5 -29q29 0 115 4z" />
    <glyph glyph-name="braceright.c2sc" horiz-adv-x="698" 
d="M442 520v17q-128 12 -183.5 58.5t-55.5 139.5q0 48 22 99t48.5 87t48.5 81.5t22 84.5q0 65 -41 96t-141 31q-72 0 -113 -2v111q13 0 54.5 2t82.5 2q149 0 222 -58.5t73 -160.5q0 -52 -24.5 -107t-54 -93.5t-54 -87t-24.5 -89.5q0 -74 48.5 -108.5t153.5 -34.5h129v-117
h-129q-90 0 -147 -36t-57 -107q0 -35 15.5 -72.5t37.5 -72t44.5 -70.5t38 -79.5t15.5 -86.5q0 -99 -73.5 -159t-221.5 -60q-38 0 -79.5 2t-57.5 2v110q41 -2 113 -2q101 0 141.5 30.5t40.5 96.5q0 38 -21 83.5t-45.5 81.5t-45.5 87t-21 98q0 88 59.5 136t179.5 67z" />
    <glyph glyph-name="braceright.case" horiz-adv-x="741" 
d="M59 1333l-2 121q105 6 144 6q151 0 228 -57t77 -162q0 -57 -28.5 -116t-62.5 -101t-62.5 -95t-28.5 -100q0 -143 235 -143h139v-125h-139q-105 0 -171 -40t-66 -122q0 -36 18 -75t44 -74t52 -71t44 -79.5t18 -85.5q0 -105 -77 -163t-228 -58q-27 0 -144 6l2 121
q86 -4 115 -4q96 0 139 30t43 93q0 39 -23.5 85t-51 82.5t-51 87.5t-23.5 99q0 95 65 147.5t197 73.5v19q-140 12 -201 60t-61 143q0 51 24.5 106t54 94t54 88t24.5 90q0 64 -42.5 93.5t-139.5 29.5q-29 0 -115 -4z" />
    <glyph glyph-name="exclamdown.1" horiz-adv-x="481" 
d="M168 0v797h145v-797h-145zM338 1229v-193h-195v193h195z" />
    <glyph glyph-name="sterling.c2sc" horiz-adv-x="1036" 
d="M967 0h-893v121h188q23 75 23 170q0 42 -15 115h-194v108h166q-47 168 -47 266q0 145 91 228.5t269 83.5q96 0 166 -25.5t113.5 -75t68 -107.5t39.5 -136l-129 -27q-31 131 -87.5 190.5t-170.5 59.5q-117 0 -169 -56t-52 -149q0 -102 43 -252h438v-108h-416q9 -44 9 -78
q0 -123 -48 -207h607v-121z" />
    <glyph glyph-name="sterling.onum" horiz-adv-x="1099" 
d="M299 424h-217v96h188q-49 145 -49 244q0 149 92 239.5t269 90.5q96 0 167 -25.5t115 -73.5t69 -104.5t38 -130.5l-133 -25q-26 121 -84 177.5t-172 56.5q-115 0 -167.5 -60t-52.5 -151q0 -41 8.5 -88t15.5 -71.5t24 -78.5h471v-96h-447q8 -36 8 -74q0 -118 -47 -223h627
v-127h-944v127h207q26 84 26 205q0 30 -12 92z" />
    <glyph glyph-name="yen.c2sc" horiz-adv-x="1069" 
d="M995 401v-98h-389v-303h-143v303h-389v98h368l-96 152h-272v100h209l-254 402v18h151l340 -586h29l340 586h151v-18l-254 -402h209v-100h-272l-94 -152h366z" />
    <glyph glyph-name="yen.onum" horiz-adv-x="1150" 
d="M1073 389v-96h-422v-293h-149v293h-424v96h405l-116 174h-289v99h223l-254 385v22h158l358 -596h29l358 596h156v-22l-254 -385h221v-99h-287l-114 -174h401z" />
    <glyph glyph-name="guillemotleft.case" horiz-adv-x="1257" 
d="M698 1063l-508 -428v-12l508 -428v-25h-137l-516 438v41l516 438h137v-24zM1188 1063l-508 -428v-12l508 -428v-25h-137l-516 438v41l516 438h137v-24z" />
    <glyph glyph-name="guillemotright.1" horiz-adv-x="1257" 
d="M70 182l508 428v13l-508 428v24h137l516 -438v-41l-516 -438h-137v24zM559 182l508 428v13l-508 428v24h137l516 -438v-41l-516 -438h-137v24z" />
    <glyph glyph-name="questiondown.1" horiz-adv-x="993" 
d="M317 659q51 23 80.5 55.5t37 59.5t7.5 62v22h140v-29q0 -91 -40.5 -149t-140.5 -107q-115 -58 -158.5 -109t-43.5 -140q0 -106 67 -163t195 -57q159 0 241.5 88t106.5 261l141 -19q-62 -457 -489 -457q-197 0 -303.5 89t-106.5 251q0 56 14.5 104t37.5 82.5t59 64.5
t72 50.5t83 40.5zM608 1229v-193h-194v193h194z" />
    <glyph glyph-name="multiply.1" horiz-adv-x="1007" 
d="M502 469q-103 -111 -307 -328l-101 101q127 122 332 303q-221 194 -332 301l101 100q9 -10 123 -129t184 -196q50 54 152 161t155 164l102 -100q-122 -117 -331 -301q191 -174 331 -303l-102 -101q-45 49 -144.5 154.5t-162.5 173.5z" />
    <glyph glyph-name="germandbls.c2sc" horiz-adv-x="1196" 
d="M797 -20q-254 0 -379 192l84 90q104 -158 291 -158q196 0 196 152q0 71 -49.5 109t-146.5 69q-60 19 -102.5 38t-81.5 47t-59 67t-20 88q0 177 289 276l-6 19q-157 -17 -272 -17q-258 0 -258 -290v-662h-144v676q0 193 105 295t307 102h418v-121q-164 -69 -234.5 -125.5
t-70.5 -119.5q0 -61 45 -95t143 -67q139 -46 206.5 -111t67.5 -176q0 -124 -80.5 -201t-248.5 -77z" />
    <glyph glyph-name="agrave.c2sc" horiz-adv-x="1099" 
d="M815 313h-536l-125 -313h-150l453 1073h188l451 -1073h-154zM575 948h-51q-63 -180 -145 -389l-53 -133h444l-53 133q-100 251 -142 389zM756 1257l-35 -71l-496 235l62 113z" />
    <glyph glyph-name="agrave.salt" horiz-adv-x="1095" 
d="M737 1145l-35 -72l-495 236l61 112zM451 -23q-183 0 -281 128.5t-98 367.5q0 243 100 372.5t281 129.5q272 0 354 -281h12v258h139v-952h-139v256h-12q-37 -127 -128.5 -203t-227.5 -76zM819 436v74q0 150 -85.5 243t-227.5 93q-295 0 -295 -373q0 -369 295 -369
q142 0 227.5 90t85.5 242z" />
    <glyph glyph-name="aacute.c2sc" horiz-adv-x="1099" 
d="M815 313h-536l-125 -313h-150l453 1073h188l451 -1073h-154zM575 948h-51q-63 -180 -145 -389l-53 -133h444l-53 133q-100 251 -142 389zM891 1423l-496 -237l-35 71l471 275z" />
    <glyph glyph-name="aacute.salt" horiz-adv-x="1095" 
d="M877 1311l-496 -238l-35 72l471 274zM451 -23q-183 0 -281 128.5t-98 367.5q0 243 100 372.5t281 129.5q272 0 354 -281h12v258h139v-952h-139v256h-12q-37 -127 -128.5 -203t-227.5 -76zM819 436v74q0 150 -85.5 243t-227.5 93q-295 0 -295 -373q0 -369 295 -369
q142 0 227.5 90t85.5 242z" />
    <glyph glyph-name="acircumflex.c2sc" horiz-adv-x="1099" 
d="M815 313h-536l-125 -313h-150l453 1073h188l451 -1073h-154zM575 948h-51q-63 -180 -145 -389l-53 -133h444l-53 133q-100 251 -142 389zM791 1184l-240 217l-242 -217l-55 59l266 283h62l266 -283z" />
    <glyph glyph-name="acircumflex.salt" horiz-adv-x="1095" 
d="M766 1071l-240 217l-241 -217l-56 59l267 283h61l266 -283zM451 -23q-183 0 -281 128.5t-98 367.5q0 243 100 372.5t281 129.5q272 0 354 -281h12v258h139v-952h-139v256h-12q-37 -127 -128.5 -203t-227.5 -76zM819 436v74q0 150 -85.5 243t-227.5 93q-295 0 -295 -373
q0 -369 295 -369q142 0 227.5 90t85.5 242z" />
    <glyph glyph-name="atilde.c2sc" horiz-adv-x="1099" 
d="M815 313h-536l-125 -313h-150l453 1073h188l451 -1073h-154zM575 948h-51q-63 -180 -145 -389l-53 -133h444l-53 133q-100 251 -142 389zM406 1536q39 0 71.5 -16t53.5 -39.5t41.5 -51t36 -51t37.5 -39.5t46 -16q46 0 63 48.5t15 156.5h80q6 -49 6 -92
q0 -107 -43.5 -164.5t-114.5 -57.5q-43 0 -78.5 21.5t-59 53t-45 62.5t-47 52.5t-54.5 21.5q-50 0 -68 -44.5t-16 -151.5h-80q-6 50 -6 88q0 108 43 163.5t119 55.5z" />
    <glyph glyph-name="atilde.salt" horiz-adv-x="1095" 
d="M379 1423q46 0 83 -22t60.5 -53.5t44.5 -62.5t46 -53t53 -22q46 0 62.5 48t14.5 157h80q6 -50 6 -92q0 -107 -43 -164t-114 -57q-43 0 -78.5 21.5t-59.5 53t-45.5 62.5t-47 52.5t-54.5 21.5q-50 0 -68 -45t-16 -152h-80q-6 49 -6 88q0 108 43 163.5t119 55.5zM451 -23
q-183 0 -281 128.5t-98 367.5q0 243 100 372.5t281 129.5q272 0 354 -281h12v258h139v-952h-139v256h-12q-37 -127 -128.5 -203t-227.5 -76zM819 436v74q0 150 -85.5 243t-227.5 93q-295 0 -295 -373q0 -369 295 -369q142 0 227.5 90t85.5 242z" />
    <glyph glyph-name="adieresis.c2sc" horiz-adv-x="1099" 
d="M815 313h-536l-125 -313h-150l453 1073h188l451 -1073h-154zM575 948h-51q-63 -180 -145 -389l-53 -133h444l-53 133q-100 251 -142 389zM281 1249v166h168v-166h-168zM651 1249v166h166v-166h-166z" />
    <glyph glyph-name="adieresis.salt" horiz-adv-x="1095" 
d="M256 1137v166h168v-166h-168zM627 1137v166h166v-166h-166zM451 -23q-183 0 -281 128.5t-98 367.5q0 243 100 372.5t281 129.5q272 0 354 -281h12v258h139v-952h-139v256h-12q-37 -127 -128.5 -203t-227.5 -76zM819 436v74q0 150 -85.5 243t-227.5 93q-295 0 -295 -373
q0 -369 295 -369q142 0 227.5 90t85.5 242z" />
    <glyph glyph-name="aring.c2sc" horiz-adv-x="1099" 
d="M815 313h-536l-125 -313h-150l453 1073h188l451 -1073h-154zM575 948h-51q-63 -180 -145 -389l-53 -133h444l-53 133q-100 251 -142 389zM774 1409q0 -100 -60.5 -160.5t-162.5 -60.5q-104 0 -164.5 60.5t-60.5 160.5t60.5 160.5t164.5 60.5q102 0 162.5 -60.5
t60.5 -160.5zM420 1409q0 -63 34.5 -98t96.5 -35q60 0 94.5 35t34.5 98t-34 97t-95 34q-62 0 -96.5 -34t-34.5 -97z" />
    <glyph glyph-name="aring.salt" horiz-adv-x="1095" 
d="M748 1294q0 -100 -61 -160.5t-163 -60.5q-104 0 -164.5 60.5t-60.5 160.5t60.5 161t164.5 61q102 0 163 -61t61 -161zM393 1294q0 -63 34.5 -98t96.5 -35q60 0 94.5 35t34.5 98q0 62 -34.5 96.5t-94.5 34.5q-62 0 -96.5 -34t-34.5 -97zM451 -23q-183 0 -281 128.5
t-98 367.5q0 243 100 372.5t281 129.5q272 0 354 -281h12v258h139v-952h-139v256h-12q-37 -127 -128.5 -203t-227.5 -76zM819 436v74q0 150 -85.5 243t-227.5 93q-295 0 -295 -373q0 -369 295 -369q142 0 227.5 90t85.5 242z" />
    <glyph glyph-name="ae.c2sc" horiz-adv-x="1572" 
d="M592 1073h174h704v-127h-622v-342h557v-115h-557v-362h622v-127h-768v276h-391l-141 -276h-154zM702 391v563h-55q-66 -156 -188 -395l-86 -168h329z" />
    <glyph glyph-name="ccedilla.c2sc" horiz-adv-x="1181" 
d="M600 -20h-16l-35 -89q49 17 88 17q67 0 108 -27t41 -86q0 -23 -9.5 -45.5t-29 -44.5t-57 -35.5t-86.5 -13.5q-129 0 -209 59l47 70q77 -51 160 -51q50 0 73 18.5t23 46.5q0 58 -90 58q-36 0 -86 -13l-55 25l43 117q-213 26 -327.5 172t-114.5 381q0 258 143 406.5
t395 148.5q210 0 339.5 -106t162.5 -294l-137 -28q-63 301 -367 301q-195 0 -294 -114.5t-99 -313.5q0 -203 99 -318t292 -115q162 0 252.5 78.5t122.5 231.5l137 -25q-31 -195 -162 -303t-352 -108z" />
    <glyph glyph-name="egrave.c2sc" horiz-adv-x="1009" 
d="M905 0h-622h-144v1073h768v-127h-624v-342h559v-115h-559v-362h622v-127zM729 1257l-35 -71l-495 235l61 113z" />
    <glyph glyph-name="eacute.c2sc" horiz-adv-x="1009" 
d="M905 0h-622h-144v1073h768v-127h-624v-342h559v-115h-559v-362h622v-127zM864 1423l-495 -237l-35 71l471 275z" />
    <glyph glyph-name="ecircumflex.c2sc" horiz-adv-x="1009" 
d="M905 0h-622h-144v1073h768v-127h-624v-342h559v-115h-559v-362h622v-127zM764 1184l-240 217l-241 -217l-56 59l267 283h61l266 -283z" />
    <glyph glyph-name="edieresis.c2sc" horiz-adv-x="1009" 
d="M905 0h-622h-144v1073h768v-127h-624v-342h559v-115h-559v-362h622v-127zM256 1249v166h168v-166h-168zM627 1249v166h166v-166h-166z" />
    <glyph glyph-name="igrave.c2sc" horiz-adv-x="421" 
d="M283 1073v-1073h-144v1073h144zM418 1257l-35 -71l-496 235l62 113z" />
    <glyph glyph-name="iacute.c2sc" horiz-adv-x="421" 
d="M283 1073v-1073h-144v1073h144zM553 1423l-496 -237l-34 71l471 275z" />
    <glyph glyph-name="icircumflex.c2sc" horiz-adv-x="421" 
d="M283 1073v-1073h-144v1073h144zM451 1184l-240 217l-242 -217l-55 59l266 283h62l266 -283z" />
    <glyph glyph-name="idieresis.c2sc" horiz-adv-x="421" 
d="M283 1073v-1073h-144v1073h144zM-57 1249v166h168v-166h-168zM313 1249v166h166v-166h-166z" />
    <glyph glyph-name="eth.c2sc" horiz-adv-x="1253" 
d="M190 489h-147v103h147v481h431q282 0 423.5 -135t141.5 -395q0 -253 -149.5 -398t-409.5 -145h-437v489zM336 950v-358h332v-103h-332v-366h278q428 0 428 420q0 211 -105.5 309t-334.5 98h-266z" />
    <glyph glyph-name="ntilde.c2sc" horiz-adv-x="1210" 
d="M1071 0h-194l-365 559q-106 165 -207 379l-45 -2q16 -300 16 -520v-416h-137v1073h215l324 -491q113 -183 231 -420l43 2q-18 261 -18 491v418h137v-1073zM461 1536q46 0 83 -22t60.5 -53t44.5 -62.5t46 -53.5t53 -22q46 0 62.5 48t14.5 157h80q6 -49 6 -92
q0 -107 -43 -164.5t-114 -57.5q-43 0 -78.5 21.5t-59.5 53t-45.5 62.5t-47 52.5t-54.5 21.5q-50 0 -68 -44.5t-16 -151.5h-80q-6 50 -6 88q0 108 43 163.5t119 55.5z" />
    <glyph glyph-name="ograve.c2sc" 
d="M625 -20q-265 0 -412 152.5t-147 406.5q0 253 148 404t411 151q262 0 409.5 -151t147.5 -404q0 -254 -146.5 -406.5t-410.5 -152.5zM625 106q204 0 308.5 117t104.5 316q0 198 -104.5 313t-308.5 115q-205 0 -310.5 -115.5t-105.5 -312.5q0 -200 104.5 -316.5
t311.5 -116.5zM829 1278l-34 -72l-496 236l61 112z" />
    <glyph glyph-name="oacute.c2sc" 
d="M625 -20q-265 0 -412 152.5t-147 406.5q0 253 148 404t411 151q262 0 409.5 -151t147.5 -404q0 -254 -146.5 -406.5t-410.5 -152.5zM625 106q204 0 308.5 117t104.5 316q0 198 -104.5 313t-308.5 115q-205 0 -310.5 -115.5t-105.5 -312.5q0 -200 104.5 -316.5
t311.5 -116.5zM965 1444l-496 -238l-35 72l471 274z" />
    <glyph glyph-name="ocircumflex.c2sc" 
d="M625 -20q-265 0 -412 152.5t-147 406.5q0 253 148 404t411 151q262 0 409.5 -151t147.5 -404q0 -254 -146.5 -406.5t-410.5 -152.5zM625 106q204 0 308.5 117t104.5 316q0 198 -104.5 313t-308.5 115q-205 0 -310.5 -115.5t-105.5 -312.5q0 -200 104.5 -316.5
t311.5 -116.5zM864 1204l-239 217l-242 -217l-55 60l266 282h61l267 -282z" />
    <glyph glyph-name="otilde.c2sc" 
d="M625 -20q-265 0 -412 152.5t-147 406.5q0 253 148 404t411 151q262 0 409.5 -151t147.5 -404q0 -254 -146.5 -406.5t-410.5 -152.5zM625 106q204 0 308.5 117t104.5 316q0 198 -104.5 313t-308.5 115q-205 0 -310.5 -115.5t-105.5 -312.5q0 -200 104.5 -316.5
t311.5 -116.5zM481 1556q46 0 83 -22t60.5 -53t44.5 -62.5t46 -53.5t53 -22q46 0 63 48.5t15 156.5h80q6 -49 6 -92q0 -107 -43.5 -164t-114.5 -57q-37 0 -68 15.5t-51.5 39t-41.5 51t-37.5 51t-39 39t-47.5 15.5q-50 0 -67.5 -44.5t-15.5 -152.5h-80q-7 58 -7 88
q0 108 43 163.5t119 55.5z" />
    <glyph glyph-name="odieresis.c2sc" 
d="M625 -20q-265 0 -412 152.5t-147 406.5q0 253 148 404t411 151q262 0 409.5 -151t147.5 -404q0 -254 -146.5 -406.5t-410.5 -152.5zM625 106q204 0 308.5 117t104.5 316q0 198 -104.5 313t-308.5 115q-205 0 -310.5 -115.5t-105.5 -312.5q0 -200 104.5 -316.5
t311.5 -116.5zM356 1270v166h168v-166h-168zM727 1270v166h166v-166h-166z" />
    <glyph glyph-name="divide.1" horiz-adv-x="1007" 
d="M940 608v-129h-872v129h872zM428 135v156h156v-156h-156zM428 797v155h156v-155h-156z" />
    <glyph glyph-name="oslash.c2sc" horiz-adv-x="1247" 
d="M252 96l-94 -96h-115v16l143 144q-120 147 -120 379q0 253 148 404t411 151q230 0 372 -117l95 96h110v-16l-143 -142q123 -144 123 -376q0 -254 -146.5 -406.5t-410.5 -152.5q-229 0 -373 116zM623 100q210 0 315.5 118t105.5 321q0 171 -77 280l-625 -631
q105 -88 281 -88zM281 256l624 629q-106 86 -280 86q-208 0 -315 -116.5t-107 -315.5q0 -173 78 -283z" />
    <glyph glyph-name="ugrave.c2sc" horiz-adv-x="1193" 
d="M606 109q168 0 236.5 78t68.5 225v661h144v-670q0 -207 -114.5 -315t-334.5 -108q-224 0 -345.5 108t-121.5 315v670h144v-653q0 -146 74.5 -228.5t248.5 -82.5zM803 1257l-35 -71l-496 235l62 113z" />
    <glyph glyph-name="uacute.c2sc" horiz-adv-x="1193" 
d="M606 109q168 0 236.5 78t68.5 225v661h144v-670q0 -207 -114.5 -315t-334.5 -108q-224 0 -345.5 108t-121.5 315v670h144v-653q0 -146 74.5 -228.5t248.5 -82.5zM938 1423l-496 -237l-34 71l471 275z" />
    <glyph glyph-name="ucircumflex.c2sc" horiz-adv-x="1193" 
d="M606 109q168 0 236.5 78t68.5 225v661h144v-670q0 -207 -114.5 -315t-334.5 -108q-224 0 -345.5 108t-121.5 315v670h144v-653q0 -146 74.5 -228.5t248.5 -82.5zM838 1184l-240 217l-242 -217l-55 59l266 283h62l266 -283z" />
    <glyph glyph-name="udieresis.c2sc" horiz-adv-x="1193" 
d="M606 109q168 0 236.5 78t68.5 225v661h144v-670q0 -207 -114.5 -315t-334.5 -108q-224 0 -345.5 108t-121.5 315v670h144v-653q0 -146 74.5 -228.5t248.5 -82.5zM328 1249v166h168v-166h-168zM698 1249v166h166v-166h-166z" />
    <glyph glyph-name="yacute.c2sc" horiz-adv-x="1005" 
d="M575 0h-145v369l-434 686v18h154l339 -586h29l340 586h150v-18l-433 -688v-367zM844 1423l-496 -237l-35 71l471 275z" />
    <glyph glyph-name="thorn.c2sc" horiz-adv-x="1030" 
d="M139 0v1073h144v-184h297q391 0 391 -338q0 -157 -101 -248.5t-288 -91.5h-299v-211h-144zM283 764v-430h286q133 0 195.5 52t62.5 163q0 114 -59.5 164.5t-200.5 50.5h-284z" />
    <glyph glyph-name="ydieresis.c2sc" horiz-adv-x="1005" 
d="M575 0h-145v369l-434 686v18h154l339 -586h29l340 586h150v-18l-433 -688v-367zM233 1249v166h168v-166h-168zM604 1249v166h166v-166h-166z" />
    <glyph glyph-name="amacron.c2sc" horiz-adv-x="1099" 
d="M815 313h-536l-125 -313h-150l453 1073h188l451 -1073h-154zM575 948h-51q-63 -180 -145 -389l-53 -133h444l-53 133q-100 251 -142 389zM272 1257v111h557v-111h-557z" />
    <glyph glyph-name="amacron.salt" horiz-adv-x="1095" 
d="M248 1145v110h557v-110h-557zM451 -23q-183 0 -281 128.5t-98 367.5q0 243 100 372.5t281 129.5q272 0 354 -281h12v258h139v-952h-139v256h-12q-37 -127 -128.5 -203t-227.5 -76zM819 436v74q0 150 -85.5 243t-227.5 93q-295 0 -295 -373q0 -369 295 -369
q142 0 227.5 90t85.5 242z" />
    <glyph glyph-name="abreve.c2sc" horiz-adv-x="1099" 
d="M815 313h-536l-125 -313h-150l453 1073h188l451 -1073h-154zM575 948h-51q-63 -180 -145 -389l-53 -133h444l-53 133q-100 251 -142 389zM551 1311q181 0 194 202h86q0 -155 -74 -231t-206 -76t-206.5 76t-74.5 231h86q13 -202 195 -202z" />
    <glyph glyph-name="abreve.salt" horiz-adv-x="1095" 
d="M530 1198q83 0 135.5 47.5t59.5 155.5h86q0 -155 -74.5 -231t-206.5 -76t-206 76t-74 231h86q13 -203 194 -203zM451 -23q-183 0 -281 128.5t-98 367.5q0 243 100 372.5t281 129.5q272 0 354 -281h12v258h139v-952h-139v256h-12q-37 -127 -128.5 -203t-227.5 -76z
M819 436v74q0 150 -85.5 243t-227.5 93q-295 0 -295 -373q0 -369 295 -369q142 0 227.5 90t85.5 242z" />
    <glyph glyph-name="aogonek.c2sc" horiz-adv-x="1099" 
d="M1096 0h-4q-128 -25 -186 -58.5t-58 -86.5q0 -80 133 -80q42 0 111 16l6 -113q-71 -12 -127 -12q-114 0 -168.5 39.5t-54.5 110.5q0 65 55 111.5t151 72.5h-12l-127 313h-536l-125 -313h-150l453 1073h188zM379 559l-53 -133h444l-53 133q-100 251 -142 389h-51
q-63 -180 -145 -389z" />
    <glyph glyph-name="aogonek.salt" horiz-adv-x="1095" 
d="M838 -334q-114 0 -169 39.5t-55 110.5q0 65 55.5 111.5t151.5 72.5h-2v256h-12q-37 -127 -128.5 -203t-227.5 -76q-183 0 -281 128.5t-98 367.5q0 243 100 372.5t281 129.5q272 0 354 -281h12v258h139v-952q-127 -25 -185 -58.5t-58 -86.5q0 -80 133 -80q41 0 110 16
l7 -113q-71 -12 -127 -12zM819 436v74q0 150 -85.5 243t-227.5 93q-295 0 -295 -373q0 -369 295 -369q142 0 227.5 90t85.5 242z" />
    <glyph glyph-name="cacute.c2sc" horiz-adv-x="1181" 
d="M600 -20q-255 0 -393.5 149.5t-138.5 409.5q0 258 143 406.5t395 148.5q210 0 339.5 -106t162.5 -294l-137 -28q-63 301 -367 301q-195 0 -294 -114.5t-99 -313.5q0 -203 99 -318t292 -115q162 0 252.5 78.5t122.5 231.5l137 -25q-31 -195 -162 -303t-352 -108zM932 1444
l-496 -238l-35 72l471 274z" />
    <glyph glyph-name="ccircumflex.c2sc" horiz-adv-x="1181" 
d="M600 -20q-255 0 -393.5 149.5t-138.5 409.5q0 258 143 406.5t395 148.5q210 0 339.5 -106t162.5 -294l-137 -28q-63 301 -367 301q-195 0 -294 -114.5t-99 -313.5q0 -203 99 -318t292 -115q162 0 252.5 78.5t122.5 231.5l137 -25q-31 -195 -162 -303t-352 -108zM831 1204
l-239 217l-242 -217l-55 60l266 282h62l266 -282z" />
    <glyph glyph-name="cdotaccent.c2sc" horiz-adv-x="1181" 
d="M600 -20q-255 0 -393.5 149.5t-138.5 409.5q0 258 143 406.5t395 148.5q210 0 339.5 -106t162.5 -294l-137 -28q-63 301 -367 301q-195 0 -294 -114.5t-99 -313.5q0 -203 99 -318t292 -115q162 0 252.5 78.5t122.5 231.5l137 -25q-31 -195 -162 -303t-352 -108zM504 1288
v174h178v-174h-178z" />
    <glyph glyph-name="ccaron.c2sc" horiz-adv-x="1181" 
d="M600 -20q-255 0 -393.5 149.5t-138.5 409.5q0 258 143 406.5t395 148.5q210 0 339.5 -106t162.5 -294l-137 -28q-63 301 -367 301q-195 0 -294 -114.5t-99 -313.5q0 -203 99 -318t292 -115q162 0 252.5 78.5t122.5 231.5l137 -25q-31 -195 -162 -303t-352 -108zM352 1559
l240 -218l239 218l58 -58l-266 -282h-64l-264 282z" />
    <glyph glyph-name="dcaron.c2sc" horiz-adv-x="1198" 
d="M573 0h-434v1073h428q284 0 425 -134.5t141 -395.5q0 -253 -150 -398t-410 -145zM283 950v-827h278q428 0 428 420q0 212 -104.5 309.5t-335.5 97.5h-266zM369 1538l239 -217l240 217l57 -57l-266 -283h-64l-264 283z" />
    <glyph glyph-name="dcroat.c2sc" horiz-adv-x="1253" 
d="M190 489h-147v103h147v481h431q282 0 423.5 -135t141.5 -395q0 -253 -149.5 -398t-409.5 -145h-437v489zM336 950v-358h332v-103h-332v-366h278q428 0 428 420q0 211 -105.5 309t-334.5 98h-266z" />
    <glyph glyph-name="emacron.c2sc" horiz-adv-x="1009" 
d="M905 0h-622h-144v1073h768v-127h-624v-342h559v-115h-559v-362h622v-127zM246 1257v111h557v-111h-557z" />
    <glyph glyph-name="ebreve.c2sc" horiz-adv-x="1009" 
d="M905 0h-622h-144v1073h768v-127h-624v-342h559v-115h-559v-362h622v-127zM524 1311q182 0 195 202h86q0 -155 -74.5 -231t-206.5 -76t-206 76t-74 231h86q13 -202 194 -202z" />
    <glyph glyph-name="edotaccent.c2sc" horiz-adv-x="1009" 
d="M905 0h-622h-144v1073h768v-127h-624v-342h559v-115h-559v-362h622v-127zM436 1268v174h178v-174h-178z" />
    <glyph glyph-name="eogonek.c2sc" horiz-adv-x="1009" 
d="M766 0h-483h-144v1073h768v-127h-624v-342h559v-115h-559v-362h622v-127h-2q-130 -25 -188 -58.5t-58 -86.5q0 -80 134 -80q41 0 110 16l6 -113q-71 -12 -127 -12q-113 0 -168 40t-55 110q0 65 55.5 111.5t153.5 72.5z" />
    <glyph glyph-name="ecaron.c2sc" horiz-adv-x="1009" 
d="M905 0h-622h-144v1073h768v-127h-624v-342h559v-115h-559v-362h622v-127zM285 1538l239 -217l240 217l57 -57l-266 -283h-63l-265 283z" />
    <glyph glyph-name="Gcircumflex.salt" horiz-adv-x="1280" 
d="M1067 494h-410v129h551v-111q0 -113 -31 -207t-94 -168t-170.5 -115.5t-250.5 -41.5q-286 0 -442.5 158.5t-156.5 461.5q0 197 65 342t198.5 227t324.5 82q233 0 369 -115t174 -327l-139 -31q-38 172 -136.5 256t-265.5 84q-228 0 -334 -136.5t-106 -381.5
q0 -236 110.5 -365t342.5 -129q394 0 401 388zM893 1329l-244 178l-246 -178l-49 64l264 233h62l264 -233z" />
    <glyph glyph-name="gcircumflex.c2sc" horiz-adv-x="1216" 
d="M569 -18q-235 0 -371.5 139t-136.5 403q0 263 139.5 416.5t403.5 153.5q215 0 338.5 -101.5t159.5 -290.5l-133 -28q-37 149 -125.5 221t-239.5 72q-397 0 -397 -443q0 -420 403 -420q105 0 180 25t114.5 69.5t57 95.5t17.5 114v-2v20h-371v113h508v-539h-135v246h-14
q-40 -120 -138 -192t-260 -72zM840 1204l-240 217l-242 -217l-55 60l266 282h62l266 -282z" />
    <glyph glyph-name="gcircumflex_salt" horiz-adv-x="1200" 
d="M983 436h-365v109h500v-96q0 -78 -17.5 -146t-57 -128t-98 -103t-145 -67.5t-194.5 -24.5q-261 0 -402 142.5t-141 416.5q0 256 137.5 405.5t399.5 149.5q218 0 344.5 -100.5t159.5 -286.5l-135 -29q-65 287 -367 287q-203 0 -298 -112.5t-95 -313.5q0 -207 97.5 -320
t305.5 -113q371 0 371 330zM836 1204l-240 217l-242 -217l-55 60l266 282h62l266 -282z" />
    <glyph glyph-name="gcircumflex.salt" horiz-adv-x="1095" 
d="M758 1071l-240 217l-242 -217l-55 59l266 283h62l266 -283zM72 506q0 227 100 348t281 121q272 0 354 -281h12v258h139v-848q0 -438 -442 -438q-382 0 -444 283l139 33q45 -197 301 -197q172 0 239.5 80t67.5 239v195h-14q-39 -111 -131 -179.5t-223 -68.5
q-183 0 -281 117.5t-98 337.5zM819 477v37q0 149 -85.5 240.5t-227.5 91.5q-295 0 -295 -338q0 -336 295 -336q142 0 227.5 83t85.5 222z" />
    <glyph glyph-name="Gbreve.salt" horiz-adv-x="1280" 
d="M1067 494h-410v129h551v-111q0 -113 -31 -207t-94 -168t-170.5 -115.5t-250.5 -41.5q-286 0 -442.5 158.5t-156.5 461.5q0 197 65 342t198.5 227t324.5 82q233 0 369 -115t174 -327l-139 -31q-38 172 -136.5 256t-265.5 84q-228 0 -334 -136.5t-106 -381.5
q0 -236 110.5 -365t342.5 -129q394 0 401 388zM649 1448q182 0 195 174h86q0 -142 -75.5 -211.5t-205.5 -69.5t-205 69.5t-75 211.5h86q13 -174 194 -174z" />
    <glyph glyph-name="gbreve.c2sc" horiz-adv-x="1216" 
d="M569 -18q-235 0 -371.5 139t-136.5 403q0 263 139.5 416.5t403.5 153.5q215 0 338.5 -101.5t159.5 -290.5l-133 -28q-37 149 -125.5 221t-239.5 72q-397 0 -397 -443q0 -420 403 -420q105 0 180 25t114.5 69.5t57 95.5t17.5 114v-2v20h-371v113h508v-539h-135v246h-14
q-40 -120 -138 -192t-260 -72zM600 1331q83 0 135.5 47.5t59.5 155.5h86q0 -155 -74.5 -231t-206.5 -76t-206.5 76t-74.5 231h87q13 -203 194 -203z" />
    <glyph glyph-name="gbreve_salt" horiz-adv-x="1200" 
d="M983 436h-365v109h500v-96q0 -78 -17.5 -146t-57 -128t-98 -103t-145 -67.5t-194.5 -24.5q-261 0 -402 142.5t-141 416.5q0 256 137.5 405.5t399.5 149.5q218 0 344.5 -100.5t159.5 -286.5l-135 -29q-65 287 -367 287q-203 0 -298 -112.5t-95 -313.5q0 -207 97.5 -320
t305.5 -113q371 0 371 330zM598 1331q83 0 135.5 47.5t59.5 155.5h86q0 -155 -74.5 -231t-206.5 -76t-206.5 76t-74.5 231h86q7 -108 59.5 -155.5t135.5 -47.5z" />
    <glyph glyph-name="gbreve.salt" horiz-adv-x="1095" 
d="M524 1198q83 0 135.5 47.5t59.5 155.5h86q0 -155 -74.5 -231t-206.5 -76t-206 76t-74 231h86q13 -203 194 -203zM72 506q0 227 100 348t281 121q272 0 354 -281h12v258h139v-848q0 -438 -442 -438q-382 0 -444 283l139 33q45 -197 301 -197q172 0 239.5 80t67.5 239v195
h-14q-39 -111 -131 -179.5t-223 -68.5q-183 0 -281 117.5t-98 337.5zM819 477v37q0 149 -85.5 240.5t-227.5 91.5q-295 0 -295 -338q0 -336 295 -336q142 0 227.5 83t85.5 222z" />
    <glyph glyph-name="Gdotaccent.salt" horiz-adv-x="1280" 
d="M1067 494h-410v129h551v-111q0 -113 -31 -207t-94 -168t-170.5 -115.5t-250.5 -41.5q-286 0 -442.5 158.5t-156.5 461.5q0 197 65 342t198.5 227t324.5 82q233 0 369 -115t174 -327l-139 -31q-38 172 -136.5 256t-265.5 84q-228 0 -334 -136.5t-106 -381.5
q0 -236 110.5 -365t342.5 -129q394 0 401 388zM561 1401v174h178v-174h-178z" />
    <glyph glyph-name="gdotaccent.c2sc" horiz-adv-x="1216" 
d="M569 -18q-235 0 -371.5 139t-136.5 403q0 263 139.5 416.5t403.5 153.5q215 0 338.5 -101.5t159.5 -290.5l-133 -28q-37 149 -125.5 221t-239.5 72q-397 0 -397 -443q0 -420 403 -420q105 0 180 25t114.5 69.5t57 95.5t17.5 114v-2v20h-371v113h508v-539h-135v246h-14
q-40 -120 -138 -192t-260 -72zM510 1288v174h178v-174h-178z" />
    <glyph glyph-name="gdotaccent_salt" horiz-adv-x="1200" 
d="M983 436h-365v109h500v-96q0 -78 -17.5 -146t-57 -128t-98 -103t-145 -67.5t-194.5 -24.5q-261 0 -402 142.5t-141 416.5q0 256 137.5 405.5t399.5 149.5q218 0 344.5 -100.5t159.5 -286.5l-135 -29q-65 287 -367 287q-203 0 -298 -112.5t-95 -313.5q0 -207 97.5 -320
t305.5 -113q371 0 371 330zM504 1288v174h178v-174h-178z" />
    <glyph glyph-name="gdotaccent.salt" horiz-adv-x="1095" 
d="M436 1155v174h178v-174h-178zM72 506q0 227 100 348t281 121q272 0 354 -281h12v258h139v-848q0 -438 -442 -438q-382 0 -444 283l139 33q45 -197 301 -197q172 0 239.5 80t67.5 239v195h-14q-39 -111 -131 -179.5t-223 -68.5q-183 0 -281 117.5t-98 337.5zM819 477v37
q0 149 -85.5 240.5t-227.5 91.5q-295 0 -295 -338q0 -336 295 -336q142 0 227.5 83t85.5 222z" />
    <glyph glyph-name="uni0122.salt" horiz-adv-x="1280" 
d="M1067 494h-410v129h551v-111q0 -113 -31 -207t-94 -168t-170.5 -115.5t-250.5 -41.5q-286 0 -442.5 158.5t-156.5 461.5q0 197 65 342t198.5 227t324.5 82q233 0 369 -115t174 -327l-139 -31q-38 172 -136.5 256t-265.5 84q-228 0 -334 -136.5t-106 -381.5
q0 -236 110.5 -365t342.5 -129q394 0 401 388zM520 -416l92 299h140l-127 -317h-105v18z" />
    <glyph glyph-name="uni0123.c2sc" horiz-adv-x="1216" 
d="M569 -18q-235 0 -371.5 139t-136.5 403q0 263 139.5 416.5t403.5 153.5q215 0 338.5 -101.5t159.5 -290.5l-133 -28q-37 149 -125.5 221t-239.5 72q-397 0 -397 -443q0 -420 403 -420q105 0 180 25t114.5 69.5t57 95.5t17.5 114v-2v20h-371v113h508v-539h-135v246h-14
q-40 -120 -138 -192t-260 -72zM471 -416l92 299h139l-127 -317h-104v18z" />
    <glyph glyph-name="uni0123_salt" horiz-adv-x="1200" 
d="M983 436h-365v109h500v-96q0 -78 -17.5 -146t-57 -128t-98 -103t-145 -67.5t-194.5 -24.5q-261 0 -402 142.5t-141 416.5q0 256 137.5 405.5t399.5 149.5q218 0 344.5 -100.5t159.5 -286.5l-135 -29q-65 287 -367 287q-203 0 -298 -112.5t-95 -313.5q0 -207 97.5 -320
t305.5 -113q371 0 371 330zM473 -416l92 299h140l-127 -317h-105v18z" />
    <glyph glyph-name="uni0123.salt" horiz-adv-x="1095" 
d="M72 506q0 227 100 348t281 121q272 0 354 -281h12v258h139v-848q0 -438 -442 -438q-382 0 -444 283l139 33q45 -197 301 -197q172 0 239.5 80t67.5 239v195h-14q-39 -111 -131 -179.5t-223 -68.5q-183 0 -281 117.5t-98 337.5zM819 477v37q0 149 -85.5 240.5t-227.5 91.5
q-295 0 -295 -338q0 -336 295 -336q142 0 227.5 83t85.5 222zM682 1421l-90 -301h-141l127 318h104v-17z" />
    <glyph glyph-name="hcircumflex.c2sc" horiz-adv-x="1210" 
d="M139 0v1073h144v-473h645v473h143v-1073h-143v471h-645v-471h-144zM846 1184l-240 217l-241 -217l-56 59l266 283h62l266 -283z" />
    <glyph glyph-name="hbar.c2sc" horiz-adv-x="1273" 
d="M313 422v-422h-143v748h-133v100h133v225h143v-225h645v225h144v-225h135v-100h-135v-748h-144v422h-645zM313 748v-201h645v201h-645z" />
    <glyph glyph-name="itilde.c2sc" horiz-adv-x="421" 
d="M283 1073v-1073h-144v1073h144zM68 1536q39 0 71.5 -16t53.5 -39.5t41.5 -51t36 -51t37.5 -39.5t46 -16q46 0 63 48.5t15 156.5h80q6 -49 6 -92q0 -107 -43.5 -164.5t-114.5 -57.5q-43 0 -78.5 21.5t-59 53t-45 62.5t-47 52.5t-54.5 21.5q-50 0 -68 -44.5t-16 -151.5h-80
q-6 49 -6 88q0 108 43 163.5t119 55.5z" />
    <glyph glyph-name="imacron.c2sc" horiz-adv-x="421" 
d="M283 1073v-1073h-144v1073h144zM-68 1257v111h557v-111h-557z" />
    <glyph glyph-name="ibreve.c2sc" horiz-adv-x="421" 
d="M283 1073v-1073h-144v1073h144zM213 1311q182 0 195 202h86q0 -155 -74.5 -231t-206.5 -76t-206.5 76t-74.5 231h86q13 -202 195 -202z" />
    <glyph glyph-name="iogonek.c2sc" horiz-adv-x="421" 
d="M283 1073v-1073q-128 -25 -186 -58.5t-58 -86.5q0 -80 133 -80q42 0 111 16l6 -113q-71 -12 -127 -12q-114 0 -168.5 39.5t-54.5 110.5q0 65 55 111.5t151 72.5h-6v1073h144z" />
    <glyph glyph-name="ij.c2sc" horiz-adv-x="1003" 
d="M283 1073v-1073h-144v1073h144zM721 276v797h143v-797q0 -290 -274 -290q-68 0 -141 12l6 127q65 -12 116 -12q79 0 114.5 41t35.5 122z" />
    <glyph glyph-name="jcircumflex.c2sc" horiz-adv-x="581" 
d="M299 276v797h143v-797q0 -290 -274 -290q-68 0 -141 12l6 127q64 -12 117 -12q79 0 114 41t35 122zM610 1184l-239 217l-242 -217l-55 59l266 283h61l267 -283z" />
    <glyph glyph-name="uni0137.c2sc" horiz-adv-x="1062" 
d="M139 0v1073h144v-504h94l487 504h162v-18l-539 -537l570 -498v-20h-168l-504 451h-102v-451h-144zM469 -416l92 299h139l-127 -317h-104v18z" />
    <glyph glyph-name="lacute.c2sc" horiz-adv-x="868" 
d="M139 0v1073h144v-948h542v-125h-686zM651 1423l-495 -237l-35 71l471 275z" />
    <glyph glyph-name="uni013C.c2sc" horiz-adv-x="868" 
d="M139 0v1073h144v-948h542v-125h-686zM354 -416l92 299h140l-127 -317h-105v18z" />
    <glyph glyph-name="lcaron.c2sc" horiz-adv-x="888" 
d="M139 0v1073h144v-948h542v-125h-686zM649 559l25 514h123l-56 -514h-92z" />
    <glyph glyph-name="ldot.c2sc" horiz-adv-x="878" 
d="M139 0v1073h144v-948h542v-125h-686zM575 512v164h168v-164h-168z" />
    <glyph glyph-name="lslash.c2sc" horiz-adv-x="915" 
d="M592 737v-106l-283 -139v-367h543v-125h-686v420l-135 -68v105l135 67v549h143v-477z" />
    <glyph glyph-name="nacute.c2sc" horiz-adv-x="1210" 
d="M1071 0h-194l-365 559q-106 165 -207 379l-45 -2q16 -300 16 -520v-416h-137v1073h215l324 -491q113 -183 231 -420l43 2q-18 261 -18 491v418h137v-1073zM946 1423l-495 -237l-35 71l471 275z" />
    <glyph glyph-name="uni0146.c2sc" horiz-adv-x="1210" 
d="M1071 0h-194l-365 559q-106 165 -207 379l-45 -2q16 -300 16 -520v-416h-137v1073h215l324 -491q113 -183 231 -420l43 2q-18 261 -18 491v418h137v-1073zM475 -416l92 299h140l-127 -317h-105v18z" />
    <glyph glyph-name="ncaron.c2sc" horiz-adv-x="1210" 
d="M1071 0h-194l-365 559q-106 165 -207 379l-45 -2q16 -300 16 -520v-416h-137v1073h215l324 -491q113 -183 231 -420l43 2q-18 261 -18 491v418h137v-1073zM367 1538l239 -217l240 217l57 -57l-266 -283h-64l-264 283z" />
    <glyph glyph-name="eng.c2sc" horiz-adv-x="1210" 
d="M276 0h-137v1073h215l340 -489q140 -209 238 -406h20q-18 326 -18 477v418h137v-1104q0 -303 -291 -303q-72 0 -149 12l10 127q71 -12 129 -12q85 0 124.5 43t39.5 131v31l-406 557q-101 140 -221 385l-47 -2q16 -300 16 -522v-416z" />
    <glyph glyph-name="omacron.c2sc" 
d="M625 -20q-265 0 -412 152.5t-147 406.5q0 253 148 404t411 151q262 0 409.5 -151t147.5 -404q0 -254 -146.5 -406.5t-410.5 -152.5zM625 106q204 0 308.5 117t104.5 316q0 198 -104.5 313t-308.5 115q-205 0 -310.5 -115.5t-105.5 -312.5q0 -200 104.5 -316.5
t311.5 -116.5zM346 1278v111h557v-111h-557z" />
    <glyph glyph-name="obreve.c2sc" 
d="M625 -20q-265 0 -412 152.5t-147 406.5q0 253 148 404t411 151q262 0 409.5 -151t147.5 -404q0 -254 -146.5 -406.5t-410.5 -152.5zM625 106q204 0 308.5 117t104.5 316q0 198 -104.5 313t-308.5 115q-205 0 -310.5 -115.5t-105.5 -312.5q0 -200 104.5 -316.5
t311.5 -116.5zM625 1331q181 0 194 203h86q0 -155 -74 -231t-206 -76t-206.5 76t-74.5 231h86q7 -108 59.5 -155.5t135.5 -47.5z" />
    <glyph glyph-name="ohungarumlaut.c2sc" 
d="M625 -20q-265 0 -412 152.5t-147 406.5q0 253 148 404t411 151q262 0 409.5 -151t147.5 -404q0 -254 -146.5 -406.5t-410.5 -152.5zM625 106q204 0 308.5 117t104.5 316q0 198 -104.5 313t-308.5 115q-205 0 -310.5 -115.5t-105.5 -312.5q0 -200 104.5 -316.5
t311.5 -116.5zM977 1507l-238 -301l-67 47l200 324zM694 1513l-221 -309l-70 43l185 332z" />
    <glyph glyph-name="oe.c2sc" horiz-adv-x="1650" 
d="M627 1073h217h704v-127h-622v-342h557v-115h-557v-362h620v-127h-919q-264 0 -412.5 147.5t-148.5 391.5q0 242 150 388t411 146zM780 125v825h-153q-205 0 -311.5 -111t-106.5 -300q0 -191 105.5 -302.5t312.5 -111.5h153z" />
    <glyph glyph-name="racute.c2sc" horiz-adv-x="1110" 
d="M545 438h-262v-438h-144v1073h451q197 0 293 -82.5t96 -238.5q0 -125 -72 -204t-211 -102l346 -426v-20h-161zM578 950h-295v-395h297q132 0 194 48.5t62 146.5q0 102 -58.5 151t-199.5 49zM913 1423l-495 -237l-35 71l471 275z" />
    <glyph glyph-name="uni0157.c2sc" horiz-adv-x="1110" 
d="M545 438h-262v-438h-144v1073h451q197 0 293 -82.5t96 -238.5q0 -125 -72 -204t-211 -102l346 -426v-20h-161zM578 950h-295v-395h297q132 0 194 48.5t62 146.5q0 102 -58.5 151t-199.5 49zM444 -416l93 299h139l-127 -317h-105v18z" />
    <glyph glyph-name="rcaron.c2sc" horiz-adv-x="1110" 
d="M545 438h-262v-438h-144v1073h451q197 0 293 -82.5t96 -238.5q0 -125 -72 -204t-211 -102l346 -426v-20h-161zM578 950h-295v-395h297q132 0 194 48.5t62 146.5q0 102 -58.5 151t-199.5 49zM305 1538l240 -217l239 217l58 -57l-267 -283h-63l-264 283z" />
    <glyph glyph-name="sacute.c2sc" horiz-adv-x="1046" 
d="M547 -20q-431 0 -486 360l138 29q25 -134 110.5 -201.5t241.5 -67.5q278 0 278 179q0 82 -68.5 127.5t-240.5 74.5q-222 38 -314.5 116t-92.5 204q0 137 103.5 215t301.5 78q192 0 291 -81.5t135 -236.5l-141 -28q-31 119 -94.5 173t-196.5 54q-128 0 -193 -43.5
t-65 -122.5q0 -38 13 -66.5t47 -54.5t97 -46.5t158 -37.5q118 -22 198.5 -53t125 -71.5t62.5 -86t18 -104.5q0 -146 -103.5 -227.5t-322.5 -81.5zM858 1444l-496 -238l-34 72l471 274z" />
    <glyph glyph-name="scircumflex.c2sc" horiz-adv-x="1046" 
d="M547 -20q-431 0 -486 360l138 29q25 -134 110.5 -201.5t241.5 -67.5q278 0 278 179q0 82 -68.5 127.5t-240.5 74.5q-222 38 -314.5 116t-92.5 204q0 137 103.5 215t301.5 78q192 0 291 -81.5t135 -236.5l-141 -28q-31 119 -94.5 173t-196.5 54q-128 0 -193 -43.5
t-65 -122.5q0 -38 13 -66.5t47 -54.5t97 -46.5t158 -37.5q118 -22 198.5 -53t125 -71.5t62.5 -86t18 -104.5q0 -146 -103.5 -227.5t-322.5 -81.5zM758 1204l-240 217l-242 -217l-55 60l266 282h62l266 -282z" />
    <glyph glyph-name="scedilla.c2sc" horiz-adv-x="1046" 
d="M547 -20h-37l-35 -89q49 17 88 17q67 0 108.5 -27t41.5 -86q0 -52 -44.5 -95.5t-140.5 -43.5q-126 0 -206 59l45 70q77 -51 159 -51q52 0 75.5 18.5t23.5 46.5q0 58 -90 58q-39 0 -89 -13l-53 25l43 117q-331 46 -375 354l138 29q25 -134 110.5 -201.5t241.5 -67.5
q278 0 278 179q0 82 -68.5 127.5t-240.5 74.5q-222 38 -314.5 116t-92.5 204q0 137 103.5 215t301.5 78q192 0 291 -81.5t135 -236.5l-141 -28q-31 119 -94.5 173t-196.5 54q-128 0 -193 -43.5t-65 -122.5q0 -38 13 -66.5t47 -54.5t97 -46.5t158 -37.5q118 -22 198.5 -53
t125 -71.5t62.5 -86t18 -104.5q0 -146 -103.5 -227.5t-322.5 -81.5z" />
    <glyph glyph-name="scaron.c2sc" horiz-adv-x="1046" 
d="M547 -20q-431 0 -486 360l138 29q25 -134 110.5 -201.5t241.5 -67.5q278 0 278 179q0 82 -68.5 127.5t-240.5 74.5q-222 38 -314.5 116t-92.5 204q0 137 103.5 215t301.5 78q192 0 291 -81.5t135 -236.5l-141 -28q-31 119 -94.5 173t-196.5 54q-128 0 -193 -43.5
t-65 -122.5q0 -38 13 -66.5t47 -54.5t97 -46.5t158 -37.5q118 -22 198.5 -53t125 -71.5t62.5 -86t18 -104.5q0 -146 -103.5 -227.5t-322.5 -81.5zM279 1559l239 -218l240 218l57 -58l-266 -282h-64l-264 282z" />
    <glyph glyph-name="uni0163.c2sc" horiz-adv-x="964" 
d="M412 942h-379v131h901v-131h-379v-942h-68l-43 -109q49 17 88 17q67 0 108.5 -27t41.5 -86q0 -23 -9.5 -45.5t-29 -44.5t-57 -35.5t-86.5 -13.5q-129 0 -209 59l45 70q40 -25 75 -38t85 -13q51 0 74.5 18.5t23.5 46.5q0 58 -90 58q-36 0 -86 -13l-56 25l50 131v942z" />
    <glyph glyph-name="uni0163.salt" horiz-adv-x="616" 
d="M43 831v121h156v275h139v-275h237v-121h-237v-831h-59l-43 -109q49 17 88 17q67 0 108 -27t41 -86q0 -23 -9.5 -45.5t-29 -44.5t-57 -35.5t-86.5 -13.5q-129 0 -209 59l45 70q40 -25 75 -38t85 -13q51 0 74.5 18.5t23.5 46.5q0 58 -90 58q-36 0 -86 -13l-55 25l49 131h-4
v831h-156z" />
    <glyph glyph-name="tcaron.c2sc" horiz-adv-x="964" 
d="M412 942h-379v131h901v-131h-379v-942h-143v942zM244 1538l239 -217l240 217l57 -57l-266 -283h-63l-265 283z" />
    </font>
</defs>
</svg>
