<?xml version="1.0" standalone="no"?>
<!DOCTYPE svg PUBLIC "-//W3C//DTD SVG 1.1//EN" "http://www.w3.org/Graphics/SVG/1.1/DTD/svg11.dtd" >
<svg xmlns="http://www.w3.org/2000/svg" xmlns:xlink="http://www.w3.org/1999/xlink" version="1.1">
<metadata>
Created by FontForge 20201107 at Thu May  8 10:07:24 2025
 By 
Copyright 2016 Indian Type Foundry
</metadata>
<defs>
<font id="Demo-Bold" horiz-adv-x="1204" >
  <font-face 
    font-family="Demo"
    font-weight="700"
    font-stretch="normal"
    units-per-em="2048"
    panose-1="0 0 0 0 0 0 0 0 0 0"
    ascent="1638"
    descent="-410"
    x-height="1106"
    cap-height="1434"
    bbox="-410 -608 2617 2062"
    underline-thickness="92"
    underline-position="-204"
    unicode-range="U+000D-FB02"
  />
<missing-glyph horiz-adv-x="1462" 
d="M961 328v778h-459v-778h459zM113 0v1434h1237v-1434h-1237z" />
    <glyph glyph-name="fi" unicode="fi" horiz-adv-x="1417" 
d="M1305 1475v-277h-375v277h375zM31 803v303h149v8q0 171 107 266t319 95h191v-267h-150q-61 0 -82.5 -19t-21.5 -67v-16h254v-303h-244v-803h-373v803h-149zM930 1106h375v-1106h-375v1106z" />
    <glyph glyph-name="fl" unicode="fl" horiz-adv-x="1406" 
d="M31 803v303h149v8q0 171 107 266t319 95h191v-267h-150q-61 0 -82.5 -19t-21.5 -67v-16h254v-303h-244v-803h-373v803h-149zM1305 1434v-1434h-375v1434h375z" />
    <glyph glyph-name=".notdef" horiz-adv-x="1462" 
d="M961 328v778h-459v-778h459zM113 0v1434h1237v-1434h-1237z" />
    <glyph glyph-name=".null" horiz-adv-x="0" 
 />
    <glyph glyph-name=".null" horiz-adv-x="0" 
 />
    <glyph glyph-name="nonmarkingreturn" horiz-adv-x="682" 
 />
    <glyph glyph-name="CR" unicode="&#xd;" horiz-adv-x="0" 
 />
    <glyph glyph-name="space" unicode=" " horiz-adv-x="430" 
 />
    <glyph glyph-name="exclam" unicode="!" horiz-adv-x="655" 
d="M489 512h-325l-31 444v478h389v-478zM502 0h-348v342h348v-342z" />
    <glyph glyph-name="quotedbl" unicode="&#x22;" horiz-adv-x="1062" 
d="M899 1434v-471h-305v471h305zM469 1434v-471h-305v471h305z" />
    <glyph glyph-name="numbersign" unicode="#" horiz-adv-x="1468" 
d="M612 825v-217h244v217h-244zM612 0h-315v332h-240v276h240v217h-240v277h240v332h315v-332h244v332h315v-332h240v-277h-240v-217h240v-276h-240v-332h-315v332h-244v-332z" />
    <glyph glyph-name="dollar" unicode="$" horiz-adv-x="1169" 
d="M772 -205h-317v205h-371v328h557q41 0 61.5 19t20.5 50v19q0 33 -14 49.5t-50 28.5l-323 106q-149 49 -211 142t-62 241v57q0 172 98.5 272.5t293.5 117.5v208h317v-204h307v-328h-544q-41 0 -61.5 -19.5t-20.5 -50.5v-18q0 -34 15.5 -52t53.5 -30l322 -113
q268 -94 268 -366v-54q0 -161 -86.5 -262.5t-253.5 -130.5v-215z" />
    <glyph glyph-name="percent" unicode="%" horiz-adv-x="1830" 
d="M440 754h-69q-168 0 -250 69t-82 226v110q0 157 82 226t250 69h69q168 0 250 -69t82 -226v-110q0 -157 -82 -226t-250 -69zM594 0h-299l942 1434h299zM295 1063q0 -49 19 -70.5t73 -21.5h37q54 0 73 21.5t19 70.5v82q0 49 -19 70.5t-73 21.5h-37q-54 0 -73 -21.5
t-19 -70.5v-82zM1391 680h69q168 0 250 -69t82 -226v-111q0 -157 -82 -225.5t-250 -68.5h-69q-168 0 -250 68.5t-82 225.5v111q0 157 82 226t250 69zM1536 371q0 49 -19 70.5t-73 21.5h-37q-54 0 -73 -21.5t-19 -70.5v-82q0 -49 19 -70.5t73 -21.5h37q54 0 73 21.5t19 70.5
v82z" />
    <glyph glyph-name="ampersand" unicode="&#x26;" horiz-adv-x="1515" 
d="M520 289h68q115 0 162 28l-240 263l-16 -9q-68 -35 -86.5 -59t-18.5 -76v-47q0 -51 31.5 -75.5t99.5 -24.5zM1038 0l-80 88q-69 -59 -150.5 -83.5t-189.5 -24.5h-129q-97 0 -175 19t-138 59t-92.5 107t-32.5 157v71q0 158 41.5 232t161.5 131l78 37q-56 94 -56 202v82
q0 176 112 266.5t306 90.5h338v-310h-266q-68 0 -99.5 -21.5t-31.5 -66.5v-28q0 -37 17.5 -64.5t72.5 -87.5q13 -14 20 -22l205 -224l109 203h348l-217 -410q-3 -6 -9.5 -17t-9.5 -17l338 -369h-471z" />
    <glyph glyph-name="quotesingle" unicode="'" horiz-adv-x="550" 
d="M428 1434v-471h-305v471h305z" />
    <glyph glyph-name="parenleft" unicode="(" horiz-adv-x="784" 
d="M459 698q0 -137 28.5 -273t77 -250t99.5 -203.5t110 -168.5l-262 -178q-46 59 -76.5 101t-78.5 115t-80.5 135t-70.5 150t-60.5 172t-38 188.5t-15.5 211.5v19q0 107 15.5 211.5t38 188.5t60.5 172t70.5 150t80.5 135t78.5 115t76.5 101l262 -178q-59 -79 -110 -168.5
t-99.5 -203.5t-77 -250t-28.5 -273v-19z" />
    <glyph glyph-name="parenright" unicode=")" horiz-adv-x="784" 
d="M326 698v19q0 137 -28.5 273t-77.5 250.5t-100 203.5t-110 168l262 178q46 -59 76.5 -101t78.5 -115t80.5 -135t70.5 -150t60.5 -172t38 -188.5t15.5 -211.5v-19q0 -107 -15.5 -211.5t-38 -188.5t-60.5 -172t-70.5 -150t-80.5 -135t-78.5 -115t-76.5 -101l-262 178
q59 79 110 168t100 203.5t77.5 250.5t28.5 273z" />
    <glyph glyph-name="asterisk" unicode="*" horiz-adv-x="720" 
d="M477 1434v-95q0 -32 -39 -118q61 65 109 77l88 23l61 -227l-88 -23q-27 -6 -96 2q57 -33 72 -57l55 -88l-195 -133l-51 84q-16 26 -33 98q-17 -75 -32 -98l-52 -84l-194 133l55 88q15 24 72 57q-69 -8 -96 -2l-88 23l61 227l88 -23q43 -11 105 -73q-37 82 -37 114v95h235
z" />
    <glyph glyph-name="plus" unicode="+" horiz-adv-x="1003" 
d="M922 553h-287v-287h-266v287h-287v266h287v287h266v-287h287v-266z" />
    <glyph glyph-name="comma" unicode="," horiz-adv-x="593" 
d="M123 342h348v-199l-149 -374h-199v573z" />
    <glyph glyph-name="hyphen" unicode="-" horiz-adv-x="921" 
d="M829 799v-256h-737v256h737z" />
    <glyph glyph-name="period" unicode="." horiz-adv-x="593" 
d="M471 0h-348v342h348v-342z" />
    <glyph glyph-name="slash" unicode="/" horiz-adv-x="933" 
d="M360 -88h-319l532 1614h320z" />
    <glyph glyph-name="zero" unicode="0" horiz-adv-x="1257" 
d="M670 -20h-82q-114 0 -204 26.5t-159 81.5t-106 146.5t-37 214.5v536q0 123 37 214.5t106 146.5t159 81.5t204 26.5h82q114 0 204 -26.5t159 -81.5t106 -146.5t37 -214.5v-536q0 -123 -37 -214.5t-106 -146.5t-159 -81.5t-204 -26.5zM465 430q0 -127 137 -127h53
q65 0 101.5 31.5t36.5 95.5v574q0 126 -138 126h-53q-137 0 -137 -126v-574z" />
    <glyph glyph-name="one" unicode="1" horiz-adv-x="774" 
d="M31 1434h631v-1434h-386v1106h-245v328z" />
    <glyph glyph-name="two" unicode="2" horiz-adv-x="1116" 
d="M1036 0h-973v258q0 152 33 227.5t121 135.5l332 227q72 49 95.5 79.5t23.5 71.5v11q0 96 -107 96h-479v328h479q245 0 370.5 -90t125.5 -259v-77q0 -121 -52 -211t-196 -183l-293 -190q-30 -20 -39.5 -39t-9.5 -57h569v-328z" />
    <glyph glyph-name="three" unicode="3" horiz-adv-x="1112" 
d="M31 1434h962v-381l-397 -242v-25h76q97 0 172 -27.5t119.5 -75.5t67 -110t22.5 -135v-63q0 -178 -126 -276.5t-384 -98.5h-502v328h496q68 0 97.5 21.5t29.5 64.5v35q0 41 -29 60t-98 19h-297v390l286 159v29h-495v328z" />
    <glyph glyph-name="four" unicode="4" horiz-adv-x="1284" 
d="M578 1434h489v-856h184v-308h-184v-270h-346v270h-686v285zM420 602v-29h301v488h-29z" />
    <glyph glyph-name="five" unicode="5" horiz-adv-x="1124" 
d="M94 0v328h449q75 0 106 20.5t31 63.5v77q0 43 -31 63.5t-106 20.5h-439v861h920v-328h-563v-209h164q209 0 323.5 -85t114.5 -255v-170q0 -195 -129.5 -291t-370.5 -96h-469z" />
    <glyph glyph-name="six" unicode="6" horiz-adv-x="1210" 
d="M645 -20h-59q-241 0 -373.5 113t-132.5 356v516q0 244 135 356.5t391 112.5h438v-328h-428q-88 0 -122.5 -29.5t-34.5 -97.5v-133l61 24q62 24 92 34.5t84 22t105 11.5h6q160 0 257 -91t97 -274v-131q0 -244 -125 -353t-391 -109zM606 301h39q87 0 117.5 29.5t30.5 99.5
v94q0 45 -31.5 68.5t-87.5 23.5h-10q-44 0 -109 -20l-106 -33v-135q0 -68 34.5 -97.5t122.5 -29.5z" />
    <glyph glyph-name="seven" unicode="7" horiz-adv-x="1081" 
d="M1047 1434v-285l-457 -1149h-412l457 1077v29h-604v328h1016z" />
    <glyph glyph-name="eight" unicode="8" horiz-adv-x="1214" 
d="M655 -20h-96q-243 0 -371.5 100.5t-128.5 288.5v41q0 104 50 171t145 117q-87 53 -128.5 130t-41.5 192v37q0 189 121.5 293t359.5 104h101q234 0 349 -102.5t115 -294.5v-37q0 -102 -46 -169t-130 -116q100 -49 150.5 -124t50.5 -201v-41q0 -188 -128.5 -288.5
t-371.5 -100.5zM545 905l153 -61q40 30 59 58.5t19 72.5v49q0 51 -20.5 81t-77.5 30h-125q-58 0 -86.5 -27t-28.5 -72v-39q0 -30 25 -50t82 -42zM535 299h127q129 0 129 90v41q0 38 -25 57t-96 45l-156 60q-90 -58 -90 -133v-56q0 -104 111 -104z" />
    <glyph glyph-name="nine" unicode="9" horiz-adv-x="1210" 
d="M604 0h-438v328h428q89 0 123.5 29.5t34.5 97.5v133l-62 -25q-60 -23 -91.5 -34t-84.5 -22t-104 -11h-7q-160 0 -257 90.5t-97 273.5v131q0 244 125 353.5t391 109.5h60q505 0 505 -469v-516q0 -244 -135 -356.5t-391 -112.5zM537 817h10q40 0 108 21l107 32v136
q0 68 -34.5 97.5t-123.5 29.5h-39q-87 0 -117 -29.5t-30 -99.5v-95q0 -45 31.5 -68.5t87.5 -23.5z" />
    <glyph glyph-name="colon" unicode=":" horiz-adv-x="593" 
d="M123 1106h348v-342h-348v342zM471 0h-348v342h348v-342z" />
    <glyph glyph-name="semicolon" unicode=";" horiz-adv-x="593" 
d="M471 764h-348v342h348v-342zM123 342h348v-199l-149 -374h-199v573z" />
    <glyph glyph-name="less" unicode="&#x3c;" horiz-adv-x="1003" 
d="M72 410v434l839 192v-311l-559 -84v-29l559 -84v-311z" />
    <glyph glyph-name="equal" unicode="=" horiz-adv-x="1003" 
d="M922 774h-840v266h840v-266zM922 332h-840v266h840v-266z" />
    <glyph glyph-name="greater" unicode="&#x3e;" horiz-adv-x="1003" 
d="M932 410l-840 -193v311l559 84v29l-559 84v311l840 -192v-434z" />
    <glyph glyph-name="question" unicode="?" horiz-adv-x="1050" 
d="M612 481h-327v117q0 88 31 133.5t128 110.5l113 76q40 27 53 44.5t13 47.5v26q0 70 -84 70h-467v328h467q239 0 349.5 -84t110.5 -252v-78q0 -105 -44 -169t-146 -128l-125 -78q-44 -27 -58 -50.5t-14 -64.5v-49zM623 342v-342h-349v342h349z" />
    <glyph glyph-name="at" unicode="@" horiz-adv-x="2023" 
d="M1290 -385h-368q-451 0 -655 181.5t-204 592.5v248q0 406 217 611.5t662 205.5h191q236 0 397 -43t258.5 -136t139.5 -227.5t42 -328.5v-205q0 -277 -104 -405.5t-338 -128.5q-125 0 -203 27.5t-119 88.5l-110 -53q-129 -63 -250 -63h-6q-74 0 -135 19t-112 60.5
t-79.5 116t-28.5 176.5v271q0 245 121 353.5t365 108.5h545v-839q0 -58 17.5 -75t72.5 -17q29 0 51 6.5t45.5 28.5t38.5 60t25 105.5t10 159.5v205q0 162 -32 267t-109.5 172t-197.5 94.5t-304 27.5h-191q-354 0 -519 -154.5t-165 -488.5v-248q0 -325 153.5 -462.5
t510.5 -137.5h368v-174zM944 326h6q55 0 111 22l84 35v379h-158q-75 0 -101 -29.5t-26 -99.5v-221q0 -86 84 -86z" />
    <glyph glyph-name="A" unicode="A" horiz-adv-x="1458" 
d="M711 1065l-129 -467h286l-129 467h-28zM1032 0l-78 281h-458l-78 -281h-402l447 1434h532l447 -1434h-410z" />
    <glyph glyph-name="B" unicode="B" horiz-adv-x="1312" 
d="M764 0h-651v1434h620q247 0 368.5 -92.5t121.5 -268.5v-51q0 -207 -187 -264v-23q112 -23 164.5 -91.5t52.5 -184.5v-84q0 -195 -118.5 -285t-370.5 -90zM496 1126v-268h217q68 0 97.5 27t29.5 80v55q0 53 -29.5 79.5t-97.5 26.5h-217zM496 586v-279h247q68 0 97.5 27
t29.5 80v65q0 53 -29.5 80t-97.5 27h-247z" />
    <glyph glyph-name="C" unicode="C" horiz-adv-x="1126" 
d="M1055 1434v-328h-449q-76 0 -106.5 -29.5t-30.5 -97.5v-524q0 -68 30.5 -97.5t106.5 -29.5h449v-328h-469q-506 0 -506 469v496q0 469 506 469h469z" />
    <glyph glyph-name="D" unicode="D" horiz-adv-x="1347" 
d="M113 0v1434h649q506 0 506 -469v-496q0 -469 -506 -469h-649zM502 1106v-778h239q76 0 107 29.5t31 97.5v524q0 68 -31 97.5t-107 29.5h-239z" />
    <glyph glyph-name="E" unicode="E" 
d="M1126 0h-1013v1434h1013v-328h-630v-229h585v-320h-585v-229h630v-328z" />
    <glyph glyph-name="F" unicode="F" horiz-adv-x="1167" 
d="M502 0h-389v1434h1003v-328h-614v-281h569v-319h-569v-506z" />
    <glyph glyph-name="G" unicode="G" horiz-adv-x="1290" 
d="M1167 1106h-561q-76 0 -106.5 -29.5t-30.5 -97.5v-524q0 -68 30.5 -97.5t106.5 -29.5h244v426h358v-754h-622q-506 0 -506 469v496q0 469 506 469h581v-328z" />
    <glyph glyph-name="H" unicode="H" horiz-adv-x="1462" 
d="M961 0v553h-459v-553h-389v1434h389v-553h459v553h389v-1434h-389z" />
    <glyph glyph-name="I" unicode="I" horiz-adv-x="614" 
d="M502 0h-389v1434h389v-1434z" />
    <glyph glyph-name="J" unicode="J" horiz-adv-x="614" 
d="M104 -367l-174 299l117 70q39 23 52.5 53.5t13.5 89.5v1289h389v-1282q0 -80 -9 -136.5t-25.5 -98.5t-52 -78t-75 -64t-109.5 -68z" />
    <glyph glyph-name="K" unicode="K" horiz-adv-x="1406" 
d="M492 553v-553h-379v1434h379v-553h178l288 553h410l-385 -695l410 -739h-435l-299 553h-167z" />
    <glyph glyph-name="L" unicode="L" horiz-adv-x="1116" 
d="M1065 0h-952v1434h389v-1106h563v-328z" />
    <glyph glyph-name="M" unicode="M" horiz-adv-x="1779" 
d="M1667 0h-367v518l17 412h-23l-207 -613h-395l-207 613h-22l16 -412v-518h-366v1434h477l287 -797h26l287 797h477v-1434z" />
    <glyph glyph-name="N" unicode="N" horiz-adv-x="1458" 
d="M479 1434l471 -768h29v768h367v-1434h-367l-471 768h-29v-768h-366v1434h366z" />
    <glyph glyph-name="O" unicode="O" horiz-adv-x="1339" 
d="M733 -20h-127q-261 0 -393.5 115t-132.5 374v496q0 259 132.5 374t393.5 115h127q261 0 394 -115t133 -374v-496q0 -259 -133 -374t-394 -115zM469 455q0 -83 33 -115.5t125 -32.5h86q92 0 124.5 32t32.5 116v524q0 83 -32.5 115t-124.5 32h-86q-92 0 -125 -32t-33 -115
v-524z" />
    <glyph glyph-name="P" unicode="P" horiz-adv-x="1294" 
d="M502 0h-389v1434h600q257 0 388.5 -104.5t131.5 -330.5v-172q0 -226 -131 -330t-389 -104h-211v-393zM502 1106v-385h205q75 0 106 26t31 80v172q0 54 -31 80.5t-106 26.5h-205z" />
    <glyph glyph-name="Q" unicode="Q" horiz-adv-x="1339" 
d="M1165 -287h-409l-174 267q-248 5 -375 120.5t-127 368.5v496q0 259 132.5 374t393.5 115h127q261 0 394 -115t133 -374v-496q0 -370 -289 -459zM469 455q0 -83 33 -115.5t125 -32.5h86q92 0 124.5 32t32.5 116v524q0 83 -32.5 115t-124.5 32h-86q-92 0 -125 -32t-33 -115
v-524z" />
    <glyph glyph-name="R" unicode="R" horiz-adv-x="1355" 
d="M502 1106v-334h241q75 0 106.5 26.5t31.5 80.5v120q0 54 -31.5 80.5t-106.5 26.5h-241zM502 0h-389v1434h637q257 0 388.5 -104.5t131.5 -330.5v-120q0 -282 -269 -369l324 -510h-440l-258 444h-125v-444z" />
    <glyph glyph-name="S" unicode="S" horiz-adv-x="1165" 
d="M80 0v328h557q41 0 61.5 19t20.5 50v19q0 33 -14 49.5t-50 28.5l-323 106q-149 49 -211 142t-62 241v57q0 189 118.5 291.5t352.5 102.5h545v-328h-545q-41 0 -61 -19.5t-20 -50.5v-18q0 -34 15.5 -52t53.5 -30l322 -113q268 -94 268 -366v-54q0 -191 -120.5 -297
t-350.5 -106h-557z" />
    <glyph glyph-name="T" unicode="T" horiz-adv-x="1269" 
d="M1219 1434v-328h-390v-1106h-389v1106h-389v328h1168z" />
    <glyph glyph-name="U" unicode="U" horiz-adv-x="1366" 
d="M492 1434v-969q0 -84 32.5 -116t124.5 -32h68q92 0 124.5 32t32.5 116v969h390v-985q0 -469 -506 -469h-150q-506 0 -506 469v985h390z" />
    <glyph glyph-name="V" unicode="V" horiz-adv-x="1449" 
d="M453 0l-437 1434h416l283 -1065h28l283 1065h408l-437 -1434h-544z" />
    <glyph glyph-name="W" unicode="W" horiz-adv-x="2103" 
d="M1815 0h-558l-190 1044h-29l-190 -1044h-559l-264 1434h419l136 -1045h28l189 1045h522l188 -1045h29l135 1045h408z" />
    <glyph glyph-name="X" unicode="X" horiz-adv-x="1357" 
d="M897 1434h434l-393 -711l403 -723h-434l-221 449h-29l-206 -449h-435l402 723l-391 711h434l211 -437h28z" />
    <glyph glyph-name="Y" unicode="Y" horiz-adv-x="1394" 
d="M502 0v496l-492 938h420l260 -557h29l262 557h403l-493 -938v-496h-389z" />
    <glyph glyph-name="Z" unicode="Z" horiz-adv-x="1210" 
d="M1149 328v-328h-1088v274l576 803v29h-553v328h1051v-275l-578 -803v-28h592z" />
    <glyph glyph-name="bracketleft" unicode="[" horiz-adv-x="778" 
d="M737 1782v-303h-258v-1520h258v-303h-624v2126h624z" />
    <glyph glyph-name="backslash" unicode="\" horiz-adv-x="933" 
d="M573 -88l-532 1614h319l533 -1614h-320z" />
    <glyph glyph-name="bracketright" unicode="]" horiz-adv-x="778" 
d="M41 1782h625v-2126h-625v303h258v1520h-258v303z" />
    <glyph glyph-name="asciicircum" unicode="^" horiz-adv-x="1003" 
d="M616 246l-102 651h-29l-106 -651h-324l172 901h549l172 -901h-332z" />
    <glyph glyph-name="underscore" unicode="_" horiz-adv-x="933" 
d="M102 -256v256h729v-256h-729z" />
    <glyph glyph-name="grave" unicode="`" horiz-adv-x="1024" 
d="M80 1579h385l209 -340h-307z" />
    <glyph glyph-name="a" unicode="a" 
d="M530 326h7q54 0 110 22l84 35v399h-158q-75 0 -101 -29.5t-26 -99.5v-241q0 -86 84 -86zM682 43q-129 -63 -250 -63h-6q-74 0 -134.5 19t-111.5 60.5t-79.5 116t-28.5 176.5v291q0 245 120.5 354t364.5 109h545v-1106h-320l-12 86z" />
    <glyph glyph-name="b" unicode="b" horiz-adv-x="1208" 
d="M651 0h-549v1434h375v-394l49 21q79 33 134.5 49t115.5 16h6q74 0 135 -19t112 -60.5t79.5 -116t28.5 -176.5v-291q0 -245 -121 -354t-365 -109zM467 303h168q75 0 101 29.5t26 99.5v262q0 86 -84 86h-6q-41 0 -111 -24l-94 -33v-420z" />
    <glyph glyph-name="c" unicode="c" horiz-adv-x="1005" 
d="M907 1106v-303h-334q-68 0 -97.5 -36t-29.5 -114v-241q0 -69 30.5 -99t109.5 -30q85 0 184 30l123 37l82 -282l-123 -39q-149 -49 -328 -49q-221 0 -336.5 106t-115.5 336v221q0 245 121.5 354t363.5 109h350z" />
    <glyph glyph-name="d" unicode="d" horiz-adv-x="1208" 
d="M530 326h7q46 0 110 22l94 35v399h-168q-75 0 -101 -29.5t-26 -99.5v-241q0 -86 84 -86zM682 43q-142 -63 -250 -63h-6q-74 0 -134.5 19t-111.5 60.5t-79.5 116t-28.5 176.5v291q0 245 120.5 354t364.5 109h174v328h375v-1434h-313l-13 86z" />
    <glyph glyph-name="e" unicode="e" horiz-adv-x="1118" 
d="M432 694v-26h297v26q0 70 -26.5 101.5t-100.5 31.5h-41q-75 0 -102 -31.5t-27 -101.5zM915 35q-73 -24 -167 -39.5t-168 -15.5q-255 0 -384.5 109t-129.5 353v201q0 483 495 483h33q238 0 352.5 -113t114.5 -370v-113l-78 -77h-551v-41q0 -69 35.5 -99t130.5 -30
q114 0 236 36l122 37l82 -282z" />
    <glyph glyph-name="f" unicode="f" horiz-adv-x="827" 
d="M31 803v303h149v8q0 171 107 266t319 95h191v-267h-150q-61 0 -82.5 -19t-21.5 -67v-16h254v-303h-244v-803h-373v803h-149z" />
    <glyph glyph-name="g" unicode="g" horiz-adv-x="1212" 
d="M584 -328h-420v314h393q188 0 188 170v43l-49 -21q-87 -36 -143 -51.5t-121 -15.5h-6q-74 0 -134.5 21t-111.5 66.5t-79.5 128.5t-28.5 197v140q0 235 120.5 338.5t364.5 103.5h553v-930q0 -256 -136.5 -380t-389.5 -124zM524 446h6q53 0 132 27l83 29v291h-178
q-75 0 -101 -29.5t-26 -99.5v-132q0 -86 84 -86z" />
    <glyph glyph-name="h" unicode="h" horiz-adv-x="1239" 
d="M571 733l-94 -33v-700h-375v1434h375v-400l60 25q85 34 144.5 50.5t125.5 16.5h6q70 0 127 -19t105 -60.5t75 -116t27 -176.5v-754h-375v674q0 86 -84 86h-6q-32 0 -111 -27z" />
    <glyph glyph-name="i" unicode="i" horiz-adv-x="579" 
d="M477 1475v-277h-375v277h375zM102 1106h375v-1106h-375v1106z" />
    <glyph glyph-name="j" unicode="j" horiz-adv-x="579" 
d="M477 1198h-375v277h375v-277zM477 168q0 -76 -7 -127.5t-21 -93t-45 -78t-69.5 -68.5t-103.5 -77l-106 -74l-199 299l97 69q46 35 62.5 62.5t16.5 81.5v944h375v-938z" />
    <glyph glyph-name="k" unicode="k" horiz-adv-x="1193" 
d="M780 0l-178 412h-125v-412h-375v1434h375v-674h144l190 346h367l-273 -516l279 -590h-404z" />
    <glyph glyph-name="l" unicode="l" horiz-adv-x="579" 
d="M477 1434v-1434h-375v1434h375z" />
    <glyph glyph-name="m" unicode="m" horiz-adv-x="1892" 
d="M563 733l-86 -28v-705h-375v1106h314l16 -86l96 39q84 34 144.5 50.5t126.5 16.5h6q180 0 264 -116l121 49q85 34 144.5 50.5t125.5 16.5h6q70 0 127 -19t105 -60.5t75 -116t27 -176.5v-754h-375v674q0 86 -84 86h-6q-31 0 -110 -27l-86 -28v-705h-375v674q0 86 -84 86
h-6q-32 0 -111 -27z" />
    <glyph glyph-name="n" unicode="n" horiz-adv-x="1239" 
d="M571 733l-94 -33v-700h-375v1106h314l16 -90l105 43q167 67 270 67h6q70 0 127 -19t105 -60.5t75 -116t27 -176.5v-754h-375v674q0 86 -84 86h-6q-28 0 -111 -27z" />
    <glyph glyph-name="o" unicode="o" horiz-adv-x="1163" 
d="M604 -20h-45q-250 0 -373 117.5t-123 385.5v140q0 268 123 385.5t373 117.5h45q250 0 373 -117.5t123 -385.5v-140q0 -268 -123 -385.5t-373 -117.5zM438 412q0 -70 26.5 -99.5t104.5 -29.5h25q78 0 104.5 29.5t26.5 99.5v282q0 70 -26.5 99.5t-104.5 29.5h-25
q-78 0 -104.5 -29.5t-26.5 -99.5v-282z" />
    <glyph glyph-name="p" unicode="p" horiz-adv-x="1208" 
d="M477 -328h-375v1434h314l12 -86l98 43q142 63 250 63h6q74 0 135 -19t112 -60.5t79.5 -116t28.5 -176.5v-291q0 -245 -121 -354t-365 -109h-174v-328zM467 324h168q75 0 101 29.5t26 99.5v241q0 86 -84 86h-6q-47 0 -111 -22l-94 -35v-399z" />
    <glyph glyph-name="q" unicode="q" horiz-adv-x="1208" 
d="M1106 -328h-375v394l-49 -23q-142 -63 -250 -63h-6q-74 0 -134.5 19t-111.5 60.5t-79.5 116t-28.5 176.5v291q0 245 120.5 354t364.5 109h549v-1434zM530 326h7q46 0 110 22l94 35v399h-168q-75 0 -101 -29.5t-26 -99.5v-241q0 -86 84 -86z" />
    <glyph glyph-name="r" unicode="r" horiz-adv-x="870" 
d="M477 0h-375v1106h314l20 -115l53 35q156 100 297 100h43v-358h-14q-110 0 -162 -6t-116 -31l-60 -22v-709z" />
    <glyph glyph-name="s" unicode="s" horiz-adv-x="1021" 
d="M76 0v303h495q54 0 54 45v8q0 20 -16 31.5t-58 15.5l-232 27q-258 30 -258 299v80q0 144 100 220.5t288 76.5h481v-303h-481q-50 0 -50 -37v-10q0 -22 13.5 -33.5t48.5 -15.5l250 -31q135 -17 193.5 -87t58.5 -192v-90q0 -143 -101.5 -225t-286.5 -82h-499z" />
    <glyph glyph-name="t" unicode="t" horiz-adv-x="905" 
d="M813 803h-258v-428q0 -36 13 -53t44 -17q34 0 107 31l49 22l117 -266l-64 -33q-152 -79 -307 -79q-158 0 -246 86.5t-88 263.5v473h-149v303h176l43 205h305v-205h258v-303z" />
    <glyph glyph-name="u" unicode="u" horiz-adv-x="1236" 
d="M700 47q-85 -34 -144.5 -50.5t-125.5 -16.5h-6q-70 0 -127 19t-105 60.5t-75 116t-27 176.5v754h375v-674q0 -86 84 -86h6q32 0 111 27l94 33v700h375v-1106h-314l-16 90z" />
    <glyph glyph-name="v" unicode="v" horiz-adv-x="1220" 
d="M811 1106h393l-350 -1106h-492l-346 1106h392l188 -752h29z" />
    <glyph glyph-name="w" unicode="w" horiz-adv-x="1798" 
d="M1579 0h-524l-123 610l-19 160h-28l-19 -160l-123 -610h-524l-192 1106h368l64 -475l35 -328h28l45 328l111 475h442l111 -475l45 -328h29l34 328l64 475h369z" />
    <glyph glyph-name="x" unicode="x" horiz-adv-x="1126" 
d="M729 1106h377l-279 -555l279 -551h-385l-143 342h-29l-143 -342h-377l276 551l-285 555h386l147 -348h29z" />
    <glyph glyph-name="y" unicode="y" horiz-adv-x="1157" 
d="M326 -328h-187v318h211q56 0 88 14t48.5 39.5t33.5 77.5l12 37h-231l-285 948h385l172 -680h29l154 680h385l-291 -1067q-36 -125 -97 -203.5t-166.5 -121t-260.5 -42.5z" />
    <glyph glyph-name="z" unicode="z" horiz-adv-x="1036" 
d="M68 1106h890v-270l-428 -508v-29h445v-299h-907v270l426 508v29h-426v299z" />
    <glyph glyph-name="braceleft" unicode="{" horiz-adv-x="841" 
d="M801 -344h-137q-230 0 -340.5 100.5t-110.5 311.5v364q0 68 -32.5 100.5t-104.5 32.5h-49v307h49q72 0 104.5 32.5t32.5 101.5v364q0 211 110.5 311.5t340.5 100.5h137v-303h-111q-68 0 -89 -19.5t-21 -89.5v-436q0 -28 -2.5 -50t-12 -48t-26.5 -44.5t-47 -35.5t-72 -27
v-20q42 -10 72 -27t47 -35.5t26.5 -44.5t12 -48t2.5 -50v-436q0 -70 21 -89.5t89 -19.5h111v-303z" />
    <glyph glyph-name="bar" unicode="|" horiz-adv-x="522" 
d="M420 -205h-318v1843h318v-1843z" />
    <glyph glyph-name="braceright" unicode="}" horiz-adv-x="841" 
d="M41 -344v303h111q68 0 89 19.5t21 89.5v436q0 28 2.5 50t12 48t26.5 44.5t47 35.5t72 27v20q-42 10 -72 27t-47 35.5t-26.5 44.5t-12 48t-2.5 50v436q0 70 -21 89.5t-89 19.5h-111v303h137q230 0 340.5 -100.5t110.5 -311.5v-364q0 -69 32.5 -101.5t104.5 -32.5h49v-307
h-49q-72 0 -104.5 -32.5t-32.5 -100.5v-364q0 -211 -110.5 -311.5t-340.5 -100.5h-137z" />
    <glyph glyph-name="asciitilde" unicode="~" horiz-adv-x="1003" 
d="M53 408l21 135q20 135 72.5 195.5t150.5 60.5h10q50 0 88 -11.5t99 -44.5l59 -32q60 -31 82 -31h8q35 0 41 51l10 68h256l-20 -115q-27 -148 -82 -212t-160 -64h-10q-89 0 -174 53l-60 37q-45 28 -75 28h-9q-35 0 -41 -51l-10 -67h-256z" />
    <glyph glyph-name="uni00A0" unicode="&#xa0;" horiz-adv-x="430" 
 />
    <glyph glyph-name="exclamdown" unicode="&#xa1;" horiz-adv-x="655" 
d="M154 1106h348v-342h-348v342zM166 594h326l30 -444v-478h-389v478z" />
    <glyph glyph-name="cent" unicode="&#xa2;" horiz-adv-x="983" 
d="M688 0h-317v195q-322 58 -322 432v118q0 200 81 309t241 140v240h317v-226h197v-303h-334q-68 0 -97.5 -35.5t-29.5 -113.5v-140q0 -69 30 -99t109 -30q82 0 185 31l122 37l82 -283l-123 -39q-49 -16 -141 -34v-199z" />
    <glyph glyph-name="sterling" unicode="&#xa3;" horiz-adv-x="1191" 
d="M1143 0h-1110v328h166v225h-166v297h166v115q0 469 506 469h397v-328h-377q-76 0 -106.5 -29.5t-30.5 -97.5v-129h420v-297h-420v-225h555v-328z" />
    <glyph glyph-name="currency" unicode="&#xa4;" horiz-adv-x="1132" 
d="M909 135l-182 180q-61 -12 -135 -12h-62q-62 0 -127 10l-180 -178l-192 193l147 149q-33 81 -33 182v33q0 100 31 176l-156 156l193 193l182 -181q67 13 135 13h62q78 0 143 -15l185 183l192 -193l-162 -164q27 -79 27 -168v-33q0 -100 -31 -176l156 -155zM530 549h62
q94 0 94 96v62q0 96 -94 96h-62q-94 0 -94 -96v-62q0 -96 94 -96z" />
    <glyph glyph-name="yen" unicode="&#xa5;" horiz-adv-x="1390" 
d="M1243 303h-354v-303h-389v303h-355v236h332l-53 102h-279v236h156l-293 557h420l260 -557h29l262 557h403l-292 -557h153v-236h-278l-54 -102h332v-236z" />
    <glyph glyph-name="brokenbar" unicode="&#xa6;" horiz-adv-x="522" 
d="M420 840h-318v798h318v-798zM420 -205h-318v819h318v-819z" />
    <glyph glyph-name="section" unicode="&#xa7;" horiz-adv-x="1196" 
d="M668 -328h-566v328h555q41 0 61.5 16.5t20.5 44.5v19q0 61 -82 61h-258q-84 0 -149 26.5t-103.5 71t-57.5 98.5t-19 114v53q0 147 123 213q-123 89 -123 287v57q0 180 113 276.5t337 96.5h565v-328h-555q-41 0 -61 -17t-20 -45v-18q0 -61 81 -61h218q370 0 370 -328v-53
q0 -145 -114 -205q114 -88 114 -277v-57q0 -180 -113 -276.5t-337 -96.5zM676 457q63 0 63 84v18q0 82 -63 82h-164q-63 0 -63 -82v-18q0 -84 63 -84h164z" />
    <glyph glyph-name="dieresis" unicode="&#xa8;" horiz-adv-x="1024" 
d="M877 1239h-304v324h304v-324zM451 1239h-304v324h304v-324z" />
    <glyph glyph-name="copyright" unicode="&#xa9;" horiz-adv-x="1536" 
d="M705 -20q-312 0 -470.5 124.5t-158.5 405.5v414q0 281 158.5 405.5t470.5 124.5h126q312 0 470.5 -124.5t158.5 -405.5v-414q0 -281 -158.5 -405.5t-470.5 -124.5h-126zM705 154h126q98 0 166.5 9t124 32.5t88 64t49.5 102t17 148.5v414q0 88 -17 149.5t-49.5 102
t-88.5 63.5t-124 32t-166 9h-126q-98 0 -166 -9t-124 -32t-88.5 -63.5t-49.5 -102t-17 -149.5v-414q0 -87 17 -148.5t49.5 -102t88 -64t124 -32.5t166.5 -9zM1016 344h-258q-299 0 -299 277v204q0 281 299 281h258v-195h-248q-46 0 -64 -17t-18 -56v-226q0 -41 18 -58
t64 -17h248v-193z" />
    <glyph glyph-name="ordfeminine" unicode="&#xaa;" horiz-adv-x="837" 
d="M354 950h4q41 0 103 19l59 18v232h-139q-47 0 -63.5 -19t-16.5 -63v-131q0 -56 53 -56zM477 762q-100 -41 -186 -41h-4q-106 0 -174 58t-68 188v174q0 155 81 224t245 69h405v-699h-223l-8 53z" />
    <glyph glyph-name="guillemotleft" unicode="&#xab;" 
d="M584 463v137l204 274h314l-187 -331v-23l187 -332h-314zM92 463v137l205 274h313l-186 -331v-23l186 -332h-313z" />
    <glyph glyph-name="logicalnot" unicode="&#xac;" horiz-adv-x="1003" 
d="M922 266h-267v287h-573v266h840v-553z" />
    <glyph glyph-name="uni00AD" unicode="&#xad;" horiz-adv-x="0" 
 />
    <glyph glyph-name="registered" unicode="&#xae;" horiz-adv-x="1536" 
d="M831 -20h-126q-312 0 -470.5 124.5t-158.5 405.5v414q0 281 158.5 405.5t470.5 124.5h126q312 0 470.5 -124.5t158.5 -405.5v-414q0 -281 -158.5 -405.5t-470.5 -124.5zM705 154h126q98 0 166.5 9t124 32.5t88 64t49.5 102t17 148.5v414q0 88 -17 149.5t-49.5 102
t-88.5 63.5t-124 32t-166 9h-126q-98 0 -166 -9t-124 -32t-88.5 -63.5t-49.5 -102t-17 -149.5v-414q0 -87 17 -148.5t49.5 -102t88 -64t124 -32.5t166.5 -9zM682 922v-179h145q41 0 57.5 13.5t16.5 42.5v65q0 29 -16.5 43.5t-57.5 14.5h-145zM682 344h-227v762h399
q135 0 204.5 -56t69.5 -176v-65q0 -159 -133 -209l142 -256h-248l-107 215h-100v-215z" />
    <glyph glyph-name="macron" unicode="&#xaf;" horiz-adv-x="1024" 
d="M219 1239v236h586v-236h-586z" />
    <glyph glyph-name="degree" unicode="&#xb0;" horiz-adv-x="751" 
d="M711 1128q0 -144 -97.5 -237.5t-234.5 -93.5q-141 0 -239.5 93t-98.5 238q0 140 99 233t239 93q136 0 234 -93t98 -233zM379 969q63 0 106 44t43 115q0 67 -43.5 110.5t-105.5 43.5q-67 0 -111.5 -43.5t-44.5 -110.5q0 -71 44.5 -115t111.5 -44z" />
    <glyph glyph-name="plusminus" unicode="&#xb1;" horiz-adv-x="1003" 
d="M922 696h-287v-286h-266v286h-287v267h287v286h266v-286h287v-267zM922 0h-840v266h840v-266z" />
    <glyph glyph-name="twosuperior" unicode="&#xb2;" horiz-adv-x="780" 
d="M682 717h-602v119q0 130 41.5 195t157.5 95l94 25q68 19 88 28.5t20 22.5v6q0 21 -35 21h-342v205h385q207 0 207 -195v-25q0 -81 -37 -133t-127 -77l-114 -31q-58 -15 -73 -23.5t-15 -27.5h352v-205z" />
    <glyph glyph-name="threesuperior" unicode="&#xb3;" horiz-adv-x="770" 
d="M92 918h301q47 0 47 30v17q0 30 -47 30h-256v166h242q47 0 47 27v18q0 27 -47 27h-287v201h338q246 0 246 -177v-26q0 -107 -94 -135v-11q108 -23 108 -139v-31q0 -94 -63 -146t-191 -52h-344v201z" />
    <glyph glyph-name="acute" unicode="&#xb4;" horiz-adv-x="1024" 
d="M961 1579l-287 -340h-307l208 340h386z" />
    <glyph glyph-name="mu" unicode="&#xb5;" horiz-adv-x="1232" 
d="M705 47q-84 -34 -139.5 -50t-116.5 -17v-308h-355v1434h375v-674q0 -86 84 -86h6q32 0 111 27l94 33v700h375v-1106h-314l-16 90z" />
    <glyph glyph-name="paragraph" unicode="&#xb6;" horiz-adv-x="1515" 
d="M981 0v1106h-205v-1106h-327v643h-17q-192 0 -293.5 94.5t-101.5 276.5v49q0 182 101.5 276.5t293.5 94.5h1053v-328h-176v-1106h-328z" />
    <glyph glyph-name="periodcentered" unicode="&#xb7;" horiz-adv-x="1024" 
d="M686 676h-348v342h348v-342z" />
    <glyph glyph-name="cedilla" unicode="&#xb8;" horiz-adv-x="1024" 
d="M352 -268h197q24 0 24 20v23q0 20 -24 20h-94l-37 39v201h192v-88h21q82 0 124 -36t42 -118v-67q0 -98 -54.5 -141.5t-187.5 -43.5h-203v191z" />
    <glyph glyph-name="onesuperior" unicode="&#xb9;" horiz-adv-x="542" 
d="M43 1434h387v-717h-254v491h-133v226z" />
    <glyph glyph-name="ordmasculine" unicode="&#xba;" horiz-adv-x="823" 
d="M446 733h-69q-168 0 -250 69t-82 226v131q0 157 82 226t250 69h69q168 0 250 -69t82 -226v-131q0 -157 -82 -226t-250 -69zM301 1026q0 -49 19 -70.5t73 -21.5h37q54 0 73 21.5t19 70.5v135q0 49 -19 70.5t-73 21.5h-37q-54 0 -73 -21.5t-19 -70.5v-135z" />
    <glyph glyph-name="guillemotright" unicode="&#xbb;" 
d="M621 463l-205 -275h-314l187 332v23l-187 331h314l205 -274v-137zM1112 463l-205 -275h-313l186 332v23l-186 331h313l205 -274v-137z" />
    <glyph glyph-name="onequarter" unicode="&#xbc;" horiz-adv-x="1636" 
d="M432 0h-299l860 1434h299zM43 1434h387v-717h-254v491h-133v226zM1481 0h-236v115h-373v164l302 438h307v-428h102v-174h-102v-115zM1094 301v-14h151v231h-14z" />
    <glyph glyph-name="onehalf" unicode="&#xbd;" horiz-adv-x="1662" 
d="M432 0h-299l860 1434h299zM43 1434h387v-717h-254v491h-133v226zM1565 0h-602v119q0 130 41 195.5t157 95.5l94 24q69 19 89 28.5t20 22.5v7q0 20 -35 20h-342v205h385q207 0 207 -195v-24q0 -81 -37 -133.5t-127 -77.5l-115 -31q-58 -15 -73 -23.5t-15 -27.5h353v-205z
" />
    <glyph glyph-name="threequarters" unicode="&#xbe;" horiz-adv-x="1884" 
d="M680 0h-299l860 1434h299zM92 918h301q47 0 47 30v17q0 30 -47 30h-256v166h242q47 0 47 27v18q0 27 -47 27h-287v201h338q246 0 246 -177v-26q0 -107 -94 -135v-11q108 -23 108 -139v-31q0 -94 -63 -146t-191 -52h-344v201zM1729 0h-236v115h-373v164l301 438h308v-428
h102v-174h-102v-115zM1341 301v-14h152v231h-14z" />
    <glyph glyph-name="questiondown" unicode="&#xbf;" horiz-adv-x="1050" 
d="M428 764v342h348v-342h-348zM438 625h328v-117q0 -88 -31 -133t-129 -111l-112 -76q-40 -27 -53 -44.5t-13 -47.5v-26q0 -70 84 -70h467v-328h-467q-239 0 -350 84t-111 252v78q0 105 44.5 169t146.5 128l125 78q44 27 57.5 50t13.5 64v50z" />
    <glyph glyph-name="Agrave" unicode="&#xc0;" horiz-adv-x="1458" 
d="M299 1907h385l209 -340h-307zM711 1065l-129 -467h286l-129 467h-28zM1032 0l-78 281h-458l-78 -281h-402l447 1434h532l447 -1434h-410z" />
    <glyph glyph-name="Aacute" unicode="&#xc1;" horiz-adv-x="1458" 
d="M1180 1907l-287 -340h-307l209 340h385zM711 1065l-129 -467h286l-129 467h-28zM1032 0l-78 281h-458l-78 -281h-402l447 1434h532l447 -1434h-410z" />
    <glyph glyph-name="Acircumflex" unicode="&#xc2;" horiz-adv-x="1458" 
d="M637 1567h-305l231 354h336l231 -354h-305l-82 159h-24zM711 1065l-129 -467h286l-129 467h-28zM1032 0l-78 281h-458l-78 -281h-402l447 1434h532l447 -1434h-410z" />
    <glyph glyph-name="Atilde" unicode="&#xc3;" horiz-adv-x="1458" 
d="M594 1567h-225v159q0 90 56 142.5t146 52.5h11q90 0 168 -61l36 -29q27 -21 43 -21h9q30 0 30 39v72h226v-160q0 -89 -56 -141.5t-147 -52.5h-10q-90 0 -168 61l-37 29q-26 20 -43 20h-8q-31 0 -31 -39v-71zM711 1065l-129 -467h286l-129 467h-28zM1032 0l-78 281h-458
l-78 -281h-402l447 1434h532l447 -1434h-410z" />
    <glyph glyph-name="Adieresis" unicode="&#xc4;" horiz-adv-x="1458" 
d="M1096 1567h-303v323h303v-323zM670 1567h-303v323h303v-323zM711 1065l-129 -467h286l-129 467h-28zM1032 0l-78 281h-458l-78 -281h-402l447 1434h532l447 -1434h-410z" />
    <glyph glyph-name="Aring" unicode="&#xc5;" horiz-adv-x="1458" 
d="M762 1546h-62q-125 0 -202.5 61.5t-77.5 172.5v49q0 111 77.5 172t202.5 61h62q125 0 202.5 -61t77.5 -172v-49q0 -111 -77.5 -172.5t-202.5 -61.5zM647 1788q0 -30 17.5 -47t50.5 -17h33q67 0 67 64v33q0 63 -67 63h-33q-68 0 -68 -63v-33zM711 1065l-129 -467h286
l-129 467h-28zM1032 0l-78 281h-458l-78 -281h-402l447 1434h532l447 -1434h-410z" />
    <glyph glyph-name="AE" unicode="&#xc6;" horiz-adv-x="2050" 
d="M981 1040l-233 -442h262v442h-29zM1010 281h-430l-150 -281h-430l831 1434h1141v-328h-583v-229h538v-320h-538v-229h583v-328h-962v281z" />
    <glyph glyph-name="Ccedilla" unicode="&#xc7;" horiz-adv-x="1126" 
d="M905 -274q0 -99 -54 -142t-187 -43h-203v191h196q25 0 25 20v23q0 20 -25 20h-94l-37 39v168q-446 25 -446 467v496q0 469 506 469h469v-328h-449q-76 0 -106.5 -29.5t-30.5 -97.5v-524q0 -68 30.5 -97.5t106.5 -29.5h449v-328h-336v-53h20q82 0 124 -36t42 -118v-67z
" />
    <glyph glyph-name="Egrave" unicode="&#xc8;" 
d="M190 1907h385l209 -340h-307zM1126 0h-1013v1434h1013v-328h-630v-229h585v-320h-585v-229h630v-328z" />
    <glyph glyph-name="Eacute" unicode="&#xc9;" 
d="M1051 1907l-287 -340h-307l209 340h385zM1126 0h-1013v1434h1013v-328h-630v-229h585v-320h-585v-229h630v-328z" />
    <glyph glyph-name="Ecircumflex" unicode="&#xca;" 
d="M528 1567h-305l232 354h336l231 -354h-305l-82 159h-25zM1126 0h-1013v1434h1013v-328h-630v-229h585v-320h-585v-229h630v-328z" />
    <glyph glyph-name="Edieresis" unicode="&#xcb;" 
d="M987 1567h-303v323h303v-323zM561 1567h-303v323h303v-323zM1126 0h-1013v1434h1013v-328h-630v-229h585v-320h-585v-229h630v-328z" />
    <glyph glyph-name="Igrave" unicode="&#xcc;" horiz-adv-x="614" 
d="M-125 1907h385l209 -340h-307zM502 0h-389v1434h389v-1434z" />
    <glyph glyph-name="Iacute" unicode="&#xcd;" horiz-adv-x="614" 
d="M756 1907l-287 -340h-307l209 340h385zM502 0h-389v1434h389v-1434z" />
    <glyph glyph-name="Icircumflex" unicode="&#xce;" horiz-adv-x="614" 
d="M213 1567h-305l231 354h336l232 -354h-306l-82 159h-24zM502 0h-389v1434h389v-1434z" />
    <glyph glyph-name="Idieresis" unicode="&#xcf;" horiz-adv-x="614" 
d="M672 1567h-303v323h303v-323zM246 1567h-303v323h303v-323zM502 0h-389v1434h389v-1434z" />
    <glyph glyph-name="Eth" unicode="&#xd0;" horiz-adv-x="1400" 
d="M815 0h-649v567h-133v299h133v568h649q506 0 506 -469v-496q0 -469 -506 -469zM555 328h240q76 0 106.5 29.5t30.5 97.5v524q0 68 -30.5 97.5t-106.5 29.5h-240v-240h178v-299h-178v-239z" />
    <glyph glyph-name="Ntilde" unicode="&#xd1;" horiz-adv-x="1458" 
d="M592 1567h-225v159q0 90 56 142.5t146 52.5h11q90 0 168 -61l36 -29q27 -21 43 -21h9q30 0 30 39v72h226v-160q0 -89 -56 -141.5t-147 -52.5h-10q-90 0 -168 61l-37 29q-26 20 -43 20h-8q-31 0 -31 -39v-71zM479 1434l471 -768h29v768h367v-1434h-367l-471 768h-29v-768
h-366v1434h366z" />
    <glyph glyph-name="Ograve" unicode="&#xd2;" horiz-adv-x="1339" 
d="M238 1907h385l208 -340h-307zM733 -20h-127q-261 0 -393.5 115t-132.5 374v496q0 259 132.5 374t393.5 115h127q261 0 394 -115t133 -374v-496q0 -259 -133 -374t-394 -115zM469 455q0 -83 33 -115.5t125 -32.5h86q92 0 124.5 32t32.5 116v524q0 83 -32.5 115t-124.5 32
h-86q-92 0 -125 -32t-33 -115v-524z" />
    <glyph glyph-name="Oacute" unicode="&#xd3;" horiz-adv-x="1339" 
d="M1118 1907l-287 -340h-307l209 340h385zM733 -20h-127q-261 0 -393.5 115t-132.5 374v496q0 259 132.5 374t393.5 115h127q261 0 394 -115t133 -374v-496q0 -259 -133 -374t-394 -115zM469 455q0 -83 33 -115.5t125 -32.5h86q92 0 124.5 32t32.5 116v524q0 83 -32.5 115
t-124.5 32h-86q-92 0 -125 -32t-33 -115v-524z" />
    <glyph glyph-name="Ocircumflex" unicode="&#xd4;" horiz-adv-x="1339" 
d="M575 1567h-305l232 354h336l231 -354h-305l-82 159h-25zM733 -20h-127q-261 0 -393.5 115t-132.5 374v496q0 259 132.5 374t393.5 115h127q261 0 394 -115t133 -374v-496q0 -259 -133 -374t-394 -115zM469 455q0 -83 33 -115.5t125 -32.5h86q92 0 124.5 32t32.5 116v524
q0 83 -32.5 115t-124.5 32h-86q-92 0 -125 -32t-33 -115v-524z" />
    <glyph glyph-name="Otilde" unicode="&#xd5;" horiz-adv-x="1339" 
d="M532 1567h-225v159q0 90 56 142.5t147 52.5h10q90 0 168 -61l37 -29q27 -21 43 -21h8q31 0 31 39v72h225v-160q0 -89 -56 -141.5t-147 -52.5h-10q-90 0 -168 61l-37 29q-26 20 -43 20h-8q-31 0 -31 -39v-71zM733 -20h-127q-261 0 -393.5 115t-132.5 374v496
q0 259 132.5 374t393.5 115h127q261 0 394 -115t133 -374v-496q0 -259 -133 -374t-394 -115zM469 455q0 -83 33 -115.5t125 -32.5h86q92 0 124.5 32t32.5 116v524q0 83 -32.5 115t-124.5 32h-86q-92 0 -125 -32t-33 -115v-524z" />
    <glyph glyph-name="Odieresis" unicode="&#xd6;" horiz-adv-x="1339" 
d="M1034 1567h-303v323h303v-323zM608 1567h-303v323h303v-323zM733 -20h-127q-261 0 -393.5 115t-132.5 374v496q0 259 132.5 374t393.5 115h127q261 0 394 -115t133 -374v-496q0 -259 -133 -374t-394 -115zM469 455q0 -83 33 -115.5t125 -32.5h86q92 0 124.5 32t32.5 116
v524q0 83 -32.5 115t-124.5 32h-86q-92 0 -125 -32t-33 -115v-524z" />
    <glyph glyph-name="multiply" unicode="&#xd7;" horiz-adv-x="1003" 
d="M705 291l-218 217l-217 -217l-188 188l217 217l-217 217l188 189l217 -217l218 217l188 -189l-217 -217l217 -217z" />
    <glyph glyph-name="Oslash" unicode="&#xd8;" horiz-adv-x="1339" 
d="M733 -20h-127q-261 0 -393.5 115t-132.5 374v496q0 259 132.5 374t393.5 115h127q261 0 394 -115t133 -374v-496q0 -259 -133 -374t-394 -115zM444 1004v-488l256 635h-94q-95 0 -128.5 -32t-33.5 -115zM895 430v488l-254 -635h92q95 0 128.5 32t33.5 115z" />
    <glyph glyph-name="Ugrave" unicode="&#xd9;" horiz-adv-x="1366" 
d="M246 1907h385l209 -340h-308zM492 1434v-969q0 -84 32.5 -116t124.5 -32h68q92 0 124.5 32t32.5 116v969h390v-985q0 -469 -506 -469h-150q-506 0 -506 469v985h390z" />
    <glyph glyph-name="Uacute" unicode="&#xda;" horiz-adv-x="1366" 
d="M1126 1907l-286 -340h-308l209 340h385zM492 1434v-969q0 -84 32.5 -116t124.5 -32h68q92 0 124.5 32t32.5 116v969h390v-985q0 -469 -506 -469h-150q-506 0 -506 469v985h390z" />
    <glyph glyph-name="Ucircumflex" unicode="&#xdb;" horiz-adv-x="1366" 
d="M584 1567h-305l231 354h336l231 -354h-305l-82 159h-24zM492 1434v-969q0 -84 32.5 -116t124.5 -32h68q92 0 124.5 32t32.5 116v969h390v-985q0 -469 -506 -469h-150q-506 0 -506 469v985h390z" />
    <glyph glyph-name="Udieresis" unicode="&#xdc;" horiz-adv-x="1366" 
d="M1042 1567h-303v323h303v-323zM616 1567h-303v323h303v-323zM492 1434v-969q0 -84 32.5 -116t124.5 -32h68q92 0 124.5 32t32.5 116v969h390v-985q0 -469 -506 -469h-150q-506 0 -506 469v985h390z" />
    <glyph glyph-name="Yacute" unicode="&#xdd;" horiz-adv-x="1394" 
d="M1147 1907l-287 -340h-307l209 340h385zM502 0v496l-492 938h420l260 -557h29l262 557h403l-493 -938v-496h-389z" />
    <glyph glyph-name="Thorn" unicode="&#xde;" horiz-adv-x="1294" 
d="M707 901h-205v-385h205q75 0 106 26.5t31 80.5v172q0 54 -31 80t-106 26zM713 188h-211v-188h-389v1434h389v-205h211q258 0 389 -104t131 -330v-172q0 -226 -131.5 -330.5t-388.5 -104.5z" />
    <glyph glyph-name="germandbls" unicode="&#xdf;" horiz-adv-x="1314" 
d="M477 0h-375v1022q0 210 124 321t358 111h131q235 0 348 -95t113 -265q0 -58 -19 -109t-46 -85.5t-54.5 -64t-46.5 -56t-19 -48.5q0 -21 30 -44t72.5 -50.5t84.5 -64t72 -99t30 -141.5q0 -162 -102.5 -247t-294.5 -85h-221v303h221q49 0 49 45q0 23 -29 48t-70 52
t-82.5 59.5t-70.5 82.5t-29 110q0 54 26.5 106t58.5 86t58.5 77.5t26.5 83.5q0 48 -28 73t-93 25h-90q-74 0 -103.5 -30.5t-29.5 -98.5v-1022z" />
    <glyph glyph-name="agrave" unicode="&#xe0;" 
d="M211 1579h385l209 -340h-307zM530 326h7q54 0 110 22l84 35v399h-158q-75 0 -101 -29.5t-26 -99.5v-241q0 -86 84 -86zM682 43q-129 -63 -250 -63h-6q-74 0 -134.5 19t-111.5 60.5t-79.5 116t-28.5 176.5v291q0 245 120.5 354t364.5 109h545v-1106h-320l-12 86z" />
    <glyph glyph-name="aacute" unicode="&#xe1;" 
d="M1051 1579l-287 -340h-307l209 340h385zM530 326h7q54 0 110 22l84 35v399h-158q-75 0 -101 -29.5t-26 -99.5v-241q0 -86 84 -86zM682 43q-129 -63 -250 -63h-6q-74 0 -134.5 19t-111.5 60.5t-79.5 116t-28.5 176.5v291q0 245 120.5 354t364.5 109h545v-1106h-320l-12 86
z" />
    <glyph glyph-name="acircumflex" unicode="&#xe2;" 
d="M508 1239h-305l231 354h336l231 -354h-305l-82 160h-24zM530 326h7q54 0 110 22l84 35v399h-158q-75 0 -101 -29.5t-26 -99.5v-241q0 -86 84 -86zM682 43q-129 -63 -250 -63h-6q-74 0 -134.5 19t-111.5 60.5t-79.5 116t-28.5 176.5v291q0 245 120.5 354t364.5 109h545
v-1106h-320l-12 86z" />
    <glyph glyph-name="atilde" unicode="&#xe3;" 
d="M465 1239h-225v160q0 90 55.5 142t146.5 52h11q90 0 168 -61l36 -29q26 -20 43 -20h9q30 0 30 39v71h226v-159q0 -90 -56 -142.5t-147 -52.5h-10q-90 0 -168 61l-37 29q-27 21 -43 21h-8q-31 0 -31 -39v-72zM530 326h7q54 0 110 22l84 35v399h-158q-75 0 -101 -29.5
t-26 -99.5v-241q0 -86 84 -86zM682 43q-129 -63 -250 -63h-6q-74 0 -134.5 19t-111.5 60.5t-79.5 116t-28.5 176.5v291q0 245 120.5 354t364.5 109h545v-1106h-320l-12 86z" />
    <glyph glyph-name="adieresis" unicode="&#xe4;" 
d="M967 1239h-303v324h303v-324zM541 1239h-303v324h303v-324zM530 326h7q54 0 110 22l84 35v399h-158q-75 0 -101 -29.5t-26 -99.5v-241q0 -86 84 -86zM682 43q-129 -63 -250 -63h-6q-74 0 -134.5 19t-111.5 60.5t-79.5 116t-28.5 176.5v291q0 245 120.5 354t364.5 109h545
v-1106h-320l-12 86z" />
    <glyph glyph-name="aring" unicode="&#xe5;" 
d="M633 1219h-62q-125 0 -202.5 61t-77.5 172v49q0 111 77.5 172.5t202.5 61.5h62q125 0 202.5 -61.5t77.5 -172.5v-49q0 -111 -77.5 -172t-202.5 -61zM518 1460q0 -63 68 -63h32q68 0 68 63v33q0 63 -68 63h-32q-68 0 -68 -63v-33zM530 326h7q54 0 110 22l84 35v399h-158
q-75 0 -101 -29.5t-26 -99.5v-241q0 -86 84 -86zM682 43q-129 -63 -250 -63h-6q-74 0 -134.5 19t-111.5 60.5t-79.5 116t-28.5 176.5v291q0 245 120.5 354t364.5 109h545v-1106h-320l-12 86z" />
    <glyph glyph-name="ae" unicode="&#xe6;" horiz-adv-x="1783" 
d="M1108 694v-26h287v26q0 70 -26.5 101.5t-100.5 31.5h-31q-75 0 -102 -31.5t-27 -101.5zM551 313q51 0 96 17l96 41q-2 23 -2 71v201q0 80 17 160h-185q-75 0 -101 -29.5t-26 -99.5v-271q0 -45 27 -67.5t74 -22.5h4zM682 47q-140 -67 -270 -67h-6q-70 0 -127 19t-105 60.5
t-75 116t-27 176.5v291q0 245 120.5 354t364.5 109h498q76 20 182 20h23q237 0 351.5 -113t114.5 -370v-113l-77 -77h-541v-41q0 -70 31 -99.5t125 -29.5q113 0 235 36l123 37l82 -282l-123 -39q-73 -24 -167.5 -39.5t-168.5 -15.5q-290 0 -409 139z" />
    <glyph glyph-name="ccedilla" unicode="&#xe7;" horiz-adv-x="1005" 
d="M547 -459h-203v191h197q24 0 24 20v23q0 20 -24 20h-95l-36 39v154q-338 52 -338 434v221q0 245 121.5 354t363.5 109h350v-303h-334q-68 0 -97.5 -36t-29.5 -114v-241q0 -69 30.5 -99t109.5 -30q85 0 184 30l123 37l82 -282l-123 -39q-112 -38 -250 -47v-35h21
q81 0 123 -36t42 -118v-67q0 -99 -54 -142t-187 -43z" />
    <glyph glyph-name="egrave" unicode="&#xe8;" horiz-adv-x="1118" 
d="M127 1579h385l209 -340h-307zM432 694v-26h297v26q0 70 -26.5 101.5t-100.5 31.5h-41q-75 0 -102 -31.5t-27 -101.5zM915 35q-73 -24 -167 -39.5t-168 -15.5q-255 0 -384.5 109t-129.5 353v201q0 483 495 483h33q238 0 352.5 -113t114.5 -370v-113l-78 -77h-551v-41
q0 -69 35.5 -99t130.5 -30q114 0 236 36l122 37l82 -282z" />
    <glyph glyph-name="eacute" unicode="&#xe9;" horiz-adv-x="1118" 
d="M1008 1579l-287 -340h-307l209 340h385zM432 694v-26h297v26q0 70 -26.5 101.5t-100.5 31.5h-41q-75 0 -102 -31.5t-27 -101.5zM915 35q-73 -24 -167 -39.5t-168 -15.5q-255 0 -384.5 109t-129.5 353v201q0 483 495 483h33q238 0 352.5 -113t114.5 -370v-113l-78 -77
h-551v-41q0 -69 35.5 -99t130.5 -30q114 0 236 36l122 37l82 -282z" />
    <glyph glyph-name="ecircumflex" unicode="&#xea;" horiz-adv-x="1118" 
d="M465 1239h-305l231 354h336l231 -354h-305l-82 160h-24zM432 694v-26h297v26q0 70 -26.5 101.5t-100.5 31.5h-41q-75 0 -102 -31.5t-27 -101.5zM915 35q-73 -24 -167 -39.5t-168 -15.5q-255 0 -384.5 109t-129.5 353v201q0 483 495 483h33q238 0 352.5 -113t114.5 -370
v-113l-78 -77h-551v-41q0 -69 35.5 -99t130.5 -30q114 0 236 36l122 37l82 -282z" />
    <glyph glyph-name="edieresis" unicode="&#xeb;" horiz-adv-x="1118" 
d="M924 1239h-303v324h303v-324zM498 1239h-303v324h303v-324zM432 694v-26h297v26q0 70 -26.5 101.5t-100.5 31.5h-41q-75 0 -102 -31.5t-27 -101.5zM915 35q-73 -24 -167 -39.5t-168 -15.5q-255 0 -384.5 109t-129.5 353v201q0 483 495 483h33q238 0 352.5 -113
t114.5 -370v-113l-78 -77h-551v-41q0 -69 35.5 -99t130.5 -30q114 0 236 36l122 37l82 -282z" />
    <glyph glyph-name="igrave" unicode="&#xec;" horiz-adv-x="589" 
d="M-137 1579h385l209 -340h-307zM102 1106h385v-1106h-385v1106z" />
    <glyph glyph-name="iacute" unicode="&#xed;" horiz-adv-x="589" 
d="M743 1579l-286 -340h-307l208 340h385zM102 1106h385v-1106h-385v1106z" />
    <glyph glyph-name="icircumflex" unicode="&#xee;" horiz-adv-x="589" 
d="M201 1239h-305l231 354h336l231 -354h-305l-82 160h-24zM102 1106h385v-1106h-385v1106z" />
    <glyph glyph-name="idieresis" unicode="&#xef;" horiz-adv-x="589" 
d="M659 1239h-303v324h303v-324zM233 1239h-303v324h303v-324zM102 1106h385v-1106h-385v1106z" />
    <glyph glyph-name="eth" unicode="&#xf0;" horiz-adv-x="1224" 
d="M647 -20h-59q-266 0 -391 109t-125 353v70q0 183 97 274t257 91h6q51 0 105 -11.5t84 -22t92 -34.5l61 -25v52q0 104 -16 153l-68 -90l-184 121l65 86l-215 41l78 307l275 -47q29 -4 79 -16l86 112l179 -123l-62 -82q81 -67 121.5 -181t40.5 -296v-372
q0 -243 -132.5 -356t-373.5 -113zM588 301h39q88 0 122.5 29.5t34.5 97.5v74l-106 33q-65 20 -109 20h-10q-56 0 -87.5 -23.5t-31.5 -68.5v-33q0 -70 30.5 -99.5t117.5 -29.5z" />
    <glyph glyph-name="ntilde" unicode="&#xf1;" horiz-adv-x="1239" 
d="M483 1239h-225v160q0 89 56 141.5t147 52.5h10q90 0 168 -61l37 -29q26 -20 43 -20h8q31 0 31 39v71h225v-159q0 -90 -56 -142.5t-147 -52.5h-10q-93 0 -168 61l-37 29q-30 21 -43 21h-8q-31 0 -31 -39v-72zM571 733l-94 -33v-700h-375v1106h314l16 -90l105 43
q167 67 270 67h6q70 0 127 -19t105 -60.5t75 -116t27 -176.5v-754h-375v674q0 86 -84 86h-6q-28 0 -111 -27z" />
    <glyph glyph-name="ograve" unicode="&#xf2;" horiz-adv-x="1163" 
d="M150 1579h385l208 -340h-307zM604 -20h-45q-250 0 -373 117.5t-123 385.5v140q0 268 123 385.5t373 117.5h45q250 0 373 -117.5t123 -385.5v-140q0 -268 -123 -385.5t-373 -117.5zM438 412q0 -70 26.5 -99.5t104.5 -29.5h25q78 0 104.5 29.5t26.5 99.5v282
q0 70 -26.5 99.5t-104.5 29.5h-25q-78 0 -104.5 -29.5t-26.5 -99.5v-282z" />
    <glyph glyph-name="oacute" unicode="&#xf3;" horiz-adv-x="1163" 
d="M1030 1579l-287 -340h-307l209 340h385zM604 -20h-45q-250 0 -373 117.5t-123 385.5v140q0 268 123 385.5t373 117.5h45q250 0 373 -117.5t123 -385.5v-140q0 -268 -123 -385.5t-373 -117.5zM438 412q0 -70 26.5 -99.5t104.5 -29.5h25q78 0 104.5 29.5t26.5 99.5v282
q0 70 -26.5 99.5t-104.5 29.5h-25q-78 0 -104.5 -29.5t-26.5 -99.5v-282z" />
    <glyph glyph-name="ocircumflex" unicode="&#xf4;" horiz-adv-x="1163" 
d="M487 1239h-305l232 354h336l231 -354h-305l-82 160h-25zM604 -20h-45q-250 0 -373 117.5t-123 385.5v140q0 268 123 385.5t373 117.5h45q250 0 373 -117.5t123 -385.5v-140q0 -268 -123 -385.5t-373 -117.5zM438 412q0 -70 26.5 -99.5t104.5 -29.5h25q78 0 104.5 29.5
t26.5 99.5v282q0 70 -26.5 99.5t-104.5 29.5h-25q-78 0 -104.5 -29.5t-26.5 -99.5v-282z" />
    <glyph glyph-name="otilde" unicode="&#xf5;" horiz-adv-x="1163" 
d="M444 1239h-225v160q0 89 56 141.5t147 52.5h10q90 0 168 -61l37 -29q26 -20 43 -20h8q31 0 31 39v71h225v-159q0 -90 -56 -142.5t-147 -52.5h-10q-90 0 -168 61l-37 29q-27 21 -43 21h-8q-31 0 -31 -39v-72zM604 -20h-45q-250 0 -373 117.5t-123 385.5v140
q0 268 123 385.5t373 117.5h45q250 0 373 -117.5t123 -385.5v-140q0 -268 -123 -385.5t-373 -117.5zM438 412q0 -70 26.5 -99.5t104.5 -29.5h25q78 0 104.5 29.5t26.5 99.5v282q0 70 -26.5 99.5t-104.5 29.5h-25q-78 0 -104.5 -29.5t-26.5 -99.5v-282z" />
    <glyph glyph-name="odieresis" unicode="&#xf6;" horiz-adv-x="1163" 
d="M946 1239h-303v324h303v-324zM520 1239h-303v324h303v-324zM604 -20h-45q-250 0 -373 117.5t-123 385.5v140q0 268 123 385.5t373 117.5h45q250 0 373 -117.5t123 -385.5v-140q0 -268 -123 -385.5t-373 -117.5zM438 412q0 -70 26.5 -99.5t104.5 -29.5h25q78 0 104.5 29.5
t26.5 99.5v282q0 70 -26.5 99.5t-104.5 29.5h-25q-78 0 -104.5 -29.5t-26.5 -99.5v-282z" />
    <glyph glyph-name="divide" unicode="&#xf7;" horiz-adv-x="1003" 
d="M678 942h-348v342h348v-342zM922 553h-840v266h840v-266zM678 88h-348v342h348v-342z" />
    <glyph glyph-name="oslash" unicode="&#xf8;" horiz-adv-x="1163" 
d="M604 -20h-45q-250 0 -373 117.5t-123 385.5v140q0 268 123 385.5t373 117.5h45q250 0 373 -117.5t123 -385.5v-140q0 -268 -123 -385.5t-373 -117.5zM408 715v-289l202 424h-61q-84 0 -112.5 -31t-28.5 -104zM549 256h67q83 0 111.5 31t28.5 104v305z" />
    <glyph glyph-name="ugrave" unicode="&#xf9;" horiz-adv-x="1236" 
d="M186 1579h385l209 -340h-307zM700 47q-85 -34 -144.5 -50.5t-125.5 -16.5h-6q-70 0 -127 19t-105 60.5t-75 116t-27 176.5v754h375v-674q0 -86 84 -86h6q32 0 111 27l94 33v700h375v-1106h-314l-16 90z" />
    <glyph glyph-name="uacute" unicode="&#xfa;" horiz-adv-x="1236" 
d="M1067 1579l-287 -340h-307l209 340h385zM700 47q-85 -34 -144.5 -50.5t-125.5 -16.5h-6q-70 0 -127 19t-105 60.5t-75 116t-27 176.5v754h375v-674q0 -86 84 -86h6q32 0 111 27l94 33v700h375v-1106h-314l-16 90z" />
    <glyph glyph-name="ucircumflex" unicode="&#xfb;" horiz-adv-x="1236" 
d="M524 1239h-305l232 354h335l232 -354h-305l-82 160h-25zM700 47q-85 -34 -144.5 -50.5t-125.5 -16.5h-6q-70 0 -127 19t-105 60.5t-75 116t-27 176.5v754h375v-674q0 -86 84 -86h6q32 0 111 27l94 33v700h375v-1106h-314l-16 90z" />
    <glyph glyph-name="udieresis" unicode="&#xfc;" horiz-adv-x="1236" 
d="M983 1239h-303v324h303v-324zM557 1239h-303v324h303v-324zM700 47q-85 -34 -144.5 -50.5t-125.5 -16.5h-6q-70 0 -127 19t-105 60.5t-75 116t-27 176.5v754h375v-674q0 -86 84 -86h6q32 0 111 27l94 33v700h375v-1106h-314l-16 90z" />
    <glyph glyph-name="yacute" unicode="&#xfd;" horiz-adv-x="1157" 
d="M1028 1579l-287 -340h-307l209 340h385zM326 -328h-187v318h211q56 0 88 14t48.5 39.5t33.5 77.5l12 37h-231l-285 948h385l172 -680h29l154 680h385l-291 -1067q-36 -125 -97 -203.5t-166.5 -121t-260.5 -42.5z" />
    <glyph glyph-name="thorn" unicode="&#xfe;" horiz-adv-x="1208" 
d="M477 -328h-375v1762h365v-398l59 27q144 63 271 63h6q70 0 127 -19t105 -60.5t75 -116t27 -176.5v-291q0 -245 -121 -354t-365 -109h-174v-328zM467 324h168q75 0 101 29.5t26 99.5v241q0 86 -84 86h-6q-47 0 -111 -22l-94 -35v-399z" />
    <glyph glyph-name="ydieresis" unicode="&#xff;" horiz-adv-x="1157" 
d="M944 1239h-303v324h303v-324zM518 1239h-303v324h303v-324zM326 -328h-187v318h211q56 0 88 14t48.5 39.5t33.5 77.5l12 37h-231l-285 948h385l172 -680h29l154 680h385l-291 -1067q-36 -125 -97 -203.5t-166.5 -121t-260.5 -42.5z" />
    <glyph glyph-name="Amacron" unicode="&#x100;" horiz-adv-x="1458" 
d="M438 1567v235h586v-235h-586zM711 1065l-129 -467h286l-129 467h-28zM1032 0l-78 281h-458l-78 -281h-402l447 1434h532l447 -1434h-410z" />
    <glyph glyph-name="amacron" unicode="&#x101;" 
d="M309 1239v236h586v-236h-586zM530 326h7q54 0 110 22l84 35v399h-158q-75 0 -101 -29.5t-26 -99.5v-241q0 -86 84 -86zM682 43q-129 -63 -250 -63h-6q-74 0 -134.5 19t-111.5 60.5t-79.5 116t-28.5 176.5v291q0 245 120.5 354t364.5 109h545v-1106h-320l-12 86z" />
    <glyph glyph-name="Abreve" unicode="&#x102;" horiz-adv-x="1458" 
d="M815 1858h252v-89q0 -106 -84.5 -164.5t-220.5 -58.5h-62q-136 0 -220.5 58.5t-84.5 164.5v89h252v-56q0 -47 58 -47h53q57 0 57 47v56zM711 1065l-129 -467h286l-129 467h-28zM1032 0l-78 281h-458l-78 -281h-402l447 1434h532l447 -1434h-410z" />
    <glyph glyph-name="abreve" unicode="&#x103;" 
d="M686 1530h252v-88q0 -106 -84.5 -164.5t-220.5 -58.5h-62q-136 0 -220.5 58.5t-84.5 164.5v88h252v-55q0 -48 57 -48h54q57 0 57 48v55zM530 326h7q54 0 110 22l84 35v399h-158q-75 0 -101 -29.5t-26 -99.5v-241q0 -86 84 -86zM682 43q-129 -63 -250 -63h-6
q-74 0 -134.5 19t-111.5 60.5t-79.5 116t-28.5 176.5v291q0 245 120.5 354t364.5 109h545v-1106h-320l-12 86z" />
    <glyph glyph-name="Aogonek" unicode="&#x104;" horiz-adv-x="1458" 
d="M711 1065l-129 -467h286l-129 467h-28zM1440 -258v-221h-142q-144 0 -203 48t-59 157v6q0 54 15.5 90.5t78.5 118.5l46 59h-144l-78 281h-458l-78 -281h-402l447 1434h532l447 -1434l-117 -164q-2 -3 -6.5 -9l-6 -8t-4 -6.5t-3.5 -7t-2.5 -6.5t-2 -7t-0.5 -7v-16
q0 -27 31 -27h109z" />
    <glyph glyph-name="aogonek" unicode="&#x105;" 
d="M530 326h7q54 0 110 22l84 35v399h-158q-75 0 -101 -29.5t-26 -99.5v-241q0 -86 84 -86zM1100 -258v-221h-142q-144 0 -203 48t-59 157v6q0 54 16 90t79 119l45 59h-54l-12 86l-88 -43q-129 -63 -250 -63h-6q-74 0 -134.5 19t-111.5 60.5t-79.5 116t-28.5 176.5v291
q0 245 120.5 354t364.5 109h545v-1106l-117 -164q-24 -34 -24 -51v-16q0 -27 30 -27h109z" />
    <glyph glyph-name="Cacute" unicode="&#x106;" horiz-adv-x="1126" 
d="M1008 1907l-287 -340h-307l209 340h385zM1055 1434v-328h-449q-76 0 -106.5 -29.5t-30.5 -97.5v-524q0 -68 30.5 -97.5t106.5 -29.5h449v-328h-469q-506 0 -506 469v496q0 469 506 469h469z" />
    <glyph glyph-name="cacute" unicode="&#x107;" horiz-adv-x="1005" 
d="M952 1579l-286 -340h-308l209 340h385zM907 1106v-303h-334q-68 0 -97.5 -36t-29.5 -114v-241q0 -69 30.5 -99t109.5 -30q85 0 184 30l123 37l82 -282l-123 -39q-149 -49 -328 -49q-221 0 -336.5 106t-115.5 336v221q0 245 121.5 354t363.5 109h350z" />
    <glyph glyph-name="Ccircumflex" unicode="&#x108;" horiz-adv-x="1126" 
d="M526 1567h-305l232 354h335l232 -354h-305l-82 159h-25zM1055 1434v-328h-449q-76 0 -106.5 -29.5t-30.5 -97.5v-524q0 -68 30.5 -97.5t106.5 -29.5h449v-328h-469q-506 0 -506 469v496q0 469 506 469h469z" />
    <glyph glyph-name="ccircumflex" unicode="&#x109;" horiz-adv-x="1005" 
d="M410 1239h-306l232 354h336l231 -354h-305l-82 160h-24zM907 1106v-303h-334q-68 0 -97.5 -36t-29.5 -114v-241q0 -69 30.5 -99t109.5 -30q85 0 184 30l123 37l82 -282l-123 -39q-149 -49 -328 -49q-221 0 -336.5 106t-115.5 336v221q0 245 121.5 354t363.5 109h350z" />
    <glyph glyph-name="Cdotaccent" unicode="&#x10a;" horiz-adv-x="1126" 
d="M795 1567h-349v342h349v-342zM1055 1434v-328h-449q-76 0 -106.5 -29.5t-30.5 -97.5v-524q0 -68 30.5 -97.5t106.5 -29.5h449v-328h-469q-506 0 -506 469v496q0 469 506 469h469z" />
    <glyph glyph-name="cdotaccent" unicode="&#x10b;" horiz-adv-x="1005" 
d="M678 1239h-348v342h348v-342zM907 1106v-303h-334q-68 0 -97.5 -36t-29.5 -114v-241q0 -69 30.5 -99t109.5 -30q85 0 184 30l123 37l82 -282l-123 -39q-149 -49 -328 -49q-221 0 -336.5 106t-115.5 336v221q0 245 121.5 354t363.5 109h350z" />
    <glyph glyph-name="Ccaron" unicode="&#x10c;" horiz-adv-x="1126" 
d="M221 1921h305l82 -160h25l82 160h305l-232 -354h-335zM1055 1434v-328h-449q-76 0 -106.5 -29.5t-30.5 -97.5v-524q0 -68 30.5 -97.5t106.5 -29.5h449v-328h-469q-506 0 -506 469v496q0 469 506 469h469z" />
    <glyph glyph-name="ccaron" unicode="&#x10d;" horiz-adv-x="1005" 
d="M104 1593h306l82 -159h24l82 159h305l-231 -354h-336zM907 1106v-303h-334q-68 0 -97.5 -36t-29.5 -114v-241q0 -69 30.5 -99t109.5 -30q85 0 184 30l123 37l82 -282l-123 -39q-149 -49 -328 -49q-221 0 -336.5 106t-115.5 336v221q0 245 121.5 354t363.5 109h350z" />
    <glyph glyph-name="Dcaron" unicode="&#x10e;" horiz-adv-x="1347" 
d="M274 1921h306l82 -160h24l82 160h305l-231 -354h-336zM113 0v1434h649q506 0 506 -469v-496q0 -469 -506 -469h-649zM502 1106v-778h239q76 0 107 29.5t31 97.5v524q0 68 -31 97.5t-107 29.5h-239z" />
    <glyph glyph-name="dcaron" unicode="&#x10f;" horiz-adv-x="1458" 
d="M1208 1434h312v-117l-72 -359h-240v476zM530 326h7q46 0 110 22l94 35v399h-168q-75 0 -101 -29.5t-26 -99.5v-241q0 -86 84 -86zM682 43q-142 -63 -250 -63h-6q-74 0 -134.5 19t-111.5 60.5t-79.5 116t-28.5 176.5v291q0 245 120.5 354t364.5 109h174v328h375v-1434
h-313l-13 86z" />
    <glyph glyph-name="Dcroat" unicode="&#x110;" horiz-adv-x="1400" 
d="M815 0h-649v567h-133v299h133v568h649q506 0 506 -469v-496q0 -469 -506 -469zM555 328h240q76 0 106.5 29.5t30.5 97.5v524q0 68 -30.5 97.5t-106.5 29.5h-240v-240h178v-299h-178v-239z" />
    <glyph glyph-name="dcroat" unicode="&#x111;" horiz-adv-x="1208" 
d="M530 326h7q46 0 110 22l94 35v297h-168q-75 0 -101 -29.5t-26 -99.5v-139q0 -86 84 -86zM682 43q-142 -63 -250 -63h-6q-74 0 -134.5 19t-111.5 60.5t-79.5 116t-28.5 176.5v189q0 245 120.5 354t364.5 109h174v102h-170v235h170v93h375v-93h102v-235h-102v-1106h-313
l-13 86z" />
    <glyph glyph-name="Emacron" unicode="&#x112;" 
d="M350 1567v235h586v-235h-586zM1126 0h-1013v1434h1013v-328h-630v-229h585v-320h-585v-229h630v-328z" />
    <glyph glyph-name="emacron" unicode="&#x113;" horiz-adv-x="1118" 
d="M266 1239v236h586v-236h-586zM432 694v-26h297v26q0 70 -26.5 101.5t-100.5 31.5h-41q-75 0 -102 -31.5t-27 -101.5zM915 35q-73 -24 -167 -39.5t-168 -15.5q-255 0 -384.5 109t-129.5 353v201q0 483 495 483h33q238 0 352.5 -113t114.5 -370v-113l-78 -77h-551v-41
q0 -69 35.5 -99t130.5 -30q114 0 236 36l122 37l82 -282z" />
    <glyph glyph-name="Ebreve" unicode="&#x114;" 
d="M707 1858h251v-89q0 -106 -84.5 -164.5t-220.5 -58.5h-61q-136 0 -220.5 58.5t-84.5 164.5v89h252v-56q0 -47 57 -47h53q58 0 58 47v56zM1126 0h-1013v1434h1013v-328h-630v-229h585v-320h-585v-229h630v-328z" />
    <glyph glyph-name="ebreve" unicode="&#x115;" horiz-adv-x="1118" 
d="M643 1530h252v-88q0 -106 -84.5 -164.5t-220.5 -58.5h-62q-136 0 -220.5 58.5t-84.5 164.5v88h252v-55q0 -48 57 -48h54q57 0 57 48v55zM432 694v-26h297v26q0 70 -26.5 101.5t-100.5 31.5h-41q-75 0 -102 -31.5t-27 -101.5zM915 35q-73 -24 -167 -39.5t-168 -15.5
q-255 0 -384.5 109t-129.5 353v201q0 483 495 483h33q238 0 352.5 -113t114.5 -370v-113l-78 -77h-551v-41q0 -69 35.5 -99t130.5 -30q114 0 236 36l122 37l82 -282z" />
    <glyph glyph-name="Edotaccent" unicode="&#x116;" 
d="M817 1567h-348v342h348v-342zM1126 0h-1013v1434h1013v-328h-630v-229h585v-320h-585v-229h630v-328z" />
    <glyph glyph-name="edotaccent" unicode="&#x117;" horiz-adv-x="1118" 
d="M733 1239h-348v342h348v-342zM432 694v-26h297v26q0 70 -26.5 101.5t-100.5 31.5h-41q-75 0 -102 -31.5t-27 -101.5zM915 35q-73 -24 -167 -39.5t-168 -15.5q-255 0 -384.5 109t-129.5 353v201q0 483 495 483h33q238 0 352.5 -113t114.5 -370v-113l-78 -77h-551v-41
q0 -69 35.5 -99t130.5 -30q114 0 236 36l122 37l82 -282z" />
    <glyph glyph-name="Eogonek" unicode="&#x118;" 
d="M1124 -258v-221h-141q-144 0 -203 48t-59 157v6q0 54 15.5 90.5t78.5 118.5l45 59h-747v1434h1013v-328h-630v-229h585v-320h-585v-229h630v-328l-116 -164q-2 -3 -6.5 -9l-6 -8t-4 -6.5t-3.5 -7t-2.5 -6.5t-2 -7t-0.5 -7v-16q0 -27 31 -27h108z" />
    <glyph glyph-name="eogonek" unicode="&#x119;" horiz-adv-x="1118" 
d="M432 694v-26h297v26q0 70 -26.5 101.5t-100.5 31.5h-41q-75 0 -102 -31.5t-27 -101.5zM762 -258v-221h-141q-144 0 -203.5 48t-59.5 157v6q0 54 16 90t79 119l32 43q-207 18 -313 127.5t-106 330.5v201q0 483 495 483h33q238 0 352.5 -113t114.5 -370v-113l-78 -77h-551
v-41q0 -69 35.5 -99t130.5 -30q114 0 236 36l122 37l82 -282l-123 -39q-71 -22 -153 -37l-115 -162q-24 -34 -24 -51v-16q0 -27 30 -27h109z" />
    <glyph glyph-name="Ecaron" unicode="&#x11a;" 
d="M223 1921h305l82 -160h25l82 160h305l-231 -354h-336zM1126 0h-1013v1434h1013v-328h-630v-229h585v-320h-585v-229h630v-328z" />
    <glyph glyph-name="ecaron" unicode="&#x11b;" horiz-adv-x="1118" 
d="M160 1593h305l82 -159h24l82 159h305l-231 -354h-336zM432 694v-26h297v26q0 70 -26.5 101.5t-100.5 31.5h-41q-75 0 -102 -31.5t-27 -101.5zM915 35q-73 -24 -167 -39.5t-168 -15.5q-255 0 -384.5 109t-129.5 353v201q0 483 495 483h33q238 0 352.5 -113t114.5 -370
v-113l-78 -77h-551v-41q0 -69 35.5 -99t130.5 -30q114 0 236 36l122 37l82 -282z" />
    <glyph glyph-name="Gcircumflex" unicode="&#x11c;" horiz-adv-x="1290" 
d="M571 1567h-305l232 354h336l231 -354h-305l-82 159h-25zM1167 1106h-561q-76 0 -106.5 -29.5t-30.5 -97.5v-524q0 -68 30.5 -97.5t106.5 -29.5h244v426h358v-754h-622q-506 0 -506 469v496q0 469 506 469h581v-328z" />
    <glyph glyph-name="gcircumflex" unicode="&#x11d;" horiz-adv-x="1212" 
d="M512 1239h-305l231 354h336l232 -354h-306l-82 160h-24zM584 -328h-420v314h393q188 0 188 170v43l-49 -21q-87 -36 -143 -51.5t-121 -15.5h-6q-74 0 -134.5 21t-111.5 66.5t-79.5 128.5t-28.5 197v140q0 235 120.5 338.5t364.5 103.5h553v-930q0 -256 -136.5 -380
t-389.5 -124zM524 446h6q53 0 132 27l83 29v291h-178q-75 0 -101 -29.5t-26 -99.5v-132q0 -86 84 -86z" />
    <glyph glyph-name="Gbreve" unicode="&#x11e;" horiz-adv-x="1290" 
d="M770 1858h252v-89q0 -106 -84.5 -164.5t-220.5 -58.5h-62q-136 0 -220.5 58.5t-84.5 164.5v89h252v-56q0 -47 57 -47h54q57 0 57 47v56zM1167 1106h-561q-76 0 -106.5 -29.5t-30.5 -97.5v-524q0 -68 30.5 -97.5t106.5 -29.5h244v426h358v-754h-622q-506 0 -506 469v496
q0 469 506 469h581v-328z" />
    <glyph glyph-name="gbreve" unicode="&#x11f;" horiz-adv-x="1212" 
d="M690 1530h252v-88q0 -106 -84.5 -164.5t-220.5 -58.5h-62q-136 0 -220.5 58.5t-84.5 164.5v88h252v-55q0 -48 58 -48h53q57 0 57 48v55zM584 -328h-420v314h393q188 0 188 170v43l-49 -21q-87 -36 -143 -51.5t-121 -15.5h-6q-74 0 -134.5 21t-111.5 66.5t-79.5 128.5
t-28.5 197v140q0 235 120.5 338.5t364.5 103.5h553v-930q0 -256 -136.5 -380t-389.5 -124zM524 446h6q53 0 132 27l83 29v291h-178q-75 0 -101 -29.5t-26 -99.5v-132q0 -86 84 -86z" />
    <glyph glyph-name="Gdotaccent" unicode="&#x120;" horiz-adv-x="1290" 
d="M860 1567h-348v342h348v-342zM1167 1106h-561q-76 0 -106.5 -29.5t-30.5 -97.5v-524q0 -68 30.5 -97.5t106.5 -29.5h244v426h358v-754h-622q-506 0 -506 469v496q0 469 506 469h581v-328z" />
    <glyph glyph-name="gdotaccent" unicode="&#x121;" horiz-adv-x="1212" 
d="M780 1239h-348v342h348v-342zM584 -328h-420v314h393q188 0 188 170v43l-49 -21q-87 -36 -143 -51.5t-121 -15.5h-6q-74 0 -134.5 21t-111.5 66.5t-79.5 128.5t-28.5 197v140q0 235 120.5 338.5t364.5 103.5h553v-930q0 -256 -136.5 -380t-389.5 -124zM524 446h6
q53 0 132 27l83 29v291h-178q-75 0 -101 -29.5t-26 -99.5v-132q0 -86 84 -86z" />
    <glyph glyph-name="Gcommaaccent" unicode="&#x122;" horiz-adv-x="1290" 
d="M1167 1106h-561q-76 0 -106.5 -29.5t-30.5 -97.5v-524q0 -68 30.5 -97.5t106.5 -29.5h244v426h358v-754h-622q-506 0 -506 469v496q0 469 506 469h581v-328zM510 -133h311v-178l-133 -297h-178v475z" />
    <glyph glyph-name="gcommaaccent" unicode="&#x123;" horiz-adv-x="1212" 
d="M762 1241h-311v178l133 297h178v-475zM584 -328h-420v314h393q188 0 188 170v43l-49 -21q-87 -36 -143 -51.5t-121 -15.5h-6q-74 0 -134.5 21t-111.5 66.5t-79.5 128.5t-28.5 197v140q0 235 120.5 338.5t364.5 103.5h553v-930q0 -256 -136.5 -380t-389.5 -124zM524 446h6
q53 0 132 27l83 29v291h-178q-75 0 -101 -29.5t-26 -99.5v-132q0 -86 84 -86z" />
    <glyph glyph-name="Hcircumflex" unicode="&#x124;" horiz-adv-x="1462" 
d="M637 1567h-305l231 354h336l231 -354h-305l-82 159h-24zM961 0v553h-459v-553h-389v1434h389v-553h459v553h389v-1434h-389z" />
    <glyph glyph-name="hcircumflex" unicode="&#x125;" horiz-adv-x="1239" 
d="M414 1567h-305l231 354h336l231 -354h-305l-82 159h-24zM571 733l-94 -33v-700h-375v1434h375v-400l60 25q85 34 144.5 50.5t125.5 16.5h6q70 0 127 -19t105 -60.5t75 -116t27 -176.5v-754h-375v674q0 86 -84 86h-6q-32 0 -111 -27z" />
    <glyph glyph-name="Hbar" unicode="&#x126;" horiz-adv-x="1462" 
d="M961 881v163h-459v-163h459zM961 0v553h-459v-553h-389v1044h-113v248h113v142h389v-142h459v142h389v-142h112v-248h-112v-1044h-389z" />
    <glyph glyph-name="hbar" unicode="&#x127;" horiz-adv-x="1239" 
d="M571 651l-94 -33v-618h-375v1106h-102v235h102v93h375v-93h170v-235h-170v-154l60 25q85 34 144.5 50.5t125.5 16.5h6q70 0 127 -19t105 -60.5t75 -116t27 -176.5v-672h-375v592q0 86 -84 86h-6q-32 0 -111 -27z" />
    <glyph glyph-name="Itilde" unicode="&#x128;" horiz-adv-x="614" 
d="M170 1567h-225v159q0 90 56 142.5t146 52.5h11q90 0 168 -61l36 -29q27 -21 44 -21h8q30 0 30 39v72h226v-160q0 -89 -56 -141.5t-147 -52.5h-10q-90 0 -168 61l-37 29q-26 20 -43 20h-8q-31 0 -31 -39v-71zM502 0h-389v1434h389v-1434z" />
    <glyph glyph-name="itilde" unicode="&#x129;" horiz-adv-x="589" 
d="M158 1239h-226v160q0 89 56 141.5t147 52.5h10q90 0 168 -61l37 -29q26 -20 43 -20h8q31 0 31 39v71h225v-159q0 -90 -56 -142.5t-146 -52.5h-11q-90 0 -168 61l-36 29q-27 21 -43 21h-9q-30 0 -30 -39v-72zM102 1106h385v-1106h-385v1106z" />
    <glyph glyph-name="Imacron" unicode="&#x12a;" horiz-adv-x="614" 
d="M14 1567v235h586v-235h-586zM502 0h-389v1434h389v-1434z" />
    <glyph glyph-name="imacron" unicode="&#x12b;" horiz-adv-x="589" 
d="M2 1239v236h586v-236h-586zM102 1106h385v-1106h-385v1106z" />
    <glyph glyph-name="Ibreve" unicode="&#x12c;" horiz-adv-x="614" 
d="M391 1858h252v-89q0 -106 -84.5 -164.5t-220.5 -58.5h-62q-136 0 -220.5 58.5t-84.5 164.5v89h252v-56q0 -47 58 -47h53q57 0 57 47v56zM502 0h-389v1434h389v-1434z" />
    <glyph glyph-name="ibreve" unicode="&#x12d;" horiz-adv-x="589" 
d="M379 1530h252v-88q0 -106 -84.5 -164.5t-220.5 -58.5h-62q-136 0 -220.5 58.5t-84.5 164.5v88h252v-55q0 -48 57 -48h54q57 0 57 48v55zM102 1106h385v-1106h-385v1106z" />
    <glyph glyph-name="Iogonek" unicode="&#x12e;" horiz-adv-x="614" 
d="M489 -258v-221h-141q-144 0 -203 48t-59 157v6q0 54 15.5 90.5t78.5 118.5l45 59h-112v1434h389v-1434h-10l-117 -164q-2 -3 -6.5 -9l-6 -8t-4 -6.5t-3.5 -7t-2.5 -6.5t-2 -7t-0.5 -7v-16q0 -27 31 -27h108z" />
    <glyph glyph-name="iogonek" unicode="&#x12f;" horiz-adv-x="579" 
d="M477 1475v-277h-375v277h375zM475 -258v-221h-141q-144 0 -203 48t-59 157v6q0 54 15.5 90.5t78.5 118.5l45 59h-109v1106h375v-1106l-117 -164q-24 -34 -24 -51v-16q0 -27 31 -27h108z" />
    <glyph glyph-name="Idotaccent" unicode="&#x130;" horiz-adv-x="614" 
d="M481 1567h-348v342h348v-342zM502 0h-389v1434h389v-1434z" />
    <glyph glyph-name="dotlessi" unicode="&#x131;" horiz-adv-x="589" 
d="M102 1106h385v-1106h-385v1106z" />
    <glyph glyph-name="IJ" unicode="&#x132;" horiz-adv-x="1218" 
d="M719 -367l-174 299l117 70q39 23 52 53.5t13 89.5v1289h389v-1282q0 -100 -11.5 -163t-46.5 -113.5t-80 -84.5t-132 -84zM502 0h-389v1434h389v-1434z" />
    <glyph glyph-name="ij" unicode="&#x133;" horiz-adv-x="1159" 
d="M1057 1198h-375v277h375v-277zM477 1475v-277h-375v277h375zM1057 168q0 -76 -7 -127.5t-21 -93t-45 -78t-69.5 -68.5t-103.5 -77l-106 -74l-199 299l96 69q46 35 63 62.5t17 81.5v944h375v-938zM102 1106h375v-1106h-375v1106z" />
    <glyph glyph-name="Jcircumflex" unicode="&#x134;" horiz-adv-x="614" 
d="M213 1567h-305l231 354h336l232 -354h-306l-82 159h-24zM104 -367l-174 299l117 70q39 23 52.5 53.5t13.5 89.5v1289h389v-1282q0 -80 -9 -136.5t-25.5 -98.5t-52 -78t-75 -64t-109.5 -68z" />
    <glyph glyph-name="jcircumflex" unicode="&#x135;" horiz-adv-x="579" 
d="M203 1239h-305l231 354h336l231 -354h-305l-82 160h-24zM477 168q0 -76 -7 -127.5t-21 -93t-45 -78t-69.5 -68.5t-103.5 -77l-106 -74l-199 299l97 69q46 35 62.5 62.5t16.5 81.5v944h375v-938z" />
    <glyph glyph-name="Kcommaaccent" unicode="&#x136;" horiz-adv-x="1406" 
d="M492 553v-553h-379v1434h379v-553h178l288 553h410l-385 -695l410 -739h-435l-299 553h-167zM569 -133h312v-178l-133 -297h-179v475z" />
    <glyph glyph-name="kcommaaccent" unicode="&#x137;" horiz-adv-x="1193" 
d="M780 0l-178 412h-125v-412h-375v1434h375v-674h144l190 346h367l-273 -516l279 -590h-404zM442 -133h312v-178l-133 -297h-179v475z" />
    <glyph glyph-name="Lacute" unicode="&#x139;" horiz-adv-x="1116" 
d="M756 1907l-287 -340h-307l209 340h385zM1065 0h-952v1434h389v-1106h563v-328z" />
    <glyph glyph-name="lacute" unicode="&#x13a;" horiz-adv-x="579" 
d="M743 1907l-286 -340h-307l208 340h385zM477 1434v-1434h-375v1434h375z" />
    <glyph glyph-name="Lcommaaccent" unicode="&#x13b;" horiz-adv-x="1116" 
d="M1065 0h-952v1434h389v-1106h563v-328zM403 -133h312v-178l-133 -297h-179v475z" />
    <glyph glyph-name="lcommaaccent" unicode="&#x13c;" horiz-adv-x="579" 
d="M477 1434v-1434h-375v1434h375zM135 -133h311v-178l-133 -297h-178v475z" />
    <glyph glyph-name="Lcaron" unicode="&#x13d;" horiz-adv-x="1116" 
d="M690 1434h311v-117l-71 -359h-240v476zM1065 0h-952v1434h389v-1106h563v-328z" />
    <glyph glyph-name="lcaron" unicode="&#x13e;" horiz-adv-x="829" 
d="M580 1434h311v-117l-72 -359h-239v476zM477 1434v-1434h-375v1434h375z" />
    <glyph glyph-name="Ldot" unicode="&#x13f;" horiz-adv-x="1116" 
d="M1065 0h-952v1434h389v-1106h563v-328zM1042 676h-348v342h348v-342z" />
    <glyph glyph-name="ldot" unicode="&#x140;" horiz-adv-x="927" 
d="M477 1434v-1434h-375v1434h375zM928 676h-348v342h348v-342z" />
    <glyph glyph-name="Lslash" unicode="&#x141;" horiz-adv-x="1150" 
d="M1118 0h-952v506l-143 -66v305l143 66v623h389v-445l227 105v-306l-227 -104v-356h563v-328z" />
    <glyph glyph-name="lslash" unicode="&#x142;" horiz-adv-x="690" 
d="M532 0h-374v512l-133 -51v280l133 52v641h374v-498l134 51v-280l-134 -52v-655z" />
    <glyph glyph-name="Nacute" unicode="&#x143;" horiz-adv-x="1458" 
d="M1157 1907l-287 -340h-307l209 340h385zM479 1434l471 -768h29v768h367v-1434h-367l-471 768h-29v-768h-366v1434h366z" />
    <glyph glyph-name="nacute" unicode="&#x144;" horiz-adv-x="1239" 
d="M1069 1579l-287 -340h-307l209 340h385zM571 733l-94 -33v-700h-375v1106h314l16 -90l105 43q167 67 270 67h6q70 0 127 -19t105 -60.5t75 -116t27 -176.5v-754h-375v674q0 86 -84 86h-6q-28 0 -111 -27z" />
    <glyph glyph-name="Ncommaaccent" unicode="&#x145;" horiz-adv-x="1458" 
d="M479 1434l471 -768h29v768h367v-1434h-367l-471 768h-29v-768h-366v1434h366zM573 -133h312v-178l-133 -297h-179v475z" />
    <glyph glyph-name="ncommaaccent" unicode="&#x146;" horiz-adv-x="1239" 
d="M571 733l-94 -33v-700h-375v1106h314l16 -90l105 43q167 67 270 67h6q70 0 127 -19t105 -60.5t75 -116t27 -176.5v-754h-375v674q0 86 -84 86h-6q-28 0 -111 -27zM465 -133h311v-178l-133 -297h-178v475z" />
    <glyph glyph-name="Ncaron" unicode="&#x147;" horiz-adv-x="1458" 
d="M330 1921h305l82 -160h24l82 160h305l-231 -354h-336zM479 1434l471 -768h29v768h367v-1434h-367l-471 768h-29v-768h-366v1434h366z" />
    <glyph glyph-name="ncaron" unicode="&#x148;" horiz-adv-x="1239" 
d="M221 1593h305l82 -159h25l82 159h305l-232 -354h-335zM571 733l-94 -33v-700h-375v1106h314l16 -90l105 43q167 67 270 67h6q70 0 127 -19t105 -60.5t75 -116t27 -176.5v-754h-375v674q0 86 -84 86h-6q-28 0 -111 -27z" />
    <glyph glyph-name="Omacron" unicode="&#x14c;" horiz-adv-x="1339" 
d="M377 1567v235h586v-235h-586zM733 -20h-127q-261 0 -393.5 115t-132.5 374v496q0 259 132.5 374t393.5 115h127q261 0 394 -115t133 -374v-496q0 -259 -133 -374t-394 -115zM469 455q0 -83 33 -115.5t125 -32.5h86q92 0 124.5 32t32.5 116v524q0 83 -32.5 115t-124.5 32
h-86q-92 0 -125 -32t-33 -115v-524z" />
    <glyph glyph-name="omacron" unicode="&#x14d;" horiz-adv-x="1163" 
d="M289 1239v236h585v-236h-585zM604 -20h-45q-250 0 -373 117.5t-123 385.5v140q0 268 123 385.5t373 117.5h45q250 0 373 -117.5t123 -385.5v-140q0 -268 -123 -385.5t-373 -117.5zM438 412q0 -70 26.5 -99.5t104.5 -29.5h25q78 0 104.5 29.5t26.5 99.5v282
q0 70 -26.5 99.5t-104.5 29.5h-25q-78 0 -104.5 -29.5t-26.5 -99.5v-282z" />
    <glyph glyph-name="Obreve" unicode="&#x14e;" horiz-adv-x="1339" 
d="M754 1858h252v-89q0 -106 -85 -164.5t-221 -58.5h-61q-136 0 -220.5 58.5t-84.5 164.5v89h252v-56q0 -47 57 -47h53q58 0 58 47v56zM733 -20h-127q-261 0 -393.5 115t-132.5 374v496q0 259 132.5 374t393.5 115h127q261 0 394 -115t133 -374v-496q0 -259 -133 -374
t-394 -115zM469 455q0 -83 33 -115.5t125 -32.5h86q92 0 124.5 32t32.5 116v524q0 83 -32.5 115t-124.5 32h-86q-92 0 -125 -32t-33 -115v-524z" />
    <glyph glyph-name="obreve" unicode="&#x14f;" horiz-adv-x="1163" 
d="M666 1530h252v-88q0 -106 -85 -164.5t-221 -58.5h-61q-136 0 -220.5 58.5t-84.5 164.5v88h252v-55q0 -48 57 -48h53q58 0 58 48v55zM604 -20h-45q-250 0 -373 117.5t-123 385.5v140q0 268 123 385.5t373 117.5h45q250 0 373 -117.5t123 -385.5v-140q0 -268 -123 -385.5
t-373 -117.5zM438 412q0 -70 26.5 -99.5t104.5 -29.5h25q78 0 104.5 29.5t26.5 99.5v282q0 70 -26.5 99.5t-104.5 29.5h-25q-78 0 -104.5 -29.5t-26.5 -99.5v-282z" />
    <glyph glyph-name="Ohungarumlaut" unicode="&#x150;" horiz-adv-x="1339" 
d="M836 1907l-226 -340h-286l188 340h324zM1266 1907l-246 -340h-287l209 340h324zM733 -20h-127q-261 0 -393.5 115t-132.5 374v496q0 259 132.5 374t393.5 115h127q261 0 394 -115t133 -374v-496q0 -259 -133 -374t-394 -115zM469 455q0 -83 33 -115.5t125 -32.5h86
q92 0 124.5 32t32.5 116v524q0 83 -32.5 115t-124.5 32h-86q-92 0 -125 -32t-33 -115v-524z" />
    <glyph glyph-name="ohungarumlaut" unicode="&#x151;" horiz-adv-x="1163" 
d="M748 1579l-226 -340h-286l188 340h324zM1178 1579l-246 -340h-287l209 340h324zM604 -20h-45q-250 0 -373 117.5t-123 385.5v140q0 268 123 385.5t373 117.5h45q250 0 373 -117.5t123 -385.5v-140q0 -268 -123 -385.5t-373 -117.5zM438 412q0 -70 26.5 -99.5t104.5 -29.5
h25q78 0 104.5 29.5t26.5 99.5v282q0 70 -26.5 99.5t-104.5 29.5h-25q-78 0 -104.5 -29.5t-26.5 -99.5v-282z" />
    <glyph glyph-name="OE" unicode="&#x152;" horiz-adv-x="1910" 
d="M627 328h243v778h-243q-92 0 -125 -32.5t-33 -115.5v-483q0 -83 33 -115t125 -32zM606 0q-261 0 -393.5 115t-132.5 374v455q0 259 132.5 374.5t393.5 115.5h1227v-328h-580v-229h535v-320h-535v-229h580v-328h-1227z" />
    <glyph glyph-name="oe" unicode="&#x153;" horiz-adv-x="1785" 
d="M1100 694v-26h297v26q0 70 -26.5 101.5t-100.5 31.5h-41q-75 0 -102 -31.5t-27 -101.5zM438 412q0 -70 26.5 -99.5t104.5 -29.5h25q78 0 104.5 29.5t26.5 99.5v282q0 70 -26.5 99.5t-104.5 29.5h-25q-78 0 -104.5 -29.5t-26.5 -99.5v-282zM1247 -20q-207 0 -329 71
q-116 -71 -314 -71h-45q-250 0 -373 117.5t-123 385.5v140q0 268 123 385.5t373 117.5h45q200 0 316 -71q121 71 309 71h33q238 0 352.5 -113t114.5 -370v-113l-78 -77h-551v-41q0 -69 35.5 -99t130.5 -30q113 0 235 36l123 37l82 -282l-123 -39q-73 -24 -167.5 -39.5
t-168.5 -15.5z" />
    <glyph glyph-name="Racute" unicode="&#x154;" horiz-adv-x="1355" 
d="M1126 1907l-286 -340h-308l209 340h385zM502 1106v-334h241q75 0 106.5 26.5t31.5 80.5v120q0 54 -31.5 80.5t-106.5 26.5h-241zM502 0h-389v1434h637q257 0 388.5 -104.5t131.5 -330.5v-120q0 -282 -269 -369l324 -510h-440l-258 444h-125v-444z" />
    <glyph glyph-name="racute" unicode="&#x155;" horiz-adv-x="870" 
d="M885 1579l-287 -340h-307l209 340h385zM477 0h-375v1106h314l20 -115l53 35q156 100 297 100h43v-358h-14q-110 0 -162 -6t-116 -31l-60 -22v-709z" />
    <glyph glyph-name="Rcommaaccent" unicode="&#x156;" horiz-adv-x="1355" 
d="M502 1106v-334h241q75 0 106.5 26.5t31.5 80.5v120q0 54 -31.5 80.5t-106.5 26.5h-241zM502 0h-389v1434h637q257 0 388.5 -104.5t131.5 -330.5v-120q0 -282 -269 -369l324 -510h-440l-258 444h-125v-444zM522 -133h312v-178l-134 -297h-178v475z" />
    <glyph glyph-name="rcommaaccent" unicode="&#x157;" horiz-adv-x="870" 
d="M477 0h-375v1106h314l20 -115l53 35q156 100 297 100h43v-358h-14q-110 0 -162 -6t-116 -31l-60 -22v-709zM133 -133h311v-178l-133 -297h-178v475z" />
    <glyph glyph-name="Rcaron" unicode="&#x158;" horiz-adv-x="1355" 
d="M279 1921h305l82 -160h24l82 160h305l-231 -354h-336zM502 1106v-334h241q75 0 106.5 26.5t31.5 80.5v120q0 54 -31.5 80.5t-106.5 26.5h-241zM502 0h-389v1434h637q257 0 388.5 -104.5t131.5 -330.5v-120q0 -282 -269 -369l324 -510h-440l-258 444h-125v-444z" />
    <glyph glyph-name="rcaron" unicode="&#x159;" horiz-adv-x="870" 
d="M37 1593h305l82 -159h25l81 159h306l-232 -354h-336zM477 0h-375v1106h314l20 -115l53 35q156 100 297 100h43v-358h-14q-110 0 -162 -6t-116 -31l-60 -22v-709z" />
    <glyph glyph-name="Sacute" unicode="&#x15a;" horiz-adv-x="1165" 
d="M1032 1907l-287 -340h-307l209 340h385zM80 0v328h557q41 0 61.5 19t20.5 50v19q0 33 -14 49.5t-50 28.5l-323 106q-149 49 -211 142t-62 241v57q0 189 118.5 291.5t352.5 102.5h545v-328h-545q-41 0 -61 -19.5t-20 -50.5v-18q0 -34 15.5 -52t53.5 -30l322 -113
q268 -94 268 -366v-54q0 -191 -120.5 -297t-350.5 -106h-557z" />
    <glyph glyph-name="sacute" unicode="&#x15b;" horiz-adv-x="1021" 
d="M961 1579l-287 -340h-307l208 340h386zM76 0v303h495q54 0 54 45v8q0 20 -16 31.5t-58 15.5l-232 27q-258 30 -258 299v80q0 144 100 220.5t288 76.5h481v-303h-481q-50 0 -50 -37v-10q0 -22 13.5 -33.5t48.5 -15.5l250 -31q135 -17 193.5 -87t58.5 -192v-90
q0 -143 -101.5 -225t-286.5 -82h-499z" />
    <glyph glyph-name="Scircumflex" unicode="&#x15c;" horiz-adv-x="1165" 
d="M489 1567h-305l232 354h336l231 -354h-305l-82 159h-25zM80 0v328h557q41 0 61.5 19t20.5 50v19q0 33 -14 49.5t-50 28.5l-323 106q-149 49 -211 142t-62 241v57q0 189 118.5 291.5t352.5 102.5h545v-328h-545q-41 0 -61 -19.5t-20 -50.5v-18q0 -34 15.5 -52t53.5 -30
l322 -113q268 -94 268 -366v-54q0 -191 -120.5 -297t-350.5 -106h-557z" />
    <glyph glyph-name="scircumflex" unicode="&#x15d;" horiz-adv-x="1021" 
d="M418 1239h-305l231 354h336l231 -354h-305l-82 160h-24zM76 0v303h495q54 0 54 45v8q0 20 -16 31.5t-58 15.5l-232 27q-258 30 -258 299v80q0 144 100 220.5t288 76.5h481v-303h-481q-50 0 -50 -37v-10q0 -22 13.5 -33.5t48.5 -15.5l250 -31q135 -17 193.5 -87t58.5 -192
v-90q0 -143 -101.5 -225t-286.5 -82h-499z" />
    <glyph glyph-name="Scedilla" unicode="&#x15e;" horiz-adv-x="1165" 
d="M586 -459h-203v191h197q24 0 24 20v23q0 20 -24 20h-95l-36 39v166h-369v328h557q41 0 61.5 19t20.5 50v19q0 33 -14 49.5t-50 28.5l-323 106q-149 49 -211 142t-62 241v57q0 189 118.5 291.5t352.5 102.5h545v-328h-545q-41 0 -61 -19.5t-20 -50.5v-18q0 -34 15.5 -52
t53.5 -30l322 -113q268 -94 268 -366v-54q0 -190 -120 -296.5t-347 -106.5v-53h21q81 0 123 -36t42 -118v-67q0 -99 -54 -142t-187 -43z" />
    <glyph glyph-name="scedilla" unicode="&#x15f;" horiz-adv-x="1021" 
d="M754 -274q0 -98 -54.5 -141.5t-187.5 -43.5h-203v191h197q24 0 24 20v23q0 20 -24 20h-94l-37 39v166h-299v303h495q54 0 54 45v8q0 20 -16 31.5t-58 15.5l-232 27q-258 30 -258 299v80q0 144 100 220.5t288 76.5h481v-303h-481q-50 0 -50 -37v-10q0 -22 13.5 -33.5
t48.5 -15.5l250 -31q135 -17 193.5 -87t58.5 -192v-90q0 -143 -101.5 -225t-286.5 -82h-8v-53h21q82 0 124 -36t42 -118v-67z" />
    <glyph glyph-name="Scaron" unicode="&#x160;" horiz-adv-x="1165" 
d="M184 1921h305l82 -160h25l82 160h305l-231 -354h-336zM80 0v328h557q41 0 61.5 19t20.5 50v19q0 33 -14 49.5t-50 28.5l-323 106q-149 49 -211 142t-62 241v57q0 189 118.5 291.5t352.5 102.5h545v-328h-545q-41 0 -61 -19.5t-20 -50.5v-18q0 -34 15.5 -52t53.5 -30
l322 -113q268 -94 268 -366v-54q0 -191 -120.5 -297t-350.5 -106h-557z" />
    <glyph glyph-name="scaron" unicode="&#x161;" horiz-adv-x="1021" 
d="M113 1593h305l82 -159h24l82 159h305l-231 -354h-336zM76 0v303h495q54 0 54 45v8q0 20 -16 31.5t-58 15.5l-232 27q-258 30 -258 299v80q0 144 100 220.5t288 76.5h481v-303h-481q-50 0 -50 -37v-10q0 -22 13.5 -33.5t48.5 -15.5l250 -31q135 -17 193.5 -87t58.5 -192
v-90q0 -143 -101.5 -225t-286.5 -82h-499z" />
    <glyph glyph-name="uni0162" unicode="&#x162;" horiz-adv-x="1269" 
d="M1219 1434v-328h-390v-1106h-389v1106h-389v328h1168zM479 -133h312v-178l-134 -297h-178v475z" />
    <glyph glyph-name="uni0163" unicode="&#x163;" horiz-adv-x="905" 
d="M813 803h-258v-428q0 -36 13 -53t44 -17q34 0 107 31l49 22l117 -266l-64 -33q-152 -79 -307 -79q-158 0 -246 86.5t-88 263.5v473h-149v303h176l43 205h305v-205h258v-303zM301 -133h311v-178l-133 -297h-178v475z" />
    <glyph glyph-name="Tcaron" unicode="&#x164;" horiz-adv-x="1269" 
d="M236 1921h305l82 -160h24l82 160h305l-231 -354h-336zM1219 1434v-328h-390v-1106h-389v1106h-389v328h1168z" />
    <glyph glyph-name="tcaron" unicode="&#x165;" horiz-adv-x="905" 
d="M672 1698h311v-117l-72 -358h-239v475zM813 803h-258v-428q0 -36 13 -53t44 -17q34 0 107 31l49 22l117 -266l-64 -33q-152 -79 -307 -79q-158 0 -246 86.5t-88 263.5v473h-149v303h176l43 205h305v-205h258v-303z" />
    <glyph glyph-name="Tbar" unicode="&#x166;" horiz-adv-x="1269" 
d="M1075 459h-246v-459h-389v459h-245v299h245v348h-389v328h1168v-328h-390v-348h246v-299z" />
    <glyph glyph-name="tbar" unicode="&#x167;" horiz-adv-x="915" 
d="M817 59q-152 -79 -309 -79q-155 0 -241.5 86.5t-86.5 263.5v110h-149v236h149v127h-149v303h176l43 205h305v-205h268v-303h-268v-127h213v-236h-213v-65q0 -36 13 -53t44 -17q33 0 103 31l49 22l117 -266z" />
    <glyph glyph-name="Utilde" unicode="&#x168;" horiz-adv-x="1366" 
d="M541 1567h-226v159q0 90 56 142.5t147 52.5h10q90 0 168 -61l37 -29q27 -21 43 -21h8q31 0 31 39v72h225v-160q0 -90 -55.5 -142t-146.5 -52h-11q-93 0 -168 61l-36 29q-29 20 -43 20h-9q-30 0 -30 -39v-71zM492 1434v-969q0 -84 32.5 -116t124.5 -32h68q92 0 124.5 32
t32.5 116v969h390v-985q0 -469 -506 -469h-150q-506 0 -506 469v985h390z" />
    <glyph glyph-name="utilde" unicode="&#x169;" horiz-adv-x="1236" 
d="M481 1239h-225v160q0 89 56 141.5t147 52.5h10q90 0 168 -61l37 -29q26 -20 43 -20h8q31 0 31 39v71h225v-159q0 -90 -56 -142.5t-147 -52.5h-10q-90 0 -168 61l-37 29q-27 21 -43 21h-8q-31 0 -31 -39v-72zM700 47q-85 -34 -144.5 -50.5t-125.5 -16.5h-6q-70 0 -127 19
t-105 60.5t-75 116t-27 176.5v754h375v-674q0 -86 84 -86h6q32 0 111 27l94 33v700h375v-1106h-314l-16 90z" />
    <glyph glyph-name="Umacron" unicode="&#x16a;" horiz-adv-x="1366" 
d="M385 1567v235h586v-235h-586zM492 1434v-969q0 -84 32.5 -116t124.5 -32h68q92 0 124.5 32t32.5 116v969h390v-985q0 -469 -506 -469h-150q-506 0 -506 469v985h390z" />
    <glyph glyph-name="umacron" unicode="&#x16b;" horiz-adv-x="1236" 
d="M326 1239v236h585v-236h-585zM700 47q-85 -34 -144.5 -50.5t-125.5 -16.5h-6q-70 0 -127 19t-105 60.5t-75 116t-27 176.5v754h375v-674q0 -86 84 -86h6q32 0 111 27l94 33v700h375v-1106h-314l-16 90z" />
    <glyph glyph-name="Ubreve" unicode="&#x16c;" horiz-adv-x="1366" 
d="M762 1858h252v-89q0 -106 -85 -164.5t-220 -58.5h-62q-136 0 -220.5 58.5t-84.5 164.5v89h252v-56q0 -47 57 -47h54q57 0 57 47v56zM492 1434v-969q0 -84 32.5 -116t124.5 -32h68q92 0 124.5 32t32.5 116v969h390v-985q0 -469 -506 -469h-150q-506 0 -506 469v985h390z
" />
    <glyph glyph-name="ubreve" unicode="&#x16d;" horiz-adv-x="1236" 
d="M702 1530h252v-88q0 -106 -84.5 -164.5t-220.5 -58.5h-61q-136 0 -220.5 58.5t-84.5 164.5v88h252v-55q0 -48 57 -48h53q57 0 57 48v55zM700 47q-85 -34 -144.5 -50.5t-125.5 -16.5h-6q-70 0 -127 19t-105 60.5t-75 116t-27 176.5v754h375v-674q0 -86 84 -86h6
q32 0 111 27l94 33v700h375v-1106h-314l-16 90z" />
    <glyph glyph-name="Uring" unicode="&#x16e;" horiz-adv-x="1366" 
d="M709 1546h-62q-125 0 -202.5 61.5t-77.5 172.5v49q0 111 77.5 172t202.5 61h62q125 0 202.5 -61t77.5 -172v-49q0 -111 -77.5 -172.5t-202.5 -61.5zM594 1788q0 -30 17.5 -47t50.5 -17h32q33 0 50.5 17t17.5 47v33q0 63 -68 63h-32q-68 0 -68 -63v-33zM492 1434v-969
q0 -84 32.5 -116t124.5 -32h68q92 0 124.5 32t32.5 116v969h390v-985q0 -469 -506 -469h-150q-506 0 -506 469v985h390z" />
    <glyph glyph-name="uring" unicode="&#x16f;" horiz-adv-x="1236" 
d="M649 1219h-61q-125 0 -203 61t-78 172v49q0 111 78 172.5t203 61.5h61q125 0 203 -61.5t78 -172.5v-49q0 -111 -78 -172t-203 -61zM535 1460q0 -63 67 -63h33q67 0 67 63v33q0 63 -67 63h-33q-67 0 -67 -63v-33zM700 47q-85 -34 -144.5 -50.5t-125.5 -16.5h-6
q-70 0 -127 19t-105 60.5t-75 116t-27 176.5v754h375v-674q0 -86 84 -86h6q32 0 111 27l94 33v700h375v-1106h-314l-16 90z" />
    <glyph glyph-name="Uhungarumlaut" unicode="&#x170;" horiz-adv-x="1376" 
d="M844 1907l-226 -340h-286l188 340h324zM1274 1907l-246 -340h-287l209 340h324zM492 1434v-969q0 -84 32.5 -116t124.5 -32h68q92 0 124.5 32t32.5 116v969h390v-985q0 -469 -506 -469h-150q-506 0 -506 469v985h390z" />
    <glyph glyph-name="uhungarumlaut" unicode="&#x171;" horiz-adv-x="1236" 
d="M784 1579l-225 -340h-287l189 340h323zM1214 1579l-245 -340h-287l209 340h323zM700 47q-85 -34 -144.5 -50.5t-125.5 -16.5h-6q-70 0 -127 19t-105 60.5t-75 116t-27 176.5v754h375v-674q0 -86 84 -86h6q32 0 111 27l94 33v700h375v-1106h-314l-16 90z" />
    <glyph glyph-name="Uogonek" unicode="&#x172;" horiz-adv-x="1366" 
d="M860 -479h-141q-145 0 -203.5 48t-58.5 157v6q0 54 15.5 90.5t78.5 118.5l29 39q-233 6 -355.5 119t-122.5 350v985h390v-969q0 -84 32.5 -116t124.5 -32h68q92 0 124.5 32t32.5 116v969h390v-985q0 -425 -414 -465l-105 -148q-24 -31 -24 -51v-16q0 -27 31 -27h108v-221
z" />
    <glyph glyph-name="uogonek" unicode="&#x173;" horiz-adv-x="1236" 
d="M1133 -258v-221h-142q-144 0 -203 48t-59 157v6q0 54 15.5 90.5t78.5 118.5l45 59h-47l-16 90l-105 -43q-85 -34 -144.5 -50.5t-125.5 -16.5h-6q-70 0 -127 19t-105 60.5t-75 116t-27 176.5v754h375v-674q0 -86 84 -86h6q32 0 111 27l94 33v700h375v-1106l-117 -164
q-2 -3 -6.5 -9l-6 -8t-4 -6.5t-3.5 -7t-2.5 -6.5t-2 -7t-0.5 -7v-16q0 -27 31 -27h109z" />
    <glyph glyph-name="Wcircumflex" unicode="&#x174;" horiz-adv-x="2103" 
d="M958 1567h-305l232 354h336l231 -354h-305l-82 159h-25zM1815 0h-558l-190 1044h-29l-190 -1044h-559l-264 1434h419l136 -1045h28l189 1045h522l188 -1045h29l135 1045h408z" />
    <glyph glyph-name="wcircumflex" unicode="&#x175;" horiz-adv-x="1798" 
d="M805 1239h-305l231 354h336l231 -354h-305l-82 160h-24zM1579 0h-524l-123 610l-19 160h-28l-19 -160l-123 -610h-524l-192 1106h368l64 -475l35 -328h28l45 328l111 475h442l111 -475l45 -328h29l34 328l64 475h369z" />
    <glyph glyph-name="Ycircumflex" unicode="&#x176;" horiz-adv-x="1394" 
d="M604 1567h-305l231 354h336l232 -354h-305l-82 159h-25zM502 0v496l-492 938h420l260 -557h29l262 557h403l-493 -938v-496h-389z" />
    <glyph glyph-name="ycircumflex" unicode="&#x177;" horiz-adv-x="1157" 
d="M485 1239h-305l232 354h336l231 -354h-305l-82 160h-25zM326 -328h-187v318h211q56 0 88 14t48.5 39.5t33.5 77.5l12 37h-231l-285 948h385l172 -680h29l154 680h385l-291 -1067q-36 -125 -97 -203.5t-166.5 -121t-260.5 -42.5z" />
    <glyph glyph-name="Ydieresis" unicode="&#x178;" horiz-adv-x="1394" 
d="M1063 1567h-303v323h303v-323zM637 1567h-303v323h303v-323zM502 0v496l-492 938h420l260 -557h29l262 557h403l-493 -938v-496h-389z" />
    <glyph glyph-name="Zacute" unicode="&#x179;" horiz-adv-x="1210" 
d="M1047 1907l-287 -340h-307l209 340h385zM1149 328v-328h-1088v274l576 803v29h-553v328h1051v-275l-578 -803v-28h592z" />
    <glyph glyph-name="zacute" unicode="&#x17a;" horiz-adv-x="1036" 
d="M965 1579l-287 -340h-307l209 340h385zM68 1106h890v-270l-428 -508v-29h445v-299h-907v270l426 508v29h-426v299z" />
    <glyph glyph-name="Zdotaccent" unicode="&#x17b;" horiz-adv-x="1210" 
d="M772 1567h-348v342h348v-342zM1149 328v-328h-1088v274l576 803v29h-553v328h1051v-275l-578 -803v-28h592z" />
    <glyph glyph-name="zdotaccent" unicode="&#x17c;" horiz-adv-x="1036" 
d="M690 1239h-348v342h348v-342zM68 1106h890v-270l-428 -508v-29h445v-299h-907v270l426 508v29h-426v299z" />
    <glyph glyph-name="Zcaron" unicode="&#x17d;" horiz-adv-x="1210" 
d="M219 1921h305l82 -160h25l82 160h305l-232 -354h-335zM1149 328v-328h-1088v274l576 803v29h-553v328h1051v-275l-578 -803v-28h592z" />
    <glyph glyph-name="zcaron" unicode="&#x17e;" horiz-adv-x="1036" 
d="M117 1593h305l82 -159h24l82 159h305l-231 -354h-336zM68 1106h890v-270l-428 -508v-29h445v-299h-907v270l426 508v29h-426v299z" />
    <glyph glyph-name="florin" unicode="&#x192;" horiz-adv-x="1071" 
d="M936 803h-248l-125 -709q-21 -123 -58.5 -204.5t-98 -129.5t-138 -68t-188.5 -20h-131l57 328h74q58 0 82.5 23t32.5 71l124 709h-149l53 303h150l4 18q39 178 151 264.5t316 86.5h211l-47 -267h-164q-56 0 -77.5 -18t-31.5 -64l-4 -20h258z" />
    <glyph glyph-name="uni0218" unicode="&#x218;" horiz-adv-x="1165" 
d="M80 0v328h557q41 0 61.5 19t20.5 50v19q0 33 -14 49.5t-50 28.5l-323 106q-149 49 -211 142t-62 241v57q0 189 118.5 291.5t352.5 102.5h545v-328h-545q-41 0 -61 -19.5t-20 -50.5v-18q0 -34 15.5 -52t53.5 -30l322 -113q268 -94 268 -366v-54q0 -191 -120.5 -297
t-350.5 -106h-557zM428 -133h311v-178l-133 -297h-178v475z" />
    <glyph glyph-name="uni0219" unicode="&#x219;" horiz-adv-x="1021" 
d="M76 0v303h495q54 0 54 45v8q0 20 -16 31.5t-58 15.5l-232 27q-258 30 -258 299v80q0 144 100 220.5t288 76.5h481v-303h-481q-50 0 -50 -37v-10q0 -22 13.5 -33.5t48.5 -15.5l250 -31q135 -17 193.5 -87t58.5 -192v-90q0 -143 -101.5 -225t-286.5 -82h-499zM356 -133h312
v-178l-133 -297h-179v475z" />
    <glyph glyph-name="uni021A" unicode="&#x21a;" horiz-adv-x="1269" 
d="M1219 1434v-328h-390v-1106h-389v1106h-389v328h1168zM479 -133h312v-178l-134 -297h-178v475z" />
    <glyph glyph-name="uni021B" unicode="&#x21b;" horiz-adv-x="905" 
d="M813 803h-258v-428q0 -36 13 -53t44 -17q34 0 107 31l49 22l117 -266l-64 -33q-152 -79 -307 -79q-158 0 -246 86.5t-88 263.5v473h-149v303h176l43 205h305v-205h258v-303zM301 -133h311v-178l-133 -297h-178v475z" />
    <glyph glyph-name="dotlessj" unicode="&#x237;" horiz-adv-x="579" 
d="M477 168q0 -76 -7 -127.5t-21 -93t-45 -78t-69.5 -68.5t-103.5 -77l-106 -74l-199 299l97 69q46 35 62.5 62.5t16.5 81.5v944h375v-938z" />
    <glyph glyph-name="circumflex" unicode="&#x2c6;" horiz-adv-x="1024" 
d="M418 1239h-305l231 354h336l231 -354h-305l-82 160h-24z" />
    <glyph glyph-name="caron" unicode="&#x2c7;" horiz-adv-x="1024" 
d="M113 1593h305l82 -159h24l82 159h305l-231 -354h-336z" />
    <glyph glyph-name="breve" unicode="&#x2d8;" horiz-adv-x="1024" 
d="M596 1530h252v-88q0 -106 -84.5 -164.5t-220.5 -58.5h-62q-136 0 -220.5 58.5t-84.5 164.5v88h252v-55q0 -48 57 -48h54q57 0 57 48v55z" />
    <glyph glyph-name="dotaccent" unicode="&#x2d9;" horiz-adv-x="1024" 
d="M686 1239h-348v342h348v-342z" />
    <glyph glyph-name="ring" unicode="&#x2da;" horiz-adv-x="1024" 
d="M543 1219h-62q-125 0 -202.5 61t-77.5 172v49q0 111 77.5 172.5t202.5 61.5h62q125 0 202.5 -61.5t77.5 -172.5v-49q0 -111 -77.5 -172t-202.5 -61zM428 1460q0 -63 68 -63h32q68 0 68 63v33q0 63 -68 63h-32q-68 0 -68 -63v-33z" />
    <glyph glyph-name="ogonek" unicode="&#x2db;" horiz-adv-x="1024" 
d="M694 -258v-221h-141q-144 0 -203 48t-59 157v6q0 54 15.5 90.5t78.5 118.5l72 94h213l26 -35l-116 -164q-2 -3 -6.5 -9l-6 -8t-4 -6.5t-3.5 -7t-2.5 -6.5t-2 -7t-0.5 -7v-16q0 -27 31 -27h108z" />
    <glyph glyph-name="tilde" unicode="&#x2dc;" horiz-adv-x="1024" 
d="M375 1239h-225v160q0 90 55.5 142t146.5 52h10q90 0 168 -61l37 -29q26 -20 43 -20h8q31 0 31 39v71h225v-159q0 -90 -56 -142.5t-146 -52.5h-10q-90 0 -168 61l-37 29q-27 21 -43 21h-8q-31 0 -31 -39v-72z" />
    <glyph glyph-name="hungarumlaut" unicode="&#x2dd;" horiz-adv-x="1024" 
d="M678 1579l-225 -340h-287l188 340h324zM1108 1579l-246 -340h-287l209 340h324z" />
    <glyph glyph-name="uni0394" unicode="&#x394;" horiz-adv-x="1464" 
d="M711 1065l-205 -748h438l-205 748h-28zM16 0l447 1434h538l447 -1434h-1432z" />
    <glyph glyph-name="uni03A9" unicode="&#x3a9;" horiz-adv-x="1380" 
d="M647 348v-348h-571v328h237q-213 82 -213 346v291q0 259 133 374t394 115h127q261 0 393.5 -115t132.5 -374v-291q0 -264 -213 -346h238v-328h-572v348q91 15 124.5 47.5t33.5 100.5v483q0 83 -33 115t-125 32h-86q-92 0 -125 -32t-33 -115v-483q0 -68 33.5 -100.5
t124.5 -47.5z" />
    <glyph glyph-name="pi" unicode="&#x3c0;" horiz-adv-x="1525" 
d="M1421 43q-132 -63 -252 -63q-151 0 -236 91.5t-85 276.5v440h-275v-788h-374v788h-164v318h1403v-318h-215v-423q0 -31 10.5 -45.5t36.5 -14.5q22 0 57 14l49 23l119 -264z" />
    <glyph glyph-name="Wgrave" unicode="&#x1e80;" horiz-adv-x="2103" 
d="M621 1907h385l208 -340h-307zM1815 0h-558l-190 1044h-29l-190 -1044h-559l-264 1434h419l136 -1045h28l189 1045h522l188 -1045h29l135 1045h408z" />
    <glyph glyph-name="wgrave" unicode="&#x1e81;" horiz-adv-x="1798" 
d="M467 1579h385l209 -340h-307zM1579 0h-524l-123 610l-19 160h-28l-19 -160l-123 -610h-524l-192 1106h368l64 -475l35 -328h28l45 328l111 475h442l111 -475l45 -328h29l34 328l64 475h369z" />
    <glyph glyph-name="Wacute" unicode="&#x1e82;" horiz-adv-x="2103" 
d="M1501 1907l-287 -340h-307l209 340h385zM1815 0h-558l-190 1044h-29l-190 -1044h-559l-264 1434h419l136 -1045h28l189 1045h522l188 -1045h29l135 1045h408z" />
    <glyph glyph-name="wacute" unicode="&#x1e83;" horiz-adv-x="1798" 
d="M1348 1579l-287 -340h-307l209 340h385zM1579 0h-524l-123 610l-19 160h-28l-19 -160l-123 -610h-524l-192 1106h368l64 -475l35 -328h28l45 328l111 475h442l111 -475l45 -328h29l34 328l64 475h369z" />
    <glyph glyph-name="Wdieresis" unicode="&#x1e84;" horiz-adv-x="2103" 
d="M1417 1567h-303v323h303v-323zM991 1567h-303v323h303v-323zM1815 0h-558l-190 1044h-29l-190 -1044h-559l-264 1434h419l136 -1045h28l189 1045h522l188 -1045h29l135 1045h408z" />
    <glyph glyph-name="wdieresis" unicode="&#x1e85;" horiz-adv-x="1798" 
d="M1264 1239h-303v324h303v-324zM838 1239h-303v324h303v-324zM1579 0h-524l-123 610l-19 160h-28l-19 -160l-123 -610h-524l-192 1106h368l64 -475l35 -328h28l45 328l111 475h442l111 -475l45 -328h29l34 328l64 475h369z" />
    <glyph glyph-name="Ygrave" unicode="&#x1ef2;" horiz-adv-x="1394" 
d="M266 1907h385l209 -340h-307zM502 0v496l-492 938h420l260 -557h29l262 557h403l-493 -938v-496h-389z" />
    <glyph glyph-name="ygrave" unicode="&#x1ef3;" horiz-adv-x="1157" 
d="M147 1579h385l209 -340h-307zM326 -328h-187v318h211q56 0 88 14t48.5 39.5t33.5 77.5l12 37h-231l-285 948h385l172 -680h29l154 680h385l-291 -1067q-36 -125 -97 -203.5t-166.5 -121t-260.5 -42.5z" />
    <glyph glyph-name="endash" unicode="&#x2013;" horiz-adv-x="1024" 
d="M932 799v-256h-840v256h840z" />
    <glyph glyph-name="emdash" unicode="&#x2014;" horiz-adv-x="2048" 
d="M1956 799v-256h-1864v256h1864z" />
    <glyph glyph-name="quoteleft" unicode="&#x2018;" horiz-adv-x="593" 
d="M471 860h-348v199l149 375h199v-574z" />
    <glyph glyph-name="quoteright" unicode="&#x2019;" horiz-adv-x="593" 
d="M123 1434h348v-199l-149 -375h-199v574z" />
    <glyph glyph-name="quotesinglbase" unicode="&#x201a;" horiz-adv-x="593" 
d="M123 342h348v-199l-149 -374h-199v573z" />
    <glyph glyph-name="quotedblleft" unicode="&#x201c;" horiz-adv-x="1091" 
d="M969 860h-348v199l149 375h199v-574zM471 860h-348v199l149 375h199v-574z" />
    <glyph glyph-name="quotedblright" unicode="&#x201d;" horiz-adv-x="1091" 
d="M621 1434h348v-199l-150 -375h-198v574zM123 1434h348v-199l-149 -375h-199v574z" />
    <glyph glyph-name="quotedblbase" unicode="&#x201e;" horiz-adv-x="1091" 
d="M621 342h348v-199l-150 -374h-198v573zM123 342h348v-199l-149 -374h-199v573z" />
    <glyph glyph-name="dagger" unicode="&#x2020;" horiz-adv-x="1042" 
d="M1008 799h-318v-799h-338v799h-317v307h317v328h338v-328h318v-307z" />
    <glyph glyph-name="daggerdbl" unicode="&#x2021;" horiz-adv-x="1107" 
d="M1040 287h-317v-287h-338v287h-317v307h317v246h-317v307h317v287h338v-287h317v-307h-317v-246h317v-307z" />
    <glyph glyph-name="bullet" unicode="&#x2022;" horiz-adv-x="751" 
d="M711 582q0 -138 -99 -238t-233 -100q-138 0 -238 100t-100 238q0 134 100 232.5t238 98.5q134 0 233 -99t99 -232z" />
    <glyph glyph-name="ellipsis" unicode="&#x2026;" horiz-adv-x="1589" 
d="M1466 0h-348v342h348v-342zM969 0h-348v342h348v-342zM471 0h-348v342h348v-342z" />
    <glyph glyph-name="perthousand" unicode="&#x2030;" horiz-adv-x="2656" 
d="M440 754h-69q-168 0 -250 69t-82 226v110q0 157 82 226t250 69h69q168 0 250 -69t82 -226v-110q0 -157 -82 -226t-250 -69zM594 0h-299l942 1434h299zM295 1063q0 -49 19 -70.5t73 -21.5h37q54 0 73 21.5t19 70.5v82q0 49 -19 70.5t-73 21.5h-37q-54 0 -73 -21.5
t-19 -70.5v-82zM2216 680h70q168 0 249.5 -69t81.5 -226v-111q0 -157 -81.5 -225.5t-249.5 -68.5h-70q-168 0 -250 68.5t-82 225.5v111q0 157 82 226t250 69zM1391 680h69q168 0 250 -69t82 -226v-111q0 -157 -82 -225.5t-250 -68.5h-69q-168 0 -250 68.5t-82 225.5v111
q0 157 82 226t250 69zM2361 371q0 49 -19 70.5t-73 21.5h-37q-54 0 -73 -21.5t-19 -70.5v-82q0 -49 19 -70.5t73 -21.5h37q54 0 73 21.5t19 70.5v82zM1536 371q0 49 -19 70.5t-73 21.5h-37q-54 0 -73 -21.5t-19 -70.5v-82q0 -49 19 -70.5t73 -21.5h37q54 0 73 21.5t19 70.5
v82z" />
    <glyph glyph-name="guilsinglleft" unicode="&#x2039;" horiz-adv-x="712" 
d="M92 463v137l205 274h313l-186 -331v-23l186 -332h-313z" />
    <glyph glyph-name="guilsinglright" unicode="&#x203a;" horiz-adv-x="712" 
d="M621 463l-205 -275h-314l187 332v23l-187 331h314l205 -274v-137z" />
    <glyph glyph-name="fraction" unicode="&#x2044;" horiz-adv-x="339" 
d="M-111 0h-299l861 1434h299z" />
    <glyph glyph-name="zerosuperior" unicode="&#x2070;" horiz-adv-x="872" 
d="M494 707h-113q-136 0 -215.5 62.5t-79.5 193.5v227q0 131 79 192.5t216 61.5h113q136 0 214 -61.5t78 -192.5v-227q0 -131 -78 -193.5t-214 -62.5zM340 983q0 -63 68 -63h57q70 0 70 63v184q0 64 -70 64h-57q-68 0 -68 -64v-184z" />
    <glyph glyph-name="foursuperior" unicode="&#x2074;" horiz-adv-x="815" 
d="M659 717h-235v114h-373v164l301 439h307v-428h103v-175h-103v-114zM272 1018v-14h152v231h-14z" />
    <glyph glyph-name="Euro" unicode="&#x20ac;" horiz-adv-x="1292" 
d="M1221 328v-328h-469q-484 0 -506 430h-193v236h193v102h-193v236h193q20 430 506 430h469v-328h-449q-70 0 -101 -23.5t-36 -78.5h393v-236h-393v-102h393v-236h-393q6 -55 37 -78.5t100 -23.5h449z" />
    <glyph glyph-name="uni20B9" unicode="&#x20b9;" horiz-adv-x="1247" 
d="M1198 791h-207q-12 -259 -266 -340l322 -451h-441l-256 383h-270v287h385q74 0 105.5 31t31.5 90h-522v235h522q-2 61 -33.5 91t-103.5 30h-385v287h1118v-236h-242q32 -79 35 -172h207v-235z" />
    <glyph glyph-name="uni2113" unicode="&#x2113;" horiz-adv-x="1050" 
d="M426 -20q-160 0 -249 91.5t-89 278.5v672q0 199 120.5 315.5t332.5 116.5h39q428 0 428 -412v-61q0 -136 -61 -225.5t-202 -173.5l-282 -168v-39q0 -36 14.5 -53t50.5 -17q47 0 156 53l131 62l117 -266l-146 -72q-104 -52 -184.5 -77t-175.5 -25zM463 1022v-291l86 53
q64 39 87 84t23 113v61q0 54 -19 84.5t-54 30.5h-35q-39 0 -63.5 -34t-24.5 -101z" />
    <glyph glyph-name="trademark" unicode="&#x2122;" horiz-adv-x="1544" 
d="M422 737h-232v498h-167v199h567v-199h-168v-498zM897 737h-213v697h291l102 -326h13l100 326h293v-697h-213v252l18 219h-12l-88 -254h-221l-76 254h-12l18 -219v-252z" />
    <glyph glyph-name="Omega" unicode="&#x2126;" horiz-adv-x="1380" 
d="M647 348v-348h-571v328h237q-213 82 -213 346v291q0 259 133 374t394 115h127q261 0 393.5 -115t132.5 -374v-291q0 -264 -213 -346h238v-328h-572v348q91 15 124.5 47.5t33.5 100.5v483q0 83 -33 115t-125 32h-86q-92 0 -125 -32t-33 -115v-483q0 -68 33.5 -100.5
t124.5 -47.5z" />
    <glyph glyph-name="estimated" unicode="&#x212e;" horiz-adv-x="1353" 
d="M1313 526h-1016q-8 0 -8 -6v-307q0 -20 14 -37q74 -77 173 -120.5t212 -43.5q121 0 225 48.5t179 136.5h90q-89 -102 -218 -161t-278 -59q-170 0 -314.5 75.5t-228.5 205.5t-84 283t84 283.5t228.5 207t314.5 76.5t314.5 -76.5t228.5 -207t84 -283.5v-15zM1083 565v309
q0 23 -16 39q-74 75 -171.5 117.5t-207.5 42.5q-111 0 -210.5 -43.5t-172.5 -122.5q-16 -13 -16 -39v-303q0 -8 8 -8h780q6 0 6 8z" />
    <glyph glyph-name="partialdiff" unicode="&#x2202;" horiz-adv-x="1198" 
d="M618 -20h-59q-266 0 -391 109t-125 353v70q0 183 97 274t257 91h6q51 0 105 -11.5t84 -22t92 -34.5l61 -25v52q0 136 -30.5 188.5t-122.5 71.5l-264 51l78 307l274 -47q90 -16 155 -39.5t122 -66.5t92 -105.5t55 -156t20 -218.5v-372q0 -243 -132.5 -356t-373.5 -113z
M559 301h39q89 0 123.5 29.5t34.5 97.5v74l-107 33q-65 20 -108 20h-11q-56 0 -87 -23.5t-31 -68.5v-33q0 -70 30 -99.5t117 -29.5z" />
    <glyph glyph-name="Delta" unicode="&#x2206;" horiz-adv-x="1464" 
d="M711 1065l-205 -748h438l-205 748h-28zM16 0l447 1434h538l447 -1434h-1432z" />
    <glyph glyph-name="product" unicode="&#x220f;" horiz-adv-x="1658" 
d="M1059 -205v1311h-459v-1311h-389v1311h-174v328h1585v-328h-174v-1311h-389z" />
    <glyph glyph-name="summation" unicode="&#x2211;" horiz-adv-x="1110" 
d="M1065 1434v-328h-553v-37l279 -293v-307l-279 -309v-37h553v-328h-1014v352l395 455v41l-395 438v353h1014z" />
    <glyph glyph-name="minus" unicode="&#x2212;" horiz-adv-x="1003" 
d="M922 553h-840v266h840v-266z" />
    <glyph glyph-name="uni2215" unicode="&#x2215;" horiz-adv-x="339" 
d="M-111 0h-299l861 1434h299z" />
    <glyph glyph-name="radical" unicode="&#x221a;" horiz-adv-x="1406" 
d="M1059 1638h393l-483 -1638h-492l-248 795l-155 -37l-51 266l493 102l195 -772h28z" />
    <glyph glyph-name="infinity" unicode="&#x221e;" horiz-adv-x="1490" 
d="M1057 563q47 0 73.5 30.5t26.5 80.5v53q0 55 -25.5 89t-74.5 34h-35q-24 0 -44.5 -17t-34 -39.5t-33.5 -60.5l-9 -18q7 -13 17.5 -34t16.5 -32.5t15 -27.5t16 -24.5t16 -17.5t19 -12.5t21 -3.5h35zM469 563q24 0 44.5 17t34 39.5t33.5 60.5l9 18q-7 13 -17.5 34
t-16.5 32.5t-15 27.5t-16 24.5t-16 17.5t-19 12.5t-21 3.5h-35q-47 0 -73.5 -30.5t-26.5 -80.5v-53q0 -55 25.5 -89t74.5 -34h35zM748 938q53 90 121.5 133t172.5 43h35q172 0 271.5 -97.5t99.5 -289.5v-53q0 -186 -100.5 -280.5t-270.5 -94.5h-35q-105 0 -173.5 43
t-125.5 133q-53 -90 -121.5 -133t-172.5 -43h-35q-172 0 -271.5 97.5t-99.5 289.5v53q0 186 100.5 280.5t270.5 94.5h35q105 0 173.5 -43t125.5 -133z" />
    <glyph glyph-name="integral" unicode="&#x222b;" horiz-adv-x="882" 
d="M616 33q0 -171 -107 -266t-319 -95h-190v267h150q55 0 74.5 19t19.5 67v1089q0 171 107 266t319 95h190v-267h-149q-55 0 -75 -19.5t-20 -66.5v-1089z" />
    <glyph glyph-name="approxequal" unicode="&#x2248;" horiz-adv-x="1003" 
d="M53 735l21 135q20 135 72.5 195.5t150.5 60.5h10q51 0 89 -11t98 -44l59 -33q59 -30 82 -30h8q35 0 41 51l10 67h256l-20 -114q-27 -148 -82 -212.5t-160 -64.5h-10q-89 0 -174 53l-60 37q-47 29 -75 29h-9q-35 0 -41 -51l-10 -68h-256zM53 285l21 135q20 135 72.5 195.5
t150.5 60.5h10q51 0 89 -11t98 -44l59 -33q60 -31 82 -31h8q35 0 41 51l10 68h256l-20 -115q-27 -148 -82 -212t-160 -64h-10q-89 0 -174 53l-60 37q-45 28 -75 28h-9q-35 0 -41 -51l-10 -67h-256z" />
    <glyph glyph-name="notequal" unicode="&#x2260;" horiz-adv-x="1003" 
d="M922 332h-412l-47 -152h-252l47 152h-176v266h258l55 176h-313v266h397l49 160h252l-49 -160h191v-266h-275l-55 -176h330v-266z" />
    <glyph glyph-name="lessequal" unicode="&#x2264;" horiz-adv-x="1003" 
d="M82 553v434l840 193v-312l-560 -84v-28l560 -84v-312zM922 0h-840v266h840v-266z" />
    <glyph glyph-name="greaterequal" unicode="&#x2265;" horiz-adv-x="1003" 
d="M922 553l-840 -193v312l559 84v28l-559 84v312l840 -193v-434zM922 0h-840v266h840v-266z" />
    <glyph glyph-name="lozenge" unicode="&#x25ca;" horiz-adv-x="1267" 
d="M406 0l-388 717l388 717h456l387 -717l-387 -717h-456zM612 307h29l219 410l-219 409h-29l-219 -409z" />
    <glyph glyph-name="commaaccent" unicode="&#xf6c3;" horiz-adv-x="1024" 
d="M356 -133h312v-178l-133 -297h-179v475z" />
    <glyph glyph-name="i.dot" horiz-adv-x="579" 
d="M477 1475v-277h-375v277h375zM102 1106h375v-1106h-375v1106z" />
    <glyph glyph-name="caron.alt" horiz-adv-x="1024" 
d="M356 1434h312v-117l-72 -359h-240v476z" />
    <glyph glyph-name="revcommaaccent" horiz-adv-x="1024" 
d="M668 1241h-312v178l133 297h179v-475z" />
    </font>
</defs>
</svg>
