<?xml version="1.0" standalone="no"?>
<!DOCTYPE svg PUBLIC "-//W3C//DTD SVG 1.1//EN" "http://www.w3.org/Graphics/SVG/1.1/DTD/svg11.dtd" >
<svg xmlns="http://www.w3.org/2000/svg" xmlns:xlink="http://www.w3.org/1999/xlink" version="1.1">
<metadata>
Created by FontForge 20201107 at Sun Aug 18 23:41:12 2024
 By 
Created by gluk ( gluksza@wp.pl | www.glukfonts.pl ) with FontForge.
</metadata>
<defs>
<font id="Digitalt" horiz-adv-x="1105" >
  <font-face 
    font-family="Digitalt"
    font-weight="500"
    font-stretch="normal"
    units-per-em="2048"
    panose-1="2 0 6 3 0 0 0 0 0 0"
    ascent="1638"
    descent="-410"
    x-height="1233"
    cap-height="1233"
    bbox="-492 -410 1948 1610"
    underline-thickness="102"
    underline-position="-307"
    unicode-range="U+0020-2212"
  />
<missing-glyph horiz-adv-x="696" 
d="M61 1106h615v-983h-615v983zM183 790l123 -176l-123 -175l84 -59l102 145l101 -145l84 59l-123 175l123 176l-84 59l-101 -145l-102 145z" />
    <glyph glyph-name=".notdef" horiz-adv-x="696" 
d="M61 1106h615v-983h-615v983zM183 790l123 -176l-123 -175l84 -59l102 145l101 -145l84 59l-123 175l123 176l-84 59l-101 -145l-102 145z" />
    <glyph glyph-name=".null" horiz-adv-x="0" 
 />
    <glyph glyph-name="nonmarkingreturn" horiz-adv-x="682" 
 />
    <glyph glyph-name="space" unicode=" " horiz-adv-x="614" 
 />
    <glyph glyph-name="exclam" unicode="!" horiz-adv-x="524" 
d="M105 177q0 91 1 140q71 4 152 4q52 0 176 -4q8 0 14.5 -6t6.5 -14q1 -55 1 -157q0 -91 -1 -140q-55 -3 -112 -3q-85 0 -216 7q-8 1 -14.5 7t-6.5 14q-1 54 -1 152zM90 819q0 218 8 410q87 4 179 4q59 0 169 -4q8 0 14.5 -6.5t6.5 -14.5q8 -219 8 -389q0 -193 -12 -409
q-82 -5 -144 -5q-112 0 -200 5q-21 2 -21 20q-8 219 -8 389z" />
    <glyph glyph-name="quotedbl" unicode="&#x22;" horiz-adv-x="860" 
d="M61 1018q0 32 0.5 100.5t0.5 104.5q0 20 18 20q24 1 144 1q121 0 145 -1q8 0 14 -6t6 -14q0 -36 0.5 -100.5t0.5 -96.5q-7 -60 -39.5 -181.5t-47.5 -164.5q-54 -2 -85 -2q-45 0 -115 2q-6 31 -21 150.5t-21 187.5zM495 1018q0 32 0.5 100.5t0.5 104.5q0 20 18 20
q24 1 145 1q120 0 144 -1q8 0 14 -6t6 -14q0 -36 0.5 -100.5t0.5 -96.5q-7 -60 -39.5 -181.5t-47.5 -164.5q-54 -2 -85 -2q-45 0 -115 2q-6 31 -21 150.5t-21 187.5z" />
    <glyph glyph-name="numbersign" unicode="#" horiz-adv-x="1069" 
d="M56 394q0 26 3 118q29 1 171 3q0 14 -0.5 40t-0.5 39q0 18 0.5 59.5t0.5 64.5q-110 2 -138 3q-8 0 -14 6t-6 14q-2 66 -2 67q0 7 0.5 22.5t1.5 43.5t2 52q10 0 32 0.5t60 1t66 0.5q4 183 6 260q104 2 118 2q19 0 103 -2q8 0 14 -6.5t6 -14.5q0 -18 2 -100t3 -137h105h37
q1 27 2.5 123.5t2.5 134.5q104 2 118 2q19 0 103 -2q8 0 14 -6.5t6 -14.5q0 -15 2 -98.5t3 -140.5q27 0 63 -0.5t58.5 -1t33.5 -0.5q8 0 14.5 -6.5t6.5 -14.5q0 -118 -2 -188q-22 -1 -171 -3q0 -25 0.5 -65t0.5 -55q0 -11 -0.5 -38t-0.5 -42q24 0 55.5 -0.5t52 -1t30.5 -0.5
q8 0 14 -6t6 -14q0 -121 -2 -189q-8 0 -29 -0.5t-60.5 -1t-68.5 -0.5q-4 -187 -6 -260q-36 -2 -102 -2q-35 0 -119 2q-8 0 -14 6t-6 14q-1 45 -5 238q-22 0 -51 -0.5t-33 -0.5t-24 0.5t-34 0.5q-1 -32 -2.5 -126t-2.5 -132q-36 -2 -102 -2q-35 0 -119 2q-8 0 -14 6t-6 14
q-1 35 -3 118.5t-3 123.5q-80 1 -154 4q-8 0 -14.5 6.5t-6.5 14.5q-1 33 -1 66zM487 713v-119v-78q23 0 53 0.5t34 0.5t20.5 -0.5t28.5 -0.5v78v118h-67q-5 0 -28 0.5t-41 0.5z" />
    <glyph glyph-name="dollar" unicode="$" horiz-adv-x="962" 
d="M72 855q0 151 55.5 226.5t166.5 101.5q1 154 5 292q87 4 158 4q50 0 190 -4q8 0 14.5 -6.5t6.5 -14.5q0 -2 1.5 -100t2.5 -158q107 -10 241 -35l-42 -294q-182 74 -350 74q-124 0 -124 -66q0 -20 12.5 -35.5t42.5 -28.5t53.5 -20.5t72.5 -20.5q48 -13 73 -20.5t71.5 -25
t73 -33t61 -43t52.5 -57.5t31.5 -73t13.5 -93q0 -305 -265 -372q-1 -160 -5 -299q-87 -4 -158 -4q-50 0 -190 4q-8 0 -14.5 6.5t-6.5 14.5l-1 99q-2 99 -3 160q-115 4 -239 17l46 325q216 -65 344 -65q60 0 89 23.5t29 57.5q0 18 -10 33t-21.5 24t-39 19t-43.5 14.5
t-54 13.5q-42 10 -66.5 17t-65 22.5t-65.5 32t-55 44t-47 60.5t-29 80t-12 103z" />
    <glyph glyph-name="percent" unicode="%" horiz-adv-x="1548" 
d="M138 69q0 5 43 61q133 171 435.5 552t402.5 509h144q150 0 249 -15q13 -2 13 -14q0 -5 -6.5 -15t-29.5 -40t-35 -46q-189 -258 -420.5 -550t-390.5 -470q-9 0 -71 -0.5t-72 -0.5q-150 0 -249 15q-13 2 -13 14zM34 936q0 146 67 213.5t193 73.5q180 0 249.5 -60t69.5 -227
q0 -146 -65.5 -212.5t-190.5 -72.5q-181 0 -252 59.5t-71 225.5zM283 936q0 -42 9 -54t32 -12q22 0 31.5 12t9.5 54t-10.5 54t-35.5 12q-19 0 -27.5 -12.5t-8.5 -53.5zM976 293q0 146 67.5 213.5t193.5 73.5q180 0 249 -60t69 -227q0 -146 -65.5 -212.5t-190.5 -72.5
q-181 0 -252 59.5t-71 225.5zM1225 293q0 -42 9 -54t32 -12q22 0 31.5 12t9.5 54t-10.5 54t-35.5 12q-19 0 -27.5 -12.5t-8.5 -53.5z" />
    <glyph glyph-name="ampersand" unicode="&#x26;" horiz-adv-x="1146" 
d="M37 371q0 78 54.5 151t151.5 124q-98 95 -98 247q0 174 104 243.5t316 69.5q153 0 297 -35l-42 -300l-228 12q-105 0 -105 -66q0 -67 115 -67l-30 -135h8q44 77 105 137q89 2 214 2t236 -4q18 0 20 -21q2 -48 2 -114q0 -40 -2 -144q-94 0 -151 -1q26 -92 26 -167
q0 -313 -463 -313q-68 0 -121 3.5t-110 13.5t-99.5 27t-81.5 46t-64 68t-39.5 95.5t-14.5 127.5zM457 408q0 -40 24 -58t80 -18q55 0 79 15t24 46q0 27 -4 79q-80 4 -121 7q-38 0 -60 -19.5t-22 -51.5z" />
    <glyph glyph-name="quotesingle" unicode="'" horiz-adv-x="425" 
d="M61 1018q0 32 0.5 100.5t0.5 104.5q0 20 18 20q24 1 144 1q121 0 145 -1q8 0 14 -6t6 -14q0 -36 0.5 -100.5t0.5 -96.5q-7 -60 -39.5 -181.5t-47.5 -164.5q-54 -2 -85 -2q-45 0 -115 2q-6 31 -21 150.5t-21 187.5z" />
    <glyph glyph-name="parenleft" unicode="(" horiz-adv-x="593" 
d="M74 615q0 215 45.5 414t136.5 462l324 -42q-81 -461 -81 -834q0 -372 81 -833l-324 -42q-91 263 -136.5 461.5t-45.5 413.5z" />
    <glyph glyph-name="parenright" unicode=")" horiz-adv-x="593" 
d="M55 -218q81 461 81 833q0 373 -81 834l324 42q91 -263 136.5 -462t45.5 -414t-45.5 -413.5t-136.5 -461.5z" />
    <glyph glyph-name="asterisk" unicode="*" horiz-adv-x="778" 
d="M33 967q0 39 24.5 99.5t44.5 54.5l124 -41q46 -21 134 -90q-41 111 -45 155v131q0 14 30.5 20.5t64.5 6.5q33 0 63.5 -7.5t30.5 -19.5v-131q-4 -44 -45 -155q88 69 134 90l124 41q14 5 30.5 -24.5t27 -67.5t10.5 -62q0 -23 -9 -26l-125 -40q-41 -9 -161 -6
q95 -63 127 -99l77 -106q15 -20 -47 -67.5t-94 -47.5q-8 0 -11 5l-77 106q-24 42 -55 151q-31 -109 -55 -151l-77 -106q-3 -5 -12 -5q-31 0 -93 48t-48 67l77 106q32 36 127 99q-120 -3 -161 6l-124 40q-11 3 -11 26z" />
    <glyph glyph-name="plus" unicode="+" horiz-adv-x="1019" 
d="M58 596q0 45 3 162q13 1 296 3q3 165 8 324q96 4 143 4q56 0 168 -4q8 0 14 -6t6 -14q1 -25 3.5 -132.5t3.5 -170.5q238 -2 276 -4q18 0 20 -21q2 -38 2 -127q0 -69 -2 -159q-57 -2 -296 -4q-1 -62 -4 -172.5t-3 -131.5q-72 -3 -143 -3q-84 0 -168 3q-8 0 -14 6.5
t-6 14.5q-3 65 -7 285q-133 2 -276 6q-8 0 -14.5 6t-6.5 14q-3 77 -3 121z" />
    <glyph glyph-name="comma" unicode="," horiz-adv-x="430" 
d="M60 177q0 91 1 140q71 4 152 4q52 0 176 -4q8 0 14.5 -6t6.5 -14q0 -36 0.5 -100.5t0.5 -96.5q-7 -61 -38 -184t-45 -162q-87 -4 -185 -4q0 72 8 252q-11 0 -69 2q-8 1 -14.5 7t-6.5 14q-1 54 -1 152z" />
    <glyph glyph-name="hyphen" unicode="-" horiz-adv-x="856" 
d="M59 617q0 82 2 149q108 5 454 5q125 0 300 -5q8 0 14.5 -6.5t6.5 -14.5q2 -47 2 -174q0 -41 -2 -129q-90 -4 -351 -4q-123 0 -403 8q-8 0 -14.5 6.5t-6.5 14.5q-2 106 -2 150z" />
    <glyph glyph-name="period" unicode="." horiz-adv-x="430" 
d="M60 177q0 91 1 140q71 4 152 4q52 0 176 -4q8 0 14.5 -6t6.5 -14q1 -55 1 -157q0 -91 -1 -140q-55 -3 -112 -3q-85 0 -216 7q-8 1 -14.5 7t-6.5 14q-1 54 -1 152z" />
    <glyph glyph-name="slash" unicode="/" horiz-adv-x="765" 
d="M-10 -88q0 2 18 71q116 425 181 640q134 442 237 708q110 5 181 5q31 0 194 -5q14 0 14 -14q0 -7 -20 -78q-78 -293 -177 -631q-132 -448 -233 -710q-110 -5 -181 -5q-32 0 -200 5q-14 0 -14 14z" />
    <glyph glyph-name="zero" unicode="0" horiz-adv-x="1085" 
d="M53 615q0 297 121.5 457t341.5 171q150 0 252 -31.5t172 -105t101.5 -193.5t31.5 -298q0 -298 -118 -457t-337 -170q-150 0 -253 31.5t-174.5 104.5t-104.5 193.5t-33 297.5zM477 615q0 -118 11 -178.5t27.5 -76.5t47.5 -16t47.5 16t27.5 76.5t11 178.5q0 88 -6 144
t-19.5 82.5t-28.5 35t-38 8.5q-31 0 -46 -16t-24.5 -75.5t-9.5 -178.5z" />
    <glyph glyph-name="one" unicode="1" horiz-adv-x="589" 
d="M41 903q0 151 6 289q160 34 263 43q68 0 198 -4q8 0 14 -6.5t6 -14.5q9 -434 9 -596q0 -245 -9 -614q-108 -5 -179 -5q-35 0 -210 5q-8 0 -14 6t-6 14q-8 386 -8 594q0 82 2 292z" />
    <glyph glyph-name="two" unicode="2" horiz-adv-x="950" 
d="M82 339q0 59 13 111t31.5 90.5t50.5 74.5t58.5 58.5t68.5 47.5t66 37t65 31q90 43 110 62q16 15 16 32q0 28 -33 43t-84 15q-127 0 -287 -83l-46 340q190 45 313 45q69 0 117 -2t104 -10.5t93.5 -23t75 -41t59.5 -63.5t35.5 -91.5t13.5 -124.5q0 -67 -19.5 -124
t-45.5 -93.5t-71 -72.5t-75 -53.5t-80 -43.5q-91 -48 -114 -70q-23 -23 -23 -47v-34h21q199 0 374 -5q8 0 14 -6t6 -14q2 -122 2 -177q0 -45 -2 -151q-108 -5 -363 -5q-120 0 -435 9q-8 0 -14.5 6t-6.5 14q-8 200 -8 319z" />
    <glyph glyph-name="three" unicode="3" horiz-adv-x="892" 
d="M49 1208q137 35 332 35q111 0 190.5 -17t140 -56.5t90 -110t29.5 -172.5q0 -162 -118 -264q86 -47 133 -113t47 -139q0 -95 -26 -164.5t-69 -110.5t-109.5 -65.5t-135 -32.5t-158.5 -8q-169 0 -344 28l37 314h289q56 0 80 18t24 58q0 36 -24 55.5t-66 19.5h-213v285h174
q117 0 117 74q0 76 -111 76h-272z" />
    <glyph glyph-name="four" unicode="4" horiz-adv-x="999" 
d="M27 297q0 37 2 97q63 202 158 472t141 367q156 3 276 3q114 0 314 -7q8 0 14 -6.5t6 -14.5q8 -386 8 -594q0 -286 -8 -614q-72 -4 -164 -4q-64 0 -192 4q-8 0 -14.5 6t-6.5 14q-2 114 -2 173h-152q-218 0 -358 4q-8 0 -14 6.5t-6 14.5q-2 50 -2 79zM405 513
q23 0 79.5 -1.5t76.5 -1.5v104q0 97 9 351q-88 -268 -165 -452z" />
    <glyph glyph-name="five" unicode="5" horiz-adv-x="933" 
d="M82 18l37 314h299q55 0 79.5 20.5t24.5 61.5q0 36 -24.5 59t-65.5 23h-321q-20 0 -21 12q-4 57 -4 119q0 274 8 602q87 4 392 4q234 0 374 -4q8 0 14.5 -6.5t6.5 -14.5q1 -62 1 -177q0 -97 -1 -150q-105 -5 -418 -5v-106q34 2 49 2q107 0 190 -32t132.5 -88t74.5 -126
t25 -151q0 -95 -26 -165t-69 -111.5t-109.5 -66.5t-135 -33.5t-158.5 -8.5q-179 0 -354 28z" />
    <glyph glyph-name="six" unicode="6" horiz-adv-x="1024" 
d="M476 426q0 -40 24 -69t69 -29q34 0 54 27.5t20 71.5q0 39 -24.5 67.5t-65.5 28.5q-34 0 -55.5 -29.5t-21.5 -67.5zM53 615q0 142 25.5 250t71.5 179.5t114.5 116t149.5 63.5t182 19q144 0 362 -35l-43 -323h-360q-32 0 -52.5 -19t-30.5 -77q72 14 151 14q193 0 291 -105
t98 -267q0 -223 -107.5 -333t-331.5 -110q-91 0 -163.5 15.5t-141 58t-114.5 111t-73.5 181t-27.5 261.5z" />
    <glyph glyph-name="seven" unicode="7" horiz-adv-x="921" 
d="M27 1073q0 46 2 156q87 4 531 4q218 0 358 -4q8 0 14 -6.5t6 -14.5q1 -35 1 -99q0 -68 -1 -105q-4 -8 -62.5 -114t-104.5 -195.5t-89 -200t-43 -170.5l-2 -154q0 -106 2 -170q-118 -5 -203 -5q-97 0 -235 5q-8 0 -14.5 6t-6.5 14v236q43 151 118 296.5t189 324.5
q-354 5 -438 8q-8 0 -14 6t-6 14q-2 118 -2 168z" />
    <glyph glyph-name="eight" unicode="8" horiz-adv-x="1073" 
d="M41 354q0 75 48 149.5t132 119.5q-119 103 -119 264q0 103 30 173.5t91.5 110t141.5 56t192 16.5t192 -16.5t141.5 -56t91.5 -110t30 -173.5q0 -161 -119 -264q84 -45 132 -119.5t48 -149.5q0 -70 -14 -125.5t-37.5 -94t-61.5 -66.5t-78 -44t-97 -25t-108 -12t-119 -3
t-119.5 3t-108 12t-97 25t-79 44t-62 66.5t-37.5 94t-14 125.5zM446 387q0 -88 111 -88t111 88q0 41 -30 62.5t-80 21.5t-81 -21.5t-31 -62.5zM461 860q0 -35 28 -57t69 -22t68 22t27 57q0 39 -26.5 60.5t-69.5 21.5t-69.5 -21.5t-26.5 -60.5z" />
    <glyph glyph-name="nine" unicode="9" horiz-adv-x="1024" 
d="M422 804q0 -39 24.5 -67.5t65.5 -28.5q34 0 55.5 29t21.5 67q0 40 -24 69.5t-69 29.5q-34 0 -54 -27.5t-20 -71.5zM53 800q0 223 107.5 333t331.5 110q91 0 163.5 -15.5t141 -58t114.5 -111t73.5 -181t27.5 -261.5q0 -142 -25.5 -250t-71.5 -179.5t-114.5 -116
t-149.5 -63.5t-182 -19q-145 0 -363 35l44 323h360q32 0 52.5 19t30.5 77q-72 -14 -151 -14q-193 0 -291 105t-98 267z" />
    <glyph glyph-name="colon" unicode=":" horiz-adv-x="430" 
d="M60 177q0 91 1 140q71 4 152 4q52 0 176 -4q8 0 14.5 -6t6.5 -14q1 -55 1 -157q0 -91 -1 -140q-55 -3 -112 -3q-85 0 -216 7q-8 1 -14.5 7t-6.5 14q-1 54 -1 152zM60 791q0 92 1 141q53 3 152 3q83 0 176 -3q8 0 14.5 -6.5t6.5 -14.5q1 -55 1 -157q0 -91 -1 -140
q-37 -2 -112 -2q-103 0 -216 6q-8 1 -14.5 7t-6.5 14q-1 54 -1 152z" />
    <glyph glyph-name="semicolon" unicode=";" horiz-adv-x="430" 
d="M60 791q0 92 1 141q53 3 152 3q83 0 176 -3q8 0 14.5 -6.5t6.5 -14.5q1 -55 1 -157q0 -91 -1 -140q-37 -2 -112 -2q-103 0 -216 6q-8 1 -14.5 7t-6.5 14q-1 54 -1 152zM60 177q0 91 1 140q71 4 152 4q52 0 176 -4q8 0 14.5 -6t6.5 -14q0 -36 0.5 -100.5t0.5 -96.5
q-7 -61 -38 -184t-45 -162q-87 -4 -185 -4q0 72 8 252q-11 0 -69 2q-8 1 -14.5 7t-6.5 14q-1 54 -1 152z" />
    <glyph glyph-name="less" unicode="&#x3c;" horiz-adv-x="835" 
d="M47 649q0 38 4 122q109 57 416 200q192 88 293 131q8 4 15.5 1t11.5 -11q12 -25 20 -106.5t8 -177.5q-19 -10 -250 -118q-132 -59 -180 -75q42 -15 207 -89q126 -58 202 -96q20 -10 20 -31q0 -49 -6 -148.5t-15 -140.5q-77 32 -353 161q-151 70 -369 182q-12 6 -14 25
q-10 80 -10 171z" />
    <glyph glyph-name="equal" unicode="=" horiz-adv-x="909" 
d="M71 839q0 35 3 136q87 4 461 4q181 0 321 -4q8 0 14 -6.5t7 -14.5q2 -37 2 -145q0 -31 -2 -121q-90 -4 -372 -4q-131 0 -411 8q-8 0 -14 6.5t-6 14.5q0 26 -1.5 65.5t-1.5 60.5zM71 405q0 35 3 136q87 4 461 4q181 0 321 -4q8 0 14 -6.5t7 -14.5q2 -40 2 -113
q0 -35 -2 -153q-112 -5 -372 -5q-96 0 -411 9q-8 0 -14 6.5t-6 14.5q0 26 -1.5 65.5t-1.5 60.5z" />
    <glyph glyph-name="greater" unicode="&#x3e;" horiz-adv-x="835" 
d="M62 422q36 19 250 119q124 56 180 74q-42 15 -207 89q-126 58 -202 96q-20 10 -20 31q0 49 6 148.5t15 140.5q77 -32 353 -161q169 -78 369 -181q12 -6 14 -25q10 -80 10 -172q0 -38 -4 -122q-89 -46 -416 -199q-218 -100 -293 -132q-8 -4 -15.5 -1t-11.5 11
q-12 25 -20 106.5t-8 177.5z" />
    <glyph glyph-name="question" unicode="?" horiz-adv-x="815" 
d="M197 177q0 42 2 140q71 4 151 4q52 0 176 -4q8 0 14.5 -6t6.5 -14q2 -110 2 -157q0 -42 -2 -140q-55 -3 -111 -3q-86 0 -217 7q-20 2 -20 21q-2 108 -2 152zM29 1198q184 44 375 44q96 0 168 -14.5t129.5 -47.5t87.5 -93t30 -145q0 -139 -125 -269q-34 -36 -51 -55.5
t-41.5 -55t-35 -72.5t-11.5 -80q-78 -5 -154 -5q-43 0 -190 5q-8 0 -14.5 6t-6.5 14q0 59 15 111.5t38.5 89.5t52 69t57.5 57t52.5 46.5t38.5 43.5t15 43q0 60 -84 60q-69 0 -169.5 -35t-130.5 -57z" />
    <glyph glyph-name="at" unicode="@" horiz-adv-x="1437" 
d="M911 608q0 -87 14 -109.5t68 -22.5h38v256h-25q-45 0 -70 -25t-25 -99zM57 614q0 212 30 366.5t83 250.5t137 153.5t178.5 78.5t222.5 21q313 0 601 -48q34 -5 56.5 -26.5t22.5 -51.5q4 -346 4 -626q0 -167 -4 -535q-201 -31 -359 -31q-74 0 -126 3.5t-107.5 13.5
t-92 29.5t-70.5 51.5t-53.5 78t-31 111t-11.5 149q0 103 22 178.5t61 123.5t102 76t135.5 39t170.5 11q0 23 -0.5 70.5t-1.5 70.5h-342q-32 0 -55.5 -4.5t-50 -18.5t-45.5 -38t-37 -66t-29 -100t-17.5 -141.5t-6.5 -188.5q0 -144 19.5 -250t48.5 -163.5t72.5 -91t80.5 -42.5
t85 -9h564l38 -292q-261 -41 -481 -41q-152 0 -271 25t-223.5 87t-172.5 161.5t-107 254.5t-39 361z" />
    <glyph glyph-name="A" unicode="A" horiz-adv-x="1064" 
d="M20 17q0 2 2 13t4.5 27t3.5 24q21 131 51.5 291t53.5 275.5t61.5 302.5t57.5 279q91 4 281 4q164 0 293 -4q8 0 15 -6.5t9 -14.5q22 -114 76 -373t92 -458t65 -377q-107 -5 -178 -5q-113 0 -201 5q-21 2 -24 20q-26 136 -37 205h-190q-17 -114 -39 -225q-110 -5 -170 -5
q-36 0 -209 5q-17 0 -17 17zM490 492h114q-13 89 -35.5 255.5l-27.5 203.5q-11 -84 -27.5 -240t-23.5 -219z" />
    <glyph glyph-name="B" unicode="B" horiz-adv-x="1056" 
d="M500 780h16q50 0 83.5 22.5t33.5 64.5q0 39 -31.5 60.5t-74.5 21.5q-5 0 -14.5 -0.5t-10.5 -0.5q-2 -106 -2 -168zM502 476q0 -27 1.5 -82t2.5 -83h34q107 0 107 83q0 36 -26 59t-66 23h-53zM98 641q0 103 2 284t2 283q228 35 400 35q70 0 118 -2t104 -10.5t92.5 -23
t73.5 -41t58 -64t34 -91.5t13 -124q0 -162 -118 -264q86 -47 133 -113t47 -139q0 -95 -26 -164.5t-69 -110.5t-109.5 -65.5t-135 -32.5t-158.5 -8q-226 0 -436 22q-21 5 -21 25q0 95 -2 297.5t-2 306.5z" />
    <glyph glyph-name="C" unicode="C" horiz-adv-x="849" 
d="M53 615q0 142 26 250t72.5 179.5t117.5 116t155 63.5t192 19q90 0 234 -35l-44 -321l-189 13q-31 2 -53.5 -9t-42 -40t-30 -88.5t-10.5 -147.5q0 -118 17.5 -183t45.5 -85t73 -17l189 12l42 -324q-122 -22 -236 -22q-91 0 -161.5 10.5t-136 36t-111.5 71t-81 113t-52 165
t-17 223.5z" />
    <glyph glyph-name="D" unicode="D" horiz-adv-x="1077" 
d="M504 614q0 -142 3 -270h35q24 0 39 8.5t29 35t20.5 82.5t6.5 145q0 88 -6.5 144t-20.5 83t-29 35.5t-39 8.5h-34q-4 -170 -4 -272zM98 614q0 102 2 297t2 297q228 35 400 35q108 0 192 -19t155 -63.5t117.5 -116t72.5 -179.5t26 -250q0 -126 -17 -223.5t-52 -165
t-81 -113t-111.5 -71t-136 -36t-161.5 -10.5q-101 0 -383 24q-8 0 -14.5 6.5t-6.5 14.5q0 95 -2 282t-2 291z" />
    <glyph glyph-name="E" unicode="E" horiz-adv-x="929" 
d="M94 614q0 287 8 615q87 4 425 4q218 0 358 -4q8 0 14 -6.5t6 -14.5q2 -124 2 -177q0 -44 -2 -150q-87 -4 -325 -4h-78q0 -17 -1 -52.5t-1 -54.5q206 -3 245 -4q8 0 14.5 -6.5t6.5 -14.5q2 -112 2 -153q0 -39 -2 -137h-266q0 -18 1 -54t1 -53h24q223 0 363 -4q8 0 14 -6
t6 -14q2 -124 2 -177q0 -45 -2 -151q-108 -5 -351 -5q-120 0 -435 9q-8 0 -14.5 6t-6.5 14q-8 386 -8 594z" />
    <glyph glyph-name="F" unicode="F" horiz-adv-x="860" 
d="M94 614q0 287 8 615q87 4 425 4q189 0 329 -4q8 0 14.5 -6.5t6.5 -14.5q1 -62 1 -177q0 -97 -1 -150q-108 -5 -298 -5q-5 0 -28 0.5t-41 0.5q-2 -114 -2 -177q189 -2 229 -4q8 0 14.5 -6t6.5 -14q2 -124 2 -177q0 -45 -2 -151q-75 -4 -248 -4q2 -230 2 -344
q-108 -5 -179 -5q-35 0 -210 5q-8 0 -14.5 6t-6.5 14q-8 386 -8 594z" />
    <glyph glyph-name="G" unicode="G" horiz-adv-x="1028" 
d="M53 615q0 142 26 250t72.5 179.5t117.5 116t155 63.5t192 19q149 0 367 -35l-43 -323h-365q-23 0 -38 -8.5t-29 -35t-20.5 -82.5t-6.5 -144t8 -144.5t24 -83t32 -35t41 -8.5h41q0 72 -9 311q75 4 162 4q50 0 178 -4q8 0 14.5 -6t6.5 -14q8 -190 8 -287q0 -151 -8 -313
q-88 -16 -129 -22t-104 -11.5t-134 -5.5q-91 0 -161.5 10.5t-136 36t-111.5 71t-81 113t-52 165t-17 223.5z" />
    <glyph glyph-name="H" unicode="H" horiz-adv-x="1126" 
d="M94 614q0 287 8 615q87 4 179 4q71 0 211 -4q8 0 14 -6.5t6 -14.5q4 -188 4 -430h135q0 301 4 451q87 4 179 4q70 0 210 -4q8 0 14.5 -6.5t6.5 -14.5q8 -386 8 -594q0 -286 -8 -614q-108 -5 -179 -5q-35 0 -210 5q-8 0 -14.5 6t-6.5 14q-4 179 -4 410h-135
q0 -287 -4 -430q-108 -5 -179 -5q-35 0 -210 5q-8 0 -14.5 6t-6.5 14q-8 386 -8 594z" />
    <glyph glyph-name="I" unicode="I" horiz-adv-x="573" 
d="M94 614q0 287 8 615q87 4 179 4q71 0 211 -4q8 0 14 -6.5t6 -14.5q8 -386 8 -594q0 -286 -8 -614q-108 -5 -179 -5q-35 0 -210 5q-8 0 -14.5 6t-6.5 14q-8 386 -8 594z" />
    <glyph glyph-name="J" unicode="J" horiz-adv-x="888" 
d="M66 -8l15 336l203 -17q35 -3 57 2.5t42.5 26.5t29.5 66.5t9 119.5q0 103 2 351q-206 4 -311 8q-8 0 -14.5 6t-6.5 14q-2 118 -2 168q0 46 2 156q87 4 449 4q138 0 278 -4q8 0 14.5 -6.5t6.5 -14.5q8 -386 8 -671q0 -139 -26.5 -240.5t-72 -164.5t-118.5 -101t-154.5 -52
t-191.5 -14q-21 0 -41 1t-34 2.5t-36.5 4.5t-32 5t-37.5 7t-38 7z" />
    <glyph glyph-name="K" unicode="K" horiz-adv-x="1091" 
d="M94 614q0 287 8 615q87 4 179 4q71 0 211 -4q8 0 14 -6.5t6 -14.5q1 -24 1 -72q0 -31 -8 -338q7 0 22 0.5t23 0.5q21 63 69.5 204t71.5 210q6 19 31 21q90 5 165 5q109 0 204 -11q-62 -267 -173 -486q-59 -102 -160 -108v-3q106 -6 166 -109q92 -182 171 -522
q-95 -11 -214 -11q-75 0 -165 5q-25 2 -31 20q-46 139 -142 487h-40q1 -28 5.5 -180t4.5 -233q0 -59 -1 -88q-108 -5 -179 -5q-35 0 -210 5q-8 0 -14.5 6t-6.5 14q-8 386 -8 594z" />
    <glyph glyph-name="L" unicode="L" horiz-adv-x="839" 
d="M94 614q0 287 8 615q87 4 179 4q71 0 211 -4q8 0 14 -6.5t6 -14.5q8 -386 8 -594q0 -91 -2 -265h9q138 0 313 -5q8 0 14 -6t6 -14q2 -124 2 -177q0 -45 -2 -151q-108 -5 -302 -5q-120 0 -435 9q-8 0 -14.5 6t-6.5 14q-8 386 -8 594z" />
    <glyph glyph-name="M" unicode="M" horiz-adv-x="1425" 
d="M94 614q0 287 8 615q87 4 169 4q97 0 178 -4q14 -1 22 -21l257 -524l257 524q15 19 25 20q63 5 144 5q75 0 189 -4q8 0 14.5 -6.5t6.5 -14.5q8 -386 8 -594q0 -286 -8 -614q-98 -5 -159 -5q-14 0 -189 5q-8 0 -14.5 6t-6.5 14q-12 538 -12 559l-233 -477l-23 -4l-20 4
l-223 454l8 -556q-108 -5 -169 -5q-25 0 -200 5q-8 0 -14.5 6t-6.5 14q-8 386 -8 594z" />
    <glyph glyph-name="N" unicode="N" horiz-adv-x="1126" 
d="M94 614q0 287 8 615q87 4 169 4q91 0 178 -4q14 0 22 -21l212 -524l-7 545q87 4 179 4q108 0 189 -4q8 0 14.5 -6.5t6.5 -14.5q8 -386 8 -594q0 -286 -8 -614q-95 -5 -159 -5q-77 0 -187 5q-16 1 -23 20l-212 525l8 -545q-108 -5 -169 -5q-35 0 -200 5q-8 0 -14.5 6
t-6.5 14q-8 386 -8 594z" />
    <glyph glyph-name="O" unicode="O" 
d="M53 615q0 297 123 457t344 171q150 0 255 -31.5t178 -105t107 -194t34 -297.5q0 -296 -125 -456t-346 -171q-150 0 -254 31.5t-176.5 104t-106 193.5t-33.5 298zM481 615q0 -89 6.5 -145t20.5 -82.5t29 -35t38 -8.5q31 0 48.5 15.5t30 77t12.5 178.5q0 88 -7 144
t-21.5 82.5t-29.5 35t-39 8.5q-31 0 -48 -15.5t-28.5 -76.5t-11.5 -178z" />
    <glyph glyph-name="P" unicode="P" horiz-adv-x="1056" 
d="M98 614q0 103 2 298.5t2 295.5q228 35 400 35q82 0 140.5 -3.5t120.5 -15.5t103.5 -33t80.5 -57t61.5 -87t35.5 -123.5t13 -165.5q0 -115 -25 -198.5t-69 -136.5t-114.5 -84.5t-151 -43.5t-189.5 -12q4 -188 4 -283q-80 -4 -180 -4q-69 0 -209 4q-8 0 -14.5 6t-6.5 14
q0 95 -2 292.5t-2 301.5zM504 618h32q51 0 78 26t27 108q0 95 -14.5 118.5t-75.5 23.5h-47v-276z" />
    <glyph glyph-name="Q" unicode="Q" horiz-adv-x="1089" 
d="M481 636q0 -72 4 -120t10 -74t18.5 -39t23 -15.5t30.5 -2.5q25 0 37 5t24 28.5t16.5 75.5t4.5 142q0 107 -11.5 163.5t-28.5 71t-48 14.5t-46 -15t-24.5 -70t-9.5 -164zM53 636q0 283 120 439.5t339 167.5q144 0 246.5 -31.5t175.5 -102t108 -187.5t35 -286
q0 -294 -119.5 -444.5t-340.5 -162.5v-4v-1q0 -17 33.5 -30t90.5 -13q23 0 48 3l180 16l41 -315q-149 -27 -281 -27q-105 0 -199 39.5t-150 104t-56 136.5q0 62 45 119q-161 46 -238.5 182t-77.5 397z" />
    <glyph glyph-name="R" unicode="R" horiz-adv-x="1077" 
d="M98 641q0 103 2 284t2 283q228 35 420 35q75 0 125.5 -2t109 -10.5t96.5 -23t76 -41t59.5 -64t34.5 -91.5t13 -124q0 -111 -57 -195.5t-160 -132.5q70 -24 114 -98q101 -200 162 -461q-95 -11 -214 -11q-75 0 -165 5q-25 2 -31 20q-95 290 -155 490h-27q1 -73 4.5 -245
t4.5 -259q-80 -4 -180 -4q-69 0 -209 4q-9 0 -15 6t-6 14q0 95 -2 306t-2 315zM502 756h35q49 0 78.5 24t29.5 64q0 50 -20.5 74.5t-72.5 24.5q-19 0 -49 -2q0 -29 -0.5 -90t-0.5 -95z" />
    <glyph glyph-name="S" unicode="S" horiz-adv-x="1007" 
d="M70 12l50 371q229 -72 363 -72q53 0 81 22.5t28 50.5q0 10 -4 18.5t-14.5 16t-20 12.5t-28.5 11.5t-32 10.5t-38 11q-36 10 -54.5 15.5t-55.5 19t-58.5 25t-54 31.5t-52 40.5t-42.5 51.5t-36 65t-21.5 79t-8.5 96q0 70 13 124t33.5 91.5t56.5 64t72.5 41t91.5 23
t102 10.5t116 2q167 0 395 -45l-46 -340q-78 35 -178.5 59t-190.5 24q-48 0 -75.5 -15t-27.5 -43q0 -13 9.5 -23.5t34.5 -21t43 -16t60 -18.5q50 -15 77.5 -24t79 -30t82 -40t70 -52t61.5 -69t37.5 -87t15.5 -110q0 -95 -26.5 -166.5t-70.5 -116t-110 -71.5t-136.5 -37.5
t-158.5 -10.5q-222 0 -432 22z" />
    <glyph glyph-name="T" unicode="T" horiz-adv-x="942" 
d="M31 1073q0 46 2 156q87 4 474 4q283 0 423 -4q8 0 14 -6.5t6 -14.5q2 -116 2 -174q0 -47 -2 -153q-34 -2 -248 -4q3 -249 3 -263q0 -245 -9 -614q-108 -5 -179 -5q-35 0 -210 5q-8 0 -14 6t-6 14q-8 386 -8 594q0 180 1 265q-24 1 -227 6q-8 0 -14 6t-6 14q-2 118 -2 168
z" />
    <glyph glyph-name="U" unicode="U" horiz-adv-x="1081" 
d="M55 607q0 294 8 622q87 4 179 4q71 0 211 -4q8 0 14 -6.5t6 -14.5q8 -386 8 -663q0 -89 9.5 -135t26 -60t46.5 -14t45.5 14t24 59.5t8.5 135.5q0 356 8 684q87 4 179 4q70 0 210 -4q8 0 14.5 -6.5t6.5 -14.5q8 -386 8 -601q0 -131 -20 -233.5t-57.5 -174.5t-94 -119.5
t-126.5 -71.5t-159 -28q-117 0 -200.5 16t-153.5 56.5t-112.5 111t-65.5 180.5t-23 263z" />
    <glyph glyph-name="V" unicode="V" horiz-adv-x="1034" 
d="M12 1229q85 4 186 4q131 0 201 -4q8 -1 15.5 -7t8.5 -14q48 -242 122 -775q75 553 124 796q88 4 159 4q80 0 218 -4q17 0 17 -17q0 -4 -2 -15t-4.5 -26t-3.5 -23q-79 -493 -232 -1148q-107 -5 -261 -5q-125 0 -282 5q-19 0 -24 20q-174 758 -242 1209z" />
    <glyph glyph-name="W" unicode="W" horiz-adv-x="1396" 
d="M12 1229q85 4 186 4q131 0 201 -4q8 -1 15.5 -7t8.5 -14q40 -202 80 -515q78 321 130 472l96 4l94 -4q52 -145 130 -464q46 352 74 528q88 4 164 4q79 0 217 -4q17 0 17 -18q0 -1 -9 -64q-83 -563 -233 -1147q-132 -6 -300 -6q-21 73 -75.5 239.5t-79.5 257.5
q-24 -83 -81.5 -248t-81.5 -249q-77 0 -287 6q-19 0 -24 20q-167 653 -242 1209z" />
    <glyph glyph-name="X" unicode="X" horiz-adv-x="1085" 
d="M39 0q13 62 23.5 107.5t31.5 124.5t45 140t54.5 125t70 109t83.5 66v3q-45 14 -96 81t-91.5 155t-71.5 172t-45 145q95 11 204 11q75 0 165 -5q25 -2 31 -21q24 -71 66.5 -191.5t52.5 -148.5q110 302 123 340q6 19 31 21q90 5 165 5q109 0 204 -11q-14 -62 -44 -146
t-70.5 -172.5t-92 -155.5t-97.5 -79v-3q35 -21 67 -56.5t55.5 -71t47.5 -90.5t38.5 -92.5t33 -101.5t26 -93.5t22.5 -91.5t18 -75q-95 -11 -214 -11q-75 0 -165 5q-25 2 -31 20q-42 127 -115 415q-73 -288 -115 -415q-6 -18 -31 -20q-90 -5 -165 -5q-119 0 -214 11z" />
    <glyph glyph-name="Y" unicode="Y" horiz-adv-x="1075" 
d="M16 1221q103 12 215 12q74 0 164 -5q26 -2 32 -21q54 -165 131 -446q77 281 131 446q6 19 31 21q90 5 165 5q111 0 214 -12q-79 -340 -171 -522q-65 -111 -165 -193q4 -339 5 -506q-108 -5 -183 -5q-39 0 -214 5q-8 0 -14.5 6t-6.5 14q0 237 3 486q-101 83 -166 193
q-92 182 -171 522z" />
    <glyph glyph-name="Z" unicode="Z" horiz-adv-x="909" 
d="M59 1073q0 46 2 156q87 4 446 4q217 0 357 -4q8 0 14.5 -6.5t6.5 -14.5v-204q-203 -397 -362 -655q183 0 345 -5q8 0 14.5 -6t6.5 -14q2 -122 2 -177q0 -45 -2 -151q-108 -5 -351 -5q-141 0 -456 9q-8 0 -14.5 6t-6.5 14q-1 44 -1 126q0 75 1 116q47 94 100.5 187
t143.5 240.5t114 188.5q-277 4 -337 7q-8 0 -14.5 6t-6.5 14q-2 118 -2 168z" />
    <glyph glyph-name="bracketleft" unicode="[" horiz-adv-x="696" 
d="M94 614q0 416 7 797q0 40 1 64q87 4 298 4q140 0 280 -4q8 0 14 -6.5t6 -14.5q2 -52 2 -164q0 -63 -2 -139q-69 -2 -216 -4q3 -271 3 -533q0 -258 -3 -536q153 -2 196 -4q8 0 14 -6.5t6 -14.5q2 -58 2 -142q0 -57 -2 -161q-90 -4 -330 -4q-84 0 -247 8q-8 1 -14.5 7
t-6.5 14q-8 386 -8 839z" />
    <glyph glyph-name="backslash" unicode="\" horiz-adv-x="765" 
d="M-10 1317q0 14 14 14q168 5 200 5q71 0 181 -5q101 -262 233 -710q97 -328 183 -653q14 -50 14 -56q0 -14 -14 -14q-162 -5 -194 -5q-71 0 -181 5q-103 266 -237 708q-69 230 -188 666q-11 38 -11 45z" />
    <glyph glyph-name="bracketright" unicode="]" horiz-adv-x="696" 
d="M35 1328q0 27 2 147q87 4 310 4q127 0 267 -4q8 0 14.5 -6.5t6.5 -14.5q8 -386 8 -840q0 -536 -8 -864q-90 -4 -318 -4q-92 0 -260 8q-20 2 -20 21v299l216 3q-3 273 -3 537q0 258 3 534q-102 3 -196 7q-8 0 -14 6.5t-6 14.5q-2 116 -2 152z" />
    <glyph glyph-name="asciicircum" unicode="^" horiz-adv-x="929" 
d="M57 788q67 129 278 416q17 21 31 22q105 5 146 5q42 0 99 -3q57 -65 162.5 -198t165.5 -216q6 -8 4 -14t-10 -6q-120 -4 -164 -4q-74 0 -147 4q-62 85 -127 210q-42 -91 -100 -196q-11 -20 -31 -20q-126 -4 -167 -4q-71 0 -140 4z" />
    <glyph glyph-name="underscore" unicode="_" horiz-adv-x="815" 
d="M39 -169q0 82 2 149q87 4 453 4q161 0 301 -4q8 0 14 -6.5t6 -14.5q2 -47 2 -174q0 -41 -2 -129q-112 -5 -351 -5q-88 0 -403 9q-8 0 -14 6.5t-6 14.5q-2 106 -2 150z" />
    <glyph glyph-name="grave" unicode="`" horiz-adv-x="614" 
d="M69 1321q69 4 150 4q52 0 178 -4q20 0 31 -21q10 -19 68 -127t89 -169q-173 0 -330 8q-21 2 -31 20q-104 187 -155 289z" />
    <glyph glyph-name="a" unicode="a" horiz-adv-x="1064" 
d="M20 17q0 2 2 13t4.5 27t3.5 24q21 131 51.5 291t53.5 275.5t61.5 302.5t57.5 279q91 4 281 4q164 0 293 -4q8 0 15 -6.5t9 -14.5q22 -114 76 -373t92 -458t65 -377q-107 -5 -178 -5q-113 0 -201 5q-21 2 -24 20q-26 136 -37 205h-190q-17 -114 -39 -225q-110 -5 -170 -5
q-36 0 -209 5q-17 0 -17 17zM490 492h114q-13 89 -35.5 255.5l-27.5 203.5q-11 -84 -27.5 -240t-23.5 -219z" />
    <glyph glyph-name="b" unicode="b" horiz-adv-x="1056" 
d="M500 780h16q50 0 83.5 22.5t33.5 64.5q0 39 -31.5 60.5t-74.5 21.5q-5 0 -14.5 -0.5t-10.5 -0.5q-2 -106 -2 -168zM502 476q0 -27 1.5 -82t2.5 -83h34q107 0 107 83q0 36 -26 59t-66 23h-53zM98 641q0 103 2 284t2 283q228 35 400 35q70 0 118 -2t104 -10.5t92.5 -23
t73.5 -41t58 -64t34 -91.5t13 -124q0 -162 -118 -264q86 -47 133 -113t47 -139q0 -95 -26 -164.5t-69 -110.5t-109.5 -65.5t-135 -32.5t-158.5 -8q-226 0 -436 22q-21 5 -21 25q0 95 -2 297.5t-2 306.5z" />
    <glyph glyph-name="c" unicode="c" horiz-adv-x="849" 
d="M53 615q0 142 26 250t72.5 179.5t117.5 116t155 63.5t192 19q90 0 234 -35l-44 -321l-189 13q-31 2 -53.5 -9t-42 -40t-30 -88.5t-10.5 -147.5q0 -118 17.5 -183t45.5 -85t73 -17l189 12l42 -324q-122 -22 -236 -22q-91 0 -161.5 10.5t-136 36t-111.5 71t-81 113t-52 165
t-17 223.5z" />
    <glyph glyph-name="d" unicode="d" horiz-adv-x="1077" 
d="M504 614q0 -142 3 -270h35q24 0 39 8.5t29 35t20.5 82.5t6.5 145q0 88 -6.5 144t-20.5 83t-29 35.5t-39 8.5h-34q-4 -170 -4 -272zM98 614q0 102 2 297t2 297q228 35 400 35q108 0 192 -19t155 -63.5t117.5 -116t72.5 -179.5t26 -250q0 -126 -17 -223.5t-52 -165
t-81 -113t-111.5 -71t-136 -36t-161.5 -10.5q-101 0 -383 24q-8 0 -14.5 6.5t-6.5 14.5q0 95 -2 282t-2 291z" />
    <glyph glyph-name="e" unicode="e" horiz-adv-x="929" 
d="M94 614q0 287 8 615q87 4 425 4q218 0 358 -4q8 0 14 -6.5t6 -14.5q2 -124 2 -177q0 -44 -2 -150q-87 -4 -325 -4h-78q0 -17 -1 -52.5t-1 -54.5q206 -3 245 -4q8 0 14.5 -6.5t6.5 -14.5q2 -112 2 -153q0 -39 -2 -137h-266q0 -18 1 -54t1 -53h24q223 0 363 -4q8 0 14 -6
t6 -14q2 -124 2 -177q0 -45 -2 -151q-108 -5 -351 -5q-120 0 -435 9q-8 0 -14.5 6t-6.5 14q-8 386 -8 594z" />
    <glyph glyph-name="f" unicode="f" horiz-adv-x="860" 
d="M94 614q0 287 8 615q87 4 425 4q189 0 329 -4q8 0 14.5 -6.5t6.5 -14.5q1 -62 1 -177q0 -97 -1 -150q-108 -5 -298 -5q-5 0 -28 0.5t-41 0.5q-2 -114 -2 -177q189 -2 229 -4q8 0 14.5 -6t6.5 -14q2 -124 2 -177q0 -45 -2 -151q-75 -4 -248 -4q2 -230 2 -344
q-108 -5 -179 -5q-35 0 -210 5q-8 0 -14.5 6t-6.5 14q-8 386 -8 594z" />
    <glyph glyph-name="g" unicode="g" horiz-adv-x="1028" 
d="M53 615q0 142 26 250t72.5 179.5t117.5 116t155 63.5t192 19q149 0 367 -35l-43 -323h-365q-23 0 -38 -8.5t-29 -35t-20.5 -82.5t-6.5 -144t8 -144.5t24 -83t32 -35t41 -8.5h41q0 72 -9 311q75 4 162 4q50 0 178 -4q8 0 14.5 -6t6.5 -14q8 -190 8 -287q0 -151 -8 -313
q-88 -16 -129 -22t-104 -11.5t-134 -5.5q-91 0 -161.5 10.5t-136 36t-111.5 71t-81 113t-52 165t-17 223.5z" />
    <glyph glyph-name="h" unicode="h" horiz-adv-x="1126" 
d="M94 614q0 287 8 615q87 4 179 4q71 0 211 -4q8 0 14 -6.5t6 -14.5q4 -188 4 -430h135q0 301 4 451q87 4 179 4q70 0 210 -4q8 0 14.5 -6.5t6.5 -14.5q8 -386 8 -594q0 -286 -8 -614q-108 -5 -179 -5q-35 0 -210 5q-8 0 -14.5 6t-6.5 14q-4 179 -4 410h-135
q0 -287 -4 -430q-108 -5 -179 -5q-35 0 -210 5q-8 0 -14.5 6t-6.5 14q-8 386 -8 594z" />
    <glyph glyph-name="i" unicode="i" horiz-adv-x="573" 
d="M94 614q0 287 8 615q87 4 179 4q71 0 211 -4q8 0 14 -6.5t6 -14.5q8 -386 8 -594q0 -286 -8 -614q-108 -5 -179 -5q-35 0 -210 5q-8 0 -14.5 6t-6.5 14q-8 386 -8 594z" />
    <glyph glyph-name="j" unicode="j" horiz-adv-x="888" 
d="M66 -8l15 336l203 -17q35 -3 57 2.5t42.5 26.5t29.5 66.5t9 119.5q0 103 2 351q-206 4 -311 8q-8 0 -14.5 6t-6.5 14q-2 118 -2 168q0 46 2 156q87 4 449 4q138 0 278 -4q8 0 14.5 -6.5t6.5 -14.5q8 -386 8 -671q0 -139 -26.5 -240.5t-72 -164.5t-118.5 -101t-154.5 -52
t-191.5 -14q-21 0 -41 1t-34 2.5t-36.5 4.5t-32 5t-37.5 7t-38 7z" />
    <glyph glyph-name="k" unicode="k" horiz-adv-x="1091" 
d="M94 614q0 287 8 615q87 4 179 4q71 0 211 -4q8 0 14 -6.5t6 -14.5q1 -24 1 -72q0 -31 -8 -338q7 0 22 0.5t23 0.5q21 63 69.5 204t71.5 210q6 19 31 21q90 5 165 5q109 0 204 -11q-62 -267 -173 -486q-59 -102 -160 -108v-3q106 -6 166 -109q92 -182 171 -522
q-95 -11 -214 -11q-75 0 -165 5q-25 2 -31 20q-46 139 -142 487h-40q1 -28 5.5 -180t4.5 -233q0 -59 -1 -88q-108 -5 -179 -5q-35 0 -210 5q-8 0 -14.5 6t-6.5 14q-8 386 -8 594z" />
    <glyph glyph-name="l" unicode="l" horiz-adv-x="839" 
d="M94 614q0 287 8 615q87 4 179 4q71 0 211 -4q8 0 14 -6.5t6 -14.5q8 -386 8 -594q0 -91 -2 -265h9q138 0 313 -5q8 0 14 -6t6 -14q2 -124 2 -177q0 -45 -2 -151q-108 -5 -302 -5q-120 0 -435 9q-8 0 -14.5 6t-6.5 14q-8 386 -8 594z" />
    <glyph glyph-name="m" unicode="m" horiz-adv-x="1425" 
d="M94 614q0 287 8 615q87 4 169 4q97 0 178 -4q14 -1 22 -21l257 -524l257 524q15 19 25 20q63 5 144 5q75 0 189 -4q8 0 14.5 -6.5t6.5 -14.5q8 -386 8 -594q0 -286 -8 -614q-98 -5 -159 -5q-14 0 -189 5q-8 0 -14.5 6t-6.5 14q-12 538 -12 559l-233 -477l-23 -4l-20 4
l-223 454l8 -556q-108 -5 -169 -5q-25 0 -200 5q-8 0 -14.5 6t-6.5 14q-8 386 -8 594z" />
    <glyph glyph-name="n" unicode="n" horiz-adv-x="1126" 
d="M94 614q0 287 8 615q87 4 169 4q91 0 178 -4q14 0 22 -21l212 -524l-7 545q87 4 179 4q108 0 189 -4q8 0 14.5 -6.5t6.5 -14.5q8 -386 8 -594q0 -286 -8 -614q-95 -5 -159 -5q-77 0 -187 5q-16 1 -23 20l-212 525l8 -545q-108 -5 -169 -5q-35 0 -200 5q-8 0 -14.5 6
t-6.5 14q-8 386 -8 594z" />
    <glyph glyph-name="o" unicode="o" 
d="M53 615q0 297 123 457t344 171q150 0 255 -31.5t178 -105t107 -194t34 -297.5q0 -296 -125 -456t-346 -171q-150 0 -254 31.5t-176.5 104t-106 193.5t-33.5 298zM481 615q0 -89 6.5 -145t20.5 -82.5t29 -35t38 -8.5q31 0 48.5 15.5t30 77t12.5 178.5q0 88 -7 144
t-21.5 82.5t-29.5 35t-39 8.5q-31 0 -48 -15.5t-28.5 -76.5t-11.5 -178z" />
    <glyph glyph-name="p" unicode="p" horiz-adv-x="1056" 
d="M98 614q0 103 2 298.5t2 295.5q228 35 400 35q82 0 140.5 -3.5t120.5 -15.5t103.5 -33t80.5 -57t61.5 -87t35.5 -123.5t13 -165.5q0 -115 -25 -198.5t-69 -136.5t-114.5 -84.5t-151 -43.5t-189.5 -12q4 -188 4 -283q-80 -4 -180 -4q-69 0 -209 4q-8 0 -14.5 6t-6.5 14
q0 95 -2 292.5t-2 301.5zM504 618h32q51 0 78 26t27 108q0 95 -14.5 118.5t-75.5 23.5h-47v-276z" />
    <glyph glyph-name="q" unicode="q" horiz-adv-x="1089" 
d="M481 636q0 -72 4 -120t10 -74t18.5 -39t23 -15.5t30.5 -2.5q25 0 37 5t24 28.5t16.5 75.5t4.5 142q0 107 -11.5 163.5t-28.5 71t-48 14.5t-46 -15t-24.5 -70t-9.5 -164zM53 636q0 283 120 439.5t339 167.5q144 0 246.5 -31.5t175.5 -102t108 -187.5t35 -286
q0 -294 -119.5 -444.5t-340.5 -162.5v-4v-1q0 -17 33.5 -30t90.5 -13q23 0 48 3l180 16l41 -315q-149 -27 -281 -27q-105 0 -199 39.5t-150 104t-56 136.5q0 62 45 119q-161 46 -238.5 182t-77.5 397z" />
    <glyph glyph-name="r" unicode="r" horiz-adv-x="1077" 
d="M98 641q0 103 2 284t2 283q228 35 420 35q75 0 125.5 -2t109 -10.5t96.5 -23t76 -41t59.5 -64t34.5 -91.5t13 -124q0 -111 -57 -195.5t-160 -132.5q70 -24 114 -98q101 -200 162 -461q-95 -11 -214 -11q-75 0 -165 5q-25 2 -31 20q-95 290 -155 490h-27q1 -73 4.5 -245
t4.5 -259q-80 -4 -180 -4q-69 0 -209 4q-9 0 -15 6t-6 14q0 95 -2 306t-2 315zM502 756h35q49 0 78.5 24t29.5 64q0 50 -20.5 74.5t-72.5 24.5q-19 0 -49 -2q0 -29 -0.5 -90t-0.5 -95z" />
    <glyph glyph-name="s" unicode="s" horiz-adv-x="1007" 
d="M70 12l50 371q229 -72 363 -72q53 0 81 22.5t28 50.5q0 10 -4 18.5t-14.5 16t-20 12.5t-28.5 11.5t-32 10.5t-38 11q-36 10 -54.5 15.5t-55.5 19t-58.5 25t-54 31.5t-52 40.5t-42.5 51.5t-36 65t-21.5 79t-8.5 96q0 70 13 124t33.5 91.5t56.5 64t72.5 41t91.5 23
t102 10.5t116 2q167 0 395 -45l-46 -340q-78 35 -178.5 59t-190.5 24q-48 0 -75.5 -15t-27.5 -43q0 -13 9.5 -23.5t34.5 -21t43 -16t60 -18.5q50 -15 77.5 -24t79 -30t82 -40t70 -52t61.5 -69t37.5 -87t15.5 -110q0 -95 -26.5 -166.5t-70.5 -116t-110 -71.5t-136.5 -37.5
t-158.5 -10.5q-222 0 -432 22z" />
    <glyph glyph-name="t" unicode="t" horiz-adv-x="942" 
d="M31 1073q0 46 2 156q87 4 474 4q283 0 423 -4q8 0 14 -6.5t6 -14.5q2 -116 2 -174q0 -47 -2 -153q-34 -2 -248 -4q3 -249 3 -263q0 -245 -9 -614q-108 -5 -179 -5q-35 0 -210 5q-8 0 -14 6t-6 14q-8 386 -8 594q0 180 1 265q-24 1 -227 6q-8 0 -14 6t-6 14q-2 118 -2 168
z" />
    <glyph glyph-name="u" unicode="u" horiz-adv-x="1081" 
d="M55 607q0 294 8 622q87 4 179 4q71 0 211 -4q8 0 14 -6.5t6 -14.5q8 -386 8 -663q0 -89 9.5 -135t26 -60t46.5 -14t45.5 14t24 59.5t8.5 135.5q0 356 8 684q87 4 179 4q70 0 210 -4q8 0 14.5 -6.5t6.5 -14.5q8 -386 8 -601q0 -131 -20 -233.5t-57.5 -174.5t-94 -119.5
t-126.5 -71.5t-159 -28q-117 0 -200.5 16t-153.5 56.5t-112.5 111t-65.5 180.5t-23 263z" />
    <glyph glyph-name="v" unicode="v" horiz-adv-x="1034" 
d="M12 1229q85 4 186 4q131 0 201 -4q8 -1 15.5 -7t8.5 -14q48 -242 122 -775q75 553 124 796q88 4 159 4q80 0 218 -4q17 0 17 -17q0 -4 -2 -15t-4.5 -26t-3.5 -23q-79 -493 -232 -1148q-107 -5 -261 -5q-125 0 -282 5q-19 0 -24 20q-174 758 -242 1209z" />
    <glyph glyph-name="w" unicode="w" horiz-adv-x="1396" 
d="M12 1229q85 4 186 4q131 0 201 -4q8 -1 15.5 -7t8.5 -14q40 -202 80 -515q85 343 130 472l96 4l94 -4q52 -145 130 -464q46 352 74 528q88 4 164 4q79 0 217 -4q17 0 17 -18q0 -1 -9 -64q-83 -563 -233 -1147q-132 -6 -300 -6q-21 73 -75.5 239.5t-79.5 257.5
q-24 -83 -81.5 -248t-81.5 -249q-77 0 -287 6q-19 0 -24 20q-167 653 -242 1209z" />
    <glyph glyph-name="x" unicode="x" horiz-adv-x="1085" 
d="M39 0q13 62 23.5 107.5t31.5 124.5t45 140t54.5 125t70 109t83.5 66v3q-45 14 -96 81t-91.5 155t-71.5 172t-45 145q95 11 204 11q75 0 165 -5q25 -2 31 -21q24 -71 66.5 -191.5t52.5 -148.5q110 302 123 340q6 19 31 21q90 5 165 5q109 0 204 -11q-14 -62 -44 -146
t-70.5 -172.5t-92 -155.5t-97.5 -79v-3q35 -21 67 -56.5t55.5 -71t47.5 -90.5t38.5 -92.5t33 -101.5t26 -93.5t22.5 -91.5t18 -75q-95 -11 -214 -11q-75 0 -165 5q-25 2 -31 20q-42 127 -115 415q-73 -288 -115 -415q-6 -18 -31 -20q-90 -5 -165 -5q-119 0 -214 11z" />
    <glyph glyph-name="y" unicode="y" horiz-adv-x="1075" 
d="M16 1221q103 12 215 12q74 0 164 -5q26 -2 32 -21q54 -165 131 -446q77 281 131 446q6 19 31 21q90 5 165 5q111 0 214 -12q-79 -340 -171 -522q-65 -111 -165 -193q4 -339 5 -506q-108 -5 -183 -5q-39 0 -214 5q-8 0 -14.5 6t-6.5 14q0 237 3 486q-101 83 -166 193
q-92 182 -171 522z" />
    <glyph glyph-name="z" unicode="z" horiz-adv-x="909" 
d="M59 1073q0 46 2 156q87 4 446 4q217 0 357 -4q8 0 14.5 -6.5t6.5 -14.5v-204q-203 -397 -362 -655q183 0 345 -5q8 0 14.5 -6t6.5 -14q2 -122 2 -177q0 -45 -2 -151q-108 -5 -351 -5q-141 0 -456 9q-8 0 -14.5 6t-6.5 14q-1 44 -1 126q0 75 1 116q47 94 100.5 187
t143.5 240.5t114 188.5q-277 4 -337 7q-8 0 -14.5 6t-6.5 14q-2 118 -2 168z" />
    <glyph glyph-name="braceleft" unicode="{" horiz-adv-x="708" 
d="M61 614q0 27 7 29q83 36 83 120q0 69 -27.5 211t-27.5 191q0 157 106 235.5t283 78.5q119 0 250 -33l-43 -322l-184 13q-28 2 -45 -10.5t-17 -30.5q0 -13 34 -149.5t34 -204.5q0 -43 -32.5 -80t-73.5 -48q41 -11 73.5 -47.5t32.5 -79.5q0 -68 -34 -204.5t-34 -149.5
q0 -18 17 -30.5t45 -10.5l184 12l43 -321q-131 -33 -250 -33q-177 0 -283 78t-106 235q0 49 27.5 191t27.5 212q0 84 -83 120q-7 2 -7 28z" />
    <glyph glyph-name="bar" unicode="|" horiz-adv-x="573" 
d="M94 614q0 533 8 861q87 4 179 4q71 0 211 -4q8 0 14 -6.5t6 -14.5q8 -386 8 -840q0 -532 -8 -860q-87 -4 -179 -4q-70 0 -210 4q-8 0 -14.5 6.5t-6.5 14.5q-8 386 -8 839z" />
    <glyph glyph-name="braceright" unicode="}" horiz-adv-x="708" 
d="M14 -217l43 321l185 -12q28 -2 44.5 10.5t16.5 30.5q0 13 -34 149.5t-34 204.5q0 43 33 79.5t74 47.5q-41 11 -74 48t-33 80q0 68 34 204.5t34 149.5q0 18 -16.5 30.5t-44.5 10.5l-185 -13l-43 322q130 33 250 33q177 0 283 -78.5t106 -235.5q0 -49 -27.5 -191
t-27.5 -211q0 -41 23 -72.5t61 -47.5q6 -2 6 -29q0 -26 -6 -28q-38 -16 -61 -47.5t-23 -72.5q0 -70 27.5 -212t27.5 -191q0 -157 -106 -235t-283 -78q-120 0 -250 33z" />
    <glyph glyph-name="asciitilde" unicode="~" horiz-adv-x="856" 
d="M29 557q0 8 32 63q70 125 122 210q104 -54 186 -54q43 0 115 18q68 17 116 17q103 0 256 -95q11 -6 11 -18q0 -4 -5 -13.5t-14.5 -25t-14.5 -25.5q-63 -113 -121 -208q-102 53 -186 53q-44 0 -116 -16q-77 -17 -119 -17q-108 4 -252 94q-10 6 -10 17z" />
    <glyph glyph-name="exclamdown" unicode="&#xa1;" horiz-adv-x="524" 
d="M105 1088q0 92 1 141q80 3 152 3q83 0 176 -3q8 0 14.5 -6.5t6.5 -14.5q1 -55 1 -157q0 -91 -1 -140q-37 -2 -112 -2q-103 0 -216 6q-8 1 -14.5 7t-6.5 14q-1 54 -1 152zM90 410q0 217 8 409q108 5 179 5q32 0 169 -5q8 0 14.5 -6t6.5 -14q8 -219 8 -389q0 -194 -12 -410
q-82 -5 -144 -5q-112 0 -200 5q-21 2 -21 20q-8 219 -8 390z" />
    <glyph glyph-name="cent" unicode="&#xa2;" horiz-adv-x="819" 
d="M53 615q0 215 58.5 337t173.5 176q1 124 6 347q87 4 158 4q50 0 190 -4q8 0 14 -6.5t6 -14.5q0 -21 2 -117t3 -158q58 -4 155 -27l-39 -284l-170 11q-79 5 -124.5 -62.5t-45.5 -201.5q0 -155 42 -213t128 -52l170 11l37 -285q-69 -12 -153 -17q-1 -164 -5 -305
q-87 -4 -158 -4q-50 0 -190 4q-8 0 -14 6.5t-6 14.5q-4 152 -5 343q-233 118 -233 497z" />
    <glyph glyph-name="sterling" unicode="&#xa3;" horiz-adv-x="778" 
d="M12 182q0 27 7 29q49 9 98 44.5t49 87.5q0 50 -10 118q-15 0 -46.5 0.5t-43.5 1.5q-8 0 -14.5 6t-6.5 14q-2 108 -2 145q0 34 2 134q28 2 54 2q-13 75 -13 125q0 100 29.5 169.5t87.5 109.5t134 57.5t179 17.5q120 0 250 -33l-43 -321l-184 12q-43 3 -73 -17t-30 -55
q0 -17 9 -64q163 -2 194 -3q8 0 14 -6.5t6 -14.5q2 -112 2 -149q0 -35 -2 -133h-145q11 -62 14 -111q208 -3 246 -4q8 0 14.5 -6t6.5 -14q1 -62 1 -177q0 -98 -1 -151q-108 -5 -304 -5q-141 0 -456 9q-8 0 -14.5 6t-6.5 14q-2 114 -2 162z" />
    <glyph glyph-name="currency" unicode="&#xa4;" horiz-adv-x="1261" 
d="M544 613q0 -67 23 -86.5t78 -19.5q53 0 76 19.5t23 86.5q0 64 -24.5 85t-76.5 21q-53 0 -76 -20.5t-23 -85.5zM69 244q46 50 180 186q-22 70 -22 183q0 93 22 162q-37 38 -101.5 105.5t-72.5 75.5q64 70 98 104q40 40 122 116q6 6 14 6q9 0 15 -6l100 -96t118 -114
q43 4 101 4q83 0 139 -8q159 159 216 211q6 6 15 6q8 0 14 -6q28 -24 92 -88q71 -71 111 -115q-45 -50 -192 -197q21 -66 21 -160q0 -93 -15 -157q138 -136 176 -176q-53 -58 -99 -104q-53 -53 -121 -116q-7 -7 -15 -7q-7 0 -14 7q-124 115 -193 184q-62 -6 -135 -6
q-75 0 -136 6q-163 -159 -209 -200q-7 -7 -15 -7q-7 0 -14 7q-38 35 -87 84q-32 32 -113 116z" />
    <glyph glyph-name="yen" unicode="&#xa5;" horiz-adv-x="1075" 
d="M16 1221q103 12 215 12q74 0 164 -5q26 -2 32 -21q54 -165 131 -446q77 281 131 446q6 19 31 21q90 5 165 5q111 0 214 -12q-79 -340 -171 -522q-27 -47 -70 -99q23 0 54 0.5t50.5 1t30.5 0.5q9 0 15 -6t6 -14q2 -47 2 -166q0 -37 -2 -121q-22 -1 -249 -3q3 -291 3 -292
q-108 -5 -183 -5q-39 0 -214 5q-8 0 -14.5 6t-6.5 14q0 181 1 273q-41 1 -87.5 2t-88 2.5t-52.5 1.5q-8 0 -14.5 6t-6.5 14q-2 106 -2 142q0 74 2 141q16 0 156 -2q-46 56 -71 99q-92 182 -171 522z" />
    <glyph glyph-name="brokenbar" unicode="&#xa6;" horiz-adv-x="573" 
d="M94 150q0 245 8 395q110 4 179 4t211 -4q8 0 14 -5.5t6 -9.5q8 -178 8 -380q0 -246 -8 -396q-83 -4 -179 -4q-118 0 -210 4q-8 1 -14.5 6t-6.5 9q-8 178 -8 381zM94 1079q0 246 8 396q110 4 179 4t211 -4q8 0 14 -6t6 -10q8 -178 8 -380q0 -245 -8 -395q-103 -5 -179 -5
q-95 0 -210 5q-8 1 -14.5 6t-6.5 9q-8 178 -8 380z" />
    <glyph glyph-name="section" unicode="&#xa7;" horiz-adv-x="1089" 
d="M24 606q0 220 137 317q-48 85 -48 200q0 70 13 124t33.5 91.5t56.5 64t72.5 41t91.5 23t102 10.5t116 2q164 0 375 -52l-46 -340q-199 89 -349 89q-48 0 -75.5 -14.5t-27.5 -42.5q0 -18 27 -34t71.5 -28t101 -29.5t116 -37t116 -53t101 -74t71.5 -102.5t27 -138
q0 -220 -138 -317q49 -87 49 -200q0 -70 -13 -124t-33.5 -91.5t-57 -63.5t-72.5 -41t-91.5 -23t-102.5 -10t-116 -2q-167 0 -374 51l46 340q199 -89 349 -89q47 0 74.5 15t27.5 43q0 18 -27 33.5t-71.5 27.5t-101 30t-115.5 37.5t-115.5 52.5t-101 73.5t-71.5 102.5t-27 138
zM423 614q0 -32 51.5 -58t110.5 -26q57 0 89.5 25.5t32.5 59.5q0 32 -52 58t-111 26q-57 0 -89 -25.5t-32 -59.5z" />
    <glyph glyph-name="dieresis" unicode="&#xa8;" horiz-adv-x="901" 
d="M539 1163q0 33 2 131q102 4 135 4q54 0 160 -4q8 0 14 -6t6 -14q2 -110 2 -148q0 -33 -2 -131q-37 -2 -104 -2q-63 0 -191 6q-20 2 -20 21q-2 108 -2 143zM84 1163q0 33 2 131q102 4 140 4q49 0 155 -4q8 0 14 -6t6 -14q2 -110 2 -148q0 -33 -2 -131q-37 -2 -103 -2
q-64 0 -192 6q-20 2 -20 21q-2 108 -2 143z" />
    <glyph glyph-name="copyright" unicode="&#xa9;" horiz-adv-x="1413" 
d="M164 614q0 -153 75 -282.5t204.5 -205t283.5 -75.5t283.5 75.5t204.5 205t75 282.5t-75 283t-204.5 205.5t-283.5 75.5t-283.5 -75.5t-204.5 -205.5t-75 -283zM61 614q0 180 89.5 333.5t243 243t333.5 89.5t333.5 -89.5t243 -243t89.5 -333.5t-89.5 -333.5t-242.5 -242.5
t-334 -89t-334 89t-242.5 242.5t-89.5 333.5zM391 617q0 225 107.5 325.5t307.5 100.5q64 0 178 -28l-34 -247l-144 9q-40 3 -64 -31.5t-24 -129.5q0 -75 21.5 -119.5t66.5 -41.5l144 10l33 -251q-93 -18 -180 -18q-79 0 -139.5 11.5t-113.5 40.5t-87 76t-53 120.5
t-19 172.5z" />
    <glyph glyph-name="ordfeminine" unicode="&#xaa;" horiz-adv-x="839" 
d="M382 854q0 -78 12 -98t61 -20h35v231h-23q-40 0 -62.5 -23t-22.5 -90zM45 849q0 116 29 193t89 118.5t137 58t188 16.5q49 0 252 -14q29 -2 49.5 -22.5t21.5 -48.5q3 -90 3 -184q0 -83 -1.5 -240.5t-1.5 -240.5q-183 -28 -323 -28q-67 0 -113.5 3t-96.5 12.5t-82.5 26.5
t-63.5 46t-48.5 70.5t-28 99.5t-10.5 134z" />
    <glyph glyph-name="guillemotleft" unicode="&#xab;" horiz-adv-x="962" 
d="M532 623q0 97 1 148q113 100 333 266q44 34 51 34q9 0 9 -11q4 -120 4 -172q0 -74 -4 -147q-82 -60 -223 -125q110 -48 209 -102q20 -11 20 -31q4 -126 4 -158q0 -72 -4 -141q-128 66 -371 245q-21 17 -22 29q-7 73 -7 165zM61 623q0 97 1 148q113 100 333 266
q44 34 51 34q9 0 9 -11q3 -90 3 -172q0 -92 -3 -147q-82 -60 -223 -125q110 -48 209 -102q20 -11 20 -31q4 -126 4 -158q0 -72 -4 -141q-128 66 -371 245q-21 17 -22 29q-7 74 -7 165z" />
    <glyph glyph-name="uni00AD" unicode="&#xad;" horiz-adv-x="856" 
d="M59 617q0 82 2 149q108 5 454 5q125 0 300 -5q8 0 14.5 -6.5t6.5 -14.5q2 -47 2 -174q0 -41 -2 -129q-90 -4 -351 -4q-123 0 -403 8q-8 0 -14.5 6.5t-6.5 14.5q-2 106 -2 150z" />
    <glyph glyph-name="registered" unicode="&#xae;" horiz-adv-x="1413" 
d="M164 614q0 -153 75 -282.5t204.5 -205t283.5 -75.5t283.5 75.5t204.5 205t75 282.5t-75 283t-204.5 205.5t-283.5 75.5t-283.5 -75.5t-204.5 -205.5t-75 -283zM61 614q0 180 89.5 333.5t243 243t333.5 89.5t333.5 -89.5t243 -243t89.5 -333.5t-89.5 -333.5t-242.5 -242.5
t-334 -89t-334 89t-242.5 242.5t-89.5 333.5zM409 640q0 66 1.5 182t1.5 181v14l14 2q146 23 271 23q65 0 110 -4t92.5 -18.5t76.5 -40.5t47.5 -71.5t18.5 -109.5q0 -137 -119 -210q32 -21 51 -55v-1q69 -136 106 -298l4 -18l-19 -2q-72 -8 -139 -8q-36 0 -106 4
q-28 2 -35 24q-40 122 -83 261q5 -222 5 -265v-16h-16q-59 -3 -115 -3q-3 0 -135 3q-12 0 -20.5 8.5t-8.5 20.5q0 61 -1.5 196t-1.5 201zM700 726h6q26 0 43.5 13t17.5 31q0 53 -51 53h-15q0 -15 -0.5 -49t-0.5 -48z" />
    <glyph glyph-name="macron" unicode="&#xaf;" horiz-adv-x="737" 
d="M80 1160q0 22 2 132q108 5 363 5q56 0 231 -5q8 0 14 -6t6 -14q2 -46 2 -135q0 -66 -2 -136q-90 -4 -281 -4q-22 0 -82 1.5t-135.5 4t-95.5 3.5q-8 0 -14 6t-6 14q-2 108 -2 134z" />
    <glyph glyph-name="degree" unicode="&#xb0;" horiz-adv-x="557" 
d="M43 1006q0 102 62.5 163.5t167.5 66.5q153 0 217.5 -55t64.5 -175q0 -102 -60.5 -163t-165.5 -66q-154 0 -220 54.5t-66 174.5zM249 1006q0 -33 11 -44.5t39 -11.5q26 0 38 11t12 45t-13 44.5t-42 10.5q-22 0 -33.5 -11.5t-11.5 -43.5z" />
    <glyph glyph-name="plusminus" unicode="&#xb1;" horiz-adv-x="935" 
d="M65 771q0 80 2 150q31 1 263 3q1 57 6 288q65 3 133 3q79 0 155 -3q8 0 13.5 -5.5t5.5 -12.5q3 -128 6 -269q139 -2 244 -4q16 0 18 -18q2 -34 2 -119q0 -68 -2 -148q-18 -1 -262 -3q0 -45 -6 -269q-64 -3 -134 -3q-79 0 -155 3q-8 0 -13 5t-5 13q-1 17 -6 253
q-215 4 -244 5q-8 0 -13.5 6t-5.5 13q-2 46 -2 112zM91 178q0 18 2 138q79 4 445 4q200 0 326 -4q8 0 13 -5t5 -13q2 -86 2 -161q0 -40 -2 -120q-80 -4 -371 -4q-179 0 -399 7q-8 0 -13.5 6t-5.5 13q-2 96 -2 139z" />
    <glyph glyph-name="acute" unicode="&#xb4;" horiz-adv-x="649" 
d="M71 1016q80 133 190 284q73 4 165 4q68 0 188 -4q10 0 10 -8q0 -12 -62 -86q-16 -19 -84.5 -96t-102.5 -123q-150 0 -298 8q-17 2 -6 21z" />
    <glyph glyph-name="periodcentered" unicode="&#xb7;" horiz-adv-x="430" 
d="M60 627q0 92 1 141q71 4 152 4q52 0 176 -4q8 0 14.5 -6t6.5 -14q1 -55 1 -158q0 -90 -1 -139q-55 -3 -112 -3q-85 0 -216 7q-21 2 -21 20q-1 54 -1 152z" />
    <glyph glyph-name="cedilla" unicode="&#xb8;" horiz-adv-x="663" 
d="M327 104q142 -58 210.5 -132t68.5 -152q0 -97 -92.5 -163.5t-236.5 -66.5q-18 0 -32.5 0.5t-31 2t-24.5 2t-27 3.5t-24 4t-30 5.5t-32 5.5l37 287l100 -13q43 -6 67.5 8.5t24.5 38.5q0 22 -24.5 39.5t-68.5 20.5z" />
    <glyph glyph-name="ordmasculine" unicode="&#xba;" horiz-adv-x="868" 
d="M383 856q0 -77 11.5 -97.5t54.5 -20.5q39 2 58 23.5t19 88.5q0 74 -12.5 96.5t-56.5 22.5q-42 -2 -58 -23.5t-16 -89.5zM46 852q0 109 23 182.5t72.5 116.5t115.5 62t163 23q61 0 104 -2.5t92.5 -11.5t83.5 -25.5t67 -45.5t52.5 -70t31.5 -101t12 -136
q0 -108 -25.5 -182.5t-77.5 -117t-120.5 -61.5t-165.5 -23q-233 0 -330.5 92.5t-97.5 299.5z" />
    <glyph glyph-name="guillemotright" unicode="&#xbb;" horiz-adv-x="962" 
d="M473 632q0 -97 -1 -148q-105 -93 -333 -265q-45 -35 -51 -35q-9 0 -9 11q-4 120 -4 172q0 74 4 147q82 60 223 125q-110 48 -209 102q-20 11 -20 31q-4 126 -4 159q0 71 4 140q125 -64 370 -245q22 -18 23 -29q7 -73 7 -165zM944 632q0 -97 -1 -148q-105 -93 -333 -265
q-46 -35 -51 -35q-9 0 -9 11q-4 120 -4 172q0 74 4 147q82 60 223 125q-110 48 -209 102q-20 11 -20 31q-4 126 -4 159q0 71 4 140q125 -64 370 -245q22 -18 23 -29q7 -73 7 -165z" />
    <glyph glyph-name="questiondown" unicode="&#xbf;" horiz-adv-x="815" 
d="M303 1088q0 43 2 141q53 3 152 3q83 0 176 -3q8 0 14 -6.5t6 -14.5q2 -110 2 -157q0 -42 -2 -140q-37 -2 -111 -2q-104 0 -216 6q-8 1 -14.5 7t-6.5 14q-2 108 -2 152zM29 285q0 139 125 269q34 35 51.5 55.5t41 55.5t34.5 72.5t12 80.5q63 4 154 4q72 0 190 -4
q8 0 14 -6.5t6 -14.5q0 -69 -20 -128t-49.5 -97.5t-64.5 -73.5t-64.5 -59t-49.5 -50.5t-20 -50.5q0 -60 84 -60q69 0 169.5 35t130.5 57l46 -341q-180 -43 -375 -43q-96 0 -168 14.5t-129.5 47.5t-87.5 92.5t-30 144.5z" />
    <glyph glyph-name="Agrave" unicode="&#xc0;" horiz-adv-x="1064" 
d="M235 1587q104 4 150 4q52 0 178 -4q20 0 31 -20q155 -294 157 -297q-173 0 -330 8q-21 2 -31 20q-104 187 -155 289zM20 17q0 2 2 13t4.5 27t3.5 24q21 131 51.5 291t53.5 275.5t61.5 302.5t57.5 279q91 4 281 4q164 0 293 -4q8 0 15 -6.5t9 -14.5q22 -114 76 -373
t92 -458t65 -377q-107 -5 -178 -5q-113 0 -201 5q-21 2 -24 20q-26 136 -37 205h-190q-17 -114 -39 -225q-110 -5 -170 -5q-36 0 -209 5q-17 0 -17 17zM490 492h114q-13 89 -35.5 255.5l-27.5 203.5q-11 -84 -27.5 -240t-23.5 -219z" />
    <glyph glyph-name="Aacute" unicode="&#xc1;" horiz-adv-x="1064" 
d="M366 1291q0 8 36 64q64 103 158 232q110 4 165 4q68 0 188 -4q10 0 10 -8q0 -13 -41 -61q-29 -37 -100.5 -117t-107.5 -127q-150 0 -298 8q-10 0 -10 9zM20 17q0 2 2 13t4.5 27t3.5 24q21 131 51.5 291t53.5 275.5t61.5 302.5t57.5 279q91 4 281 4q164 0 293 -4
q8 0 15 -6.5t9 -14.5q22 -114 76 -373t92 -458t65 -377q-107 -5 -178 -5q-113 0 -201 5q-21 2 -24 20q-26 136 -37 205h-190q-17 -114 -39 -225q-110 -5 -170 -5q-36 0 -209 5q-17 0 -17 17zM490 492h114q-13 89 -35.5 255.5l-27.5 203.5q-11 -84 -27.5 -240t-23.5 -219z
" />
    <glyph glyph-name="Acircumflex" unicode="&#xc2;" horiz-adv-x="1064" 
d="M112 1271q56 108 190 293q13 17 31 18q144 7 290 7h142q66 -74 193 -242q41 -53 41 -61q0 -9 -10 -9q-90 -3 -165 -3q-92 0 -147 3q-53 73 -125 211q-59 -121 -101 -196q-5 -8 -14.5 -14.5t-17.5 -6.5q-95 -3 -166 -3q-89 0 -141 3zM20 17q0 2 2 13t4.5 27t3.5 24
q21 131 51.5 291t53.5 275.5t61.5 302.5t57.5 279q91 4 281 4q164 0 293 -4q8 0 15 -6.5t9 -14.5q22 -114 76 -373t92 -458t65 -377q-107 -5 -178 -5q-113 0 -201 5q-21 2 -24 20q-26 136 -37 205h-190q-17 -114 -39 -225q-110 -5 -170 -5q-36 0 -209 5q-17 0 -17 17z
M490 492h114q-13 89 -35.5 255.5l-27.5 203.5q-11 -84 -27.5 -240t-23.5 -219z" />
    <glyph glyph-name="Atilde" unicode="&#xc3;" horiz-adv-x="1064" 
d="M147 1493q0 11 11 17q145 91 237 94q47 0 131 -27t127 -27q70 0 186 60q59 -97 87 -149q35 -61 35 -68q0 -11 -11 -18q-149 -101 -250 -101q-44 0 -119 22.5t-118 22.5q-74 0 -186 -58q-48 79 -84 143q-46 81 -46 89zM20 17q0 2 2 13t4.5 27t3.5 24q21 131 51.5 291
t53.5 275.5t61.5 302.5t57.5 279q91 4 281 4q164 0 293 -4q8 0 15 -6.5t9 -14.5q22 -114 76 -373t92 -458t65 -377q-107 -5 -178 -5q-113 0 -201 5q-21 2 -24 20q-26 136 -37 205h-190q-17 -114 -39 -225q-110 -5 -170 -5q-36 0 -209 5q-17 0 -17 17zM490 492h114
q-13 89 -35.5 255.5l-27.5 203.5q-11 -84 -27.5 -240t-23.5 -219z" />
    <glyph glyph-name="Adieresis" unicode="&#xc4;" horiz-adv-x="1064" 
d="M20 20q21 137 52.5 305t56 290.5t65 319t60.5 294.5q91 4 281 4q164 0 293 -4q8 0 15 -6.5t9 -14.5q22 -114 76 -373t92 -458t65 -377q-107 -5 -178 -5q-113 0 -201 5q-21 2 -24 20q-26 136 -37 205h-190q-17 -114 -39 -225q-110 -5 -170 -5q-36 0 -209 5q-8 0 -13 6
t-4 14zM490 492h114q-13 89 -35.5 255.5l-27.5 203.5q-11 -84 -27.5 -240t-23.5 -219zM621 1449q0 34 2 132q77 3 135 3q80 0 160 -3q8 0 14 -6t6 -14q2 -110 2 -148q0 -33 -2 -131q-37 -2 -104 -2q-63 0 -191 6q-20 2 -20 21q-2 108 -2 142zM166 1449q0 34 2 132
q76 3 140 3q76 0 155 -3q8 0 14 -6t6 -14q2 -110 2 -148q0 -33 -2 -131q-37 -2 -103 -2q-64 0 -192 6q-20 2 -20 21q-2 108 -2 142z" />
    <glyph glyph-name="Aring" unicode="&#xc5;" horiz-adv-x="1064" 
d="M20 17q0 2 2 13t4.5 27t3.5 24q21 131 51.5 291t53.5 275.5t61.5 302.5t57.5 279q97 4 216 4q-68 16 -98 60t-30 119q0 84 51.5 134.5t138.5 55.5q126 0 179 -45t53 -145q0 -68 -32.5 -114.5t-92.5 -64.5q126 -2 189 -4q8 0 15 -6.5t9 -14.5q22 -114 76 -373t92 -458
t65 -377q-107 -5 -178 -5q-113 0 -201 5q-21 2 -24 20q-26 136 -37 205h-190q-17 -114 -39 -225q-110 -5 -170 -5q-36 0 -209 5q-17 0 -17 17zM512 1411q0 -27 9 -36t32 -9q22 0 31.5 9t9.5 36q0 28 -10.5 37t-34.5 9q-18 0 -27.5 -9.5t-9.5 -36.5zM490 492h114
q-13 89 -35.5 255.5l-27.5 203.5q-11 -84 -27.5 -240t-23.5 -219z" />
    <glyph glyph-name="AE" unicode="&#xc6;" horiz-adv-x="1482" 
d="M20 17q0 2 2 13t4.5 27t3.5 24q21 131 51.5 291t53.5 275.5t61.5 302.5t57.5 279q246 7 595 7q329 0 589 -7q8 0 14 -6.5t6 -14.5q2 -124 2 -177q0 -44 -2 -150q-87 -4 -325 -4h-79q0 -17 -0.5 -52.5t-0.5 -54.5q206 -3 245 -4q8 0 14.5 -6.5t6.5 -14.5q2 -112 2 -153
q0 -39 -2 -137h-266q0 -18 0.5 -54t0.5 -53h25q223 0 363 -4q8 0 14 -6t6 -14q2 -124 2 -177q0 -45 -2 -151q-108 -5 -351 -5q-120 0 -435 9q-8 0 -14.5 6t-6.5 14q-6 277 -7 426h-164q-31 -262 -68 -446q-110 -5 -170 -5q-36 0 -209 5q-17 0 -17 17zM518 748h130
q0 101 1 146q-20 0 -60 0.5t-56 1.5q-9 -59 -15 -148z" />
    <glyph glyph-name="Ccedilla" unicode="&#xc7;" horiz-adv-x="849" 
d="M53 615q0 142 26 250t72.5 179.5t117.5 116t155 63.5t192 19q90 0 234 -35l-44 -321l-189 13q-31 2 -53.5 -9t-42 -40t-30 -88.5t-10.5 -147.5q0 -118 17.5 -183t45.5 -85t73 -17l189 12l42 -324q-110 -21 -226 -22q165 -68 165 -205q0 -91 -83.5 -146t-242.5 -55
q-30 0 -52 1.5t-33.5 3.5t-34 6.5t-40.5 7.5l27 204l49 -6q62 -8 81 25q16 26 -12 50q-22 19 -64 22l14 113q-112 26 -185.5 89.5t-115.5 190t-42 318.5z" />
    <glyph glyph-name="Egrave" unicode="&#xc8;" horiz-adv-x="929" 
d="M180 1587q104 4 149 4q52 0 178 -4q21 0 32 -20q155 -294 157 -297q-173 0 -330 8q-21 2 -31 20q-104 187 -155 289zM94 614q0 287 8 615q87 4 425 4q218 0 358 -4q8 0 14 -6.5t6 -14.5q2 -124 2 -177q0 -44 -2 -150q-87 -4 -325 -4h-78q0 -17 -1 -52.5t-1 -54.5
q206 -3 245 -4q8 0 14.5 -6.5t6.5 -14.5q2 -112 2 -153q0 -39 -2 -137h-266q0 -18 1 -54t1 -53h24q223 0 363 -4q8 0 14 -6t6 -14q2 -124 2 -177q0 -45 -2 -151q-108 -5 -351 -5q-120 0 -435 9q-8 0 -14.5 6t-6.5 14q-8 386 -8 594z" />
    <glyph glyph-name="Eacute" unicode="&#xc9;" horiz-adv-x="929" 
d="M311 1291q0 8 36 64q64 103 158 232q110 4 165 4q67 0 187 -4q11 0 11 -8q0 -11 -42 -61q-29 -37 -100 -117t-107 -127q-150 0 -298 8q-10 0 -10 9zM94 614q0 287 8 615q87 4 425 4q218 0 358 -4q8 0 14 -6.5t6 -14.5q2 -124 2 -177q0 -44 -2 -150q-87 -4 -325 -4h-78
q0 -17 -1 -52.5t-1 -54.5q206 -3 245 -4q8 0 14.5 -6.5t6.5 -14.5q2 -112 2 -153q0 -39 -2 -137h-266q0 -18 1 -54t1 -53h24q223 0 363 -4q8 0 14 -6t6 -14q2 -124 2 -177q0 -45 -2 -151q-108 -5 -351 -5q-120 0 -435 9q-8 0 -14.5 6t-6.5 14q-8 386 -8 594z" />
    <glyph glyph-name="Ecircumflex" unicode="&#xca;" horiz-adv-x="929" 
d="M57 1271q56 108 190 293q13 17 31 18q144 7 289 7h43h52h47q73 -82 194 -242q41 -53 41 -61q0 -9 -11 -9q-90 -3 -164 -3q-92 0 -147 3q-53 73 -125 211q-51 -104 -102 -196q-11 -21 -31 -21q-94 -3 -167 -3q-88 0 -140 3zM94 614q0 287 8 615q87 4 425 4q218 0 358 -4
q8 0 14 -6.5t6 -14.5q2 -124 2 -177q0 -44 -2 -150q-87 -4 -325 -4h-78q0 -17 -1 -52.5t-1 -54.5q206 -3 245 -4q8 0 14.5 -6.5t6.5 -14.5q2 -112 2 -153q0 -39 -2 -137h-266q0 -18 1 -54t1 -53h24q223 0 363 -4q8 0 14 -6t6 -14q2 -124 2 -177q0 -45 -2 -151
q-108 -5 -351 -5q-120 0 -435 9q-8 0 -14.5 6t-6.5 14q-8 386 -8 594z" />
    <glyph glyph-name="Edieresis" unicode="&#xcb;" horiz-adv-x="929" 
d="M566 1449q0 83 1 132q77 3 136 3q79 0 159 -3q8 0 14.5 -6t6.5 -14q1 -55 1 -148q0 -82 -1 -131q-37 -2 -104 -2q-63 0 -191 6q-8 1 -14.5 7t-6.5 14q-1 54 -1 142zM111 1449q0 34 2 132q77 3 139 3q76 0 156 -3q8 0 14 -6t6 -14q2 -110 2 -148q0 -33 -2 -131
q-37 -2 -104 -2q-63 0 -191 6q-20 2 -20 21q-2 108 -2 142zM94 614q0 287 8 615q87 4 425 4q218 0 358 -4q8 0 14 -6.5t6 -14.5q2 -124 2 -177q0 -44 -2 -150q-87 -4 -325 -4h-78q0 -17 -1 -52.5t-1 -54.5q206 -3 245 -4q8 0 14.5 -6.5t6.5 -14.5q2 -112 2 -153
q0 -39 -2 -137h-266q0 -18 1 -54t1 -53h24q223 0 363 -4q8 0 14 -6t6 -14q2 -124 2 -177q0 -45 -2 -151q-108 -5 -351 -5q-120 0 -435 9q-8 0 -14.5 6t-6.5 14q-8 386 -8 594z" />
    <glyph glyph-name="Igrave" unicode="&#xcc;" horiz-adv-x="573" 
d="M-21 1587q104 4 150 4q52 0 178 -4q20 0 31 -20q155 -294 157 -297q-173 0 -330 8q-21 2 -31 20q-104 187 -155 289zM94 614q0 287 8 615q87 4 179 4q71 0 211 -4q8 0 14 -6.5t6 -14.5q8 -386 8 -594q0 -286 -8 -614q-108 -5 -179 -5q-35 0 -210 5q-8 0 -14.5 6t-6.5 14
q-8 386 -8 594z" />
    <glyph glyph-name="Iacute" unicode="&#xcd;" horiz-adv-x="573" 
d="M110 1291q0 8 36 64q64 103 158 232q110 4 165 4q68 0 188 -4q10 0 10 -8q0 -13 -41 -61q-29 -37 -100.5 -117t-107.5 -127q-150 0 -298 8q-10 0 -10 9zM94 614q0 287 8 615q87 4 179 4q71 0 211 -4q8 0 14 -6.5t6 -14.5q8 -386 8 -594q0 -286 -8 -614q-108 -5 -179 -5
q-35 0 -210 5q-8 0 -14.5 6t-6.5 14q-8 386 -8 594z" />
    <glyph glyph-name="Icircumflex" unicode="&#xce;" horiz-adv-x="573" 
d="M-144 1271q56 108 190 293q13 17 31 18q144 7 290 7h43h52h47q66 -74 193 -242q41 -53 41 -61q0 -9 -10 -9q-90 -3 -165 -3q-92 0 -147 3q-53 73 -125 211q-59 -121 -101 -196q-5 -8 -14.5 -14.5t-17.5 -6.5q-95 -3 -166 -3q-89 0 -141 3zM94 614q0 287 8 615q87 4 179 4
q71 0 211 -4q8 0 14 -6.5t6 -14.5q8 -386 8 -594q0 -286 -8 -614q-108 -5 -179 -5q-35 0 -210 5q-8 0 -14.5 6t-6.5 14q-8 386 -8 594z" />
    <glyph glyph-name="Idieresis" unicode="&#xcf;" horiz-adv-x="573" 
d="M365 1449q0 34 2 132q77 3 135 3q80 0 160 -3q8 0 14 -6t6 -14q2 -110 2 -148q0 -33 -2 -131q-37 -2 -104 -2q-63 0 -191 6q-20 2 -20 21q-2 108 -2 142zM-90 1449q0 34 2 132q76 3 140 3q76 0 155 -3q8 0 14 -6t6 -14q2 -110 2 -148q0 -33 -2 -131q-37 -2 -103 -2
q-64 0 -192 6q-20 2 -20 21q-2 108 -2 142zM94 614q0 287 8 615q87 4 179 4q71 0 211 -4q8 0 14 -6.5t6 -14.5q8 -386 8 -594q0 -286 -8 -614q-108 -5 -179 -5q-35 0 -210 5q-8 0 -14.5 6t-6.5 14q-8 386 -8 594z" />
    <glyph glyph-name="Eth" unicode="&#xd0;" 
d="M22 617q0 49 3 149q11 1 36 1.5t38 0.5q0 49 1 137.5t1.5 161.5t0.5 141q228 35 428 35q135 0 230.5 -30.5t166 -102t104.5 -194.5t34 -301q0 -152 -23 -261t-64 -178t-108.5 -109.5t-146.5 -55.5t-188 -15q-130 0 -412 24q-8 0 -14.5 6.5t-6.5 14.5q0 61 -0.5 127.5
t-1.5 147.5t-1 128q-9 1 -27 1.5t-27 0.5q-8 0 -14 6.5t-6 14.5q0 9 -1.5 64.5t-1.5 85.5zM505 768q10 0 30.5 -0.5t29.5 -1.5q8 0 14.5 -6.5t6.5 -14.5q2 -47 2 -174q0 -41 -2 -129q-6 0 -17.5 -0.5t-30.5 -1t-33 -0.5q0 -16 0.5 -48t1.5 -48h56q24 0 40 8.5t32 35t23.5 83
t7.5 144.5q0 71 -5.5 121.5t-14.5 79t-23 45t-27.5 21t-32.5 4.5h-55q-2 -78 -3 -118z" />
    <glyph glyph-name="Ntilde" unicode="&#xd1;" horiz-adv-x="1126" 
d="M184 1493q0 11 11 17q145 91 237 94q47 0 131 -27t127 -27q70 0 186 60q59 -97 87 -149q34 -59 34 -68q0 -11 -10 -18q-149 -101 -250 -101q-44 0 -119 22.5t-118 22.5q-74 0 -186 -58q-48 79 -84 143q-46 81 -46 89zM94 614q0 287 8 615q87 4 169 4q91 0 178 -4
q14 0 22 -21l212 -524l-7 545q87 4 179 4q108 0 189 -4q8 0 14.5 -6.5t6.5 -14.5q8 -386 8 -594q0 -286 -8 -614q-95 -5 -159 -5q-77 0 -187 5q-16 1 -23 20l-212 525l8 -545q-108 -5 -169 -5q-35 0 -200 5q-8 0 -14.5 6t-6.5 14q-8 386 -8 594z" />
    <glyph glyph-name="Ograve" unicode="&#xd2;" 
d="M264 1587q104 4 149 4q52 0 178 -4q21 0 32 -20q155 -294 157 -297q-173 0 -330 8q-21 2 -31 20q-104 187 -155 289zM53 615q0 297 123 457t344 171q150 0 255 -31.5t178 -105t107 -194t34 -297.5q0 -296 -125 -456t-346 -171q-150 0 -254 31.5t-176.5 104t-106 193.5
t-33.5 298zM481 615q0 -89 6.5 -145t20.5 -82.5t29 -35t38 -8.5q31 0 48.5 15.5t30 77t12.5 178.5q0 88 -7 144t-21.5 82.5t-29.5 35t-39 8.5q-31 0 -48 -15.5t-28.5 -76.5t-11.5 -178z" />
    <glyph glyph-name="Oacute" unicode="&#xd3;" 
d="M395 1291q0 8 36 64q64 103 158 232q110 4 165 4q67 0 187 -4q11 0 11 -8q0 -11 -42 -61q-29 -37 -100 -117t-107 -127q-150 0 -298 8q-10 0 -10 9zM53 615q0 297 123 457t344 171q150 0 255 -31.5t178 -105t107 -194t34 -297.5q0 -296 -125 -456t-346 -171
q-150 0 -254 31.5t-176.5 104t-106 193.5t-33.5 298zM481 615q0 -89 6.5 -145t20.5 -82.5t29 -35t38 -8.5q31 0 48.5 15.5t30 77t12.5 178.5q0 88 -7 144t-21.5 82.5t-29.5 35t-39 8.5q-31 0 -48 -15.5t-28.5 -76.5t-11.5 -178z" />
    <glyph glyph-name="Ocircumflex" unicode="&#xd4;" 
d="M141 1271q56 108 190 293q13 17 31 18q144 7 289 7h142q73 -82 194 -242q41 -53 41 -61q0 -9 -11 -9q-90 -3 -164 -3q-92 0 -147 3q-53 73 -125 211q-51 -104 -102 -196q-11 -21 -31 -21q-95 -3 -167 -3q-88 0 -140 3zM53 615q0 297 123 457t344 171q150 0 255 -31.5
t178 -105t107 -194t34 -297.5q0 -296 -125 -456t-346 -171q-150 0 -254 31.5t-176.5 104t-106 193.5t-33.5 298zM481 615q0 -89 6.5 -145t20.5 -82.5t29 -35t38 -8.5q31 0 48.5 15.5t30 77t12.5 178.5q0 88 -7 144t-21.5 82.5t-29.5 35t-39 8.5q-31 0 -48 -15.5t-28.5 -76.5
t-11.5 -178z" />
    <glyph glyph-name="Otilde" unicode="&#xd5;" 
d="M176 1493q0 11 10 17q145 91 238 94q47 0 131 -27t127 -27q70 0 186 60q59 -97 87 -149q34 -59 34 -68q0 -11 -10 -18q-149 -101 -250 -101q-44 0 -119 22.5t-118 22.5q-74 0 -186 -58q-48 79 -84 143q-46 81 -46 89zM53 615q0 297 123 457t344 171q150 0 255 -31.5
t178 -105t107 -194t34 -297.5q0 -296 -125 -456t-346 -171q-150 0 -254 31.5t-176.5 104t-106 193.5t-33.5 298zM481 615q0 -89 6.5 -145t20.5 -82.5t29 -35t38 -8.5q31 0 48.5 15.5t30 77t12.5 178.5q0 88 -7 144t-21.5 82.5t-29.5 35t-39 8.5q-31 0 -48 -15.5t-28.5 -76.5
t-11.5 -178z" />
    <glyph glyph-name="Odieresis" unicode="&#xd6;" 
d="M53 615q0 297 123 457t344 171q150 0 255 -31.5t178 -105t107 -194t34 -297.5q0 -296 -125 -456t-346 -171q-150 0 -254 31.5t-176.5 104t-106 193.5t-33.5 298zM481 615q0 -89 6.5 -145t20.5 -82.5t29 -35t38 -8.5q31 0 48.5 15.5t30 77t12.5 178.5q0 88 -7 144
t-21.5 82.5t-29.5 35t-39 8.5q-31 0 -48 -15.5t-28.5 -76.5t-11.5 -178zM649 1449q0 34 2 132q76 3 136 3q79 0 159 -3q8 0 14.5 -6t6.5 -14q1 -55 1 -148q0 -82 -1 -131q-37 -2 -104 -2q-63 0 -191 6q-8 1 -14.5 7t-6.5 14q-2 108 -2 142zM195 1449q0 34 2 132q77 3 139 3
q76 0 156 -3q8 0 14 -6t6 -14q2 -110 2 -148q0 -33 -2 -131q-37 -2 -104 -2q-63 0 -191 6q-20 2 -20 21q-2 108 -2 142z" />
    <glyph glyph-name="multiply" unicode="&#xd7;" horiz-adv-x="907" 
d="M171 912q6 6 108 104q36 -33 188 -183q144 140 207 199q53 -48 97 -92q19 -19 107 -112q6 -6 6 -13t-6 -13q-31 -32 -94 -98.5t-91 -95.5q108 -110 170 -176q5 -5 5 -12t-5 -14q-11 -13 -83 -85q-10 -11 -106 -103q-1 1 -188 183q-25 -24 -93 -89t-101 -97q-43 39 -97 93
q-37 37 -107 111q-5 5 -5 13q0 6 5 13q69 75 174 183q-41 43 -101.5 106.5t-67.5 70.5q-5 5 -5 12t5 14q31 34 78 81z" />
    <glyph glyph-name="Oslash" unicode="&#xd8;" 
d="M53 615q0 297 123 457t344 171q175 0 288 -43l89 180l111 -52l-97 -184q183 -138 183 -529q0 -296 -125 -456t-346 -171q-173 0 -283 41l-90 -180l-111 52l97 184q-94 70 -138.5 198.5t-44.5 331.5zM481 615q0 -45 1 -64l61 115l91 184q-20 35 -65 35q-31 0 -48 -15.5
t-28.5 -76.5t-11.5 -178zM513 377q19 -33 62 -33q31 0 48.5 15.5t30 77t12.5 178.5q0 43 -1 62l-33 -61z" />
    <glyph glyph-name="Ugrave" unicode="&#xd9;" horiz-adv-x="1081" 
d="M243 1587q104 4 150 4q52 0 178 -4q20 0 31 -20q155 -294 157 -297q-173 0 -330 8q-21 2 -31 20q-104 187 -155 289zM55 607q0 294 8 622q87 4 179 4q71 0 211 -4q8 0 14 -6.5t6 -14.5q8 -386 8 -663q0 -89 9.5 -135t26 -60t46.5 -14t45.5 14t24 59.5t8.5 135.5
q0 356 8 684q87 4 179 4q70 0 210 -4q8 0 14.5 -6.5t6.5 -14.5q8 -386 8 -601q0 -131 -20 -233.5t-57.5 -174.5t-94 -119.5t-126.5 -71.5t-159 -28q-117 0 -200.5 16t-153.5 56.5t-112.5 111t-65.5 180.5t-23 263z" />
    <glyph glyph-name="Uacute" unicode="&#xda;" horiz-adv-x="1081" 
d="M374 1291q0 6 37 64q64 103 158 232q110 4 165 4q67 0 187 -4q11 0 11 -8q0 -11 -42 -61q-29 -37 -100 -117t-107 -127q-150 0 -298 8q-11 0 -11 9zM55 607q0 294 8 622q87 4 179 4q71 0 211 -4q8 0 14 -6.5t6 -14.5q8 -386 8 -663q0 -89 9.5 -135t26 -60t46.5 -14
t45.5 14t24 59.5t8.5 135.5q0 356 8 684q87 4 179 4q70 0 210 -4q8 0 14.5 -6.5t6.5 -14.5q8 -386 8 -601q0 -131 -20 -233.5t-57.5 -174.5t-94 -119.5t-126.5 -71.5t-159 -28q-117 0 -200.5 16t-153.5 56.5t-112.5 111t-65.5 180.5t-23 263z" />
    <glyph glyph-name="Ucircumflex" unicode="&#xdb;" horiz-adv-x="1081" 
d="M120 1271q56 108 190 293q13 17 31 18q144 7 290 7h43h52h47q66 -74 193 -242q41 -53 41 -61q0 -9 -10 -9q-90 -3 -165 -3q-92 0 -147 3q-49 68 -124 211q-51 -104 -102 -196q-11 -21 -31 -21q-94 -3 -167 -3q-89 0 -141 3zM55 607q0 294 8 622q87 4 179 4q71 0 211 -4
q8 0 14 -6.5t6 -14.5q8 -386 8 -663q0 -89 9.5 -135t26 -60t46.5 -14t45.5 14t24 59.5t8.5 135.5q0 356 8 684q87 4 179 4q70 0 210 -4q8 0 14.5 -6.5t6.5 -14.5q8 -386 8 -601q0 -131 -20 -233.5t-57.5 -174.5t-94 -119.5t-126.5 -71.5t-159 -28q-117 0 -200.5 16
t-153.5 56.5t-112.5 111t-65.5 180.5t-23 263z" />
    <glyph glyph-name="Udieresis" unicode="&#xdc;" horiz-adv-x="1081" 
d="M55 607q0 294 8 622q87 4 179 4q71 0 211 -4q8 0 14 -6.5t6 -14.5q8 -386 8 -663q0 -89 9.5 -135t26 -60t46.5 -14t45.5 14t24 59.5t8.5 135.5q0 356 8 684q87 4 179 4q70 0 210 -4q8 0 14.5 -6.5t6.5 -14.5q8 -386 8 -601q0 -131 -20 -233.5t-57.5 -174.5t-94 -119.5
t-126.5 -71.5t-159 -28q-117 0 -200.5 16t-153.5 56.5t-112.5 111t-65.5 180.5t-23 263zM629 1449q0 34 2 132q77 3 135 3q81 0 160 -3q8 0 14 -6t6 -14q2 -110 2 -148q0 -33 -2 -131q-37 -2 -104 -2q-63 0 -191 6q-20 2 -20 21q-2 108 -2 142zM174 1449q0 34 2 132
q77 3 140 3q76 0 155 -3q8 0 14.5 -6t6.5 -14q1 -55 1 -148q0 -82 -1 -131q-37 -2 -104 -2q-63 0 -191 6q-8 1 -14.5 7t-6.5 14q-2 108 -2 142z" />
    <glyph glyph-name="Yacute" unicode="&#xdd;" horiz-adv-x="1075" 
d="M374 1291q0 6 37 64q64 103 158 232q110 4 165 4q67 0 187 -4q11 0 11 -8q0 -11 -42 -61q-29 -37 -100 -117t-107 -127q-150 0 -298 8q-11 0 -11 9zM16 1221q103 12 215 12q74 0 164 -5q26 -2 32 -21q54 -165 131 -446q77 281 131 446q6 19 31 21q90 5 165 5
q111 0 214 -12q-79 -340 -171 -522q-65 -111 -165 -193q4 -339 5 -506q-108 -5 -183 -5q-39 0 -214 5q-8 0 -14.5 6t-6.5 14q0 237 3 486q-101 83 -166 193q-92 182 -171 522z" />
    <glyph glyph-name="Thorn" unicode="&#xde;" horiz-adv-x="1044" 
d="M504 614v-78h20q50 0 77.5 22.5t27.5 91.5q0 80 -15 100.5t-76 20.5h-33q-1 -52 -1 -157zM94 614q0 287 8 615q87 4 179 4q71 0 211 -4q8 0 14 -6t6 -15q0 -11 -0.5 -43t-0.5 -45q78 0 135 -4.5t116 -16.5t99.5 -33t77 -55.5t58.5 -83t34.5 -116.5t12.5 -155
q0 -107 -24 -186t-67 -130t-111.5 -82t-147.5 -43.5t-185 -13.5l3 -201q-108 -5 -179 -5q-35 0 -210 5q-8 0 -14.5 6t-6.5 14q-8 386 -8 594z" />
    <glyph glyph-name="germandbls" unicode="&#xdf;" horiz-adv-x="1169" 
d="M78 625q0 126 16.5 223t50.5 164.5t79 113t109.5 71t134.5 36t161 10.5q237 0 446 -37q-41 -188 -125 -502q228 -113 228 -341q0 -376 -426 -376q-83 0 -191 15l44 327q74 -18 103 -18q24 0 39 13t15 35q0 30 -46 49.5t-124 37.5q28 255 61 449h-51q-25 0 -41.5 -8.5
t-32 -34.5t-23 -82.5t-7.5 -144.5q0 -174 -11 -625q-108 -5 -174 -5q-32 0 -207 5q-8 0 -14 6t-6 14q-8 386 -8 605z" />
    <glyph glyph-name="agrave" unicode="&#xe0;" horiz-adv-x="1064" 
d="M235 1587q104 4 150 4q52 0 178 -4q20 0 31 -20q155 -294 157 -297q-173 0 -330 8q-21 2 -31 20q-104 187 -155 289zM20 17q0 2 2 13t4.5 27t3.5 24q21 131 51.5 291t53.5 275.5t61.5 302.5t57.5 279q91 4 281 4q164 0 293 -4q8 0 15 -6.5t9 -14.5q22 -114 76 -373
t92 -458t65 -377q-107 -5 -178 -5q-113 0 -201 5q-21 2 -24 20q-26 136 -37 205h-190q-17 -114 -39 -225q-110 -5 -170 -5q-36 0 -209 5q-17 0 -17 17zM490 492h114q-13 89 -35.5 255.5l-27.5 203.5q-11 -84 -27.5 -240t-23.5 -219z" />
    <glyph glyph-name="aacute" unicode="&#xe1;" horiz-adv-x="1064" 
d="M366 1291q0 8 36 64q64 103 158 232q110 4 165 4q68 0 188 -4q10 0 10 -8q0 -13 -41 -61q-29 -37 -100.5 -117t-107.5 -127q-150 0 -298 8q-10 0 -10 9zM20 17q0 2 2 13t4.5 27t3.5 24q21 131 51.5 291t53.5 275.5t61.5 302.5t57.5 279q91 4 281 4q164 0 293 -4
q8 0 15 -6.5t9 -14.5q22 -114 76 -373t92 -458t65 -377q-107 -5 -178 -5q-113 0 -201 5q-21 2 -24 20q-26 136 -37 205h-190q-17 -114 -39 -225q-110 -5 -170 -5q-36 0 -209 5q-17 0 -17 17zM490 492h114q-13 89 -35.5 255.5l-27.5 203.5q-11 -84 -27.5 -240t-23.5 -219z
" />
    <glyph glyph-name="acircumflex" unicode="&#xe2;" horiz-adv-x="1064" 
d="M112 1271q56 108 190 293q13 17 31 18q144 7 290 7h142q66 -74 193 -242q41 -53 41 -61q0 -9 -10 -9q-90 -3 -165 -3q-92 0 -147 3q-53 73 -125 211q-59 -121 -101 -196q-5 -8 -14.5 -14.5t-17.5 -6.5q-95 -3 -166 -3q-89 0 -141 3zM20 17q0 2 2 13t4.5 27t3.5 24
q21 131 51.5 291t53.5 275.5t61.5 302.5t57.5 279q91 4 281 4q164 0 293 -4q8 0 15 -6.5t9 -14.5q22 -114 76 -373t92 -458t65 -377q-107 -5 -178 -5q-113 0 -201 5q-21 2 -24 20q-26 136 -37 205h-190q-17 -114 -39 -225q-110 -5 -170 -5q-36 0 -209 5q-17 0 -17 17z
M490 492h114q-13 89 -35.5 255.5l-27.5 203.5q-11 -84 -27.5 -240t-23.5 -219z" />
    <glyph glyph-name="atilde" unicode="&#xe3;" horiz-adv-x="1064" 
d="M147 1493q0 11 11 17q145 91 237 94q47 0 131 -27t127 -27q70 0 186 60q59 -97 87 -149q35 -61 35 -68q0 -11 -11 -18q-149 -101 -250 -101q-44 0 -119 22.5t-118 22.5q-74 0 -186 -58q-48 79 -84 143q-46 81 -46 89zM20 17q0 2 2 13t4.5 27t3.5 24q21 131 51.5 291
t53.5 275.5t61.5 302.5t57.5 279q91 4 281 4q164 0 293 -4q8 0 15 -6.5t9 -14.5q22 -114 76 -373t92 -458t65 -377q-107 -5 -178 -5q-113 0 -201 5q-21 2 -24 20q-26 136 -37 205h-190q-17 -114 -39 -225q-110 -5 -170 -5q-36 0 -209 5q-17 0 -17 17zM490 492h114
q-13 89 -35.5 255.5l-27.5 203.5q-11 -84 -27.5 -240t-23.5 -219z" />
    <glyph glyph-name="adieresis" unicode="&#xe4;" horiz-adv-x="1064" 
d="M20 20q21 137 52.5 305t56 290.5t65 319t60.5 294.5q91 4 281 4q164 0 293 -4q8 0 15 -6.5t9 -14.5q22 -114 76 -373t92 -458t65 -377q-107 -5 -178 -5q-113 0 -201 5q-21 2 -24 20q-26 136 -37 205h-190q-17 -114 -39 -225q-110 -5 -170 -5q-36 0 -209 5q-8 0 -13 6
t-4 14zM490 492h114q-13 89 -35.5 255.5l-27.5 203.5q-11 -84 -27.5 -240t-23.5 -219zM621 1449q0 34 2 132q77 3 135 3q80 0 160 -3q8 0 14 -6t6 -14q2 -110 2 -148q0 -33 -2 -131q-37 -2 -104 -2q-63 0 -191 6q-20 2 -20 21q-2 108 -2 142zM166 1449q0 34 2 132
q76 3 140 3q76 0 155 -3q8 0 14 -6t6 -14q2 -110 2 -148q0 -33 -2 -131q-37 -2 -103 -2q-64 0 -192 6q-20 2 -20 21q-2 108 -2 142z" />
    <glyph glyph-name="aring" unicode="&#xe5;" horiz-adv-x="1064" 
d="M20 17q0 2 2 13t4.5 27t3.5 24q21 131 51.5 291t53.5 275.5t61.5 302.5t57.5 279q97 4 216 4q-68 16 -98 60t-30 119q0 84 51.5 134.5t138.5 55.5q126 0 179 -45t53 -145q0 -68 -32.5 -114.5t-92.5 -64.5q126 -2 189 -4q8 0 15 -6.5t9 -14.5q22 -114 76 -373t92 -458
t65 -377q-107 -5 -178 -5q-113 0 -201 5q-21 2 -24 20q-26 136 -37 205h-190q-17 -114 -39 -225q-110 -5 -170 -5q-36 0 -209 5q-17 0 -17 17zM512 1411q0 -27 9 -36t32 -9q22 0 31.5 9t9.5 36q0 28 -10.5 37t-34.5 9q-18 0 -27.5 -9.5t-9.5 -36.5zM490 492h114
q-13 89 -35.5 255.5l-27.5 203.5q-11 -84 -27.5 -240t-23.5 -219z" />
    <glyph glyph-name="ae" unicode="&#xe6;" horiz-adv-x="1482" 
d="M20 17q0 2 2 13t4.5 27t3.5 24q21 131 51.5 291t53.5 275.5t61.5 302.5t57.5 279q246 7 595 7q329 0 589 -7q8 0 14 -6.5t6 -14.5q2 -124 2 -177q0 -44 -2 -150q-87 -4 -325 -4h-79q0 -17 -0.5 -52.5t-0.5 -54.5q206 -3 245 -4q8 0 14.5 -6.5t6.5 -14.5q2 -112 2 -153
q0 -39 -2 -137h-266q0 -18 0.5 -54t0.5 -53h25q223 0 363 -4q8 0 14 -6t6 -14q2 -124 2 -177q0 -45 -2 -151q-108 -5 -351 -5q-120 0 -435 9q-8 0 -14.5 6t-6.5 14q-6 277 -7 426h-164q-31 -262 -68 -446q-110 -5 -170 -5q-36 0 -209 5q-17 0 -17 17zM518 748h130
q0 101 1 146q-20 0 -60 0.5t-56 1.5q-9 -59 -15 -148z" />
    <glyph glyph-name="ccedilla" unicode="&#xe7;" horiz-adv-x="849" 
d="M53 615q0 142 26 250t72.5 179.5t117.5 116t155 63.5t192 19q90 0 234 -35l-44 -321l-189 13q-31 2 -53.5 -9t-42 -40t-30 -88.5t-10.5 -147.5q0 -118 17.5 -183t45.5 -85t73 -17l189 12l42 -324q-110 -21 -226 -22q165 -68 165 -205q0 -91 -83.5 -146t-242.5 -55
q-30 0 -52 1.5t-33.5 3.5t-34 6.5t-40.5 7.5l27 204l49 -6q62 -8 81 25q16 26 -12 50q-22 19 -64 22l14 113q-112 26 -185.5 89.5t-115.5 190t-42 318.5z" />
    <glyph glyph-name="egrave" unicode="&#xe8;" horiz-adv-x="929" 
d="M180 1587q104 4 149 4q52 0 178 -4q21 0 32 -20q155 -294 157 -297q-173 0 -330 8q-21 2 -31 20q-104 187 -155 289zM94 614q0 287 8 615q87 4 425 4q218 0 358 -4q8 0 14 -6.5t6 -14.5q2 -124 2 -177q0 -44 -2 -150q-87 -4 -325 -4h-78q0 -17 -1 -52.5t-1 -54.5
q206 -3 245 -4q8 0 14.5 -6.5t6.5 -14.5q2 -112 2 -153q0 -39 -2 -137h-266q0 -18 1 -54t1 -53h24q223 0 363 -4q8 0 14 -6t6 -14q2 -124 2 -177q0 -45 -2 -151q-108 -5 -351 -5q-120 0 -435 9q-8 0 -14.5 6t-6.5 14q-8 386 -8 594z" />
    <glyph glyph-name="eacute" unicode="&#xe9;" horiz-adv-x="929" 
d="M311 1291q0 8 36 64q64 103 158 232q110 4 165 4q67 0 187 -4q11 0 11 -8q0 -11 -42 -61q-29 -37 -100 -117t-107 -127q-150 0 -298 8q-10 0 -10 9zM94 614q0 287 8 615q87 4 425 4q218 0 358 -4q8 0 14 -6.5t6 -14.5q2 -124 2 -177q0 -44 -2 -150q-87 -4 -325 -4h-78
q0 -17 -1 -52.5t-1 -54.5q206 -3 245 -4q8 0 14.5 -6.5t6.5 -14.5q2 -112 2 -153q0 -39 -2 -137h-266q0 -18 1 -54t1 -53h24q223 0 363 -4q8 0 14 -6t6 -14q2 -124 2 -177q0 -45 -2 -151q-108 -5 -351 -5q-120 0 -435 9q-8 0 -14.5 6t-6.5 14q-8 386 -8 594z" />
    <glyph glyph-name="ecircumflex" unicode="&#xea;" horiz-adv-x="929" 
d="M57 1271q56 108 190 293q13 17 31 18q144 7 289 7h43h52h47q73 -82 194 -242q41 -53 41 -61q0 -9 -11 -9q-90 -3 -164 -3q-92 0 -147 3q-53 73 -125 211q-51 -104 -102 -196q-11 -21 -31 -21q-94 -3 -167 -3q-88 0 -140 3zM94 614q0 287 8 615q87 4 425 4q218 0 358 -4
q8 0 14 -6.5t6 -14.5q2 -124 2 -177q0 -44 -2 -150q-87 -4 -325 -4h-78q0 -17 -1 -52.5t-1 -54.5q206 -3 245 -4q8 0 14.5 -6.5t6.5 -14.5q2 -112 2 -153q0 -39 -2 -137h-266q0 -18 1 -54t1 -53h24q223 0 363 -4q8 0 14 -6t6 -14q2 -124 2 -177q0 -45 -2 -151
q-108 -5 -351 -5q-120 0 -435 9q-8 0 -14.5 6t-6.5 14q-8 386 -8 594z" />
    <glyph glyph-name="edieresis" unicode="&#xeb;" horiz-adv-x="929" 
d="M566 1449q0 83 1 132q77 3 136 3q79 0 159 -3q8 0 14.5 -6t6.5 -14q1 -55 1 -148q0 -82 -1 -131q-37 -2 -104 -2q-63 0 -191 6q-8 1 -14.5 7t-6.5 14q-1 54 -1 142zM111 1449q0 34 2 132q77 3 139 3q76 0 156 -3q8 0 14 -6t6 -14q2 -110 2 -148q0 -33 -2 -131
q-37 -2 -104 -2q-63 0 -191 6q-20 2 -20 21q-2 108 -2 142zM94 614q0 287 8 615q87 4 425 4q218 0 358 -4q8 0 14 -6.5t6 -14.5q2 -124 2 -177q0 -44 -2 -150q-87 -4 -325 -4h-78q0 -17 -1 -52.5t-1 -54.5q206 -3 245 -4q8 0 14.5 -6.5t6.5 -14.5q2 -112 2 -153
q0 -39 -2 -137h-266q0 -18 1 -54t1 -53h24q223 0 363 -4q8 0 14 -6t6 -14q2 -124 2 -177q0 -45 -2 -151q-108 -5 -351 -5q-120 0 -435 9q-8 0 -14.5 6t-6.5 14q-8 386 -8 594z" />
    <glyph glyph-name="igrave" unicode="&#xec;" horiz-adv-x="573" 
d="M-21 1587q104 4 150 4q52 0 178 -4q20 0 31 -20q155 -294 157 -297q-173 0 -330 8q-21 2 -31 20q-104 187 -155 289zM94 614q0 287 8 615q87 4 179 4q71 0 211 -4q8 0 14 -6.5t6 -14.5q8 -386 8 -594q0 -286 -8 -614q-108 -5 -179 -5q-35 0 -210 5q-8 0 -14.5 6t-6.5 14
q-8 386 -8 594z" />
    <glyph glyph-name="iacute" unicode="&#xed;" horiz-adv-x="573" 
d="M110 1291q0 8 36 64q64 103 158 232q110 4 165 4q68 0 188 -4q10 0 10 -8q0 -13 -41 -61q-29 -37 -100.5 -117t-107.5 -127q-150 0 -298 8q-10 0 -10 9zM94 614q0 287 8 615q87 4 179 4q71 0 211 -4q8 0 14 -6.5t6 -14.5q8 -386 8 -594q0 -286 -8 -614q-108 -5 -179 -5
q-35 0 -210 5q-8 0 -14.5 6t-6.5 14q-8 386 -8 594z" />
    <glyph glyph-name="icircumflex" unicode="&#xee;" horiz-adv-x="573" 
d="M-144 1271q56 108 190 293q13 17 31 18q144 7 290 7h43h52h47q66 -74 193 -242q41 -53 41 -61q0 -9 -10 -9q-90 -3 -165 -3q-92 0 -147 3q-53 73 -125 211q-59 -121 -101 -196q-5 -8 -14.5 -14.5t-17.5 -6.5q-95 -3 -166 -3q-89 0 -141 3zM94 614q0 287 8 615q87 4 179 4
q71 0 211 -4q8 0 14 -6.5t6 -14.5q8 -386 8 -594q0 -286 -8 -614q-108 -5 -179 -5q-35 0 -210 5q-8 0 -14.5 6t-6.5 14q-8 386 -8 594z" />
    <glyph glyph-name="idieresis" unicode="&#xef;" horiz-adv-x="573" 
d="M365 1449q0 34 2 132q77 3 135 3q80 0 160 -3q8 0 14 -6t6 -14q2 -110 2 -148q0 -33 -2 -131q-37 -2 -104 -2q-63 0 -191 6q-20 2 -20 21q-2 108 -2 142zM-90 1449q0 34 2 132q76 3 140 3q76 0 155 -3q8 0 14 -6t6 -14q2 -110 2 -148q0 -33 -2 -131q-37 -2 -103 -2
q-64 0 -192 6q-20 2 -20 21q-2 108 -2 142zM94 614q0 287 8 615q87 4 179 4q71 0 211 -4q8 0 14 -6.5t6 -14.5q8 -386 8 -594q0 -286 -8 -614q-108 -5 -179 -5q-35 0 -210 5q-8 0 -14.5 6t-6.5 14q-8 386 -8 594z" />
    <glyph glyph-name="eth" unicode="&#xf0;" 
d="M22 617q0 49 3 149q11 1 36 1.5t38 0.5q0 49 1 137.5t1.5 161.5t0.5 141q228 35 428 35q135 0 230.5 -30.5t166 -102t104.5 -194.5t34 -301q0 -152 -23 -261t-64 -178t-108.5 -109.5t-146.5 -55.5t-188 -15q-130 0 -412 24q-8 0 -14.5 6.5t-6.5 14.5q0 61 -0.5 127.5
t-1.5 147.5t-1 128q-9 1 -27 1.5t-27 0.5q-8 0 -14 6.5t-6 14.5q0 9 -1.5 64.5t-1.5 85.5zM505 768q10 0 30.5 -0.5t29.5 -1.5q8 0 14.5 -6.5t6.5 -14.5q2 -47 2 -174q0 -41 -2 -129q-6 0 -17.5 -0.5t-30.5 -1t-33 -0.5q0 -16 0.5 -48t1.5 -48h56q24 0 40 8.5t32 35t23.5 83
t7.5 144.5q0 71 -5.5 121.5t-14.5 79t-23 45t-27.5 21t-32.5 4.5h-55q-2 -78 -3 -118z" />
    <glyph glyph-name="ntilde" unicode="&#xf1;" horiz-adv-x="1126" 
d="M184 1493q0 11 11 17q145 91 237 94q47 0 131 -27t127 -27q70 0 186 60q59 -97 87 -149q34 -59 34 -68q0 -11 -10 -18q-149 -101 -250 -101q-44 0 -119 22.5t-118 22.5q-74 0 -186 -58q-48 79 -84 143q-46 81 -46 89zM94 614q0 287 8 615q87 4 169 4q91 0 178 -4
q14 0 22 -21l212 -524l-7 545q87 4 179 4q108 0 189 -4q8 0 14.5 -6.5t6.5 -14.5q8 -386 8 -594q0 -286 -8 -614q-95 -5 -159 -5q-77 0 -187 5q-16 1 -23 20l-212 525l8 -545q-108 -5 -169 -5q-35 0 -200 5q-8 0 -14.5 6t-6.5 14q-8 386 -8 594z" />
    <glyph glyph-name="ograve" unicode="&#xf2;" 
d="M264 1587q104 4 149 4q52 0 178 -4q21 0 32 -20q155 -294 157 -297q-173 0 -330 8q-21 2 -31 20q-104 187 -155 289zM53 615q0 297 123 457t344 171q150 0 255 -31.5t178 -105t107 -194t34 -297.5q0 -296 -125 -456t-346 -171q-150 0 -254 31.5t-176.5 104t-106 193.5
t-33.5 298zM481 615q0 -89 6.5 -145t20.5 -82.5t29 -35t38 -8.5q31 0 48.5 15.5t30 77t12.5 178.5q0 88 -7 144t-21.5 82.5t-29.5 35t-39 8.5q-31 0 -48 -15.5t-28.5 -76.5t-11.5 -178z" />
    <glyph glyph-name="oacute" unicode="&#xf3;" 
d="M395 1291q0 8 36 64q64 103 158 232q110 4 165 4q67 0 187 -4q11 0 11 -8q0 -11 -42 -61q-29 -37 -100 -117t-107 -127q-150 0 -298 8q-10 0 -10 9zM53 615q0 297 123 457t344 171q150 0 255 -31.5t178 -105t107 -194t34 -297.5q0 -296 -125 -456t-346 -171
q-150 0 -254 31.5t-176.5 104t-106 193.5t-33.5 298zM481 615q0 -89 6.5 -145t20.5 -82.5t29 -35t38 -8.5q31 0 48.5 15.5t30 77t12.5 178.5q0 88 -7 144t-21.5 82.5t-29.5 35t-39 8.5q-31 0 -48 -15.5t-28.5 -76.5t-11.5 -178z" />
    <glyph glyph-name="ocircumflex" unicode="&#xf4;" 
d="M141 1271q56 108 190 293q13 17 31 18q144 7 289 7h142q73 -82 194 -242q41 -53 41 -61q0 -9 -11 -9q-90 -3 -164 -3q-92 0 -147 3q-53 73 -125 211q-51 -104 -102 -196q-11 -21 -31 -21q-95 -3 -167 -3q-88 0 -140 3zM53 615q0 297 123 457t344 171q150 0 255 -31.5
t178 -105t107 -194t34 -297.5q0 -296 -125 -456t-346 -171q-150 0 -254 31.5t-176.5 104t-106 193.5t-33.5 298zM481 615q0 -89 6.5 -145t20.5 -82.5t29 -35t38 -8.5q31 0 48.5 15.5t30 77t12.5 178.5q0 88 -7 144t-21.5 82.5t-29.5 35t-39 8.5q-31 0 -48 -15.5t-28.5 -76.5
t-11.5 -178z" />
    <glyph glyph-name="otilde" unicode="&#xf5;" 
d="M176 1493q0 11 10 17q145 91 238 94q47 0 131 -27t127 -27q70 0 186 60q59 -97 87 -149q34 -59 34 -68q0 -11 -10 -18q-149 -101 -250 -101q-44 0 -119 22.5t-118 22.5q-74 0 -186 -58q-48 79 -84 143q-46 81 -46 89zM53 615q0 297 123 457t344 171q150 0 255 -31.5
t178 -105t107 -194t34 -297.5q0 -296 -125 -456t-346 -171q-150 0 -254 31.5t-176.5 104t-106 193.5t-33.5 298zM481 615q0 -89 6.5 -145t20.5 -82.5t29 -35t38 -8.5q31 0 48.5 15.5t30 77t12.5 178.5q0 88 -7 144t-21.5 82.5t-29.5 35t-39 8.5q-31 0 -48 -15.5t-28.5 -76.5
t-11.5 -178z" />
    <glyph glyph-name="odieresis" unicode="&#xf6;" 
d="M53 615q0 297 123 457t344 171q150 0 255 -31.5t178 -105t107 -194t34 -297.5q0 -296 -125 -456t-346 -171q-150 0 -254 31.5t-176.5 104t-106 193.5t-33.5 298zM481 615q0 -89 6.5 -145t20.5 -82.5t29 -35t38 -8.5q31 0 48.5 15.5t30 77t12.5 178.5q0 88 -7 144
t-21.5 82.5t-29.5 35t-39 8.5q-31 0 -48 -15.5t-28.5 -76.5t-11.5 -178zM649 1449q0 34 2 132q76 3 136 3q79 0 159 -3q8 0 14.5 -6t6.5 -14q1 -55 1 -148q0 -82 -1 -131q-37 -2 -104 -2q-63 0 -191 6q-8 1 -14.5 7t-6.5 14q-2 108 -2 142zM195 1449q0 34 2 132q77 3 139 3
q76 0 156 -3q8 0 14 -6t6 -14q2 -110 2 -148q0 -33 -2 -131q-37 -2 -104 -2q-63 0 -191 6q-20 2 -20 21q-2 108 -2 142z" />
    <glyph glyph-name="divide" unicode="&#xf7;" horiz-adv-x="1019" 
d="M59 617q0 82 2 149q108 5 511 5q232 0 407 -5q8 0 14 -6.5t6 -14.5q2 -47 2 -174q0 -41 -2 -129q-90 -4 -457 -4q-180 0 -460 8q-8 0 -14.5 6.5t-6.5 14.5q-2 106 -2 150zM353 205q0 92 1 141q71 4 152 4q52 0 176 -4q8 0 14 -6t6 -14q2 -110 2 -157q0 -42 -2 -140
q-56 -3 -111 -3q-85 0 -216 7q-21 2 -21 20q-1 54 -1 152zM353 1033q0 92 1 141q53 3 152 3q83 0 176 -3q8 0 14 -6.5t6 -14.5q2 -110 2 -157q0 -42 -2 -140q-56 -3 -111 -3q-85 0 -216 7q-8 1 -14.5 7t-6.5 14q-1 54 -1 152z" />
    <glyph glyph-name="oslash" unicode="&#xf8;" 
d="M53 615q0 297 123 457t344 171q175 0 288 -43l89 180l111 -52l-97 -184q183 -138 183 -529q0 -296 -125 -456t-346 -171q-173 0 -283 41l-90 -180l-111 52l97 184q-94 70 -138.5 198.5t-44.5 331.5zM481 615q0 -45 1 -64l61 115l91 184q-20 35 -65 35q-31 0 -48 -15.5
t-28.5 -76.5t-11.5 -178zM513 377q19 -33 62 -33q31 0 48.5 15.5t30 77t12.5 178.5q0 43 -1 62l-33 -61z" />
    <glyph glyph-name="ugrave" unicode="&#xf9;" horiz-adv-x="1081" 
d="M243 1587q104 4 150 4q52 0 178 -4q20 0 31 -20q155 -294 157 -297q-173 0 -330 8q-21 2 -31 20q-104 187 -155 289zM55 607q0 294 8 622q87 4 179 4q71 0 211 -4q8 0 14 -6.5t6 -14.5q8 -386 8 -663q0 -89 9.5 -135t26 -60t46.5 -14t45.5 14t24 59.5t8.5 135.5
q0 356 8 684q87 4 179 4q70 0 210 -4q8 0 14.5 -6.5t6.5 -14.5q8 -386 8 -601q0 -131 -20 -233.5t-57.5 -174.5t-94 -119.5t-126.5 -71.5t-159 -28q-117 0 -200.5 16t-153.5 56.5t-112.5 111t-65.5 180.5t-23 263z" />
    <glyph glyph-name="uacute" unicode="&#xfa;" horiz-adv-x="1081" 
d="M374 1291q0 6 37 64q64 103 158 232q110 4 165 4q67 0 187 -4q11 0 11 -8q0 -11 -42 -61q-29 -37 -100 -117t-107 -127q-150 0 -298 8q-11 0 -11 9zM55 607q0 294 8 622q87 4 179 4q71 0 211 -4q8 0 14 -6.5t6 -14.5q8 -386 8 -663q0 -89 9.5 -135t26 -60t46.5 -14
t45.5 14t24 59.5t8.5 135.5q0 356 8 684q87 4 179 4q70 0 210 -4q8 0 14.5 -6.5t6.5 -14.5q8 -386 8 -601q0 -131 -20 -233.5t-57.5 -174.5t-94 -119.5t-126.5 -71.5t-159 -28q-117 0 -200.5 16t-153.5 56.5t-112.5 111t-65.5 180.5t-23 263z" />
    <glyph glyph-name="ucircumflex" unicode="&#xfb;" horiz-adv-x="1081" 
d="M120 1271q56 108 190 293q13 17 31 18q144 7 290 7h43h52h47q66 -74 193 -242q41 -53 41 -61q0 -9 -10 -9q-90 -3 -165 -3q-92 0 -147 3q-49 68 -124 211q-51 -104 -102 -196q-11 -21 -31 -21q-94 -3 -167 -3q-89 0 -141 3zM55 607q0 294 8 622q87 4 179 4q71 0 211 -4
q8 0 14 -6.5t6 -14.5q8 -386 8 -663q0 -89 9.5 -135t26 -60t46.5 -14t45.5 14t24 59.5t8.5 135.5q0 356 8 684q87 4 179 4q70 0 210 -4q8 0 14.5 -6.5t6.5 -14.5q8 -386 8 -601q0 -131 -20 -233.5t-57.5 -174.5t-94 -119.5t-126.5 -71.5t-159 -28q-117 0 -200.5 16
t-153.5 56.5t-112.5 111t-65.5 180.5t-23 263z" />
    <glyph glyph-name="udieresis" unicode="&#xfc;" horiz-adv-x="1081" 
d="M55 607q0 294 8 622q87 4 179 4q71 0 211 -4q8 0 14 -6.5t6 -14.5q8 -386 8 -663q0 -89 9.5 -135t26 -60t46.5 -14t45.5 14t24 59.5t8.5 135.5q0 356 8 684q87 4 179 4q70 0 210 -4q8 0 14.5 -6.5t6.5 -14.5q8 -386 8 -601q0 -131 -20 -233.5t-57.5 -174.5t-94 -119.5
t-126.5 -71.5t-159 -28q-117 0 -200.5 16t-153.5 56.5t-112.5 111t-65.5 180.5t-23 263zM629 1449q0 34 2 132q77 3 135 3q81 0 160 -3q8 0 14 -6t6 -14q2 -110 2 -148q0 -33 -2 -131q-37 -2 -104 -2q-63 0 -191 6q-20 2 -20 21q-2 108 -2 142zM174 1449q0 34 2 132
q77 3 140 3q76 0 155 -3q8 0 14.5 -6t6.5 -14q1 -55 1 -148q0 -82 -1 -131q-37 -2 -104 -2q-63 0 -191 6q-8 1 -14.5 7t-6.5 14q-2 108 -2 142z" />
    <glyph glyph-name="yacute" unicode="&#xfd;" horiz-adv-x="1075" 
d="M374 1291q0 6 37 64q64 103 158 232q110 4 165 4q67 0 187 -4q11 0 11 -8q0 -11 -42 -61q-29 -37 -100 -117t-107 -127q-150 0 -298 8q-11 0 -11 9zM16 1221q103 12 215 12q74 0 164 -5q26 -2 32 -21q54 -165 131 -446q77 281 131 446q6 19 31 21q90 5 165 5
q111 0 214 -12q-79 -340 -171 -522q-65 -111 -165 -193q4 -339 5 -506q-108 -5 -183 -5q-39 0 -214 5q-8 0 -14.5 6t-6.5 14q0 237 3 486q-101 83 -166 193q-92 182 -171 522z" />
    <glyph glyph-name="thorn" unicode="&#xfe;" horiz-adv-x="1044" 
d="M504 614v-78h20q50 0 77.5 22.5t27.5 91.5q0 80 -15 100.5t-76 20.5h-33q-1 -52 -1 -157zM94 614q0 287 8 615q87 4 179 4q71 0 211 -4q8 0 14 -6t6 -15q0 -11 -0.5 -43t-0.5 -45q78 0 135 -4.5t116 -16.5t99.5 -33t77 -55.5t58.5 -83t34.5 -116.5t12.5 -155
q0 -133 -35 -223t-107.5 -140t-165.5 -70.5t-226 -21.5q2 -134 2 -201q-108 -5 -179 -5q-35 0 -210 5q-8 0 -14.5 6t-6.5 14q-8 386 -8 594z" />
    <glyph glyph-name="ydieresis" unicode="&#xff;" horiz-adv-x="1075" 
d="M625 1449q0 34 2 132q76 3 135 3q80 0 160 -3q8 0 14 -6t6 -14q2 -110 2 -148q0 -33 -2 -131q-37 -2 -104 -2q-63 0 -191 6q-20 2 -20 21q-2 108 -2 142zM170 1449q0 34 2 132q77 3 140 3q76 0 155 -3q8 0 14 -6t6 -14q2 -110 2 -148q0 -33 -2 -131q-37 -2 -103 -2
q-63 0 -191 6q-8 1 -14.5 7t-6.5 14q-2 108 -2 142zM16 1221q103 12 215 12q74 0 164 -5q26 -2 32 -21q54 -165 131 -446q77 281 131 446q6 19 31 21q90 5 165 5q111 0 214 -12q-79 -340 -171 -522q-65 -111 -165 -193q4 -339 5 -506q-108 -5 -183 -5q-39 0 -214 5
q-8 0 -14.5 6t-6.5 14q0 237 3 486q-101 83 -166 193q-92 182 -171 522z" />
    <glyph glyph-name="Amacron" unicode="&#x100;" horiz-adv-x="1064" 
d="M246 1446q0 23 2 133q108 5 363 5q56 0 231 -5q8 0 14 -6t6 -14q1 -23 1 -135q0 -101 -1 -136q-90 -4 -281 -4q-33 0 -313 8q-8 0 -14 6.5t-6 14.5q-2 108 -2 133zM20 17q0 2 2 13t4.5 27t3.5 24q21 131 51.5 291t53.5 275.5t61.5 302.5t57.5 279q91 4 281 4
q164 0 293 -4q8 0 15 -6.5t9 -14.5q22 -114 76 -373t92 -458t65 -377q-107 -5 -178 -5q-113 0 -201 5q-21 2 -24 20q-26 136 -37 205h-190q-17 -114 -39 -225q-110 -5 -170 -5q-36 0 -209 5q-17 0 -17 17zM490 492h114q-13 89 -35.5 255.5l-27.5 203.5q-11 -84 -27.5 -240
t-23.5 -219z" />
    <glyph glyph-name="amacron" unicode="&#x101;" horiz-adv-x="1064" 
d="M246 1446q0 23 2 133q108 5 363 5q56 0 231 -5q8 0 14 -6t6 -14q1 -23 1 -135q0 -101 -1 -136q-90 -4 -281 -4q-33 0 -313 8q-8 0 -14 6.5t-6 14.5q-2 108 -2 133zM20 17q0 2 2 13t4.5 27t3.5 24q21 131 51.5 291t53.5 275.5t61.5 302.5t57.5 279q91 4 281 4
q164 0 293 -4q8 0 15 -6.5t9 -14.5q22 -114 76 -373t92 -458t65 -377q-107 -5 -178 -5q-113 0 -201 5q-21 2 -24 20q-26 136 -37 205h-190q-17 -114 -39 -225q-110 -5 -170 -5q-36 0 -209 5q-17 0 -17 17zM490 492h114q-13 89 -35.5 255.5l-27.5 203.5q-11 -84 -27.5 -240
t-23.5 -219z" />
    <glyph glyph-name="Abreve" unicode="&#x102;" horiz-adv-x="1064" 
d="M112 1589q78 3 139 3q69 0 164 -3q8 0 17.5 -6.5t14.5 -14.5q38 -74 110 -74q37 0 69.5 23.5t50.5 65.5q82 3 147 3q75 0 165 -3q8 0 8 -7q0 -13 -13.5 -46.5t-25.5 -54.5q-58 -98 -168.5 -153t-236.5 -55q-99 0 -187 33.5t-158 108t-96 180.5zM20 17q0 2 2 13t4.5 27
t3.5 24q21 131 51.5 291t53.5 275.5t61.5 302.5t57.5 279q91 4 281 4q164 0 293 -4q8 0 15 -6.5t9 -14.5q22 -114 76 -373t92 -458t65 -377q-107 -5 -178 -5q-113 0 -201 5q-21 2 -24 20q-26 136 -37 205h-190q-17 -114 -39 -225q-110 -5 -170 -5q-36 0 -209 5q-17 0 -17 17
zM490 492h114q-13 89 -35.5 255.5l-27.5 203.5q-11 -84 -27.5 -240t-23.5 -219z" />
    <glyph glyph-name="abreve" unicode="&#x103;" horiz-adv-x="1064" 
d="M112 1589q78 3 139 3q69 0 164 -3q8 0 17.5 -6.5t14.5 -14.5q38 -74 110 -74q37 0 69.5 23.5t50.5 65.5q82 3 147 3q75 0 165 -3q8 0 8 -7q0 -13 -13.5 -46.5t-25.5 -54.5q-58 -98 -168.5 -153t-236.5 -55q-99 0 -187 33.5t-158 108t-96 180.5zM20 17q0 2 2 13t4.5 27
t3.5 24q21 131 51.5 291t53.5 275.5t61.5 302.5t57.5 279q91 4 281 4q164 0 293 -4q8 0 15 -6.5t9 -14.5q22 -114 76 -373t92 -458t65 -377q-107 -5 -178 -5q-113 0 -201 5q-21 2 -24 20q-26 136 -37 205h-190q-17 -114 -39 -225q-110 -5 -170 -5q-36 0 -209 5q-17 0 -17 17
zM490 492h114q-13 89 -35.5 255.5l-27.5 203.5q-11 -84 -27.5 -240t-23.5 -219z" />
    <glyph glyph-name="Aogonek" unicode="&#x104;" horiz-adv-x="1064" 
d="M20 17q0 2 2 13t4.5 27t3.5 24q21 131 51.5 291t53.5 275.5t61.5 302.5t57.5 279q93 4 281 4q164 0 293 -4q8 0 15 -6.5t9 -14.5q22 -114 76 -373t92 -458t65 -377q-23 -1 -84 -3q-45 -2 -69.5 -20t-24.5 -40q0 -24 25.5 -40t67.5 -10l100 13l37 -287q-124 -23 -201 -23
q-143 0 -236 67.5t-93 163.5q0 94 96 179q-18 4 -21 20q-26 136 -37 205h-190q-17 -114 -39 -225q-110 -5 -170 -5q-36 0 -209 5q-17 0 -17 17zM490 492h114q-13 89 -35.5 255.5l-27.5 203.5q-11 -84 -27.5 -240t-23.5 -219z" />
    <glyph glyph-name="aogonek" unicode="&#x105;" horiz-adv-x="1064" 
d="M20 17q0 2 2 13t4.5 27t3.5 24q21 131 51.5 291t53.5 275.5t61.5 302.5t57.5 279q93 4 281 4q164 0 293 -4q8 0 15 -6.5t9 -14.5q22 -114 76 -373t92 -458t65 -377q-23 -1 -84 -3q-45 -2 -69.5 -20t-24.5 -40q0 -24 25.5 -40t67.5 -10l100 13l37 -287q-124 -23 -201 -23
q-143 0 -236 67.5t-93 163.5q0 94 96 179q-18 4 -21 20q-26 136 -37 205h-190q-17 -114 -39 -225q-110 -5 -170 -5q-36 0 -209 5q-17 0 -17 17zM490 492h114q-13 89 -35.5 255.5l-27.5 203.5q-11 -84 -27.5 -240t-23.5 -219z" />
    <glyph glyph-name="Cacute" unicode="&#x106;" horiz-adv-x="849" 
d="M354 1291q0 8 36 64q64 103 158 232q110 4 165 4q67 0 187 -4q11 0 11 -8q0 -11 -42 -61q-29 -37 -100 -117t-107 -127q-150 0 -298 8q-10 0 -10 9zM53 615q0 142 26 250t72.5 179.5t117.5 116t155 63.5t192 19q90 0 234 -35l-44 -321l-189 13q-31 2 -53.5 -9t-42 -40
t-30 -88.5t-10.5 -147.5q0 -118 17.5 -183t45.5 -85t73 -17l189 12l42 -324q-122 -22 -236 -22q-91 0 -161.5 10.5t-136 36t-111.5 71t-81 113t-52 165t-17 223.5z" />
    <glyph glyph-name="cacute" unicode="&#x107;" horiz-adv-x="849" 
d="M354 1291q0 8 36 64q64 103 158 232q110 4 165 4q67 0 187 -4q11 0 11 -8q0 -11 -42 -61q-29 -37 -100 -117t-107 -127q-150 0 -298 8q-10 0 -10 9zM53 615q0 142 26 250t72.5 179.5t117.5 116t155 63.5t192 19q90 0 234 -35l-44 -321l-189 13q-31 2 -53.5 -9t-42 -40
t-30 -88.5t-10.5 -147.5q0 -118 17.5 -183t45.5 -85t73 -17l189 12l42 -324q-122 -22 -236 -22q-91 0 -161.5 10.5t-136 36t-111.5 71t-81 113t-52 165t-17 223.5z" />
    <glyph glyph-name="Ccircumflex" unicode="&#x108;" horiz-adv-x="849" 
d="M100 1271q56 108 190 293q13 17 31 18q144 7 289 7h43h52h47q73 -82 194 -242q41 -53 41 -61q0 -9 -11 -9q-90 -3 -164 -3q-92 0 -147 3q-53 73 -125 211q-51 -104 -102 -196q-11 -21 -31 -21q-94 -3 -167 -3q-88 0 -140 3zM53 615q0 142 26 250t72.5 179.5t117.5 116
t155 63.5t192 19q90 0 234 -35l-44 -321l-189 13q-31 2 -53.5 -9t-42 -40t-30 -88.5t-10.5 -147.5q0 -118 17.5 -183t45.5 -85t73 -17l189 12l42 -324q-122 -22 -236 -22q-91 0 -161.5 10.5t-136 36t-111.5 71t-81 113t-52 165t-17 223.5z" />
    <glyph glyph-name="ccircumflex" unicode="&#x109;" horiz-adv-x="849" 
d="M100 1271q56 108 190 293q13 17 31 18q144 7 289 7h43h52h47q73 -82 194 -242q41 -53 41 -61q0 -9 -11 -9q-90 -3 -164 -3q-92 0 -147 3q-53 73 -125 211q-51 -104 -102 -196q-11 -21 -31 -21q-94 -3 -167 -3q-88 0 -140 3zM53 615q0 142 26 250t72.5 179.5t117.5 116
t155 63.5t192 19q90 0 234 -35l-44 -321l-189 13q-31 2 -53.5 -9t-42 -40t-30 -88.5t-10.5 -147.5q0 -118 17.5 -183t45.5 -85t73 -17l189 12l42 -324q-122 -22 -236 -22q-91 0 -161.5 10.5t-136 36t-111.5 71t-81 113t-52 165t-17 223.5z" />
    <glyph glyph-name="Cdotaccent" unicode="&#x10a;" horiz-adv-x="849" 
d="M367 1449q0 38 2 136q106 4 149 4q50 0 174 -4q8 0 14.5 -6t6.5 -14q1 -55 1 -152q0 -86 -1 -135q-60 -3 -114 -3q-79 0 -210 7q-20 2 -20 21q-2 108 -2 146zM53 615q0 142 26 250t72.5 179.5t117.5 116t155 63.5t192 19q90 0 234 -35l-44 -321l-189 13q-31 2 -53.5 -9
t-42 -40t-30 -88.5t-10.5 -147.5q0 -118 17.5 -183t45.5 -85t73 -17l189 12l42 -324q-122 -22 -236 -22q-91 0 -161.5 10.5t-136 36t-111.5 71t-81 113t-52 165t-17 223.5z" />
    <glyph glyph-name="cdotaccent" unicode="&#x10b;" horiz-adv-x="849" 
d="M367 1449q0 38 2 136q106 4 149 4q50 0 174 -4q8 0 14.5 -6t6.5 -14q1 -55 1 -152q0 -86 -1 -135q-60 -3 -114 -3q-79 0 -210 7q-20 2 -20 21q-2 108 -2 146zM53 615q0 142 26 250t72.5 179.5t117.5 116t155 63.5t192 19q90 0 234 -35l-44 -321l-189 13q-31 2 -53.5 -9
t-42 -40t-30 -88.5t-10.5 -147.5q0 -118 17.5 -183t45.5 -85t73 -17l189 12l42 -324q-122 -22 -236 -22q-91 0 -161.5 10.5t-136 36t-111.5 71t-81 113t-52 165t-17 223.5z" />
    <glyph glyph-name="Ccaron" unicode="&#x10c;" horiz-adv-x="849" 
d="M100 1580q52 3 140 3q72 0 167 -3q20 0 31 -21q13 -25 48.5 -89t53.5 -99q69 134 125 211q55 3 147 3q74 0 164 -3q11 0 11 -9q0 -4 -12 -21.5t-32 -43t-21 -27.5q-94 -125 -170 -211h-179q-104 0 -254 9q-18 1 -31 18q-134 178 -188 283zM53 615q0 142 26 250
t72.5 179.5t117.5 116t155 63.5t192 19q90 0 234 -35l-44 -321l-189 13q-31 2 -53.5 -9t-42 -40t-30 -88.5t-10.5 -147.5q0 -118 17.5 -183t45.5 -85t73 -17l189 12l42 -324q-122 -22 -236 -22q-91 0 -161.5 10.5t-136 36t-111.5 71t-81 113t-52 165t-17 223.5z" />
    <glyph glyph-name="ccaron" unicode="&#x10d;" horiz-adv-x="849" 
d="M100 1580q52 3 140 3q72 0 167 -3q20 0 31 -21q13 -25 48.5 -89t53.5 -99q69 134 125 211q55 3 147 3q74 0 164 -3q11 0 11 -9q0 -4 -12 -21.5t-32 -43t-21 -27.5q-94 -125 -170 -211h-179q-104 0 -254 9q-18 1 -31 18q-134 178 -188 283zM53 615q0 142 26 250
t72.5 179.5t117.5 116t155 63.5t192 19q90 0 234 -35l-44 -321l-189 13q-31 2 -53.5 -9t-42 -40t-30 -88.5t-10.5 -147.5q0 -118 17.5 -183t45.5 -85t73 -17l189 12l42 -324q-122 -22 -236 -22q-91 0 -161.5 10.5t-136 36t-111.5 71t-81 113t-52 165t-17 223.5z" />
    <glyph glyph-name="Dcaron" unicode="&#x10e;" horiz-adv-x="1077" 
d="M96 1580q52 3 140 3q72 0 167 -3q20 0 31 -21q13 -25 48.5 -89t53.5 -99q69 134 125 211q55 3 147 3q74 0 164 -3q11 0 11 -9q0 -4 -12 -21.5t-32 -43t-21 -27.5q-94 -125 -170 -211h-179q-104 0 -254 9q-19 2 -32 18q-131 174 -187 283zM504 614q0 -142 3 -270h35
q24 0 39 8.5t29 35t20.5 82.5t6.5 145q0 88 -6.5 144t-20.5 83t-29 35.5t-39 8.5h-34q-4 -170 -4 -272zM98 614q0 102 2 297t2 297q228 35 400 35q108 0 192 -19t155 -63.5t117.5 -116t72.5 -179.5t26 -250q0 -126 -17 -223.5t-52 -165t-81 -113t-111.5 -71t-136 -36
t-161.5 -10.5q-101 0 -383 24q-8 0 -14.5 6.5t-6.5 14.5q0 95 -2 282t-2 291z" />
    <glyph glyph-name="dcaron" unicode="&#x10f;" horiz-adv-x="1077" 
d="M96 1580q52 3 140 3q72 0 167 -3q20 0 31 -21q13 -25 48.5 -89t53.5 -99q69 134 125 211q55 3 147 3q74 0 164 -3q11 0 11 -9q0 -4 -12 -21.5t-32 -43t-21 -27.5q-94 -125 -170 -211h-179q-104 0 -254 9q-19 2 -32 18q-131 174 -187 283zM504 614q0 -142 3 -270h35
q24 0 39 8.5t29 35t20.5 82.5t6.5 145q0 88 -6.5 144t-20.5 83t-29 35.5t-39 8.5h-34q-4 -170 -4 -272zM98 614q0 102 2 297t2 297q228 35 400 35q108 0 192 -19t155 -63.5t117.5 -116t72.5 -179.5t26 -250q0 -126 -17 -223.5t-52 -165t-81 -113t-111.5 -71t-136 -36
t-161.5 -10.5q-101 0 -383 24q-8 0 -14.5 6.5t-6.5 14.5q0 95 -2 282t-2 291z" />
    <glyph glyph-name="Dcroat" unicode="&#x110;" 
d="M22 617q0 49 3 149q11 1 36 1.5t38 0.5q0 49 1 137.5t1.5 161.5t0.5 141q228 35 428 35q135 0 230.5 -30.5t166 -102t104.5 -194.5t34 -301q0 -152 -23 -261t-64 -178t-108.5 -109.5t-146.5 -55.5t-188 -15q-130 0 -412 24q-8 0 -14.5 6.5t-6.5 14.5q0 61 -0.5 127.5
t-1.5 147.5t-1 128q-9 1 -27 1.5t-27 0.5q-8 0 -14 6.5t-6 14.5q0 9 -1.5 64.5t-1.5 85.5zM505 768q10 0 30.5 -0.5t29.5 -1.5q8 0 14.5 -6.5t6.5 -14.5q2 -47 2 -174q0 -41 -2 -129q-6 0 -17.5 -0.5t-30.5 -1t-33 -0.5q0 -16 0.5 -48t1.5 -48h56q24 0 40 8.5t32 35t23.5 83
t7.5 144.5q0 71 -5.5 121.5t-14.5 79t-23 45t-27.5 21t-32.5 4.5h-55q-2 -78 -3 -118z" />
    <glyph glyph-name="dcroat" unicode="&#x111;" 
d="M22 617q0 49 3 149q11 1 36 1.5t38 0.5q0 49 1 137.5t1.5 161.5t0.5 141q228 35 428 35q135 0 230.5 -30.5t166 -102t104.5 -194.5t34 -301q0 -152 -23 -261t-64 -178t-108.5 -109.5t-146.5 -55.5t-188 -15q-130 0 -412 24q-8 0 -14.5 6.5t-6.5 14.5q0 61 -0.5 127.5
t-1.5 147.5t-1 128q-9 1 -27 1.5t-27 0.5q-8 0 -14 6.5t-6 14.5q0 9 -1.5 64.5t-1.5 85.5zM505 768q10 0 30.5 -0.5t29.5 -1.5q8 0 14.5 -6.5t6.5 -14.5q2 -47 2 -174q0 -41 -2 -129q-6 0 -17.5 -0.5t-30.5 -1t-33 -0.5q0 -16 0.5 -48t1.5 -48h56q24 0 40 8.5t32 35t23.5 83
t7.5 144.5q0 71 -5.5 121.5t-14.5 79t-23 45t-27.5 21t-32.5 4.5h-55q-2 -78 -3 -118z" />
    <glyph glyph-name="Emacron" unicode="&#x112;" horiz-adv-x="929" 
d="M191 1446q0 23 2 133q108 5 363 5q55 0 230 -5q8 0 14.5 -6t6.5 -14q1 -23 1 -135q0 -101 -1 -136q-90 -4 -281 -4q-33 0 -313 8q-8 0 -14 6.5t-6 14.5q-2 108 -2 133zM94 614q0 287 8 615q87 4 425 4q218 0 358 -4q8 0 14 -6.5t6 -14.5q2 -124 2 -177q0 -44 -2 -150
q-87 -4 -325 -4h-78q0 -17 -1 -52.5t-1 -54.5q206 -3 245 -4q8 0 14.5 -6.5t6.5 -14.5q2 -112 2 -153q0 -39 -2 -137h-266q0 -18 1 -54t1 -53h24q223 0 363 -4q8 0 14 -6t6 -14q2 -124 2 -177q0 -45 -2 -151q-108 -5 -351 -5q-120 0 -435 9q-8 0 -14.5 6t-6.5 14
q-8 386 -8 594z" />
    <glyph glyph-name="emacron" unicode="&#x113;" horiz-adv-x="929" 
d="M191 1446q0 23 2 133q108 5 363 5q55 0 230 -5q8 0 14.5 -6t6.5 -14q1 -23 1 -135q0 -101 -1 -136q-90 -4 -281 -4q-33 0 -313 8q-8 0 -14 6.5t-6 14.5q-2 108 -2 133zM94 614q0 287 8 615q87 4 425 4q218 0 358 -4q8 0 14 -6.5t6 -14.5q2 -124 2 -177q0 -44 -2 -150
q-87 -4 -325 -4h-78q0 -17 -1 -52.5t-1 -54.5q206 -3 245 -4q8 0 14.5 -6.5t6.5 -14.5q2 -112 2 -153q0 -39 -2 -137h-266q0 -18 1 -54t1 -53h24q223 0 363 -4q8 0 14 -6t6 -14q2 -124 2 -177q0 -45 -2 -151q-108 -5 -351 -5q-120 0 -435 9q-8 0 -14.5 6t-6.5 14
q-8 386 -8 594z" />
    <glyph glyph-name="Ebreve" unicode="&#x114;" horiz-adv-x="929" 
d="M57 1589q78 3 139 3q69 0 164 -3q20 0 31 -21q38 -74 111 -74q37 0 69.5 23.5t50.5 65.5q82 3 147 3q74 0 164 -3q9 0 9 -7q0 -13 -13.5 -46t-26.5 -55q-58 -98 -168 -153t-236 -55q-99 0 -187 33.5t-158 108t-96 180.5zM94 614q0 287 8 615q87 4 425 4q218 0 358 -4
q8 0 14 -6.5t6 -14.5q2 -124 2 -177q0 -44 -2 -150q-87 -4 -325 -4h-78q0 -17 -1 -52.5t-1 -54.5q206 -3 245 -4q8 0 14.5 -6.5t6.5 -14.5q2 -112 2 -153q0 -39 -2 -137h-266q0 -18 1 -54t1 -53h24q223 0 363 -4q8 0 14 -6t6 -14q2 -124 2 -177q0 -45 -2 -151
q-108 -5 -351 -5q-120 0 -435 9q-8 0 -14.5 6t-6.5 14q-8 386 -8 594z" />
    <glyph glyph-name="ebreve" unicode="&#x115;" horiz-adv-x="929" 
d="M57 1589q78 3 139 3q69 0 164 -3q20 0 31 -21q38 -74 111 -74q37 0 69.5 23.5t50.5 65.5q82 3 147 3q74 0 164 -3q9 0 9 -7q0 -13 -13.5 -46t-26.5 -55q-58 -98 -168 -153t-236 -55q-99 0 -187 33.5t-158 108t-96 180.5zM94 614q0 287 8 615q87 4 425 4q218 0 358 -4
q8 0 14 -6.5t6 -14.5q2 -124 2 -177q0 -44 -2 -150q-87 -4 -325 -4h-78q0 -17 -1 -52.5t-1 -54.5q206 -3 245 -4q8 0 14.5 -6.5t6.5 -14.5q2 -112 2 -153q0 -39 -2 -137h-266q0 -18 1 -54t1 -53h24q223 0 363 -4q8 0 14 -6t6 -14q2 -124 2 -177q0 -45 -2 -151
q-108 -5 -351 -5q-120 0 -435 9q-8 0 -14.5 6t-6.5 14q-8 386 -8 594z" />
    <glyph glyph-name="Edotaccent" unicode="&#x116;" horiz-adv-x="929" 
d="M324 1449q0 38 2 136q106 4 149 4q50 0 174 -4q8 0 14.5 -6t6.5 -14q1 -55 1 -152q0 -86 -1 -135q-60 -3 -114 -3q-79 0 -210 7q-20 2 -20 21q-2 108 -2 146zM94 614q0 287 8 615q87 4 425 4q218 0 358 -4q8 0 14 -6.5t6 -14.5q2 -124 2 -177q0 -44 -2 -150
q-87 -4 -325 -4h-78q0 -17 -1 -52.5t-1 -54.5q206 -3 245 -4q8 0 14.5 -6.5t6.5 -14.5q2 -112 2 -153q0 -39 -2 -137h-266q0 -18 1 -54t1 -53h24q223 0 363 -4q8 0 14 -6t6 -14q2 -124 2 -177q0 -45 -2 -151q-108 -5 -351 -5q-120 0 -435 9q-8 0 -14.5 6t-6.5 14
q-8 386 -8 594z" />
    <glyph glyph-name="edotaccent" unicode="&#x117;" horiz-adv-x="929" 
d="M324 1449q0 38 2 136q106 4 149 4q50 0 174 -4q8 0 14.5 -6t6.5 -14q1 -55 1 -152q0 -86 -1 -135q-60 -3 -114 -3q-79 0 -210 7q-20 2 -20 21q-2 108 -2 146zM94 614q0 287 8 615q87 4 425 4q218 0 358 -4q8 0 14 -6.5t6 -14.5q2 -124 2 -177q0 -44 -2 -150
q-87 -4 -325 -4h-78q0 -17 -1 -52.5t-1 -54.5q206 -3 245 -4q8 0 14.5 -6.5t6.5 -14.5q2 -112 2 -153q0 -39 -2 -137h-266q0 -18 1 -54t1 -53h24q223 0 363 -4q8 0 14 -6t6 -14q2 -124 2 -177q0 -45 -2 -151q-108 -5 -351 -5q-120 0 -435 9q-8 0 -14.5 6t-6.5 14
q-8 386 -8 594z" />
    <glyph glyph-name="Eogonek" unicode="&#x118;" horiz-adv-x="929" 
d="M94 614q0 287 8 615q87 4 425 4q218 0 358 -4q8 0 14 -6.5t6 -14.5q2 -124 2 -177q0 -44 -2 -150q-87 -4 -325 -4h-78q0 -17 -1 -52.5t-1 -54.5q206 -3 245 -4q8 0 14.5 -6.5t6.5 -14.5q2 -112 2 -153q0 -39 -2 -137h-266q0 -18 1 -54t1 -53h24q223 0 363 -4q8 0 14 -6
t6 -14q2 -124 2 -177q0 -45 -2 -151q-10 -1 -40.5 -1.5t-44.5 -0.5q-43 -1 -67 -19.5t-24 -40.5q0 -23 25 -38t68 -9l100 13l37 -287q-127 -23 -201 -23q-143 0 -236.5 67t-93.5 162q0 92 90 173q-218 2 -399 8q-8 0 -14.5 6t-6.5 14q-8 386 -8 594z" />
    <glyph glyph-name="eogonek" unicode="&#x119;" horiz-adv-x="929" 
d="M94 614q0 287 8 615q87 4 425 4q218 0 358 -4q8 0 14 -6.5t6 -14.5q2 -124 2 -177q0 -44 -2 -150q-87 -4 -325 -4h-78q0 -17 -1 -52.5t-1 -54.5q206 -3 245 -4q8 0 14.5 -6.5t6.5 -14.5q2 -112 2 -153q0 -39 -2 -137h-266q0 -18 1 -54t1 -53h24q223 0 363 -4q8 0 14 -6
t6 -14q2 -124 2 -177q0 -45 -2 -151q-10 -1 -40.5 -1.5t-44.5 -0.5q-43 -1 -67 -19.5t-24 -40.5q0 -23 25 -38t68 -9l100 13l37 -287q-127 -23 -201 -23q-143 0 -236.5 67t-93.5 162q0 92 90 173q-218 2 -399 8q-8 0 -14.5 6t-6.5 14q-8 386 -8 594z" />
    <glyph glyph-name="Ecaron" unicode="&#x11a;" horiz-adv-x="929" 
d="M57 1580q52 3 140 3q73 0 167 -3q20 0 31 -21q13 -25 48.5 -89t53.5 -99q69 134 125 211q55 3 147 3q74 0 164 -3q11 0 11 -9q0 -4 -12 -21.5t-32 -43t-21 -27.5q-94 -125 -170 -211h-179q-104 0 -254 9q-18 1 -31 18q-134 178 -188 283zM94 614q0 287 8 615q87 4 425 4
q218 0 358 -4q8 0 14 -6.5t6 -14.5q2 -124 2 -177q0 -44 -2 -150q-87 -4 -325 -4h-78q0 -17 -1 -52.5t-1 -54.5q206 -3 245 -4q8 0 14.5 -6.5t6.5 -14.5q2 -112 2 -153q0 -39 -2 -137h-266q0 -18 1 -54t1 -53h24q223 0 363 -4q8 0 14 -6t6 -14q2 -124 2 -177q0 -45 -2 -151
q-108 -5 -351 -5q-120 0 -435 9q-8 0 -14.5 6t-6.5 14q-8 386 -8 594z" />
    <glyph glyph-name="ecaron" unicode="&#x11b;" horiz-adv-x="929" 
d="M57 1580q52 3 140 3q73 0 167 -3q20 0 31 -21q13 -25 48.5 -89t53.5 -99q69 134 125 211q55 3 147 3q74 0 164 -3q11 0 11 -9q0 -4 -12 -21.5t-32 -43t-21 -27.5q-94 -125 -170 -211h-179q-104 0 -254 9q-18 1 -31 18q-134 178 -188 283zM94 614q0 287 8 615q87 4 425 4
q218 0 358 -4q8 0 14 -6.5t6 -14.5q2 -124 2 -177q0 -44 -2 -150q-87 -4 -325 -4h-78q0 -17 -1 -52.5t-1 -54.5q206 -3 245 -4q8 0 14.5 -6.5t6.5 -14.5q2 -112 2 -153q0 -39 -2 -137h-266q0 -18 1 -54t1 -53h24q223 0 363 -4q8 0 14 -6t6 -14q2 -124 2 -177q0 -45 -2 -151
q-108 -5 -351 -5q-120 0 -435 9q-8 0 -14.5 6t-6.5 14q-8 386 -8 594z" />
    <glyph glyph-name="Gcircumflex" unicode="&#x11c;" horiz-adv-x="1028" 
d="M161 1271q56 108 190 293q13 17 31 18q144 7 290 7h43h52h47q66 -74 193 -242q41 -53 41 -61q0 -9 -10 -9q-90 -3 -165 -3q-92 0 -147 3q-53 73 -125 211q-59 -121 -101 -196q-5 -8 -14.5 -14.5t-17.5 -6.5q-94 -3 -166 -3q-89 0 -141 3zM53 615q0 142 26 250t72.5 179.5
t117.5 116t155 63.5t192 19q149 0 367 -35l-43 -323h-365q-23 0 -38 -8.5t-29 -35t-20.5 -82.5t-6.5 -144t8 -144.5t24 -83t32 -35t41 -8.5h41q0 72 -9 311q75 4 162 4q50 0 178 -4q8 0 14.5 -6t6.5 -14q8 -190 8 -287q0 -151 -8 -313q-88 -16 -129 -22t-104 -11.5
t-134 -5.5q-91 0 -161.5 10.5t-136 36t-111.5 71t-81 113t-52 165t-17 223.5z" />
    <glyph glyph-name="gcircumflex" unicode="&#x11d;" horiz-adv-x="1028" 
d="M161 1271q56 108 190 293q13 17 31 18q144 7 290 7h43h52h47q66 -74 193 -242q41 -53 41 -61q0 -9 -10 -9q-90 -3 -165 -3q-92 0 -147 3q-53 73 -125 211q-59 -121 -101 -196q-5 -8 -14.5 -14.5t-17.5 -6.5q-94 -3 -166 -3q-89 0 -141 3zM53 615q0 142 26 250t72.5 179.5
t117.5 116t155 63.5t192 19q149 0 367 -35l-43 -323h-365q-23 0 -38 -8.5t-29 -35t-20.5 -82.5t-6.5 -144t8 -144.5t24 -83t32 -35t41 -8.5h41q0 72 -9 311q75 4 162 4q50 0 178 -4q8 0 14.5 -6t6.5 -14q8 -190 8 -287q0 -151 -8 -313q-88 -16 -129 -22t-104 -11.5
t-134 -5.5q-91 0 -161.5 10.5t-136 36t-111.5 71t-81 113t-52 165t-17 223.5z" />
    <glyph glyph-name="Gbreve" unicode="&#x11e;" horiz-adv-x="1028" 
d="M161 1589q78 3 139 3q70 0 164 -3q8 0 17.5 -6.5t14.5 -14.5q38 -74 110 -74q37 0 69.5 23.5t50.5 65.5q83 3 147 3q75 0 165 -3q8 0 8 -7q0 -13 -13.5 -46.5t-25.5 -54.5q-58 -98 -168.5 -153t-236.5 -55q-99 0 -187 33.5t-158 108t-96 180.5zM53 615q0 142 26 250
t72.5 179.5t117.5 116t155 63.5t192 19q149 0 367 -35l-43 -323h-365q-23 0 -38 -8.5t-29 -35t-20.5 -82.5t-6.5 -144t8 -144.5t24 -83t32 -35t41 -8.5h41q0 72 -9 311q75 4 162 4q50 0 178 -4q8 0 14.5 -6t6.5 -14q8 -190 8 -287q0 -151 -8 -313q-88 -16 -129 -22
t-104 -11.5t-134 -5.5q-91 0 -161.5 10.5t-136 36t-111.5 71t-81 113t-52 165t-17 223.5z" />
    <glyph glyph-name="gbreve" unicode="&#x11f;" horiz-adv-x="1028" 
d="M161 1589q78 3 139 3q70 0 164 -3q8 0 17.5 -6.5t14.5 -14.5q38 -74 110 -74q37 0 69.5 23.5t50.5 65.5q83 3 147 3q75 0 165 -3q8 0 8 -7q0 -13 -13.5 -46.5t-25.5 -54.5q-58 -98 -168.5 -153t-236.5 -55q-99 0 -187 33.5t-158 108t-96 180.5zM53 615q0 142 26 250
t72.5 179.5t117.5 116t155 63.5t192 19q149 0 367 -35l-43 -323h-365q-23 0 -38 -8.5t-29 -35t-20.5 -82.5t-6.5 -144t8 -144.5t24 -83t32 -35t41 -8.5h41q0 72 -9 311q75 4 162 4q50 0 178 -4q8 0 14.5 -6t6.5 -14q8 -190 8 -287q0 -151 -8 -313q-88 -16 -129 -22
t-104 -11.5t-134 -5.5q-91 0 -161.5 10.5t-136 36t-111.5 71t-81 113t-52 165t-17 223.5z" />
    <glyph glyph-name="Gdotaccent" unicode="&#x120;" horiz-adv-x="1028" 
d="M428 1449q0 38 2 136q106 4 150 4q50 0 174 -4q8 0 14 -6t6 -14q2 -110 2 -152q0 -37 -2 -135q-60 -3 -114 -3q-78 0 -209 7q-8 1 -14.5 7t-6.5 14q-2 108 -2 146zM53 615q0 142 26 250t72.5 179.5t117.5 116t155 63.5t192 19q149 0 367 -35l-43 -323h-365
q-23 0 -38 -8.5t-29 -35t-20.5 -82.5t-6.5 -144t8 -144.5t24 -83t32 -35t41 -8.5h41q0 72 -9 311q75 4 162 4q50 0 178 -4q8 0 14.5 -6t6.5 -14q8 -190 8 -287q0 -151 -8 -313q-88 -16 -129 -22t-104 -11.5t-134 -5.5q-91 0 -161.5 10.5t-136 36t-111.5 71t-81 113t-52 165
t-17 223.5z" />
    <glyph glyph-name="gdotaccent" unicode="&#x121;" horiz-adv-x="1028" 
d="M428 1449q0 38 2 136q106 4 150 4q50 0 174 -4q8 0 14 -6t6 -14q2 -110 2 -152q0 -37 -2 -135q-60 -3 -114 -3q-78 0 -209 7q-8 1 -14.5 7t-6.5 14q-2 108 -2 146zM53 615q0 142 26 250t72.5 179.5t117.5 116t155 63.5t192 19q149 0 367 -35l-43 -323h-365
q-23 0 -38 -8.5t-29 -35t-20.5 -82.5t-6.5 -144t8 -144.5t24 -83t32 -35t41 -8.5h41q0 72 -9 311q75 4 162 4q50 0 178 -4q8 0 14.5 -6t6.5 -14q8 -190 8 -287q0 -151 -8 -313q-88 -16 -129 -22t-104 -11.5t-134 -5.5q-91 0 -161.5 10.5t-136 36t-111.5 71t-81 113t-52 165
t-17 223.5z" />
    <glyph glyph-name="Gcommaaccent" unicode="&#x122;" horiz-adv-x="1028" 
d="M456 -41q126 5 295 0q7 0 12.5 -4.5t5.5 -10.5q0 -25 0.5 -66t0.5 -64q-6 -43 -36.5 -117t-46.5 -103q-89 -3 -152 -3q12 101 16 167q-25 0 -77 2q-18 0 -18 14q-2 92 0 185zM53 615q0 142 26 250t72.5 179.5t117.5 116t155 63.5t192 19q149 0 367 -35l-43 -323h-365
q-23 0 -38 -8.5t-29 -35t-20.5 -82.5t-6.5 -144t8 -144.5t24 -83t32 -35t41 -8.5h41q0 72 -9 311q75 4 162 4q50 0 178 -4q8 0 14.5 -6t6.5 -14q8 -190 8 -287q0 -151 -8 -313q-88 -16 -129 -22t-104 -11.5t-134 -5.5q-91 0 -161.5 10.5t-136 36t-111.5 71t-81 113t-52 165
t-17 223.5z" />
    <glyph glyph-name="gcommaaccent" unicode="&#x123;" horiz-adv-x="1028" 
d="M456 -41q126 5 295 0q7 0 12.5 -4.5t5.5 -10.5q0 -25 0.5 -66t0.5 -64q-6 -43 -36.5 -117t-46.5 -103q-89 -3 -152 -3q12 101 16 167q-25 0 -77 2q-18 0 -18 14q-2 92 0 185zM53 615q0 142 26 250t72.5 179.5t117.5 116t155 63.5t192 19q149 0 367 -35l-43 -323h-365
q-23 0 -38 -8.5t-29 -35t-20.5 -82.5t-6.5 -144t8 -144.5t24 -83t32 -35t41 -8.5h41q0 72 -9 311q75 4 162 4q50 0 178 -4q8 0 14.5 -6t6.5 -14q8 -190 8 -287q0 -151 -8 -313q-88 -16 -129 -22t-104 -11.5t-134 -5.5q-91 0 -161.5 10.5t-136 36t-111.5 71t-81 113t-52 165
t-17 223.5z" />
    <glyph glyph-name="Hcircumflex" unicode="&#x124;" horiz-adv-x="1126" 
d="M141 1271q56 108 190 293q13 17 31 18q144 7 289 7h142q73 -82 194 -242q41 -53 41 -61q0 -9 -11 -9q-90 -3 -164 -3q-92 0 -147 3q-53 73 -125 211q-51 -104 -102 -196q-11 -21 -31 -21q-95 -3 -167 -3q-88 0 -140 3zM94 614q0 287 8 615q87 4 179 4q71 0 211 -4
q8 0 14 -6.5t6 -14.5q4 -188 4 -430h135q0 301 4 451q87 4 179 4q70 0 210 -4q8 0 14.5 -6.5t6.5 -14.5q8 -386 8 -594q0 -286 -8 -614q-108 -5 -179 -5q-35 0 -210 5q-8 0 -14.5 6t-6.5 14q-4 179 -4 410h-135q0 -287 -4 -430q-108 -5 -179 -5q-35 0 -210 5q-8 0 -14.5 6
t-6.5 14q-8 386 -8 594z" />
    <glyph glyph-name="hcircumflex" unicode="&#x125;" horiz-adv-x="1126" 
d="M141 1271q56 108 190 293q13 17 31 18q144 7 289 7h142q73 -82 194 -242q41 -53 41 -61q0 -9 -11 -9q-90 -3 -164 -3q-92 0 -147 3q-53 73 -125 211q-51 -104 -102 -196q-11 -21 -31 -21q-95 -3 -167 -3q-88 0 -140 3zM94 614q0 287 8 615q87 4 179 4q71 0 211 -4
q8 0 14 -6.5t6 -14.5q4 -188 4 -430h135q0 301 4 451q87 4 179 4q70 0 210 -4q8 0 14.5 -6.5t6.5 -14.5q8 -386 8 -594q0 -286 -8 -614q-108 -5 -179 -5q-35 0 -210 5q-8 0 -14.5 6t-6.5 14q-4 179 -4 410h-135q0 -287 -4 -430q-108 -5 -179 -5q-35 0 -210 5q-8 0 -14.5 6
t-6.5 14q-8 386 -8 594z" />
    <glyph glyph-name="Hbar" unicode="&#x126;" horiz-adv-x="1142" 
d="M47 868q0 23 -0.5 48t-1 39.5t-0.5 26.5q0 56 2 116q2 0 22.5 0.5t38.5 0.5q0 22 1 65t2 65q87 4 179 4q70 0 210 -4q8 0 14 -6.5t6 -14.5q2 -68 2 -106h139q2 77 3 127q87 4 178 4q71 0 211 -4q8 0 14 -6.5t6 -14.5q1 -18 1.5 -54.5t0.5 -54.5q9 0 23 -0.5t20 -0.5
q8 0 14.5 -6.5t6.5 -14.5q1 -28 1 -111q0 -82 -1 -122q-3 0 -23 -1t-36 -1q1 -75 1 -228q0 -286 -8 -614q-108 -5 -179 -5q-35 0 -210 5q-8 0 -14 6t-6 14q-4 179 -4 398h-136q0 -275 -4 -418q-108 -5 -179 -5q-35 0 -210 5q-8 0 -14 6t-6 14q-9 434 -9 594q0 77 2 233
q-10 0 -22 0.5t-14 0.5q-8 0 -14.5 6t-6.5 14zM524 841v-100h135v99q-86 0 -135 1z" />
    <glyph glyph-name="hbar" unicode="&#x127;" horiz-adv-x="1142" 
d="M47 868q0 23 -0.5 48t-1 39.5t-0.5 26.5q0 56 2 116q2 0 22.5 0.5t38.5 0.5q0 22 1 65t2 65q87 4 179 4q70 0 210 -4q8 0 14 -6.5t6 -14.5q2 -68 2 -106h139q2 77 3 127q87 4 179 4q70 0 210 -4q8 0 14 -6.5t6 -14.5q1 -18 1.5 -54.5t0.5 -54.5q9 0 23 -0.5t20 -0.5
q8 0 14.5 -6.5t6.5 -14.5q1 -28 1 -111q0 -82 -1 -122q-3 0 -23 -1t-36 -1q1 -75 1 -228q0 -286 -8 -614q-108 -5 -179 -5q-35 0 -210 5q-8 0 -14 6t-6 14q-4 179 -4 398h-136q0 -275 -4 -418q-108 -5 -179 -5q-35 0 -210 5q-8 0 -14 6t-6 14q-9 434 -9 594q0 77 2 233
q-10 0 -22 0.5t-14 0.5q-8 0 -14.5 6t-6.5 14zM524 841v-100h135v99q-86 0 -135 1z" />
    <glyph glyph-name="Itilde" unicode="&#x128;" horiz-adv-x="573" 
d="M-109 1493q0 11 11 17q145 91 237 94q47 0 131 -27t127 -27q70 0 186 60q59 -97 87 -149q35 -61 35 -68q0 -11 -11 -18q-149 -101 -250 -101q-44 0 -119 22.5t-118 22.5q-74 0 -186 -58q-48 79 -84 143q-46 81 -46 89zM94 614q0 287 8 615q87 4 179 4q71 0 211 -4
q8 0 14 -6.5t6 -14.5q8 -386 8 -594q0 -286 -8 -614q-108 -5 -179 -5q-35 0 -210 5q-8 0 -14.5 6t-6.5 14q-8 386 -8 594z" />
    <glyph glyph-name="itilde" unicode="&#x129;" horiz-adv-x="573" 
d="M-109 1493q0 11 11 17q145 91 237 94q47 0 131 -27t127 -27q70 0 186 60q59 -97 87 -149q35 -61 35 -68q0 -11 -11 -18q-149 -101 -250 -101q-44 0 -119 22.5t-118 22.5q-74 0 -186 -58q-48 79 -84 143q-46 81 -46 89zM94 614q0 287 8 615q87 4 179 4q71 0 211 -4
q8 0 14 -6.5t6 -14.5q8 -386 8 -594q0 -286 -8 -614q-108 -5 -179 -5q-35 0 -210 5q-8 0 -14.5 6t-6.5 14q-8 386 -8 594z" />
    <glyph glyph-name="Imacron" unicode="&#x12a;" horiz-adv-x="573" 
d="M-10 1446q0 23 2 133q108 5 363 5q56 0 231 -5q8 0 14 -6t6 -14q1 -23 1 -135q0 -101 -1 -136q-90 -4 -281 -4q-33 0 -313 8q-8 0 -14 6.5t-6 14.5q-2 108 -2 133zM94 614q0 287 8 615q87 4 179 4q71 0 211 -4q8 0 14 -6.5t6 -14.5q8 -386 8 -594q0 -286 -8 -614
q-108 -5 -179 -5q-35 0 -210 5q-8 0 -14.5 6t-6.5 14q-8 386 -8 594z" />
    <glyph glyph-name="imacron" unicode="&#x12b;" horiz-adv-x="573" 
d="M-10 1446q0 23 2 133q108 5 363 5q56 0 231 -5q8 0 14 -6t6 -14q1 -23 1 -135q0 -101 -1 -136q-90 -4 -281 -4q-33 0 -313 8q-8 0 -14 6.5t-6 14.5q-2 108 -2 133zM94 614q0 287 8 615q87 4 179 4q71 0 211 -4q8 0 14 -6.5t6 -14.5q8 -386 8 -594q0 -286 -8 -614
q-108 -5 -179 -5q-35 0 -210 5q-8 0 -14.5 6t-6.5 14q-8 386 -8 594z" />
    <glyph glyph-name="Ibreve" unicode="&#x12c;" horiz-adv-x="573" 
d="M-144 1589q78 3 139 3q69 0 164 -3q8 0 17.5 -6.5t14.5 -14.5q38 -74 110 -74q37 0 69.5 23.5t50.5 65.5q82 3 147 3q75 0 165 -3q8 0 8 -7q0 -13 -13.5 -46.5t-25.5 -54.5q-58 -98 -168.5 -153t-236.5 -55q-99 0 -187 33.5t-158 108t-96 180.5zM94 614q0 287 8 615
q87 4 179 4q71 0 211 -4q8 0 14 -6.5t6 -14.5q8 -386 8 -594q0 -286 -8 -614q-108 -5 -179 -5q-35 0 -210 5q-8 0 -14.5 6t-6.5 14q-8 386 -8 594z" />
    <glyph glyph-name="ibreve" unicode="&#x12d;" horiz-adv-x="573" 
d="M-144 1589q78 3 139 3q69 0 164 -3q8 0 17.5 -6.5t14.5 -14.5q38 -74 110 -74q37 0 69.5 23.5t50.5 65.5q82 3 147 3q75 0 165 -3q8 0 8 -7q0 -13 -13.5 -46.5t-25.5 -54.5q-58 -98 -168.5 -153t-236.5 -55q-99 0 -187 33.5t-158 108t-96 180.5zM94 614q0 287 8 615
q87 4 179 4q71 0 211 -4q8 0 14 -6.5t6 -14.5q8 -386 8 -594q0 -286 -8 -614q-108 -5 -179 -5q-35 0 -210 5q-8 0 -14.5 6t-6.5 14q-8 386 -8 594z" />
    <glyph glyph-name="Iogonek" unicode="&#x12e;" horiz-adv-x="573" 
d="M43 -180q0 97 94 180h-14q-8 0 -14.5 6t-6.5 14q-8 386 -8 594q0 287 8 615q87 4 179 4q71 0 211 -4q8 0 14 -6.5t6 -14.5q8 -386 8 -594q0 -286 -8 -614q-29 -1 -79 -3q-44 -3 -67.5 -20.5t-23.5 -39.5q0 -24 25.5 -39.5t67.5 -9.5l100 12l37 -287q-122 -22 -201 -22
q-142 0 -235 67t-93 162z" />
    <glyph glyph-name="iogonek" unicode="&#x12f;" horiz-adv-x="573" 
d="M43 -180q0 97 94 180h-14q-8 0 -14.5 6t-6.5 14q-8 386 -8 594q0 287 8 615q87 4 179 4q71 0 211 -4q8 0 14 -6.5t6 -14.5q8 -386 8 -594q0 -286 -8 -614q-29 -1 -79 -3q-44 -3 -67.5 -20.5t-23.5 -39.5q0 -24 25.5 -39.5t67.5 -9.5l100 12l37 -287q-122 -22 -201 -22
q-142 0 -235 67t-93 162z" />
    <glyph glyph-name="Idotaccent" unicode="&#x130;" horiz-adv-x="573" 
d="M129 1449q0 38 2 136q106 4 150 4q50 0 174 -4q8 0 14 -6t6 -14q2 -110 2 -152q0 -37 -2 -135q-60 -3 -114 -3q-78 0 -209 7q-8 1 -14.5 7t-6.5 14q-2 108 -2 146zM94 614q0 287 8 615q87 4 179 4q71 0 211 -4q8 0 14 -6.5t6 -14.5q8 -386 8 -594q0 -286 -8 -614
q-108 -5 -179 -5q-35 0 -210 5q-8 0 -14.5 6t-6.5 14q-8 386 -8 594z" />
    <glyph glyph-name="dotlessi" unicode="&#x131;" horiz-adv-x="573" 
d="M94 614q0 287 8 615q87 4 179 4q71 0 211 -4q8 0 14 -6.5t6 -14.5q8 -386 8 -594q0 -286 -8 -614q-108 -5 -179 -5q-35 0 -210 5q-8 0 -14.5 6t-6.5 14q-8 386 -8 594z" />
    <glyph glyph-name="IJ" unicode="&#x132;" horiz-adv-x="1462" 
d="M639 -8l15 336l204 -17q35 -3 57 2.5t42 26.5t29 66.5t9 119.5q0 61 1.5 195t1.5 156q-208 4 -312 8q-8 0 -14 6t-6 14q-2 118 -2 168q0 46 2 156q87 4 449 4q138 0 278 -4q8 0 14 -6.5t6 -14.5q8 -386 8 -671q0 -139 -26.5 -240.5t-72 -164.5t-118.5 -101t-154.5 -52
t-191.5 -14q-21 0 -41 1t-34 2.5t-36.5 4.5t-32 5t-37.5 7t-38 7zM94 614q0 287 8 615q87 4 179 4q71 0 211 -4q8 0 14 -6.5t6 -14.5q8 -386 8 -594q0 -286 -8 -614q-108 -5 -179 -5q-35 0 -210 5q-8 0 -14.5 6t-6.5 14q-8 386 -8 594z" />
    <glyph glyph-name="ij" unicode="&#x133;" horiz-adv-x="1462" 
d="M94 614q0 287 8 615q87 4 179 4q71 0 211 -4q8 0 14 -6.5t6 -14.5q8 -386 8 -594q0 -286 -8 -614q-108 -5 -179 -5q-35 0 -210 5q-8 0 -14.5 6t-6.5 14q-8 386 -8 594zM639 -8l15 336l204 -17q35 -3 57 2.5t42 26.5t29 66.5t9 119.5q0 61 1.5 195t1.5 156q-208 4 -312 8
q-8 0 -14 6t-6 14q-2 118 -2 168q0 46 2 156q87 4 449 4q138 0 278 -4q8 0 14 -6.5t6 -14.5q8 -386 8 -671q0 -139 -26.5 -240.5t-72 -164.5t-118.5 -101t-154.5 -52t-191.5 -14q-21 0 -41 1t-34 2.5t-36.5 4.5t-32 5t-37.5 7t-38 7z" />
    <glyph glyph-name="Jcircumflex" unicode="&#x134;" horiz-adv-x="888" 
d="M26 1271q56 108 190 293q13 17 31 18q144 7 290 7h142q66 -74 193 -242q41 -53 41 -61q0 -9 -11 -9q-90 -3 -164 -3q-92 0 -147 3q-53 73 -125 211q-59 -121 -101 -196q-5 -8 -14.5 -14.5t-17.5 -6.5q-94 -3 -166 -3q-89 0 -141 3zM66 -8l15 336l203 -17q35 -3 57 2.5
t42.5 26.5t29.5 66.5t9 119.5q0 103 2 351q-206 4 -311 8q-8 0 -14.5 6t-6.5 14q-2 118 -2 168q0 46 2 156q87 4 449 4q138 0 278 -4q8 0 14.5 -6.5t6.5 -14.5q8 -386 8 -671q0 -139 -26.5 -240.5t-72 -164.5t-118.5 -101t-154.5 -52t-191.5 -14q-21 0 -41 1t-34 2.5
t-36.5 4.5t-32 5t-37.5 7t-38 7z" />
    <glyph glyph-name="jcircumflex" unicode="&#x135;" horiz-adv-x="888" 
d="M26 1271q56 108 190 293q13 17 31 18q144 7 290 7h142q66 -74 193 -242q41 -53 41 -61q0 -9 -11 -9q-90 -3 -164 -3q-92 0 -147 3q-53 73 -125 211q-59 -121 -101 -196q-5 -8 -14.5 -14.5t-17.5 -6.5q-94 -3 -166 -3q-89 0 -141 3zM66 -8l15 336l203 -17q35 -3 57 2.5
t42.5 26.5t29.5 66.5t9 119.5q0 103 2 351q-206 4 -311 8q-8 0 -14.5 6t-6.5 14q-2 118 -2 168q0 46 2 156q87 4 449 4q138 0 278 -4q8 0 14.5 -6.5t6.5 -14.5q8 -386 8 -671q0 -139 -26.5 -240.5t-72 -164.5t-118.5 -101t-154.5 -52t-191.5 -14q-21 0 -41 1t-34 2.5
t-36.5 4.5t-32 5t-37.5 7t-38 7z" />
    <glyph glyph-name="Kcommaaccent" unicode="&#x136;" horiz-adv-x="1091" 
d="M442 -43q126 5 295 0q18 0 18 -14q0 -25 0.5 -66t0.5 -64q-6 -43 -36.5 -117t-46.5 -103q-89 -3 -152 -3q12 101 16 167q-51 0 -77 1q-7 0 -12.5 4.5t-5.5 10.5q-2 92 0 184zM94 614q0 287 8 615q87 4 179 4q71 0 211 -4q8 0 14 -6.5t6 -14.5q1 -24 1 -72q0 -31 -8 -338
q7 0 22 0.5t23 0.5q21 63 69.5 204t71.5 210q6 19 31 21q90 5 165 5q109 0 204 -11q-62 -267 -173 -486q-59 -102 -160 -108v-3q106 -6 166 -109q92 -182 171 -522q-95 -11 -214 -11q-75 0 -165 5q-25 2 -31 20q-46 139 -142 487h-40q1 -28 5.5 -180t4.5 -233q0 -59 -1 -88
q-108 -5 -179 -5q-35 0 -210 5q-8 0 -14.5 6t-6.5 14q-8 386 -8 594z" />
    <glyph glyph-name="kcommaaccent" unicode="&#x137;" horiz-adv-x="1091" 
d="M442 -43q126 5 295 0q18 0 18 -14q0 -25 0.5 -66t0.5 -64q-6 -43 -36.5 -117t-46.5 -103q-89 -3 -152 -3q12 101 16 167q-51 0 -77 1q-7 0 -12.5 4.5t-5.5 10.5q-2 92 0 184zM94 614q0 287 8 615q87 4 179 4q71 0 211 -4q8 0 14 -6.5t6 -14.5q1 -24 1 -72q0 -31 -8 -338
q7 0 22 0.5t23 0.5q21 63 69.5 204t71.5 210q6 19 31 21q90 5 165 5q109 0 204 -11q-62 -267 -173 -486q-59 -102 -160 -108v-3q106 -6 166 -109q92 -182 171 -522q-95 -11 -214 -11q-75 0 -165 5q-25 2 -31 20q-46 139 -142 487h-40q1 -28 5.5 -180t4.5 -233q0 -59 -1 -88
q-108 -5 -179 -5q-35 0 -210 5q-8 0 -14.5 6t-6.5 14q-8 386 -8 594z" />
    <glyph glyph-name="kgreenlandic" unicode="&#x138;" horiz-adv-x="1091" 
d="M94 614q0 287 8 615q87 4 179 4q71 0 211 -4q8 0 14 -6.5t6 -14.5q1 -24 1 -72q0 -31 -8 -338q7 0 22 0.5t23 0.5q21 63 69.5 204t71.5 210q6 19 31 21q90 5 165 5q109 0 204 -11q-62 -267 -173 -486q-59 -102 -160 -108v-3q106 -6 166 -109q92 -182 171 -522
q-95 -11 -214 -11q-75 0 -165 5q-25 2 -31 20q-46 139 -142 487h-40q1 -28 5.5 -180t4.5 -233q0 -59 -1 -88q-108 -5 -179 -5q-35 0 -210 5q-8 0 -14.5 6t-6.5 14q-8 386 -8 594z" />
    <glyph glyph-name="Lacute" unicode="&#x139;" horiz-adv-x="839" 
d="M223 1291q0 8 36 64q64 103 158 232q110 4 165 4q67 0 187 -4q11 0 11 -8q0 -11 -42 -61q-29 -37 -100 -117t-107 -127q-150 0 -298 8q-10 0 -10 9zM94 614q0 287 8 615q87 4 179 4q71 0 211 -4q8 0 14 -6.5t6 -14.5q8 -386 8 -594q0 -91 -2 -265h9q138 0 313 -5
q8 0 14 -6t6 -14q2 -124 2 -177q0 -45 -2 -151q-108 -5 -302 -5q-120 0 -435 9q-8 0 -14.5 6t-6.5 14q-8 386 -8 594z" />
    <glyph glyph-name="lacute" unicode="&#x13a;" horiz-adv-x="839" 
d="M223 1291q0 8 36 64q64 103 158 232q110 4 165 4q67 0 187 -4q11 0 11 -8q0 -11 -42 -61q-29 -37 -100 -117t-107 -127q-150 0 -298 8q-10 0 -10 9zM94 614q0 287 8 615q87 4 179 4q71 0 211 -4q8 0 14 -6.5t6 -14.5q8 -386 8 -594q0 -91 -2 -265h9q138 0 313 -5
q8 0 14 -6t6 -14q2 -124 2 -177q0 -45 -2 -151q-108 -5 -302 -5q-120 0 -435 9q-8 0 -14.5 6t-6.5 14q-8 386 -8 594z" />
    <glyph glyph-name="Lcommaaccent" unicode="&#x13b;" horiz-adv-x="839" 
d="M341 -42q126 5 294 0q8 0 13.5 -4.5t5.5 -10.5q0 -25 0.5 -65.5t0.5 -63.5q-6 -43 -36.5 -117.5t-46.5 -103.5q-59 -2 -152 -2q10 83 15 167q-50 0 -76 1q-7 0 -12.5 4.5t-5.5 10.5q-2 92 0 184zM94 614q0 287 8 615q87 4 179 4q71 0 211 -4q8 0 14 -6.5t6 -14.5
q8 -386 8 -594q0 -91 -2 -265h9q138 0 313 -5q8 0 14 -6t6 -14q2 -124 2 -177q0 -45 -2 -151q-108 -5 -302 -5q-120 0 -435 9q-8 0 -14.5 6t-6.5 14q-8 386 -8 594z" />
    <glyph glyph-name="lcommaaccent" unicode="&#x13c;" horiz-adv-x="839" 
d="M341 -42q126 5 294 0q8 0 13.5 -4.5t5.5 -10.5q0 -25 0.5 -65.5t0.5 -63.5q-6 -43 -36.5 -117.5t-46.5 -103.5q-59 -2 -152 -2q10 83 15 167q-50 0 -76 1q-7 0 -12.5 4.5t-5.5 10.5q-2 92 0 184zM94 614q0 287 8 615q87 4 179 4q71 0 211 -4q8 0 14 -6.5t6 -14.5
q8 -386 8 -594q0 -91 -2 -265h9q138 0 313 -5q8 0 14 -6t6 -14q2 -124 2 -177q0 -45 -2 -151q-108 -5 -302 -5q-120 0 -435 9q-8 0 -14.5 6t-6.5 14q-8 386 -8 594z" />
    <glyph glyph-name="Lcaron" unicode="&#x13d;" horiz-adv-x="987" 
d="M622 1099q0 43 2 141q53 3 152 3q83 0 176 -3q8 0 14 -6.5t6 -14.5q0 -36 1 -100.5t1 -96.5q-7 -61 -38.5 -183.5t-45.5 -162.5q-65 -3 -184 -3q0 72 8 252q-40 0 -69 1q-8 1 -14.5 7t-6.5 14q-2 108 -2 152zM94 614q0 287 8 615q87 4 179 4q71 0 211 -4q8 0 14 -6.5
t6 -14.5q8 -386 8 -594q0 -91 -2 -265h9q138 0 313 -5q8 0 14 -6t6 -14q2 -124 2 -177q0 -45 -2 -151q-108 -5 -302 -5q-120 0 -435 9q-8 0 -14.5 6t-6.5 14q-8 386 -8 594z" />
    <glyph glyph-name="lcaron" unicode="&#x13e;" horiz-adv-x="987" 
d="M622 1099q0 43 2 141q53 3 152 3q83 0 176 -3q8 0 14 -6.5t6 -14.5q0 -36 1 -100.5t1 -96.5q-7 -61 -38.5 -183.5t-45.5 -162.5q-65 -3 -184 -3q0 72 8 252q-40 0 -69 1q-8 1 -14.5 7t-6.5 14q-2 108 -2 152zM94 614q0 287 8 615q87 4 179 4q71 0 211 -4q8 0 14 -6.5
t6 -14.5q8 -386 8 -594q0 -91 -2 -265h9q138 0 313 -5q8 0 14 -6t6 -14q2 -124 2 -177q0 -45 -2 -151q-108 -5 -302 -5q-120 0 -435 9q-8 0 -14.5 6t-6.5 14q-8 386 -8 594z" />
    <glyph glyph-name="Lslash" unicode="&#x141;" horiz-adv-x="901" 
d="M41 511q0 115 1 155q39 16 81 33q1 235 8 530q87 4 179 4q70 0 210 -4q8 0 14.5 -6.5t6.5 -14.5q3 -192 6 -335q142 56 238 86q8 3 13.5 -1t5.5 -13q2 -62 2 -148q0 -49 -2 -173q-147 -61 -255 -105q0 -58 -2 -170h21q145 0 325 -5q8 0 14 -6t6 -14q2 -124 2 -177
q0 -45 -2 -151q-112 -5 -314 -5q-132 0 -447 9q-8 0 -14.5 6t-6.5 14q-3 165 -6 336q-7 -2 -20 -6.5t-23.5 -8l-19.5 -6.5q-8 -3 -14 1t-6 13q-1 51 -1 162z" />
    <glyph glyph-name="lslash" unicode="&#x142;" horiz-adv-x="901" 
d="M41 511q0 115 1 155q39 16 81 33q1 235 8 530q87 4 179 4q70 0 210 -4q8 0 14.5 -6.5t6.5 -14.5q3 -192 6 -335q142 56 238 86q8 3 13.5 -1t5.5 -13q2 -62 2 -148q0 -49 -2 -173q-147 -61 -255 -105q0 -58 -2 -170h21q145 0 325 -5q8 0 14 -6t6 -14q2 -124 2 -177
q0 -45 -2 -151q-112 -5 -314 -5q-132 0 -447 9q-8 0 -14.5 6t-6.5 14q-3 165 -6 336q-7 -2 -20 -6.5t-23.5 -8l-19.5 -6.5q-8 -3 -14 1t-6 13q-1 51 -1 162z" />
    <glyph glyph-name="Nacute" unicode="&#x143;" horiz-adv-x="1126" 
d="M94 614q0 287 8 615q87 4 169 4q91 0 178 -4q14 0 22 -21l212 -524l-7 545q87 4 179 4q108 0 189 -4q8 0 14.5 -6.5t6.5 -14.5q8 -386 8 -594q0 -286 -8 -614q-95 -5 -159 -5q-77 0 -187 5q-16 1 -23 20l-212 525l8 -545q-108 -5 -169 -5q-35 0 -200 5q-8 0 -14.5 6
t-6.5 14q-8 386 -8 594zM387 1303q80 133 190 284q162 7 352 0q8 0 10 -6t-4 -14q-39 -55 -123.5 -150t-120.5 -143q-150 0 -298 8q-17 2 -6 21z" />
    <glyph glyph-name="nacute" unicode="&#x144;" horiz-adv-x="1126" 
d="M94 614q0 287 8 615q87 4 169 4q91 0 178 -4q14 0 22 -21l212 -524l-7 545q87 4 179 4q108 0 189 -4q8 0 14.5 -6.5t6.5 -14.5q8 -386 8 -594q0 -286 -8 -614q-95 -5 -159 -5q-77 0 -187 5q-16 1 -23 20l-212 525l8 -545q-108 -5 -169 -5q-35 0 -200 5q-8 0 -14.5 6
t-6.5 14q-8 386 -8 594zM387 1303q80 133 190 284q162 7 352 0q8 0 10 -6t-4 -14q-39 -55 -123.5 -150t-120.5 -143q-150 0 -298 8q-17 2 -6 21z" />
    <glyph glyph-name="Ncommaaccent" unicode="&#x145;" horiz-adv-x="1126" 
d="M458 -42q126 5 295 0q8 0 13.5 -4.5t5.5 -10.5q0 -25 0.5 -65.5t0.5 -63.5q-6 -43 -36.5 -117.5t-46.5 -103.5q-59 -2 -152 -2q10 83 15 167q-50 0 -76 1q-8 0 -13.5 4.5t-5.5 10.5q-2 92 0 184zM94 614q0 287 8 615q87 4 169 4q91 0 178 -4q14 0 22 -21l212 -524l-7 545
q87 4 179 4q108 0 189 -4q8 0 14.5 -6.5t6.5 -14.5q8 -386 8 -594q0 -286 -8 -614q-95 -5 -159 -5q-77 0 -187 5q-16 1 -23 20l-212 525l8 -545q-108 -5 -169 -5q-35 0 -200 5q-8 0 -14.5 6t-6.5 14q-8 386 -8 594z" />
    <glyph glyph-name="ncommaaccent" unicode="&#x146;" horiz-adv-x="1126" 
d="M458 -42q126 5 295 0q8 0 13.5 -4.5t5.5 -10.5q0 -25 0.5 -65.5t0.5 -63.5q-6 -43 -36.5 -117.5t-46.5 -103.5q-59 -2 -152 -2q10 83 15 167q-50 0 -76 1q-8 0 -13.5 4.5t-5.5 10.5q-2 92 0 184zM94 614q0 287 8 615q87 4 169 4q91 0 178 -4q14 0 22 -21l212 -524l-7 545
q87 4 179 4q108 0 189 -4q8 0 14.5 -6.5t6.5 -14.5q8 -386 8 -594q0 -286 -8 -614q-95 -5 -159 -5q-77 0 -187 5q-16 1 -23 20l-212 525l8 -545q-108 -5 -169 -5q-35 0 -200 5q-8 0 -14.5 6t-6.5 14q-8 386 -8 594z" />
    <glyph glyph-name="Ncaron" unicode="&#x147;" horiz-adv-x="1126" 
d="M149 1580q52 3 141 3q71 0 166 -3q8 0 17.5 -6.5t14.5 -14.5q13 -25 33.5 -62.5t37 -68t30.5 -57.5q69 134 125 211q55 3 147 3q74 0 164 -3q11 0 11 -9q0 -4 -12 -21.5t-32 -43t-21 -27.5q-94 -125 -170 -211h-179q-104 0 -254 9q-18 1 -31 18q-134 178 -188 283z
M94 614q0 287 8 615q87 4 169 4q91 0 178 -4q14 0 22 -21l212 -524l-7 545q87 4 179 4q108 0 189 -4q8 0 14.5 -6.5t6.5 -14.5q8 -386 8 -594q0 -286 -8 -614q-95 -5 -159 -5q-77 0 -187 5q-16 1 -23 20l-212 525l8 -545q-108 -5 -169 -5q-35 0 -200 5q-8 0 -14.5 6t-6.5 14
q-8 386 -8 594z" />
    <glyph glyph-name="ncaron" unicode="&#x148;" horiz-adv-x="1126" 
d="M149 1580q52 3 141 3q71 0 166 -3q8 0 17.5 -6.5t14.5 -14.5q13 -25 33.5 -62.5t37 -68t30.5 -57.5q69 134 125 211q55 3 147 3q74 0 164 -3q11 0 11 -9q0 -4 -12 -21.5t-32 -43t-21 -27.5q-94 -125 -170 -211h-179q-104 0 -254 9q-18 1 -31 18q-134 178 -188 283z
M94 614q0 287 8 615q87 4 169 4q91 0 178 -4q14 0 22 -21l212 -524l-7 545q87 4 179 4q108 0 189 -4q8 0 14.5 -6.5t6.5 -14.5q8 -386 8 -594q0 -286 -8 -614q-95 -5 -159 -5q-77 0 -187 5q-16 1 -23 20l-212 525l8 -545q-108 -5 -169 -5q-35 0 -200 5q-8 0 -14.5 6t-6.5 14
q-8 386 -8 594z" />
    <glyph glyph-name="Omacron" unicode="&#x14c;" 
d="M274 1446q0 23 2 133q108 5 364 5q55 0 230 -5q8 0 14.5 -6t6.5 -14q1 -23 1 -135q0 -101 -1 -136q-90 -4 -281 -4q-33 0 -313 8q-8 0 -14.5 6.5t-6.5 14.5q-2 108 -2 133zM53 615q0 297 123 457t344 171q150 0 255 -31.5t178 -105t107 -194t34 -297.5q0 -296 -125 -456
t-346 -171q-150 0 -254 31.5t-176.5 104t-106 193.5t-33.5 298zM481 615q0 -89 6.5 -145t20.5 -82.5t29 -35t38 -8.5q31 0 48.5 15.5t30 77t12.5 178.5q0 88 -7 144t-21.5 82.5t-29.5 35t-39 8.5q-31 0 -48 -15.5t-28.5 -76.5t-11.5 -178z" />
    <glyph glyph-name="omacron" unicode="&#x14d;" 
d="M274 1446q0 23 2 133q108 5 364 5q55 0 230 -5q8 0 14.5 -6t6.5 -14q1 -23 1 -135q0 -101 -1 -136q-90 -4 -281 -4q-33 0 -313 8q-8 0 -14.5 6.5t-6.5 14.5q-2 108 -2 133zM53 615q0 297 123 457t344 171q150 0 255 -31.5t178 -105t107 -194t34 -297.5q0 -296 -125 -456
t-346 -171q-150 0 -254 31.5t-176.5 104t-106 193.5t-33.5 298zM481 615q0 -89 6.5 -145t20.5 -82.5t29 -35t38 -8.5q31 0 48.5 15.5t30 77t12.5 178.5q0 88 -7 144t-21.5 82.5t-29.5 35t-39 8.5q-31 0 -48 -15.5t-28.5 -76.5t-11.5 -178z" />
    <glyph glyph-name="Obreve" unicode="&#x14e;" 
d="M141 1589q78 3 139 3q70 0 164 -3q20 0 31 -21q38 -74 110 -74q37 0 70.5 23.5t50.5 65.5q83 3 147 3q74 0 164 -3q9 0 9 -7q0 -13 -13.5 -46t-26.5 -55q-58 -98 -168 -153t-236 -55q-99 0 -187 33.5t-158 108t-96 180.5zM53 615q0 297 123 457t344 171q150 0 255 -31.5
t178 -105t107 -194t34 -297.5q0 -296 -125 -456t-346 -171q-150 0 -254 31.5t-176.5 104t-106 193.5t-33.5 298zM481 615q0 -89 6.5 -145t20.5 -82.5t29 -35t38 -8.5q31 0 48.5 15.5t30 77t12.5 178.5q0 88 -7 144t-21.5 82.5t-29.5 35t-39 8.5q-31 0 -48 -15.5t-28.5 -76.5
t-11.5 -178z" />
    <glyph glyph-name="obreve" unicode="&#x14f;" 
d="M141 1589q78 3 139 3q70 0 164 -3q20 0 31 -21q38 -74 110 -74q37 0 70.5 23.5t50.5 65.5q83 3 147 3q74 0 164 -3q9 0 9 -7q0 -13 -13.5 -46t-26.5 -55q-58 -98 -168 -153t-236 -55q-99 0 -187 33.5t-158 108t-96 180.5zM53 615q0 297 123 457t344 171q150 0 255 -31.5
t178 -105t107 -194t34 -297.5q0 -296 -125 -456t-346 -171q-150 0 -254 31.5t-176.5 104t-106 193.5t-33.5 298zM481 615q0 -89 6.5 -145t20.5 -82.5t29 -35t38 -8.5q31 0 48.5 15.5t30 77t12.5 178.5q0 88 -7 144t-21.5 82.5t-29.5 35t-39 8.5q-31 0 -48 -15.5t-28.5 -76.5
t-11.5 -178z" />
    <glyph glyph-name="Ohungarumlaut" unicode="&#x150;" 
d="M598 1291q0 4 6.5 15.5t17.5 29t12 19.5q64 103 158 232q36 2 123 2q63 0 141 -2q11 0 11 -8q0 -9 -65 -91q-59 -74 -194 -214q-60 0 -200 8q-10 0 -10 9zM229 1291q0 8 34 61q71 113 160 235q36 2 123 2q63 0 141 -2q11 0 11 -8q0 -5 -20.5 -33.5t-33.5 -44.5
q-62 -79 -205 -227q-60 0 -200 8q-10 0 -10 9zM53 615q0 297 123 457t344 171q150 0 255 -31.5t178 -105t107 -194t34 -297.5q0 -296 -125 -456t-346 -171q-150 0 -254 31.5t-176.5 104t-106 193.5t-33.5 298zM481 615q0 -89 6.5 -145t20.5 -82.5t29 -35t38 -8.5
q31 0 48.5 15.5t30 77t12.5 178.5q0 88 -7 144t-21.5 82.5t-29.5 35t-39 8.5q-31 0 -48 -15.5t-28.5 -76.5t-11.5 -178z" />
    <glyph glyph-name="ohungarumlaut" unicode="&#x151;" 
d="M598 1291q0 4 6.5 15.5t17.5 29t12 19.5q64 103 158 232q36 2 123 2q63 0 141 -2q11 0 11 -8q0 -9 -65 -91q-59 -74 -194 -214q-60 0 -200 8q-10 0 -10 9zM229 1291q0 8 34 61q71 113 160 235q36 2 123 2q63 0 141 -2q11 0 11 -8q0 -5 -20.5 -33.5t-33.5 -44.5
q-62 -79 -205 -227q-60 0 -200 8q-10 0 -10 9zM53 615q0 297 123 457t344 171q150 0 255 -31.5t178 -105t107 -194t34 -297.5q0 -296 -125 -456t-346 -171q-150 0 -254 31.5t-176.5 104t-106 193.5t-33.5 298zM481 615q0 -89 6.5 -145t20.5 -82.5t29 -35t38 -8.5
q31 0 48.5 15.5t30 77t12.5 178.5q0 88 -7 144t-21.5 82.5t-29.5 35t-39 8.5q-31 0 -48 -15.5t-28.5 -76.5t-11.5 -178z" />
    <glyph glyph-name="OE" unicode="&#x152;" horiz-adv-x="1482" 
d="M481 615q0 -89 6.5 -145t20.5 -82.5t29 -35t38 -8.5q31 0 48.5 15.5t30 77t12.5 178.5q0 88 -7 144t-21.5 82.5t-29.5 35t-39 8.5q-31 0 -48 -15.5t-28.5 -76.5t-11.5 -178zM53 615q0 296 123 453.5t344 168.5q73 0 140 -8q97 4 420 4q218 0 358 -4q8 0 14 -6.5t6 -14.5
q2 -124 2 -177q0 -44 -2 -150q-87 -4 -325 -4h-77q0 -17 -0.5 -52.5t-0.5 -54.5q205 -3 243 -4q8 0 14.5 -6.5t6.5 -14.5q2 -112 2 -153q0 -39 -2 -137h-264q0 -18 0.5 -54t0.5 -53h23q223 0 363 -4q8 0 14 -6t6 -14q2 -124 2 -177q0 -45 -2 -151q-108 -5 -351 -5
q-192 0 -429 9q-29 -5 -59 -6q-150 0 -253.5 30.5t-176.5 102t-106.5 191.5t-33.5 297z" />
    <glyph glyph-name="oe" unicode="&#x153;" horiz-adv-x="1482" 
d="M481 615q0 -89 6.5 -145t20.5 -82.5t29 -35t38 -8.5q31 0 48.5 15.5t30 77t12.5 178.5q0 88 -7 144t-21.5 82.5t-29.5 35t-39 8.5q-31 0 -48 -15.5t-28.5 -76.5t-11.5 -178zM53 615q0 296 123 453.5t344 168.5q73 0 140 -8q97 4 420 4q218 0 358 -4q8 0 14 -6.5t6 -14.5
q2 -124 2 -177q0 -44 -2 -150q-87 -4 -325 -4h-77q0 -17 -0.5 -52.5t-0.5 -54.5q205 -3 243 -4q8 0 14.5 -6.5t6.5 -14.5q2 -112 2 -153q0 -39 -2 -137h-264q0 -18 0.5 -54t0.5 -53h23q223 0 363 -4q8 0 14 -6t6 -14q2 -124 2 -177q0 -45 -2 -151q-108 -5 -351 -5
q-192 0 -429 9q-29 -5 -59 -6q-150 0 -253.5 30.5t-176.5 102t-106.5 191.5t-33.5 297z" />
    <glyph glyph-name="Racute" unicode="&#x154;" horiz-adv-x="1077" 
d="M350 1291q0 8 36 64q64 103 158 232q110 4 165 4q67 0 187 -4q11 0 11 -8q0 -11 -42 -61q-29 -37 -100 -117t-107 -127q-150 0 -298 8q-10 0 -10 9zM98 641q0 103 2 284t2 283q228 35 420 35q75 0 125.5 -2t109 -10.5t96.5 -23t76 -41t59.5 -64t34.5 -91.5t13 -124
q0 -111 -57 -195.5t-160 -132.5q70 -24 114 -98q101 -200 162 -461q-95 -11 -214 -11q-75 0 -165 5q-25 2 -31 20q-95 290 -155 490h-27q1 -73 4.5 -245t4.5 -259q-80 -4 -180 -4q-69 0 -209 4q-9 0 -15 6t-6 14q0 95 -2 306t-2 315zM502 756h35q49 0 78.5 24t29.5 64
q0 50 -20.5 74.5t-72.5 24.5q-19 0 -49 -2q0 -29 -0.5 -90t-0.5 -95z" />
    <glyph glyph-name="racute" unicode="&#x155;" horiz-adv-x="1077" 
d="M350 1291q0 8 36 64q64 103 158 232q110 4 165 4q67 0 187 -4q11 0 11 -8q0 -11 -42 -61q-29 -37 -100 -117t-107 -127q-150 0 -298 8q-10 0 -10 9zM98 641q0 103 2 284t2 283q228 35 420 35q75 0 125.5 -2t109 -10.5t96.5 -23t76 -41t59.5 -64t34.5 -91.5t13 -124
q0 -111 -57 -195.5t-160 -132.5q70 -24 114 -98q101 -200 162 -461q-95 -11 -214 -11q-75 0 -165 5q-25 2 -31 20q-95 290 -155 490h-27q1 -73 4.5 -245t4.5 -259q-80 -4 -180 -4q-69 0 -209 4q-9 0 -15 6t-6 14q0 95 -2 306t-2 315zM502 756h35q49 0 78.5 24t29.5 64
q0 50 -20.5 74.5t-72.5 24.5q-19 0 -49 -2q0 -29 -0.5 -90t-0.5 -95z" />
    <glyph glyph-name="Rcommaaccent" unicode="&#x156;" horiz-adv-x="1077" 
d="M440 -41q126 5 295 0q18 0 18 -14q0 -25 0.5 -66t0.5 -64q-6 -43 -36.5 -117t-46.5 -103q-88 -3 -152 -3q10 83 15 167q-50 0 -76 1q-7 0 -12.5 4.5t-5.5 10.5q-2 92 0 184zM98 641q0 103 2 284t2 283q228 35 420 35q75 0 125.5 -2t109 -10.5t96.5 -23t76 -41t59.5 -64
t34.5 -91.5t13 -124q0 -111 -57 -195.5t-160 -132.5q70 -24 114 -98q101 -200 162 -461q-95 -11 -214 -11q-75 0 -165 5q-25 2 -31 20q-95 290 -155 490h-27q1 -73 4.5 -245t4.5 -259q-80 -4 -180 -4q-69 0 -209 4q-9 0 -15 6t-6 14q0 95 -2 306t-2 315zM502 756h35
q49 0 78.5 24t29.5 64q0 50 -20.5 74.5t-72.5 24.5q-19 0 -49 -2q0 -29 -0.5 -90t-0.5 -95z" />
    <glyph glyph-name="rcommaaccent" unicode="&#x157;" horiz-adv-x="1077" 
d="M440 -41q126 5 295 0q18 0 18 -14q0 -25 0.5 -66t0.5 -64q-6 -43 -36.5 -117t-46.5 -103q-88 -3 -152 -3q10 83 15 167q-50 0 -76 1q-7 0 -12.5 4.5t-5.5 10.5q-2 92 0 184zM98 641q0 103 2 284t2 283q228 35 420 35q75 0 125.5 -2t109 -10.5t96.5 -23t76 -41t59.5 -64
t34.5 -91.5t13 -124q0 -111 -57 -195.5t-160 -132.5q70 -24 114 -98q101 -200 162 -461q-95 -11 -214 -11q-75 0 -165 5q-25 2 -31 20q-95 290 -155 490h-27q1 -73 4.5 -245t4.5 -259q-80 -4 -180 -4q-69 0 -209 4q-9 0 -15 6t-6 14q0 95 -2 306t-2 315zM502 756h35
q49 0 78.5 24t29.5 64q0 50 -20.5 74.5t-72.5 24.5q-19 0 -49 -2q0 -29 -0.5 -90t-0.5 -95z" />
    <glyph glyph-name="Rcaron" unicode="&#x158;" horiz-adv-x="1077" 
d="M96 1580q52 3 140 3q72 0 167 -3q20 0 31 -21q13 -25 48.5 -89t53.5 -99q69 134 125 211q55 3 147 3q74 0 164 -3q11 0 11 -9q0 -4 -12 -21.5t-32 -43t-21 -27.5q-94 -125 -170 -211h-179q-104 0 -254 9q-19 2 -32 18q-131 174 -187 283zM98 641q0 103 2 284t2 283
q228 35 420 35q75 0 125.5 -2t109 -10.5t96.5 -23t76 -41t59.5 -64t34.5 -91.5t13 -124q0 -111 -57 -195.5t-160 -132.5q70 -24 114 -98q101 -200 162 -461q-95 -11 -214 -11q-75 0 -165 5q-25 2 -31 20q-95 290 -155 490h-27q1 -73 4.5 -245t4.5 -259q-80 -4 -180 -4
q-69 0 -209 4q-9 0 -15 6t-6 14q0 95 -2 306t-2 315zM502 756h35q49 0 78.5 24t29.5 64q0 50 -20.5 74.5t-72.5 24.5q-19 0 -49 -2q0 -29 -0.5 -90t-0.5 -95z" />
    <glyph glyph-name="rcaron" unicode="&#x159;" horiz-adv-x="1077" 
d="M96 1580q52 3 140 3q72 0 167 -3q20 0 31 -21q13 -25 48.5 -89t53.5 -99q69 134 125 211q55 3 147 3q74 0 164 -3q11 0 11 -9q0 -4 -12 -21.5t-32 -43t-21 -27.5q-94 -125 -170 -211h-179q-104 0 -254 9q-19 2 -32 18q-131 174 -187 283zM98 641q0 103 2 284t2 283
q228 35 420 35q75 0 125.5 -2t109 -10.5t96.5 -23t76 -41t59.5 -64t34.5 -91.5t13 -124q0 -111 -57 -195.5t-160 -132.5q70 -24 114 -98q101 -200 162 -461q-95 -11 -214 -11q-75 0 -165 5q-25 2 -31 20q-95 290 -155 490h-27q1 -73 4.5 -245t4.5 -259q-80 -4 -180 -4
q-69 0 -209 4q-9 0 -15 6t-6 14q0 95 -2 306t-2 315zM502 756h35q49 0 78.5 24t29.5 64q0 50 -20.5 74.5t-72.5 24.5q-19 0 -49 -2q0 -29 -0.5 -90t-0.5 -95z" />
    <glyph glyph-name="Sacute" unicode="&#x15a;" horiz-adv-x="1007" 
d="M338 1291q0 8 36 64q64 103 158 232q110 4 165 4q67 0 187 -4q11 0 11 -8q0 -11 -42 -61q-29 -37 -100 -117t-107 -127q-150 0 -298 8q-10 0 -10 9zM70 12l50 371q229 -72 363 -72q53 0 81 22.5t28 50.5q0 10 -4 18.5t-14.5 16t-20 12.5t-28.5 11.5t-32 10.5t-38 11
q-36 10 -54.5 15.5t-55.5 19t-58.5 25t-54 31.5t-52 40.5t-42.5 51.5t-36 65t-21.5 79t-8.5 96q0 70 13 124t33.5 91.5t56.5 64t72.5 41t91.5 23t102 10.5t116 2q167 0 395 -45l-46 -340q-78 35 -178.5 59t-190.5 24q-48 0 -75.5 -15t-27.5 -43q0 -13 9.5 -23.5t34.5 -21
t43 -16t60 -18.5q50 -15 77.5 -24t79 -30t82 -40t70 -52t61.5 -69t37.5 -87t15.5 -110q0 -95 -26.5 -166.5t-70.5 -116t-110 -71.5t-136.5 -37.5t-158.5 -10.5q-222 0 -432 22z" />
    <glyph glyph-name="sacute" unicode="&#x15b;" horiz-adv-x="1007" 
d="M338 1291q0 8 36 64q64 103 158 232q110 4 165 4q67 0 187 -4q11 0 11 -8q0 -11 -42 -61q-29 -37 -100 -117t-107 -127q-150 0 -298 8q-10 0 -10 9zM70 12l50 371q229 -72 363 -72q53 0 81 22.5t28 50.5q0 10 -4 18.5t-14.5 16t-20 12.5t-28.5 11.5t-32 10.5t-38 11
q-36 10 -54.5 15.5t-55.5 19t-58.5 25t-54 31.5t-52 40.5t-42.5 51.5t-36 65t-21.5 79t-8.5 96q0 70 13 124t33.5 91.5t56.5 64t72.5 41t91.5 23t102 10.5t116 2q167 0 395 -45l-46 -340q-78 35 -178.5 59t-190.5 24q-48 0 -75.5 -15t-27.5 -43q0 -13 9.5 -23.5t34.5 -21
t43 -16t60 -18.5q50 -15 77.5 -24t79 -30t82 -40t70 -52t61.5 -69t37.5 -87t15.5 -110q0 -95 -26.5 -166.5t-70.5 -116t-110 -71.5t-136.5 -37.5t-158.5 -10.5q-222 0 -432 22z" />
    <glyph glyph-name="Scircumflex" unicode="&#x15c;" horiz-adv-x="1007" 
d="M83 1271q56 108 190 293q13 17 31 18q144 7 290 7h43h52h47q66 -74 193 -242q2 -2 8 -10t11 -14.5t11 -14t9 -13.5t3 -9q0 -9 -11 -9q-90 -3 -165 -3q-91 0 -146 3q-53 73 -125 211q-51 -104 -102 -196q-11 -21 -31 -21q-95 -3 -167 -3q-89 0 -141 3zM70 12l50 371
q229 -72 363 -72q53 0 81 22.5t28 50.5q0 10 -4 18.5t-14.5 16t-20 12.5t-28.5 11.5t-32 10.5t-38 11q-36 10 -54.5 15.5t-55.5 19t-58.5 25t-54 31.5t-52 40.5t-42.5 51.5t-36 65t-21.5 79t-8.5 96q0 70 13 124t33.5 91.5t56.5 64t72.5 41t91.5 23t102 10.5t116 2
q167 0 395 -45l-46 -340q-78 35 -178.5 59t-190.5 24q-48 0 -75.5 -15t-27.5 -43q0 -13 9.5 -23.5t34.5 -21t43 -16t60 -18.5q50 -15 77.5 -24t79 -30t82 -40t70 -52t61.5 -69t37.5 -87t15.5 -110q0 -95 -26.5 -166.5t-70.5 -116t-110 -71.5t-136.5 -37.5t-158.5 -10.5
q-222 0 -432 22z" />
    <glyph glyph-name="scircumflex" unicode="&#x15d;" horiz-adv-x="1007" 
d="M83 1271q56 108 190 293q13 17 31 18q144 7 290 7h43h52h47q66 -74 193 -242q2 -2 8 -10t11 -14.5t11 -14t9 -13.5t3 -9q0 -9 -11 -9q-90 -3 -165 -3q-91 0 -146 3q-53 73 -125 211q-51 -104 -102 -196q-11 -21 -31 -21q-95 -3 -167 -3q-89 0 -141 3zM70 12l50 371
q229 -72 363 -72q53 0 81 22.5t28 50.5q0 10 -4 18.5t-14.5 16t-20 12.5t-28.5 11.5t-32 10.5t-38 11q-36 10 -54.5 15.5t-55.5 19t-58.5 25t-54 31.5t-52 40.5t-42.5 51.5t-36 65t-21.5 79t-8.5 96q0 70 13 124t33.5 91.5t56.5 64t72.5 41t91.5 23t102 10.5t116 2
q167 0 395 -45l-46 -340q-78 35 -178.5 59t-190.5 24q-48 0 -75.5 -15t-27.5 -43q0 -13 9.5 -23.5t34.5 -21t43 -16t60 -18.5q50 -15 77.5 -24t79 -30t82 -40t70 -52t61.5 -69t37.5 -87t15.5 -110q0 -95 -26.5 -166.5t-70.5 -116t-110 -71.5t-136.5 -37.5t-158.5 -10.5
q-222 0 -432 22z" />
    <glyph glyph-name="Scedilla" unicode="&#x15e;" horiz-adv-x="1007" 
d="M70 12l50 371q229 -72 363 -72q53 0 81 22.5t28 50.5q0 10 -4 18.5t-14.5 16t-20 12.5t-28.5 11.5t-32 10.5t-38 11q-36 10 -54.5 15.5t-55.5 19t-58.5 25t-54 31.5t-52 40.5t-42.5 51.5t-36 65t-21.5 79t-8.5 96q0 70 13 124t33.5 91.5t56.5 64t72.5 41t91.5 23
t102 10.5t116 2q167 0 395 -45l-46 -340q-78 35 -178.5 59t-190.5 24q-48 0 -75.5 -15t-27.5 -43q0 -13 9.5 -23.5t34.5 -21t43 -16t60 -18.5q50 -15 77.5 -24t79 -30t82 -40t70 -52t61.5 -69t37.5 -87t15.5 -110q0 -102 -28.5 -176.5t-82.5 -119t-121 -68.5t-154 -33
q162 -68 162 -203q0 -91 -83.5 -146t-242.5 -55q-30 0 -52.5 1.5t-33 3t-34 6t-40.5 7.5l27 205l48 -6q40 -5 63 8t23 35q0 20 -20.5 35t-59.5 18l10 88q-173 5 -315 20z" />
    <glyph glyph-name="scedilla" unicode="&#x15f;" horiz-adv-x="1007" 
d="M70 12l50 371q229 -72 363 -72q53 0 81 22.5t28 50.5q0 10 -4 18.5t-14.5 16t-20 12.5t-28.5 11.5t-32 10.5t-38 11q-36 10 -54.5 15.5t-55.5 19t-58.5 25t-54 31.5t-52 40.5t-42.5 51.5t-36 65t-21.5 79t-8.5 96q0 70 13 124t33.5 91.5t56.5 64t72.5 41t91.5 23
t102 10.5t116 2q167 0 395 -45l-46 -340q-78 35 -178.5 59t-190.5 24q-48 0 -75.5 -15t-27.5 -43q0 -13 9.5 -23.5t34.5 -21t43 -16t60 -18.5q50 -15 77.5 -24t79 -30t82 -40t70 -52t61.5 -69t37.5 -87t15.5 -110q0 -102 -28.5 -176.5t-82.5 -119t-121 -68.5t-154 -33
q162 -68 162 -203q0 -91 -83.5 -146t-242.5 -55q-30 0 -52.5 1.5t-33 3t-34 6t-40.5 7.5l27 205l48 -6q40 -5 63 8t23 35q0 20 -20.5 35t-59.5 18l10 88q-173 5 -315 20z" />
    <glyph glyph-name="Scaron" unicode="&#x160;" horiz-adv-x="1007" 
d="M83 1580q52 3 141 3q72 0 167 -3q20 0 31 -21q13 -25 33.5 -62.5t37 -68t30.5 -57.5q66 129 126 211q55 3 146 3q75 0 165 -3q11 0 11 -9q0 -4 -12 -21.5t-32 -43t-21 -27.5q-94 -125 -170 -211h-179q-105 0 -255 9q-18 1 -31 18q-134 178 -188 283zM70 12l50 371
q229 -72 363 -72q53 0 81 22.5t28 50.5q0 10 -4 18.5t-14.5 16t-20 12.5t-28.5 11.5t-32 10.5t-38 11q-36 10 -54.5 15.5t-55.5 19t-58.5 25t-54 31.5t-52 40.5t-42.5 51.5t-36 65t-21.5 79t-8.5 96q0 70 13 124t33.5 91.5t56.5 64t72.5 41t91.5 23t102 10.5t116 2
q167 0 395 -45l-46 -340q-78 35 -178.5 59t-190.5 24q-48 0 -75.5 -15t-27.5 -43q0 -13 9.5 -23.5t34.5 -21t43 -16t60 -18.5q50 -15 77.5 -24t79 -30t82 -40t70 -52t61.5 -69t37.5 -87t15.5 -110q0 -95 -26.5 -166.5t-70.5 -116t-110 -71.5t-136.5 -37.5t-158.5 -10.5
q-222 0 -432 22z" />
    <glyph glyph-name="scaron" unicode="&#x161;" horiz-adv-x="1007" 
d="M83 1580q52 3 141 3q72 0 167 -3q20 0 31 -21q13 -25 33.5 -62.5t37 -68t30.5 -57.5q66 129 126 211q55 3 146 3q75 0 165 -3q11 0 11 -9q0 -4 -12 -21.5t-32 -43t-21 -27.5q-94 -125 -170 -211h-179q-105 0 -255 9q-18 1 -31 18q-134 178 -188 283zM70 12l50 371
q229 -72 363 -72q53 0 81 22.5t28 50.5q0 10 -4 18.5t-14.5 16t-20 12.5t-28.5 11.5t-32 10.5t-38 11q-36 10 -54.5 15.5t-55.5 19t-58.5 25t-54 31.5t-52 40.5t-42.5 51.5t-36 65t-21.5 79t-8.5 96q0 70 13 124t33.5 91.5t56.5 64t72.5 41t91.5 23t102 10.5t116 2
q167 0 395 -45l-46 -340q-78 35 -178.5 59t-190.5 24q-48 0 -75.5 -15t-27.5 -43q0 -13 9.5 -23.5t34.5 -21t43 -16t60 -18.5q50 -15 77.5 -24t79 -30t82 -40t70 -52t61.5 -69t37.5 -87t15.5 -110q0 -95 -26.5 -166.5t-70.5 -116t-110 -71.5t-136.5 -37.5t-158.5 -10.5
q-222 0 -432 22z" />
    <glyph glyph-name="Tcedilla" unicode="&#x162;" horiz-adv-x="942" 
d="M31 1073q0 46 2 156q87 4 474 4q283 0 423 -4q8 0 14 -6.5t6 -14.5q2 -116 2 -174q0 -47 -2 -153q-34 -2 -248 -4q3 -249 3 -263q0 -245 -9 -614q-40 -2 -99 -4q165 -68 165 -204q0 -91 -83 -146.5t-242 -55.5q-30 0 -52 1.5t-33.5 3.5t-34 6.5t-40.5 7.5l26 205l49 -7
q40 -5 63 8t23 35q0 20 -21 35.5t-59 18.5l11 94q-10 0 -31 0.5t-31 1.5q-8 0 -14 6t-6 14q-8 386 -8 594q0 180 1 265q-24 1 -227 6q-8 0 -14 6t-6 14q-2 118 -2 168z" />
    <glyph glyph-name="tcedilla" unicode="&#x163;" horiz-adv-x="942" 
d="M31 1073q0 46 2 156q87 4 474 4q283 0 423 -4q8 0 14 -6.5t6 -14.5q2 -116 2 -174q0 -47 -2 -153q-34 -2 -248 -4q3 -249 3 -263q0 -245 -9 -614q-40 -2 -99 -4q165 -68 165 -204q0 -91 -83 -146.5t-242 -55.5q-30 0 -52 1.5t-33.5 3.5t-34 6.5t-40.5 7.5l26 205l49 -7
q40 -5 63 8t23 35q0 20 -21 35.5t-59 18.5l11 94q-10 0 -31 0.5t-31 1.5q-8 0 -14 6t-6 14q-8 386 -8 594q0 180 1 265q-24 1 -227 6q-8 0 -14 6t-6 14q-2 118 -2 168z" />
    <glyph glyph-name="Tcaron" unicode="&#x164;" horiz-adv-x="942" 
d="M51 1580q52 3 140 3q73 0 167 -3q20 0 31 -21q13 -25 48.5 -89t53.5 -99q69 134 125 211q55 3 147 3q74 0 164 -3q11 0 11 -9q0 -4 -12 -21.5t-32 -43t-21 -27.5q-94 -125 -170 -211h-179q-104 0 -254 9q-19 2 -32 18q-131 174 -187 283zM31 1073q0 46 2 156q87 4 474 4
q283 0 423 -4q8 0 14 -6.5t6 -14.5q2 -116 2 -174q0 -47 -2 -153q-34 -2 -248 -4q3 -249 3 -263q0 -245 -9 -614q-108 -5 -179 -5q-35 0 -210 5q-8 0 -14 6t-6 14q-8 386 -8 594q0 180 1 265q-24 1 -227 6q-8 0 -14 6t-6 14q-2 118 -2 168z" />
    <glyph glyph-name="tcaron" unicode="&#x165;" horiz-adv-x="942" 
d="M51 1580q52 3 140 3q73 0 167 -3q20 0 31 -21q13 -25 48.5 -89t53.5 -99q69 134 125 211q55 3 147 3q74 0 164 -3q11 0 11 -9q0 -4 -12 -21.5t-32 -43t-21 -27.5q-94 -125 -170 -211h-179q-104 0 -254 9q-19 2 -32 18q-131 174 -187 283zM31 1073q0 46 2 156q87 4 474 4
q283 0 423 -4q8 0 14 -6.5t6 -14.5q2 -116 2 -174q0 -47 -2 -153q-34 -2 -248 -4q3 -249 3 -263q0 -245 -9 -614q-108 -5 -179 -5q-35 0 -210 5q-8 0 -14 6t-6 14q-8 386 -8 594q0 180 1 265q-24 1 -227 6q-8 0 -14 6t-6 14q-2 118 -2 168z" />
    <glyph glyph-name="Tbar" unicode="&#x166;" horiz-adv-x="942" 
d="M31 1073q0 46 2 156q87 4 474 4q283 0 423 -4q8 0 14 -6.5t6 -14.5q2 -116 2 -174q0 -47 -2 -153q-34 -2 -248 -4q2 -72 2 -109q19 0 57 -0.5t52 -1.5q8 0 14.5 -6.5t6.5 -14.5q3 -89 0 -233q-21 -1 -130 -3q-1 -225 -8 -509q-108 -5 -179 -5q-35 0 -210 5q-8 0 -14 6
t-6 14q-7 396 -8 492q-13 0 -109 4q-8 0 -14 6.5t-6 14.5q-3 110 0 229q30 1 129 3q0 74 1 110q-24 1 -227 6q-8 0 -14 6t-6 14q-2 118 -2 168z" />
    <glyph glyph-name="tbar" unicode="&#x167;" horiz-adv-x="942" 
d="M31 1073q0 46 2 156q87 4 474 4q283 0 423 -4q8 0 14 -6.5t6 -14.5q2 -116 2 -174q0 -47 -2 -153q-34 -2 -248 -4q2 -72 2 -109q19 0 57 -0.5t52 -1.5q8 0 14.5 -6.5t6.5 -14.5q3 -89 0 -233q-21 -1 -130 -3q-1 -225 -8 -509q-108 -5 -179 -5q-35 0 -210 5q-8 0 -14 6
t-6 14q-7 396 -8 492q-13 0 -109 4q-8 0 -14 6.5t-6 14.5q-3 110 0 229q30 1 129 3q0 74 1 110q-24 1 -227 6q-8 0 -14 6t-6 14q-2 118 -2 168z" />
    <glyph glyph-name="Utilde" unicode="&#x168;" horiz-adv-x="1081" 
d="M156 1493q0 11 10 17q145 91 237 94q47 0 131.5 -27t127.5 -27q69 0 185 60q59 -97 87 -149q35 -61 35 -68q0 -11 -10 -18q-149 -101 -250 -101q-44 0 -119.5 22.5t-118.5 22.5q-74 0 -186 -58q-31 51 -83 143q-46 81 -46 89zM55 607q0 294 8 622q87 4 179 4q71 0 211 -4
q8 0 14 -6.5t6 -14.5q8 -386 8 -663q0 -89 9.5 -135t26 -60t46.5 -14t45.5 14t24 59.5t8.5 135.5q0 356 8 684q87 4 179 4q70 0 210 -4q8 0 14.5 -6.5t6.5 -14.5q8 -386 8 -601q0 -131 -20 -233.5t-57.5 -174.5t-94 -119.5t-126.5 -71.5t-159 -28q-117 0 -200.5 16
t-153.5 56.5t-112.5 111t-65.5 180.5t-23 263z" />
    <glyph glyph-name="utilde" unicode="&#x169;" horiz-adv-x="1081" 
d="M156 1493q0 11 10 17q145 91 237 94q47 0 131.5 -27t127.5 -27q69 0 185 60q59 -97 87 -149q35 -61 35 -68q0 -11 -10 -18q-149 -101 -250 -101q-44 0 -119.5 22.5t-118.5 22.5q-74 0 -186 -58q-31 51 -83 143q-46 81 -46 89zM55 607q0 294 8 622q87 4 179 4q71 0 211 -4
q8 0 14 -6.5t6 -14.5q8 -386 8 -663q0 -89 9.5 -135t26 -60t46.5 -14t45.5 14t24 59.5t8.5 135.5q0 356 8 684q87 4 179 4q70 0 210 -4q8 0 14.5 -6.5t6.5 -14.5q8 -386 8 -601q0 -131 -20 -233.5t-57.5 -174.5t-94 -119.5t-126.5 -71.5t-159 -28q-117 0 -200.5 16
t-153.5 56.5t-112.5 111t-65.5 180.5t-23 263z" />
    <glyph glyph-name="Umacron" unicode="&#x16a;" horiz-adv-x="1081" 
d="M254 1446q0 23 2 133q108 5 363 5q56 0 231 -5q8 0 14 -6t6 -14q2 -46 2 -135q0 -66 -2 -136q-90 -4 -281 -4q-33 0 -313 8q-8 0 -14 6.5t-6 14.5q-2 108 -2 133zM55 607q0 294 8 622q87 4 179 4q71 0 211 -4q8 0 14 -6.5t6 -14.5q8 -386 8 -663q0 -89 9.5 -135t26 -60
t46.5 -14t45.5 14t24 59.5t8.5 135.5q0 356 8 684q87 4 179 4q70 0 210 -4q8 0 14.5 -6.5t6.5 -14.5q8 -386 8 -601q0 -131 -20 -233.5t-57.5 -174.5t-94 -119.5t-126.5 -71.5t-159 -28q-117 0 -200.5 16t-153.5 56.5t-112.5 111t-65.5 180.5t-23 263z" />
    <glyph glyph-name="umacron" unicode="&#x16b;" horiz-adv-x="1081" 
d="M254 1446q0 23 2 133q108 5 363 5q56 0 231 -5q8 0 14 -6t6 -14q2 -46 2 -135q0 -66 -2 -136q-90 -4 -281 -4q-33 0 -313 8q-8 0 -14 6.5t-6 14.5q-2 108 -2 133zM55 607q0 294 8 622q87 4 179 4q71 0 211 -4q8 0 14 -6.5t6 -14.5q8 -386 8 -663q0 -89 9.5 -135t26 -60
t46.5 -14t45.5 14t24 59.5t8.5 135.5q0 356 8 684q87 4 179 4q70 0 210 -4q8 0 14.5 -6.5t6.5 -14.5q8 -386 8 -601q0 -131 -20 -233.5t-57.5 -174.5t-94 -119.5t-126.5 -71.5t-159 -28q-117 0 -200.5 16t-153.5 56.5t-112.5 111t-65.5 180.5t-23 263z" />
    <glyph glyph-name="Ubreve" unicode="&#x16c;" horiz-adv-x="1081" 
d="M120 1589q78 3 139 3q69 0 164 -3q8 0 17.5 -6.5t14.5 -14.5q38 -74 110 -74q37 0 69.5 23.5t50.5 65.5q83 3 147 3q75 0 165 -3q8 0 8 -7q0 -13 -13.5 -46.5t-25.5 -54.5q-58 -98 -168 -153t-236 -55q-99 0 -187.5 33.5t-158.5 108t-96 180.5zM55 607q0 294 8 622
q87 4 179 4q71 0 211 -4q8 0 14 -6.5t6 -14.5q8 -386 8 -663q0 -89 9.5 -135t26 -60t46.5 -14t45.5 14t24 59.5t8.5 135.5q0 356 8 684q87 4 179 4q70 0 210 -4q8 0 14.5 -6.5t6.5 -14.5q8 -386 8 -601q0 -131 -20 -233.5t-57.5 -174.5t-94 -119.5t-126.5 -71.5t-159 -28
q-117 0 -200.5 16t-153.5 56.5t-112.5 111t-65.5 180.5t-23 263z" />
    <glyph glyph-name="ubreve" unicode="&#x16d;" horiz-adv-x="1081" 
d="M120 1589q78 3 139 3q69 0 164 -3q8 0 17.5 -6.5t14.5 -14.5q38 -74 110 -74q37 0 69.5 23.5t50.5 65.5q83 3 147 3q75 0 165 -3q8 0 8 -7q0 -13 -13.5 -46.5t-25.5 -54.5q-58 -98 -168 -153t-236 -55q-99 0 -187.5 33.5t-158.5 108t-96 180.5zM55 607q0 294 8 622
q87 4 179 4q71 0 211 -4q8 0 14 -6.5t6 -14.5q8 -386 8 -663q0 -89 9.5 -135t26 -60t46.5 -14t45.5 14t24 59.5t8.5 135.5q0 356 8 684q87 4 179 4q70 0 210 -4q8 0 14.5 -6.5t6.5 -14.5q8 -386 8 -601q0 -131 -20 -233.5t-57.5 -174.5t-94 -119.5t-126.5 -71.5t-159 -28
q-117 0 -200.5 16t-153.5 56.5t-112.5 111t-65.5 180.5t-23 263z" />
    <glyph glyph-name="Uring" unicode="&#x16e;" horiz-adv-x="1081" 
d="M350 1412q0 84 51.5 134.5t138.5 55.5q126 0 179 -45t53 -145q0 -84 -49.5 -134t-136.5 -55q-127 0 -181.5 45t-54.5 144zM520 1411q0 -27 9 -36t32 -9q22 0 31.5 9t9.5 36q0 28 -10.5 37t-34.5 9q-18 0 -27.5 -9.5t-9.5 -36.5zM55 607q0 294 8 622q87 4 179 4
q71 0 211 -4q8 0 14 -6.5t6 -14.5q8 -386 8 -663q0 -89 9.5 -135t26 -60t46.5 -14t45.5 14t24 59.5t8.5 135.5q0 356 8 684q87 4 179 4q70 0 210 -4q8 0 14.5 -6.5t6.5 -14.5q8 -386 8 -601q0 -131 -20 -233.5t-57.5 -174.5t-94 -119.5t-126.5 -71.5t-159 -28
q-117 0 -200.5 16t-153.5 56.5t-112.5 111t-65.5 180.5t-23 263z" />
    <glyph glyph-name="uring" unicode="&#x16f;" horiz-adv-x="1081" 
d="M350 1412q0 84 51.5 134.5t138.5 55.5q126 0 179 -45t53 -145q0 -84 -49.5 -134t-136.5 -55q-127 0 -181.5 45t-54.5 144zM520 1411q0 -27 9 -36t32 -9q22 0 31.5 9t9.5 36q0 28 -10.5 37t-34.5 9q-18 0 -27.5 -9.5t-9.5 -36.5zM55 607q0 294 8 622q87 4 179 4
q71 0 211 -4q8 0 14 -6.5t6 -14.5q8 -386 8 -663q0 -89 9.5 -135t26 -60t46.5 -14t45.5 14t24 59.5t8.5 135.5q0 356 8 684q87 4 179 4q70 0 210 -4q8 0 14.5 -6.5t6.5 -14.5q8 -386 8 -601q0 -131 -20 -233.5t-57.5 -174.5t-94 -119.5t-126.5 -71.5t-159 -28
q-117 0 -200.5 16t-153.5 56.5t-112.5 111t-65.5 180.5t-23 263z" />
    <glyph glyph-name="Uhungarumlaut" unicode="&#x170;" horiz-adv-x="1081" 
d="M577 1291q0 4 7 16t17.5 28.5t12.5 19.5q69 112 157 232q36 2 123 2q64 0 142 -2q10 0 10 -8q0 -10 -64 -91q-54 -67 -195 -214q-60 0 -200 8q-10 0 -10 9zM208 1291q0 7 35 61q71 113 160 235q36 2 122 2q64 0 142 -2q11 0 11 -8q0 -5 -20.5 -33.5t-33.5 -44.5
q-58 -73 -206 -227q-59 0 -199 8q-11 0 -11 9zM55 607q0 294 8 622q87 4 179 4q71 0 211 -4q8 0 14 -6.5t6 -14.5q8 -386 8 -663q0 -89 9.5 -135t26 -60t46.5 -14t45.5 14t24 59.5t8.5 135.5q0 356 8 684q87 4 179 4q70 0 210 -4q8 0 14.5 -6.5t6.5 -14.5q8 -386 8 -601
q0 -131 -20 -233.5t-57.5 -174.5t-94 -119.5t-126.5 -71.5t-159 -28q-117 0 -200.5 16t-153.5 56.5t-112.5 111t-65.5 180.5t-23 263z" />
    <glyph glyph-name="uhungarumlaut" unicode="&#x171;" horiz-adv-x="1081" 
d="M577 1291q0 4 7 16t17.5 28.5t12.5 19.5q69 112 157 232q36 2 123 2q64 0 142 -2q10 0 10 -8q0 -10 -64 -91q-54 -67 -195 -214q-60 0 -200 8q-10 0 -10 9zM208 1291q0 7 35 61q71 113 160 235q36 2 122 2q64 0 142 -2q11 0 11 -8q0 -5 -20.5 -33.5t-33.5 -44.5
q-58 -73 -206 -227q-59 0 -199 8q-11 0 -11 9zM55 607q0 294 8 622q87 4 179 4q71 0 211 -4q8 0 14 -6.5t6 -14.5q8 -386 8 -663q0 -89 9.5 -135t26 -60t46.5 -14t45.5 14t24 59.5t8.5 135.5q0 356 8 684q87 4 179 4q70 0 210 -4q8 0 14.5 -6.5t6.5 -14.5q8 -386 8 -601
q0 -131 -20 -233.5t-57.5 -174.5t-94 -119.5t-126.5 -71.5t-159 -28q-117 0 -200.5 16t-153.5 56.5t-112.5 111t-65.5 180.5t-23 263z" />
    <glyph glyph-name="Uogonek" unicode="&#x172;" horiz-adv-x="1081" 
d="M55 607q0 294 8 622q87 4 179 4q71 0 211 -4q8 0 14 -6.5t6 -14.5q8 -386 8 -663q0 -89 9.5 -135t26 -60t46.5 -14t45.5 14t24 59.5t8.5 135.5q0 356 8 684q87 4 179 4q70 0 210 -4q8 0 14.5 -6.5t6.5 -14.5q8 -386 8 -601q0 -280 -88 -427t-260 -186q-64 -15 -64 -57
q0 -20 19.5 -35t53.5 -15q12 0 19 1l100 13l37 -287q-121 -23 -201 -23q-143 0 -236 67.5t-93 163.5q0 90 85 169q-79 12 -138 38t-107 72.5t-77.5 115t-45.5 165.5t-16 225z" />
    <glyph glyph-name="uogonek" unicode="&#x173;" horiz-adv-x="1081" 
d="M55 607q0 294 8 622q87 4 179 4q71 0 211 -4q8 0 14 -6.5t6 -14.5q8 -386 8 -663q0 -89 9.5 -135t26 -60t46.5 -14t45.5 14t24 59.5t8.5 135.5q0 356 8 684q87 4 179 4q70 0 210 -4q8 0 14.5 -6.5t6.5 -14.5q8 -386 8 -601q0 -280 -88 -427t-260 -186q-64 -15 -64 -57
q0 -20 19.5 -35t53.5 -15q12 0 19 1l100 13l37 -287q-121 -23 -201 -23q-143 0 -236 67.5t-93 163.5q0 90 85 169q-79 12 -138 38t-107 72.5t-77.5 115t-45.5 165.5t-16 225z" />
    <glyph glyph-name="Wcircumflex" unicode="&#x174;" horiz-adv-x="1396" 
d="M286 1271q56 108 190 293q13 17 31 18q144 7 290 7h43h52h47q66 -74 193 -242q41 -53 41 -61q0 -9 -10 -9q-90 -3 -165 -3q-92 0 -147 3q-53 73 -125 211q-59 -121 -101 -196q-5 -8 -14.5 -14.5t-17.5 -6.5q-94 -3 -166 -3q-89 0 -141 3zM12 1229q85 4 186 4
q131 0 201 -4q8 -1 15.5 -7t8.5 -14q40 -202 80 -515q85 343 130 472l96 4l94 -4q52 -145 130 -464q46 352 74 528q88 4 164 4q79 0 217 -4q17 0 17 -18q0 -1 -9 -64q-83 -563 -233 -1147q-132 -6 -300 -6q-21 73 -75.5 239.5t-79.5 257.5q-24 -83 -81.5 -248t-81.5 -249
q-77 0 -287 6q-19 0 -24 20q-167 653 -242 1209z" />
    <glyph glyph-name="wcircumflex" unicode="&#x175;" horiz-adv-x="1396" 
d="M286 1271q56 108 190 293q13 17 31 18q144 7 290 7h43h52h47q66 -74 193 -242q41 -53 41 -61q0 -9 -10 -9q-90 -3 -165 -3q-92 0 -147 3q-53 73 -125 211q-59 -121 -101 -196q-5 -8 -14.5 -14.5t-17.5 -6.5q-94 -3 -166 -3q-89 0 -141 3zM12 1229q85 4 186 4
q131 0 201 -4q8 -1 15.5 -7t8.5 -14q40 -202 80 -515q85 343 130 472l96 4l94 -4q52 -145 130 -464q46 352 74 528q88 4 164 4q79 0 217 -4q17 0 17 -18q0 -1 -9 -64q-83 -563 -233 -1147q-132 -6 -300 -6q-21 73 -75.5 239.5t-79.5 257.5q-24 -83 -81.5 -248t-81.5 -249
q-77 0 -287 6q-19 0 -24 20q-167 653 -242 1209z" />
    <glyph glyph-name="Ycircumflex" unicode="&#x176;" horiz-adv-x="1075" 
d="M116 1271q56 108 190 293q13 17 31 18q144 7 290 7h142q66 -74 193 -242q41 -53 41 -61q0 -9 -10 -9q-90 -3 -165 -3q-92 0 -147 3q-53 73 -125 211q-59 -121 -101 -196q-5 -8 -14.5 -14.5t-17.5 -6.5q-95 -3 -166 -3q-89 0 -141 3zM16 1221q103 12 215 12q74 0 164 -5
q26 -2 32 -21q54 -165 131 -446q77 281 131 446q6 19 31 21q90 5 165 5q111 0 214 -12q-79 -340 -171 -522q-65 -111 -165 -193q4 -339 5 -506q-108 -5 -183 -5q-39 0 -214 5q-8 0 -14.5 6t-6.5 14q0 237 3 486q-101 83 -166 193q-92 182 -171 522z" />
    <glyph glyph-name="ycircumflex" unicode="&#x177;" horiz-adv-x="1075" 
d="M116 1271q56 108 190 293q13 17 31 18q144 7 290 7h142q66 -74 193 -242q41 -53 41 -61q0 -9 -10 -9q-90 -3 -165 -3q-92 0 -147 3q-53 73 -125 211q-59 -121 -101 -196q-5 -8 -14.5 -14.5t-17.5 -6.5q-95 -3 -166 -3q-89 0 -141 3zM16 1221q103 12 215 12q74 0 164 -5
q26 -2 32 -21q54 -165 131 -446q77 281 131 446q6 19 31 21q90 5 165 5q111 0 214 -12q-79 -340 -171 -522q-65 -111 -165 -193q4 -339 5 -506q-108 -5 -183 -5q-39 0 -214 5q-8 0 -14.5 6t-6.5 14q0 237 3 486q-101 83 -166 193q-92 182 -171 522z" />
    <glyph glyph-name="Ydieresis" unicode="&#x178;" horiz-adv-x="1075" 
d="M625 1449q0 34 2 132q76 3 135 3q80 0 160 -3q8 0 14 -6t6 -14q2 -110 2 -148q0 -33 -2 -131q-37 -2 -104 -2q-63 0 -191 6q-20 2 -20 21q-2 108 -2 142zM170 1449q0 34 2 132q77 3 140 3q76 0 155 -3q8 0 14 -6t6 -14q2 -110 2 -148q0 -33 -2 -131q-37 -2 -103 -2
q-63 0 -191 6q-8 1 -14.5 7t-6.5 14q-2 108 -2 142zM16 1221q103 12 215 12q74 0 164 -5q26 -2 32 -21q54 -165 131 -446q77 281 131 446q6 19 31 21q90 5 165 5q111 0 214 -12q-79 -340 -171 -522q-65 -111 -165 -193q4 -339 5 -506q-108 -5 -183 -5q-39 0 -214 5
q-8 0 -14.5 6t-6.5 14q0 237 3 486q-101 83 -166 193q-92 182 -171 522z" />
    <glyph glyph-name="Zacute" unicode="&#x179;" horiz-adv-x="909" 
d="M301 1291q0 8 36 64q64 103 158 232q110 4 165 4q67 0 187 -4q11 0 11 -8q0 -11 -42 -61q-29 -37 -100 -117t-107 -127q-150 0 -298 8q-10 0 -10 9zM59 1073q0 46 2 156q87 4 446 4q217 0 357 -4q8 0 14.5 -6.5t6.5 -14.5v-204q-203 -397 -362 -655q183 0 345 -5
q8 0 14.5 -6t6.5 -14q2 -122 2 -177q0 -45 -2 -151q-108 -5 -351 -5q-141 0 -456 9q-8 0 -14.5 6t-6.5 14q-1 44 -1 126q0 75 1 116q47 94 100.5 187t143.5 240.5t114 188.5q-277 4 -337 7q-8 0 -14.5 6t-6.5 14q-2 118 -2 168z" />
    <glyph glyph-name="zacute" unicode="&#x17a;" horiz-adv-x="909" 
d="M301 1291q0 8 36 64q64 103 158 232q110 4 165 4q67 0 187 -4q11 0 11 -8q0 -11 -42 -61q-29 -37 -100 -117t-107 -127q-150 0 -298 8q-10 0 -10 9zM59 1073q0 46 2 156q87 4 446 4q217 0 357 -4q8 0 14.5 -6.5t6.5 -14.5v-204q-203 -397 -362 -655q183 0 345 -5
q8 0 14.5 -6t6.5 -14q2 -122 2 -177q0 -45 -2 -151q-108 -5 -351 -5q-141 0 -456 9q-8 0 -14.5 6t-6.5 14q-1 44 -1 126q0 75 1 116q47 94 100.5 187t143.5 240.5t114 188.5q-277 4 -337 7q-8 0 -14.5 6t-6.5 14q-2 118 -2 168z" />
    <glyph glyph-name="Zdotaccent" unicode="&#x17b;" horiz-adv-x="909" 
d="M314 1449q0 87 1 136q106 4 150 4q50 0 174 -4q8 0 14 -6t6 -14q2 -110 2 -152q0 -37 -2 -135q-60 -3 -113 -3q-79 0 -210 7q-8 1 -14.5 7t-6.5 14q-1 54 -1 146zM59 1073q0 46 2 156q87 4 446 4q217 0 357 -4q8 0 14.5 -6.5t6.5 -14.5v-204q-203 -397 -362 -655
q183 0 345 -5q8 0 14.5 -6t6.5 -14q2 -122 2 -177q0 -45 -2 -151q-108 -5 -351 -5q-141 0 -456 9q-8 0 -14.5 6t-6.5 14q-1 44 -1 126q0 75 1 116q47 94 100.5 187t143.5 240.5t114 188.5q-277 4 -337 7q-8 0 -14.5 6t-6.5 14q-2 118 -2 168z" />
    <glyph glyph-name="zdotaccent" unicode="&#x17c;" horiz-adv-x="909" 
d="M314 1449q0 87 1 136q106 4 150 4q50 0 174 -4q8 0 14 -6t6 -14q2 -110 2 -152q0 -37 -2 -135q-60 -3 -113 -3q-79 0 -210 7q-8 1 -14.5 7t-6.5 14q-1 54 -1 146zM59 1073q0 46 2 156q87 4 446 4q217 0 357 -4q8 0 14.5 -6.5t6.5 -14.5v-204q-203 -397 -362 -655
q183 0 345 -5q8 0 14.5 -6t6.5 -14q2 -122 2 -177q0 -45 -2 -151q-108 -5 -351 -5q-141 0 -456 9q-8 0 -14.5 6t-6.5 14q-1 44 -1 126q0 75 1 116q47 94 100.5 187t143.5 240.5t114 188.5q-277 4 -337 7q-8 0 -14.5 6t-6.5 14q-2 118 -2 168z" />
    <glyph glyph-name="Zcaron" unicode="&#x17d;" horiz-adv-x="909" 
d="M47 1580q52 3 140 3q73 0 167 -3q20 0 31 -21q13 -25 33.5 -62.5t37 -68t30.5 -57.5q66 129 126 211q55 3 147 3q74 0 164 -3q11 0 11 -9q0 -4 -12 -21.5t-32 -43t-21 -27.5q-94 -125 -170 -211h-179q-104 0 -254 9q-19 2 -32 18q-131 174 -187 283zM59 1073q0 46 2 156
q87 4 446 4q217 0 357 -4q8 0 14.5 -6.5t6.5 -14.5v-204q-203 -397 -362 -655q183 0 345 -5q8 0 14.5 -6t6.5 -14q2 -122 2 -177q0 -45 -2 -151q-108 -5 -351 -5q-141 0 -456 9q-8 0 -14.5 6t-6.5 14q-1 44 -1 126q0 75 1 116q47 94 100.5 187t143.5 240.5t114 188.5
q-277 4 -337 7q-8 0 -14.5 6t-6.5 14q-2 118 -2 168z" />
    <glyph glyph-name="zcaron" unicode="&#x17e;" horiz-adv-x="909" 
d="M47 1580q52 3 140 3q73 0 167 -3q20 0 31 -21q13 -25 33.5 -62.5t37 -68t30.5 -57.5q66 129 126 211q55 3 147 3q74 0 164 -3q11 0 11 -9q0 -4 -12 -21.5t-32 -43t-21 -27.5q-94 -125 -170 -211h-179q-104 0 -254 9q-19 2 -32 18q-131 174 -187 283zM59 1073q0 46 2 156
q87 4 446 4q217 0 357 -4q8 0 14.5 -6.5t6.5 -14.5v-204q-203 -397 -362 -655q183 0 345 -5q8 0 14.5 -6t6.5 -14q2 -122 2 -177q0 -45 -2 -151q-108 -5 -351 -5q-141 0 -456 9q-8 0 -14.5 6t-6.5 14q-1 44 -1 126q0 75 1 116q47 94 100.5 187t143.5 240.5t114 188.5
q-277 4 -337 7q-8 0 -14.5 6t-6.5 14q-2 118 -2 168z" />
    <glyph glyph-name="uni01CD" unicode="&#x1cd;" horiz-adv-x="1064" 
d="M112 1580q52 3 141 3q71 0 166 -3q8 0 17.5 -6.5t14.5 -14.5q13 -25 33.5 -62.5t37 -68t30.5 -57.5q69 134 125 211q55 3 147 3q75 0 165 -3q10 0 10 -9q0 -4 -12 -21.5t-32 -43t-21 -27.5q-99 -132 -169 -211h-180q-104 0 -254 9q-18 1 -31 18q-134 178 -188 283zM20 17
q0 2 2 13t4.5 27t3.5 24q21 131 51.5 291t53.5 275.5t61.5 302.5t57.5 279q91 4 281 4q164 0 293 -4q8 0 15 -6.5t9 -14.5q22 -114 76 -373t92 -458t65 -377q-107 -5 -178 -5q-113 0 -201 5q-21 2 -24 20q-26 136 -37 205h-190q-17 -114 -39 -225q-110 -5 -170 -5
q-36 0 -209 5q-17 0 -17 17zM490 492h114q-13 89 -35.5 255.5l-27.5 203.5q-11 -84 -27.5 -240t-23.5 -219z" />
    <glyph glyph-name="uni01CE" unicode="&#x1ce;" horiz-adv-x="1064" 
d="M112 1580q52 3 141 3q71 0 166 -3q8 0 17.5 -6.5t14.5 -14.5q13 -25 33.5 -62.5t37 -68t30.5 -57.5q69 134 125 211q55 3 147 3q75 0 165 -3q10 0 10 -9q0 -4 -12 -21.5t-32 -43t-21 -27.5q-99 -132 -169 -211h-180q-104 0 -254 9q-18 1 -31 18q-134 178 -188 283zM20 17
q0 2 2 13t4.5 27t3.5 24q21 131 51.5 291t53.5 275.5t61.5 302.5t57.5 279q91 4 281 4q164 0 293 -4q8 0 15 -6.5t9 -14.5q22 -114 76 -373t92 -458t65 -377q-107 -5 -178 -5q-113 0 -201 5q-21 2 -24 20q-26 136 -37 205h-190q-17 -114 -39 -225q-110 -5 -170 -5
q-36 0 -209 5q-17 0 -17 17zM490 492h114q-13 89 -35.5 255.5l-27.5 203.5q-11 -84 -27.5 -240t-23.5 -219z" />
    <glyph glyph-name="uni01CF" unicode="&#x1cf;" horiz-adv-x="573" 
d="M-144 1580q52 3 141 3q71 0 166 -3q8 0 17.5 -6.5t14.5 -14.5q13 -25 33.5 -62.5t37 -68t30.5 -57.5q69 134 125 211q55 3 147 3q75 0 165 -3q10 0 10 -9q0 -4 -12 -21.5t-32 -43t-21 -27.5q-99 -132 -169 -211h-180q-104 0 -254 9q-18 1 -31 18q-134 178 -188 283z
M94 614q0 287 8 615q87 4 179 4q71 0 211 -4q8 0 14 -6.5t6 -14.5q8 -386 8 -594q0 -286 -8 -614q-108 -5 -179 -5q-35 0 -210 5q-8 0 -14.5 6t-6.5 14q-8 386 -8 594z" />
    <glyph glyph-name="uni01D0" unicode="&#x1d0;" horiz-adv-x="573" 
d="M-144 1580q52 3 141 3q71 0 166 -3q8 0 17.5 -6.5t14.5 -14.5q13 -25 33.5 -62.5t37 -68t30.5 -57.5q69 134 125 211q55 3 147 3q75 0 165 -3q10 0 10 -9q0 -4 -12 -21.5t-32 -43t-21 -27.5q-99 -132 -169 -211h-180q-104 0 -254 9q-18 1 -31 18q-134 178 -188 283z
M94 614q0 287 8 615q87 4 179 4q71 0 211 -4q8 0 14 -6.5t6 -14.5q8 -386 8 -594q0 -286 -8 -614q-108 -5 -179 -5q-35 0 -210 5q-8 0 -14.5 6t-6.5 14q-8 386 -8 594z" />
    <glyph glyph-name="uni01D1" unicode="&#x1d1;" 
d="M141 1580q52 3 140 3q73 0 167 -3q20 0 31 -21q13 -25 48.5 -89t53.5 -99q69 134 125 211q55 3 147 3q74 0 164 -3q11 0 11 -9q0 -4 -12 -21.5t-32 -43t-21 -27.5q-94 -125 -170 -211h-179q-104 0 -254 9q-19 2 -32 18q-131 174 -187 283zM53 615q0 297 123 457t344 171
q150 0 255 -31.5t178 -105t107 -194t34 -297.5q0 -296 -125 -456t-346 -171q-150 0 -254 31.5t-176.5 104t-106 193.5t-33.5 298zM481 615q0 -89 6.5 -145t20.5 -82.5t29 -35t38 -8.5q31 0 48.5 15.5t30 77t12.5 178.5q0 88 -7 144t-21.5 82.5t-29.5 35t-39 8.5
q-31 0 -48 -15.5t-28.5 -76.5t-11.5 -178z" />
    <glyph glyph-name="uni01D2" unicode="&#x1d2;" 
d="M141 1580q52 3 140 3q73 0 167 -3q20 0 31 -21q13 -25 48.5 -89t53.5 -99q69 134 125 211q55 3 147 3q74 0 164 -3q11 0 11 -9q0 -4 -12 -21.5t-32 -43t-21 -27.5q-94 -125 -170 -211h-179q-104 0 -254 9q-19 2 -32 18q-131 174 -187 283zM53 615q0 297 123 457t344 171
q150 0 255 -31.5t178 -105t107 -194t34 -297.5q0 -296 -125 -456t-346 -171q-150 0 -254 31.5t-176.5 104t-106 193.5t-33.5 298zM481 615q0 -89 6.5 -145t20.5 -82.5t29 -35t38 -8.5q31 0 48.5 15.5t30 77t12.5 178.5q0 88 -7 144t-21.5 82.5t-29.5 35t-39 8.5
q-31 0 -48 -15.5t-28.5 -76.5t-11.5 -178z" />
    <glyph glyph-name="uni01D3" unicode="&#x1d3;" horiz-adv-x="1081" 
d="M120 1580q52 3 141 3q73 0 167 -3q20 0 31 -21q13 -25 33.5 -62.5t37 -68t30.5 -57.5q69 134 125 211q55 3 147 3q75 0 165 -3q10 0 10 -9q0 -3 -5 -11.5t-13.5 -20t-16.5 -22.5t-17 -22.5t-12 -15.5q-94 -125 -170 -211h-180q-104 0 -254 9q-18 1 -31 18
q-134 178 -188 283zM55 607q0 294 8 622q87 4 179 4q71 0 211 -4q8 0 14 -6.5t6 -14.5q8 -386 8 -663q0 -89 9.5 -135t26 -60t46.5 -14t45.5 14t24 59.5t8.5 135.5q0 356 8 684q87 4 179 4q70 0 210 -4q8 0 14.5 -6.5t6.5 -14.5q8 -386 8 -601q0 -131 -20 -233.5
t-57.5 -174.5t-94 -119.5t-126.5 -71.5t-159 -28q-117 0 -200.5 16t-153.5 56.5t-112.5 111t-65.5 180.5t-23 263z" />
    <glyph glyph-name="uni01D4" unicode="&#x1d4;" horiz-adv-x="1081" 
d="M120 1580q52 3 141 3q73 0 167 -3q20 0 31 -21q13 -25 33.5 -62.5t37 -68t30.5 -57.5q69 134 125 211q55 3 147 3q75 0 165 -3q10 0 10 -9q0 -3 -5 -11.5t-13.5 -20t-16.5 -22.5t-17 -22.5t-12 -15.5q-94 -125 -170 -211h-180q-104 0 -254 9q-18 1 -31 18
q-134 178 -188 283zM55 607q0 294 8 622q87 4 179 4q71 0 211 -4q8 0 14 -6.5t6 -14.5q8 -386 8 -663q0 -89 9.5 -135t26 -60t46.5 -14t45.5 14t24 59.5t8.5 135.5q0 356 8 684q87 4 179 4q70 0 210 -4q8 0 14.5 -6.5t6.5 -14.5q8 -386 8 -601q0 -131 -20 -233.5
t-57.5 -174.5t-94 -119.5t-126.5 -71.5t-159 -28q-117 0 -200.5 16t-153.5 56.5t-112.5 111t-65.5 180.5t-23 263z" />
    <glyph glyph-name="uni01E2" unicode="&#x1e2;" horiz-adv-x="1482" 
d="M545 1446q0 23 2 133q108 5 363 5q56 0 231 -5q8 0 14 -6t6 -14q1 -23 1 -135q0 -101 -1 -136q-90 -4 -281 -4q-33 0 -313 8q-8 0 -14 6.5t-6 14.5q-2 108 -2 133zM20 17q0 2 2 13t4.5 27t3.5 24q21 131 51.5 291t53.5 275.5t61.5 302.5t57.5 279q246 7 595 7
q329 0 589 -7q8 0 14 -6.5t6 -14.5q2 -124 2 -177q0 -44 -2 -150q-87 -4 -325 -4h-79q0 -17 -0.5 -52.5t-0.5 -54.5q206 -3 245 -4q8 0 14.5 -6.5t6.5 -14.5q2 -112 2 -153q0 -39 -2 -137h-266q0 -18 0.5 -54t0.5 -53h25q223 0 363 -4q8 0 14 -6t6 -14q2 -124 2 -177
q0 -45 -2 -151q-108 -5 -351 -5q-120 0 -435 9q-8 0 -14.5 6t-6.5 14q-6 277 -7 426h-164q-31 -262 -68 -446q-110 -5 -170 -5q-36 0 -209 5q-17 0 -17 17zM518 748h130q0 101 1 146q-20 0 -60 0.5t-56 1.5q-9 -59 -15 -148z" />
    <glyph glyph-name="uni01E3" unicode="&#x1e3;" horiz-adv-x="1482" 
d="M545 1446q0 23 2 133q108 5 363 5q56 0 231 -5q8 0 14 -6t6 -14q1 -23 1 -135q0 -101 -1 -136q-90 -4 -281 -4q-33 0 -313 8q-8 0 -14 6.5t-6 14.5q-2 108 -2 133zM20 17q0 2 2 13t4.5 27t3.5 24q21 131 51.5 291t53.5 275.5t61.5 302.5t57.5 279q246 7 595 7
q329 0 589 -7q8 0 14 -6.5t6 -14.5q2 -124 2 -177q0 -44 -2 -150q-87 -4 -325 -4h-79q0 -17 -0.5 -52.5t-0.5 -54.5q206 -3 245 -4q8 0 14.5 -6.5t6.5 -14.5q2 -112 2 -153q0 -39 -2 -137h-266q0 -18 0.5 -54t0.5 -53h25q223 0 363 -4q8 0 14 -6t6 -14q2 -124 2 -177
q0 -45 -2 -151q-108 -5 -351 -5q-120 0 -435 9q-8 0 -14.5 6t-6.5 14q-6 277 -7 426h-164q-31 -262 -68 -446q-110 -5 -170 -5q-36 0 -209 5q-17 0 -17 17zM518 748h130q0 101 1 146q-20 0 -60 0.5t-56 1.5q-9 -59 -15 -148z" />
    <glyph glyph-name="Gcaron" unicode="&#x1e6;" horiz-adv-x="1028" 
d="M161 1580q52 3 141 3q72 0 166 -3q8 0 17.5 -6.5t14.5 -14.5q13 -25 33.5 -62.5t37 -68t30.5 -57.5q69 134 125 211q55 3 147 3q75 0 165 -3q10 0 10 -9q0 -3 -5 -11.5t-13.5 -20t-16.5 -22.5t-17 -22.5t-12 -15.5q-94 -125 -170 -211h-180q-104 0 -254 9q-18 1 -31 18
q-134 178 -188 283zM53 615q0 142 26 250t72.5 179.5t117.5 116t155 63.5t192 19q149 0 367 -35l-43 -323h-365q-23 0 -38 -8.5t-29 -35t-20.5 -82.5t-6.5 -144t8 -144.5t24 -83t32 -35t41 -8.5h41q0 72 -9 311q75 4 162 4q50 0 178 -4q8 0 14.5 -6t6.5 -14q8 -190 8 -287
q0 -151 -8 -313q-88 -16 -129 -22t-104 -11.5t-134 -5.5q-91 0 -161.5 10.5t-136 36t-111.5 71t-81 113t-52 165t-17 223.5z" />
    <glyph glyph-name="gcaron" unicode="&#x1e7;" horiz-adv-x="1028" 
d="M161 1580q52 3 141 3q72 0 166 -3q8 0 17.5 -6.5t14.5 -14.5q13 -25 33.5 -62.5t37 -68t30.5 -57.5q69 134 125 211q55 3 147 3q75 0 165 -3q10 0 10 -9q0 -3 -5 -11.5t-13.5 -20t-16.5 -22.5t-17 -22.5t-12 -15.5q-94 -125 -170 -211h-180q-104 0 -254 9q-18 1 -31 18
q-134 178 -188 283zM53 615q0 142 26 250t72.5 179.5t117.5 116t155 63.5t192 19q149 0 367 -35l-43 -323h-365q-23 0 -38 -8.5t-29 -35t-20.5 -82.5t-6.5 -144t8 -144.5t24 -83t32 -35t41 -8.5h41q0 72 -9 311q75 4 162 4q50 0 178 -4q8 0 14.5 -6t6.5 -14q8 -190 8 -287
q0 -151 -8 -313q-88 -16 -129 -22t-104 -11.5t-134 -5.5q-91 0 -161.5 10.5t-136 36t-111.5 71t-81 113t-52 165t-17 223.5z" />
    <glyph glyph-name="uni01E8" unicode="&#x1e8;" horiz-adv-x="1091" 
d="M149 1580q52 3 141 3q71 0 166 -3q8 0 17.5 -6.5t14.5 -14.5q13 -25 33.5 -62.5t37 -68t30.5 -57.5q69 134 125 211q55 3 147 3q74 0 164 -3q11 0 11 -9q0 -4 -12 -21.5t-32 -43t-21 -27.5q-94 -125 -170 -211h-179q-104 0 -254 9q-18 1 -31 18q-134 178 -188 283z
M94 614q0 287 8 615q87 4 179 4q71 0 211 -4q8 0 14 -6.5t6 -14.5q1 -24 1 -72q0 -31 -8 -338q7 0 22 0.5t23 0.5q21 63 69.5 204t71.5 210q6 19 31 21q90 5 165 5q109 0 204 -11q-62 -267 -173 -486q-59 -102 -160 -108v-3q106 -6 166 -109q92 -182 171 -522
q-95 -11 -214 -11q-75 0 -165 5q-25 2 -31 20q-46 139 -142 487h-40q1 -28 5.5 -180t4.5 -233q0 -59 -1 -88q-108 -5 -179 -5q-35 0 -210 5q-8 0 -14.5 6t-6.5 14q-8 386 -8 594z" />
    <glyph glyph-name="uni01E9" unicode="&#x1e9;" horiz-adv-x="1091" 
d="M149 1580q52 3 141 3q71 0 166 -3q8 0 17.5 -6.5t14.5 -14.5q13 -25 33.5 -62.5t37 -68t30.5 -57.5q69 134 125 211q55 3 147 3q74 0 164 -3q11 0 11 -9q0 -4 -12 -21.5t-32 -43t-21 -27.5q-94 -125 -170 -211h-179q-104 0 -254 9q-18 1 -31 18q-134 178 -188 283z
M94 614q0 287 8 615q87 4 179 4q71 0 211 -4q8 0 14 -6.5t6 -14.5q1 -24 1 -72q0 -31 -8 -338q7 0 22 0.5t23 0.5q21 63 69.5 204t71.5 210q6 19 31 21q90 5 165 5q109 0 204 -11q-62 -267 -173 -486q-59 -102 -160 -108v-3q106 -6 166 -109q92 -182 171 -522
q-95 -11 -214 -11q-75 0 -165 5q-25 2 -31 20q-46 139 -142 487h-40q1 -28 5.5 -180t4.5 -233q0 -59 -1 -88q-108 -5 -179 -5q-35 0 -210 5q-8 0 -14.5 6t-6.5 14q-8 386 -8 594z" />
    <glyph glyph-name="uni01EA" unicode="&#x1ea;" 
d="M481 615q0 -89 6.5 -145t20.5 -82.5t29 -35t38 -8.5q31 0 48.5 15.5t30 77t12.5 178.5q0 88 -7 144t-21.5 82.5t-29.5 35t-39 8.5q-31 0 -48 -15.5t-28.5 -76.5t-11.5 -178zM53 615q0 297 123 457t344 171q150 0 255 -31.5t178 -105t107 -194t34 -297.5
q0 -252 -91.5 -406.5t-257.5 -201.5q-95 -28 -95 -73q0 -22 26 -36.5t65 -9.5l100 13l37 -287q-121 -23 -201 -23q-143 0 -236 67.5t-93 163.5q0 94 97 179q-204 36 -298 179t-94 435z" />
    <glyph glyph-name="uni01EB" unicode="&#x1eb;" 
d="M481 615q0 -89 6.5 -145t20.5 -82.5t29 -35t38 -8.5q31 0 48.5 15.5t30 77t12.5 178.5q0 88 -7 144t-21.5 82.5t-29.5 35t-39 8.5q-31 0 -48 -15.5t-28.5 -76.5t-11.5 -178zM53 615q0 297 123 457t344 171q150 0 255 -31.5t178 -105t107 -194t34 -297.5
q0 -252 -91.5 -406.5t-257.5 -201.5q-95 -28 -95 -73q0 -22 26 -36.5t65 -9.5l100 13l37 -287q-121 -23 -201 -23q-143 0 -236 67.5t-93 163.5q0 94 97 179q-204 36 -298 179t-94 435z" />
    <glyph glyph-name="uni01EC" unicode="&#x1ec;" 
d="M274 1446q0 23 2 133q108 5 364 5q55 0 230 -5q8 0 14.5 -6t6.5 -14q1 -23 1 -135q0 -101 -1 -136q-90 -4 -281 -4q-33 0 -313 8q-8 0 -14.5 6.5t-6.5 14.5q-2 108 -2 133zM481 615q0 -89 6.5 -145t20.5 -82.5t29 -35t38 -8.5q31 0 48.5 15.5t30 77t12.5 178.5
q0 88 -7 144t-21.5 82.5t-29.5 35t-39 8.5q-31 0 -48 -15.5t-28.5 -76.5t-11.5 -178zM53 615q0 297 123 457t344 171q150 0 255 -31.5t178 -105t107 -194t34 -297.5q0 -252 -91.5 -406.5t-257.5 -201.5q-95 -28 -95 -73q0 -22 26 -36.5t65 -9.5l100 13l37 -287
q-121 -23 -201 -23q-143 0 -236 67.5t-93 163.5q0 94 97 179q-204 36 -298 179t-94 435z" />
    <glyph glyph-name="uni01ED" unicode="&#x1ed;" 
d="M274 1446q0 23 2 133q108 5 364 5q55 0 230 -5q8 0 14.5 -6t6.5 -14q1 -23 1 -135q0 -101 -1 -136q-90 -4 -281 -4q-33 0 -313 8q-8 0 -14.5 6.5t-6.5 14.5q-2 108 -2 133zM481 615q0 -89 6.5 -145t20.5 -82.5t29 -35t38 -8.5q31 0 48.5 15.5t30 77t12.5 178.5
q0 88 -7 144t-21.5 82.5t-29.5 35t-39 8.5q-31 0 -48 -15.5t-28.5 -76.5t-11.5 -178zM53 615q0 297 123 457t344 171q150 0 255 -31.5t178 -105t107 -194t34 -297.5q0 -252 -91.5 -406.5t-257.5 -201.5q-95 -28 -95 -73q0 -22 26 -36.5t65 -9.5l100 13l37 -287
q-121 -23 -201 -23q-143 0 -236 67.5t-93 163.5q0 94 97 179q-204 36 -298 179t-94 435z" />
    <glyph glyph-name="uni01F8" unicode="&#x1f8;" horiz-adv-x="1126" 
d="M272 1587q104 4 150 4q52 0 178 -4q20 0 31 -20q155 -294 157 -297q-173 0 -330 8q-21 2 -31 20q-104 187 -155 289zM94 614q0 287 8 615q87 4 169 4q91 0 178 -4q14 0 22 -21l212 -524l-7 545q87 4 179 4q108 0 189 -4q8 0 14.5 -6.5t6.5 -14.5q8 -386 8 -594
q0 -286 -8 -614q-95 -5 -159 -5q-77 0 -187 5q-16 1 -23 20l-212 525l8 -545q-108 -5 -169 -5q-35 0 -200 5q-8 0 -14.5 6t-6.5 14q-8 386 -8 594z" />
    <glyph glyph-name="uni01F9" unicode="&#x1f9;" horiz-adv-x="1126" 
d="M272 1587q104 4 150 4q52 0 178 -4q20 0 31 -20q155 -294 157 -297q-173 0 -330 8q-21 2 -31 20q-104 187 -155 289zM94 614q0 287 8 615q87 4 169 4q91 0 178 -4q14 0 22 -21l212 -524l-7 545q87 4 179 4q108 0 189 -4q8 0 14.5 -6.5t6.5 -14.5q8 -386 8 -594
q0 -286 -8 -614q-95 -5 -159 -5q-77 0 -187 5q-16 1 -23 20l-212 525l8 -545q-108 -5 -169 -5q-35 0 -200 5q-8 0 -14.5 6t-6.5 14q-8 386 -8 594z" />
    <glyph glyph-name="AEacute" unicode="&#x1fc;" horiz-adv-x="1482" 
d="M665 1291q0 8 36 64q64 103 158 232q110 4 165 4q68 0 188 -4q10 0 10 -8q0 -13 -41 -61q-29 -37 -100.5 -117t-107.5 -127q-150 0 -298 8q-10 0 -10 9zM20 17q0 2 2 13t4.5 27t3.5 24q21 131 51.5 291t53.5 275.5t61.5 302.5t57.5 279q246 7 595 7q329 0 589 -7
q8 0 14 -6.5t6 -14.5q2 -124 2 -177q0 -44 -2 -150q-87 -4 -325 -4h-79q0 -17 -0.5 -52.5t-0.5 -54.5q206 -3 245 -4q8 0 14.5 -6.5t6.5 -14.5q2 -112 2 -153q0 -39 -2 -137h-266q0 -18 0.5 -54t0.5 -53h25q223 0 363 -4q8 0 14 -6t6 -14q2 -124 2 -177q0 -45 -2 -151
q-108 -5 -351 -5q-120 0 -435 9q-8 0 -14.5 6t-6.5 14q-6 277 -7 426h-164q-31 -262 -68 -446q-110 -5 -170 -5q-36 0 -209 5q-17 0 -17 17zM518 748h130q0 101 1 146q-20 0 -60 0.5t-56 1.5q-9 -59 -15 -148z" />
    <glyph glyph-name="aeacute" unicode="&#x1fd;" horiz-adv-x="1482" 
d="M665 1291q0 8 36 64q64 103 158 232q110 4 165 4q68 0 188 -4q10 0 10 -8q0 -13 -41 -61q-29 -37 -100.5 -117t-107.5 -127q-150 0 -298 8q-10 0 -10 9zM20 17q0 2 2 13t4.5 27t3.5 24q21 131 51.5 291t53.5 275.5t61.5 302.5t57.5 279q246 7 595 7q329 0 589 -7
q8 0 14 -6.5t6 -14.5q2 -124 2 -177q0 -44 -2 -150q-87 -4 -325 -4h-79q0 -17 -0.5 -52.5t-0.5 -54.5q206 -3 245 -4q8 0 14.5 -6.5t6.5 -14.5q2 -112 2 -153q0 -39 -2 -137h-266q0 -18 0.5 -54t0.5 -53h25q223 0 363 -4q8 0 14 -6t6 -14q2 -124 2 -177q0 -45 -2 -151
q-108 -5 -351 -5q-120 0 -435 9q-8 0 -14.5 6t-6.5 14q-6 277 -7 426h-164q-31 -262 -68 -446q-110 -5 -170 -5q-36 0 -209 5q-17 0 -17 17zM518 748h130q0 101 1 146q-20 0 -60 0.5t-56 1.5q-9 -59 -15 -148z" />
    <glyph glyph-name="Oslashacute" unicode="&#x1fe;" 
d="M395 1291q0 8 36 64q64 103 158 232q110 4 165 4q67 0 187 -4q11 0 11 -8q0 -11 -42 -61q-29 -37 -100 -117t-107 -127q-150 0 -298 8q-10 0 -10 9zM53 615q0 297 123 457t344 171q175 0 288 -43l89 180l111 -52l-97 -184q183 -138 183 -529q0 -296 -125 -456t-346 -171
q-173 0 -283 41l-90 -180l-111 52l97 184q-94 70 -138.5 198.5t-44.5 331.5zM481 615q0 -45 1 -64l61 115l91 184q-20 35 -65 35q-31 0 -48 -15.5t-28.5 -76.5t-11.5 -178zM513 377q19 -33 62 -33q31 0 48.5 15.5t30 77t12.5 178.5q0 43 -1 62l-33 -61z" />
    <glyph glyph-name="oslashacute" unicode="&#x1ff;" 
d="M395 1291q0 8 36 64q64 103 158 232q110 4 165 4q67 0 187 -4q11 0 11 -8q0 -11 -42 -61q-29 -37 -100 -117t-107 -127q-150 0 -298 8q-10 0 -10 9zM53 615q0 297 123 457t344 171q175 0 288 -43l89 180l111 -52l-97 -184q183 -138 183 -529q0 -296 -125 -456t-346 -171
q-173 0 -283 41l-90 -180l-111 52l97 184q-94 70 -138.5 198.5t-44.5 331.5zM481 615q0 -45 1 -64l61 115l91 184q-20 35 -65 35q-31 0 -48 -15.5t-28.5 -76.5t-11.5 -178zM513 377q19 -33 62 -33q31 0 48.5 15.5t30 77t12.5 178.5q0 43 -1 62l-33 -61z" />
    <glyph glyph-name="uni0200" unicode="&#x200;" horiz-adv-x="1064" 
d="M430 1587q69 4 122 4q22 0 144 -4q17 0 31 -20q134 -186 190 -297q-105 0 -207 4q-15 0 -35 20q-195 204 -245 293zM61 1587q69 4 122 4q22 0 144 -4q17 0 31 -20q134 -186 190 -297q-105 0 -207 4q-15 0 -35 20q-195 204 -245 293zM20 17q0 2 2 13t4.5 27t3.5 24
q21 131 51.5 291t53.5 275.5t61.5 302.5t57.5 279q91 4 281 4q164 0 293 -4q8 0 15 -6.5t9 -14.5q22 -114 76 -373t92 -458t65 -377q-107 -5 -178 -5q-113 0 -201 5q-21 2 -24 20q-26 136 -37 205h-190q-17 -114 -39 -225q-110 -5 -170 -5q-36 0 -209 5q-17 0 -17 17z
M490 492h114q-13 89 -35.5 255.5l-27.5 203.5q-11 -84 -27.5 -240t-23.5 -219z" />
    <glyph glyph-name="uni0201" unicode="&#x201;" horiz-adv-x="1064" 
d="M430 1587q69 4 122 4q22 0 144 -4q17 0 31 -20q134 -186 190 -297q-105 0 -207 4q-15 0 -35 20q-195 204 -245 293zM61 1587q69 4 122 4q22 0 144 -4q17 0 31 -20q134 -186 190 -297q-105 0 -207 4q-15 0 -35 20q-195 204 -245 293zM20 17q0 2 2 13t4.5 27t3.5 24
q21 131 51.5 291t53.5 275.5t61.5 302.5t57.5 279q91 4 281 4q164 0 293 -4q8 0 15 -6.5t9 -14.5q22 -114 76 -373t92 -458t65 -377q-107 -5 -178 -5q-113 0 -201 5q-21 2 -24 20q-26 136 -37 205h-190q-17 -114 -39 -225q-110 -5 -170 -5q-36 0 -209 5q-17 0 -17 17z
M490 492h114q-13 89 -35.5 255.5l-27.5 203.5q-11 -84 -27.5 -240t-23.5 -219z" />
    <glyph glyph-name="uni0202" unicode="&#x202;" horiz-adv-x="1064" 
d="M112 1271q26 106 96 180.5t158 108t187 33.5q154 0 279 -79.5t163 -215.5q6 -21 -6 -21q-169 -6 -312 0q-18 42 -50.5 65.5t-69.5 23.5q-72 0 -110 -74q-5 -8 -14.5 -14.5t-17.5 -6.5q-172 -6 -303 0zM20 17q0 2 2 13t4.5 27t3.5 24q21 131 51.5 291t53.5 275.5
t61.5 302.5t57.5 279q91 4 281 4q164 0 293 -4q8 0 15 -6.5t9 -14.5q22 -114 76 -373t92 -458t65 -377q-107 -5 -178 -5q-113 0 -201 5q-21 2 -24 20q-26 136 -37 205h-190q-17 -114 -39 -225q-110 -5 -170 -5q-36 0 -209 5q-17 0 -17 17zM490 492h114q-13 89 -35.5 255.5
l-27.5 203.5q-11 -84 -27.5 -240t-23.5 -219z" />
    <glyph glyph-name="uni0203" unicode="&#x203;" horiz-adv-x="1064" 
d="M112 1271q26 106 96 180.5t158 108t187 33.5q154 0 279 -79.5t163 -215.5q6 -21 -6 -21q-169 -6 -312 0q-18 42 -50.5 65.5t-69.5 23.5q-72 0 -110 -74q-5 -8 -14.5 -14.5t-17.5 -6.5q-172 -6 -303 0zM20 17q0 2 2 13t4.5 27t3.5 24q21 131 51.5 291t53.5 275.5
t61.5 302.5t57.5 279q91 4 281 4q164 0 293 -4q8 0 15 -6.5t9 -14.5q22 -114 76 -373t92 -458t65 -377q-107 -5 -178 -5q-113 0 -201 5q-21 2 -24 20q-26 136 -37 205h-190q-17 -114 -39 -225q-110 -5 -170 -5q-36 0 -209 5q-17 0 -17 17zM490 492h114q-13 89 -35.5 255.5
l-27.5 203.5q-11 -84 -27.5 -240t-23.5 -219z" />
    <glyph glyph-name="uni0204" unicode="&#x204;" horiz-adv-x="929" 
d="M374 1587q69 4 123 4q22 0 144 -4q17 0 31 -20q134 -186 190 -297q-105 0 -207 4q-16 0 -36 20q-195 204 -245 293zM6 1587q69 4 122 4q22 0 144 -4q17 0 31 -20q134 -186 190 -297q-105 0 -207 4q-15 0 -35 20q-195 204 -245 293zM94 614q0 287 8 615q87 4 425 4
q218 0 358 -4q8 0 14 -6.5t6 -14.5q2 -124 2 -177q0 -44 -2 -150q-87 -4 -325 -4h-78q0 -17 -1 -52.5t-1 -54.5q206 -3 245 -4q8 0 14.5 -6.5t6.5 -14.5q2 -112 2 -153q0 -39 -2 -137h-266q0 -18 1 -54t1 -53h24q223 0 363 -4q8 0 14 -6t6 -14q2 -124 2 -177q0 -45 -2 -151
q-108 -5 -351 -5q-120 0 -435 9q-8 0 -14.5 6t-6.5 14q-8 386 -8 594z" />
    <glyph glyph-name="uni0205" unicode="&#x205;" horiz-adv-x="929" 
d="M374 1587q69 4 123 4q22 0 144 -4q17 0 31 -20q134 -186 190 -297q-105 0 -207 4q-16 0 -36 20q-195 204 -245 293zM6 1587q69 4 122 4q22 0 144 -4q17 0 31 -20q134 -186 190 -297q-105 0 -207 4q-15 0 -35 20q-195 204 -245 293zM94 614q0 287 8 615q87 4 425 4
q218 0 358 -4q8 0 14 -6.5t6 -14.5q2 -124 2 -177q0 -44 -2 -150q-87 -4 -325 -4h-78q0 -17 -1 -52.5t-1 -54.5q206 -3 245 -4q8 0 14.5 -6.5t6.5 -14.5q2 -112 2 -153q0 -39 -2 -137h-266q0 -18 1 -54t1 -53h24q223 0 363 -4q8 0 14 -6t6 -14q2 -124 2 -177q0 -45 -2 -151
q-108 -5 -351 -5q-120 0 -435 9q-8 0 -14.5 6t-6.5 14q-8 386 -8 594z" />
    <glyph glyph-name="uni0206" unicode="&#x206;" horiz-adv-x="929" 
d="M57 1271q26 106 96 180.5t158 108t187 33.5q154 0 278.5 -79.5t162.5 -215.5q6 -21 -6 -21q-168 -6 -311 0q-18 42 -50.5 65.5t-69.5 23.5q-73 0 -111 -74q-11 -21 -31 -21q-172 -6 -303 0zM94 614q0 287 8 615q87 4 425 4q218 0 358 -4q8 0 14 -6.5t6 -14.5
q2 -124 2 -177q0 -44 -2 -150q-87 -4 -325 -4h-78q0 -17 -1 -52.5t-1 -54.5q206 -3 245 -4q8 0 14.5 -6.5t6.5 -14.5q2 -112 2 -153q0 -39 -2 -137h-266q0 -18 1 -54t1 -53h24q223 0 363 -4q8 0 14 -6t6 -14q2 -124 2 -177q0 -45 -2 -151q-108 -5 -351 -5q-120 0 -435 9
q-8 0 -14.5 6t-6.5 14q-8 386 -8 594z" />
    <glyph glyph-name="uni0207" unicode="&#x207;" horiz-adv-x="929" 
d="M57 1271q26 106 96 180.5t158 108t187 33.5q154 0 278.5 -79.5t162.5 -215.5q6 -21 -6 -21q-168 -6 -311 0q-18 42 -50.5 65.5t-69.5 23.5q-73 0 -111 -74q-11 -21 -31 -21q-172 -6 -303 0zM94 614q0 287 8 615q87 4 425 4q218 0 358 -4q8 0 14 -6.5t6 -14.5
q2 -124 2 -177q0 -44 -2 -150q-87 -4 -325 -4h-78q0 -17 -1 -52.5t-1 -54.5q206 -3 245 -4q8 0 14.5 -6.5t6.5 -14.5q2 -112 2 -153q0 -39 -2 -137h-266q0 -18 1 -54t1 -53h24q223 0 363 -4q8 0 14 -6t6 -14q2 -124 2 -177q0 -45 -2 -151q-108 -5 -351 -5q-120 0 -435 9
q-8 0 -14.5 6t-6.5 14q-8 386 -8 594z" />
    <glyph glyph-name="uni0208" unicode="&#x208;" horiz-adv-x="573" 
d="M174 1587q69 4 122 4q22 0 144 -4q17 0 31 -20q134 -186 190 -297q-105 0 -207 4q-15 0 -35 20q-195 204 -245 293zM-195 1587q69 4 122 4q22 0 144 -4q17 0 31 -20q134 -186 190 -297q-105 0 -207 4q-15 0 -35 20q-195 204 -245 293zM94 614q0 287 8 615q87 4 179 4
q71 0 211 -4q8 0 14 -6.5t6 -14.5q8 -386 8 -594q0 -286 -8 -614q-108 -5 -179 -5q-35 0 -210 5q-8 0 -14.5 6t-6.5 14q-8 386 -8 594z" />
    <glyph glyph-name="uni0209" unicode="&#x209;" horiz-adv-x="573" 
d="M174 1587q69 4 122 4q22 0 144 -4q17 0 31 -20q134 -186 190 -297q-105 0 -207 4q-15 0 -35 20q-195 204 -245 293zM-195 1587q69 4 122 4q22 0 144 -4q17 0 31 -20q134 -186 190 -297q-105 0 -207 4q-15 0 -35 20q-195 204 -245 293zM94 614q0 287 8 615q87 4 179 4
q71 0 211 -4q8 0 14 -6.5t6 -14.5q8 -386 8 -594q0 -286 -8 -614q-108 -5 -179 -5q-35 0 -210 5q-8 0 -14.5 6t-6.5 14q-8 386 -8 594z" />
    <glyph glyph-name="uni020A" unicode="&#x20a;" horiz-adv-x="573" 
d="M-144 1271q26 106 96 180.5t158 108t187 33.5q154 0 279 -79.5t163 -215.5q6 -21 -6 -21q-169 -6 -312 0q-18 42 -50.5 65.5t-69.5 23.5q-72 0 -110 -74q-5 -8 -14.5 -14.5t-17.5 -6.5q-172 -6 -303 0zM94 614q0 287 8 615q87 4 179 4q71 0 211 -4q8 0 14 -6.5t6 -14.5
q8 -386 8 -594q0 -286 -8 -614q-108 -5 -179 -5q-35 0 -210 5q-8 0 -14.5 6t-6.5 14q-8 386 -8 594z" />
    <glyph glyph-name="uni020B" unicode="&#x20b;" horiz-adv-x="573" 
d="M-144 1271q26 106 96 180.5t158 108t187 33.5q154 0 279 -79.5t163 -215.5q6 -21 -6 -21q-169 -6 -312 0q-18 42 -50.5 65.5t-69.5 23.5q-72 0 -110 -74q-5 -8 -14.5 -14.5t-17.5 -6.5q-172 -6 -303 0zM94 614q0 287 8 615q87 4 179 4q71 0 211 -4q8 0 14 -6.5t6 -14.5
q8 -386 8 -594q0 -286 -8 -614q-108 -5 -179 -5q-35 0 -210 5q-8 0 -14.5 6t-6.5 14q-8 386 -8 594z" />
    <glyph glyph-name="uni020C" unicode="&#x20c;" 
d="M458 1587q69 4 123 4q21 0 143 -4q18 0 32 -20q134 -186 190 -297q-105 0 -207 4q-16 0 -36 20q-195 204 -245 293zM90 1587q69 4 122 4q22 0 144 -4q17 0 31 -20q134 -186 190 -297q-105 0 -207 4q-15 0 -35 20q-195 204 -245 293zM53 615q0 297 123 457t344 171
q150 0 255 -31.5t178 -105t107 -194t34 -297.5q0 -296 -125 -456t-346 -171q-150 0 -254 31.5t-176.5 104t-106 193.5t-33.5 298zM481 615q0 -89 6.5 -145t20.5 -82.5t29 -35t38 -8.5q31 0 48.5 15.5t30 77t12.5 178.5q0 88 -7 144t-21.5 82.5t-29.5 35t-39 8.5
q-31 0 -48 -15.5t-28.5 -76.5t-11.5 -178z" />
    <glyph glyph-name="uni020D" unicode="&#x20d;" 
d="M458 1587q69 4 123 4q21 0 143 -4q18 0 32 -20q134 -186 190 -297q-105 0 -207 4q-16 0 -36 20q-195 204 -245 293zM90 1587q69 4 122 4q22 0 144 -4q17 0 31 -20q134 -186 190 -297q-105 0 -207 4q-15 0 -35 20q-195 204 -245 293zM53 615q0 297 123 457t344 171
q150 0 255 -31.5t178 -105t107 -194t34 -297.5q0 -296 -125 -456t-346 -171q-150 0 -254 31.5t-176.5 104t-106 193.5t-33.5 298zM481 615q0 -89 6.5 -145t20.5 -82.5t29 -35t38 -8.5q31 0 48.5 15.5t30 77t12.5 178.5q0 88 -7 144t-21.5 82.5t-29.5 35t-39 8.5
q-31 0 -48 -15.5t-28.5 -76.5t-11.5 -178z" />
    <glyph glyph-name="uni020E" unicode="&#x20e;" 
d="M141 1271q26 106 96 180.5t158 108t187 33.5q154 0 278.5 -79.5t162.5 -215.5q6 -21 -6 -21q-168 -6 -311 0q-17 42 -50.5 65.5t-70.5 23.5q-72 0 -110 -74q-11 -21 -31 -21q-172 -6 -303 0zM53 615q0 297 123 457t344 171q150 0 255 -31.5t178 -105t107 -194t34 -297.5
q0 -296 -125 -456t-346 -171q-150 0 -254 31.5t-176.5 104t-106 193.5t-33.5 298zM481 615q0 -89 6.5 -145t20.5 -82.5t29 -35t38 -8.5q31 0 48.5 15.5t30 77t12.5 178.5q0 88 -7 144t-21.5 82.5t-29.5 35t-39 8.5q-31 0 -48 -15.5t-28.5 -76.5t-11.5 -178z" />
    <glyph glyph-name="uni020F" unicode="&#x20f;" 
d="M141 1271q26 106 96 180.5t158 108t187 33.5q154 0 278.5 -79.5t162.5 -215.5q6 -21 -6 -21q-168 -6 -311 0q-17 42 -50.5 65.5t-70.5 23.5q-72 0 -110 -74q-11 -21 -31 -21q-172 -6 -303 0zM53 615q0 297 123 457t344 171q150 0 255 -31.5t178 -105t107 -194t34 -297.5
q0 -296 -125 -456t-346 -171q-150 0 -254 31.5t-176.5 104t-106 193.5t-33.5 298zM481 615q0 -89 6.5 -145t20.5 -82.5t29 -35t38 -8.5q31 0 48.5 15.5t30 77t12.5 178.5q0 88 -7 144t-21.5 82.5t-29.5 35t-39 8.5q-31 0 -48 -15.5t-28.5 -76.5t-11.5 -178z" />
    <glyph glyph-name="uni0210" unicode="&#x210;" horiz-adv-x="1077" 
d="M413 1587q69 4 123 4q21 0 143 -4q18 0 32 -20q134 -186 190 -297q-105 0 -207 4q-16 0 -36 20q-195 204 -245 293zM45 1587q69 4 122 4q22 0 144 -4q17 0 31 -20q134 -186 190 -297q-105 0 -207 4q-15 0 -35 20q-195 204 -245 293zM98 641q0 103 2 284t2 283
q228 35 420 35q75 0 125.5 -2t109 -10.5t96.5 -23t76 -41t59.5 -64t34.5 -91.5t13 -124q0 -111 -57 -195.5t-160 -132.5q70 -24 114 -98q101 -200 162 -461q-95 -11 -214 -11q-75 0 -165 5q-25 2 -31 20q-95 290 -155 490h-27q1 -73 4.5 -245t4.5 -259q-80 -4 -180 -4
q-69 0 -209 4q-9 0 -15 6t-6 14q0 95 -2 306t-2 315zM502 756h35q49 0 78.5 24t29.5 64q0 50 -20.5 74.5t-72.5 24.5q-19 0 -49 -2q0 -29 -0.5 -90t-0.5 -95z" />
    <glyph glyph-name="uni0211" unicode="&#x211;" horiz-adv-x="1077" 
d="M413 1587q69 4 123 4q21 0 143 -4q18 0 32 -20q134 -186 190 -297q-105 0 -207 4q-16 0 -36 20q-195 204 -245 293zM45 1587q69 4 122 4q22 0 144 -4q17 0 31 -20q134 -186 190 -297q-105 0 -207 4q-15 0 -35 20q-195 204 -245 293zM98 641q0 103 2 284t2 283
q228 35 420 35q75 0 125.5 -2t109 -10.5t96.5 -23t76 -41t59.5 -64t34.5 -91.5t13 -124q0 -111 -57 -195.5t-160 -132.5q70 -24 114 -98q101 -200 162 -461q-95 -11 -214 -11q-75 0 -165 5q-25 2 -31 20q-95 290 -155 490h-27q1 -73 4.5 -245t4.5 -259q-80 -4 -180 -4
q-69 0 -209 4q-9 0 -15 6t-6 14q0 95 -2 306t-2 315zM502 756h35q49 0 78.5 24t29.5 64q0 50 -20.5 74.5t-72.5 24.5q-19 0 -49 -2q0 -29 -0.5 -90t-0.5 -95z" />
    <glyph glyph-name="uni0212" unicode="&#x212;" horiz-adv-x="1077" 
d="M96 1271q26 106 96 180.5t158 108t187 33.5q154 0 278.5 -79.5t162.5 -215.5q6 -21 -6 -21q-168 -6 -311 0q-17 42 -50.5 65.5t-70.5 23.5q-72 0 -110 -74q-11 -21 -31 -21q-172 -6 -303 0zM98 641q0 103 2 284t2 283q228 35 420 35q75 0 125.5 -2t109 -10.5t96.5 -23
t76 -41t59.5 -64t34.5 -91.5t13 -124q0 -111 -57 -195.5t-160 -132.5q70 -24 114 -98q101 -200 162 -461q-95 -11 -214 -11q-75 0 -165 5q-25 2 -31 20q-95 290 -155 490h-27q1 -73 4.5 -245t4.5 -259q-80 -4 -180 -4q-69 0 -209 4q-9 0 -15 6t-6 14q0 95 -2 306t-2 315z
M502 756h35q49 0 78.5 24t29.5 64q0 50 -20.5 74.5t-72.5 24.5q-19 0 -49 -2q0 -29 -0.5 -90t-0.5 -95z" />
    <glyph glyph-name="uni0213" unicode="&#x213;" horiz-adv-x="1077" 
d="M96 1271q26 106 96 180.5t158 108t187 33.5q154 0 278.5 -79.5t162.5 -215.5q6 -21 -6 -21q-168 -6 -311 0q-17 42 -50.5 65.5t-70.5 23.5q-72 0 -110 -74q-11 -21 -31 -21q-172 -6 -303 0zM98 641q0 103 2 284t2 283q228 35 420 35q75 0 125.5 -2t109 -10.5t96.5 -23
t76 -41t59.5 -64t34.5 -91.5t13 -124q0 -111 -57 -195.5t-160 -132.5q70 -24 114 -98q101 -200 162 -461q-95 -11 -214 -11q-75 0 -165 5q-25 2 -31 20q-95 290 -155 490h-27q1 -73 4.5 -245t4.5 -259q-80 -4 -180 -4q-69 0 -209 4q-9 0 -15 6t-6 14q0 95 -2 306t-2 315z
M502 756h35q49 0 78.5 24t29.5 64q0 50 -20.5 74.5t-72.5 24.5q-19 0 -49 -2q0 -29 -0.5 -90t-0.5 -95z" />
    <glyph glyph-name="uni0214" unicode="&#x214;" horiz-adv-x="1081" 
d="M438 1587q69 4 122 4q22 0 144 -4q17 0 31 -20q134 -186 190 -297q-105 0 -207 4q-15 0 -35 20q-195 204 -245 293zM69 1587q69 4 123 4q21 0 143 -4q18 0 32 -20q134 -186 190 -297q-105 0 -207 4q-16 0 -36 20q-195 204 -245 293zM55 607q0 294 8 622q87 4 179 4
q71 0 211 -4q8 0 14 -6.5t6 -14.5q8 -386 8 -663q0 -89 9.5 -135t26 -60t46.5 -14t45.5 14t24 59.5t8.5 135.5q0 356 8 684q87 4 179 4q70 0 210 -4q8 0 14.5 -6.5t6.5 -14.5q8 -386 8 -601q0 -131 -20 -233.5t-57.5 -174.5t-94 -119.5t-126.5 -71.5t-159 -28
q-117 0 -200.5 16t-153.5 56.5t-112.5 111t-65.5 180.5t-23 263z" />
    <glyph glyph-name="uni0215" unicode="&#x215;" horiz-adv-x="1081" 
d="M438 1587q69 4 122 4q22 0 144 -4q17 0 31 -20q134 -186 190 -297q-105 0 -207 4q-15 0 -35 20q-195 204 -245 293zM69 1587q69 4 123 4q21 0 143 -4q18 0 32 -20q134 -186 190 -297q-105 0 -207 4q-16 0 -36 20q-195 204 -245 293zM55 607q0 294 8 622q87 4 179 4
q71 0 211 -4q8 0 14 -6.5t6 -14.5q8 -386 8 -663q0 -89 9.5 -135t26 -60t46.5 -14t45.5 14t24 59.5t8.5 135.5q0 356 8 684q87 4 179 4q70 0 210 -4q8 0 14.5 -6.5t6.5 -14.5q8 -386 8 -601q0 -131 -20 -233.5t-57.5 -174.5t-94 -119.5t-126.5 -71.5t-159 -28
q-117 0 -200.5 16t-153.5 56.5t-112.5 111t-65.5 180.5t-23 263z" />
    <glyph glyph-name="uni0216" unicode="&#x216;" horiz-adv-x="1081" 
d="M120 1271q26 106 96 180.5t158.5 108t187.5 33.5q154 0 278.5 -79.5t162.5 -215.5q6 -21 -6 -21q-169 -6 -312 0q-18 42 -50.5 65.5t-69.5 23.5q-72 0 -110 -74q-5 -8 -14.5 -14.5t-17.5 -6.5q-172 -6 -303 0zM55 607q0 294 8 622q87 4 179 4q71 0 211 -4q8 0 14 -6.5
t6 -14.5q8 -386 8 -663q0 -89 9.5 -135t26 -60t46.5 -14t45.5 14t24 59.5t8.5 135.5q0 356 8 684q87 4 179 4q70 0 210 -4q8 0 14.5 -6.5t6.5 -14.5q8 -386 8 -601q0 -131 -20 -233.5t-57.5 -174.5t-94 -119.5t-126.5 -71.5t-159 -28q-117 0 -200.5 16t-153.5 56.5
t-112.5 111t-65.5 180.5t-23 263z" />
    <glyph glyph-name="uni0217" unicode="&#x217;" horiz-adv-x="1081" 
d="M120 1271q26 106 96 180.5t158.5 108t187.5 33.5q154 0 278.5 -79.5t162.5 -215.5q6 -21 -6 -21q-169 -6 -312 0q-18 42 -50.5 65.5t-69.5 23.5q-72 0 -110 -74q-5 -8 -14.5 -14.5t-17.5 -6.5q-172 -6 -303 0zM55 607q0 294 8 622q87 4 179 4q71 0 211 -4q8 0 14 -6.5
t6 -14.5q8 -386 8 -663q0 -89 9.5 -135t26 -60t46.5 -14t45.5 14t24 59.5t8.5 135.5q0 356 8 684q87 4 179 4q70 0 210 -4q8 0 14.5 -6.5t6.5 -14.5q8 -386 8 -601q0 -131 -20 -233.5t-57.5 -174.5t-94 -119.5t-126.5 -71.5t-159 -28q-117 0 -200.5 16t-153.5 56.5
t-112.5 111t-65.5 180.5t-23 263z" />
    <glyph glyph-name="Scommaaccent" unicode="&#x218;" horiz-adv-x="1007" 
d="M345 -41q126 5 295 0q8 0 13.5 -4.5t5.5 -10.5q0 -25 0.5 -66t0.5 -64q-6 -43 -36.5 -117t-46.5 -103q-89 -3 -152 -3q10 83 15 167q-24 0 -76 2q-19 0 -19 14q-3 92 0 185zM70 12l50 371q229 -72 363 -72q53 0 81 22.5t28 50.5q0 10 -4 18.5t-14.5 16t-20 12.5
t-28.5 11.5t-32 10.5t-38 11q-36 10 -54.5 15.5t-55.5 19t-58.5 25t-54 31.5t-52 40.5t-42.5 51.5t-36 65t-21.5 79t-8.5 96q0 70 13 124t33.5 91.5t56.5 64t72.5 41t91.5 23t102 10.5t116 2q167 0 395 -45l-46 -340q-78 35 -178.5 59t-190.5 24q-48 0 -75.5 -15t-27.5 -43
q0 -13 9.5 -23.5t34.5 -21t43 -16t60 -18.5q50 -15 77.5 -24t79 -30t82 -40t70 -52t61.5 -69t37.5 -87t15.5 -110q0 -95 -26.5 -166.5t-70.5 -116t-110 -71.5t-136.5 -37.5t-158.5 -10.5q-222 0 -432 22z" />
    <glyph glyph-name="scommaaccent" unicode="&#x219;" horiz-adv-x="1007" 
d="M345 -41q126 5 295 0q8 0 13.5 -4.5t5.5 -10.5q0 -25 0.5 -66t0.5 -64q-6 -43 -36.5 -117t-46.5 -103q-89 -3 -152 -3q10 83 15 167q-24 0 -76 2q-19 0 -19 14q-3 92 0 185zM70 12l50 371q229 -72 363 -72q53 0 81 22.5t28 50.5q0 10 -4 18.5t-14.5 16t-20 12.5
t-28.5 11.5t-32 10.5t-38 11q-36 10 -54.5 15.5t-55.5 19t-58.5 25t-54 31.5t-52 40.5t-42.5 51.5t-36 65t-21.5 79t-8.5 96q0 70 13 124t33.5 91.5t56.5 64t72.5 41t91.5 23t102 10.5t116 2q167 0 395 -45l-46 -340q-78 35 -178.5 59t-190.5 24q-48 0 -75.5 -15t-27.5 -43
q0 -13 9.5 -23.5t34.5 -21t43 -16t60 -18.5q50 -15 77.5 -24t79 -30t82 -40t70 -52t61.5 -69t37.5 -87t15.5 -110q0 -95 -26.5 -166.5t-70.5 -116t-110 -71.5t-136.5 -37.5t-158.5 -10.5q-222 0 -432 22z" />
    <glyph glyph-name="uni021A" unicode="&#x21a;" horiz-adv-x="942" 
d="M338 -42q126 5 295 0q8 0 13.5 -4.5t5.5 -10.5q0 -25 0.5 -65.5t0.5 -63.5q-6 -43 -36.5 -117.5t-46.5 -103.5q-59 -2 -152 -2q10 83 15 167q-50 0 -76 1q-8 0 -13.5 4.5t-5.5 10.5q-2 92 0 184zM31 1073q0 46 2 156q87 4 474 4q283 0 423 -4q8 0 14 -6.5t6 -14.5
q2 -116 2 -174q0 -47 -2 -153q-34 -2 -248 -4q3 -249 3 -263q0 -245 -9 -614q-108 -5 -179 -5q-35 0 -210 5q-8 0 -14 6t-6 14q-8 386 -8 594q0 180 1 265q-24 1 -227 6q-8 0 -14 6t-6 14q-2 118 -2 168z" />
    <glyph glyph-name="uni021B" unicode="&#x21b;" horiz-adv-x="942" 
d="M338 -42q126 5 295 0q8 0 13.5 -4.5t5.5 -10.5q0 -25 0.5 -65.5t0.5 -63.5q-6 -43 -36.5 -117.5t-46.5 -103.5q-59 -2 -152 -2q10 83 15 167q-50 0 -76 1q-8 0 -13.5 4.5t-5.5 10.5q-2 92 0 184zM31 1073q0 46 2 156q87 4 474 4q283 0 423 -4q8 0 14 -6.5t6 -14.5
q2 -116 2 -174q0 -47 -2 -153q-34 -2 -248 -4q3 -249 3 -263q0 -245 -9 -614q-108 -5 -179 -5q-35 0 -210 5q-8 0 -14 6t-6 14q-8 386 -8 594q0 180 1 265q-24 1 -227 6q-8 0 -14 6t-6 14q-2 118 -2 168z" />
    <glyph glyph-name="uni021E" unicode="&#x21e;" horiz-adv-x="1126" 
d="M141 1580q52 3 140 3q73 0 167 -3q20 0 31 -21q13 -25 48.5 -89t53.5 -99q69 134 125 211q55 3 147 3q74 0 164 -3q11 0 11 -9q0 -4 -12 -21.5t-32 -43t-21 -27.5q-94 -125 -170 -211h-179q-104 0 -254 9q-19 2 -32 18q-131 174 -187 283zM94 614q0 287 8 615q87 4 179 4
q71 0 211 -4q8 0 14 -6.5t6 -14.5q4 -188 4 -430h135q0 301 4 451q87 4 179 4q70 0 210 -4q8 0 14.5 -6.5t6.5 -14.5q8 -386 8 -594q0 -286 -8 -614q-108 -5 -179 -5q-35 0 -210 5q-8 0 -14.5 6t-6.5 14q-4 179 -4 410h-135q0 -287 -4 -430q-108 -5 -179 -5q-35 0 -210 5
q-8 0 -14.5 6t-6.5 14q-8 386 -8 594z" />
    <glyph glyph-name="uni021F" unicode="&#x21f;" horiz-adv-x="1126" 
d="M141 1580q52 3 140 3q73 0 167 -3q20 0 31 -21q13 -25 48.5 -89t53.5 -99q69 134 125 211q55 3 147 3q74 0 164 -3q11 0 11 -9q0 -4 -12 -21.5t-32 -43t-21 -27.5q-94 -125 -170 -211h-179q-104 0 -254 9q-19 2 -32 18q-131 174 -187 283zM94 614q0 287 8 615q87 4 179 4
q71 0 211 -4q8 0 14 -6.5t6 -14.5q4 -188 4 -430h135q0 301 4 451q87 4 179 4q70 0 210 -4q8 0 14.5 -6.5t6.5 -14.5q8 -386 8 -594q0 -286 -8 -614q-108 -5 -179 -5q-35 0 -210 5q-8 0 -14.5 6t-6.5 14q-4 179 -4 410h-135q0 -287 -4 -430q-108 -5 -179 -5q-35 0 -210 5
q-8 0 -14.5 6t-6.5 14q-8 386 -8 594z" />
    <glyph glyph-name="uni0226" unicode="&#x226;" horiz-adv-x="1064" 
d="M379 1449q0 38 2 136q106 4 150 4q50 0 174 -4q8 0 14 -6t6 -14q2 -110 2 -152q0 -37 -2 -135q-60 -3 -114 -3q-79 0 -210 7q-20 2 -20 21q-2 108 -2 146zM20 17q0 2 2 13t4.5 27t3.5 24q21 131 51.5 291t53.5 275.5t61.5 302.5t57.5 279q91 4 281 4q164 0 293 -4
q8 0 15 -6.5t9 -14.5q22 -114 76 -373t92 -458t65 -377q-107 -5 -178 -5q-113 0 -201 5q-21 2 -24 20q-26 136 -37 205h-190q-17 -114 -39 -225q-110 -5 -170 -5q-36 0 -209 5q-17 0 -17 17zM490 492h114q-13 89 -35.5 255.5l-27.5 203.5q-11 -84 -27.5 -240t-23.5 -219z
" />
    <glyph glyph-name="uni0227" unicode="&#x227;" horiz-adv-x="1064" 
d="M379 1449q0 38 2 136q106 4 150 4q50 0 174 -4q8 0 14 -6t6 -14q2 -110 2 -152q0 -37 -2 -135q-60 -3 -114 -3q-79 0 -210 7q-20 2 -20 21q-2 108 -2 146zM20 17q0 2 2 13t4.5 27t3.5 24q21 131 51.5 291t53.5 275.5t61.5 302.5t57.5 279q91 4 281 4q164 0 293 -4
q8 0 15 -6.5t9 -14.5q22 -114 76 -373t92 -458t65 -377q-107 -5 -178 -5q-113 0 -201 5q-21 2 -24 20q-26 136 -37 205h-190q-17 -114 -39 -225q-110 -5 -170 -5q-36 0 -209 5q-17 0 -17 17zM490 492h114q-13 89 -35.5 255.5l-27.5 203.5q-11 -84 -27.5 -240t-23.5 -219z
" />
    <glyph glyph-name="uni0228" unicode="&#x228;" horiz-adv-x="929" 
d="M94 614q0 287 8 615q87 4 425 4q218 0 358 -4q8 0 14 -6.5t6 -14.5q2 -124 2 -177q0 -44 -2 -150q-87 -4 -325 -4h-78q0 -17 -1 -52.5t-1 -54.5q206 -3 245 -4q8 0 14.5 -6.5t6.5 -14.5q2 -112 2 -153q0 -39 -2 -137h-266q0 -18 1 -54t1 -53h24q223 0 363 -4q8 0 14 -6
t6 -14q2 -124 2 -177q0 -45 -2 -151q-36 -2 -264 -4q154 -67 154 -200q0 -91 -83.5 -146.5t-242.5 -55.5q-30 0 -52 1.5t-33.5 3.5t-33.5 6.5t-40 7.5l26 205l49 -7q40 -5 63 8t23 35q0 20 -21 35.5t-59 18.5l10 89q-48 1 -107.5 2.5t-110.5 3t-64 1.5q-8 0 -14.5 6t-6.5 14
q-8 386 -8 594z" />
    <glyph glyph-name="uni0229" unicode="&#x229;" horiz-adv-x="929" 
d="M94 614q0 287 8 615q87 4 425 4q218 0 358 -4q8 0 14 -6.5t6 -14.5q2 -124 2 -177q0 -44 -2 -150q-87 -4 -325 -4h-78q0 -17 -1 -52.5t-1 -54.5q206 -3 245 -4q8 0 14.5 -6.5t6.5 -14.5q2 -112 2 -153q0 -39 -2 -137h-266q0 -18 1 -54t1 -53h24q223 0 363 -4q8 0 14 -6
t6 -14q2 -124 2 -177q0 -45 -2 -151q-36 -2 -264 -4q154 -67 154 -200q0 -91 -83.5 -146.5t-242.5 -55.5q-30 0 -52 1.5t-33.5 3.5t-33.5 6.5t-40 7.5l26 205l49 -7q40 -5 63 8t23 35q0 20 -21 35.5t-59 18.5l10 89q-48 1 -107.5 2.5t-110.5 3t-64 1.5q-8 0 -14.5 6t-6.5 14
q-8 386 -8 594z" />
    <glyph glyph-name="uni022E" unicode="&#x22e;" 
d="M408 1449q0 38 2 136q106 4 149 4q50 0 174 -4q8 0 14.5 -6t6.5 -14q1 -55 1 -152q0 -86 -1 -135q-60 -3 -114 -3q-79 0 -210 7q-20 2 -20 21q-2 108 -2 146zM53 615q0 297 123 457t344 171q150 0 255 -31.5t178 -105t107 -194t34 -297.5q0 -296 -125 -456t-346 -171
q-150 0 -254 31.5t-176.5 104t-106 193.5t-33.5 298zM481 615q0 -89 6.5 -145t20.5 -82.5t29 -35t38 -8.5q31 0 48.5 15.5t30 77t12.5 178.5q0 88 -7 144t-21.5 82.5t-29.5 35t-39 8.5q-31 0 -48 -15.5t-28.5 -76.5t-11.5 -178z" />
    <glyph glyph-name="uni022F" unicode="&#x22f;" 
d="M408 1449q0 38 2 136q106 4 149 4q50 0 174 -4q8 0 14.5 -6t6.5 -14q1 -55 1 -152q0 -86 -1 -135q-60 -3 -114 -3q-79 0 -210 7q-20 2 -20 21q-2 108 -2 146zM53 615q0 297 123 457t344 171q150 0 255 -31.5t178 -105t107 -194t34 -297.5q0 -296 -125 -456t-346 -171
q-150 0 -254 31.5t-176.5 104t-106 193.5t-33.5 298zM481 615q0 -89 6.5 -145t20.5 -82.5t29 -35t38 -8.5q31 0 48.5 15.5t30 77t12.5 178.5q0 88 -7 144t-21.5 82.5t-29.5 35t-39 8.5q-31 0 -48 -15.5t-28.5 -76.5t-11.5 -178z" />
    <glyph glyph-name="uni0232" unicode="&#x232;" horiz-adv-x="1075" 
d="M250 1446q0 23 2 133q108 5 363 5q56 0 231 -5q8 0 14 -6t6 -14q2 -46 2 -135q0 -66 -2 -136q-90 -4 -281 -4q-33 0 -313 8q-8 0 -14 6.5t-6 14.5q-2 108 -2 133zM16 1221q103 12 215 12q74 0 164 -5q26 -2 32 -21q54 -165 131 -446q77 281 131 446q6 19 31 21
q90 5 165 5q111 0 214 -12q-79 -340 -171 -522q-65 -111 -165 -193q4 -339 5 -506q-108 -5 -183 -5q-39 0 -214 5q-8 0 -14.5 6t-6.5 14q0 237 3 486q-101 83 -166 193q-92 182 -171 522z" />
    <glyph glyph-name="uni0233" unicode="&#x233;" horiz-adv-x="1075" 
d="M250 1446q0 23 2 133q108 5 363 5q56 0 231 -5q8 0 14 -6t6 -14q2 -46 2 -135q0 -66 -2 -136q-90 -4 -281 -4q-33 0 -313 8q-8 0 -14 6.5t-6 14.5q-2 108 -2 133zM16 1221q103 12 215 12q74 0 164 -5q26 -2 32 -21q54 -165 131 -446q77 281 131 446q6 19 31 21
q90 5 165 5q111 0 214 -12q-79 -340 -171 -522q-65 -111 -165 -193q4 -339 5 -506q-108 -5 -183 -5q-39 0 -214 5q-8 0 -14.5 6t-6.5 14q0 237 3 486q-101 83 -166 193q-92 182 -171 522z" />
    <glyph glyph-name="ogonek" unicode="&#x2db;" horiz-adv-x="614" 
d="M335 109l113 -112q-45 -2 -69.5 -20t-24.5 -40q0 -24 25.5 -40t67.5 -10l100 13l37 -287q-7 -1 -32 -5.5t-30 -5.5t-24 -4t-27 -3.5t-24.5 -2t-31 -2t-32.5 -0.5q-143 0 -236.5 68t-93.5 164q0 77 70 153t212 134z" />
    <glyph glyph-name="gravecomb" unicode="&#x300;" horiz-adv-x="0" 
d="M-318 1587q104 4 150 4q52 0 178 -4q20 0 31 -20q155 -294 157 -297q-173 0 -330 8q-21 2 -31 20q-104 187 -155 289z" />
    <glyph glyph-name="acutecomb" unicode="&#x301;" horiz-adv-x="0" 
d="M-187 1291q0 8 36 64q58 94 159 232q110 4 165 4q67 0 187 -4q10 0 10 -8q0 -13 -41 -61q-29 -37 -100 -117t-107 -127q-151 0 -299 8q-10 0 -10 9z" />
    <glyph glyph-name="uni0302" unicode="&#x302;" horiz-adv-x="0" 
d="M-441 1271q56 108 190 293q13 17 31 18q144 7 290 7h43h52h47q66 -74 193 -242q41 -53 41 -61q0 -9 -10 -9q-90 -3 -165 -3q-92 0 -147 3q-53 73 -125 211q-59 -121 -101 -196q-5 -8 -14.5 -14.5t-17.5 -6.5q-94 -3 -166 -3q-89 0 -141 3z" />
    <glyph glyph-name="tildecomb" unicode="&#x303;" horiz-adv-x="0" 
d="M-405 1493q0 11 10 17q145 91 237 94q47 0 131 -27t127 -27q70 0 186 60q59 -97 87 -149q35 -61 35 -68q0 -11 -10 -18q-149 -101 -251 -101q-44 0 -119 22.5t-118 22.5q-74 0 -186 -58q-48 79 -84 143q-45 79 -45 89z" />
    <glyph glyph-name="uni0304" unicode="&#x304;" horiz-adv-x="0" 
d="M-307 1446q0 23 2 133q108 5 363 5q56 0 231 -5q8 0 14 -6t6 -14q1 -23 1 -135q0 -101 -1 -136q-90 -4 -281 -4q-33 0 -313 8q-8 0 -14 6.5t-6 14.5q-2 108 -2 133z" />
    <glyph glyph-name="uni0305" unicode="&#x305;" horiz-adv-x="0" 
d="M-369 1446q0 23 2 133q108 5 425 5q117 0 292 -5q8 0 14.5 -6t6.5 -14q1 -23 1 -135q0 -101 -1 -136q-90 -4 -343 -4q-94 0 -374 8q-8 0 -14.5 6.5t-6.5 14.5q-2 108 -2 133z" />
    <glyph glyph-name="uni0306" unicode="&#x306;" horiz-adv-x="0" 
d="M-441 1589q78 3 139 3q70 0 164 -3q8 0 17.5 -6.5t14.5 -14.5q38 -74 110 -74q37 0 69.5 23.5t50.5 65.5q82 3 147 3q75 0 165 -3q8 0 8 -7q0 -13 -13.5 -46.5t-25.5 -54.5q-58 -98 -168.5 -153t-236.5 -55q-99 0 -187 33.5t-158 108t-96 180.5z" />
    <glyph glyph-name="uni0307" unicode="&#x307;" horiz-adv-x="0" 
d="M-174 1449q0 38 2 136q106 4 150 4q50 0 174 -4q8 0 14 -6t6 -14q2 -110 2 -152q0 -37 -2 -135q-60 -3 -114 -3q-79 0 -210 7q-20 2 -20 21q-2 108 -2 146z" />
    <glyph glyph-name="uni0308" unicode="&#x308;" horiz-adv-x="0" 
d="M68 1449q0 34 2 132q77 3 135 3q81 0 160 -3q8 0 14 -6t6 -14q2 -110 2 -148q0 -33 -2 -131q-37 -2 -104 -2q-63 0 -191 6q-20 2 -20 21q-2 108 -2 142zM-387 1449q0 34 2 132q77 3 140 3q75 0 155 -3q8 0 14 -6t6 -14q2 -110 2 -148q0 -33 -2 -131q-37 -2 -103 -2
q-64 0 -192 6q-20 2 -20 21q-2 108 -2 142z" />
    <glyph glyph-name="uni030A" unicode="&#x30a;" horiz-adv-x="0" 
d="M-211 1412q0 84 51.5 134.5t138.5 55.5q126 0 179 -45t53 -145q0 -84 -50 -134t-137 -55q-126 0 -180.5 45t-54.5 144zM-41 1411q0 -27 9 -36t32 -9q22 0 31.5 9t9.5 36q0 28 -10.5 37t-34.5 9q-18 0 -27.5 -9.5t-9.5 -36.5z" />
    <glyph glyph-name="uni030B" unicode="&#x30b;" horiz-adv-x="0" 
d="M16 1291q0 4 7 16t17.5 28.5t12.5 19.5q69 112 157 232q36 2 123 2q63 0 141 -2q11 0 11 -8q0 -10 -64 -91q-54 -67 -195 -214q-60 0 -200 8q-10 0 -10 9zM-353 1291q0 7 35 61q71 113 160 235q54 3 122 3q25 0 142 -3q10 0 10 -8q0 -5 -20 -34t-33 -44
q-58 -73 -206 -227q-60 0 -200 8q-10 0 -10 9z" />
    <glyph glyph-name="uni030C" unicode="&#x30c;" horiz-adv-x="0" 
d="M-441 1580q52 3 141 3q72 0 166 -3q8 0 17.5 -6.5t14.5 -14.5q13 -25 33.5 -62.5t37 -68t30.5 -57.5q69 134 125 211q55 3 147 3q75 0 165 -3q10 0 10 -9q0 -3 -5 -11.5t-13.5 -20t-16.5 -22.5t-17 -22.5t-12 -15.5q-94 -125 -170 -211h-180q-104 0 -254 9q-18 1 -31 18
q-134 178 -188 283z" />
    <glyph glyph-name="uni030F" unicode="&#x30f;" horiz-adv-x="0" 
d="M-123 1587q69 4 122 4q22 0 144 -4q17 0 31 -20q134 -186 190 -297q-105 0 -207 4q-15 0 -35 20q-195 204 -245 293zM-492 1587q69 4 123 4q21 0 143 -4q18 0 32 -20q131 -181 189 -297q-105 0 -207 4q-15 0 -35 20q-195 204 -245 293z" />
    <glyph glyph-name="uni0311" unicode="&#x311;" horiz-adv-x="0" 
d="M-441 1271q26 106 96 180.5t158 108t187 33.5q154 0 279 -79.5t163 -215.5q6 -21 -6 -21q-169 -6 -312 0q-18 42 -50.5 65.5t-69.5 23.5q-72 0 -110 -74q-5 -8 -14.5 -14.5t-17.5 -6.5q-172 -6 -303 0z" />
    <glyph glyph-name="uni0326" unicode="&#x326;" horiz-adv-x="0" 
d="M-146 -43q126 5 295 0q18 0 18 -14q0 -25 0.5 -66t0.5 -64q-6 -43 -36.5 -117t-46.5 -103q-88 -3 -152 -3q10 83 15 167q-24 0 -76 2q-18 0 -18 14q-2 92 0 184z" />
    <glyph glyph-name="Wgrave" unicode="&#x1e80;" horiz-adv-x="1396" 
d="M409 1587q104 4 150 4q52 0 178 -4q20 0 31 -20q155 -294 157 -297q-173 0 -330 8q-21 2 -31 20q-104 187 -155 289zM12 1229q85 4 186 4q131 0 201 -4q8 -1 15.5 -7t8.5 -14q40 -202 80 -515q85 343 130 472l96 4l94 -4q52 -145 130 -464q46 352 74 528q88 4 164 4
q79 0 217 -4q17 0 17 -18q0 -1 -9 -64q-83 -563 -233 -1147q-132 -6 -300 -6q-21 73 -75.5 239.5t-79.5 257.5q-24 -83 -81.5 -248t-81.5 -249q-77 0 -287 6q-19 0 -24 20q-167 653 -242 1209z" />
    <glyph glyph-name="wgrave" unicode="&#x1e81;" horiz-adv-x="1396" 
d="M409 1587q104 4 150 4q52 0 178 -4q20 0 31 -20q155 -294 157 -297q-173 0 -330 8q-21 2 -31 20q-104 187 -155 289zM12 1229q85 4 186 4q131 0 201 -4q8 -1 15.5 -7t8.5 -14q40 -202 80 -515q85 343 130 472l96 4l94 -4q52 -145 130 -464q46 352 74 528q88 4 164 4
q79 0 217 -4q17 0 17 -18q0 -1 -9 -64q-83 -563 -233 -1147q-132 -6 -300 -6q-21 73 -75.5 239.5t-79.5 257.5q-24 -83 -81.5 -248t-81.5 -249q-77 0 -287 6q-19 0 -24 20q-167 653 -242 1209z" />
    <glyph glyph-name="Wacute" unicode="&#x1e82;" horiz-adv-x="1396" 
d="M540 1291q0 8 36 64q58 94 159 232q110 4 165 4q67 0 187 -4q10 0 10 -8q0 -13 -41 -61q-29 -37 -100 -117t-107 -127q-151 0 -299 8q-10 0 -10 9zM12 1229q85 4 186 4q131 0 201 -4q8 -1 15.5 -7t8.5 -14q40 -202 80 -515q85 343 130 472l96 4l94 -4q52 -145 130 -464
q46 352 74 528q88 4 164 4q79 0 217 -4q17 0 17 -18q0 -1 -9 -64q-83 -563 -233 -1147q-132 -6 -300 -6q-21 73 -75.5 239.5t-79.5 257.5q-24 -83 -81.5 -248t-81.5 -249q-77 0 -287 6q-19 0 -24 20q-167 653 -242 1209z" />
    <glyph glyph-name="wacute" unicode="&#x1e83;" horiz-adv-x="1396" 
d="M540 1291q0 8 36 64q58 94 159 232q110 4 165 4q67 0 187 -4q10 0 10 -8q0 -13 -41 -61q-29 -37 -100 -117t-107 -127q-151 0 -299 8q-10 0 -10 9zM12 1229q85 4 186 4q131 0 201 -4q8 -1 15.5 -7t8.5 -14q40 -202 80 -515q85 343 130 472l96 4l94 -4q52 -145 130 -464
q46 352 74 528q88 4 164 4q79 0 217 -4q17 0 17 -18q0 -1 -9 -64q-83 -563 -233 -1147q-132 -6 -300 -6q-21 73 -75.5 239.5t-79.5 257.5q-24 -83 -81.5 -248t-81.5 -249q-77 0 -287 6q-19 0 -24 20q-167 653 -242 1209z" />
    <glyph glyph-name="Wdieresis" unicode="&#x1e84;" horiz-adv-x="1396" 
d="M795 1449q0 34 2 132q76 3 135 3q80 0 160 -3q8 0 14 -6t6 -14q2 -110 2 -148q0 -33 -2 -131q-37 -2 -104 -2q-63 0 -191 6q-20 2 -20 21q-2 108 -2 142zM340 1449q0 34 2 132q77 3 140 3q76 0 155 -3q8 0 14 -6t6 -14q2 -110 2 -148q0 -33 -2 -131q-37 -2 -103 -2
q-64 0 -192 6q-20 2 -20 21q-2 108 -2 142zM12 1229q85 4 186 4q131 0 201 -4q8 -1 15.5 -7t8.5 -14q40 -202 80 -515q85 343 130 472l96 4l94 -4q52 -145 130 -464q46 352 74 528q88 4 164 4q79 0 217 -4q17 0 17 -18q0 -1 -9 -64q-83 -563 -233 -1147q-132 -6 -300 -6
q-21 73 -75.5 239.5t-79.5 257.5q-24 -83 -81.5 -248t-81.5 -249q-77 0 -287 6q-19 0 -24 20q-167 653 -242 1209z" />
    <glyph glyph-name="wdieresis" unicode="&#x1e85;" horiz-adv-x="1396" 
d="M795 1449q0 34 2 132q76 3 135 3q80 0 160 -3q8 0 14 -6t6 -14q2 -110 2 -148q0 -33 -2 -131q-37 -2 -104 -2q-63 0 -191 6q-20 2 -20 21q-2 108 -2 142zM340 1449q0 34 2 132q77 3 140 3q76 0 155 -3q8 0 14 -6t6 -14q2 -110 2 -148q0 -33 -2 -131q-37 -2 -103 -2
q-64 0 -192 6q-20 2 -20 21q-2 108 -2 142zM12 1229q85 4 186 4q131 0 201 -4q8 -1 15.5 -7t8.5 -14q40 -202 80 -515q85 343 130 472l96 4l94 -4q52 -145 130 -464q46 352 74 528q88 4 164 4q79 0 217 -4q17 0 17 -18q0 -1 -9 -64q-83 -563 -233 -1147q-132 -6 -300 -6
q-21 73 -75.5 239.5t-79.5 257.5q-24 -83 -81.5 -248t-81.5 -249q-77 0 -287 6q-19 0 -24 20q-167 653 -242 1209z" />
    <glyph glyph-name="uni1E86" unicode="&#x1e86;" horiz-adv-x="1396" 
d="M553 1449q0 38 2 136q106 4 150 4q50 0 174 -4q8 0 14 -6t6 -14q2 -110 2 -152q0 -37 -2 -135q-60 -3 -114 -3q-79 0 -210 7q-20 2 -20 21q-2 108 -2 146zM12 1229q85 4 186 4q131 0 201 -4q8 -1 15.5 -7t8.5 -14q40 -202 80 -515q85 343 130 472l96 4l94 -4
q52 -145 130 -464q46 352 74 528q88 4 164 4q79 0 217 -4q17 0 17 -18q0 -1 -9 -64q-83 -563 -233 -1147q-132 -6 -300 -6q-21 73 -75.5 239.5t-79.5 257.5q-24 -83 -81.5 -248t-81.5 -249q-77 0 -287 6q-19 0 -24 20q-167 653 -242 1209z" />
    <glyph glyph-name="uni1E87" unicode="&#x1e87;" horiz-adv-x="1396" 
d="M553 1449q0 38 2 136q106 4 150 4q50 0 174 -4q8 0 14 -6t6 -14q2 -110 2 -152q0 -37 -2 -135q-60 -3 -114 -3q-79 0 -210 7q-20 2 -20 21q-2 108 -2 146zM12 1229q85 4 186 4q131 0 201 -4q8 -1 15.5 -7t8.5 -14q40 -202 80 -515q85 343 130 472l96 4l94 -4
q52 -145 130 -464q46 352 74 528q88 4 164 4q79 0 217 -4q17 0 17 -18q0 -1 -9 -64q-83 -563 -233 -1147q-132 -6 -300 -6q-21 73 -75.5 239.5t-79.5 257.5q-24 -83 -81.5 -248t-81.5 -249q-77 0 -287 6q-19 0 -24 20q-167 653 -242 1209z" />
    </font>
</defs>
</svg>
