<?xml version="1.0" standalone="no"?>
<!DOCTYPE svg PUBLIC "-//W3C//DTD SVG 1.1//EN" "http://www.w3.org/Graphics/SVG/1.1/DTD/svg11.dtd" >
<svg xmlns="http://www.w3.org/2000/svg" xmlns:xlink="http://www.w3.org/1999/xlink" version="1.1">
<metadata>
Created by FontForge 20200314 at Thu Feb 20 23:08:20 2014
 By User Azfonts
2009 Albert-Jan Pool published by FSI FontShop International GmbH
</metadata>
<defs>
<font id="DINPro-CondensedBlackItalic" horiz-adv-x="400" >
  <font-face 
    font-family="DIN Pro Cond Black"
    font-weight="900"
    font-style="italic"
    font-stretch="condensed"
    units-per-em="1000"
    panose-1="2 11 10 6 2 1 1 2 1 2"
    ascent="800"
    descent="-200"
    x-height="538"
    cap-height="712"
    bbox="-156 -221 1067 1130"
    underline-thickness="96"
    underline-position="-308"
    slope="-11.31"
    unicode-range="U+000D-FEFF"
  />
<missing-glyph horiz-adv-x="420" 
d="M-9 0l142 712h332l-142 -712h-332zM101 96h150l104 520h-150z" />
    <glyph glyph-name=".notdef" horiz-adv-x="420" 
d="M-9 0l142 712h332l-142 -712h-332zM101 96h150l104 520h-150z" />
    <glyph glyph-name=".null" horiz-adv-x="0" 
 />
    <glyph glyph-name=".null" horiz-adv-x="0" 
 />
    <glyph glyph-name="nonmarkingreturn" horiz-adv-x="333" 
 />
    <glyph glyph-name="CR" unicode="&#xd;" horiz-adv-x="161" 
 />
    <glyph glyph-name="space" unicode=" " horiz-adv-x="161" 
 />
    <glyph glyph-name="exclam" unicode="!" horiz-adv-x="261" 
d="M69 207l86 505h148l-106 -505h-128zM16 0l30 150h142l-30 -150h-142z" />
    <glyph glyph-name="quotedbl" unicode="&#x22;" horiz-adv-x="462" 
d="M121 501l42 211h117l-42 -211h-117zM318 501l42 211h117l-42 -211h-117z" />
    <glyph glyph-name="numbersign" unicode="#" horiz-adv-x="634" 
d="M22 0l66 190h-63l24 120h82l40 113h-70l24 120h87l59 169h134l-60 -169h107l59 169h134l-60 -169h63l-24 -120h-81l-39 -113h68l-24 -120h-87l-65 -190h-134l66 190h-107l-65 -190h-134zM265 310h105l39 113h-105z" />
    <glyph glyph-name="dollar" unicode="$" horiz-adv-x="444" 
d="M18 203h134q-4 -23 -4 -41q0 -25 11 -36q14 -14 35 -14q29 0 46 17q18 18 27 62q5 25 5 53q0 37 -47 58l-69 33q-77 36 -77 116q0 40 9 85q18 89 60 131q40 40 95 49l18 90h120l-20 -95q33 -9 62 -36q32 -32 32 -92q0 -38 -6 -72h-134q5 25 5 44q0 25 -10 35
q-11 11 -29 11q-23 0 -38 -15t-22 -50q-5 -25 -5 -44q0 -34 36 -50l57 -27q56 -26 78.5 -55t22.5 -75q0 -50 -9 -95q-12 -59 -26 -90.5t-37 -54.5q-43 -43 -108 -50l-21 -109h-120l22 114q-38 11 -64 37q-36 36 -36 94q0 31 7 72z" />
    <glyph glyph-name="percent" unicode="%" horiz-adv-x="758" 
d="M184 485q-4 -18 -4 -27q0 -27 30 -27q33 0 42 44l22 107q4 18 4 27q0 27 -30 27q-33 0 -42 -44zM83 484l21 104q15 73 54 102.5t100 29.5q55 0 88 -29t33 -73q0 -17 -4 -35l-21 -104q-14 -71 -52 -101.5t-102 -30.5q-55 0 -88 29t-33 73q0 17 4 35zM519 130
q-4 -18 -4 -27q0 -27 30 -27q33 0 42 44l22 107q4 18 4 27q0 27 -30 27q-33 0 -42 -44zM418 129l21 104q15 73 54 102.5t100 29.5q55 0 88 -29t33 -73q0 -17 -4 -35l-21 -104q-14 -71 -52 -101.5t-102 -30.5q-55 0 -88 29t-33 73q0 17 4 35zM160 0l378 712h98l-379 -712h-97
z" />
    <glyph glyph-name="ampersand" unicode="&#x26;" horiz-adv-x="480" 
d="M6 141q0 78 33 134t104 115q-40 98 -40 152q0 80 43.5 129t120.5 49q65 0 100 -40t35 -101q0 -62 -28 -106.5t-90 -101.5l-2 -2l38 -95q20 39 40 113h106q-13 -59 -41 -124.5t-57 -109.5l61 -153h-130l-20 49q-58 -57 -136 -57q-69 0 -103 43t-34 106zM128 171
q0 -59 44 -59q33 0 66 41l-52 129q-58 -56 -58 -111zM240 475l4 4q43 43 43 86q0 39 -27 39q-17 0 -26 -17.5t-9 -40.5q0 -36 15 -71z" />
    <glyph glyph-name="quotesingle" unicode="'" horiz-adv-x="265" 
d="M121 501l42 211h117l-42 -211h-117z" />
    <glyph glyph-name="parenleft" unicode="(" horiz-adv-x="278" 
d="M7 70q0 34 9 77l85 424q12 56 21 83t31 58q28 39 98 94l72 -93q-49 -43 -66 -65q-16 -21 -29 -83l-85 -424q-7 -33 -7 -56q0 -16 7 -33.5t14.5 -29t24.5 -33.5l-98 -82q-77 100 -77 163z" />
    <glyph glyph-name="parenright" unicode=")" horiz-adv-x="276" 
d="M306 644q0 -34 -9 -77l-85 -424q-12 -56 -21 -83t-31 -58q-28 -39 -98 -94l-72 93q49 43 66 65q16 21 29 83l85 424q7 33 7 56q0 16 -7 33.5t-14.5 29t-24.5 33.5l98 82q77 -100 77 -163z" />
    <glyph glyph-name="asterisk" unicode="*" horiz-adv-x="422" 
d="M182 335l30 125l-117 -46l-30 79l124 35l-99 81l58 64l87 -88l21 126l82 -15l-30 -125l117 46l30 -79l-124 -35l99 -81l-58 -64l-87 88l-21 -126z" />
    <glyph glyph-name="plus" unicode="+" horiz-adv-x="448" 
d="M130 101l27 134h-123l24 120h123l26 134h122l-26 -134h123l-24 -120h-123l-27 -134h-122z" />
    <glyph glyph-name="comma" unicode="," horiz-adv-x="242" 
d="M-36 -179l66 329h136l-45 -224z" />
    <glyph glyph-name="hyphen" unicode="-" horiz-adv-x="278" 
d="M34 235l24 120h198l-24 -120h-198z" />
    <glyph glyph-name="period" unicode="." horiz-adv-x="242" 
d="M-3 0l30 150h142l-30 -150h-142z" />
    <glyph glyph-name="slash" unicode="/" horiz-adv-x="313" 
d="M-61 -74l348 860h118l-349 -860h-117z" />
    <glyph glyph-name="zero" unicode="0" horiz-adv-x="404" 
d="M90 546q18 91 65 132q49 42 129 42q75 0 110 -35q36 -35 36 -95q0 -25 -6 -55l-74 -369q-18 -91 -65 -132q-49 -42 -129 -42q-75 0 -110 35q-36 35 -36 95q0 25 6 55zM219 552l-77 -387q-3 -15 -3 -26q0 -33 32 -33q39 0 50 54l77 387q3 15 3 26q0 33 -32 33
q-39 0 -50 -54z" />
    <glyph glyph-name="one" unicode="1" horiz-adv-x="404" 
d="M117 0l111 557l-121 -84l31 154l121 85h128l-142 -712h-128z" />
    <glyph glyph-name="two" unicode="2" horiz-adv-x="404" 
d="M-11 0l21 108l237 327q52 70 52 134q0 37 -31 37q-38 0 -49 -55l-8 -40h-128l7 35q20 101 75 141q45 33 114 33q80 0 117 -45q32 -38 32 -97q0 -88 -78 -191l-202 -273h195l-22 -114h-332z" />
    <glyph glyph-name="three" unicode="3" horiz-adv-x="404" 
d="M82 508l8 40q10 51 26 83t48 56q42 33 116 33q80 0 114 -43q28 -34 28 -84q0 -33 -8 -73q-14 -69 -39 -102q-19 -25 -47 -42q44 -26 44 -88q0 -26 -11 -81q-16 -80 -28.5 -111.5t-40.5 -59.5q-44 -44 -132 -44q-84 0 -121 46q-29 36 -29 84q0 27 7 62l4 20h128l-5 -25
q-4 -20 -4 -32q0 -41 33 -41q18 0 32 14q13 13 28 87q11 55 11 76q0 35 -32 35h-30l23 112h25q19 0 29 12q14 16 26 75q9 45 9 58q0 31 -28 31q-36 0 -46 -49l-10 -49h-128z" />
    <glyph glyph-name="four" unicode="4" horiz-adv-x="404" 
d="M-19 104l23 114l274 494h127l-265 -494h62l18 88h128l-18 -88h46l-23 -114h-46l-20 -104h-128l20 104h-198z" />
    <glyph glyph-name="five" unicode="5" horiz-adv-x="404" 
d="M19 194h128l-3 -15q-4 -20 -4 -32q0 -41 33 -41q18 0 32 14q13 13 34 115q15 79 15 97q0 36 -32 36q-39 0 -51 -55l-1 -5h-122l81 404h325l-23 -114h-209l-30 -153q19 17 36 25q26 12 57 12q48 0 75 -30q25 -28 25 -71q0 -56 -18 -146q-20 -101 -33 -135.5t-42 -63.5
q-44 -44 -132 -44q-84 0 -121 46q-29 36 -29 84q0 27 6 57z" />
    <glyph glyph-name="six" unicode="6" horiz-adv-x="404" 
d="M12 130q0 38 10 89q18 90 55 155l191 338h139l-167 -277q12 7 34 7q50 0 75.5 -34t25.5 -83q0 -40 -13 -106q-14 -71 -26.5 -104.5t-33.5 -58.5q-28 -33 -62 -48.5t-85 -15.5q-75 0 -113 46q-30 38 -30 92zM140 144q0 -38 30 -38q21 0 33 16q14 19 32 100q10 47 10 73
q0 37 -30 37q-21 0 -34 -16q-15 -19 -30 -94q-11 -55 -11 -78z" />
    <glyph glyph-name="seven" unicode="7" horiz-adv-x="404" 
d="M19 0l295 598h-104l-17 -85h-120l40 199h355l-21 -106l-298 -606h-130z" />
    <glyph glyph-name="eight" unicode="8" horiz-adv-x="404" 
d="M88 521q15 70 27.5 100t36.5 54q45 45 126 45q83 0 119 -45q28 -33 28 -81q0 -40 -9 -84q-14 -70 -34 -99q-20 -30 -49 -51q12 -12 20 -26q14 -24 14 -57q0 -35 -8 -73q-16 -79 -27.5 -108.5t-37.5 -55.5q-48 -48 -135 -48q-83 0 -120 46q-29 36 -29 84q0 37 9 82
q17 85 38 117q21 33 54 55q-12 14 -19 26q-11 21 -11 55q0 25 7 64zM214 515q-9 -45 -9 -56q0 -18 9 -27q8 -8 20 -8q18 0 29 14q13 18 25 77q9 45 9 56q0 18 -9 27q-8 8 -20 8q-18 0 -29 -14q-13 -18 -25 -77zM148 209q-10 -50 -10 -65q0 -19 10 -29q9 -9 23 -9q19 0 33 15
q14 16 28 88q10 50 10 65q0 19 -10 29q-9 9 -23 9q-19 0 -33 -15q-14 -16 -28 -88z" />
    <glyph glyph-name="nine" unicode="9" horiz-adv-x="404" 
d="M427 582q0 -38 -10 -89q-18 -90 -55 -155l-191 -338h-139l167 277q-12 -7 -34 -7q-50 0 -75.5 34t-25.5 83q0 40 13 106q14 71 26.5 104.5t33.5 58.5q28 33 62 48.5t85 15.5q75 0 113 -46q30 -38 30 -92zM299 568q0 38 -30 38q-21 0 -33 -16q-14 -19 -32 -100
q-10 -47 -10 -73q0 -37 30 -37q21 0 34 16q15 19 30 94q11 55 11 78z" />
    <glyph glyph-name="colon" unicode=":" horiz-adv-x="261" 
d="M16 0l30 150h142l-30 -150h-142zM75 298l30 150h142l-30 -150h-142z" />
    <glyph glyph-name="semicolon" unicode=";" horiz-adv-x="261" 
d="M-16 -179l66 329h136l-45 -224zM75 298l30 150h142l-30 -150h-142z" />
    <glyph glyph-name="less" unicode="&#x3c;" horiz-adv-x="402" 
d="M29 252l19 93l379 208l-31 -156l-204 -108l161 -109l-28 -136z" />
    <glyph glyph-name="equal" unicode="=" horiz-adv-x="448" 
d="M15 138l24 120h368l-24 -120h-368zM54 332l24 120h368l-24 -120h-368z" />
    <glyph glyph-name="greater" unicode="&#x3e;" horiz-adv-x="402" 
d="M386 335l-19 -93l-379 -208l31 156l204 108l-161 109l28 136z" />
    <glyph glyph-name="question" unicode="?" horiz-adv-x="434" 
d="M153 207l12 60q7 30 17 49t37 46l67 67q32 32 44 86q6 28 6 45q0 22 -11 33t-29 11q-22 0 -39 -17q-16 -16 -28 -76h-127q24 121 74 163q51 44 134 44q89 0 128 -51q26 -35 26 -86q0 -35 -7 -70q-17 -87 -66 -136l-64 -64q-32 -32 -37 -59l-9 -45h-128zM105 0l30 150h142
l-30 -150h-142z" />
    <glyph glyph-name="at" unicode="@" horiz-adv-x="629" 
d="M48 -14q-38 50 -38 102q0 31 6 59l78 389q19 93 70 135q50 41 141 41h164q104 0 142 -47q28 -36 28 -83q0 -28 -6 -60l-104 -522h-119l7 37q-20 -20 -39 -31q-25 -14 -61 -14q-57 0 -85 45q-15 25 -15 54q0 34 7 68l34 168q16 84 53 122q44 45 105 45q26 0 49 -15
q16 -11 28 -30l13 59q4 16 4 38q0 57 -55 57h-145q-81 0 -99 -91l-71 -357q-3 -16 -3 -29q0 -25 18 -49zM350 139q0 -33 32 -33q18 0 33 12.5t20 36.5l35 176q2 10 2 17q0 13 -10.5 22.5t-24.5 9.5q-41 0 -50 -49l-35 -176q-2 -10 -2 -16z" />
    <glyph glyph-name="A" unicode="A" horiz-adv-x="492" 
d="M433 0h-135l1 115h-156l-46 -115h-144l316 712h132zM297 235l1 279l-107 -279h106z" />
    <glyph glyph-name="B" unicode="B" horiz-adv-x="477" 
d="M-1 0l142 712h183q95 0 131 -48q27 -36 27 -89q0 -28 -8 -67q-16 -80 -52 -112q-19 -16 -38 -24q17 -8 28 -25q18 -25 18 -63q0 -35 -8 -75q-24 -122 -74 -167q-27 -24 -61 -33t-92 -9h-196zM157 120h44q42 0 59.5 20.5t28.5 73.5q6 28 6 48q0 28 -13 40.5t-42 12.5h-44z
M218 429h38q38 0 56.5 18.5t27.5 60.5q5 23 5 38q0 23 -11.5 34.5t-40.5 11.5h-42z" />
    <glyph glyph-name="C" unicode="C" horiz-adv-x="450" 
d="M23 164q0 63 27 192q31 152 52.5 212.5t56.5 95.5q56 56 148 56q90 0 132 -52q34 -42 34 -110q0 -28 -2 -45h-134q2 15 2 37q0 50 -43 50q-25 0 -44 -19q-17 -17 -31 -64t-37 -161q-27 -135 -27 -190q0 -54 43 -54q32 0 51 27q16 23 25 61h136q-23 -110 -82 -162
q-52 -46 -142 -46q-103 0 -142 69q-23 41 -23 103z" />
    <glyph glyph-name="D" unicode="D" horiz-adv-x="474" 
d="M157 120h49q39 0 61 31q22 33 57 206q28 138 28 182q0 25 -13 39q-12 14 -35 14h-53zM-1 0l142 712h184q53 0 84 -17t53 -53q24 -38 24 -103q0 -36 -28 -182q-28 -140 -48 -201t-54 -95q-61 -61 -161 -61h-196z" />
    <glyph glyph-name="E" unicode="E" horiz-adv-x="394" 
d="M-1 0l142 712h312l-24 -120h-178l-35 -173h153l-24 -120h-153l-35 -179h178l-24 -120h-312z" />
    <glyph glyph-name="F" unicode="F" horiz-adv-x="386" 
d="M-1 0l142 712h312l-24 -120h-178l-35 -173h153l-24 -120h-153l-59 -299h-134z" />
    <glyph glyph-name="G" unicode="G" horiz-adv-x="456" 
d="M446 392l-36 -181q-23 -114 -76 -166.5t-149 -52.5q-100 0 -139 69q-23 41 -23 103q0 63 27 192q31 152 52.5 212.5t56.5 95.5q56 56 148 56q90 0 132 -52q34 -42 34 -110q0 -28 -2 -45h-134q2 15 2 37q0 50 -43 50q-25 0 -44 -19q-17 -17 -31 -64t-37 -161
q-27 -135 -27 -190q0 -54 43 -54q56 0 74 88l17 85h-56l21 107h190z" />
    <glyph glyph-name="H" unicode="H" horiz-adv-x="486" 
d="M-1 0l142 712h134l-58 -290h114l58 290h134l-142 -712h-134l60 302h-114l-60 -302h-134z" />
    <glyph glyph-name="I" unicode="I" horiz-adv-x="238" 
d="M-1 0l142 712h134l-142 -712h-134z" />
    <glyph glyph-name="J" unicode="J" horiz-adv-x="399" 
d="M-31 66l102 75q21 -29 52 -29q63 0 82 93l101 507h134l-101 -507q-22 -109 -71 -157q-59 -56 -148 -56q-107 0 -151 74z" />
    <glyph glyph-name="K" unicode="K" horiz-adv-x="477" 
d="M-1 0l142 712h134l-56 -281l175 281h145l-194 -296l74 -416h-135l-46 271l-73 -107l-32 -164h-134z" />
    <glyph glyph-name="L" unicode="L" horiz-adv-x="386" 
d="M-1 0l142 712h134l-118 -592h178l-24 -120h-312z" />
    <glyph glyph-name="M" unicode="M" horiz-adv-x="587" 
d="M-1 0l142 712h118l54 -344l193 344h118l-142 -712h-134l75 375l-123 -243h-69l-23 243l-75 -375h-134z" />
    <glyph glyph-name="N" unicode="N" horiz-adv-x="486" 
d="M-1 0l142 712h109l72 -361l67 361h134l-142 -712h-104l-73 360l-71 -360h-134z" />
    <glyph glyph-name="O" unicode="O" horiz-adv-x="460" 
d="M50 356q31 152 52.5 212.5t56.5 95.5q56 56 149 56q103 0 142 -69q23 -41 23 -103q0 -63 -27 -192q-31 -152 -52.5 -212.5t-56.5 -95.5q-56 -56 -149 -56q-103 0 -142 69q-23 41 -23 103q0 63 27 192zM184 356q-27 -135 -27 -190q0 -54 44 -54q24 0 43 19q17 17 31 64
t37 161q27 135 27 190q0 54 -44 54q-24 0 -43 -19q-17 -17 -31 -64t-37 -161z" />
    <glyph glyph-name="P" unicode="P" horiz-adv-x="462" 
d="M-1 0l142 712h181q86 0 127 -41q36 -36 36 -101q0 -45 -8 -85q-26 -130 -79 -178.5t-148 -48.5h-66l-51 -258h-134zM208 378h49q39 0 56.5 24.5t29.5 82.5q7 35 7 56q0 26 -12 38.5t-41 12.5h-46z" />
    <glyph glyph-name="Q" unicode="Q" horiz-adv-x="460" 
d="M50 356q31 152 52.5 212.5t56.5 95.5q56 56 149 56q103 0 142 -69q23 -41 23 -103q0 -63 -27 -192q-42 -205 -75 -262l42 -45l-70 -71l-40 42q-46 -28 -115 -28q-103 0 -142 69q-23 41 -23 103q0 63 27 192zM184 356q-27 -135 -27 -190q0 -54 44 -54q10 0 19 3l-28 30
l65 66l17 -19q12 37 38 164q27 135 27 190q0 54 -44 54q-24 0 -43 -19q-17 -17 -31 -64t-37 -161z" />
    <glyph glyph-name="R" unicode="R" horiz-adv-x="478" 
d="M-1 0l142 712h189q80 0 118.5 -36.5t38.5 -97.5q0 -36 -9 -83q-18 -88 -43 -126t-72 -63l38 -306h-134l-30 281h-48l-56 -281h-134zM212 397h58q34 0 49.5 26.5t24.5 71.5q6 34 6 49q0 24 -10 36t-36 12h-53z" />
    <glyph glyph-name="S" unicode="S" horiz-adv-x="444" 
d="M18 203h134q-4 -23 -4 -41q0 -25 11 -36q14 -14 35 -14q29 0 46 17q18 18 27 62q5 25 5 53q0 37 -47 58l-69 33q-77 36 -77 116q0 40 9 85q18 89 60 131q53 53 142 53q88 0 133 -45q32 -32 32 -92q0 -38 -6 -72h-134q5 25 5 44q0 25 -10 35q-11 11 -29 11q-23 0 -38 -15
t-22 -50q-5 -25 -5 -44q0 -34 36 -50l57 -27q56 -26 78.5 -55t22.5 -75q0 -50 -9 -95q-12 -59 -26 -90.5t-37 -54.5q-53 -53 -156 -53q-90 0 -135 45q-36 36 -36 94q0 31 7 72z" />
    <glyph glyph-name="T" unicode="T" 
d="M80 0l118 592h-114l24 120h362l-24 -120h-114l-118 -592h-134z" />
    <glyph glyph-name="U" unicode="U" horiz-adv-x="476" 
d="M33 196l103 516h134l-105 -525q-3 -17 -3 -28q0 -47 48 -47q54 0 68 70l106 530h134l-106 -531q-19 -93 -73 -141t-146 -48q-80 0 -125 45q-40 40 -40 108q0 26 5 51z" />
    <glyph glyph-name="V" unicode="V" horiz-adv-x="451" 
d="M102 0l-9 712h148l-29 -507l176 507h148l-294 -712h-140z" />
    <glyph glyph-name="W" unicode="W" horiz-adv-x="746" 
d="M85 0l8 712h143l-31 -513l182 513h149l-12 -513l164 513h143l-267 -712h-152l8 504l-183 -504h-152z" />
    <glyph glyph-name="X" unicode="X" horiz-adv-x="442" 
d="M-41 0l202 372l-58 340h145l17 -208l97 208h152l-201 -348l68 -364h-145l-27 222l-99 -222h-151z" />
    <glyph glyph-name="Y" unicode="Y" horiz-adv-x="408" 
d="M84 0l54 273l-45 439h139l7 -264l107 264h146l-222 -449l-52 -263h-134z" />
    <glyph glyph-name="Z" unicode="Z" horiz-adv-x="380" 
d="M-22 0l19 97l277 495h-169l24 120h312l-19 -97l-277 -495h180l-24 -120h-323z" />
    <glyph glyph-name="bracketleft" unicode="[" horiz-adv-x="292" 
d="M-23 -74l172 860h221l-23 -114h-91l-126 -632h91l-23 -114h-221z" />
    <glyph glyph-name="backslash" unicode="\" horiz-adv-x="313" 
d="M121 -74l-17 860h124l17 -860h-124z" />
    <glyph glyph-name="bracketright" unicode="]" horiz-adv-x="292" 
d="M351 786l-172 -860h-221l23 114h91l126 632h-91l23 114h221z" />
    <glyph glyph-name="asciicircum" unicode="^" horiz-adv-x="448" 
d="M64 432l196 284h110l82 -284h-116l-41 154l-102 -154h-129z" />
    <glyph glyph-name="underscore" unicode="_" horiz-adv-x="450" 
d="M-66 -68h449l-19 -96h-449z" />
    <glyph glyph-name="grave" unicode="`" 
d="M224 586l-57 143h100l43 -143h-86z" />
    <glyph glyph-name="a" unicode="a" horiz-adv-x="404" 
d="M8 43q-15 27 -15 69q0 26 6 56q15 74 71 117q45 34 131 34h44l11 55q3 15 3 26q0 32 -31 32q-18 0 -30 -12t-18 -40h-128q17 83 66 126q45 40 125 40q84 0 119 -45q25 -32 25 -86q0 -27 -6 -57l-71 -358h-120l9 45q-20 -25 -40 -37q-25 -16 -57 -16q-64 0 -94 51z
M126 146q0 -40 37 -40q40 0 52 61l13 63h-22q-35 0 -52 -13q-28 -23 -28 -71z" />
    <glyph glyph-name="b" unicode="b" horiz-adv-x="411" 
d="M202 -8q-30 0 -50 14q-19 13 -31 34l-8 -40h-122l142 712h128l-41 -205q19 19 33 26q24 13 51 13q63 0 87 -44q16 -31 16 -71q0 -47 -23 -162q-24 -118 -40 -165t-38 -69q-43 -43 -104 -43zM256 269q19 95 19 125q0 21 -9 30q-8 8 -22 8q-18 0 -30 -12q-14 -14 -20 -43
l-43 -216q-3 -15 -3 -23q0 -16 9 -25q7 -7 22 -7q18 0 32 14q19 19 45 149z" />
    <glyph glyph-name="c" unicode="c" horiz-adv-x="389" 
d="M29 269q20 99 36 144t42 76q47 57 140 57t126 -63q17 -33 17 -78q0 -18 -2 -32h-127q2 12 2 24q0 18 -9 27q-8 8 -21 8q-24 0 -37 -21q-15 -23 -39 -142q-21 -101 -21 -128q0 -18 9 -27q8 -8 22 -8q18 0 29 11q14 14 23 48h128q-18 -73 -53 -116q-47 -57 -141 -57
q-93 0 -126 63q-17 33 -17 80q0 36 19 134z" />
    <glyph glyph-name="d" unicode="d" horiz-adv-x="411" 
d="M5 107q0 47 23 162q24 118 40 165t38 69q43 43 105 43q29 0 49 -14q16 -12 27 -26l41 206h128l-142 -712h-122l7 39q-19 -23 -40 -34q-24 -13 -51 -13q-63 0 -87 44q-16 31 -16 71zM156 269q-19 -95 -19 -125q0 -21 9 -30q8 -8 22 -8q18 0 30 12q14 14 20 43l43 216
q3 15 3 23q0 16 -9 25q-7 7 -22 7q-18 0 -32 -14q-19 -19 -45 -149z" />
    <glyph glyph-name="e" unicode="e" horiz-adv-x="399" 
d="M27 55q-17 33 -17 80q0 36 19 134q20 99 36 144t42 76q47 57 143 57q80 0 115 -50q23 -33 23 -90q0 -54 -25 -179h-215q-12 -65 -12 -86q0 -18 9 -27q8 -8 22 -8q18 0 29 11q14 14 23 48h128q-18 -73 -53 -116q-47 -57 -141 -57q-93 0 -126 63zM168 322h86q10 47 10 74
q0 36 -31 36q-24 0 -37 -21q-12 -19 -28 -89z" />
    <glyph glyph-name="f" unicode="f" horiz-adv-x="276" 
d="M13 0l84 421h-47l19 96h47l6 29q21 103 82 144q28 19 57.5 24.5t86.5 5.5l-23 -114q-35 0 -52.5 -17.5t-24.5 -52.5l-4 -19h63l-19 -96h-63l-84 -421h-128z" />
    <glyph glyph-name="g" unicode="g" horiz-adv-x="411" 
d="M421 538l-110 -550q-18 -91 -65 -131q-47 -39 -127 -39q-68 0 -107 36t-39 96q0 14 3 33h127q-1 -7 -1 -18q0 -33 32 -33q18 0 31 13q12 12 17 37l17 85q-16 -18 -33 -26q-26 -13 -52 -13q-62 0 -86 44q-16 31 -16 71q0 44 20 144q22 110 37 151.5t37 64.5q43 43 104 43
q30 0 50 -14q19 -13 31 -34l8 40h122zM160 287q-16 -80 -16 -107q0 -19 10 -29q9 -9 25 -9t28 12t18 43l36 180q3 15 3 23q0 15 -9 24q-8 8 -22 8q-18 0 -32 -14q-19 -18 -41 -131z" />
    <glyph glyph-name="h" unicode="h" horiz-adv-x="422" 
d="M-9 0l142 712h128l-41 -205q23 21 35 27q24 12 51 12q62 0 89 -45q15 -26 15 -66q0 -15 -9 -61l-74 -374h-128l74 373q4 20 4 27q0 15 -9 23.5t-23 8.5q-40 0 -52 -59l-74 -373h-128z" />
    <glyph glyph-name="i" unicode="i" horiz-adv-x="216" 
d="M-9 0l103 517h128l-103 -517h-128zM106 578l27 134h128l-27 -134h-128z" />
    <glyph glyph-name="j" unicode="j" horiz-adv-x="216" 
d="M-8 10l102 507h128l-104 -517q-21 -103 -82 -144q-28 -19 -57.5 -24.5t-86.5 -5.5l23 114q35 0 52.5 17.5t24.5 52.5zM106 578l27 134h128l-27 -134h-128z" />
    <glyph glyph-name="k" unicode="k" horiz-adv-x="427" 
d="M-9 0l142 712h128l-73 -367l145 193h142l-177 -226l67 -312h-127l-44 202l-47 -60l-28 -142h-128z" />
    <glyph glyph-name="l" unicode="l" horiz-adv-x="249" 
d="M56 35q-37 34 -37 93q0 25 5 50l107 534h128l-105 -525q-3 -15 -3 -30q0 -43 50 -43l-22 -114q-83 0 -123 35z" />
    <glyph glyph-name="m" unicode="m" horiz-adv-x="630" 
d="M-9 0l107 538h122l-8 -38q24 24 43 34q24 12 51 12q67 0 93 -53q30 28 58 41q24 12 57 12q62 0 89 -45q15 -26 15 -66q0 -15 -9 -61l-74 -374h-128l74 373q4 20 4 27q0 15 -9 23.5t-23 8.5q-40 0 -52 -59l-74 -373h-128l74 373q4 20 4 27q0 15 -9 23.5t-23 8.5
q-40 0 -52 -59l-74 -373h-128z" />
    <glyph glyph-name="n" unicode="n" horiz-adv-x="422" 
d="M-9 0l107 538h122l-8 -38q24 24 43 34q24 12 51 12q62 0 89 -45q15 -26 15 -66q0 -15 -9 -61l-74 -374h-128l74 373q4 20 4 27q0 15 -9 23.5t-23 8.5q-40 0 -52 -59l-74 -373h-128z" />
    <glyph glyph-name="o" unicode="o" 
d="M157 269q-21 -101 -21 -128q0 -18 9 -27q8 -8 22 -8q24 0 37 21q15 23 39 142q21 101 21 128q0 18 -9 27q-8 8 -22 8q-24 0 -37 -21q-15 -23 -39 -142zM29 269q20 99 36 144t42 76q47 57 140 57t126 -63q17 -33 17 -80q0 -36 -19 -134q-20 -99 -36 -144t-42 -76
q-48 -57 -140 -57q-93 0 -126 63q-17 33 -17 80q0 36 19 134z" />
    <glyph glyph-name="p" unicode="p" horiz-adv-x="411" 
d="M98 538h122l-7 -39q19 23 40 34q24 13 51 13q63 0 87 -44q16 -31 16 -71q0 -43 -23 -162q-24 -119 -40 -165.5t-38 -68.5q-43 -43 -105 -43q-29 0 -49 14q-16 12 -27 26l-41 -206h-128zM194 377l-43 -216q-3 -15 -3 -23q0 -16 9 -25q7 -7 22 -7q18 0 32 14q19 19 45 149
q19 95 19 125q0 21 -9 30q-8 8 -22 8q-18 0 -30 -12q-14 -14 -20 -43z" />
    <glyph glyph-name="q" unicode="q" horiz-adv-x="411" 
d="M210 546q30 0 50 -14q19 -13 31 -34l8 40h122l-142 -712h-128l41 205q-19 -19 -33 -26q-24 -13 -51 -13q-63 0 -87 44q-16 31 -16 71q0 43 23 162q24 119 40 165.5t38 68.5q43 43 104 43zM156 269q-19 -95 -19 -125q0 -21 9 -30q8 -8 22 -8q18 0 30 12q14 14 20 43
l43 216q3 15 3 23q0 16 -9 25q-7 7 -22 7q-18 0 -32 -14q-19 -19 -45 -149z" />
    <glyph glyph-name="r" unicode="r" horiz-adv-x="315" 
d="M-9 0l107 538h122l-11 -58q22 29 56 47q37 19 89 19l-25 -126h-47q-33 0 -61 -25t-37 -67l-65 -328h-128z" />
    <glyph glyph-name="s" unicode="s" horiz-adv-x="386" 
d="M29 36q-32 32 -32 88q0 17 4 37h126q-1 -6 -1 -16q0 -17 9 -27q10 -12 31 -12q23 0 35 16t12 38q0 34 -42 54l-49 23q-75 35 -75 119q0 92 61 148q45 42 126 42q83 0 120 -47q27 -33 27 -80q0 -17 -4 -37h-122q1 7 1 16q0 15 -10 25q-9 9 -27 9t-30 -12q-14 -14 -14 -39
q0 -29 35 -45l48 -22q84 -39 84 -132q0 -45 -17.5 -84t-43.5 -62q-50 -44 -129 -44q-80 0 -123 44z" />
    <glyph glyph-name="t" unicode="t" horiz-adv-x="276" 
d="M44 128q0 25 5 50l49 243h-48l19 96h47l30 147h128l-30 -147h63l-19 -96h-62l-47 -234q-3 -15 -3 -30q0 -43 50 -43l-22 -114q-83 0 -123 35q-37 34 -37 93z" />
    <glyph glyph-name="u" unicode="u" horiz-adv-x="422" 
d="M432 538l-107 -538h-122l8 38q-24 -24 -43 -34q-24 -12 -51 -12q-62 0 -89 45q-15 26 -15 66q0 15 9 61l74 374h128l-74 -373q-4 -20 -4 -27q0 -15 9 -23.5t23 -8.5q40 0 52 59l74 373h128z" />
    <glyph glyph-name="v" unicode="v" horiz-adv-x="404" 
d="M81 0l-23 538h136l-6 -337l130 337h136l-237 -538h-136z" />
    <glyph glyph-name="w" unicode="w" horiz-adv-x="605" 
d="M65 0l-7 538h133l-19 -331l134 331h100l3 -332l109 332h137l-224 -538h-114l-5 310l-130 -310h-117z" />
    <glyph glyph-name="x" unicode="x" horiz-adv-x="412" 
d="M-42 0l171 276l-64 262h136l28 -148l81 148h143l-177 -272l77 -266h-136l-32 148l-84 -148h-143z" />
    <glyph glyph-name="y" unicode="y" horiz-adv-x="404" 
d="M-23 -60q44 2 60 8q26 10 44 52l-23 538h134l-6 -343l127 343h146l-260 -587q-19 -43 -42.5 -69t-56.5 -37.5t-63.5 -15t-82.5 -3.5z" />
    <glyph glyph-name="z" unicode="z" horiz-adv-x="336" 
d="M-27 0l18 94l196 330h-125l23 114h274l-19 -94l-203 -330h141l-22 -114h-283z" />
    <glyph glyph-name="braceleft" unicode="{" horiz-adv-x="344" 
d="M65 39q0 14 7 46l27 140q9 43 9 52q0 29 -37 29h-38l22 113h40q27 0 38 17t23 75l27 130q9 47 19.5 71.5t32.5 43.5q34 30 115 30h72l-23 -114h-33q-29 0 -42 -15t-23 -66l-27 -134q-10 -50 -38 -76q-18 -17 -52 -24q28 -8 40 -24q13 -17 13 -40q0 -21 -6 -52l-26 -129
q-7 -30 -7 -40q0 -18 8.5 -25t27.5 -7h39l-23 -114h-55q-73 0 -105 39q-25 29 -25 74z" />
    <glyph glyph-name="bar" unicode="|" horiz-adv-x="356" 
d="M46 -74l172 860h128l-172 -860h-128z" />
    <glyph glyph-name="braceright" unicode="}" horiz-adv-x="344" 
d="M315 673q0 -14 -7 -46l-27 -140q-9 -43 -9 -52q0 -29 37 -29h38l-22 -113h-40q-27 0 -38 -17t-23 -75l-27 -130q-9 -47 -19.5 -71.5t-32.5 -43.5q-34 -30 -115 -30h-72l23 114h33q29 0 42 15t23 66l27 134q10 50 38 76q18 17 52 24q-28 8 -40 24q-13 17 -13 40q0 21 6 52
l26 129q7 30 7 40q0 18 -8.5 25t-27.5 7h-39l23 114h55q73 0 105 -39q25 -29 25 -74z" />
    <glyph glyph-name="asciitilde" unicode="~" horiz-adv-x="450" 
d="M82 226l-63 83q83 73 148 73q44 0 84 -28q28 -20 61 -20q38 0 78 40l64 -83q-83 -73 -148 -73q-44 0 -84 28q-28 20 -61 20q-39 0 -79 -40z" />
    <glyph glyph-name="uni00A0" unicode="&#xa0;" horiz-adv-x="161" 
 />
    <glyph glyph-name="exclamdown" unicode="&#xa1;" horiz-adv-x="261" 
d="M193 331l-86 -505h-148l106 505h128zM246 538l-30 -150h-142l30 150h142z" />
    <glyph glyph-name="cent" unicode="&#xa2;" 
d="M39 236q0 51 17 130q18 89 34 136t40 74q37 40 101 49l17 87h97l-17 -87q31 -6 58 -37q29 -33 29 -93q0 -9 -2 -31h-127q1 4 1 14q0 18 -7 28q-8 9 -23 9q-24 0 -37 -20q-15 -22 -36 -129q-18 -90 -18 -113q0 -18 7 -26q8 -10 24 -10q20 0 33 15q12 14 17 36h127
q-12 -47 -27.5 -75t-41.5 -51q-29 -26 -81 -34l-21 -108h-97l21 107q-43 10 -66 46q-22 34 -22 83z" />
    <glyph glyph-name="sterling" unicode="&#xa3;" horiz-adv-x="472" 
d="M134 503q22 113 72 160q58 57 153 57q102 0 152 -74l-107 -79q-21 33 -54 33q-63 0 -82 -97l-19 -96h71l-19 -96h-71l-37 -188h217l-24 -123h-352l62 311h-59l19 96h59z" />
    <glyph glyph-name="currency" unicode="&#xa4;" horiz-adv-x="496" 
d="M70 295q0 41 20 83l-56 56l81 81l56 -56q42 20 83 20t83 -20l56 56l81 -81l-56 -56q20 -42 20 -83t-20 -83l56 -56l-81 -81l-56 56q-42 -20 -83 -20t-83 20l-56 -56l-81 81l56 56q-20 42 -20 83zM179 295q0 -31 22 -53t53 -22t53 22t22 53t-22 53t-53 22t-53 -22t-22 -53
z" />
    <glyph glyph-name="yen" unicode="&#xa5;" horiz-adv-x="410" 
d="M12 137l19 96h99l8 40l-3 30h-90l19 96h61l-32 313h139l8 -259l106 259h146l-155 -313h58l-19 -96h-86l-20 -40l-6 -30h98l-19 -96h-98l-27 -137h-134l27 137h-99z" />
    <glyph glyph-name="brokenbar" unicode="&#xa6;" horiz-adv-x="356" 
d="M46 -71l69 344h128l-69 -344h-128zM148 439l69 344h128l-69 -344h-128z" />
    <glyph glyph-name="section" unicode="&#xa7;" horiz-adv-x="430" 
d="M35 269q18 90 48 123q16 18 47 33q-36 29 -36 87q0 100 65 157q50 43 130 43q86 0 123 -47q27 -33 27 -80q0 -17 -4 -37h-122q1 7 1 16q0 15 -10 25q-9 9 -27 9q-17 0 -30 -11q-18 -15 -18 -44q0 -28 31 -43l66 -31q35 -16 53 -42q26 -39 26 -84q0 -24 -10 -74
q-17 -83 -43 -120q-17 -23 -50 -41q35 -28 35 -91q0 -95 -63 -152q-50 -45 -136 -45q-83 0 -126 44q-32 32 -32 87q0 17 4 37h128q-1 -7 -1 -17q0 -17 10 -27t30 -10q22 0 35 13q15 15 15 41q0 31 -35 48l-67 32q-34 16 -53 42q-22 30 -22 76q0 28 11 83zM163 269
q-7 -35 -7 -54q0 -21 10 -32q10 -12 30 -12q23 0 39 16q19 19 32 82q7 35 7 54q0 21 -10 32q-10 12 -30 12q-23 0 -39 -16q-19 -20 -32 -82z" />
    <glyph glyph-name="dieresis" unicode="&#xa8;" 
d="M114 590l24 120h115l-24 -120h-115zM301 590l24 120h115l-24 -120h-115z" />
    <glyph glyph-name="copyright" unicode="&#xa9;" horiz-adv-x="794" 
d="M516 272q-3 -56 -34 -87q-28 -28 -72 -28q-50 0 -81 38q-17 21 -22.5 57.5t-5.5 103.5t5.5 103.5t22.5 57.5q31 38 81 38q44 0 72 -28q31 -31 34 -87h-74q-2 27 -8 34q-8 11 -24 11q-18 0 -25 -15q-10 -20 -10 -114t10 -114q7 -15 25 -15q16 0 24 11q6 8 8 34h74z
M137 356q0 -122 77.5 -201t195.5 -79t195.5 79t77.5 201t-77.5 201t-195.5 79t-195.5 -79t-77.5 -201zM51 356q0 148 105.5 253.5t253.5 105.5t253.5 -105.5t105.5 -253.5t-105.5 -253.5t-253.5 -105.5t-253.5 105.5t-105.5 253.5z" />
    <glyph glyph-name="ordfeminine" unicode="&#xaa;" horiz-adv-x="334" 
d="M42 367q0 97 63 144q33 25 108 25h34l8 41q3 15 3 23q0 25 -25 25q-14 0 -24 -10q-9 -9 -13 -31h-105q14 69 52 101q37 32 102 32q62 0 90 -28t28 -78q0 -22 -5 -47l-56 -284h-99l7 35q-18 -19 -32 -27q-20 -11 -45 -11q-53 0 -77 38q-14 21 -14 52zM153 401
q0 -32 29 -32q33 0 42 49l9 45h-17q-28 0 -42 -10q-21 -18 -21 -52z" />
    <glyph glyph-name="guillemotleft" unicode="&#xab;" horiz-adv-x="415" 
d="M134 9l-111 271l220 270l-38 -187l-77 -90l41 -90zM324 9l-111 271l220 270l-38 -187l-77 -90l41 -90z" />
    <glyph glyph-name="logicalnot" unicode="&#xac;" horiz-adv-x="448" 
d="M47 259l24 120h350l-48 -242h-119l24 122h-231z" />
    <glyph glyph-name="uni00AD" unicode="&#xad;" horiz-adv-x="278" 
d="M34 235l24 120h198l-24 -120h-198z" />
    <glyph glyph-name="registered" unicode="&#xae;" horiz-adv-x="794" 
d="M526 434q0 -60 -25 -87q-7 -7 -18 -15l55 -169h-78l-45 152h-25v-152h-75v390h107q51 0 77 -26q27 -28 27 -93zM451 434q0 33 -8 41t-22 8h-31v-98h31q14 0 22 8t8 41zM137 356q0 -122 77.5 -201t195.5 -79t195.5 79t77.5 201t-77.5 201t-195.5 79t-195.5 -79t-77.5 -201
zM51 356q0 148 105.5 253.5t253.5 105.5t253.5 -105.5t105.5 -253.5t-105.5 -253.5t-253.5 -105.5t-253.5 105.5t-105.5 253.5z" />
    <glyph glyph-name="macron" unicode="&#xaf;" 
d="M134 600l16 81h252l-16 -81h-252z" />
    <glyph glyph-name="degree" unicode="&#xb0;" horiz-adv-x="406" 
d="M433 553q0 -72 -50.5 -122.5t-122.5 -50.5t-122.5 50.5t-50.5 122.5t50.5 122.5t122.5 50.5t122.5 -50.5t50.5 -122.5zM320 553q0 26 -17.5 44.5t-42.5 18.5t-42.5 -18.5t-17.5 -44.5t17.5 -44.5t42.5 -18.5t42.5 18.5t17.5 44.5z" />
    <glyph glyph-name="plusminus" unicode="&#xb1;" horiz-adv-x="448" 
d="M149 199l27 134h-123l24 120h123l26 134h122l-26 -134h123l-24 -120h-123l-27 -134h-122zM-13 0l24 120h368l-24 -120h-368z" />
    <glyph glyph-name="twosuperior" unicode="&#xb2;" horiz-adv-x="330" 
d="M63 285l13 65l152 196q13 16 23.5 40t10.5 37q0 22 -22 22q-25 0 -31 -29l-5 -24h-84l4 21q12 62 48 84q28 20 74 20q53 0 77 -27q23 -25 23 -57q0 -9 -2 -21q-12 -51 -47 -95l-127 -160h126l-14 -72h-219z" />
    <glyph glyph-name="threesuperior" unicode="&#xb3;" horiz-adv-x="330" 
d="M119 590l4 24q11 57 48 83q26 20 76 20q52 0 75 -26q19 -20 19 -56q0 -14 -4 -38q-8 -40 -25 -61q-12 -16 -30 -25q30 -17 30 -58q0 -18 -6 -44q-10 -49 -18 -67.5t-26 -34.5q-28 -27 -86 -27q-55 0 -80 28q-20 20 -20 50q0 17 4 37l2 12h84l-3 -15q-2 -10 -2 -19
q0 -21 22 -21q13 0 21 8q9 9 18 49q6 29 6 46q0 21 -22 21h-19l14 67h16q12 0 19 7q11 11 17 45q4 20 4 31q0 19 -18 19q-24 0 -30 -26l-6 -29h-84z" />
    <glyph glyph-name="acute" unicode="&#xb4;" 
d="M211 586l100 143h108l-118 -143h-90z" />
    <glyph glyph-name="mu" unicode="&#xb5;" horiz-adv-x="422" 
d="M-46 -174l142 712h128l-74 -373q-4 -20 -4 -27q0 -15 9 -23.5t23 -8.5q40 0 52 59l74 373h128l-107 -538h-122l7 38q-25 -25 -42 -34q-10 -5 -22 -8q-16 -4 -37 -4l-33 -166h-122z" />
    <glyph glyph-name="paragraph" unicode="&#xb6;" horiz-adv-x="607" 
d="M133 -174l89 448h-39q-58 0 -94 35t-36 98q0 33 11 88q23 122 66.5 169.5t121.5 47.5h399l-177 -886h-128l154 772h-85l-154 -772h-128z" />
    <glyph glyph-name="periodcentered" unicode="&#xb7;" horiz-adv-x="266" 
d="M36 213l34 170h172l-34 -170h-172z" />
    <glyph glyph-name="cedilla" unicode="&#xb8;" 
d="M13 -203l98 163h82l-84 -163h-96z" />
    <glyph glyph-name="onesuperior" unicode="&#xb9;" horiz-adv-x="330" 
d="M149 285l67 334l-65 -45l18 92l65 46h84l-85 -427h-84z" />
    <glyph glyph-name="ordmasculine" unicode="&#xba;" horiz-adv-x="332" 
d="M72 495q26 132 61 175q38 47 115 47q61 0 90 -29t29 -79q0 -39 -15 -114q-26 -132 -61 -175q-38 -47 -115 -47q-61 0 -90 29t-29 79q0 39 15 114zM178 495q-15 -75 -15 -99q0 -28 24 -28q18 0 29 16q11 18 30 111q15 75 15 99q0 28 -24 28q-18 0 -29 -16
q-11 -18 -30 -111z" />
    <glyph glyph-name="guillemotright" unicode="&#xbb;" horiz-adv-x="415" 
d="M97 550l111 -271l-220 -270l38 187l77 90l-41 90zM286 550l111 -271l-220 -270l38 187l77 90l-41 90z" />
    <glyph glyph-name="onequarter" unicode="&#xbc;" horiz-adv-x="777" 
d="M149 285l67 334l-65 -45l18 92l65 46h84l-85 -427h-84zM174 0l376 712h89l-376 -712h-89zM447 62l14 69l164 296h84l-158 -293h41l10 50h83l-9 -50h30l-15 -72h-29l-13 -62h-84l12 62h-130z" />
    <glyph glyph-name="onehalf" unicode="&#xbd;" horiz-adv-x="777" 
d="M149 285l67 334l-65 -45l18 92l65 46h84l-85 -427h-84zM174 0l376 712h89l-376 -712h-89zM453 0l13 65l152 196q13 16 23.5 40t10.5 37q0 22 -22 22q-25 0 -31 -29l-5 -24h-84l4 21q12 62 48 84q28 20 74 20q53 0 77 -27q23 -25 23 -57q0 -9 -2 -21q-12 -51 -47 -95
l-127 -160h126l-14 -72h-219z" />
    <glyph glyph-name="threequarters" unicode="&#xbe;" horiz-adv-x="777" 
d="M119 590l4 24q11 57 48 83q26 20 76 20q52 0 75 -26q19 -20 19 -56q0 -14 -4 -38q-8 -40 -25 -61q-12 -16 -30 -25q30 -17 30 -58q0 -18 -6 -44q-10 -49 -18 -67.5t-26 -34.5q-28 -27 -86 -27q-55 0 -80 28q-20 20 -20 50q0 17 4 37l2 12h84l-3 -15q-2 -10 -2 -19
q0 -21 22 -21q13 0 21 8q9 9 18 49q6 29 6 46q0 21 -22 21h-19l14 67h16q12 0 19 7q11 11 17 45q4 20 4 31q0 19 -18 19q-24 0 -30 -26l-6 -29h-84zM174 0l376 712h89l-376 -712h-89zM447 62l14 69l164 296h84l-158 -293h41l10 50h83l-9 -50h30l-15 -72h-29l-13 -62h-84
l12 62h-130z" />
    <glyph glyph-name="questiondown" unicode="&#xbf;" horiz-adv-x="434" 
d="M278 331l-12 -60q-7 -30 -17 -49t-37 -46l-67 -67q-32 -32 -44 -86q-6 -28 -6 -45q0 -22 11 -33t29 -11q22 0 39 17q16 16 28 76h127q-24 -121 -74 -163q-51 -44 -134 -44q-89 0 -128 51q-26 35 -26 86q0 35 7 70q10 50 25.5 80.5t40.5 55.5l64 64q32 32 37 59l9 45h128z
M326 538l-30 -150h-142l30 150h142z" />
    <glyph glyph-name="Agrave" unicode="&#xc0;" horiz-adv-x="492" 
d="M433 0h-135l1 115h-156l-46 -115h-144l316 712h132zM297 235l1 279l-107 -279h106zM301 755l-57 143h100l43 -143h-86z" />
    <glyph glyph-name="Aacute" unicode="&#xc1;" horiz-adv-x="492" 
d="M433 0h-135l1 115h-156l-46 -115h-144l316 712h132zM297 235l1 279l-107 -279h106zM291 755l100 143h108l-118 -143h-90z" />
    <glyph glyph-name="Acircumflex" unicode="&#xc2;" horiz-adv-x="492" 
d="M433 0h-135l1 115h-156l-46 -115h-144l316 712h132zM297 235l1 279l-107 -279h106zM416 900l72 -145h-86l-43 78l-71 -78h-96l130 145h94z" />
    <glyph glyph-name="Atilde" unicode="&#xc3;" horiz-adv-x="492" 
d="M433 0h-135l1 115h-156l-46 -115h-144l316 712h132zM297 235l1 279l-107 -279h106zM247 773l-44 59q50 45 97 45q33 0 62 -17q25 -14 47 -14q25 0 52 24l44 -59q-50 -45 -97 -45q-33 0 -62 17q-25 14 -47 14q-25 0 -52 -24z" />
    <glyph glyph-name="Adieresis" unicode="&#xc4;" horiz-adv-x="492" 
d="M433 0h-135l1 115h-156l-46 -115h-144l316 712h132zM297 235l1 279l-107 -279h106zM189 759l24 120h115l-24 -120h-115zM376 759l24 120h115l-24 -120h-115z" />
    <glyph glyph-name="Aring" unicode="&#xc5;" horiz-adv-x="492" 
d="M433 0h-135l1 115h-156l-46 -115h-144l316 712h132zM297 235l1 279l-107 -279h106zM306 865q0 -20 13 -33.5t31 -13.5t31 13.5t13 33.5t-13 33.5t-31 13.5t-31 -13.5t-13 -33.5zM240 865q0 46 32 78t78 32t78 -32t32 -78t-32 -78t-78 -32t-78 32t-32 78z" />
    <glyph glyph-name="AE" unicode="&#xc6;" horiz-adv-x="679" 
d="M-48 0l388 712h398l-24 -120h-178l-35 -173h153l-24 -120h-153l-35 -179h178l-24 -120h-312l25 125h-145l-63 -125h-149zM228 245h105l69 349z" />
    <glyph glyph-name="Ccedilla" unicode="&#xc7;" horiz-adv-x="450" 
d="M23 164q0 63 27 192q31 152 52.5 212.5t56.5 95.5q56 56 148 56q90 0 132 -52q34 -42 34 -110q0 -28 -2 -45h-134q2 15 2 37q0 50 -43 50q-25 0 -44 -19q-17 -17 -31 -64t-37 -161q-27 -135 -27 -190q0 -54 43 -54q32 0 51 27q16 23 25 61h136q-23 -110 -82 -162
q-52 -46 -142 -46q-103 0 -142 69q-23 41 -23 103zM41 -203l98 163h82l-84 -163h-96z" />
    <glyph glyph-name="Egrave" unicode="&#xc8;" horiz-adv-x="394" 
d="M-1 0l142 712h312l-24 -120h-178l-35 -173h153l-24 -120h-153l-35 -179h178l-24 -120h-312zM266 755l-57 143h100l43 -143h-86z" />
    <glyph glyph-name="Eacute" unicode="&#xc9;" horiz-adv-x="394" 
d="M-1 0l142 712h312l-24 -120h-178l-35 -173h153l-24 -120h-153l-35 -179h178l-24 -120h-312zM256 755l100 143h108l-118 -143h-90z" />
    <glyph glyph-name="Ecircumflex" unicode="&#xca;" horiz-adv-x="394" 
d="M-1 0l142 712h312l-24 -120h-178l-35 -173h153l-24 -120h-153l-35 -179h178l-24 -120h-312zM381 900l72 -145h-86l-43 78l-71 -78h-96l130 145h94z" />
    <glyph glyph-name="Edieresis" unicode="&#xcb;" horiz-adv-x="394" 
d="M-1 0l142 712h312l-24 -120h-178l-35 -173h153l-24 -120h-153l-35 -179h178l-24 -120h-312zM154 759l24 120h115l-24 -120h-115zM341 759l24 120h115l-24 -120h-115z" />
    <glyph glyph-name="Igrave" unicode="&#xcc;" horiz-adv-x="238" 
d="M-1 0l142 712h134l-142 -712h-134zM175 755l-57 143h100l43 -143h-86z" />
    <glyph glyph-name="Iacute" unicode="&#xcd;" horiz-adv-x="238" 
d="M-1 0l142 712h134l-142 -712h-134zM165 755l100 143h108l-118 -143h-90z" />
    <glyph glyph-name="Icircumflex" unicode="&#xce;" horiz-adv-x="238" 
d="M-1 0l142 712h134l-142 -712h-134zM290 900l72 -145h-86l-43 78l-71 -78h-96l130 145h94z" />
    <glyph glyph-name="Idieresis" unicode="&#xcf;" horiz-adv-x="238" 
d="M-1 0l142 712h134l-142 -712h-134zM63 759l24 120h115l-24 -120h-115zM250 759l24 120h115l-24 -120h-115z" />
    <glyph glyph-name="Eth" unicode="&#xd0;" horiz-adv-x="517" 
d="M43 0l61 306h-47l21 105h47l60 301h184q53 0 84 -17t53 -53q24 -38 24 -103q0 -36 -28 -182q-28 -140 -48 -201t-54 -95q-61 -61 -161 -61h-196zM201 120h49q39 0 61 31q22 33 57 206q28 138 28 182q0 25 -13 39q-12 14 -35 14h-53l-36 -181h57l-21 -105h-57z" />
    <glyph glyph-name="Ntilde" unicode="&#xd1;" horiz-adv-x="486" 
d="M-1 0l142 712h109l72 -361l67 361h134l-142 -712h-104l-73 360l-71 -360h-134zM250 773l-44 59q50 45 97 45q33 0 62 -17q25 -14 47 -14q25 0 52 24l44 -59q-50 -45 -97 -45q-33 0 -62 17q-25 14 -47 14q-25 0 -52 -24z" />
    <glyph glyph-name="Ograve" unicode="&#xd2;" horiz-adv-x="460" 
d="M50 356q31 152 52.5 212.5t56.5 95.5q56 56 149 56q103 0 142 -69q23 -41 23 -103q0 -63 -27 -192q-31 -152 -52.5 -212.5t-56.5 -95.5q-56 -56 -149 -56q-103 0 -142 69q-23 41 -23 103q0 63 27 192zM184 356q-27 -135 -27 -190q0 -54 44 -54q24 0 43 19q17 17 31 64
t37 161q27 135 27 190q0 54 -44 54q-24 0 -43 -19q-17 -17 -31 -64t-37 -161zM285 755l-57 143h100l43 -143h-86z" />
    <glyph glyph-name="Oacute" unicode="&#xd3;" horiz-adv-x="460" 
d="M50 356q31 152 52.5 212.5t56.5 95.5q56 56 149 56q103 0 142 -69q23 -41 23 -103q0 -63 -27 -192q-31 -152 -52.5 -212.5t-56.5 -95.5q-56 -56 -149 -56q-103 0 -142 69q-23 41 -23 103q0 63 27 192zM184 356q-27 -135 -27 -190q0 -54 44 -54q24 0 43 19q17 17 31 64
t37 161q27 135 27 190q0 54 -44 54q-24 0 -43 -19q-17 -17 -31 -64t-37 -161zM275 755l100 143h108l-118 -143h-90z" />
    <glyph glyph-name="Ocircumflex" unicode="&#xd4;" horiz-adv-x="460" 
d="M50 356q31 152 52.5 212.5t56.5 95.5q56 56 149 56q103 0 142 -69q23 -41 23 -103q0 -63 -27 -192q-31 -152 -52.5 -212.5t-56.5 -95.5q-56 -56 -149 -56q-103 0 -142 69q-23 41 -23 103q0 63 27 192zM184 356q-27 -135 -27 -190q0 -54 44 -54q24 0 43 19q17 17 31 64
t37 161q27 135 27 190q0 54 -44 54q-24 0 -43 -19q-17 -17 -31 -64t-37 -161zM400 900l72 -145h-86l-43 78l-71 -78h-96l130 145h94z" />
    <glyph glyph-name="Otilde" unicode="&#xd5;" horiz-adv-x="460" 
d="M50 356q31 152 52.5 212.5t56.5 95.5q56 56 149 56q103 0 142 -69q23 -41 23 -103q0 -63 -27 -192q-31 -152 -52.5 -212.5t-56.5 -95.5q-56 -56 -149 -56q-103 0 -142 69q-23 41 -23 103q0 63 27 192zM184 356q-27 -135 -27 -190q0 -54 44 -54q24 0 43 19q17 17 31 64
t37 161q27 135 27 190q0 54 -44 54q-24 0 -43 -19q-17 -17 -31 -64t-37 -161zM231 773l-44 59q50 45 97 45q33 0 62 -17q25 -14 47 -14q25 0 52 24l44 -59q-50 -45 -97 -45q-33 0 -62 17q-25 14 -47 14q-25 0 -52 -24z" />
    <glyph glyph-name="Odieresis" unicode="&#xd6;" horiz-adv-x="460" 
d="M50 356q31 152 52.5 212.5t56.5 95.5q56 56 149 56q103 0 142 -69q23 -41 23 -103q0 -63 -27 -192q-31 -152 -52.5 -212.5t-56.5 -95.5q-56 -56 -149 -56q-103 0 -142 69q-23 41 -23 103q0 63 27 192zM184 356q-27 -135 -27 -190q0 -54 44 -54q24 0 43 19q17 17 31 64
t37 161q27 135 27 190q0 54 -44 54q-24 0 -43 -19q-17 -17 -31 -64t-37 -161zM173 759l24 120h115l-24 -120h-115zM360 759l24 120h115l-24 -120h-115z" />
    <glyph glyph-name="multiply" unicode="&#xd7;" horiz-adv-x="448" 
d="M20 187l130 113l-84 113l91 80l84 -112l130 113l69 -91l-130 -113l84 -113l-91 -80l-84 113l-130 -114z" />
    <glyph glyph-name="Oslash" unicode="&#xd8;" horiz-adv-x="460" 
d="M50 356q31 152 52.5 212.5t56.5 95.5q56 56 149 56q58 0 94 -21l32 57h84l-64 -113q19 -38 19 -95q0 -63 -27 -192q-31 -152 -52.5 -212.5t-56.5 -95.5q-56 -56 -149 -56q-57 0 -94 20l-32 -56h-84l64 112q-19 39 -19 96q0 63 27 192zM312 356q8 40 14 74l-165 -293
q9 -25 40 -25q24 0 43 19q17 17 31 64t37 161zM184 356q-4 -19 -13 -70l163 290q-9 24 -39 24q-24 0 -43 -19q-17 -17 -31 -64t-37 -161z" />
    <glyph glyph-name="Ugrave" unicode="&#xd9;" horiz-adv-x="476" 
d="M33 196l103 516h134l-105 -525q-3 -17 -3 -28q0 -47 48 -47q54 0 68 70l106 530h134l-106 -531q-19 -93 -73 -141t-146 -48q-80 0 -125 45q-40 40 -40 108q0 26 5 51zM293 755l-57 143h100l43 -143h-86z" />
    <glyph glyph-name="Uacute" unicode="&#xda;" horiz-adv-x="476" 
d="M33 196l103 516h134l-105 -525q-3 -17 -3 -28q0 -47 48 -47q54 0 68 70l106 530h134l-106 -531q-19 -93 -73 -141t-146 -48q-80 0 -125 45q-40 40 -40 108q0 26 5 51zM283 755l100 143h108l-118 -143h-90z" />
    <glyph glyph-name="Ucircumflex" unicode="&#xdb;" horiz-adv-x="476" 
d="M33 196l103 516h134l-105 -525q-3 -17 -3 -28q0 -47 48 -47q54 0 68 70l106 530h134l-106 -531q-19 -93 -73 -141t-146 -48q-80 0 -125 45q-40 40 -40 108q0 26 5 51zM408 900l72 -145h-86l-43 78l-71 -78h-96l130 145h94z" />
    <glyph glyph-name="Udieresis" unicode="&#xdc;" horiz-adv-x="476" 
d="M33 196l103 516h134l-105 -525q-3 -17 -3 -28q0 -47 48 -47q54 0 68 70l106 530h134l-106 -531q-19 -93 -73 -141t-146 -48q-80 0 -125 45q-40 40 -40 108q0 26 5 51zM181 759l24 120h115l-24 -120h-115zM368 759l24 120h115l-24 -120h-115z" />
    <glyph glyph-name="Yacute" unicode="&#xdd;" horiz-adv-x="408" 
d="M84 0l54 273l-45 439h139l7 -264l107 264h146l-222 -449l-52 -263h-134zM244 755l100 143h108l-118 -143h-90z" />
    <glyph glyph-name="Thorn" unicode="&#xde;" horiz-adv-x="463" 
d="M159 134l-26 -134h-134l142 712h134l-25 -124h47q86 0 127 -41q36 -36 36 -101q0 -45 -8 -85q-26 -130 -79 -178.5t-148 -48.5h-66zM183 254h49q39 0 56.5 24.5t29.5 82.5q7 35 7 56q0 26 -12 38.5t-41 12.5h-46z" />
    <glyph glyph-name="germandbls" unicode="&#xdf;" horiz-adv-x="420" 
d="M-9 0l109 547q18 91 69 133q49 40 127 40q82 0 119 -46q28 -35 28 -91q0 -37 -11.5 -87.5t-28.5 -75.5q-19 -30 -49 -49q37 -30 37 -85q0 -27 -10 -77q-15 -74 -30.5 -108t-45.5 -60q-27 -24 -59.5 -32.5t-83.5 -8.5l22 114q25 0 39 14q18 18 33 94q9 45 9 64
q0 36 -32 36h-7l21 106h8q17 0 28 13.5t15 27t10 41.5q9 45 9 61q0 35 -34 35q-44 0 -55 -59l-109 -547h-128z" />
    <glyph glyph-name="agrave" unicode="&#xe0;" horiz-adv-x="404" 
d="M8 43q-15 27 -15 69q0 26 6 56q15 74 71 117q45 34 131 34h44l11 55q3 15 3 26q0 32 -31 32q-18 0 -30 -12t-18 -40h-128q17 83 66 126q45 40 125 40q84 0 119 -45q25 -32 25 -86q0 -27 -6 -57l-71 -358h-120l9 45q-20 -25 -40 -37q-25 -16 -57 -16q-64 0 -94 51z
M126 146q0 -40 37 -40q40 0 52 61l13 63h-22q-35 0 -52 -13q-28 -23 -28 -71zM221 586l-57 143h100l43 -143h-86z" />
    <glyph glyph-name="aacute" unicode="&#xe1;" horiz-adv-x="404" 
d="M8 43q-15 27 -15 69q0 26 6 56q15 74 71 117q45 34 131 34h44l11 55q3 15 3 26q0 32 -31 32q-18 0 -30 -12t-18 -40h-128q17 83 66 126q45 40 125 40q84 0 119 -45q25 -32 25 -86q0 -27 -6 -57l-71 -358h-120l9 45q-20 -25 -40 -37q-25 -16 -57 -16q-64 0 -94 51z
M126 146q0 -40 37 -40q40 0 52 61l13 63h-22q-35 0 -52 -13q-28 -23 -28 -71zM211 586l100 143h108l-118 -143h-90z" />
    <glyph glyph-name="acircumflex" unicode="&#xe2;" horiz-adv-x="404" 
d="M8 43q-15 27 -15 69q0 26 6 56q15 74 71 117q45 34 131 34h44l11 55q3 15 3 26q0 32 -31 32q-18 0 -30 -12t-18 -40h-128q17 83 66 126q45 40 125 40q84 0 119 -45q25 -32 25 -86q0 -27 -6 -57l-71 -358h-120l9 45q-20 -25 -40 -37q-25 -16 -57 -16q-64 0 -94 51z
M126 146q0 -40 37 -40q40 0 52 61l13 63h-22q-35 0 -52 -13q-28 -23 -28 -71zM336 731l72 -145h-86l-43 78l-71 -78h-96l130 145h94z" />
    <glyph glyph-name="atilde" unicode="&#xe3;" horiz-adv-x="404" 
d="M8 43q-15 27 -15 69q0 26 6 56q15 74 71 117q45 34 131 34h44l11 55q3 15 3 26q0 32 -31 32q-18 0 -30 -12t-18 -40h-128q17 83 66 126q45 40 125 40q84 0 119 -45q25 -32 25 -86q0 -27 -6 -57l-71 -358h-120l9 45q-20 -25 -40 -37q-25 -16 -57 -16q-64 0 -94 51z
M126 146q0 -40 37 -40q40 0 52 61l13 63h-22q-35 0 -52 -13q-28 -23 -28 -71zM167 604l-44 59q50 45 97 45q33 0 62 -17q25 -14 47 -14q25 0 52 24l44 -59q-50 -45 -97 -45q-33 0 -62 17q-25 14 -47 14q-25 0 -52 -24z" />
    <glyph glyph-name="adieresis" unicode="&#xe4;" horiz-adv-x="404" 
d="M8 43q-15 27 -15 69q0 26 6 56q15 74 71 117q45 34 131 34h44l11 55q3 15 3 26q0 32 -31 32q-18 0 -30 -12t-18 -40h-128q17 83 66 126q45 40 125 40q84 0 119 -45q25 -32 25 -86q0 -27 -6 -57l-71 -358h-120l9 45q-20 -25 -40 -37q-25 -16 -57 -16q-64 0 -94 51z
M126 146q0 -40 37 -40q40 0 52 61l13 63h-22q-35 0 -52 -13q-28 -23 -28 -71zM109 590l24 120h115l-24 -120h-115zM296 590l24 120h115l-24 -120h-115z" />
    <glyph glyph-name="aring" unicode="&#xe5;" horiz-adv-x="404" 
d="M8 43q-15 27 -15 69q0 26 6 56q15 74 71 117q45 34 131 34h44l11 55q3 15 3 26q0 32 -31 32q-18 0 -30 -12t-18 -40h-128q17 83 66 126q45 40 125 40q84 0 119 -45q25 -32 25 -86q0 -27 -6 -57l-71 -358h-120l9 45q-20 -25 -40 -37q-25 -16 -57 -16q-64 0 -94 51z
M126 146q0 -40 37 -40q40 0 52 61l13 63h-22q-35 0 -52 -13q-28 -23 -28 -71zM226 699q0 -20 13 -33.5t31 -13.5t31 13.5t13 33.5t-13 33.5t-31 13.5t-31 -13.5t-13 -33.5zM160 699q0 46 32 78t78 32t78 -32t32 -78t-32 -78t-78 -32t-78 32t-32 78z" />
    <glyph glyph-name="ae" unicode="&#xe6;" horiz-adv-x="604" 
d="M-1 168q15 74 71 117q45 34 131 34h44l11 55q3 15 3 26q0 32 -31 32q-18 0 -30 -12t-18 -40h-128q17 83 66 126q45 40 125 40q63 0 101 -30q46 30 111 30q80 0 115 -50q23 -33 23 -90q0 -54 -25 -179h-215q-12 -65 -12 -86q0 -18 9 -27q8 -8 22 -8q18 0 29 11
q14 14 23 48h128q-18 -73 -53 -116q-47 -57 -141 -57q-53 0 -80 13q-28 14 -52 48q-25 -34 -59 -49q-29 -12 -65 -12q-64 0 -94 51q-15 27 -15 69q0 26 6 56zM126 146q0 -40 37 -40q40 0 52 61l13 63h-22q-35 0 -52 -13q-28 -23 -28 -71zM373 322h86q10 47 10 74
q0 36 -31 36q-24 0 -37 -21q-12 -19 -28 -89z" />
    <glyph glyph-name="ccedilla" unicode="&#xe7;" horiz-adv-x="389" 
d="M29 269q20 99 36 144t42 76q47 57 140 57t126 -63q17 -33 17 -78q0 -18 -2 -32h-127q2 12 2 24q0 18 -9 27q-8 8 -21 8q-24 0 -37 -21q-15 -23 -39 -142q-21 -101 -21 -128q0 -18 9 -27q8 -8 22 -8q18 0 29 11q14 14 23 48h128q-18 -73 -53 -116q-47 -57 -141 -57
q-93 0 -126 63q-17 33 -17 80q0 36 19 134zM10 -203l98 163h82l-84 -163h-96z" />
    <glyph glyph-name="egrave" unicode="&#xe8;" horiz-adv-x="399" 
d="M27 55q-17 33 -17 80q0 36 19 134q20 99 36 144t42 76q47 57 143 57q80 0 115 -50q23 -33 23 -90q0 -54 -25 -179h-215q-12 -65 -12 -86q0 -18 9 -27q8 -8 22 -8q18 0 29 11q14 14 23 48h128q-18 -73 -53 -116q-47 -57 -141 -57q-93 0 -126 63zM168 322h86q10 47 10 74
q0 36 -31 36q-24 0 -37 -21q-12 -19 -28 -89zM221 586l-57 143h100l43 -143h-86z" />
    <glyph glyph-name="eacute" unicode="&#xe9;" horiz-adv-x="399" 
d="M27 55q-17 33 -17 80q0 36 19 134q20 99 36 144t42 76q47 57 143 57q80 0 115 -50q23 -33 23 -90q0 -54 -25 -179h-215q-12 -65 -12 -86q0 -18 9 -27q8 -8 22 -8q18 0 29 11q14 14 23 48h128q-18 -73 -53 -116q-47 -57 -141 -57q-93 0 -126 63zM168 322h86q10 47 10 74
q0 36 -31 36q-24 0 -37 -21q-12 -19 -28 -89zM211 586l100 143h108l-118 -143h-90z" />
    <glyph glyph-name="ecircumflex" unicode="&#xea;" horiz-adv-x="399" 
d="M27 55q-17 33 -17 80q0 36 19 134q20 99 36 144t42 76q47 57 143 57q80 0 115 -50q23 -33 23 -90q0 -54 -25 -179h-215q-12 -65 -12 -86q0 -18 9 -27q8 -8 22 -8q18 0 29 11q14 14 23 48h128q-18 -73 -53 -116q-47 -57 -141 -57q-93 0 -126 63zM168 322h86q10 47 10 74
q0 36 -31 36q-24 0 -37 -21q-12 -19 -28 -89zM336 731l72 -145h-86l-43 78l-71 -78h-96l130 145h94z" />
    <glyph glyph-name="edieresis" unicode="&#xeb;" horiz-adv-x="399" 
d="M27 55q-17 33 -17 80q0 36 19 134q20 99 36 144t42 76q47 57 143 57q80 0 115 -50q23 -33 23 -90q0 -54 -25 -179h-215q-12 -65 -12 -86q0 -18 9 -27q8 -8 22 -8q18 0 29 11q14 14 23 48h128q-18 -73 -53 -116q-47 -57 -141 -57q-93 0 -126 63zM168 322h86q10 47 10 74
q0 36 -31 36q-24 0 -37 -21q-12 -19 -28 -89zM109 590l24 120h115l-24 -120h-115zM296 590l24 120h115l-24 -120h-115z" />
    <glyph glyph-name="igrave" unicode="&#xec;" horiz-adv-x="216" 
d="M-9 0l103 517h128l-103 -517h-128zM132 586l-57 143h100l43 -143h-86z" />
    <glyph glyph-name="iacute" unicode="&#xed;" horiz-adv-x="216" 
d="M-9 0l103 517h128l-103 -517h-128zM122 586l100 143h108l-118 -143h-90z" />
    <glyph glyph-name="icircumflex" unicode="&#xee;" horiz-adv-x="216" 
d="M-9 0l103 517h128l-103 -517h-128zM247 731l72 -145h-86l-43 78l-71 -78h-96l130 145h94z" />
    <glyph glyph-name="idieresis" unicode="&#xef;" horiz-adv-x="216" 
d="M-9 0l103 517h128l-103 -517h-128zM20 590l24 120h115l-24 -120h-115zM207 590l24 120h115l-24 -120h-115z" />
    <glyph glyph-name="eth" unicode="&#xf0;" horiz-adv-x="406" 
d="M27 243q33 170 68 205q40 40 104 40q38 0 64 -19l-9 100h-67l16 83h40l-3 60h124l4 -60h69l-16 -83h-43l7 -101q3 -30 3 -58q0 -69 -19 -167q-31 -154 -72 -200q-27 -28 -59.5 -39.5t-86.5 -11.5q-57 0 -95 33q-44 38 -44 103q0 40 15 115zM154 243q-16 -82 -16 -100
q0 -16 7 -26q8 -11 25 -11q24 0 37 19t33 118q15 70 15 96q0 17 -7 25q-9 10 -25 10q-24 0 -37 -19q-14 -21 -32 -112z" />
    <glyph glyph-name="ntilde" unicode="&#xf1;" horiz-adv-x="422" 
d="M-9 0l107 538h122l-8 -38q24 24 43 34q24 12 51 12q62 0 89 -45q15 -26 15 -66q0 -15 -9 -61l-74 -374h-128l74 373q4 20 4 27q0 15 -9 23.5t-23 8.5q-40 0 -52 -59l-74 -373h-128zM177 604l-44 59q50 45 97 45q33 0 62 -17q25 -14 47 -14q25 0 52 24l44 -59
q-50 -45 -97 -45q-33 0 -62 17q-25 14 -47 14q-25 0 -52 -24z" />
    <glyph glyph-name="ograve" unicode="&#xf2;" 
d="M157 269q-21 -101 -21 -128q0 -18 9 -27q8 -8 22 -8q24 0 37 21q15 23 39 142q21 101 21 128q0 18 -9 27q-8 8 -22 8q-24 0 -37 -21q-15 -23 -39 -142zM29 269q20 99 36 144t42 76q47 57 140 57t126 -63q17 -33 17 -80q0 -36 -19 -134q-20 -99 -36 -144t-42 -76
q-48 -57 -140 -57q-93 0 -126 63q-17 33 -17 80q0 36 19 134zM221 586l-57 143h100l43 -143h-86z" />
    <glyph glyph-name="oacute" unicode="&#xf3;" 
d="M157 269q-21 -101 -21 -128q0 -18 9 -27q8 -8 22 -8q24 0 37 21q15 23 39 142q21 101 21 128q0 18 -9 27q-8 8 -22 8q-24 0 -37 -21q-15 -23 -39 -142zM29 269q20 99 36 144t42 76q47 57 140 57t126 -63q17 -33 17 -80q0 -36 -19 -134q-20 -99 -36 -144t-42 -76
q-48 -57 -140 -57q-93 0 -126 63q-17 33 -17 80q0 36 19 134zM211 586l100 143h108l-118 -143h-90z" />
    <glyph glyph-name="ocircumflex" unicode="&#xf4;" 
d="M157 269q-21 -101 -21 -128q0 -18 9 -27q8 -8 22 -8q24 0 37 21q15 23 39 142q21 101 21 128q0 18 -9 27q-8 8 -22 8q-24 0 -37 -21q-15 -23 -39 -142zM29 269q20 99 36 144t42 76q47 57 140 57t126 -63q17 -33 17 -80q0 -36 -19 -134q-20 -99 -36 -144t-42 -76
q-48 -57 -140 -57q-93 0 -126 63q-17 33 -17 80q0 36 19 134zM336 731l72 -145h-86l-43 78l-71 -78h-96l130 145h94z" />
    <glyph glyph-name="otilde" unicode="&#xf5;" 
d="M157 269q-21 -101 -21 -128q0 -18 9 -27q8 -8 22 -8q24 0 37 21q15 23 39 142q21 101 21 128q0 18 -9 27q-8 8 -22 8q-24 0 -37 -21q-15 -23 -39 -142zM29 269q20 99 36 144t42 76q47 57 140 57t126 -63q17 -33 17 -80q0 -36 -19 -134q-20 -99 -36 -144t-42 -76
q-48 -57 -140 -57q-93 0 -126 63q-17 33 -17 80q0 36 19 134zM167 604l-44 59q50 45 97 45q33 0 62 -17q25 -14 47 -14q25 0 52 24l44 -59q-50 -45 -97 -45q-33 0 -62 17q-25 14 -47 14q-25 0 -52 -24z" />
    <glyph glyph-name="odieresis" unicode="&#xf6;" 
d="M157 269q-21 -101 -21 -128q0 -18 9 -27q8 -8 22 -8q24 0 37 21q15 23 39 142q21 101 21 128q0 18 -9 27q-8 8 -22 8q-24 0 -37 -21q-15 -23 -39 -142zM29 269q20 99 36 144t42 76q47 57 140 57t126 -63q17 -33 17 -80q0 -36 -19 -134q-20 -99 -36 -144t-42 -76
q-48 -57 -140 -57q-93 0 -126 63q-17 33 -17 80q0 36 19 134zM109 590l24 120h115l-24 -120h-115zM296 590l24 120h115l-24 -120h-115z" />
    <glyph glyph-name="divide" unicode="&#xf7;" horiz-adv-x="448" 
d="M104 18l28 140h142l-28 -140h-142zM34 235l24 120h368l-24 -120h-368zM186 432l28 140h142l-28 -140h-142z" />
    <glyph glyph-name="oslash" unicode="&#xf8;" 
d="M362 582h80l-67 -103q15 -31 15 -76q0 -36 -19 -134q-20 -99 -36 -144t-42 -76q-48 -57 -140 -57q-49 0 -81 17l-34 -53h-80l66 104q-14 29 -14 75q0 36 19 134q20 99 36 144t42 76q47 57 140 57q47 0 81 -17zM243 269l3 17l-105 -168q9 -12 26 -12q24 0 37 21
q15 23 39 142zM157 269l-4 -17l106 168q-9 12 -26 12q-24 0 -37 -21q-15 -23 -39 -142z" />
    <glyph glyph-name="ugrave" unicode="&#xf9;" horiz-adv-x="422" 
d="M432 538l-107 -538h-122l8 38q-24 -24 -43 -34q-24 -12 -51 -12q-62 0 -89 45q-15 26 -15 66q0 15 9 61l74 374h128l-74 -373q-4 -20 -4 -27q0 -15 9 -23.5t23 -8.5q40 0 52 59l74 373h128zM234 586l-57 143h100l43 -143h-86z" />
    <glyph glyph-name="uacute" unicode="&#xfa;" horiz-adv-x="422" 
d="M432 538l-107 -538h-122l8 38q-24 -24 -43 -34q-24 -12 -51 -12q-62 0 -89 45q-15 26 -15 66q0 15 9 61l74 374h128l-74 -373q-4 -20 -4 -27q0 -15 9 -23.5t23 -8.5q40 0 52 59l74 373h128zM224 586l100 143h108l-118 -143h-90z" />
    <glyph glyph-name="ucircumflex" unicode="&#xfb;" horiz-adv-x="422" 
d="M432 538l-107 -538h-122l8 38q-24 -24 -43 -34q-24 -12 -51 -12q-62 0 -89 45q-15 26 -15 66q0 15 9 61l74 374h128l-74 -373q-4 -20 -4 -27q0 -15 9 -23.5t23 -8.5q40 0 52 59l74 373h128zM349 731l72 -145h-86l-43 78l-71 -78h-96l130 145h94z" />
    <glyph glyph-name="udieresis" unicode="&#xfc;" horiz-adv-x="422" 
d="M432 538l-107 -538h-122l8 38q-24 -24 -43 -34q-24 -12 -51 -12q-62 0 -89 45q-15 26 -15 66q0 15 9 61l74 374h128l-74 -373q-4 -20 -4 -27q0 -15 9 -23.5t23 -8.5q40 0 52 59l74 373h128zM122 590l24 120h115l-24 -120h-115zM309 590l24 120h115l-24 -120h-115z" />
    <glyph glyph-name="yacute" unicode="&#xfd;" horiz-adv-x="404" 
d="M-23 -60q44 2 60 8q26 10 44 52l-23 538h134l-6 -343l127 343h146l-260 -587q-19 -43 -42.5 -69t-56.5 -37.5t-63.5 -15t-82.5 -3.5zM216 586l100 143h108l-118 -143h-90z" />
    <glyph glyph-name="thorn" unicode="&#xfe;" horiz-adv-x="411" 
d="M-44 -174l177 886h128l-41 -205q19 19 33 26q24 13 51 13q63 0 87 -44q16 -31 16 -71q0 -43 -23 -162q-24 -119 -40 -165.5t-38 -68.5q-43 -43 -105 -43q-29 0 -49 14q-17 11 -27 26l-41 -206h-128zM194 377l-43 -216q-3 -15 -3 -23q0 -16 9 -25q7 -7 22 -7q18 0 32 14
q19 19 45 149q19 95 19 125q0 21 -9 30q-8 8 -22 8q-18 0 -30 -12q-14 -14 -20 -43z" />
    <glyph glyph-name="ydieresis" unicode="&#xff;" horiz-adv-x="404" 
d="M-23 -60q44 2 60 8q26 10 44 52l-23 538h134l-6 -343l127 343h146l-260 -587q-19 -43 -42.5 -69t-56.5 -37.5t-63.5 -15t-82.5 -3.5zM114 590l24 120h115l-24 -120h-115zM301 590l24 120h115l-24 -120h-115z" />
    <glyph glyph-name="Amacron" unicode="&#x100;" horiz-adv-x="492" 
d="M433 0h-135l1 115h-156l-46 -115h-144l316 712h132zM297 235l1 279l-107 -279h106zM217 769l16 81h252l-16 -81h-252z" />
    <glyph glyph-name="amacron" unicode="&#x101;" horiz-adv-x="404" 
d="M8 43q-15 27 -15 69q0 26 6 56q15 74 71 117q45 34 131 34h44l11 55q3 15 3 26q0 32 -31 32q-18 0 -30 -12t-18 -40h-128q17 83 66 126q45 40 125 40q84 0 119 -45q25 -32 25 -86q0 -27 -6 -57l-71 -358h-120l9 45q-20 -25 -40 -37q-25 -16 -57 -16q-64 0 -94 51z
M126 146q0 -40 37 -40q40 0 52 61l13 63h-22q-35 0 -52 -13q-28 -23 -28 -71zM131 600l16 81h252l-16 -81h-252z" />
    <glyph glyph-name="Abreve" unicode="&#x102;" horiz-adv-x="492" 
d="M433 0h-135l1 115h-156l-46 -115h-144l316 712h132zM297 235l1 279l-107 -279h106zM492 878q-12 -66 -47 -94.5t-96 -28.5q-52 0 -83 26t-31 68q0 13 3 29h80v-6q0 -34 40 -34q44 0 54 40h80z" />
    <glyph glyph-name="abreve" unicode="&#x103;" horiz-adv-x="404" 
d="M8 43q-15 27 -15 69q0 26 6 56q15 74 71 117q45 34 131 34h44l11 55q3 15 3 26q0 32 -31 32q-18 0 -30 -12t-18 -40h-128q17 83 66 126q45 40 125 40q84 0 119 -45q25 -32 25 -86q0 -27 -6 -57l-71 -358h-120l9 45q-20 -25 -40 -37q-25 -16 -57 -16q-64 0 -94 51z
M126 146q0 -40 37 -40q40 0 52 61l13 63h-22q-35 0 -52 -13q-28 -23 -28 -71zM412 709q-12 -66 -47 -94.5t-96 -28.5q-52 0 -83 26t-31 68q0 12 3 29h80v-6q0 -34 40 -34q44 0 54 40h80z" />
    <glyph glyph-name="Aogonek" unicode="&#x104;" horiz-adv-x="492" 
d="M433 0h-135l1 115h-156l-46 -115h-144l316 712h132zM297 235l1 279l-107 -279h106zM237 -203l98 163h82l-84 -163h-96z" />
    <glyph glyph-name="aogonek" unicode="&#x105;" horiz-adv-x="404" 
d="M8 43q-15 27 -15 69q0 26 6 56q15 74 71 117q45 34 131 34h44l11 55q3 15 3 26q0 32 -31 32q-18 0 -30 -12t-18 -40h-128q17 83 66 126q45 40 125 40q84 0 119 -45q25 -32 25 -86q0 -27 -6 -57l-71 -358h-120l9 45q-20 -25 -40 -37q-25 -16 -57 -16q-64 0 -94 51z
M126 146q0 -40 37 -40q40 0 52 61l13 63h-22q-35 0 -52 -13q-28 -23 -28 -71zM105 -203l98 163h82l-84 -163h-96z" />
    <glyph glyph-name="Cacute" unicode="&#x106;" horiz-adv-x="450" 
d="M23 164q0 63 27 192q31 152 52.5 212.5t56.5 95.5q56 56 148 56q90 0 132 -52q34 -42 34 -110q0 -28 -2 -45h-134q2 15 2 37q0 50 -43 50q-25 0 -44 -19q-17 -17 -31 -64t-37 -161q-27 -135 -27 -190q0 -54 43 -54q32 0 51 27q16 23 25 61h136q-23 -110 -82 -162
q-52 -46 -142 -46q-103 0 -142 69q-23 41 -23 103zM275 755l100 143h108l-118 -143h-90z" />
    <glyph glyph-name="cacute" unicode="&#x107;" horiz-adv-x="389" 
d="M29 269q20 99 36 144t42 76q47 57 140 57t126 -63q17 -33 17 -78q0 -18 -2 -32h-127q2 12 2 24q0 18 -9 27q-8 8 -21 8q-24 0 -37 -21q-15 -23 -39 -142q-21 -101 -21 -128q0 -18 9 -27q8 -8 22 -8q18 0 29 11q14 14 23 48h128q-18 -73 -53 -116q-47 -57 -141 -57
q-93 0 -126 63q-17 33 -17 80q0 36 19 134zM211 586l100 143h108l-118 -143h-90z" />
    <glyph glyph-name="Ccircumflex" unicode="&#x108;" horiz-adv-x="450" 
d="M23 164q0 63 27 192q31 152 52.5 212.5t56.5 95.5q56 56 148 56q90 0 132 -52q34 -42 34 -110q0 -28 -2 -45h-134q2 15 2 37q0 50 -43 50q-25 0 -44 -19q-17 -17 -31 -64t-37 -161q-27 -135 -27 -190q0 -54 43 -54q32 0 51 27q16 23 25 61h136q-23 -110 -82 -162
q-52 -46 -142 -46q-103 0 -142 69q-23 41 -23 103zM400 900l72 -145h-86l-43 78l-71 -78h-96l130 145h94z" />
    <glyph glyph-name="ccircumflex" unicode="&#x109;" horiz-adv-x="389" 
d="M29 269q20 99 36 144t42 76q47 57 140 57t126 -63q17 -33 17 -78q0 -18 -2 -32h-127q2 12 2 24q0 18 -9 27q-8 8 -21 8q-24 0 -37 -21q-15 -23 -39 -142q-21 -101 -21 -128q0 -18 9 -27q8 -8 22 -8q18 0 29 11q14 14 23 48h128q-18 -73 -53 -116q-47 -57 -141 -57
q-93 0 -126 63q-17 33 -17 80q0 36 19 134zM340 731l72 -145h-86l-43 78l-71 -78h-96l130 145h94z" />
    <glyph glyph-name="Cdotaccent" unicode="&#x10a;" horiz-adv-x="450" 
d="M23 164q0 63 27 192q31 152 52.5 212.5t56.5 95.5q56 56 148 56q90 0 132 -52q34 -42 34 -110q0 -28 -2 -45h-134q2 15 2 37q0 50 -43 50q-25 0 -44 -19q-17 -17 -31 -64t-37 -161q-27 -135 -27 -190q0 -54 43 -54q32 0 51 27q16 23 25 61h136q-23 -110 -82 -162
q-52 -46 -142 -46q-103 0 -142 69q-23 41 -23 103zM269 759l24 120h114l-24 -120h-114z" />
    <glyph glyph-name="cdotaccent" unicode="&#x10b;" horiz-adv-x="389" 
d="M29 269q20 99 36 144t42 76q47 57 140 57t126 -63q17 -33 17 -78q0 -18 -2 -32h-127q2 12 2 24q0 18 -9 27q-8 8 -21 8q-24 0 -37 -21q-15 -23 -39 -142q-21 -101 -21 -128q0 -18 9 -27q8 -8 22 -8q18 0 29 11q14 14 23 48h128q-18 -73 -53 -116q-47 -57 -141 -57
q-93 0 -126 63q-17 33 -17 80q0 36 19 134zM205 590l24 120h114l-24 -120h-114z" />
    <glyph glyph-name="Ccaron" unicode="&#x10c;" horiz-adv-x="450" 
d="M23 164q0 63 27 192q31 152 52.5 212.5t56.5 95.5q56 56 148 56q90 0 132 -52q34 -42 34 -110q0 -28 -2 -45h-134q2 15 2 37q0 50 -43 50q-25 0 -44 -19q-17 -17 -31 -64t-37 -161q-27 -135 -27 -190q0 -54 43 -54q32 0 51 27q16 23 25 61h136q-23 -110 -82 -162
q-52 -46 -142 -46q-103 0 -142 69q-23 41 -23 103zM275 755l-72 145h86l43 -78l71 78h96l-130 -145h-94z" />
    <glyph glyph-name="ccaron" unicode="&#x10d;" horiz-adv-x="389" 
d="M29 269q20 99 36 144t42 76q47 57 140 57t126 -63q17 -33 17 -78q0 -18 -2 -32h-127q2 12 2 24q0 18 -9 27q-8 8 -21 8q-24 0 -37 -21q-15 -23 -39 -142q-21 -101 -21 -128q0 -18 9 -27q8 -8 22 -8q18 0 29 11q14 14 23 48h128q-18 -73 -53 -116q-47 -57 -141 -57
q-93 0 -126 63q-17 33 -17 80q0 36 19 134zM213 586l-72 145h86l43 -78l71 78h96l-130 -145h-94z" />
    <glyph glyph-name="Dcaron" unicode="&#x10e;" horiz-adv-x="474" 
d="M157 120h49q39 0 61 31q22 33 57 206q28 138 28 182q0 25 -13 39q-12 14 -35 14h-53zM-1 0l142 712h184q53 0 84 -17t53 -53q24 -38 24 -103q0 -36 -28 -182q-28 -140 -48 -201t-54 -95q-61 -61 -161 -61h-196zM273 755l-72 145h86l43 -78l71 78h96l-130 -145h-94z" />
    <glyph glyph-name="dcaron" unicode="&#x10f;" horiz-adv-x="411" 
d="M5 107q0 47 23 162q24 118 40 165t38 69q43 43 105 43q29 0 49 -14q16 -12 27 -26l41 206h128l-142 -712h-122l7 39q-19 -23 -40 -34q-24 -13 -51 -13q-63 0 -87 44q-16 31 -16 71zM156 269q-19 -95 -19 -125q0 -21 9 -30q8 -8 22 -8q18 0 30 12q14 14 20 43l43 216
q3 15 3 23q0 16 -9 25q-7 7 -22 7q-18 0 -32 -14q-19 -19 -45 -149zM467 587l58 166h89l-71 -166h-76z" />
    <glyph glyph-name="Dcroat" unicode="&#x110;" horiz-adv-x="517" 
d="M43 0l61 306h-47l21 105h47l60 301h184q53 0 84 -17t53 -53q24 -38 24 -103q0 -36 -28 -182q-28 -140 -48 -201t-54 -95q-61 -61 -161 -61h-196zM201 120h49q39 0 61 31q22 33 57 206q28 138 28 182q0 25 -13 39q-12 14 -35 14h-53l-36 -181h57l-21 -105h-57z" />
    <glyph glyph-name="dcroat" unicode="&#x111;" horiz-adv-x="426" 
d="M222 579l16 78h79l11 55h128l-11 -55h42l-16 -78h-42l-115 -579h-122l7 39q-19 -23 -40 -34q-24 -13 -51 -13q-63 0 -87 44q-16 31 -16 71q0 47 23 162q24 118 40 165t38 69q43 43 105 43q29 0 49 -14q16 -12 27 -26l14 73h-79zM156 269q-19 -95 -19 -125q0 -21 9 -30
q8 -8 22 -8q18 0 30 12q14 14 20 43l43 216q3 15 3 23q0 16 -9 25q-7 7 -22 7q-18 0 -32 -14q-19 -19 -45 -149z" />
    <glyph glyph-name="Emacron" unicode="&#x112;" horiz-adv-x="394" 
d="M-1 0l142 712h312l-24 -120h-178l-35 -173h153l-24 -120h-153l-35 -179h178l-24 -120h-312zM182 769l16 81h252l-16 -81h-252z" />
    <glyph glyph-name="emacron" unicode="&#x113;" horiz-adv-x="399" 
d="M27 55q-17 33 -17 80q0 36 19 134q20 99 36 144t42 76q47 57 143 57q80 0 115 -50q23 -33 23 -90q0 -54 -25 -179h-215q-12 -65 -12 -86q0 -18 9 -27q8 -8 22 -8q18 0 29 11q14 14 23 48h128q-18 -73 -53 -116q-47 -57 -141 -57q-93 0 -126 63zM168 322h86q10 47 10 74
q0 36 -31 36q-24 0 -37 -21q-12 -19 -28 -89zM131 600l16 81h252l-16 -81h-252z" />
    <glyph glyph-name="Ebreve" unicode="&#x114;" horiz-adv-x="394" 
d="M-1 0l142 712h312l-24 -120h-178l-35 -173h153l-24 -120h-153l-35 -179h178l-24 -120h-312zM457 878q-12 -66 -47 -94.5t-96 -28.5q-52 0 -83 26t-31 68q0 13 3 29h80v-6q0 -34 40 -34q44 0 54 40h80z" />
    <glyph glyph-name="ebreve" unicode="&#x115;" horiz-adv-x="399" 
d="M27 55q-17 33 -17 80q0 36 19 134q20 99 36 144t42 76q47 57 143 57q80 0 115 -50q23 -33 23 -90q0 -54 -25 -179h-215q-12 -65 -12 -86q0 -18 9 -27q8 -8 22 -8q18 0 29 11q14 14 23 48h128q-18 -73 -53 -116q-47 -57 -141 -57q-93 0 -126 63zM168 322h86q10 47 10 74
q0 36 -31 36q-24 0 -37 -21q-12 -19 -28 -89zM412 709q-12 -66 -47 -94.5t-96 -28.5q-52 0 -83 26t-31 68q0 12 3 29h80v-6q0 -34 40 -34q44 0 54 40h80z" />
    <glyph glyph-name="Edotaccent" unicode="&#x116;" horiz-adv-x="394" 
d="M-1 0l142 712h312l-24 -120h-178l-35 -173h153l-24 -120h-153l-35 -179h178l-24 -120h-312zM250 759l24 120h114l-24 -120h-114z" />
    <glyph glyph-name="edotaccent" unicode="&#x117;" horiz-adv-x="399" 
d="M27 55q-17 33 -17 80q0 36 19 134q20 99 36 144t42 76q47 57 143 57q80 0 115 -50q23 -33 23 -90q0 -54 -25 -179h-215q-12 -65 -12 -86q0 -18 9 -27q8 -8 22 -8q18 0 29 11q14 14 23 48h128q-18 -73 -53 -116q-47 -57 -141 -57q-93 0 -126 63zM168 322h86q10 47 10 74
q0 36 -31 36q-24 0 -37 -21q-12 -19 -28 -89zM205 590l24 120h114l-24 -120h-114z" />
    <glyph glyph-name="Eogonek" unicode="&#x118;" horiz-adv-x="394" 
d="M-1 0l142 712h312l-24 -120h-178l-35 -173h153l-24 -120h-153l-35 -179h178l-24 -120h-312zM123 -203l98 163h82l-84 -163h-96z" />
    <glyph glyph-name="eogonek" unicode="&#x119;" horiz-adv-x="399" 
d="M27 55q-17 33 -17 80q0 36 19 134q20 99 36 144t42 76q47 57 143 57q80 0 115 -50q23 -33 23 -90q0 -54 -25 -179h-215q-12 -65 -12 -86q0 -18 9 -27q8 -8 22 -8q18 0 29 11q14 14 23 48h128q-18 -73 -53 -116q-47 -57 -141 -57q-93 0 -126 63zM168 322h86q10 47 10 74
q0 36 -31 36q-24 0 -37 -21q-12 -19 -28 -89zM54 -203l98 163h82l-84 -163h-96z" />
    <glyph glyph-name="Ecaron" unicode="&#x11a;" horiz-adv-x="394" 
d="M-1 0l142 712h312l-24 -120h-178l-35 -173h153l-24 -120h-153l-35 -179h178l-24 -120h-312zM258 755l-72 145h86l43 -78l71 78h96l-130 -145h-94z" />
    <glyph glyph-name="ecaron" unicode="&#x11b;" horiz-adv-x="399" 
d="M27 55q-17 33 -17 80q0 36 19 134q20 99 36 144t42 76q47 57 143 57q80 0 115 -50q23 -33 23 -90q0 -54 -25 -179h-215q-12 -65 -12 -86q0 -18 9 -27q8 -8 22 -8q18 0 29 11q14 14 23 48h128q-18 -73 -53 -116q-47 -57 -141 -57q-93 0 -126 63zM168 322h86q10 47 10 74
q0 36 -31 36q-24 0 -37 -21q-12 -19 -28 -89zM213 586l-72 145h86l43 -78l71 78h96l-130 -145h-94z" />
    <glyph glyph-name="Gcircumflex" unicode="&#x11c;" horiz-adv-x="456" 
d="M446 392l-36 -181q-23 -114 -76 -166.5t-149 -52.5q-100 0 -139 69q-23 41 -23 103q0 63 27 192q31 152 52.5 212.5t56.5 95.5q56 56 148 56q90 0 132 -52q34 -42 34 -110q0 -28 -2 -45h-134q2 15 2 37q0 50 -43 50q-25 0 -44 -19q-17 -17 -31 -64t-37 -161
q-27 -135 -27 -190q0 -54 43 -54q56 0 74 88l17 85h-56l21 107h190zM400 900l72 -145h-86l-43 78l-71 -78h-96l130 145h94z" />
    <glyph glyph-name="gcircumflex" unicode="&#x11d;" horiz-adv-x="411" 
d="M421 538l-110 -550q-18 -91 -65 -131q-47 -39 -127 -39q-68 0 -107 36t-39 96q0 14 3 33h127q-1 -7 -1 -18q0 -33 32 -33q18 0 31 13q12 12 17 37l17 85q-16 -18 -33 -26q-26 -13 -52 -13q-62 0 -86 44q-16 31 -16 71q0 44 20 144q22 110 37 151.5t37 64.5q43 43 104 43
q30 0 50 -14q19 -13 31 -34l8 40h122zM160 287q-16 -80 -16 -107q0 -19 10 -29q9 -9 25 -9t28 12t18 43l36 180q3 15 3 23q0 15 -9 24q-8 8 -22 8q-18 0 -32 -14q-19 -18 -41 -131zM336 731l72 -145h-86l-43 78l-71 -78h-96l130 145h94z" />
    <glyph glyph-name="Gbreve" unicode="&#x11e;" horiz-adv-x="456" 
d="M446 392l-36 -181q-23 -114 -76 -166.5t-149 -52.5q-100 0 -139 69q-23 41 -23 103q0 63 27 192q31 152 52.5 212.5t56.5 95.5q56 56 148 56q90 0 132 -52q34 -42 34 -110q0 -28 -2 -45h-134q2 15 2 37q0 50 -43 50q-25 0 -44 -19q-17 -17 -31 -64t-37 -161
q-27 -135 -27 -190q0 -54 43 -54q56 0 74 88l17 85h-56l21 107h190zM476 878q-12 -66 -47 -94.5t-96 -28.5q-52 0 -83 26t-31 68q0 13 3 29h80v-6q0 -34 40 -34q44 0 54 40h80z" />
    <glyph glyph-name="gbreve" unicode="&#x11f;" horiz-adv-x="411" 
d="M421 538l-110 -550q-18 -91 -65 -131q-47 -39 -127 -39q-68 0 -107 36t-39 96q0 14 3 33h127q-1 -7 -1 -18q0 -33 32 -33q18 0 31 13q12 12 17 37l17 85q-16 -18 -33 -26q-26 -13 -52 -13q-62 0 -86 44q-16 31 -16 71q0 44 20 144q22 110 37 151.5t37 64.5q43 43 104 43
q30 0 50 -14q19 -13 31 -34l8 40h122zM160 287q-16 -80 -16 -107q0 -19 10 -29q9 -9 25 -9t28 12t18 43l36 180q3 15 3 23q0 15 -9 24q-8 8 -22 8q-18 0 -32 -14q-19 -18 -41 -131zM412 709q-12 -66 -47 -94.5t-96 -28.5q-52 0 -83 26t-31 68q0 12 3 29h80v-6q0 -34 40 -34
q44 0 54 40h80z" />
    <glyph glyph-name="Gdotaccent" unicode="&#x120;" horiz-adv-x="456" 
d="M446 392l-36 -181q-23 -114 -76 -166.5t-149 -52.5q-100 0 -139 69q-23 41 -23 103q0 63 27 192q31 152 52.5 212.5t56.5 95.5q56 56 148 56q90 0 132 -52q34 -42 34 -110q0 -28 -2 -45h-134q2 15 2 37q0 50 -43 50q-25 0 -44 -19q-17 -17 -31 -64t-37 -161
q-27 -135 -27 -190q0 -54 43 -54q56 0 74 88l17 85h-56l21 107h190zM269 759l24 120h114l-24 -120h-114z" />
    <glyph glyph-name="gdotaccent" unicode="&#x121;" horiz-adv-x="411" 
d="M421 538l-110 -550q-18 -91 -65 -131q-47 -39 -127 -39q-68 0 -107 36t-39 96q0 14 3 33h127q-1 -7 -1 -18q0 -33 32 -33q18 0 31 13q12 12 17 37l17 85q-16 -18 -33 -26q-26 -13 -52 -13q-62 0 -86 44q-16 31 -16 71q0 44 20 144q22 110 37 151.5t37 64.5q43 43 104 43
q30 0 50 -14q19 -13 31 -34l8 40h122zM160 287q-16 -80 -16 -107q0 -19 10 -29q9 -9 25 -9t28 12t18 43l36 180q3 15 3 23q0 15 -9 24q-8 8 -22 8q-18 0 -32 -14q-19 -18 -41 -131zM205 590l24 120h114l-24 -120h-114z" />
    <glyph glyph-name="Gcommaaccent" unicode="&#x122;" horiz-adv-x="456" 
d="M446 392l-36 -181q-23 -114 -76 -166.5t-149 -52.5q-100 0 -139 69q-23 41 -23 103q0 63 27 192q31 152 52.5 212.5t56.5 95.5q56 56 148 56q90 0 132 -52q34 -42 34 -110q0 -28 -2 -45h-134q2 15 2 37q0 50 -43 50q-25 0 -44 -19q-17 -17 -31 -64t-37 -161
q-27 -135 -27 -190q0 -54 43 -54q56 0 74 88l17 85h-56l21 107h190zM41 -203l98 163h82l-84 -163h-96z" />
    <glyph glyph-name="gcommaaccent" unicode="&#x123;" horiz-adv-x="411" 
d="M421 538l-110 -550q-18 -91 -65 -131q-47 -39 -127 -39q-68 0 -107 36t-39 96q0 14 3 33h127q-1 -7 -1 -18q0 -33 32 -33q18 0 31 13q12 12 17 37l17 85q-16 -18 -33 -26q-26 -13 -52 -13q-62 0 -86 44q-16 31 -16 71q0 44 20 144q22 110 37 151.5t37 64.5q43 43 104 43
q30 0 50 -14q19 -13 31 -34l8 40h122zM160 287q-16 -80 -16 -107q0 -19 10 -29q9 -9 25 -9t28 12t18 43l36 180q3 15 3 23q0 15 -9 24q-8 8 -22 8q-18 0 -32 -14q-19 -18 -41 -131zM408 749l-98 -163h-82l84 163h96z" />
    <glyph glyph-name="Hcircumflex" unicode="&#x124;" horiz-adv-x="486" 
d="M-1 0l142 712h134l-58 -290h114l58 290h134l-142 -712h-134l60 302h-114l-60 -302h-134zM412 900l72 -145h-86l-43 78l-71 -78h-96l130 145h94z" />
    <glyph glyph-name="hcircumflex" unicode="&#x125;" horiz-adv-x="422" 
d="M-9 0l142 712h128l-41 -205q23 21 35 27q24 12 51 12q62 0 89 -45q15 -26 15 -66q0 -15 -9 -61l-74 -374h-128l74 373q4 20 4 27q0 15 -9 23.5t-23 8.5q-40 0 -52 -59l-74 -373h-128zM272 905l72 -145h-86l-43 78l-71 -78h-96l130 145h94z" />
    <glyph glyph-name="Hbar" unicode="&#x126;" horiz-adv-x="576" 
d="M101 519l20 104h47l18 89h134l-18 -89h114l18 89h134l-18 -89h47l-20 -104h-48l-103 -519h-134l60 302h-114l-60 -302h-134l103 519h-46zM262 422h114l19 97h-114z" />
    <glyph glyph-name="hbar" unicode="&#x127;" horiz-adv-x="436" 
d="M80 579l15 78h41l11 55h128l-11 -55h80l-15 -78h-81l-14 -72q23 21 35 27q24 12 51 12q62 0 89 -45q15 -26 15 -66q0 -15 -9 -61l-74 -374h-128l74 373q4 20 4 27q0 15 -9 23.5t-23 8.5q-40 0 -52 -59l-74 -373h-128l115 579h-40z" />
    <glyph glyph-name="Itilde" unicode="&#x128;" horiz-adv-x="238" 
d="M-1 0l142 712h134l-142 -712h-134zM121 773l-44 59q50 45 97 45q33 0 62 -17q25 -14 47 -14q25 0 52 24l44 -59q-50 -45 -97 -45q-33 0 -62 17q-25 14 -47 14q-25 0 -52 -24z" />
    <glyph glyph-name="itilde" unicode="&#x129;" horiz-adv-x="216" 
d="M-9 0l103 517h128l-103 -517h-128zM78 604l-44 59q50 45 97 45q33 0 62 -17q25 -14 47 -14q25 0 52 24l44 -59q-50 -45 -97 -45q-33 0 -62 17q-25 14 -47 14q-25 0 -52 -24z" />
    <glyph glyph-name="Imacron" unicode="&#x12a;" horiz-adv-x="238" 
d="M-1 0l142 712h134l-142 -712h-134zM91 769l16 81h252l-16 -81h-252z" />
    <glyph glyph-name="imacron" unicode="&#x12b;" horiz-adv-x="216" 
d="M-9 0l103 517h128l-103 -517h-128zM42 600l16 81h252l-16 -81h-252z" />
    <glyph glyph-name="Ibreve" unicode="&#x12c;" horiz-adv-x="238" 
d="M-1 0l142 712h134l-142 -712h-134zM366 878q-12 -66 -47 -94.5t-96 -28.5q-52 0 -83 26t-31 68q0 13 3 29h80v-6q0 -34 40 -34q44 0 54 40h80z" />
    <glyph glyph-name="ibreve" unicode="&#x12d;" horiz-adv-x="216" 
d="M-9 0l103 517h128l-103 -517h-128zM323 709q-12 -66 -47 -94.5t-96 -28.5q-52 0 -83 26t-31 68q0 12 3 29h80v-6q0 -34 40 -34q44 0 54 40h80z" />
    <glyph glyph-name="Iogonek" unicode="&#x12e;" horiz-adv-x="238" 
d="M-1 0l142 712h134l-142 -712h-134zM-68 -203l98 163h82l-84 -163h-96z" />
    <glyph glyph-name="iogonek" unicode="&#x12f;" horiz-adv-x="216" 
d="M-9 0l103 517h128l-103 -517h-128zM106 578l27 134h128l-27 -134h-128zM-78 -203l98 163h82l-84 -163h-96z" />
    <glyph glyph-name="Idotaccent" unicode="&#x130;" horiz-adv-x="238" 
d="M-1 0l142 712h134l-142 -712h-134zM159 759l24 120h114l-24 -120h-114z" />
    <glyph glyph-name="dotlessi" unicode="&#x131;" horiz-adv-x="216" 
d="M-9 0l103 517h128l-103 -517h-128z" />
    <glyph glyph-name="IJ" unicode="&#x132;" horiz-adv-x="639" 
d="M-1 0l142 712h134l-142 -712h-134zM209 66l102 75q21 -29 52 -29q63 0 82 93l101 507h134l-101 -507q-22 -109 -71 -157q-59 -56 -148 -56q-107 0 -151 74z" />
    <glyph glyph-name="ij" unicode="&#x133;" horiz-adv-x="432" 
d="M-9 0l103 517h128l-103 -517h-128zM106 578l27 134h128l-27 -134h-128zM208 10l102 507h128l-104 -517q-21 -103 -82 -144q-28 -19 -57.5 -24.5t-86.5 -5.5l23 114q35 0 52.5 17.5t24.5 52.5zM322 578l27 134h128l-27 -134h-128z" />
    <glyph glyph-name="Jcircumflex" unicode="&#x134;" horiz-adv-x="399" 
d="M-31 66l102 75q21 -29 52 -29q63 0 82 93l101 507h134l-101 -507q-22 -109 -71 -157q-59 -56 -148 -56q-107 0 -151 74zM451 900l72 -145h-86l-43 78l-71 -78h-96l130 145h94z" />
    <glyph glyph-name="jcircumflex" unicode="&#x135;" horiz-adv-x="216" 
d="M-8 10l102 507h128l-104 -517q-21 -103 -82 -144q-28 -19 -57.5 -24.5t-86.5 -5.5l23 114q35 0 52.5 17.5t24.5 52.5zM247 731l72 -145h-86l-43 78l-71 -78h-96l130 145h94z" />
    <glyph glyph-name="Kcommaaccent" unicode="&#x136;" horiz-adv-x="477" 
d="M-1 0l142 712h134l-56 -281l175 281h145l-194 -296l74 -416h-135l-46 271l-73 -107l-32 -164h-134zM53 -203l98 163h82l-84 -163h-96z" />
    <glyph glyph-name="kcommaaccent" unicode="&#x137;" horiz-adv-x="427" 
d="M-9 0l142 712h128l-73 -367l145 193h142l-177 -226l67 -312h-127l-44 202l-47 -60l-28 -142h-128zM23 -203l98 163h82l-84 -163h-96z" />
    <glyph glyph-name="kgreenlandic" unicode="&#x138;" horiz-adv-x="427" 
d="M-9 0l107 538h128l-38 -193l145 193h142l-177 -226l67 -312h-127l-44 202l-47 -60l-28 -142h-128z" />
    <glyph glyph-name="Lacute" unicode="&#x139;" horiz-adv-x="386" 
d="M-1 0l142 712h134l-118 -592h178l-24 -120h-312zM165 755l100 143h108l-118 -143h-90z" />
    <glyph glyph-name="lacute" unicode="&#x13a;" horiz-adv-x="249" 
d="M56 35q-37 34 -37 93q0 25 5 50l107 534h128l-105 -525q-3 -15 -3 -30q0 -43 50 -43l-22 -114q-83 0 -123 35zM153 760l100 143h108l-118 -143h-90z" />
    <glyph glyph-name="Lcommaaccent" unicode="&#x13b;" horiz-adv-x="386" 
d="M-1 0l142 712h134l-118 -592h178l-24 -120h-312zM22 -203l98 163h82l-84 -163h-96z" />
    <glyph glyph-name="lcommaaccent" unicode="&#x13c;" horiz-adv-x="249" 
d="M56 35q-37 34 -37 93q0 25 5 50l107 534h128l-105 -525q-3 -15 -3 -30q0 -43 50 -43l-22 -114q-83 0 -123 35zM-41 -203l98 163h82l-84 -163h-96z" />
    <glyph glyph-name="Lcaron" unicode="&#x13d;" horiz-adv-x="386" 
d="M-1 0l142 712h134l-118 -592h178l-24 -120h-312zM295 546l58 166h89l-71 -166h-76z" />
    <glyph glyph-name="lcaron" unicode="&#x13e;" horiz-adv-x="249" 
d="M56 35q-37 34 -37 93q0 25 5 50l107 534h128l-105 -525q-3 -15 -3 -30q0 -43 50 -43l-22 -114q-83 0 -123 35zM269 587l58 166h89l-71 -166h-76z" />
    <glyph glyph-name="Ldot" unicode="&#x13f;" horiz-adv-x="390" 
d="M-1 0l142 712h134l-118 -592h178l-24 -120h-312zM262 299l24 120h114l-24 -120h-114z" />
    <glyph glyph-name="ldot" unicode="&#x140;" horiz-adv-x="353" 
d="M56 35q-37 34 -37 93q0 25 5 50l107 534h128l-105 -525q-3 -15 -3 -30q0 -43 50 -43l-22 -114q-83 0 -123 35zM218 238l24 120h114l-24 -120h-114z" />
    <glyph glyph-name="Lslash" unicode="&#x141;" horiz-adv-x="404" 
d="M16 0l48 239l-48 -34l23 119l48 34l71 354h134l-49 -245l105 74l-24 -119l-105 -74l-45 -228h178l-24 -120h-312z" />
    <glyph glyph-name="lslash" unicode="&#x142;" horiz-adv-x="278" 
d="M21 254l22 110l52 36l63 312h128l-42 -207l52 36l-22 -110l-52 -36l-41 -208q-3 -15 -3 -30q0 -43 50 -43l-22 -114q-83 0 -123 35q-37 34 -37 93q0 25 5 50l22 113z" />
    <glyph glyph-name="Nacute" unicode="&#x143;" horiz-adv-x="486" 
d="M-1 0l142 712h109l72 -361l67 361h134l-142 -712h-104l-73 360l-71 -360h-134zM294 755l100 143h108l-118 -143h-90z" />
    <glyph glyph-name="nacute" unicode="&#x144;" horiz-adv-x="422" 
d="M-9 0l107 538h122l-8 -38q24 24 43 34q24 12 51 12q62 0 89 -45q15 -26 15 -66q0 -15 -9 -61l-74 -374h-128l74 373q4 20 4 27q0 15 -9 23.5t-23 8.5q-40 0 -52 -59l-74 -373h-128zM221 586l100 143h108l-118 -143h-90z" />
    <glyph glyph-name="Ncommaaccent" unicode="&#x145;" horiz-adv-x="486" 
d="M-1 0l142 712h109l72 -361l67 361h134l-142 -712h-104l-73 360l-71 -360h-134zM53 -203l98 163h82l-84 -163h-96z" />
    <glyph glyph-name="ncommaaccent" unicode="&#x146;" horiz-adv-x="422" 
d="M-9 0l107 538h122l-8 -38q24 24 43 34q24 12 51 12q62 0 89 -45q15 -26 15 -66q0 -15 -9 -61l-74 -374h-128l74 373q4 20 4 27q0 15 -9 23.5t-23 8.5q-40 0 -52 -59l-74 -373h-128zM14 -203l98 163h82l-84 -163h-96z" />
    <glyph glyph-name="Ncaron" unicode="&#x147;" horiz-adv-x="486" 
d="M-1 0l142 712h109l72 -361l67 361h134l-142 -712h-104l-73 360l-71 -360h-134zM296 755l-72 145h86l43 -78l71 78h96l-130 -145h-94z" />
    <glyph glyph-name="ncaron" unicode="&#x148;" horiz-adv-x="422" 
d="M-9 0l107 538h122l-8 -38q24 24 43 34q24 12 51 12q62 0 89 -45q15 -26 15 -66q0 -15 -9 -61l-74 -374h-128l74 373q4 20 4 27q0 15 -9 23.5t-23 8.5q-40 0 -52 -59l-74 -373h-128zM223 586l-72 145h86l43 -78l71 78h96l-130 -145h-94z" />
    <glyph glyph-name="napostrophe" unicode="&#x149;" horiz-adv-x="483" 
d="M52 0l107 538h122l-8 -38q24 24 43 34q24 12 51 12q62 0 89 -45q15 -26 15 -66q0 -15 -9 -61l-74 -374h-128l74 373q4 20 4 27q0 15 -9 23.5t-23 8.5q-40 0 -52 -59l-74 -373h-128zM60 537l43 216h91l-30 -152z" />
    <glyph glyph-name="Eng" unicode="&#x14a;" horiz-adv-x="486" 
d="M-1 0l142 712h109l72 -361l67 361h134l-148 -746q-20 -98 -79 -140q-47 -33 -127 -33l23 120q26 0 40 12t20 42l15 79l-63 314l-71 -360h-134z" />
    <glyph glyph-name="eng" unicode="&#x14b;" horiz-adv-x="422" 
d="M-9 0l107 538h122l-8 -38q24 24 43 34q24 12 51 12q62 0 89 -45q15 -26 15 -66q0 -15 -9 -61l-81 -408q-19 -95 -87 -140q-52 -33 -139 -33l23 114q34 0 52 15t25 53l79 398q4 20 4 27q0 15 -9 23.5t-23 8.5q-40 0 -52 -59l-74 -373h-128z" />
    <glyph glyph-name="Omacron" unicode="&#x14c;" horiz-adv-x="460" 
d="M50 356q31 152 52.5 212.5t56.5 95.5q56 56 149 56q103 0 142 -69q23 -41 23 -103q0 -63 -27 -192q-31 -152 -52.5 -212.5t-56.5 -95.5q-56 -56 -149 -56q-103 0 -142 69q-23 41 -23 103q0 63 27 192zM184 356q-27 -135 -27 -190q0 -54 44 -54q24 0 43 19q17 17 31 64
t37 161q27 135 27 190q0 54 -44 54q-24 0 -43 -19q-17 -17 -31 -64t-37 -161zM201 769l16 81h252l-16 -81h-252z" />
    <glyph glyph-name="omacron" unicode="&#x14d;" 
d="M157 269q-21 -101 -21 -128q0 -18 9 -27q8 -8 22 -8q24 0 37 21q15 23 39 142q21 101 21 128q0 18 -9 27q-8 8 -22 8q-24 0 -37 -21q-15 -23 -39 -142zM29 269q20 99 36 144t42 76q47 57 140 57t126 -63q17 -33 17 -80q0 -36 -19 -134q-20 -99 -36 -144t-42 -76
q-48 -57 -140 -57q-93 0 -126 63q-17 33 -17 80q0 36 19 134zM131 600l16 81h252l-16 -81h-252z" />
    <glyph glyph-name="Obreve" unicode="&#x14e;" horiz-adv-x="460" 
d="M50 356q31 152 52.5 212.5t56.5 95.5q56 56 149 56q103 0 142 -69q23 -41 23 -103q0 -63 -27 -192q-31 -152 -52.5 -212.5t-56.5 -95.5q-56 -56 -149 -56q-103 0 -142 69q-23 41 -23 103q0 63 27 192zM184 356q-27 -135 -27 -190q0 -54 44 -54q24 0 43 19q17 17 31 64
t37 161q27 135 27 190q0 54 -44 54q-24 0 -43 -19q-17 -17 -31 -64t-37 -161zM218 875h83v-5q0 -33 40 -33q45 0 55 38h84q-12 -61 -46.5 -90t-100.5 -29q-54 0 -86 24.5t-32 66.5q0 13 3 28z" />
    <glyph glyph-name="obreve" unicode="&#x14f;" 
d="M157 269q-21 -101 -21 -128q0 -18 9 -27q8 -8 22 -8q24 0 37 21q15 23 39 142q21 101 21 128q0 18 -9 27q-8 8 -22 8q-24 0 -37 -21q-15 -23 -39 -142zM29 269q20 99 36 144t42 76q47 57 140 57t126 -63q17 -33 17 -80q0 -36 -19 -134q-20 -99 -36 -144t-42 -76
q-48 -57 -140 -57q-93 0 -126 63q-17 33 -17 80q0 36 19 134zM412 709q-12 -66 -47 -94.5t-96 -28.5q-52 0 -83 26t-31 68q0 12 3 29h80v-6q0 -34 40 -34q44 0 54 40h80z" />
    <glyph glyph-name="Ohungarumlaut" unicode="&#x150;" horiz-adv-x="460" 
d="M50 356q31 152 52.5 212.5t56.5 95.5q56 56 149 56q103 0 142 -69q23 -41 23 -103q0 -63 -27 -192q-31 -152 -52.5 -212.5t-56.5 -95.5q-56 -56 -149 -56q-103 0 -142 69q-23 41 -23 103q0 63 27 192zM184 356q-27 -135 -27 -190q0 -54 44 -54q24 0 43 19q17 17 31 64
t37 161q27 135 27 190q0 54 -44 54q-24 0 -43 -19q-17 -17 -31 -64t-37 -161zM206 755l67 146h99l-82 -146h-84zM359 755l67 146h99l-82 -146h-84z" />
    <glyph glyph-name="ohungarumlaut" unicode="&#x151;" 
d="M157 269q-21 -101 -21 -128q0 -18 9 -27q8 -8 22 -8q24 0 37 21q15 23 39 142q21 101 21 128q0 18 -9 27q-8 8 -22 8q-24 0 -37 -21q-15 -23 -39 -142zM29 269q20 99 36 144t42 76q47 57 140 57t126 -63q17 -33 17 -80q0 -36 -19 -134q-20 -99 -36 -144t-42 -76
q-48 -57 -140 -57q-93 0 -126 63q-17 33 -17 80q0 36 19 134zM142 586l67 146h99l-82 -146h-84zM295 586l67 146h99l-82 -146h-84z" />
    <glyph glyph-name="OE" unicode="&#x152;" horiz-adv-x="637" 
d="M182 -8q-97 1 -135 69q-23 41 -23 103q0 63 27 192q31 152 52.5 212.5t56.5 95.5q56 56 147 56q42 0 70 -28l4 20h315l-24 -120h-178l-35 -173h153l-24 -120h-153l-35 -179h178l-24 -120h-300l4 20q-35 -28 -76 -28zM185 356q-27 -135 -27 -190q0 -54 44 -54q24 0 43 19
q17 17 31 64t37 161q27 135 27 190q0 54 -44 54q-24 0 -43 -19q-17 -17 -31 -64t-37 -161z" />
    <glyph glyph-name="oe" unicode="&#x153;" horiz-adv-x="612" 
d="M29 269q20 99 36 144t42 76q47 57 140 57q63 0 100 -31q42 31 116 31q80 0 115 -50q23 -33 23 -90q0 -54 -25 -179h-215q-12 -65 -12 -86q0 -18 9 -27q8 -8 22 -8q18 0 29 11q14 14 23 48h128q-18 -73 -53 -116q-47 -57 -141 -57q-66 0 -101 31q-42 -31 -112 -31
q-93 0 -126 63q-17 33 -17 80q0 36 19 134zM157 269q-21 -101 -21 -128q0 -18 9 -27q8 -8 22 -8q24 0 37 21q15 23 39 142q21 101 21 128q0 18 -9 27q-8 8 -22 8q-24 0 -37 -21q-15 -23 -39 -142zM381 322h86q10 47 10 74q0 36 -31 36q-24 0 -37 -21q-12 -19 -28 -89z" />
    <glyph glyph-name="Racute" unicode="&#x154;" horiz-adv-x="478" 
d="M-1 0l142 712h189q80 0 118.5 -36.5t38.5 -97.5q0 -36 -9 -83q-18 -88 -43 -126t-72 -63l38 -306h-134l-30 281h-48l-56 -281h-134zM212 397h58q34 0 49.5 26.5t24.5 71.5q6 34 6 49q0 24 -10 36t-36 12h-53zM277 755l100 143h108l-118 -143h-90z" />
    <glyph glyph-name="racute" unicode="&#x155;" horiz-adv-x="315" 
d="M-9 0l107 538h122l-11 -58q22 29 56 47q37 19 89 19l-25 -126h-47q-33 0 -61 -25t-37 -67l-65 -328h-128zM164 586l100 143h108l-118 -143h-90z" />
    <glyph glyph-name="Rcommaaccent" unicode="&#x156;" horiz-adv-x="478" 
d="M-1 0l142 712h189q80 0 118.5 -36.5t38.5 -97.5q0 -36 -9 -83q-18 -88 -43 -126t-72 -63l38 -306h-134l-30 281h-48l-56 -281h-134zM212 397h58q34 0 49.5 26.5t24.5 71.5q6 34 6 49q0 24 -10 36t-36 12h-53zM53 -203l98 163h82l-84 -163h-96z" />
    <glyph glyph-name="rcommaaccent" unicode="&#x157;" horiz-adv-x="315" 
d="M-9 0l107 538h122l-11 -58q22 29 56 47q37 19 89 19l-25 -126h-47q-33 0 -61 -25t-37 -67l-65 -328h-128zM-78 -203l98 163h82l-84 -163h-96z" />
    <glyph glyph-name="Rcaron" unicode="&#x158;" horiz-adv-x="478" 
d="M-1 0l142 712h189q80 0 118.5 -36.5t38.5 -97.5q0 -36 -9 -83q-18 -88 -43 -126t-72 -63l38 -306h-134l-30 281h-48l-56 -281h-134zM212 397h58q34 0 49.5 26.5t24.5 71.5q6 34 6 49q0 24 -10 36t-36 12h-53zM279 755l-72 145h86l43 -78l71 78h96l-130 -145h-94z" />
    <glyph glyph-name="rcaron" unicode="&#x159;" horiz-adv-x="315" 
d="M-9 0l107 538h122l-11 -58q22 29 56 47q37 19 89 19l-25 -126h-47q-33 0 -61 -25t-37 -67l-65 -328h-128zM166 586l-72 145h86l43 -78l71 78h96l-130 -145h-94z" />
    <glyph glyph-name="Sacute" unicode="&#x15a;" horiz-adv-x="444" 
d="M18 203h134q-4 -23 -4 -41q0 -25 11 -36q14 -14 35 -14q29 0 46 17q18 18 27 62q5 25 5 53q0 37 -47 58l-69 33q-77 36 -77 116q0 40 9 85q18 89 60 131q53 53 142 53q88 0 133 -45q32 -32 32 -92q0 -38 -6 -72h-134q5 25 5 44q0 25 -10 35q-11 11 -29 11q-23 0 -38 -15
t-22 -50q-5 -25 -5 -44q0 -34 36 -50l57 -27q56 -26 78.5 -55t22.5 -75q0 -50 -9 -95q-12 -59 -26 -90.5t-37 -54.5q-53 -53 -156 -53q-90 0 -135 45q-36 36 -36 94q0 31 7 72zM263 755l100 143h108l-118 -143h-90z" />
    <glyph glyph-name="sacute" unicode="&#x15b;" horiz-adv-x="386" 
d="M29 36q-32 32 -32 88q0 17 4 37h126q-1 -6 -1 -16q0 -17 9 -27q10 -12 31 -12q23 0 35 16t12 38q0 34 -42 54l-49 23q-75 35 -75 119q0 92 61 148q45 42 126 42q83 0 120 -47q27 -33 27 -80q0 -17 -4 -37h-122q1 7 1 16q0 15 -10 25q-9 9 -27 9t-30 -12q-14 -14 -14 -39
q0 -29 35 -45l48 -22q84 -39 84 -132q0 -45 -17.5 -84t-43.5 -62q-50 -44 -129 -44q-80 0 -123 44zM206 586l100 143h108l-118 -143h-90z" />
    <glyph glyph-name="Scircumflex" unicode="&#x15c;" horiz-adv-x="444" 
d="M18 203h134q-4 -23 -4 -41q0 -25 11 -36q14 -14 35 -14q29 0 46 17q18 18 27 62q5 25 5 53q0 37 -47 58l-69 33q-77 36 -77 116q0 40 9 85q18 89 60 131q53 53 142 53q88 0 133 -45q32 -32 32 -92q0 -38 -6 -72h-134q5 25 5 44q0 25 -10 35q-11 11 -29 11q-23 0 -38 -15
t-22 -50q-5 -25 -5 -44q0 -34 36 -50l57 -27q56 -26 78.5 -55t22.5 -75q0 -50 -9 -95q-12 -59 -26 -90.5t-37 -54.5q-53 -53 -156 -53q-90 0 -135 45q-36 36 -36 94q0 31 7 72zM388 900l72 -145h-86l-43 78l-71 -78h-96l130 145h94z" />
    <glyph glyph-name="scircumflex" unicode="&#x15d;" horiz-adv-x="386" 
d="M29 36q-32 32 -32 88q0 17 4 37h126q-1 -6 -1 -16q0 -17 9 -27q10 -12 31 -12q23 0 35 16t12 38q0 34 -42 54l-49 23q-75 35 -75 119q0 92 61 148q45 42 126 42q83 0 120 -47q27 -33 27 -80q0 -17 -4 -37h-122q1 7 1 16q0 15 -10 25q-9 9 -27 9t-30 -12q-14 -14 -14 -39
q0 -29 35 -45l48 -22q84 -39 84 -132q0 -45 -17.5 -84t-43.5 -62q-50 -44 -129 -44q-80 0 -123 44zM331 731l72 -145h-86l-43 78l-71 -78h-96l130 145h94z" />
    <glyph glyph-name="Scedilla" unicode="&#x15e;" horiz-adv-x="444" 
d="M18 203h134q-4 -23 -4 -41q0 -25 11 -36q14 -14 35 -14q29 0 46 17q18 18 27 62q5 25 5 53q0 37 -47 58l-69 33q-77 36 -77 116q0 40 9 85q18 89 60 131q53 53 142 53q88 0 133 -45q32 -32 32 -92q0 -38 -6 -72h-134q5 25 5 44q0 25 -10 35q-11 11 -29 11q-23 0 -38 -15
t-22 -50q-5 -25 -5 -44q0 -34 36 -50l57 -27q56 -26 78.5 -55t22.5 -75q0 -50 -9 -95q-12 -59 -26 -90.5t-37 -54.5q-53 -53 -156 -53q-90 0 -135 45q-36 36 -36 94q0 31 7 72zM36 -203l98 163h82l-84 -163h-96z" />
    <glyph glyph-name="scedilla" unicode="&#x15f;" horiz-adv-x="386" 
d="M29 36q-32 32 -32 88q0 17 4 37h126q-1 -6 -1 -16q0 -17 9 -27q10 -12 31 -12q23 0 35 16t12 38q0 34 -42 54l-49 23q-75 35 -75 119q0 92 61 148q45 42 126 42q83 0 120 -47q27 -33 27 -80q0 -17 -4 -37h-122q1 7 1 16q0 15 -10 25q-9 9 -27 9t-30 -12q-14 -14 -14 -39
q0 -29 35 -45l48 -22q84 -39 84 -132q0 -45 -17.5 -84t-43.5 -62q-50 -44 -129 -44q-80 0 -123 44zM5 -203l98 163h82l-84 -163h-96z" />
    <glyph glyph-name="Scaron" unicode="&#x160;" horiz-adv-x="444" 
d="M18 203h134q-4 -23 -4 -41q0 -25 11 -36q14 -14 35 -14q29 0 46 17q18 18 27 62q5 25 5 53q0 37 -47 58l-69 33q-77 36 -77 116q0 40 9 85q18 89 60 131q53 53 142 53q88 0 133 -45q32 -32 32 -92q0 -38 -6 -72h-134q5 25 5 44q0 25 -10 35q-11 11 -29 11q-23 0 -38 -15
t-22 -50q-5 -25 -5 -44q0 -34 36 -50l57 -27q56 -26 78.5 -55t22.5 -75q0 -50 -9 -95q-12 -59 -26 -90.5t-37 -54.5q-53 -53 -156 -53q-90 0 -135 45q-36 36 -36 94q0 31 7 72zM265 755l-72 145h86l43 -78l71 78h96l-130 -145h-94z" />
    <glyph glyph-name="scaron" unicode="&#x161;" horiz-adv-x="386" 
d="M29 36q-32 32 -32 88q0 17 4 37h126q-1 -6 -1 -16q0 -17 9 -27q10 -12 31 -12q23 0 35 16t12 38q0 34 -42 54l-49 23q-75 35 -75 119q0 92 61 148q45 42 126 42q83 0 120 -47q27 -33 27 -80q0 -17 -4 -37h-122q1 7 1 16q0 15 -10 25q-9 9 -27 9t-30 -12q-14 -14 -14 -39
q0 -29 35 -45l48 -22q84 -39 84 -132q0 -45 -17.5 -84t-43.5 -62q-50 -44 -129 -44q-80 0 -123 44zM208 586l-72 145h86l43 -78l71 78h96l-130 -145h-94z" />
    <glyph glyph-name="Tcommaaccent" unicode="&#x162;" 
d="M80 0l118 592h-114l24 120h362l-24 -120h-114l-118 -592h-134zM4 -203l98 163h82l-84 -163h-96z" />
    <glyph glyph-name="tcommaaccent" unicode="&#x163;" horiz-adv-x="276" 
d="M44 128q0 25 5 50l49 243h-48l19 96h47l30 147h128l-30 -147h63l-19 -96h-62l-47 -234q-3 -15 -3 -30q0 -43 50 -43l-22 -114q-83 0 -123 35q-37 34 -37 93zM-30 -203l98 163h82l-84 -163h-96z" />
    <glyph glyph-name="Tcaron" unicode="&#x164;" 
d="M80 0l118 592h-114l24 120h362l-24 -120h-114l-118 -592h-134zM247 755l-72 145h86l43 -78l71 78h96l-130 -145h-94z" />
    <glyph glyph-name="tcaron" unicode="&#x165;" horiz-adv-x="276" 
d="M44 128q0 25 5 50l49 243h-48l19 96h47l30 147h128l-30 -147h63l-19 -96h-62l-47 -234q-3 -15 -3 -30q0 -43 50 -43l-22 -114q-83 0 -123 35q-37 34 -37 93zM289 587l58 166h89l-71 -166h-76z" />
    <glyph glyph-name="Tbar" unicode="&#x166;" 
d="M84 592l24 120h362l-24 -120h-114l-36 -181h53l-21 -105h-53l-61 -306h-134l61 306h-53l21 105h53l36 181h-114z" />
    <glyph glyph-name="tbar" unicode="&#x167;" horiz-adv-x="296" 
d="M25 254l17 83h48l17 84h-48l19 96h47l30 147h128l-30 -147h63l-19 -96h-62l-17 -84h62l-17 -83h-62l-13 -67q-3 -15 -3 -30q0 -43 50 -43l-22 -114q-83 0 -123 35q-37 34 -37 93q0 25 5 50l15 76h-48z" />
    <glyph glyph-name="Utilde" unicode="&#x168;" horiz-adv-x="476" 
d="M33 196l103 516h134l-105 -525q-3 -17 -3 -28q0 -47 48 -47q54 0 68 70l106 530h134l-106 -531q-19 -93 -73 -141t-146 -48q-80 0 -125 45q-40 40 -40 108q0 26 5 51zM239 773l-44 59q50 45 97 45q33 0 62 -17q25 -14 47 -14q25 0 52 24l44 -59q-50 -45 -97 -45
q-33 0 -62 17q-25 14 -47 14q-25 0 -52 -24z" />
    <glyph glyph-name="utilde" unicode="&#x169;" horiz-adv-x="422" 
d="M432 538l-107 -538h-122l8 38q-24 -24 -43 -34q-24 -12 -51 -12q-62 0 -89 45q-15 26 -15 66q0 15 9 61l74 374h128l-74 -373q-4 -20 -4 -27q0 -15 9 -23.5t23 -8.5q40 0 52 59l74 373h128zM180 604l-44 59q50 45 97 45q33 0 62 -17q25 -14 47 -14q25 0 52 24l44 -59
q-50 -45 -97 -45q-33 0 -62 17q-25 14 -47 14q-25 0 -52 -24z" />
    <glyph glyph-name="Umacron" unicode="&#x16a;" horiz-adv-x="476" 
d="M33 196l103 516h134l-105 -525q-3 -17 -3 -28q0 -47 48 -47q54 0 68 70l106 530h134l-106 -531q-19 -93 -73 -141t-146 -48q-80 0 -125 45q-40 40 -40 108q0 26 5 51zM209 769l16 81h252l-16 -81h-252z" />
    <glyph glyph-name="umacron" unicode="&#x16b;" horiz-adv-x="422" 
d="M432 538l-107 -538h-122l8 38q-24 -24 -43 -34q-24 -12 -51 -12q-62 0 -89 45q-15 26 -15 66q0 15 9 61l74 374h128l-74 -373q-4 -20 -4 -27q0 -15 9 -23.5t23 -8.5q40 0 52 59l74 373h128zM144 600l16 81h252l-16 -81h-252z" />
    <glyph glyph-name="Ubreve" unicode="&#x16c;" horiz-adv-x="476" 
d="M33 196l103 516h134l-105 -525q-3 -17 -3 -28q0 -47 48 -47q54 0 68 70l106 530h134l-106 -531q-19 -93 -73 -141t-146 -48q-80 0 -125 45q-40 40 -40 108q0 26 5 51zM484 878q-12 -66 -47 -94.5t-96 -28.5q-52 0 -83 26t-31 68q0 13 3 29h80v-6q0 -34 40 -34q44 0 54 40
h80z" />
    <glyph glyph-name="ubreve" unicode="&#x16d;" horiz-adv-x="422" 
d="M432 538l-107 -538h-122l8 38q-24 -24 -43 -34q-24 -12 -51 -12q-62 0 -89 45q-15 26 -15 66q0 15 9 61l74 374h128l-74 -373q-4 -20 -4 -27q0 -15 9 -23.5t23 -8.5q40 0 52 59l74 373h128zM425 709q-12 -66 -47 -94.5t-96 -28.5q-52 0 -83 26t-31 68q0 12 3 29h80v-6
q0 -34 40 -34q44 0 54 40h80z" />
    <glyph glyph-name="Uring" unicode="&#x16e;" horiz-adv-x="476" 
d="M33 196l103 516h134l-105 -525q-3 -17 -3 -28q0 -47 48 -47q54 0 68 70l106 530h134l-106 -531q-19 -93 -73 -141t-146 -48q-80 0 -125 45q-40 40 -40 108q0 26 5 51zM298 865q0 -20 13 -33.5t31 -13.5t31 13.5t13 33.5t-13 33.5t-31 13.5t-31 -13.5t-13 -33.5zM232 865
q0 46 32 78t78 32t78 -32t32 -78t-32 -78t-78 -32t-78 32t-32 78z" />
    <glyph glyph-name="uring" unicode="&#x16f;" horiz-adv-x="422" 
d="M432 538l-107 -538h-122l8 38q-24 -24 -43 -34q-24 -12 -51 -12q-62 0 -89 45q-15 26 -15 66q0 15 9 61l74 374h128l-74 -373q-4 -20 -4 -27q0 -15 9 -23.5t23 -8.5q40 0 52 59l74 373h128zM239 699q0 -20 13 -33.5t31 -13.5t31 13.5t13 33.5t-13 33.5t-31 13.5
t-31 -13.5t-13 -33.5zM173 699q0 46 32 78t78 32t78 -32t32 -78t-32 -78t-78 -32t-78 32t-32 78z" />
    <glyph glyph-name="Uhungarumlaut" unicode="&#x170;" horiz-adv-x="476" 
d="M33 196l103 516h134l-105 -525q-3 -17 -3 -28q0 -47 48 -47q54 0 68 70l106 530h134l-106 -531q-19 -93 -73 -141t-146 -48q-80 0 -125 45q-40 40 -40 108q0 26 5 51zM214 755l67 146h99l-82 -146h-84zM367 755l67 146h99l-82 -146h-84z" />
    <glyph glyph-name="uhungarumlaut" unicode="&#x171;" horiz-adv-x="422" 
d="M432 538l-107 -538h-122l8 38q-24 -24 -43 -34q-24 -12 -51 -12q-62 0 -89 45q-15 26 -15 66q0 15 9 61l74 374h128l-74 -373q-4 -20 -4 -27q0 -15 9 -23.5t23 -8.5q40 0 52 59l74 373h128zM155 586l67 146h99l-82 -146h-84zM308 586l67 146h99l-82 -146h-84z" />
    <glyph glyph-name="Uogonek" unicode="&#x172;" horiz-adv-x="476" 
d="M33 196l103 516h134l-105 -525q-3 -17 -3 -28q0 -47 48 -47q54 0 68 70l106 530h134l-106 -531q-19 -93 -73 -141t-146 -48q-80 0 -125 45q-40 40 -40 108q0 26 5 51zM114 -203l98 163h82l-84 -163h-96z" />
    <glyph glyph-name="uogonek" unicode="&#x173;" horiz-adv-x="422" 
d="M432 538l-107 -538h-122l8 38q-24 -24 -43 -34q-24 -12 -51 -12q-62 0 -89 45q-15 26 -15 66q0 15 9 61l74 374h128l-74 -373q-4 -20 -4 -27q0 -15 9 -23.5t23 -8.5q40 0 52 59l74 373h128zM125 -203l98 163h82l-84 -163h-96z" />
    <glyph glyph-name="Wcircumflex" unicode="&#x174;" horiz-adv-x="746" 
d="M85 0l8 712h143l-31 -513l182 513h149l-12 -513l164 513h143l-267 -712h-152l8 504l-183 -504h-152zM538 900l72 -145h-86l-43 78l-71 -78h-96l130 145h94z" />
    <glyph glyph-name="wcircumflex" unicode="&#x175;" horiz-adv-x="605" 
d="M65 0l-7 538h133l-19 -331l134 331h100l3 -332l109 332h137l-224 -538h-114l-5 310l-130 -310h-117zM441 731l72 -145h-86l-43 78l-71 -78h-96l130 145h94z" />
    <glyph glyph-name="Ycircumflex" unicode="&#x176;" horiz-adv-x="408" 
d="M84 0l54 273l-45 439h139l7 -264l107 264h146l-222 -449l-52 -263h-134zM369 900l72 -145h-86l-43 78l-71 -78h-96l130 145h94z" />
    <glyph glyph-name="ycircumflex" unicode="&#x177;" horiz-adv-x="404" 
d="M-23 -60q44 2 60 8q26 10 44 52l-23 538h134l-6 -343l127 343h146l-260 -587q-19 -43 -42.5 -69t-56.5 -37.5t-63.5 -15t-82.5 -3.5zM341 731l72 -145h-86l-43 78l-71 -78h-96l130 145h94z" />
    <glyph glyph-name="Ydieresis" unicode="&#x178;" horiz-adv-x="408" 
d="M84 0l54 273l-45 439h139l7 -264l107 264h146l-222 -449l-52 -263h-134zM142 759l24 120h115l-24 -120h-115zM329 759l24 120h115l-24 -120h-115z" />
    <glyph glyph-name="Zacute" unicode="&#x179;" horiz-adv-x="380" 
d="M-22 0l19 97l277 495h-169l24 120h312l-19 -97l-277 -495h180l-24 -120h-323zM243 755l100 143h108l-118 -143h-90z" />
    <glyph glyph-name="zacute" unicode="&#x17a;" horiz-adv-x="336" 
d="M-27 0l18 94l196 330h-125l23 114h274l-19 -94l-203 -330h141l-22 -114h-283zM178 586l100 143h108l-118 -143h-90z" />
    <glyph glyph-name="Zdotaccent" unicode="&#x17b;" horiz-adv-x="380" 
d="M-22 0l19 97l277 495h-169l24 120h312l-19 -97l-277 -495h180l-24 -120h-323zM237 759l24 120h114l-24 -120h-114z" />
    <glyph glyph-name="zdotaccent" unicode="&#x17c;" horiz-adv-x="336" 
d="M-27 0l18 94l196 330h-125l23 114h274l-19 -94l-203 -330h141l-22 -114h-283zM172 590l24 120h114l-24 -120h-114z" />
    <glyph glyph-name="Zcaron" unicode="&#x17d;" horiz-adv-x="380" 
d="M-22 0l19 97l277 495h-169l24 120h312l-19 -97l-277 -495h180l-24 -120h-323zM245 755l-72 145h86l43 -78l71 78h96l-130 -145h-94z" />
    <glyph glyph-name="zcaron" unicode="&#x17e;" horiz-adv-x="336" 
d="M-27 0l18 94l196 330h-125l23 114h274l-19 -94l-203 -330h141l-22 -114h-283zM180 586l-72 145h86l43 -78l71 78h96l-130 -145h-94z" />
    <glyph glyph-name="longs" unicode="&#x17f;" horiz-adv-x="216" 
d="M-9 0l109 546q21 103 82 144q28 19 57.5 24.5t86.5 5.5l-23 -114q-35 0 -52.5 -17.5t-24.5 -52.5l-107 -536h-128z" />
    <glyph glyph-name="uni018F" unicode="&#x18f;" horiz-adv-x="459" 
d="M53 392h262q20 107 20 154q0 54 -48 54q-25 0 -43 -18t-29 -70h-134q24 114 76 161q51 47 145 47q54 0 86.5 -15t55.5 -50q24 -37 24 -107q0 -62 -26 -192q-30 -151 -52 -212t-57 -96q-56 -56 -149 -56q-103 0 -142 69q-23 41 -23 103t34 228zM293 285h-126
q-14 -76 -14 -119q0 -54 44 -54q24 0 43 19q26 26 53 154z" />
    <glyph glyph-name="florin" unicode="&#x192;" horiz-adv-x="393" 
d="M90 389h63l69 189q27 75 70.5 109t114.5 34h58l-23 -113h-51q-15 0 -28 -11.5t-19 -28.5l-66 -179h69l-19 -96h-86l-171 -467h-122l169 467h-47z" />
    <glyph glyph-name="uni01B5" unicode="&#x1b5;" horiz-adv-x="380" 
d="M71 306l22 105h79l102 181h-169l24 120h312l-19 -97l-114 -204h43l-22 -105h-80l-104 -186h180l-24 -120h-323l19 97l117 209h-43z" />
    <glyph glyph-name="uni01B6" unicode="&#x1b6;" horiz-adv-x="336" 
d="M33 233l17 83h73l64 108h-125l23 114h274l-19 -94l-79 -128h40l-17 -83h-74l-73 -119h141l-22 -114h-283l18 94l82 139h-40z" />
    <glyph glyph-name="uni01C4" unicode="&#x1c4;" horiz-adv-x="854" 
d="M157 120h49q39 0 61 31q22 33 57 206q28 138 28 182q0 25 -13 39q-12 14 -35 14h-53zM-1 0l142 712h184q53 0 84 -17t53 -53q24 -38 24 -103q0 -36 -28 -182q-28 -140 -48 -201t-54 -95q-61 -61 -161 -61h-196zM453 0l19 97l277 495h-169l24 120h312l-19 -97l-277 -495
h180l-24 -120h-323zM719 755l-72 145h86l43 -78l71 78h96l-130 -145h-94z" />
    <glyph glyph-name="uni01C5" unicode="&#x1c5;" horiz-adv-x="810" 
d="M157 120h49q39 0 61 31q22 33 57 206q28 138 28 182q0 25 -13 39q-12 14 -35 14h-53zM-1 0l142 712h184q53 0 84 -17t53 -53q24 -38 24 -103q0 -36 -28 -182q-28 -140 -48 -201t-54 -95q-61 -61 -161 -61h-196zM447 0l18 94l196 330h-125l23 114h274l-19 -94l-203 -330
h141l-22 -114h-283zM664 586l-72 145h86l43 -78l71 78h96l-130 -145h-94z" />
    <glyph glyph-name="uni01C6" unicode="&#x1c6;" horiz-adv-x="747" 
d="M5 107q0 47 23 162q24 118 40 165t38 69q43 43 105 43q29 0 49 -14q16 -12 27 -26l41 206h128l-142 -712h-122l7 39q-19 -23 -40 -34q-24 -13 -51 -13q-63 0 -87 44q-16 31 -16 71zM156 269q-19 -95 -19 -125q0 -21 9 -30q8 -8 22 -8q18 0 30 12q14 14 20 43l43 216
q3 15 3 23q0 16 -9 25q-7 7 -22 7q-18 0 -32 -14q-19 -19 -45 -149zM384 0l18 94l196 330h-125l23 114h274l-19 -94l-203 -330h141l-22 -114h-283zM611 586l-72 145h86l43 -78l71 78h96l-130 -145h-94z" />
    <glyph glyph-name="uni01C7" unicode="&#x1c7;" horiz-adv-x="785" 
d="M-1 0l142 712h134l-118 -592h178l-24 -120h-312zM355 66l102 75q21 -29 52 -29q63 0 82 93l101 507h134l-101 -507q-22 -109 -71 -157q-59 -56 -148 -56q-107 0 -151 74z" />
    <glyph glyph-name="uni01C8" unicode="&#x1c8;" horiz-adv-x="602" 
d="M-1 0l142 712h134l-118 -592h178l-24 -120h-312zM378 10l102 507h128l-104 -517q-21 -103 -82 -144q-28 -19 -57.5 -24.5t-86.5 -5.5l23 114q35 0 52.5 17.5t24.5 52.5zM492 578l27 134h128l-27 -134h-128z" />
    <glyph glyph-name="uni01C9" unicode="&#x1c9;" horiz-adv-x="465" 
d="M56 35q-37 34 -37 93q0 25 5 50l107 534h128l-105 -525q-3 -15 -3 -30q0 -43 50 -43l-22 -114q-83 0 -123 35zM241 10l102 507h128l-104 -517q-21 -103 -82 -144q-28 -19 -57.5 -24.5t-86.5 -5.5l23 114q35 0 52.5 17.5t24.5 52.5zM355 578l27 134h128l-27 -134h-128z
" />
    <glyph glyph-name="uni01CA" unicode="&#x1ca;" horiz-adv-x="885" 
d="M-1 0l142 712h109l72 -361l67 361h134l-142 -712h-104l-73 360l-71 -360h-134zM455 66l102 75q21 -29 52 -29q63 0 82 93l101 507h134l-101 -507q-22 -109 -71 -157q-59 -56 -148 -56q-107 0 -151 74z" />
    <glyph glyph-name="uni01CB" unicode="&#x1cb;" horiz-adv-x="702" 
d="M-1 0l142 712h109l72 -361l67 361h134l-142 -712h-104l-73 360l-71 -360h-134zM478 10l102 507h128l-104 -517q-21 -103 -82 -144q-28 -19 -57.5 -24.5t-86.5 -5.5l23 114q35 0 52.5 17.5t24.5 52.5zM592 578l27 134h128l-27 -134h-128z" />
    <glyph glyph-name="uni01CC" unicode="&#x1cc;" horiz-adv-x="638" 
d="M-9 0l107 538h122l-8 -38q24 24 43 34q24 12 51 12q62 0 89 -45q15 -26 15 -66q0 -15 -9 -61l-74 -374h-128l74 373q4 20 4 27q0 15 -9 23.5t-23 8.5q-40 0 -52 -59l-74 -373h-128zM414 10l102 507h128l-104 -517q-21 -103 -82 -144q-28 -19 -57.5 -24.5t-86.5 -5.5
l23 114q35 0 52.5 17.5t24.5 52.5zM528 578l27 134h128l-27 -134h-128z" />
    <glyph glyph-name="uni01F1" unicode="&#x1f1;" horiz-adv-x="854" 
d="M157 120h49q39 0 61 31q22 33 57 206q28 138 28 182q0 25 -13 39q-12 14 -35 14h-53zM-1 0l142 712h184q53 0 84 -17t53 -53q24 -38 24 -103q0 -36 -28 -182q-28 -140 -48 -201t-54 -95q-61 -61 -161 -61h-196zM452 0l19 97l277 495h-169l24 120h312l-19 -97l-277 -495
h180l-24 -120h-323z" />
    <glyph glyph-name="uni01F2" unicode="&#x1f2;" horiz-adv-x="810" 
d="M157 120h49q39 0 61 31q22 33 57 206q28 138 28 182q0 25 -13 39q-12 14 -35 14h-53zM-1 0l142 712h184q53 0 84 -17t53 -53q24 -38 24 -103q0 -36 -28 -182q-28 -140 -48 -201t-54 -95q-61 -61 -161 -61h-196zM447 0l18 94l196 330h-125l23 114h274l-19 -94l-203 -330
h141l-22 -114h-283z" />
    <glyph glyph-name="uni01F3" unicode="&#x1f3;" horiz-adv-x="747" 
d="M384 0l18 94l196 330h-125l23 114h274l-19 -94l-203 -330h141l-22 -114h-283zM5 107q0 47 23 162q24 118 40 165t38 69q43 43 105 43q29 0 49 -14q16 -12 27 -26l41 206h128l-142 -712h-122l7 39q-19 -23 -40 -34q-24 -13 -51 -13q-63 0 -87 44q-16 31 -16 71zM156 269
q-19 -95 -19 -125q0 -21 9 -30q8 -8 22 -8q18 0 30 12q14 14 20 43l43 216q3 15 3 23q0 16 -9 25q-7 7 -22 7q-18 0 -32 -14q-19 -19 -45 -149z" />
    <glyph glyph-name="Aringacute" unicode="&#x1fa;" horiz-adv-x="492" 
d="M433 0h-135l1 115h-156l-46 -115h-144l316 712h132zM297 235l1 279l-107 -279h106zM350 987l100 143h108l-118 -143h-90zM306 865q0 -20 13 -33.5t31 -13.5t31 13.5t13 33.5t-13 33.5t-31 13.5t-31 -13.5t-13 -33.5zM240 865q0 46 32 78t78 32t78 -32t32 -78t-32 -78
t-78 -32t-78 32t-32 78z" />
    <glyph glyph-name="aringacute" unicode="&#x1fb;" horiz-adv-x="404" 
d="M8 43q-15 27 -15 69q0 26 6 56q15 74 71 117q45 34 131 34h44l11 55q3 15 3 26q0 32 -31 32q-18 0 -30 -12t-18 -40h-128q17 83 66 126q45 40 125 40q84 0 119 -45q25 -32 25 -86q0 -27 -6 -57l-71 -358h-120l9 45q-20 -25 -40 -37q-25 -16 -57 -16q-64 0 -94 51z
M126 146q0 -40 37 -40q40 0 52 61l13 63h-22q-35 0 -52 -13q-28 -23 -28 -71zM273 820l100 143h108l-118 -143h-90zM237 699q0 -20 13 -33.5t31 -13.5t31 13.5t13 33.5t-13 33.5t-31 13.5t-31 -13.5t-13 -33.5zM171 699q0 46 32 78t78 32t78 -32t32 -78t-32 -78t-78 -32
t-78 32t-32 78z" />
    <glyph glyph-name="AEacute" unicode="&#x1fc;" horiz-adv-x="679" 
d="M-48 0l388 712h398l-24 -120h-178l-35 -173h153l-24 -120h-153l-35 -179h178l-24 -120h-312l25 125h-145l-63 -125h-149zM228 245h105l69 349zM448 755l100 143h108l-118 -143h-90z" />
    <glyph glyph-name="aeacute" unicode="&#x1fd;" horiz-adv-x="604" 
d="M-1 168q15 74 71 117q45 34 131 34h44l11 55q3 15 3 26q0 32 -31 32q-18 0 -30 -12t-18 -40h-128q17 83 66 126q45 40 125 40q63 0 101 -30q46 30 111 30q80 0 115 -50q23 -33 23 -90q0 -54 -25 -179h-215q-12 -65 -12 -86q0 -18 9 -27q8 -8 22 -8q18 0 29 11
q14 14 23 48h128q-18 -73 -53 -116q-47 -57 -141 -57q-53 0 -80 13q-28 14 -52 48q-25 -34 -59 -49q-29 -12 -65 -12q-64 0 -94 51q-15 27 -15 69q0 26 6 56zM126 146q0 -40 37 -40q40 0 52 61l13 63h-22q-35 0 -52 -13q-28 -23 -28 -71zM373 322h86q10 47 10 74
q0 36 -31 36q-24 0 -37 -21q-12 -19 -28 -89zM307 586l100 143h108l-118 -143h-90z" />
    <glyph glyph-name="Oslashacute" unicode="&#x1fe;" horiz-adv-x="460" 
d="M50 356q31 152 52.5 212.5t56.5 95.5q56 56 149 56q58 0 94 -21l32 57h84l-64 -113q19 -38 19 -95q0 -63 -27 -192q-31 -152 -52.5 -212.5t-56.5 -95.5q-56 -56 -149 -56q-57 0 -94 20l-32 -56h-84l64 112q-19 39 -19 96q0 63 27 192zM312 356q8 40 14 74l-165 -293
q9 -25 40 -25q24 0 43 19q17 17 31 64t37 161zM184 356q-4 -19 -13 -70l163 290q-9 24 -39 24q-24 0 -43 -19q-17 -17 -31 -64t-37 -161zM275 755l100 143h108l-118 -143h-90z" />
    <glyph glyph-name="oslashacute" unicode="&#x1ff;" 
d="M362 582h80l-67 -103q15 -31 15 -76q0 -36 -19 -134q-20 -99 -36 -144t-42 -76q-48 -57 -140 -57q-49 0 -81 17l-34 -53h-80l66 104q-14 29 -14 75q0 36 19 134q20 99 36 144t42 76q47 57 140 57q47 0 81 -17zM243 269l3 17l-105 -168q9 -12 26 -12q24 0 37 21
q15 23 39 142zM157 269l-4 -17l106 168q-9 12 -26 12q-24 0 -37 -21q-15 -23 -39 -142zM211 586l100 143h108l-118 -143h-90z" />
    <glyph glyph-name="Scommaaccent" unicode="&#x218;" horiz-adv-x="444" 
d="M18 203h134q-4 -23 -4 -41q0 -25 11 -36q14 -14 35 -14q29 0 46 17q18 18 27 62q5 25 5 53q0 37 -47 58l-69 33q-77 36 -77 116q0 40 9 85q18 89 60 131q53 53 142 53q88 0 133 -45q32 -32 32 -92q0 -38 -6 -72h-134q5 25 5 44q0 25 -10 35q-11 11 -29 11q-23 0 -38 -15
t-22 -50q-5 -25 -5 -44q0 -34 36 -50l57 -27q56 -26 78.5 -55t22.5 -75q0 -50 -9 -95q-12 -59 -26 -90.5t-37 -54.5q-53 -53 -156 -53q-90 0 -135 45q-36 36 -36 94q0 31 7 72zM36 -203l98 163h82l-84 -163h-96z" />
    <glyph glyph-name="scommaaccent" unicode="&#x219;" horiz-adv-x="386" 
d="M29 36q-32 32 -32 88q0 17 4 37h126q-1 -6 -1 -16q0 -17 9 -27q10 -12 31 -12q23 0 35 16t12 38q0 34 -42 54l-49 23q-75 35 -75 119q0 92 61 148q45 42 126 42q83 0 120 -47q27 -33 27 -80q0 -17 -4 -37h-122q1 7 1 16q0 15 -10 25q-9 9 -27 9t-30 -12q-14 -14 -14 -39
q0 -29 35 -45l48 -22q84 -39 84 -132q0 -45 -17.5 -84t-43.5 -62q-50 -44 -129 -44q-80 0 -123 44zM5 -203l98 163h82l-84 -163h-96z" />
    <glyph glyph-name="uni021A" unicode="&#x21a;" 
d="M80 0l118 592h-114l24 120h362l-24 -120h-114l-118 -592h-134zM4 -203l98 163h82l-84 -163h-96z" />
    <glyph glyph-name="uni021B" unicode="&#x21b;" horiz-adv-x="276" 
d="M44 128q0 25 5 50l49 243h-48l19 96h47l30 147h128l-30 -147h63l-19 -96h-62l-47 -234q-3 -15 -3 -30q0 -43 50 -43l-22 -114q-83 0 -123 35q-37 34 -37 93zM-27 -203l98 163h82l-84 -163h-96z" />
    <glyph glyph-name="uni0237" unicode="&#x237;" horiz-adv-x="216" 
d="M-8 10l102 507h128l-104 -517q-21 -103 -82 -144q-28 -19 -57.5 -24.5t-86.5 -5.5l23 114q35 0 52.5 17.5t24.5 52.5z" />
    <glyph glyph-name="uni0259" unicode="&#x259;" horiz-adv-x="399" 
d="M36 311h214q11 53 11 85q0 19 -9 28q-8 8 -22 8q-23 0 -37 -20q-11 -18 -15 -38h-126q21 84 69 129q46 43 128 43q77 0 113 -50q25 -34 25 -91q0 -56 -16 -136q-22 -104 -44.5 -157.5t-54.5 -80.5q-46 -39 -126 -39q-73 0 -112 50q-23 33 -23 90q0 54 25 179zM231 216
h-86q-10 -47 -10 -74q0 -36 31 -36q23 0 37 20q14 21 28 90z" />
    <glyph glyph-name="uni02BB" unicode="&#x2bb;" horiz-adv-x="240" 
d="M114 570l28 142l155 105l-49 -247h-134z" />
    <glyph glyph-name="afii57929" unicode="&#x2bc;" horiz-adv-x="240" 
d="M93 465l49 247h134l-28 -142z" />
    <glyph glyph-name="circumflex" unicode="&#x2c6;" 
d="M339 731l72 -145h-86l-43 78l-71 -78h-96l130 145h94z" />
    <glyph glyph-name="caron" unicode="&#x2c7;" 
d="M216 586l-72 145h86l43 -78l71 78h96l-130 -145h-94z" />
    <glyph glyph-name="breve" unicode="&#x2d8;" 
d="M415 709q-12 -66 -47 -94.5t-96 -28.5q-52 0 -83 26t-31 68q0 12 3 29h80v-6q0 -34 40 -34q44 0 54 40h80z" />
    <glyph glyph-name="dotaccent" unicode="&#x2d9;" 
d="M208 590l24 120h114l-24 -120h-114z" />
    <glyph glyph-name="ring" unicode="&#x2da;" 
d="M226 699q0 -20 13 -33.5t31 -13.5t31 13.5t13 33.5t-13 33.5t-31 13.5t-31 -13.5t-13 -33.5zM160 699q0 46 32 78t78 32t78 -32t32 -78t-32 -78t-78 -32t-78 32t-32 78z" />
    <glyph glyph-name="ogonek" unicode="&#x2db;" 
d="M13 -203l98 163h82l-84 -163h-96z" />
    <glyph glyph-name="tilde" unicode="&#x2dc;" 
d="M170 604l-44 59q50 45 97 45q33 0 62 -17q25 -14 47 -14q25 0 52 24l44 -59q-50 -45 -97 -45q-33 0 -62 17q-25 14 -47 14q-25 0 -52 -24z" />
    <glyph glyph-name="hungarumlaut" unicode="&#x2dd;" 
d="M145 586l67 146h99l-82 -146h-84zM298 586l67 146h99l-82 -146h-84z" />
    <glyph glyph-name="uni0394" unicode="&#x394;" horiz-adv-x="492" 
d="M-47 0l316 712h132l32 -712h-480zM149 120h151l3 395z" />
    <glyph glyph-name="uni03A9" unicode="&#x3a9;" horiz-adv-x="460" 
d="M446 356q-34 -161 -63 -211q-11 -18 -26 -30h46l-23 -115h-174l20 101q20 14 33 47q23 60 53 208q27 135 27 190q0 54 -44 54q-24 0 -43 -19q-17 -17 -31 -64t-37 -161q-30 -150 -30 -212q0 -31 14 -43l-20 -101h-174l23 115h53q-21 23 -21 76q0 64 21 165
q31 152 52.5 212.5t56.5 95.5q56 56 149 56q103 0 142 -69q23 -41 23 -103q0 -63 -27 -192z" />
    <glyph glyph-name="uni03BC" unicode="&#x3bc;" horiz-adv-x="422" 
d="M-46 -174l142 712h128l-74 -373q-4 -20 -4 -27q0 -15 9 -23.5t23 -8.5q40 0 52 59l74 373h128l-107 -538h-122l7 38q-25 -25 -42 -34q-10 -5 -22 -8q-16 -4 -37 -4l-33 -166h-122z" />
    <glyph glyph-name="pi" unicode="&#x3c0;" horiz-adv-x="424" 
d="M-9 0l107 538h336l-107 -538h-128l86 434h-80l-86 -434h-128z" />
    <glyph glyph-name="uni0400" unicode="&#x400;" horiz-adv-x="394" 
d="M-1 0l142 712h312l-24 -120h-178l-35 -173h153l-24 -120h-153l-35 -179h178l-24 -120h-312zM266 755l-57 143h100l43 -143h-86z" />
    <glyph glyph-name="afii10023" unicode="&#x401;" horiz-adv-x="394" 
d="M-1 0l142 712h312l-24 -120h-178l-35 -173h153l-24 -120h-153l-35 -179h178l-24 -120h-312zM154 759l24 120h115l-24 -120h-115zM341 759l24 120h115l-24 -120h-115z" />
    <glyph glyph-name="afii10051" unicode="&#x402;" horiz-adv-x="527" 
d="M61 0l118 592h-95l24 120h360l-24 -120h-131l-28 -138h49q86 0 127 -41q36 -36 36 -101q0 -45 -8 -85q-26 -130 -79 -178.5t-148 -48.5h-16l24 120q9 0 13 1q31 3 45.5 27.5t26.5 78.5q7 35 7 56q0 26 -12 38.5t-41 12.5h-48l-66 -334h-134z" />
    <glyph glyph-name="afii10052" unicode="&#x403;" horiz-adv-x="378" 
d="M-1 0l142 712h307l-24 -120h-173l-118 -592h-134zM234 755l100 143h108l-118 -143h-90z" />
    <glyph glyph-name="afii10053" unicode="&#x404;" horiz-adv-x="450" 
d="M23 164q0 63 27 192q31 152 52.5 212.5t56.5 95.5q56 56 148 56q90 0 132 -52q34 -42 34 -110q0 -28 -2 -45h-134q2 15 2 37q0 50 -43 50q-25 0 -44 -19q-26 -26 -55 -162h120l-24 -120h-120q-16 -92 -16 -133q0 -54 43 -54q32 0 51 27q16 23 25 61h136
q-23 -110 -82 -162q-52 -46 -142 -46q-103 0 -142 69q-23 41 -23 103z" />
    <glyph glyph-name="afii10054" unicode="&#x405;" horiz-adv-x="444" 
d="M18 203h134q-4 -23 -4 -41q0 -25 11 -36q14 -14 35 -14q29 0 46 17q18 18 27 62q5 25 5 53q0 37 -47 58l-69 33q-77 36 -77 116q0 40 9 85q18 89 60 131q53 53 142 53q88 0 133 -45q32 -32 32 -92q0 -38 -6 -72h-134q5 25 5 44q0 25 -10 35q-11 11 -29 11q-23 0 -38 -15
t-22 -50q-5 -25 -5 -44q0 -34 36 -50l57 -27q56 -26 78.5 -55t22.5 -75q0 -50 -9 -95q-12 -59 -26 -90.5t-37 -54.5q-53 -53 -156 -53q-90 0 -135 45q-36 36 -36 94q0 31 7 72z" />
    <glyph glyph-name="afii10055" unicode="&#x406;" horiz-adv-x="238" 
d="M-1 0l142 712h134l-142 -712h-134z" />
    <glyph glyph-name="afii10056" unicode="&#x407;" horiz-adv-x="238" 
d="M-1 0l142 712h134l-142 -712h-134zM63 759l24 120h115l-24 -120h-115zM250 759l24 120h115l-24 -120h-115z" />
    <glyph glyph-name="afii10057" unicode="&#x408;" horiz-adv-x="399" 
d="M-31 66l102 75q21 -29 52 -29q63 0 82 93l101 507h134l-101 -507q-22 -109 -71 -157q-59 -56 -148 -56q-107 0 -151 74z" />
    <glyph glyph-name="afii10058" unicode="&#x409;" horiz-adv-x="746" 
d="M281 0l118 592h-96l-61 -306q-18 -89 -45.5 -149t-62 -88t-66 -38.5t-69.5 -10.5h-41l24 120h11q23 0 36.5 4.5t29.5 21.5t29.5 54.5t25.5 98.5l83 413h360l-52 -258h47q86 0 127 -41q36 -36 36 -101q0 -45 -8 -85q-26 -130 -79 -178.5t-148 -48.5h-199zM439 120h48
q39 0 56.5 24.5t29.5 82.5q7 35 7 56q0 26 -12 38.5t-41 12.5h-46z" />
    <glyph glyph-name="afii10059" unicode="&#x40a;" horiz-adv-x="714" 
d="M249 0l66 334h-116l-66 -334h-134l142 712h134l-52 -258h116l52 258h134l-52 -258h47q86 0 127 -41q36 -36 36 -101q0 -45 -8 -85q-26 -130 -79 -178.5t-148 -48.5h-199zM407 120h48q39 0 56.5 24.5t29.5 82.5q7 35 7 56q0 26 -12 38.5t-41 12.5h-46z" />
    <glyph glyph-name="afii10060" unicode="&#x40b;" horiz-adv-x="526" 
d="M61 0l118 592h-95l24 120h360l-24 -120h-131l-27 -137h50q80 0 121 -36.5t41 -99.5q0 -34 -14 -102l-43 -217h-134l43 217q8 38 8 72q0 46 -52 46h-44l-67 -335h-134z" />
    <glyph glyph-name="afii10061" unicode="&#x40c;" horiz-adv-x="480" 
d="M272 0l-66 362l198 350h148l-207 -347l75 -365h-148zM-1 0l142 712h134l-142 -712h-134zM300 755l100 143h108l-118 -143h-90z" />
    <glyph glyph-name="uni040D" unicode="&#x40d;" horiz-adv-x="490" 
d="M-1 0l142 712h134l-72 -358l211 358h113l-142 -712h-134l71 357l-207 -357h-116zM306 755l-57 143h100l43 -143h-86z" />
    <glyph glyph-name="afii10062" unicode="&#x40e;" horiz-adv-x="436" 
d="M-2 0l24 120q47 0 71 15.5t40 55.5l16 42l-56 479h137l14 -299l135 299h142l-285 -558q-22 -42 -34 -62.5t-31 -42.5t-40.5 -30t-53.5 -13.5t-79 -5.5zM203 875h83v-5q0 -33 40 -33q45 0 55 38h84q-12 -61 -46.5 -90t-100.5 -29q-54 0 -86 24.5t-32 66.5q0 13 3 28z" />
    <glyph glyph-name="afii10145" unicode="&#x40f;" horiz-adv-x="486" 
d="M-1 0l142 712h134l-118 -592h114l118 592h134l-142 -712h-130l-29 -144h-122l29 144h-130z" />
    <glyph glyph-name="afii10017" unicode="&#x410;" horiz-adv-x="492" 
d="M433 0h-135l1 115h-156l-46 -115h-144l316 712h132zM297 235l1 279l-107 -279h106z" />
    <glyph glyph-name="afii10018" unicode="&#x411;" horiz-adv-x="462" 
d="M-1 0l142 712h347l-24 -120h-213l-28 -138h47q86 0 127 -41q36 -36 36 -101q0 -45 -8 -85q-26 -130 -79 -178.5t-148 -48.5h-199zM157 120h48q39 0 56.5 24.5t29.5 82.5q7 35 7 56q0 27 -11 38q-13 13 -42 13h-46z" />
    <glyph glyph-name="afii10019" unicode="&#x412;" horiz-adv-x="477" 
d="M-1 0l142 712h183q95 0 131 -48q27 -36 27 -89q0 -28 -8 -67q-16 -80 -52 -112q-19 -16 -38 -24q17 -8 28 -25q18 -25 18 -63q0 -35 -8 -75q-24 -122 -74 -167q-27 -24 -61 -33t-92 -9h-196zM157 120h44q42 0 59.5 20.5t28.5 73.5q6 28 6 48q0 28 -13 40.5t-42 12.5h-44z
M218 429h38q38 0 56.5 18.5t27.5 60.5q5 23 5 38q0 23 -11.5 34.5t-40.5 11.5h-42z" />
    <glyph glyph-name="afii10020" unicode="&#x413;" horiz-adv-x="378" 
d="M-1 0l142 712h307l-24 -120h-173l-118 -592h-134z" />
    <glyph glyph-name="afii10021" unicode="&#x414;" horiz-adv-x="557" 
d="M-18 120h47q89 161 129 365l45 227h360l-118 -592h60l-53 -264h-127l29 144h-269l-29 -144h-126zM166 120h145l94 472h-96l-32 -161q-33 -165 -111 -311z" />
    <glyph glyph-name="afii10022" unicode="&#x415;" horiz-adv-x="394" 
d="M-1 0l142 712h312l-24 -120h-178l-35 -173h153l-24 -120h-153l-35 -179h178l-24 -120h-312z" />
    <glyph glyph-name="afii10024" unicode="&#x416;" horiz-adv-x="722" 
d="M-58 0l237 391l-63 321h136l61 -341l-216 -371h-155zM519 0l-68 369l197 343h151l-211 -350l73 -362h-142zM241 0l142 712h134l-142 -712h-134z" />
    <glyph glyph-name="afii10025" unicode="&#x417;" horiz-adv-x="454" 
d="M53 33q-43 43 -43 119q0 27 4 47h136q-4 -20 -4 -36q0 -27 13 -40q11 -11 34 -11q27 0 42 17q17 18 31 85q5 28 5 43q0 23 -9 35q-12 15 -39 15h-54l24 116h51q29 0 45 16q15 15 25 67q6 30 6 49q0 22 -11 33q-12 12 -32 12q-29 0 -45 -19q-17 -19 -27 -69h-133
q23 114 75 161q51 47 143 47q86 0 126 -40q39 -39 39 -96q0 -35 -8 -75q-8 -41 -17 -62t-27 -42q-15 -20 -50 -41q52 -34 52 -101q0 -21 -8 -61q-14 -71 -27.5 -102t-41.5 -59q-49 -49 -142 -49q-92 0 -133 41z" />
    <glyph glyph-name="afii10026" unicode="&#x418;" horiz-adv-x="490" 
d="M-1 0l142 712h134l-72 -358l211 358h113l-142 -712h-134l71 357l-207 -357h-116z" />
    <glyph glyph-name="afii10027" unicode="&#x419;" horiz-adv-x="490" 
d="M-1 0l142 712h134l-72 -358l211 358h113l-142 -712h-134l71 357l-207 -357h-116zM239 875h83v-5q0 -33 40 -33q45 0 55 38h84q-12 -61 -46.5 -90t-100.5 -29q-54 0 -86 24.5t-32 66.5q0 13 3 28z" />
    <glyph glyph-name="afii10028" unicode="&#x41a;" horiz-adv-x="480" 
d="M272 0l-66 362l198 350h148l-207 -347l75 -365h-148zM-1 0l142 712h134l-142 -712h-134z" />
    <glyph glyph-name="afii10029" unicode="&#x41b;" horiz-adv-x="521" 
d="M-42 0l24 120h12q45 0 72 37.5t48 141.5l83 413h361l-142 -712h-135l118 592h-96l-59 -293q-19 -97 -39 -154.5t-50 -90.5t-65 -43.5t-91 -10.5h-41z" />
    <glyph glyph-name="afii10030" unicode="&#x41c;" horiz-adv-x="587" 
d="M-1 0l142 712h118l54 -344l193 344h118l-142 -712h-134l75 375l-123 -243h-69l-23 243l-75 -375h-134z" />
    <glyph glyph-name="afii10031" unicode="&#x41d;" horiz-adv-x="486" 
d="M-1 0l142 712h134l-58 -290h114l58 290h134l-142 -712h-134l60 302h-114l-60 -302h-134z" />
    <glyph glyph-name="afii10032" unicode="&#x41e;" horiz-adv-x="460" 
d="M50 356q31 152 52.5 212.5t56.5 95.5q56 56 149 56q103 0 142 -69q23 -41 23 -103q0 -63 -27 -192q-31 -152 -52.5 -212.5t-56.5 -95.5q-56 -56 -149 -56q-103 0 -142 69q-23 41 -23 103q0 63 27 192zM184 356q-27 -135 -27 -190q0 -54 44 -54q24 0 43 19q17 17 31 64
t37 161q27 135 27 190q0 54 -44 54q-24 0 -43 -19q-17 -17 -31 -64t-37 -161z" />
    <glyph glyph-name="afii10033" unicode="&#x41f;" horiz-adv-x="486" 
d="M-1 0l142 712h382l-142 -712h-134l118 592h-114l-118 -592h-134z" />
    <glyph glyph-name="afii10034" unicode="&#x420;" horiz-adv-x="462" 
d="M-1 0l142 712h181q86 0 127 -41q36 -36 36 -101q0 -45 -8 -85q-26 -130 -79 -178.5t-148 -48.5h-66l-51 -258h-134zM208 378h49q39 0 56.5 24.5t29.5 82.5q7 35 7 56q0 26 -12 38.5t-41 12.5h-46z" />
    <glyph glyph-name="afii10035" unicode="&#x421;" horiz-adv-x="450" 
d="M23 164q0 63 27 192q31 152 52.5 212.5t56.5 95.5q56 56 148 56q90 0 132 -52q34 -42 34 -110q0 -28 -2 -45h-134q2 15 2 37q0 50 -43 50q-25 0 -44 -19q-17 -17 -31 -64t-37 -161q-27 -135 -27 -190q0 -54 43 -54q32 0 51 27q16 23 25 61h136q-23 -110 -82 -162
q-52 -46 -142 -46q-103 0 -142 69q-23 41 -23 103z" />
    <glyph glyph-name="afii10036" unicode="&#x422;" 
d="M80 0l118 592h-114l24 120h362l-24 -120h-114l-118 -592h-134z" />
    <glyph glyph-name="afii10037" unicode="&#x423;" horiz-adv-x="436" 
d="M-2 0l24 120q47 0 71 15.5t40 55.5l16 42l-56 479h137l14 -299l135 299h142l-285 -558q-22 -42 -34 -62.5t-31 -42.5t-40.5 -30t-53.5 -13.5t-79 -5.5z" />
    <glyph glyph-name="afii10038" unicode="&#x424;" horiz-adv-x="650" 
d="M204 -6l17 84q-92 4 -137.5 50t-45.5 119q0 47 16 129q16 81 32.5 128.5t47.5 88.5t80.5 59.5t125.5 21.5l15 74h132l-15 -74q92 -4 137.5 -50t45.5 -119q0 -47 -16 -129q-16 -81 -32.5 -128.5t-47.5 -88.5t-80.5 -59.5t-125.5 -21.5l-17 -84h-132zM174 274
q0 -40 16 -57.5t58 -18.5l71 356q-53 -2 -82 -40.5t-49 -137.5q-14 -72 -14 -102zM374 198q53 2 82 40.5t49 137.5q14 72 14 102q0 40 -16 57.5t-58 18.5z" />
    <glyph glyph-name="afii10039" unicode="&#x425;" horiz-adv-x="442" 
d="M-41 0l202 372l-58 340h145l17 -208l97 208h152l-201 -348l68 -364h-145l-27 222l-99 -222h-151z" />
    <glyph glyph-name="afii10040" unicode="&#x426;" horiz-adv-x="516" 
d="M-1 0l142 712h134l-118 -592h113l118 592h134l-118 -592h60l-53 -264h-128l29 144h-313z" />
    <glyph glyph-name="afii10041" unicode="&#x427;" horiz-adv-x="472" 
d="M233 0l47 235q-35 -4 -60 -4q-157 0 -157 120q0 24 13 85l55 276h134l-56 -280q-5 -24 -5 -41q0 -40 49 -40q26 0 50 3l72 358h134l-142 -712h-134z" />
    <glyph glyph-name="afii10042" unicode="&#x428;" horiz-adv-x="698" 
d="M-1 0l142 712h134l-118 -592h96l118 592h134l-118 -592h96l118 592h134l-142 -712h-594z" />
    <glyph glyph-name="afii10043" unicode="&#x429;" horiz-adv-x="728" 
d="M-1 0l142 712h134l-118 -592h96l118 592h134l-118 -592h96l118 592h134l-118 -592h59l-53 -264h-128l29 144h-525z" />
    <glyph glyph-name="afii10044" unicode="&#x42a;" horiz-adv-x="529" 
d="M84 592l24 120h232l-52 -258h47q86 0 127 -41q36 -36 36 -101q0 -45 -8 -85q-26 -130 -79 -178.5t-148 -48.5h-199l118 592h-98zM222 120h48q39 0 56.5 24.5t29.5 82.5q7 35 7 56q0 26 -12 38.5t-41 12.5h-46z" />
    <glyph glyph-name="afii10045" unicode="&#x42b;" horiz-adv-x="673" 
d="M434 0l142 712h134l-142 -712h-134zM-1 0l142 712h134l-52 -258h47q86 0 127 -41q36 -36 36 -101q0 -45 -8 -85q-26 -130 -79 -178.5t-148 -48.5h-199zM157 120h48q39 0 56.5 24.5t29.5 82.5q7 35 7 56q0 26 -12 38.5t-41 12.5h-46z" />
    <glyph glyph-name="afii10046" unicode="&#x42c;" horiz-adv-x="464" 
d="M-1 0l142 712h134l-52 -258h47q86 0 127 -41q36 -36 36 -101q0 -45 -8 -85q-26 -130 -79 -178.5t-148 -48.5h-199zM157 120h48q39 0 56.5 24.5t29.5 82.5q7 35 7 56q0 26 -12 38.5t-41 12.5h-46z" />
    <glyph glyph-name="afii10047" unicode="&#x42d;" horiz-adv-x="450" 
d="M169 299l24 120h119q15 92 15 127q0 54 -45 54q-31 0 -47 -19q-17 -19 -27 -69h-133q23 114 75 161q51 47 145 47q104 0 143 -69q23 -41 23 -103q0 -63 -27 -192q-31 -152 -52.5 -212.5t-56.5 -95.5q-56 -56 -145 -56t-130 41q-43 43 -43 119q0 27 4 47h136
q-4 -20 -4 -36q0 -27 13 -40q11 -11 33 -11q24 0 43 19q27 27 56 168h-119z" />
    <glyph glyph-name="afii10048" unicode="&#x42e;" horiz-adv-x="673" 
d="M-1 0l142 712h134l-58 -290h60q24 112 44 161.5t51 80.5q56 56 149 56q103 0 142 -69q23 -41 23 -103q0 -63 -27 -192q-31 -152 -52.5 -212.5t-56.5 -95.5q-56 -56 -149 -56q-103 0 -142 69q-23 41 -23 103q0 55 16 138h-59l-60 -302h-134zM397 356q-27 -135 -27 -190
q0 -54 44 -54q24 0 43 19q17 17 31 64t37 161q27 135 27 190q0 54 -44 54q-24 0 -43 -19q-17 -17 -31 -64t-37 -161z" />
    <glyph glyph-name="afii10049" unicode="&#x42f;" horiz-adv-x="478" 
d="M-37 0l170 314q-50 36 -50 115q0 24 9 66q26 131 74.5 174t158.5 43h190l-143 -712h-134l57 283h-39l-146 -283h-147zM226 495q-6 -30 -6 -47q0 -28 12 -39.5t40 -11.5h47l38 195h-48q-39 0 -55.5 -22t-27.5 -75z" />
    <glyph glyph-name="afii10065" unicode="&#x430;" horiz-adv-x="404" 
d="M8 43q-15 27 -15 69q0 26 6 56q15 74 71 117q45 34 131 34h44l11 55q3 15 3 26q0 32 -31 32q-18 0 -30 -12t-18 -40h-128q17 83 66 126q45 40 125 40q84 0 119 -45q25 -32 25 -86q0 -27 -6 -57l-71 -358h-120l9 45q-20 -25 -40 -37q-25 -16 -57 -16q-64 0 -94 51z
M126 146q0 -40 37 -40q40 0 52 61l13 63h-22q-35 0 -52 -13q-28 -23 -28 -71z" />
    <glyph glyph-name="afii10066" unicode="&#x431;" horiz-adv-x="405" 
d="M34 269q37 183 58 248.5t57 109.5q40 47 106 68.5t183 24.5l-23 -114q-113 0 -159 -33q-26 -19 -45 -59q34 21 74 21q66 0 94 -53q16 -29 16 -79q0 -39 -19 -134q-20 -99 -36 -144t-42 -76q-48 -57 -140 -57q-93 0 -126 63q-17 33 -17 80q0 36 19 134zM162 269
q-21 -101 -21 -128q0 -18 9 -27q8 -8 22 -8q24 0 37 21q15 23 39 142q21 101 21 128q0 18 -9 27q-8 8 -22 8q-24 0 -37 -21q-15 -23 -39 -142z" />
    <glyph glyph-name="afii10067" unicode="&#x432;" horiz-adv-x="415" 
d="M-9 0l107 538h168q87 0 118 -38q23 -28 23 -66q0 -22 -3 -37q-8 -40 -16 -59t-28 -39q-18 -18 -39 -24q18 -8 29 -23q16 -21 16 -57q0 -15 -4 -38q-9 -52 -23 -77.5t-38 -45.5q-41 -34 -132 -34h-178zM180 327h38q26 0 39 10t18 36q2 10 2 20q0 33 -40 33h-37zM137 112
h35q52 0 62 51q3 15 3 23q0 37 -43 37h-35z" />
    <glyph glyph-name="afii10068" unicode="&#x433;" horiz-adv-x="353" 
d="M-9 0l107 538h292l-23 -114h-164l-84 -424h-128z" />
    <glyph glyph-name="afii10069" unicode="&#x434;" horiz-adv-x="491" 
d="M-71 -140l51 254h44q40 72 58.5 121t36.5 141l32 162h325l-85 -424h50l-51 -254h-114l28 140h-233l-28 -140h-114zM154 114h109l62 310h-73l-15 -75q-25 -130 -83 -235z" />
    <glyph glyph-name="afii10070" unicode="&#x435;" horiz-adv-x="399" 
d="M27 55q-17 33 -17 80q0 36 19 134q20 99 36 144t42 76q47 57 143 57q80 0 115 -50q23 -33 23 -90q0 -54 -25 -179h-215q-12 -65 -12 -86q0 -18 9 -27q8 -8 22 -8q18 0 29 11q14 14 23 48h128q-18 -73 -53 -116q-47 -57 -141 -57q-93 0 -126 63zM168 322h86q10 47 10 74
q0 36 -31 36q-24 0 -37 -21q-12 -19 -28 -89z" />
    <glyph glyph-name="afii10072" unicode="&#x436;" horiz-adv-x="648" 
d="M-56 0l191 296l-58 242h133l52 -255l-170 -283h-148zM450 0l-58 279l154 259h148l-172 -266l66 -272h-138zM207 0l107 538h128l-107 -538h-128z" />
    <glyph glyph-name="afii10073" unicode="&#x437;" horiz-adv-x="387" 
d="M0 170h128q-3 -17 -3 -30q0 -34 32 -34q26 0 41 25q14 22 14 56q0 13 -7 24q-10 12 -38 12h-24l20 99h21q29 0 42 11q24 21 24 66q0 17 -8 25t-24 8q-17 0 -29 -12q-13 -14 -21 -51h-127q20 87 65 132t126 45q82 0 119 -40q28 -31 28 -75q0 -18 -4 -41q-12 -60 -40 -88
q-12 -12 -40 -27q21 -16 30 -29q15 -22 15 -53q0 -22 -5 -47q-16 -80 -70 -121q-44 -33 -124 -33q-72 0 -108 36t-36 100q0 23 3 42z" />
    <glyph glyph-name="afii10074" unicode="&#x438;" horiz-adv-x="424" 
d="M-9 0l107 538h128l-49 -244l149 244h108l-107 -538h-128l48 244l-148 -244h-108z" />
    <glyph glyph-name="afii10075" unicode="&#x439;" horiz-adv-x="424" 
d="M-9 0l107 538h128l-49 -244l149 244h108l-107 -538h-128l48 244l-148 -244h-108zM169 706h83v-5q0 -33 40 -33q45 0 55 38h84q-12 -61 -46.5 -90t-100.5 -29q-54 0 -86 24.5t-32 66.5q0 13 3 28z" />
    <glyph glyph-name="afii10076" unicode="&#x43a;" horiz-adv-x="432" 
d="M236 0l-60 280l153 258h144l-168 -265l66 -273h-135zM-9 0l107 538h128l-107 -538h-128z" />
    <glyph glyph-name="afii10077" unicode="&#x43b;" horiz-adv-x="459" 
d="M-41 0l22 114h19q20 0 32.5 6.5t27.5 36.5t27 89l58 292h324l-107 -538h-128l84 424h-73l-39 -195q-15 -77 -34 -124.5t-46.5 -69.5t-54 -28.5t-70.5 -6.5h-42z" />
    <glyph glyph-name="afii10078" unicode="&#x43c;" horiz-adv-x="506" 
d="M-9 0l107 538h111l49 -236l147 236h111l-107 -538h-124l50 250l-78 -122h-64l-27 128l-51 -256h-124z" />
    <glyph glyph-name="afii10079" unicode="&#x43d;" horiz-adv-x="424" 
d="M-9 0l107 538h128l-41 -207h80l41 207h128l-107 -538h-128l43 217h-80l-43 -217h-128z" />
    <glyph glyph-name="afii10080" unicode="&#x43e;" 
d="M157 269q-21 -101 -21 -128q0 -18 9 -27q8 -8 22 -8q24 0 37 21q15 23 39 142q21 101 21 128q0 18 -9 27q-8 8 -22 8q-24 0 -37 -21q-15 -23 -39 -142zM29 269q20 99 36 144t42 76q47 57 140 57t126 -63q17 -33 17 -80q0 -36 -19 -134q-20 -99 -36 -144t-42 -76
q-48 -57 -140 -57q-93 0 -126 63q-17 33 -17 80q0 36 19 134z" />
    <glyph glyph-name="afii10081" unicode="&#x43f;" horiz-adv-x="424" 
d="M-9 0l107 538h336l-107 -538h-128l84 424h-80l-84 -424h-128z" />
    <glyph glyph-name="afii10082" unicode="&#x440;" horiz-adv-x="411" 
d="M98 538h122l-7 -39q19 23 40 34q24 13 51 13q63 0 87 -44q16 -31 16 -71q0 -43 -23 -162q-24 -119 -40 -165.5t-38 -68.5q-43 -43 -105 -43q-29 0 -49 14q-16 12 -27 26l-41 -206h-128zM194 377l-43 -216q-3 -15 -3 -23q0 -16 9 -25q7 -7 22 -7q18 0 32 14q19 19 45 149
q19 95 19 125q0 21 -9 30q-8 8 -22 8q-18 0 -30 -12q-14 -14 -20 -43z" />
    <glyph glyph-name="afii10083" unicode="&#x441;" horiz-adv-x="389" 
d="M29 269q20 99 36 144t42 76q47 57 140 57t126 -63q17 -33 17 -78q0 -18 -2 -32h-127q2 12 2 24q0 18 -9 27q-8 8 -21 8q-24 0 -37 -21q-15 -23 -39 -142q-21 -101 -21 -128q0 -18 9 -27q8 -8 22 -8q18 0 29 11q14 14 23 48h128q-18 -73 -53 -116q-47 -57 -141 -57
q-93 0 -126 63q-17 33 -17 80q0 36 19 134z" />
    <glyph glyph-name="afii10084" unicode="&#x442;" horiz-adv-x="342" 
d="M54 0l84 424h-89l23 114h306l-23 -114h-89l-84 -424h-128z" />
    <glyph glyph-name="afii10085" unicode="&#x443;" horiz-adv-x="404" 
d="M-23 -60q44 2 60 8q26 10 44 52l-23 538h134l-6 -343l127 343h146l-260 -587q-19 -43 -42.5 -69t-56.5 -37.5t-63.5 -15t-82.5 -3.5z" />
    <glyph glyph-name="afii10086" unicode="&#x444;" horiz-adv-x="568" 
d="M37 70q-20 37 -20 84q0 50 12 115q29 154 81 208q32 34 65.5 47t100.5 17l34 171h126l-34 -171q94 -4 130 -73q20 -37 20 -84q0 -50 -12 -115q-29 -154 -81 -208q-32 -34 -65.5 -47t-100.5 -17l-34 -171h-126l34 171q-94 4 -130 73zM314 110q27 0 52 25q24 25 46 133
q13 68 13 102q0 23 -5 33q-10 22 -43 24zM149 134q10 -22 43 -24l63 317q-27 0 -52 -25q-24 -25 -46 -133q-13 -68 -13 -102q0 -23 5 -33z" />
    <glyph glyph-name="afii10087" unicode="&#x445;" horiz-adv-x="412" 
d="M-42 0l171 276l-64 262h136l28 -148l81 148h143l-177 -272l77 -266h-136l-32 148l-84 -148h-143z" />
    <glyph glyph-name="afii10088" unicode="&#x446;" horiz-adv-x="445" 
d="M-9 0l107 538h128l-85 -424h76l85 424h128l-85 -424h50l-51 -254h-114l28 140h-267z" />
    <glyph glyph-name="afii10089" unicode="&#x447;" horiz-adv-x="403" 
d="M178 0l34 170q-23 -3 -47 -3q-61 0 -95 26.5t-34 69.5q0 23 9 68l41 207h128l-40 -202q-3 -15 -3 -25q0 -30 35 -30q16 0 28 3l51 254h128l-107 -538h-128z" />
    <glyph glyph-name="afii10090" unicode="&#x448;" horiz-adv-x="606" 
d="M-9 0l107 538h128l-85 -424h67l85 424h128l-85 -424h67l85 424h128l-107 -538h-518z" />
    <glyph glyph-name="afii10091" unicode="&#x449;" horiz-adv-x="628" 
d="M-9 0l107 538h128l-85 -424h67l85 424h128l-85 -424h67l85 424h128l-85 -424h49l-51 -254h-114l28 140h-452z" />
    <glyph glyph-name="afii10092" unicode="&#x44a;" horiz-adv-x="451" 
d="M47 420l24 118h204l-35 -174h46q69 0 102 -33q28 -28 28 -81q0 -38 -6 -68q-21 -104 -63.5 -143t-118.5 -39h-188l83 420h-76zM190 114h37q25 0 36 15.5t19 52.5q4 20 4 36q0 32 -33 32h-35z" />
    <glyph glyph-name="afii10093" unicode="&#x44b;" horiz-adv-x="605" 
d="M380 0l107 538h128l-107 -538h-128zM-9 0l107 538h128l-35 -174h46q69 0 102 -33q28 -28 28 -81q0 -38 -6 -68q-21 -104 -63.5 -143t-118.5 -39h-188zM141 114h37q25 0 36 15.5t19 52.5q4 20 4 36q0 32 -33 32h-35z" />
    <glyph glyph-name="afii10094" unicode="&#x44c;" horiz-adv-x="402" 
d="M-9 0l107 538h128l-35 -174h46q69 0 102 -33q28 -28 28 -81q0 -38 -6 -68q-21 -104 -63.5 -143t-118.5 -39h-188zM141 114h37q25 0 36 15.5t19 52.5q4 20 4 36q0 32 -33 32h-35z" />
    <glyph glyph-name="afii10095" unicode="&#x44d;" horiz-adv-x="389" 
d="M360 269q-20 -99 -35.5 -144.5t-40.5 -75.5q-47 -57 -142 -57t-128 63q-17 33 -17 78q0 18 2 32h128q-2 -12 -2 -24q0 -18 9 -27q8 -8 22 -8q24 0 37 21q12 18 28 91h-83l22 108h83q10 52 10 71q0 18 -9 27q-8 8 -21 8q-18 0 -29 -11q-14 -14 -23 -48h-127q18 73 53 116
q47 57 139 57t125 -63q17 -33 17 -80q0 -44 -18 -134z" />
    <glyph glyph-name="afii10096" unicode="&#x44e;" horiz-adv-x="616" 
d="M-9 0l107 538h128l-41 -207h73q26 110 65 158q47 57 140 57t126 -63q17 -33 17 -80q0 -36 -19 -134q-20 -99 -36 -144t-42 -76q-47 -57 -140 -57t-126 63q-17 33 -17 80q0 30 9 82h-73l-43 -217h-128zM373 269q-21 -101 -21 -128q0 -18 9 -27q8 -8 22 -8q24 0 37 21
q15 23 39 142q21 101 21 128q0 18 -9 27q-8 8 -22 8q-24 0 -37 -21q-15 -23 -39 -142z" />
    <glyph glyph-name="afii10097" unicode="&#x44f;" horiz-adv-x="410" 
d="M-41 0l124 225q-33 26 -33 83q0 37 5 62q19 97 58 132.5t110 35.5h198l-107 -538h-128l39 194h-24l-104 -194h-138zM246 304l25 122h-39q-23 0 -33 -14t-17 -47q-4 -18 -4 -32q0 -29 32 -29h36z" />
    <glyph glyph-name="uni0450" unicode="&#x450;" horiz-adv-x="399" 
d="M27 55q-17 33 -17 80q0 36 19 134q20 99 36 144t42 76q47 57 143 57q80 0 115 -50q23 -33 23 -90q0 -54 -25 -179h-215q-12 -65 -12 -86q0 -18 9 -27q8 -8 22 -8q18 0 29 11q14 14 23 48h128q-18 -73 -53 -116q-47 -57 -141 -57q-93 0 -126 63zM168 322h86q10 47 10 74
q0 36 -31 36q-24 0 -37 -21q-12 -19 -28 -89zM221 586l-57 143h100l43 -143h-86z" />
    <glyph glyph-name="afii10071" unicode="&#x451;" horiz-adv-x="399" 
d="M27 55q-17 33 -17 80q0 36 19 134q20 99 36 144t42 76q47 57 143 57q80 0 115 -50q23 -33 23 -90q0 -54 -25 -179h-215q-12 -65 -12 -86q0 -18 9 -27q8 -8 22 -8q18 0 29 11q14 14 23 48h128q-18 -73 -53 -116q-47 -57 -141 -57q-93 0 -126 63zM168 322h86q10 47 10 74
q0 36 -31 36q-24 0 -37 -21q-12 -19 -28 -89zM109 590l24 120h115l-24 -120h-115zM296 590l24 120h115l-24 -120h-115z" />
    <glyph glyph-name="afii10099" unicode="&#x452;" horiz-adv-x="422" 
d="M68 590l15 79h41l9 43h128l-9 -43h144l-15 -79h-144l-17 -83q23 21 35 27q24 12 51 12q62 0 89 -45q15 -26 15 -66q0 -15 -9 -61l-74 -374q-21 -103 -82 -144q-28 -19 -57.5 -24.5t-86.5 -5.5l23 114q35 0 52.5 17.5t24.5 52.5l72 363q4 20 4 27q0 15 -9 23.5t-23 8.5
q-40 0 -52 -59l-74 -373h-128l118 590h-41z" />
    <glyph glyph-name="afii10100" unicode="&#x453;" horiz-adv-x="353" 
d="M-9 0l107 538h292l-23 -114h-164l-84 -424h-128zM191 586l100 143h108l-118 -143h-90z" />
    <glyph glyph-name="afii10101" unicode="&#x454;" horiz-adv-x="389" 
d="M29 269q20 99 36 144t42 76q47 57 140 57t126 -63q17 -33 17 -78q0 -18 -2 -32h-127q2 12 2 24q0 18 -9 27q-8 8 -21 8q-24 0 -37 -21q-12 -17 -28 -85h84l-22 -108h-84q-10 -57 -10 -77q0 -18 9 -27q8 -8 22 -8q18 0 29 11q14 14 23 48h128q-18 -73 -53 -116
q-47 -57 -141 -57q-93 0 -126 63q-17 33 -17 80q0 36 19 134z" />
    <glyph glyph-name="afii10102" unicode="&#x455;" horiz-adv-x="386" 
d="M29 36q-32 32 -32 88q0 17 4 37h126q-1 -6 -1 -16q0 -17 9 -27q10 -12 31 -12q23 0 35 16t12 38q0 34 -42 54l-49 23q-75 35 -75 119q0 92 61 148q45 42 126 42q83 0 120 -47q27 -33 27 -80q0 -17 -4 -37h-122q1 7 1 16q0 15 -10 25q-9 9 -27 9t-30 -12q-14 -14 -14 -39
q0 -29 35 -45l48 -22q84 -39 84 -132q0 -45 -17.5 -84t-43.5 -62q-50 -44 -129 -44q-80 0 -123 44z" />
    <glyph glyph-name="afii10103" unicode="&#x456;" horiz-adv-x="216" 
d="M-9 0l103 517h128l-103 -517h-128zM106 578l27 134h128l-27 -134h-128z" />
    <glyph glyph-name="afii10104" unicode="&#x457;" horiz-adv-x="216" 
d="M-9 0l103 517h128l-103 -517h-128zM20 590l24 120h115l-24 -120h-115zM207 590l24 120h115l-24 -120h-115z" />
    <glyph glyph-name="afii10105" unicode="&#x458;" horiz-adv-x="216" 
d="M-8 10l102 507h128l-104 -517q-21 -103 -82 -144q-28 -19 -57.5 -24.5t-86.5 -5.5l23 114q35 0 52.5 17.5t24.5 52.5zM106 578l27 134h128l-27 -134h-128z" />
    <glyph glyph-name="afii10106" unicode="&#x459;" horiz-adv-x="643" 
d="M232 0l84 424h-72l-39 -195q-28 -141 -67.5 -185t-132.5 -44h-47l22 114h19q15 0 24.5 3.5t21.5 15.5t21.5 39t18.5 71l59 295h323l-35 -174h46q69 0 102 -33q28 -28 28 -81q0 -38 -6 -68q-21 -104 -63.5 -143t-118.5 -39h-188zM382 114h37q25 0 36 15.5t19 52.5
q4 20 4 36q0 32 -33 32h-35z" />
    <glyph glyph-name="afii10107" unicode="&#x45a;" horiz-adv-x="606" 
d="M195 0l49 250h-75l-50 -250h-128l107 538h128l-35 -174h76l35 174h128l-35 -174h46q69 0 102 -33q28 -28 28 -81q0 -38 -6 -68q-21 -104 -63.5 -143t-118.5 -39h-188zM345 114h37q25 0 36 15.5t19 52.5q4 20 4 36q0 32 -33 32h-35z" />
    <glyph glyph-name="afii10108" unicode="&#x45b;" horiz-adv-x="422" 
d="M68 590l15 79h41l9 43h128l-9 -43h144l-15 -79h-144l-17 -83q23 21 35 27q24 12 51 12q62 0 89 -45q15 -26 15 -66q0 -15 -9 -61l-74 -374h-128l74 373q4 20 4 27q0 15 -9 23.5t-23 8.5q-40 0 -52 -59l-74 -373h-128l118 590h-41z" />
    <glyph glyph-name="afii10109" unicode="&#x45c;" horiz-adv-x="432" 
d="M236 0l-60 280l153 258h144l-168 -265l66 -273h-135zM-9 0l107 538h128l-107 -538h-128zM247 586l100 143h108l-118 -143h-90z" />
    <glyph glyph-name="uni045D" unicode="&#x45d;" horiz-adv-x="424" 
d="M-9 0l107 538h128l-49 -244l149 244h108l-107 -538h-128l48 244l-148 -244h-108zM236 586l-57 143h100l43 -143h-86z" />
    <glyph glyph-name="afii10110" unicode="&#x45e;" horiz-adv-x="404" 
d="M-23 -60q44 2 60 8q26 10 44 52l-23 538h134l-6 -343l127 343h146l-260 -587q-19 -43 -42.5 -69t-56.5 -37.5t-63.5 -15t-82.5 -3.5zM159 706h83v-5q0 -33 40 -33q45 0 55 38h84q-12 -61 -46.5 -90t-100.5 -29q-54 0 -86 24.5t-32 66.5q0 13 3 28z" />
    <glyph glyph-name="afii10193" unicode="&#x45f;" horiz-adv-x="420" 
d="M-9 0l107 538h128l-85 -424h76l85 424h128l-107 -538h-109l-29 -140h-114l29 140h-109z" />
    <glyph glyph-name="afii10146" unicode="&#x462;" horiz-adv-x="508" 
d="M105 545l21 105h46l13 62h134l-13 -62h58l-21 -105h-58l-18 -91h47q86 0 127 -41q36 -36 36 -101q0 -45 -8 -85q-26 -130 -79 -178.5t-148 -48.5h-199l108 545h-46zM201 120h48q39 0 56.5 24.5t29.5 82.5q7 35 7 56q0 26 -12 38.5t-41 12.5h-46z" />
    <glyph glyph-name="afii10194" unicode="&#x463;" horiz-adv-x="416" 
d="M5 0l83 419h-41l17 83h41l7 36h128l-8 -36h81l-17 -83h-80l-11 -55h46q69 0 102 -33q28 -28 28 -81q0 -38 -6 -68q-21 -104 -63.5 -143t-118.5 -39h-188zM155 114h37q25 0 36 15.5t19 52.5q4 20 4 36q0 32 -33 32h-35z" />
    <glyph glyph-name="afii10147" unicode="&#x472;" horiz-adv-x="460" 
d="M50 356q31 152 52.5 212.5t56.5 95.5q56 56 149 56q103 0 142 -69q23 -41 23 -103q0 -63 -27 -192q-31 -152 -52.5 -212.5t-56.5 -95.5q-56 -56 -149 -56q-103 0 -142 69q-23 41 -23 103q0 63 27 192zM244 131q27 27 56 168h-127q-16 -92 -16 -133q0 -54 44 -54
q24 0 43 19zM252 581q-26 -26 -55 -162h127q15 92 15 127q0 54 -44 54q-24 0 -43 -19z" />
    <glyph glyph-name="afii10195" unicode="&#x473;" 
d="M29 269q20 99 36 144t42 76q47 57 140 57t126 -63q17 -33 17 -80q0 -36 -19 -134q-20 -99 -36 -144t-42 -76q-48 -57 -140 -57q-93 0 -126 63q-17 33 -17 80q0 36 19 134zM148 227q-12 -65 -12 -86q0 -18 9 -27q8 -8 22 -8q24 0 37 21q15 25 30 100h-86zM196 411
q-12 -19 -28 -89h85q11 61 11 75q0 18 -9 27q-8 8 -22 8q-24 0 -37 -21z" />
    <glyph glyph-name="afii10148" unicode="&#x474;" horiz-adv-x="508" 
d="M102 0l-9 712h148l-29 -507l129 370q25 73 75 105t152 32h15l-24 -120q-41 0 -62 -13.5t-35 -46.5l-220 -532h-140z" />
    <glyph glyph-name="afii10196" unicode="&#x475;" horiz-adv-x="457" 
d="M471 424h-3q-36 0 -55 -10.5t-33 -42.5l-163 -371h-136l-23 538h136l-6 -337l80 212q28 75 71.5 100t138.5 25h16z" />
    <glyph glyph-name="afii10050" unicode="&#x490;" horiz-adv-x="378" 
d="M-1 0l142 712h180l29 144h127l-53 -264h-173l-118 -592h-134z" />
    <glyph glyph-name="afii10098" unicode="&#x491;" horiz-adv-x="353" 
d="M-9 0l107 538h177l28 140h115l-51 -254h-164l-84 -424h-128z" />
    <glyph glyph-name="uni0492" unicode="&#x492;" horiz-adv-x="423" 
d="M59 306l21 105h47l60 301h307l-24 -120h-173l-36 -181h59l-21 -105h-59l-61 -306h-134l61 306h-47z" />
    <glyph glyph-name="uni0493" unicode="&#x493;" horiz-adv-x="367" 
d="M404 538l-23 -114h-164l-22 -108h81l-17 -83h-80l-46 -233h-128l46 233h-41l17 83h41l44 222h292z" />
    <glyph glyph-name="uni0496" unicode="&#x496;" horiz-adv-x="726" 
d="M519 0l-68 369l197 343h151l-211 -350l49 -242h48l-53 -264h-128l29 144h-14zM-58 0l237 391l-63 321h136l61 -341l-216 -371h-155zM241 0l142 712h134l-142 -712h-134z" />
    <glyph glyph-name="uni0497" unicode="&#x497;" horiz-adv-x="648" 
d="M450 0l-58 279l154 259h148l-172 -266l38 -158h51l-51 -254h-114l28 140h-24zM-56 0l191 296l-58 242h133l52 -255l-170 -283h-148zM207 0l107 538h128l-107 -538h-128z" />
    <glyph glyph-name="uni049A" unicode="&#x49a;" horiz-adv-x="480" 
d="M272 0l-66 362l198 350h148l-207 -347l50 -245h50l-53 -264h-128l29 144h-21zM-1 0l142 712h134l-142 -712h-134z" />
    <glyph glyph-name="uni049B" unicode="&#x49b;" horiz-adv-x="432" 
d="M236 0l-60 280l153 258h144l-168 -265l38 -159h51l-51 -254h-114l28 140h-21zM-9 0l107 538h128l-107 -538h-128z" />
    <glyph glyph-name="uni049C" unicode="&#x49c;" horiz-adv-x="574" 
d="M-1 0l142 712h134l-56 -280h32l21 106h90l-21 -106h23l129 280h148l-162 -334l39 -378h-138l-23 312h-40l-21 -106h-90l21 106h-32l-62 -312h-134z" />
    <glyph glyph-name="uni049D" unicode="&#x49d;" horiz-adv-x="504" 
d="M-9 0l107 538h128l-40 -200h30l23 113h71l-23 -113h22l87 200h143l-121 -253l31 -285h-137l-14 224h-34l-22 -113h-71l22 113h-30l-44 -224h-128z" />
    <glyph glyph-name="uni04A2" unicode="&#x4a2;" horiz-adv-x="486" 
d="M284 -144l29 144h-66l60 302h-114l-60 -302h-134l142 712h134l-58 -290h114l58 290h134l-118 -592h60l-53 -264h-128z" />
    <glyph glyph-name="uni04A3" unicode="&#x4a3;" horiz-adv-x="424" 
d="M234 -140l28 140h-63l43 217h-80l-43 -217h-128l107 538h128l-41 -207h80l41 207h128l-85 -424h50l-51 -254h-114z" />
    <glyph glyph-name="uni04AE" unicode="&#x4ae;" horiz-adv-x="408" 
d="M84 0l54 273l-45 439h139l7 -264l107 264h146l-222 -449l-52 -263h-134z" />
    <glyph glyph-name="uni04AF" unicode="&#x4af;" horiz-adv-x="404" 
d="M50 -174l31 158l-23 554h138l-7 -310l119 310h146l-245 -554l-31 -158h-128z" />
    <glyph glyph-name="uni04B0" unicode="&#x4b0;" horiz-adv-x="408" 
d="M66 184l16 79h54l2 10l-45 439h139l7 -264l107 264h146l-222 -449h50l-16 -79h-50l-36 -184h-134l36 184h-54z" />
    <glyph glyph-name="uni04B1" unicode="&#x4b1;" horiz-adv-x="404" 
d="M50 -174l14 75h-57l17 83h57l-23 554h138l-7 -310l119 310h146l-245 -554h59l-17 -83h-59l-14 -75h-128z" />
    <glyph glyph-name="uni04B2" unicode="&#x4b2;" horiz-adv-x="442" 
d="M224 -144l29 144h-17l-27 222l-99 -222h-151l202 372l-58 340h145l17 -208l97 208h152l-201 -348l45 -244h47l-53 -264h-128z" />
    <glyph glyph-name="uni04B3" unicode="&#x4b3;" horiz-adv-x="412" 
d="M211 -140l28 140h-22l-32 148l-84 -148h-143l171 276l-64 262h136l28 -148l81 148h143l-177 -272l44 -152h56l-51 -254h-114z" />
    <glyph glyph-name="uni04B6" unicode="&#x4b6;" horiz-adv-x="472" 
d="M233 0l47 235q-35 -4 -60 -4q-157 0 -157 120q0 24 13 85l55 276h134l-56 -280q-5 -24 -5 -41q0 -40 49 -40q26 0 50 3l72 358h134l-118 -592h60l-53 -264h-128l29 144h-66z" />
    <glyph glyph-name="uni04B7" unicode="&#x4b7;" horiz-adv-x="403" 
d="M178 0l34 170q-23 -3 -47 -3q-61 0 -95 26.5t-34 69.5q0 23 9 68l41 207h128l-40 -202q-3 -15 -3 -25q0 -30 35 -30q16 0 28 3l51 254h128l-85 -424h51l-51 -254h-114l28 140h-64z" />
    <glyph glyph-name="uni04B8" unicode="&#x4b8;" horiz-adv-x="520" 
d="M414 0h-134l47 235q-19 -3 -35 -3l-20 -102h-89l20 103q-73 7 -105.5 36t-32.5 85q0 31 7 63l59 295h134l-58 -288q-2 -10 -2 -21q0 -31 23 -42l19 93h89l-20 -103q14 0 34 3l72 358h134z" />
    <glyph glyph-name="uni04B9" unicode="&#x4b9;" horiz-adv-x="450" 
d="M225 0l34 170l-23 -3l-21 -107h-71l21 108q-66 5 -97 30t-31 73q0 18 5 45l44 222h128l-40 -202q-3 -20 2 -30t14 -14l20 100h71l-22 -109q15 0 23 3l50 252h128l-107 -538h-128z" />
    <glyph glyph-name="uni04BA" unicode="&#x4ba;" horiz-adv-x="472" 
d="M-11 0l142 712h134l-47 -235q35 4 65 4q151 0 151 -124q0 -20 -10 -70l-57 -287h-135l57 288q4 17 4 33q0 22 -11.5 31t-38.5 9q-23 0 -49 -3l-71 -358h-134z" />
    <glyph glyph-name="uni04BB" unicode="&#x4bb;" horiz-adv-x="403" 
d="M-9 0l107 538h128l-34 -170q23 3 45 3q131 0 131 -102q0 -17 -10 -68l-40 -201h-128l40 202q3 15 3 25q0 17 -8 23.5t-27 6.5q-16 0 -29 -3l-50 -254h-128z" />
    <glyph glyph-name="uni04C0" unicode="&#x4c0;" horiz-adv-x="238" 
d="M-1 0l142 712h134l-142 -712h-134z" />
    <glyph glyph-name="uni04CF" unicode="&#x4cf;" horiz-adv-x="216" 
d="M-9 0l142 712h128l-142 -712h-128z" />
    <glyph glyph-name="uni04D8" unicode="&#x4d8;" horiz-adv-x="459" 
d="M53 392h262q20 107 20 154q0 54 -48 54q-25 0 -43 -18t-29 -70h-134q24 114 76 161q51 47 145 47q54 0 86.5 -15t55.5 -50q24 -37 24 -107q0 -62 -26 -192q-30 -151 -52 -212t-57 -96q-56 -56 -149 -56q-103 0 -142 69q-23 41 -23 103t34 228zM293 285h-126
q-14 -76 -14 -119q0 -54 44 -54q24 0 43 19q26 26 53 154z" />
    <glyph glyph-name="afii10846" unicode="&#x4d9;" horiz-adv-x="399" 
d="M36 311h214q11 53 11 85q0 19 -9 28q-8 8 -22 8q-23 0 -37 -20q-11 -18 -15 -38h-126q21 84 69 129q46 43 128 43q77 0 113 -50q25 -34 25 -91q0 -56 -16 -136q-22 -104 -44.5 -157.5t-54.5 -80.5q-46 -39 -126 -39q-73 0 -112 50q-23 33 -23 90q0 54 25 179zM231 216
h-86q-10 -47 -10 -74q0 -36 31 -36q23 0 37 20q14 21 28 90z" />
    <glyph glyph-name="uni04E2" unicode="&#x4e2;" horiz-adv-x="490" 
d="M-1 0l142 712h134l-72 -358l211 358h113l-142 -712h-134l71 357l-207 -357h-116zM216 769l16 81h252l-16 -81h-252z" />
    <glyph glyph-name="uni04E3" unicode="&#x4e3;" horiz-adv-x="424" 
d="M-9 0l107 538h128l-49 -244l149 244h108l-107 -538h-128l48 244l-148 -244h-108zM146 600l16 81h252l-16 -81h-252z" />
    <glyph glyph-name="uni04E8" unicode="&#x4e8;" horiz-adv-x="460" 
d="M50 356q31 152 52.5 212.5t56.5 95.5q56 56 149 56q103 0 142 -69q23 -41 23 -103q0 -63 -27 -192q-31 -152 -52.5 -212.5t-56.5 -95.5q-56 -56 -149 -56q-103 0 -142 69q-23 41 -23 103q0 63 27 192zM244 131q27 27 56 168h-127q-16 -92 -16 -133q0 -54 44 -54
q24 0 43 19zM252 581q-26 -26 -55 -162h127q15 92 15 127q0 54 -44 54q-24 0 -43 -19z" />
    <glyph glyph-name="uni04E9" unicode="&#x4e9;" 
d="M29 269q20 99 36 144t42 76q47 57 140 57t126 -63q17 -33 17 -80q0 -36 -19 -134q-20 -99 -36 -144t-42 -76q-48 -57 -140 -57q-93 0 -126 63q-17 33 -17 80q0 36 19 134zM148 227q-12 -65 -12 -86q0 -18 9 -27q8 -8 22 -8q24 0 37 21q15 25 30 100h-86zM196 411
q-12 -19 -28 -89h85q11 61 11 75q0 18 -9 27q-8 8 -22 8q-24 0 -37 -21z" />
    <glyph glyph-name="uni04EE" unicode="&#x4ee;" horiz-adv-x="436" 
d="M-2 0l24 120q47 0 71 15.5t40 55.5l16 42l-56 479h137l14 -299l135 299h142l-285 -558q-22 -42 -34 -62.5t-31 -42.5t-40.5 -30t-53.5 -13.5t-79 -5.5zM186 769l16 81h252l-16 -81h-252z" />
    <glyph glyph-name="uni04EF" unicode="&#x4ef;" horiz-adv-x="404" 
d="M-23 -60q44 2 60 8q26 10 44 52l-23 538h134l-6 -343l127 343h146l-260 -587q-19 -43 -42.5 -69t-56.5 -37.5t-63.5 -15t-82.5 -3.5zM136 600l16 81h252l-16 -81h-252z" />
    <glyph glyph-name="Wgrave" unicode="&#x1e80;" horiz-adv-x="746" 
d="M85 0l8 712h143l-31 -513l182 513h149l-12 -513l164 513h143l-267 -712h-152l8 504l-183 -504h-152zM423 755l-57 143h100l43 -143h-86z" />
    <glyph glyph-name="wgrave" unicode="&#x1e81;" horiz-adv-x="605" 
d="M65 0l-7 538h133l-19 -331l134 331h100l3 -332l109 332h137l-224 -538h-114l-5 310l-130 -310h-117zM326 586l-57 143h100l43 -143h-86z" />
    <glyph glyph-name="Wacute" unicode="&#x1e82;" horiz-adv-x="746" 
d="M85 0l8 712h143l-31 -513l182 513h149l-12 -513l164 513h143l-267 -712h-152l8 504l-183 -504h-152zM413 755l100 143h108l-118 -143h-90z" />
    <glyph glyph-name="wacute" unicode="&#x1e83;" horiz-adv-x="605" 
d="M65 0l-7 538h133l-19 -331l134 331h100l3 -332l109 332h137l-224 -538h-114l-5 310l-130 -310h-117zM316 586l100 143h108l-118 -143h-90z" />
    <glyph glyph-name="Wdieresis" unicode="&#x1e84;" horiz-adv-x="746" 
d="M85 0l8 712h143l-31 -513l182 513h149l-12 -513l164 513h143l-267 -712h-152l8 504l-183 -504h-152zM311 759l24 120h115l-24 -120h-115zM498 759l24 120h115l-24 -120h-115z" />
    <glyph glyph-name="wdieresis" unicode="&#x1e85;" horiz-adv-x="605" 
d="M65 0l-7 538h133l-19 -331l134 331h100l3 -332l109 332h137l-224 -538h-114l-5 310l-130 -310h-117zM214 590l24 120h115l-24 -120h-115zM401 590l24 120h115l-24 -120h-115z" />
    <glyph glyph-name="uni1E8A" unicode="&#x1e8a;" horiz-adv-x="442" 
d="M-41 0l202 372l-58 340h145l17 -208l97 208h152l-201 -348l68 -364h-145l-27 222l-99 -222h-151zM257 759l24 120h114l-24 -120h-114z" />
    <glyph glyph-name="uni1E8B" unicode="&#x1e8b;" horiz-adv-x="412" 
d="M-42 0l171 276l-64 262h136l28 -148l81 148h143l-177 -272l77 -266h-136l-32 148l-84 -148h-143zM211 590l24 120h114l-24 -120h-114z" />
    <glyph glyph-name="Ygrave" unicode="&#x1ef2;" horiz-adv-x="408" 
d="M84 0l54 273l-45 439h139l7 -264l107 264h146l-222 -449l-52 -263h-134zM254 755l-57 143h100l43 -143h-86z" />
    <glyph glyph-name="ygrave" unicode="&#x1ef3;" horiz-adv-x="404" 
d="M-23 -60q44 2 60 8q26 10 44 52l-23 538h134l-6 -343l127 343h146l-260 -587q-19 -43 -42.5 -69t-56.5 -37.5t-63.5 -15t-82.5 -3.5zM226 586l-57 143h100l43 -143h-86z" />
    <glyph glyph-name="uni2007" unicode="&#x2007;" horiz-adv-x="404" 
 />
    <glyph glyph-name="uni2008" unicode="&#x2008;" horiz-adv-x="242" 
 />
    <glyph glyph-name="uni200B" unicode="&#x200b;" horiz-adv-x="0" 
 />
    <glyph glyph-name="endash" unicode="&#x2013;" horiz-adv-x="448" 
d="M34 235l24 120h368l-24 -120h-368z" />
    <glyph glyph-name="emdash" unicode="&#x2014;" horiz-adv-x="696" 
d="M34 235l24 120h616l-24 -120h-616z" />
    <glyph glyph-name="afii00208" unicode="&#x2015;" horiz-adv-x="696" 
d="M34 235l24 120h616l-24 -120h-616z" />
    <glyph glyph-name="quoteleft" unicode="&#x2018;" horiz-adv-x="240" 
d="M114 570l28 142l155 105l-49 -247h-134z" />
    <glyph glyph-name="quoteright" unicode="&#x2019;" horiz-adv-x="240" 
d="M93 465l49 247h134l-28 -142z" />
    <glyph glyph-name="quotesinglbase" unicode="&#x201a;" horiz-adv-x="240" 
d="M-21 -105l49 247h134l-28 -142z" />
    <glyph glyph-name="quotedblleft" unicode="&#x201c;" horiz-adv-x="444" 
d="M114 570l28 142l155 105l-49 -247h-134zM317 570l28 142l155 105l-49 -247h-134z" />
    <glyph glyph-name="quotedblright" unicode="&#x201d;" horiz-adv-x="444" 
d="M93 465l49 247h134l-28 -142zM296 465l49 247h134l-28 -142z" />
    <glyph glyph-name="quotedblbase" unicode="&#x201e;" horiz-adv-x="444" 
d="M-21 -105l49 247h134l-28 -142zM182 -105l49 247h134l-28 -142z" />
    <glyph glyph-name="dagger" unicode="&#x2020;" horiz-adv-x="434" 
d="M105 0l86 431h-118l21 107h118l35 174h118l-35 -174h118l-21 -107h-118l-86 -431h-118z" />
    <glyph glyph-name="daggerdbl" unicode="&#x2021;" horiz-adv-x="434" 
d="M-13 0l21 106h118l65 326h-118l21 106h118l35 174h118l-35 -174h118l-21 -106h-118l-65 -326h118l-21 -106h-118l-35 -174h-118l35 174h-118z" />
    <glyph glyph-name="bullet" unicode="&#x2022;" horiz-adv-x="416" 
d="M68 334q0 62 44.5 106.5t106.5 44.5t106.5 -44.5t44.5 -106.5t-44.5 -106.5t-106.5 -44.5t-106.5 44.5t-44.5 106.5z" />
    <glyph glyph-name="ellipsis" unicode="&#x2026;" horiz-adv-x="680" 
d="M-3 0l28 140h142l-28 -140h-142zM216 0l28 140h142l-28 -140h-142zM435 0l28 140h142l-28 -140h-142z" />
    <glyph glyph-name="perthousand" unicode="&#x2030;" horiz-adv-x="1086" 
d="M847 130q-4 -18 -4 -27q0 -27 30 -27q33 0 42 44l22 107q4 18 4 27q0 27 -30 27q-33 0 -42 -44zM746 129l21 104q15 73 54 102.5t100 29.5q55 0 88 -29t33 -73q0 -17 -4 -35l-21 -104q-14 -71 -52 -101.5t-102 -30.5q-55 0 -88 29t-33 73q0 17 4 35zM184 485
q-4 -18 -4 -27q0 -27 30 -27q33 0 42 44l22 107q4 18 4 27q0 27 -30 27q-33 0 -42 -44zM83 484l21 104q15 73 54 102.5t100 29.5q55 0 88 -29t33 -73q0 -17 -4 -35l-21 -104q-14 -71 -52 -101.5t-102 -30.5q-55 0 -88 29t-33 73q0 17 4 35zM519 130q-4 -18 -4 -27
q0 -27 30 -27q33 0 42 44l22 107q4 18 4 27q0 27 -30 27q-33 0 -42 -44zM418 129l21 104q15 73 54 102.5t100 29.5q55 0 88 -29t33 -73q0 -17 -4 -35l-21 -104q-14 -71 -52 -101.5t-102 -30.5q-55 0 -88 29t-33 73q0 17 4 35zM160 0l378 712h98l-379 -712h-97z" />
    <glyph glyph-name="guilsinglleft" unicode="&#x2039;" horiz-adv-x="225" 
d="M134 9l-111 271l220 270l-38 -187l-77 -90l41 -90z" />
    <glyph glyph-name="guilsinglright" unicode="&#x203a;" horiz-adv-x="225" 
d="M97 550l111 -271l-220 -270l38 187l77 90l-41 90z" />
    <glyph glyph-name="fraction" unicode="&#x2044;" horiz-adv-x="117" 
d="M-156 0l376 712h89l-376 -712h-89z" />
    <glyph glyph-name="uni2070" unicode="&#x2070;" horiz-adv-x="330" 
d="M124 613q11 55 41 79q31 25 84 25q50 0 73 -21t25 -57q0 -16 -4 -33l-44 -222q-11 -55 -41 -79q-31 -25 -84 -25q-50 0 -73 21t-25 57q0 13 4 33zM208 611l-45 -222q-2 -10 -2 -17q0 -9 6.5 -14.5t15.5 -5.5q25 0 32 34l45 222q2 10 2 17q0 9 -6.5 14.5t-15.5 5.5
q-25 0 -32 -34z" />
    <glyph glyph-name="uni2074" unicode="&#x2074;" horiz-adv-x="330" 
d="M58 347l14 69l164 296h84l-158 -293h41l10 50h83l-9 -50h30l-15 -72h-29l-13 -62h-84l12 62h-130z" />
    <glyph glyph-name="uni2075" unicode="&#x2075;" horiz-adv-x="330" 
d="M81 401h84l-2 -9q-2 -9 -2 -19q0 -21 22 -21q13 0 21 8q10 10 21 66q9 48 9 58q0 22 -22 22t-33 -33l-1 -3h-79l49 242h213l-15 -72h-137l-17 -88q10 8 23 15q15 7 38 7q33 0 49 -18q16 -16 18 -42q0 -32 -11 -88q-12 -61 -20 -82t-27 -37q-28 -27 -86 -27q-55 0 -80 28
q-20 20 -20 50q0 19 3 34z" />
    <glyph glyph-name="uni2076" unicode="&#x2076;" horiz-adv-x="330" 
d="M77 363q0 22 6 53q10 52 34 93l115 203h91l-100 -166q9 4 23 4q32 0 49.5 -20.5t18.5 -49.5q0 -27 -8 -64q-14 -72 -37 -98q-35 -38 -96 -38q-50 0 -75 28q-19 22 -21 55zM167 416q-6 -28 -6 -42q0 -23 20 -23q15 0 22 10q8 10 19 55q6 28 6 42q0 23 -20 23
q-15 0 -22 -10q-8 -10 -19 -55z" />
    <glyph glyph-name="uni2077" unicode="&#x2077;" horiz-adv-x="330" 
d="M94 285l176 355h-68l-9 -47h-79l24 119h233l-12 -63l-179 -364h-86z" />
    <glyph glyph-name="uni2078" unicode="&#x2078;" horiz-adv-x="330" 
d="M123 598q14 68 40 92q28 27 82 27q55 0 79 -27q20 -20 20 -52q0 -22 -4 -40q-10 -48 -23 -66q-15 -21 -32 -31q7 -6 14 -16q8 -12 8 -40q0 -22 -3 -38q-8 -45 -15.5 -63.5t-24.5 -34.5q-32 -29 -88 -29q-55 0 -80 28q-20 20 -20 50q0 26 5 49q11 52 24 71q16 21 35 33
q-8 7 -13 15q-8 13 -8 40q0 16 4 32zM220 407q6 29 6 39q0 12 -7 18q-7 5 -15 5q-13 0 -22 -9t-17 -53q-5 -23 -5 -32q0 -12 7 -18q7 -5 15 -5q14 0 22 9q9 9 16 46zM204 593q-4 -24 -4 -30q0 -10 6 -16q5 -5 14 -5q11 0 20 9q7 7 14 42q4 25 4 31q0 10 -6 16q-5 5 -14 5
q-11 0 -20 -9q-7 -7 -14 -43z" />
    <glyph glyph-name="uni2079" unicode="&#x2079;" horiz-adv-x="330" 
d="M345 634q0 -22 -6 -53q-10 -52 -34 -93l-115 -203h-91l100 166q-9 -4 -23 -4q-32 0 -49.5 20.5t-18.5 49.5q0 27 8 64q14 72 37 98q35 38 96 38q50 0 75 -28q19 -22 21 -55zM255 581q6 28 6 42q0 23 -20 23q-15 0 -22 -10q-8 -10 -19 -55q-6 -28 -6 -42q0 -23 20 -23
q15 0 22 10q8 10 19 55z" />
    <glyph glyph-name="uni2080" unicode="&#x2080;" horiz-adv-x="330" 
d="M37 178q11 55 41 79q31 25 84 25q50 0 73 -21t25 -57q0 -16 -4 -33l-44 -222q-11 -55 -41 -79q-31 -25 -84 -25q-50 0 -73 21t-25 57q0 13 4 33zM121 176l-45 -222q-2 -10 -2 -17q0 -9 6.5 -14.5t15.5 -5.5q25 0 32 34l45 222q2 10 2 17q0 9 -6.5 14.5t-15.5 5.5
q-25 0 -32 -34z" />
    <glyph glyph-name="uni2081" unicode="&#x2081;" horiz-adv-x="330" 
d="M61 -150l67 334l-65 -45l18 92l65 46h84l-85 -427h-84z" />
    <glyph glyph-name="uni2082" unicode="&#x2082;" horiz-adv-x="330" 
d="M-24 -150l13 65l152 196q13 16 23.5 40t10.5 37q0 22 -22 22q-25 0 -31 -29l-5 -24h-84l4 21q12 62 48 84q28 20 74 20q53 0 77 -27q23 -25 23 -57q0 -9 -2 -21q-12 -51 -47 -95l-127 -160h126l-14 -72h-219z" />
    <glyph glyph-name="uni2083" unicode="&#x2083;" horiz-adv-x="330" 
d="M32 155l4 24q11 57 48 83q26 20 76 20q52 0 75 -26q19 -20 19 -56q0 -14 -4 -38q-8 -40 -25 -61q-12 -16 -30 -25q30 -17 30 -58q0 -18 -6 -44q-10 -49 -18 -67.5t-26 -34.5q-29 -27 -86 -27q-55 0 -80 28q-20 20 -20 50q0 17 4 37l2 12h84l-3 -15q-2 -10 -2 -19
q0 -21 22 -21q13 0 21 8q9 9 18 49q6 29 6 46q0 21 -22 21h-19l14 67h16q12 0 19 7q11 11 17 45q4 20 4 31q0 19 -18 19q-24 0 -30 -26l-6 -29h-84z" />
    <glyph glyph-name="uni2084" unicode="&#x2084;" horiz-adv-x="330" 
d="M-30 -88l14 69l164 296h84l-158 -293h41l10 50h83l-9 -50h30l-15 -72h-29l-13 -62h-84l12 62h-130z" />
    <glyph glyph-name="uni2085" unicode="&#x2085;" horiz-adv-x="330" 
d="M-6 -34h84l-2 -9q-2 -9 -2 -19q0 -21 22 -21q13 0 21 8q10 10 21 66q9 48 9 58q0 22 -22 22t-33 -33l-1 -3h-79l49 242h213l-15 -72h-137l-17 -88q10 8 23 15q15 7 38 7q32 0 49 -18q17 -17 18 -42q0 -32 -11 -88q-12 -61 -20 -82t-27 -37q-29 -27 -86 -27q-55 0 -80 28
q-20 20 -20 50q0 19 3 34z" />
    <glyph glyph-name="uni2086" unicode="&#x2086;" horiz-adv-x="330" 
d="M-10 -72q0 22 6 53q10 52 34 93l115 203h91l-100 -166q9 4 23 4q32 0 49.5 -20.5t18.5 -49.5q0 -27 -8 -64q-14 -72 -37 -98q-35 -38 -96 -38q-50 0 -75 28q-19 22 -21 55zM80 -19q-6 -28 -6 -42q0 -23 20 -23q15 0 22 10q8 10 19 55q6 28 6 42q0 23 -20 23
q-15 0 -22 -10q-8 -10 -19 -55z" />
    <glyph glyph-name="uni2087" unicode="&#x2087;" horiz-adv-x="330" 
d="M6 -150l176 355h-68l-9 -47h-79l24 119h233l-12 -63l-179 -364h-86z" />
    <glyph glyph-name="uni2088" unicode="&#x2088;" horiz-adv-x="330" 
d="M36 163q14 68 40 92q28 27 82 27q55 0 79 -27q20 -20 20 -52q0 -22 -4 -40q-10 -48 -23 -66q-15 -21 -32 -31q8 -6 14 -16q8 -12 8 -40q0 -22 -3 -38q-8 -45 -15.5 -63.5t-24.5 -34.5q-32 -29 -88 -29q-55 0 -80 28q-20 20 -20 50q0 27 5 49q11 52 24 71q16 21 35 33
q-8 7 -13 15q-8 13 -8 40q0 16 4 32zM133 -28q6 29 6 39q0 12 -7 18q-7 5 -15 5q-13 0 -22 -9t-17 -53q-5 -23 -5 -32q0 -12 7 -18q7 -5 15 -5q14 0 22 9q9 9 16 46zM117 158q-4 -24 -4 -30q0 -10 6 -16q5 -5 14 -5q11 0 20 9q7 7 14 42q4 25 4 31q0 10 -6 16q-5 5 -14 5
q-11 0 -20 -9q-7 -7 -14 -43z" />
    <glyph glyph-name="uni2089" unicode="&#x2089;" horiz-adv-x="330" 
d="M258 199q0 -21 -6 -53q-10 -52 -34 -93l-115 -203h-91l100 166q-9 -4 -23 -4q-32 0 -49.5 20.5t-18.5 49.5q0 27 8 64q14 72 37 98q35 38 96 38q50 0 75 -28q19 -22 21 -55zM168 146q6 28 6 42q0 23 -20 23q-15 0 -22 -10q-8 -10 -19 -55q-6 -28 -6 -42q0 -23 20 -23
q15 0 22 10q8 10 19 55z" />
    <glyph glyph-name="Euro" unicode="&#x20ac;" horiz-adv-x="511" 
d="M64 391l19 96h51q18 74 36 112.5t44 64.5q56 56 148 56q90 0 132 -52q34 -42 34 -110q0 -28 -2 -45h-134q2 15 2 37q0 50 -43 50q-25 0 -44 -19q-21 -21 -40 -94h91l-19 -96h-93l-14 -70h92l-19 -96h-89q-4 -31 -4 -59q0 -54 43 -54q32 0 51 27q16 23 25 61h136
q-23 -110 -82 -162q-52 -46 -142 -46q-103 0 -142 69q-23 41 -23 103q0 29 4 61h-52l19 96h49l14 70h-48z" />
    <glyph glyph-name="uni20B4" unicode="&#x20b4;" horiz-adv-x="508" 
d="M475 261h-259q-17 -21 -25 -58q-3 -15 -3 -39q0 -27 12 -39q13 -13 35 -13q26 0 44 18q15 15 26 70h134q-13 -67 -27 -98.5t-41 -58.5q-51 -51 -147 -51q-50 0 -79 9.5t-53 33.5q-42 42 -42 124q0 32 5 57q5 26 13 45h-37l15 74h78q29 22 68 42l12 6h-149l15 74h266
q21 21 29 58q3 15 3 38t-12 35t-30 12q-24 0 -40 -18q-16 -19 -26 -69h-133q25 119 79 163q55 44 131 44q80 0 124 -44q40 -40 40 -118q0 -33 -4 -53q-7 -31 -13 -48h30l-15 -74h-77q-19 -12 -49 -28l-39 -20h156z" />
    <glyph glyph-name="afii61352" unicode="&#x2116;" horiz-adv-x="767" 
d="M-1 0l142 712h118l71 -350l70 350h134l-142 -712h-115l-74 350l-70 -350h-134zM541 539q22 109 51 141q32 37 95 37q68 0 90 -40q13 -23 13 -60q0 -27 -11 -78q-22 -109 -51 -141q-32 -37 -95 -37q-68 0 -90 40q-13 23 -13 60q0 27 11 78zM636 539q-11 -58 -11 -82
q0 -19 15 -19q10 0 19 13q13 21 25 88q11 58 11 82q0 19 -15 19q-10 0 -19 -13q-13 -21 -25 -88zM494 258l14 72h220l-14 -72h-220z" />
    <glyph glyph-name="trademark" unicode="&#x2122;" horiz-adv-x="616" 
d="M281 271l88 441h72l32 -216l117 216h73l-88 -441h-82l46 229l-73 -146h-45l-12 146l-46 -229h-82zM88 271l72 364h-68l16 77h218l-16 -77h-68l-72 -364h-82z" />
    <glyph glyph-name="Omega" unicode="&#x2126;" horiz-adv-x="460" 
d="M446 356q-34 -161 -63 -211q-11 -18 -26 -30h46l-23 -115h-174l20 101q20 14 33 47q23 60 53 208q27 135 27 190q0 54 -44 54q-24 0 -43 -19q-17 -17 -31 -64t-37 -161q-30 -150 -30 -212q0 -31 14 -43l-20 -101h-174l23 115h53q-21 23 -21 76q0 64 21 165
q31 152 52.5 212.5t56.5 95.5q56 56 149 56q103 0 142 -69q23 -41 23 -103q0 -63 -27 -192z" />
    <glyph glyph-name="uni2150" unicode="&#x2150;" horiz-adv-x="777" 
d="M149 285l67 334l-65 -45l18 92l65 46h84l-85 -427h-84zM174 0l376 712h89l-376 -712h-89zM483 0l176 355h-68l-9 -47h-79l24 119h233l-12 -63l-179 -364h-86z" />
    <glyph glyph-name="uni2151" unicode="&#x2151;" horiz-adv-x="777" 
d="M149 285l67 334l-65 -45l18 92l65 46h84l-85 -427h-84zM174 0l376 712h89l-376 -712h-89zM735 349q0 -21 -6 -53q-10 -52 -34 -93l-115 -203h-91l100 166q-9 -4 -23 -4q-32 0 -49.5 20.5t-18.5 49.5q0 27 8 64q14 72 37 98q35 38 96 38q50 0 75 -28q19 -22 21 -55z
M645 296q6 28 6 42q0 23 -20 23q-15 0 -22 -10q-8 -10 -19 -55q-6 -28 -6 -42q0 -23 20 -23q15 0 22 10q8 10 19 55z" />
    <glyph glyph-name="uni2152" unicode="&#x2152;" horiz-adv-x="1107" 
d="M149 285l67 334l-65 -45l18 92l65 46h84l-85 -427h-84zM174 0l376 712h89l-376 -712h-89zM538 0l67 334l-65 -45l18 92l65 46h84l-85 -427h-84zM844 328q11 55 41 79q31 25 84 25q50 0 73 -21t25 -57q0 -16 -4 -33l-44 -222q-11 -55 -41 -79q-31 -25 -84 -25
q-50 0 -73 21t-25 57q0 13 4 33zM928 326l-45 -222q-2 -10 -2 -17q0 -9 6.5 -14.5t15.5 -5.5q25 0 32 34l45 222q2 10 2 17q0 9 -6.5 14.5t-15.5 5.5q-25 0 -32 -34z" />
    <glyph glyph-name="onethird" unicode="&#x2153;" horiz-adv-x="777" 
d="M149 285l67 334l-65 -45l18 92l65 46h84l-85 -427h-84zM174 0l376 712h89l-376 -712h-89zM509 305l4 24q11 57 48 83q26 20 76 20q52 0 75 -26q19 -20 19 -56q0 -14 -4 -38q-8 -40 -25 -61q-12 -16 -30 -25q30 -17 30 -58q0 -18 -6 -44q-10 -49 -18 -67.5t-26 -34.5
q-28 -27 -86 -27q-55 0 -80 28q-20 20 -20 50q0 17 4 37l2 12h84l-3 -15q-2 -10 -2 -19q0 -21 22 -21q13 0 21 8q9 9 18 49q6 29 6 46q0 21 -22 21h-19l14 67h16q12 0 19 7q11 11 17 45q4 20 4 31q0 19 -18 19q-24 0 -30 -26l-6 -29h-84z" />
    <glyph glyph-name="twothirds" unicode="&#x2154;" horiz-adv-x="777" 
d="M63 285l13 65l152 196q13 16 23.5 40t10.5 37q0 22 -22 22q-25 0 -31 -29l-5 -24h-84l4 21q12 62 48 84q28 20 74 20q53 0 77 -27q23 -25 23 -57q0 -9 -2 -21q-12 -51 -47 -95l-127 -160h126l-14 -72h-219zM174 0l376 712h89l-376 -712h-89zM509 305l4 24q11 57 48 83
q26 20 76 20q52 0 75 -26q19 -20 19 -56q0 -14 -4 -38q-8 -40 -25 -61q-12 -16 -30 -25q30 -17 30 -58q0 -18 -6 -44q-10 -49 -18 -67.5t-26 -34.5q-28 -27 -86 -27q-55 0 -80 28q-20 20 -20 50q0 17 4 37l2 12h84l-3 -15q-2 -10 -2 -19q0 -21 22 -21q13 0 21 8q9 9 18 49
q6 29 6 46q0 21 -22 21h-19l14 67h16q12 0 19 7q11 11 17 45q4 20 4 31q0 19 -18 19q-24 0 -30 -26l-6 -29h-84z" />
    <glyph glyph-name="uni2155" unicode="&#x2155;" horiz-adv-x="777" 
d="M149 285l67 334l-65 -45l18 92l65 46h84l-85 -427h-84zM174 0l376 712h89l-376 -712h-89zM471 116h84l-2 -9q-2 -9 -2 -19q0 -21 22 -21q13 0 21 8q10 10 21 66q9 48 9 58q0 22 -22 22t-33 -33l-1 -3h-79l49 242h213l-15 -72h-137l-17 -88q10 8 23 15q15 7 38 7
q33 0 49 -18q16 -17 18 -42q0 -32 -11 -88q-12 -61 -20 -82t-27 -37q-28 -27 -86 -27q-55 0 -80 28q-20 20 -20 50q0 19 3 34z" />
    <glyph glyph-name="uni2156" unicode="&#x2156;" horiz-adv-x="777" 
d="M63 285l13 65l152 196q13 16 23.5 40t10.5 37q0 22 -22 22q-25 0 -31 -29l-5 -24h-84l4 21q12 62 48 84q28 20 74 20q53 0 77 -27q23 -25 23 -57q0 -9 -2 -21q-12 -51 -47 -95l-127 -160h126l-14 -72h-219zM174 0l376 712h89l-376 -712h-89zM471 116h84l-2 -9
q-2 -9 -2 -19q0 -21 22 -21q13 0 21 8q10 10 21 66q9 48 9 58q0 22 -22 22t-33 -33l-1 -3h-79l49 242h213l-15 -72h-137l-17 -88q10 8 23 15q15 7 38 7q33 0 49 -18q16 -17 18 -42q0 -32 -11 -88q-12 -61 -20 -82t-27 -37q-28 -27 -86 -27q-55 0 -80 28q-20 20 -20 50
q0 19 3 34z" />
    <glyph glyph-name="uni2157" unicode="&#x2157;" horiz-adv-x="777" 
d="M119 590l4 24q11 57 48 83q26 20 76 20q52 0 75 -26q19 -20 19 -56q0 -14 -4 -38q-8 -40 -25 -61q-12 -16 -30 -25q30 -17 30 -58q0 -18 -6 -44q-10 -49 -18 -67.5t-26 -34.5q-28 -27 -86 -27q-55 0 -80 28q-20 20 -20 50q0 17 4 37l2 12h84l-3 -15q-2 -10 -2 -19
q0 -21 22 -21q13 0 21 8q9 9 18 49q6 29 6 46q0 21 -22 21h-19l14 67h16q12 0 19 7q11 11 17 45q4 20 4 31q0 19 -18 19q-24 0 -30 -26l-6 -29h-84zM174 0l376 712h89l-376 -712h-89zM471 116h84l-2 -9q-2 -9 -2 -19q0 -21 22 -21q13 0 21 8q10 10 21 66q9 48 9 58
q0 22 -22 22t-33 -33l-1 -3h-79l49 242h213l-15 -72h-137l-17 -88q10 8 23 15q15 7 38 7q33 0 49 -18q16 -17 18 -42q0 -32 -11 -88q-12 -61 -20 -82t-27 -37q-28 -27 -86 -27q-55 0 -80 28q-20 20 -20 50q0 19 3 34z" />
    <glyph glyph-name="uni2158" unicode="&#x2158;" horiz-adv-x="777" 
d="M58 347l14 69l164 296h84l-158 -293h41l10 50h83l-9 -50h30l-15 -72h-29l-13 -62h-84l12 62h-130zM174 0l376 712h89l-376 -712h-89zM471 116h84l-2 -9q-2 -9 -2 -19q0 -21 22 -21q13 0 21 8q10 10 21 66q9 48 9 58q0 22 -22 22t-33 -33l-1 -3h-79l49 242h213l-15 -72
h-137l-17 -88q10 8 23 15q15 7 38 7q33 0 49 -18q16 -17 18 -42q0 -32 -11 -88q-12 -61 -20 -82t-27 -37q-28 -27 -86 -27q-55 0 -80 28q-20 20 -20 50q0 19 3 34z" />
    <glyph glyph-name="uni2159" unicode="&#x2159;" horiz-adv-x="777" 
d="M149 285l67 334l-65 -45l18 92l65 46h84l-85 -427h-84zM174 0l376 712h89l-376 -712h-89zM467 78q0 22 6 53q10 52 34 93l115 203h91l-100 -166q9 4 23 4q32 0 49.5 -20.5t18.5 -49.5q0 -27 -8 -64q-14 -72 -37 -98q-35 -38 -96 -38q-50 0 -75 28q-19 22 -21 55zM557 131
q-6 -28 -6 -42q0 -23 20 -23q15 0 22 10q8 10 19 55q6 28 6 42q0 23 -20 23q-15 0 -22 -10q-8 -10 -19 -55z" />
    <glyph glyph-name="uni215A" unicode="&#x215a;" horiz-adv-x="777" 
d="M81 401h84l-2 -9q-2 -9 -2 -19q0 -21 22 -21q13 0 21 8q10 10 21 66q9 48 9 58q0 22 -22 22t-33 -33l-1 -3h-79l49 242h213l-15 -72h-137l-17 -88q10 8 23 15q15 7 38 7q33 0 49 -18q16 -16 18 -42q0 -32 -11 -88q-12 -61 -20 -82t-27 -37q-28 -27 -86 -27q-55 0 -80 28
q-20 20 -20 50q0 19 3 34zM174 0l376 712h89l-376 -712h-89zM467 78q0 22 6 53q10 52 34 93l115 203h91l-100 -166q9 4 23 4q32 0 49.5 -20.5t18.5 -49.5q0 -27 -8 -64q-14 -72 -37 -98q-35 -38 -96 -38q-50 0 -75 28q-19 22 -21 55zM557 131q-6 -28 -6 -42q0 -23 20 -23
q15 0 22 10q8 10 19 55q6 28 6 42q0 23 -20 23q-15 0 -22 -10q-8 -10 -19 -55z" />
    <glyph glyph-name="oneeighth" unicode="&#x215b;" horiz-adv-x="777" 
d="M149 285l67 334l-65 -45l18 92l65 46h84l-85 -427h-84zM174 0l376 712h89l-376 -712h-89zM513 313q9 42 17 59.5t23 32.5q28 27 82 27q55 0 79 -27q20 -20 20 -52q0 -22 -4 -40q-10 -48 -23 -66q-15 -21 -32 -31q7 -6 14 -16q8 -12 8 -40q0 -22 -3 -38
q-8 -45 -15.5 -63.5t-24.5 -34.5q-32 -29 -88 -29q-55 0 -80 28q-20 20 -20 50q0 27 5 49q11 52 24 71q16 21 35 33q-8 7 -13 15q-8 13 -8 40q0 16 4 32zM610 122q6 29 6 39q0 12 -7 18q-7 5 -15 5q-13 0 -22 -9t-17 -53q-5 -23 -5 -32q0 -12 7 -18q7 -5 15 -5q14 0 22 9
q9 9 16 46zM594 308q-4 -24 -4 -30q0 -10 6 -16q5 -5 14 -5q11 0 20 9q7 7 14 42q4 25 4 31q0 10 -6 16q-5 5 -14 5q-11 0 -20 -9q-7 -7 -14 -43z" />
    <glyph glyph-name="threeeighths" unicode="&#x215c;" horiz-adv-x="777" 
d="M119 590l4 24q11 57 48 83q26 20 76 20q52 0 75 -26q19 -20 19 -56q0 -14 -4 -38q-8 -40 -25 -61q-12 -16 -30 -25q30 -17 30 -58q0 -18 -6 -44q-10 -49 -18 -67.5t-26 -34.5q-28 -27 -86 -27q-55 0 -80 28q-20 20 -20 50q0 17 4 37l2 12h84l-3 -15q-2 -10 -2 -19
q0 -21 22 -21q13 0 21 8q9 9 18 49q6 29 6 46q0 21 -22 21h-19l14 67h16q12 0 19 7q11 11 17 45q4 20 4 31q0 19 -18 19q-24 0 -30 -26l-6 -29h-84zM174 0l376 712h89l-376 -712h-89zM513 313q9 42 17 59.5t23 32.5q28 27 82 27q55 0 79 -27q20 -20 20 -52q0 -22 -4 -40
q-10 -48 -23 -66q-15 -21 -32 -31q7 -6 14 -16q8 -12 8 -40q0 -22 -3 -38q-8 -45 -15.5 -63.5t-24.5 -34.5q-32 -29 -88 -29q-55 0 -80 28q-20 20 -20 50q0 27 5 49q11 52 24 71q16 21 35 33q-8 7 -13 15q-8 13 -8 40q0 16 4 32zM610 122q6 29 6 39q0 12 -7 18q-7 5 -15 5
q-13 0 -22 -9t-17 -53q-5 -23 -5 -32q0 -12 7 -18q7 -5 15 -5q14 0 22 9q9 9 16 46zM594 308q-4 -24 -4 -30q0 -10 6 -16q5 -5 14 -5q11 0 20 9q7 7 14 42q4 25 4 31q0 10 -6 16q-5 5 -14 5q-11 0 -20 -9q-7 -7 -14 -43z" />
    <glyph glyph-name="fiveeighths" unicode="&#x215d;" horiz-adv-x="777" 
d="M81 401h84l-2 -9q-2 -9 -2 -19q0 -21 22 -21q13 0 21 8q10 10 21 66q9 48 9 58q0 22 -22 22t-33 -33l-1 -3h-79l49 242h213l-15 -72h-137l-17 -88q10 8 23 15q15 7 38 7q33 0 49 -18q16 -16 18 -42q0 -32 -11 -88q-12 -61 -20 -82t-27 -37q-28 -27 -86 -27q-55 0 -80 28
q-20 20 -20 50q0 19 3 34zM174 0l376 712h89l-376 -712h-89zM513 313q9 42 17 59.5t23 32.5q28 27 82 27q55 0 79 -27q20 -20 20 -52q0 -22 -4 -40q-10 -48 -23 -66q-15 -21 -32 -31q7 -6 14 -16q8 -12 8 -40q0 -22 -3 -38q-8 -45 -15.5 -63.5t-24.5 -34.5q-32 -29 -88 -29
q-55 0 -80 28q-20 20 -20 50q0 27 5 49q11 52 24 71q16 21 35 33q-8 7 -13 15q-8 13 -8 40q0 16 4 32zM610 122q6 29 6 39q0 12 -7 18q-7 5 -15 5q-13 0 -22 -9t-17 -53q-5 -23 -5 -32q0 -12 7 -18q7 -5 15 -5q14 0 22 9q9 9 16 46zM594 308q-4 -24 -4 -30q0 -10 6 -16
q5 -5 14 -5q11 0 20 9q7 7 14 42q4 25 4 31q0 10 -6 16q-5 5 -14 5q-11 0 -20 -9q-7 -7 -14 -43z" />
    <glyph glyph-name="seveneighths" unicode="&#x215e;" horiz-adv-x="777" 
d="M94 285l176 355h-68l-9 -47h-79l24 119h233l-12 -63l-179 -364h-86zM174 0l376 712h89l-376 -712h-89zM513 313q9 42 17 59.5t23 32.5q28 27 82 27q55 0 79 -27q20 -20 20 -52q0 -22 -4 -40q-10 -48 -23 -66q-15 -21 -32 -31q7 -6 14 -16q8 -12 8 -40q0 -22 -3 -38
q-8 -45 -15.5 -63.5t-24.5 -34.5q-32 -29 -88 -29q-55 0 -80 28q-20 20 -20 50q0 27 5 49q11 52 24 71q16 21 35 33q-8 7 -13 15q-8 13 -8 40q0 16 4 32zM610 122q6 29 6 39q0 12 -7 18q-7 5 -15 5q-13 0 -22 -9t-17 -53q-5 -23 -5 -32q0 -12 7 -18q7 -5 15 -5q14 0 22 9
q9 9 16 46zM594 308q-4 -24 -4 -30q0 -10 6 -16q5 -5 14 -5q11 0 20 9q7 7 14 42q4 25 4 31q0 10 -6 16q-5 5 -14 5q-11 0 -20 -9q-7 -7 -14 -43z" />
    <glyph glyph-name="uni215F" unicode="&#x215f;" horiz-adv-x="447" 
d="M149 285l67 334l-65 -45l18 92l65 46h84l-85 -427h-84zM174 0l376 712h89l-376 -712h-89z" />
    <glyph glyph-name="uni2189" unicode="&#x2189;" horiz-adv-x="777" 
d="M124 613q11 55 41 79q31 25 84 25q50 0 73 -21t25 -57q0 -16 -4 -33l-44 -222q-11 -55 -41 -79q-31 -25 -84 -25q-50 0 -73 21t-25 57q0 13 4 33zM208 611l-45 -222q-2 -10 -2 -17q0 -9 6.5 -14.5t15.5 -5.5q25 0 32 34l45 222q2 10 2 17q0 9 -6.5 14.5t-15.5 5.5
q-25 0 -32 -34zM174 0l376 712h89l-376 -712h-89zM509 305l4 24q11 57 48 83q26 20 76 20q52 0 75 -26q19 -20 19 -56q0 -14 -4 -38q-8 -40 -25 -61q-12 -16 -30 -25q30 -17 30 -58q0 -18 -6 -44q-10 -49 -18 -67.5t-26 -34.5q-28 -27 -86 -27q-55 0 -80 28q-20 20 -20 50
q0 17 4 37l2 12h84l-3 -15q-2 -10 -2 -19q0 -21 22 -21q13 0 21 8q9 9 18 49q6 29 6 46q0 21 -22 21h-19l14 67h16q12 0 19 7q11 11 17 45q4 20 4 31q0 19 -18 19q-24 0 -30 -26l-6 -29h-84z" />
    <glyph glyph-name="arrowleft" unicode="&#x2190;" horiz-adv-x="768" 
d="M291 27l-268 268l268 268h170l-207 -204h473v-128h-473l207 -204h-170z" />
    <glyph glyph-name="arrowup" unicode="&#x2191;" horiz-adv-x="768" 
d="M117 219v170l268 268l268 -268v-170l-204 207v-473h-128v473z" />
    <glyph glyph-name="arrowright" unicode="&#x2192;" horiz-adv-x="768" 
d="M43 231v128h473l-207 204h170l268 -268l-268 -268h-170l207 204h-473z" />
    <glyph glyph-name="arrowdown" unicode="&#x2193;" horiz-adv-x="768" 
d="M117 201v170l204 -207v473h128v-473l204 207v-170l-268 -268z" />
    <glyph glyph-name="uni2196" unicode="&#x2196;" horiz-adv-x="768" 
d="M136 175v379h379l120 -120l-290 2l334 -335l-90 -90l-335 334l2 -290z" />
    <glyph glyph-name="uni2197" unicode="&#x2197;" horiz-adv-x="768" 
d="M91 101l334 335l-290 -2l120 120h379v-379l-120 -120l2 290l-335 -334z" />
    <glyph glyph-name="uni2198" unicode="&#x2198;" horiz-adv-x="768" 
d="M134 157l292 -3l-335 335l91 90l334 -334l-2 290l120 -120l-1 -379h-379z" />
    <glyph glyph-name="uni2199" unicode="&#x2199;" horiz-adv-x="768" 
d="M136 36v379l120 120l-2 -290l335 334l90 -90l-334 -335l290 2l-120 -120h-379z" />
    <glyph glyph-name="partialdiff" unicode="&#x2202;" horiz-adv-x="418" 
d="M27 56q-16 29 -16 78q0 36 15 109q22 107 35.5 148.5t39.5 66.5q37 36 100 36q30 0 52 -14q19 -12 29 -26l7 37q11 60 11 75q0 18 -8 27q-10 13 -30 13q-31 0 -60 -27l-62 82q56 59 149 59q75 0 113 -46q28 -34 28 -85q0 -40 -16 -116l-41 -204q-34 -173 -76 -222
q-46 -55 -145 -55q-90 0 -125 64zM138 140q0 -16 6 -23q8 -11 26 -11q25 0 37 18q13 20 33 119q16 77 16 103q0 14 -4 21q-7 13 -27 13q-25 0 -37 -18q-14 -18 -34 -119q-16 -75 -16 -103z" />
    <glyph glyph-name="Delta" unicode="&#x2206;" horiz-adv-x="492" 
d="M-47 0l316 712h132l32 -712h-480zM149 120h151l3 395z" />
    <glyph glyph-name="product" unicode="&#x220f;" horiz-adv-x="486" 
d="M-36 -174l187 934h382l-187 -934h-134l163 814h-114l-163 -814h-134z" />
    <glyph glyph-name="summation" unicode="&#x2211;" horiz-adv-x="393" 
d="M-39 -79l209 389l-61 353l20 97h333l-24 -120h-193l41 -269l-25 -136l-153 -291h190l-24 -120h-332z" />
    <glyph glyph-name="minus" unicode="&#x2212;" horiz-adv-x="448" 
d="M34 235l24 120h368l-24 -120h-368z" />
    <glyph glyph-name="uni2219" unicode="&#x2219;" horiz-adv-x="448" 
d="M76 295q0 62 44.5 106.5t106.5 44.5t106.5 -44.5t44.5 -106.5t-44.5 -106.5t-106.5 -44.5t-106.5 44.5t-44.5 106.5z" />
    <glyph glyph-name="radical" unicode="&#x221a;" horiz-adv-x="494" 
d="M69 0l-11 538h138l-16 -337l190 511h194l-24 -120h-79l-251 -592h-141z" />
    <glyph glyph-name="infinity" unicode="&#x221e;" horiz-adv-x="678" 
d="M48 295q0 67 40.5 110t115.5 43q74 0 139 -70q65 70 139 70q75 0 115.5 -43t40.5 -110t-40.5 -110t-115.5 -43q-74 0 -139 70q-65 -70 -139 -70q-75 0 -115.5 43t-40.5 110zM166 291q0 -18 11 -27.5t26 -9.5q22 0 53 37q-32 38 -53 38q-15 0 -26 -10t-11 -28zM430 291
q31 -37 53 -37q15 0 26 9.5t11 27.5t-11 28t-26 10q-21 0 -53 -38z" />
    <glyph glyph-name="integral" unicode="&#x222b;" horiz-adv-x="310" 
d="M372 722l-23 -114q-35 0 -52.5 -17.5t-24.5 -52.5l-108 -538q-21 -103 -82 -144q-28 -19 -57.5 -24.5t-86.5 -5.5l23 114q35 0 52.5 17.5t24.5 52.5l108 538q21 103 82 144q28 19 57.5 24.5t86.5 5.5z" />
    <glyph glyph-name="approxequal" unicode="&#x2248;" horiz-adv-x="448" 
d="M62 119l-63 83q83 73 148 73q44 0 84 -28q28 -20 61 -20q38 0 78 40l64 -83q-83 -73 -148 -73q-44 0 -84 28q-28 20 -61 20q-39 0 -79 -40zM102 322l-63 83q83 73 148 73q44 0 84 -28q28 -20 61 -20q38 0 78 40l64 -83q-83 -73 -148 -73q-44 0 -84 28q-28 20 -61 20
q-39 0 -79 -40z" />
    <glyph glyph-name="notequal" unicode="&#x2260;" horiz-adv-x="448" 
d="M-16 75l51 63h-35l24 120h109l60 74h-154l24 120h227l104 127l82 -64l-52 -63h37l-24 -120h-110l-61 -74h156l-24 -120h-230l-103 -127z" />
    <glyph glyph-name="lessequal" unicode="&#x2264;" horiz-adv-x="402" 
d="M17 193l28 139l296 -208l-28 -139zM61 412l19 93l379 208l-31 -156l-204 -108l161 -109l-28 -136z" />
    <glyph glyph-name="greaterequal" unicode="&#x2265;" horiz-adv-x="402" 
d="M-25 -15l28 139l380 208l-28 -139zM418 500l-19 -93l-379 -208l31 156l204 108l-161 109l28 136z" />
    <glyph glyph-name="dotmath" unicode="&#x22c5;" horiz-adv-x="448" 
d="M126 210l34 170h172l-34 -170h-172z" />
    <glyph glyph-name="lozenge" unicode="&#x25ca;" horiz-adv-x="466" 
d="M196 52l-145 292l246 272l144 -292zM229 248l77 86l-42 86l-78 -86z" />
    <glyph glyph-name="fi" unicode="&#xfb01;" horiz-adv-x="476" 
d="M13 0l84 421h-47l19 96h47l6 29q21 103 82 144q28 19 57.5 24.5t86.5 5.5l-23 -114q-35 0 -52.5 -17.5t-24.5 -52.5l-4 -19h63l-19 -96h-63l-84 -421h-128zM251 0l103 517h128l-103 -517h-128zM366 578l27 134h128l-27 -134h-128z" />
    <glyph glyph-name="fl" unicode="&#xfb02;" horiz-adv-x="511" 
d="M13 0l84 421h-47l19 96h47l6 29q21 103 82 144q28 19 57.5 24.5t86.5 5.5l-23 -114q-35 0 -52.5 -17.5t-24.5 -52.5l-4 -19h63l-19 -96h-63l-84 -421h-128zM318 35q-37 34 -37 93q0 25 5 50l107 534h128l-105 -525q-3 -15 -3 -30q0 -43 50 -43l-22 -114q-83 0 -123 35z
" />
    <glyph glyph-name="uniFEFF" unicode="&#xfeff;" horiz-adv-x="0" 
 />
    <glyph glyph-name="i.latn_TRK" horiz-adv-x="216" 
d="M-9 0l103 517h128l-103 -517h-128zM106 578l27 134h128l-27 -134h-128z" />
    <glyph glyph-name="Ldot.latn_CAT" horiz-adv-x="390" 
d="M-1 0l142 712h134l-118 -592h178l-24 -120h-312zM262 299l24 120h114l-24 -120h-114z" />
    <glyph glyph-name="ldot.latn_CAT" horiz-adv-x="353" 
d="M56 35q-37 34 -37 93q0 25 5 50l107 534h128l-105 -525q-3 -15 -3 -30q0 -43 50 -43l-22 -114q-83 0 -123 35zM218 238l24 120h114l-24 -120h-114z" />
    <glyph glyph-name="zero.numr" horiz-adv-x="330" 
d="M124 613q11 55 41 79q31 25 84 25q50 0 73 -21t25 -57q0 -16 -4 -33l-44 -222q-11 -55 -41 -79q-31 -25 -84 -25q-50 0 -73 21t-25 57q0 13 4 33zM208 611l-45 -222q-2 -10 -2 -17q0 -9 6.5 -14.5t15.5 -5.5q25 0 32 34l45 222q2 10 2 17q0 9 -6.5 14.5t-15.5 5.5
q-25 0 -32 -34z" />
    <glyph glyph-name="one.numr" horiz-adv-x="330" 
d="M149 285l67 334l-65 -45l18 92l65 46h84l-85 -427h-84z" />
    <glyph glyph-name="two.numr" horiz-adv-x="330" 
d="M63 285l13 65l152 196q13 16 23.5 40t10.5 37q0 22 -22 22q-25 0 -31 -29l-5 -24h-84l4 21q12 62 48 84q28 20 74 20q53 0 77 -27q23 -25 23 -57q0 -9 -2 -21q-12 -51 -47 -95l-127 -160h126l-14 -72h-219z" />
    <glyph glyph-name="three.numr" horiz-adv-x="330" 
d="M119 590l4 24q11 57 48 83q26 20 76 20q52 0 75 -26q19 -20 19 -56q0 -14 -4 -38q-8 -40 -25 -61q-12 -16 -30 -25q30 -17 30 -58q0 -18 -6 -44q-10 -49 -18 -67.5t-26 -34.5q-28 -27 -86 -27q-55 0 -80 28q-20 20 -20 50q0 17 4 37l2 12h84l-3 -15q-2 -10 -2 -19
q0 -21 22 -21q13 0 21 8q9 9 18 49q6 29 6 46q0 21 -22 21h-19l14 67h16q12 0 19 7q11 11 17 45q4 20 4 31q0 19 -18 19q-24 0 -30 -26l-6 -29h-84z" />
    <glyph glyph-name="four.numr" horiz-adv-x="330" 
d="M58 347l14 69l164 296h84l-158 -293h41l10 50h83l-9 -50h30l-15 -72h-29l-13 -62h-84l12 62h-130z" />
    <glyph glyph-name="five.numr" horiz-adv-x="330" 
d="M81 401h84l-2 -9q-2 -9 -2 -19q0 -21 22 -21q13 0 21 8q10 10 21 66q9 48 9 58q0 22 -22 22t-33 -33l-1 -3h-79l49 242h213l-15 -72h-137l-17 -88q10 8 23 15q15 7 38 7q33 0 49 -18q16 -16 18 -42q0 -32 -11 -88q-12 -61 -20 -82t-27 -37q-28 -27 -86 -27q-55 0 -80 28
q-20 20 -20 50q0 19 3 34z" />
    <glyph glyph-name="six.numr" horiz-adv-x="330" 
d="M77 363q0 22 6 53q10 52 34 93l115 203h91l-100 -166q9 4 23 4q32 0 49.5 -20.5t18.5 -49.5q0 -27 -8 -64q-14 -72 -37 -98q-35 -38 -96 -38q-50 0 -75 28q-19 22 -21 55zM167 416q-6 -28 -6 -42q0 -23 20 -23q15 0 22 10q8 10 19 55q6 28 6 42q0 23 -20 23
q-15 0 -22 -10q-8 -10 -19 -55z" />
    <glyph glyph-name="seven.numr" horiz-adv-x="330" 
d="M94 285l176 355h-68l-9 -47h-79l24 119h233l-12 -63l-179 -364h-86z" />
    <glyph glyph-name="eight.numr" horiz-adv-x="330" 
d="M123 598q14 68 40 92q28 27 82 27q55 0 79 -27q20 -20 20 -52q0 -22 -4 -40q-10 -48 -23 -66q-15 -21 -32 -31q7 -6 14 -16q8 -12 8 -40q0 -22 -3 -38q-8 -45 -15.5 -63.5t-24.5 -34.5q-32 -29 -88 -29q-55 0 -80 28q-20 20 -20 50q0 26 5 49q11 52 24 71q16 21 35 33
q-8 7 -13 15q-8 13 -8 40q0 16 4 32zM220 407q6 29 6 39q0 12 -7 18q-7 5 -15 5q-13 0 -22 -9t-17 -53q-5 -23 -5 -32q0 -12 7 -18q7 -5 15 -5q14 0 22 9q9 9 16 46zM204 593q-4 -24 -4 -30q0 -10 6 -16q5 -5 14 -5q11 0 20 9q7 7 14 42q4 25 4 31q0 10 -6 16q-5 5 -14 5
q-11 0 -20 -9q-7 -7 -14 -43z" />
    <glyph glyph-name="nine.numr" horiz-adv-x="330" 
d="M345 634q0 -22 -6 -53q-10 -52 -34 -93l-115 -203h-91l100 166q-9 -4 -23 -4q-32 0 -49.5 20.5t-18.5 49.5q0 27 8 64q14 72 37 98q35 38 96 38q50 0 75 -28q19 -22 21 -55zM255 581q6 28 6 42q0 23 -20 23q-15 0 -22 -10q-8 -10 -19 -55q-6 -28 -6 -42q0 -23 20 -23
q15 0 22 10q8 10 19 55z" />
    <glyph glyph-name="zero.dnom" horiz-adv-x="330" 
d="M67 328q11 55 41 79q31 25 84 25q50 0 73 -21t25 -57q0 -16 -4 -33l-44 -222q-11 -55 -41 -79q-31 -25 -84 -25q-50 0 -73 21t-25 57q0 13 4 33zM151 326l-45 -222q-2 -10 -2 -17q0 -9 6.5 -14.5t15.5 -5.5q25 0 32 34l45 222q2 10 2 17q0 9 -6.5 14.5t-15.5 5.5
q-25 0 -32 -34z" />
    <glyph glyph-name="one.dnom" horiz-adv-x="330" 
d="M91 0l67 334l-65 -45l18 92l65 46h84l-85 -427h-84z" />
    <glyph glyph-name="two.dnom" horiz-adv-x="330" 
d="M6 0l13 65l152 196q13 16 23.5 40t10.5 37q0 22 -22 22q-25 0 -31 -29l-5 -24h-84l4 21q12 62 48 84q28 20 74 20q53 0 77 -27q23 -25 23 -57q0 -9 -2 -21q-12 -51 -47 -95l-127 -160h126l-14 -72h-219z" />
    <glyph glyph-name="three.dnom" horiz-adv-x="330" 
d="M62 305l4 24q11 57 48 83q26 20 76 20q52 0 75 -26q19 -20 19 -56q0 -14 -4 -38q-8 -40 -25 -61q-12 -16 -30 -25q30 -17 30 -58q0 -18 -6 -44q-10 -49 -18 -67.5t-26 -34.5q-29 -27 -86 -27q-55 0 -80 28q-20 20 -20 50q0 17 4 37l2 12h84l-3 -15q-2 -10 -2 -19
q0 -21 22 -21q13 0 21 8q9 9 18 49q6 29 6 46q0 21 -22 21h-19l14 67h16q12 0 19 7q11 11 17 45q4 20 4 31q0 19 -18 19q-24 0 -30 -26l-6 -29h-84z" />
    <glyph glyph-name="four.dnom" horiz-adv-x="330" 
d="M0 62l14 69l164 296h84l-158 -293h41l10 50h83l-9 -50h30l-15 -72h-29l-13 -62h-84l12 62h-130z" />
    <glyph glyph-name="five.dnom" horiz-adv-x="330" 
d="M24 116h84l-2 -9q-2 -9 -2 -19q0 -21 22 -21q13 0 21 8q10 10 21 66q9 48 9 58q0 22 -22 22t-33 -33l-1 -3h-79l49 242h213l-15 -72h-137l-17 -88q10 8 23 15q15 7 38 7q32 0 49 -18q17 -17 18 -42q0 -32 -11 -88q-12 -61 -20 -82t-27 -37q-29 -27 -86 -27q-55 0 -80 28
q-20 20 -20 50q0 19 3 34z" />
    <glyph glyph-name="six.dnom" horiz-adv-x="330" 
d="M20 78q0 22 6 53q10 52 34 93l115 203h91l-100 -166q9 4 23 4q32 0 49.5 -20.5t18.5 -49.5q0 -27 -8 -64q-14 -72 -37 -98q-35 -38 -96 -38q-50 0 -75 28q-19 22 -21 55zM110 131q-6 -28 -6 -42q0 -23 20 -23q15 0 22 10q8 10 19 55q6 28 6 42q0 23 -20 23q-15 0 -22 -10
q-8 -10 -19 -55z" />
    <glyph glyph-name="seven.dnom" horiz-adv-x="330" 
d="M36 0l176 355h-68l-9 -47h-79l24 119h233l-12 -63l-179 -364h-86z" />
    <glyph glyph-name="eight.dnom" horiz-adv-x="330" 
d="M66 313q9 42 17 59.5t23 32.5q28 27 82 27q55 0 79 -27q20 -20 20 -52q0 -22 -4 -40q-10 -48 -23 -66q-15 -21 -32 -31q8 -6 14 -16q8 -12 8 -40q0 -22 -3 -38q-8 -45 -15.5 -63.5t-24.5 -34.5q-32 -29 -88 -29q-55 0 -80 28q-20 20 -20 50q0 27 5 49q11 52 24 71
q16 21 35 33q-8 7 -13 15q-8 13 -8 40q0 16 4 32zM163 122q6 29 6 39q0 12 -7 18q-7 5 -15 5q-13 0 -22 -9t-17 -53q-5 -22 -5 -32q0 -12 7 -18q7 -5 15 -5q14 0 22 9q9 9 16 46zM147 308q-4 -24 -4 -30q0 -10 6 -16q5 -5 14 -5q11 0 20 9q7 7 14 42q4 25 4 31q0 10 -6 16
q-5 5 -14 5q-11 0 -20 -9q-7 -7 -14 -43z" />
    <glyph glyph-name="nine.dnom" horiz-adv-x="330" 
d="M288 349q0 -21 -6 -53q-10 -52 -34 -93l-115 -203h-91l100 166q-9 -4 -23 -4q-32 0 -49.5 20.5t-18.5 49.5q0 27 8 64q14 72 37 98q35 38 96 38q50 0 75 -28q19 -22 21 -55zM198 296q6 28 6 42q0 23 -20 23q-15 0 -22 -10q-8 -10 -19 -55q-6 -28 -6 -42q0 -23 20 -23
q15 0 22 10q8 10 19 55z" />
    <glyph glyph-name="space.frac" horiz-adv-x="32" 
 />
    <glyph glyph-name="zero.osf" horiz-adv-x="404" 
d="M65 428q18 91 65 132q50 42 129 42q75 0 110 -35q36 -35 36 -95q0 -25 -6 -55l-50 -251q-18 -91 -65 -132q-50 -42 -129 -42q-75 0 -110 35q-36 35 -36 95q0 25 6 55zM194 434l-53 -269q-3 -15 -3 -26q0 -33 32 -33q39 0 50 54l53 269q3 15 3 26q0 33 -32 33
q-39 0 -50 -54z" />
    <glyph glyph-name="one.osf" horiz-adv-x="336" 
d="M89 0l87 440l-111 -77l32 154l110 77h128l-118 -594h-128z" />
    <glyph glyph-name="two.osf" horiz-adv-x="392" 
d="M-24 0l21 108l205 218q64 67 64 125q0 37 -29 37q-36 0 -49 -64l-5 -25h-128l6 30q21 103 77 142q44 31 113 31q67 0 105 -38t38 -107q0 -89 -99 -193l-145 -150h190l-22 -114h-342z" />
    <glyph glyph-name="three.osf" horiz-adv-x="395" 
d="M57 390l8 40q10 51 26 83t48 56q42 33 116 33q80 0 114 -43q28 -34 28 -84q0 -33 -8 -73q-14 -69 -39 -102q-20 -26 -47 -42q44 -26 44 -88q0 -26 -11 -81q-16 -80 -28.5 -111.5t-40.5 -59.5q-44 -44 -132 -44q-84 0 -121 46q-29 36 -29 84q0 27 7 62l4 20h128l-5 -25
q-4 -20 -4 -32q0 -41 33 -41q18 0 32 14q13 13 28 87q11 55 11 76q0 35 -32 35h-30l23 112h25q19 0 29 12q14 16 26 75q9 45 9 58q0 31 -28 31q-36 0 -46 -49l-10 -49h-128z" />
    <glyph glyph-name="four.osf" horiz-adv-x="422" 
d="M-18 30l22 114l272 485h129l-263 -485h64l19 92h124l-19 -92h48l-22 -114h-48l-31 -153h-124l31 153h-202z" />
    <glyph glyph-name="five.osf" horiz-adv-x="403" 
d="M-1 76h128l-3 -15q-4 -20 -4 -32q0 -41 33 -41q18 0 32 14q13 13 34 115q15 79 15 97q0 36 -32 36q-39 0 -51 -55l-1 -5h-122l81 404h325l-23 -114h-209l-30 -153q19 17 36 25q26 12 57 12q48 0 75 -30q25 -28 25 -71q0 -56 -18 -146q-20 -101 -33 -135.5t-42 -63.5
q-44 -44 -132 -44q-84 0 -121 46q-29 36 -29 84q0 27 6 57z" />
    <glyph glyph-name="six.osf" horiz-adv-x="393" 
d="M6 130q0 38 10 89q18 90 55 155l191 338h139l-167 -277q12 7 34 7q50 0 75.5 -34t25.5 -83q0 -40 -13 -106q-14 -71 -26.5 -104.5t-33.5 -58.5q-28 -33 -62 -48.5t-85 -15.5q-75 0 -113 46q-30 38 -30 92zM134 144q0 -38 30 -38q21 0 33 16q14 19 32 100q10 47 10 73
q0 37 -30 37q-21 0 -34 -16q-15 -19 -30 -94q-11 -55 -11 -78z" />
    <glyph glyph-name="seven.osf" horiz-adv-x="409" 
d="M-2 -118l296 598h-103l-19 -90h-120l40 204h357l-21 -106l-298 -606h-132z" />
    <glyph glyph-name="eight.osf" horiz-adv-x="404" 
d="M88 521q15 70 27.5 100t36.5 54q45 45 126 45q83 0 119 -45q28 -33 28 -81q0 -40 -9 -84q-14 -70 -34 -99q-20 -30 -49 -51q12 -12 20 -26q14 -24 14 -57q0 -35 -8 -73q-16 -79 -27.5 -108.5t-37.5 -55.5q-48 -48 -135 -48q-83 0 -120 46q-29 36 -29 84q0 37 9 82
q17 85 38 117q21 33 54 55q-12 14 -19 26q-11 21 -11 55q0 25 7 64zM214 515q-9 -45 -9 -56q0 -18 9 -27q8 -8 20 -8q18 0 29 14q13 18 25 77q9 45 9 56q0 18 -9 27q-8 8 -20 8q-18 0 -29 -14q-13 -18 -25 -77zM148 209q-10 -50 -10 -65q0 -19 10 -29q9 -9 23 -9q19 0 33 15
q14 16 28 88q10 50 10 65q0 19 -10 29q-9 9 -23 9q-19 0 -33 -15q-14 -16 -28 -88z" />
    <glyph glyph-name="nine.osf" horiz-adv-x="393" 
d="M398 464q0 -38 -10 -89q-18 -90 -55 -155l-191 -338h-139l167 277q-12 -7 -34 -7q-50 0 -75.5 34t-25.5 83q0 40 13 106q14 71 26.5 104.5t33.5 58.5q28 33 62 48.5t85 15.5q75 0 113 -46q30 -38 30 -92zM270 450q0 38 -30 38q-21 0 -33 -16q-14 -19 -32 -100
q-10 -47 -10 -73q0 -37 30 -37q21 0 34 16q15 19 30 94q11 55 11 78z" />
    <glyph glyph-name="zero.lf" horiz-adv-x="404" 
d="M90 546q18 91 65 132q49 42 129 42q75 0 110 -35q36 -35 36 -95q0 -25 -6 -55l-74 -369q-18 -91 -65 -132q-49 -42 -129 -42q-75 0 -110 35q-36 35 -36 95q0 25 6 55zM219 552l-77 -387q-3 -15 -3 -26q0 -33 32 -33q39 0 50 54l77 387q3 15 3 26q0 33 -32 33
q-39 0 -50 -54z" />
    <glyph glyph-name="one.lf" horiz-adv-x="329" 
d="M90 0l111 557l-121 -84l31 154l121 85h128l-142 -712h-128z" />
    <glyph glyph-name="two.lf" horiz-adv-x="385" 
d="M-22 0l21 108l237 327q52 70 52 134q0 37 -31 37q-38 0 -49 -55l-8 -40h-128l7 35q20 101 75 141q45 33 114 33q80 0 117 -45q32 -38 32 -97q0 -88 -78 -191l-202 -273h195l-22 -114h-332z" />
    <glyph glyph-name="three.lf" horiz-adv-x="398" 
d="M76 508l8 40q10 51 26 83t48 56q42 33 116 33q80 0 114 -43q28 -34 28 -84q0 -33 -8 -73q-14 -69 -39 -102q-19 -25 -47 -42q44 -26 44 -88q0 -26 -11 -81q-16 -80 -28.5 -111.5t-40.5 -59.5q-44 -44 -132 -44q-84 0 -121 46q-29 36 -29 84q0 27 7 62l4 20h128l-5 -25
q-4 -20 -4 -32q0 -41 33 -41q18 0 32 14q13 13 28 87q11 55 11 76q0 35 -32 35h-30l23 112h25q19 0 29 12q14 16 26 75q9 45 9 58q0 31 -28 31q-36 0 -46 -49l-10 -49h-128z" />
    <glyph glyph-name="four.lf" horiz-adv-x="418" 
d="M-12 104l23 114l274 494h127l-265 -494h62l18 88h128l-18 -88h46l-23 -114h-46l-20 -104h-128l20 104h-198z" />
    <glyph glyph-name="five.lf" horiz-adv-x="404" 
d="M19 194h128l-3 -15q-4 -20 -4 -32q0 -41 33 -41q18 0 32 14q13 13 34 115q15 79 15 97q0 36 -32 36q-39 0 -51 -55l-1 -5h-122l81 404h325l-23 -114h-209l-30 -153q19 17 36 25q26 12 57 12q48 0 75 -30q25 -28 25 -71q0 -56 -18 -146q-20 -101 -33 -135.5t-42 -63.5
q-44 -44 -132 -44q-84 0 -121 46q-29 36 -29 84q0 27 6 57z" />
    <glyph glyph-name="six.lf" horiz-adv-x="392" 
d="M6 130q0 38 10 89q18 90 55 155l191 338h139l-167 -277q12 7 34 7q50 0 75.5 -34t25.5 -83q0 -40 -13 -106q-14 -71 -26.5 -104.5t-33.5 -58.5q-28 -33 -62 -48.5t-85 -15.5q-75 0 -113 46q-30 38 -30 92zM134 144q0 -38 30 -38q21 0 33 16q14 19 32 100q10 47 10 73
q0 37 -30 37q-21 0 -34 -16q-15 -19 -30 -94q-11 -55 -11 -78z" />
    <glyph glyph-name="seven.lf" horiz-adv-x="401" 
d="M17 0l295 598h-104l-17 -85h-120l40 199h355l-21 -106l-298 -606h-130z" />
    <glyph glyph-name="eight.lf" horiz-adv-x="404" 
d="M88 521q15 70 27.5 100t36.5 54q45 45 126 45q83 0 119 -45q28 -33 28 -81q0 -40 -9 -84q-14 -70 -34 -99q-20 -30 -49 -51q12 -12 20 -26q14 -24 14 -57q0 -35 -8 -73q-16 -79 -27.5 -108.5t-37.5 -55.5q-48 -48 -135 -48q-83 0 -120 46q-29 36 -29 84q0 37 9 82
q17 85 38 117q21 33 54 55q-12 14 -19 26q-11 21 -11 55q0 25 7 64zM214 515q-9 -45 -9 -56q0 -18 9 -27q8 -8 20 -8q18 0 29 14q13 18 25 77q9 45 9 56q0 18 -9 27q-8 8 -20 8q-18 0 -29 -14q-13 -18 -25 -77zM148 209q-10 -50 -10 -65q0 -19 10 -29q9 -9 23 -9q19 0 33 15
q14 16 28 88q10 50 10 65q0 19 -10 29q-9 9 -23 9q-19 0 -33 -15q-14 -16 -28 -88z" />
    <glyph glyph-name="nine.lf" horiz-adv-x="392" 
d="M421 582q0 -38 -10 -89q-18 -90 -55 -155l-191 -338h-139l167 277q-12 -7 -34 -7q-50 0 -75.5 34t-25.5 83q0 40 13 106q14 71 26.5 104.5t33.5 58.5q28 33 62 48.5t85 15.5q75 0 113 -46q30 -38 30 -92zM293 568q0 38 -30 38q-21 0 -33 -16q-14 -19 -32 -100
q-10 -47 -10 -73q0 -37 30 -37q21 0 34 16q15 19 30 94q11 55 11 78z" />
    <glyph glyph-name="zero.tosf" horiz-adv-x="404" 
d="M66 428q18 91 65 132q49 42 129 42q75 0 110 -35q36 -35 36 -95q0 -25 -6 -55l-50 -251q-18 -91 -65 -132q-49 -42 -129 -42q-75 0 -110 35q-36 35 -36 95q0 25 6 55zM195 434l-53 -269q-3 -15 -3 -26q0 -33 32 -33q39 0 50 54l53 269q3 15 3 26q0 33 -32 33
q-39 0 -50 -54z" />
    <glyph glyph-name="one.tosf" horiz-adv-x="404" 
d="M113 0l87 440l-111 -77l32 154l110 77h128l-118 -594h-128z" />
    <glyph glyph-name="two.tosf" horiz-adv-x="404" 
d="M-17 0l21 108l205 218q64 67 64 125q0 37 -29 37q-36 0 -49 -64l-5 -25h-128l6 30q21 103 77 142q44 31 113 31q67 0 105 -38t38 -107q0 -89 -99 -193l-145 -150h190l-22 -114h-342z" />
    <glyph glyph-name="three.tosf" horiz-adv-x="404" 
d="M56 390l8 40q10 51 26 83t48 56q42 33 116 33q80 0 114 -43q28 -34 28 -84q0 -33 -8 -73q-14 -69 -39 -102q-19 -26 -47 -42q44 -26 44 -88q0 -26 -11 -81q-16 -80 -28.5 -111.5t-40.5 -59.5q-44 -44 -132 -44q-84 0 -121 46q-29 36 -29 84q0 27 7 62l4 20h128l-5 -25
q-4 -20 -4 -32q0 -41 33 -41q18 0 32 14q13 13 28 87q11 55 11 76q0 35 -32 35h-30l23 112h25q19 0 29 12q14 16 26 75q9 45 9 58q0 31 -28 31q-36 0 -46 -49l-10 -49h-128z" />
    <glyph glyph-name="four.tosf" horiz-adv-x="404" 
d="M-34 30l22 114l272 485h129l-263 -485h64l19 92h124l-19 -92h48l-22 -114h-48l-31 -153h-124l31 153h-202z" />
    <glyph glyph-name="five.tosf" horiz-adv-x="404" 
d="M2 76h128l-3 -15q-4 -20 -4 -32q0 -41 33 -41q18 0 32 14q13 13 34 115q15 79 15 97q0 36 -32 36q-39 0 -51 -55l-1 -5h-122l81 404h325l-23 -114h-209l-30 -153q19 17 36 25q26 12 57 12q48 0 75 -30q25 -28 25 -71q0 -56 -18 -146q-20 -101 -33 -135.5t-42 -63.5
q-44 -44 -132 -44q-84 0 -121 46q-29 36 -29 84q0 27 6 57z" />
    <glyph glyph-name="six.tosf" horiz-adv-x="404" 
d="M12 130q0 38 10 89q18 90 55 155l191 338h139l-167 -277q12 7 34 7q50 0 75.5 -34t25.5 -83q0 -40 -13 -106q-14 -71 -26.5 -104.5t-33.5 -58.5q-28 -33 -62 -48.5t-85 -15.5q-75 0 -113 46q-30 38 -30 92zM140 144q0 -38 30 -38q21 0 33 16q14 19 32 100q10 47 10 73
q0 37 -30 37q-21 0 -34 -16q-15 -19 -30 -94q-11 -55 -11 -78z" />
    <glyph glyph-name="seven.tosf" horiz-adv-x="404" 
d="M-7 -118l296 598h-103l-19 -90h-120l40 204h357l-21 -106l-298 -606h-132z" />
    <glyph glyph-name="eight.tosf" horiz-adv-x="404" 
d="M88 521q15 70 27.5 100t36.5 54q45 45 126 45q83 0 119 -45q28 -33 28 -81q0 -40 -9 -84q-14 -70 -34 -99q-20 -30 -49 -51q12 -12 20 -26q14 -24 14 -57q0 -35 -8 -73q-16 -79 -27.5 -108.5t-37.5 -55.5q-48 -48 -135 -48q-83 0 -120 46q-29 36 -29 84q0 37 9 82
q17 85 38 117q21 33 54 55q-12 14 -19 26q-11 21 -11 55q0 25 7 64zM214 515q-9 -45 -9 -56q0 -18 9 -27q8 -8 20 -8q18 0 29 14q13 18 25 77q9 45 9 56q0 18 -9 27q-8 8 -20 8q-18 0 -29 -14q-13 -18 -25 -77zM148 209q-10 -50 -10 -65q0 -19 10 -29q9 -9 23 -9q19 0 33 15
q14 16 28 88q10 50 10 65q0 19 -10 29q-9 9 -23 9q-19 0 -33 -15q-14 -16 -28 -88z" />
    <glyph glyph-name="nine.tosf" horiz-adv-x="404" 
d="M401 464q0 -38 -10 -89q-18 -90 -55 -155l-191 -338h-139l167 277q-12 -7 -34 -7q-50 0 -75.5 34t-25.5 83q0 40 13 106q14 71 26.5 104.5t33.5 58.5q28 33 62 48.5t85 15.5q75 0 113 -46q30 -38 30 -92zM273 450q0 38 -30 38q-21 0 -33 -16q-14 -19 -32 -100
q-10 -47 -10 -73q0 -37 30 -37q21 0 34 16q15 19 30 94q11 55 11 78z" />
    <glyph glyph-name="uni2007.tosf" horiz-adv-x="404" 
 />
    <glyph glyph-name="hyphen.case" horiz-adv-x="278" 
d="M46 296l24 120h198l-24 -120h-198z" />
    <glyph glyph-name="exclamdown.case" horiz-adv-x="261" 
d="M227 504l-86 -505h-148l106 505h128zM280 711l-30 -150h-142l30 150h142z" />
    <glyph glyph-name="guillemotleft.case" horiz-adv-x="416" 
d="M149 86l-111 271l220 270l-38 -187l-77 -90l41 -90zM339 86l-111 271l220 270l-38 -187l-77 -90l41 -90z" />
    <glyph glyph-name="uni00AD.case" horiz-adv-x="278" 
d="M46 296l24 120h198l-24 -120h-198z" />
    <glyph glyph-name="guillemotright.case" horiz-adv-x="414" 
d="M111 627l111 -271l-220 -270l38 187l77 90l-41 90zM300 627l111 -271l-220 -270l38 187l77 90l-41 90z" />
    <glyph glyph-name="questiondown.case" horiz-adv-x="434" 
d="M317 505l-12 -60q-7 -30 -17 -49t-37 -46l-67 -67q-32 -32 -44 -86q-6 -28 -6 -45q0 -22 11 -33t29 -11q22 0 39 17q16 16 28 76h127q-24 -121 -74 -163q-51 -44 -134 -44q-89 0 -128 51q-26 35 -26 86q0 35 7 70q17 87 66 136l64 64q32 32 37 59l9 45h128zM365 712
l-30 -150h-142l30 150h142z" />
    <glyph glyph-name="endash.case" horiz-adv-x="448" 
d="M46 296l24 120h368l-24 -120h-368z" />
    <glyph glyph-name="emdash.case" horiz-adv-x="696" 
d="M46 296l24 120h616l-24 -120h-616z" />
    <glyph glyph-name="afii00208.case" horiz-adv-x="696" 
d="M46 296l24 120h616l-24 -120h-616z" />
    <glyph glyph-name="guilsinglleft.case" horiz-adv-x="226" 
d="M148 85l-111 271l220 270l-38 -187l-77 -90l41 -90z" />
    <glyph glyph-name="guilsinglright.case" horiz-adv-x="226" 
d="M114 628l111 -271l-220 -270l38 187l77 90l-41 90z" />
    <glyph glyph-name="caroncomma.ss01" horiz-adv-x="476" 
d="M473 546l43 216h91l-30 -152z" />
    <glyph glyph-name="commaaccent.ss01" 
d="M91 -26q41 -4 66 -26.5t25 -62.5q0 -44 -30 -75t-94 -31h-7l14 67q36 3 36 35q0 21 -24 26z" />
    <glyph glyph-name="commaturn.ss01" 
d="M325 582q-41 4 -66 26.5t-25 62.5q0 44 30 75t94 31h7l-14 -67q-36 -3 -36 -35q0 -21 24 -26z" />
    <glyph glyph-name="exclam.ss01" horiz-adv-x="261" 
d="M69 207l86 505h148l-106 -505h-128zM20 78q0 34 24 58t58 24t58 -24t24 -58t-24 -58t-58 -24t-58 24t-24 58z" />
    <glyph glyph-name="period.ss01" horiz-adv-x="242" 
d="M1 78q0 34 24 58t58 24t58 -24t24 -58t-24 -58t-58 -24t-58 24t-24 58z" />
    <glyph glyph-name="colon.ss01" horiz-adv-x="261" 
d="M20 78q0 34 24 58t58 24t58 -24t24 -58t-24 -58t-58 -24t-58 24t-24 58zM79 369q0 34 24 58t58 24t58 -24t24 -58t-24 -58t-58 -24t-58 24t-24 58z" />
    <glyph glyph-name="semicolon.ss01" horiz-adv-x="261" 
d="M79 369q0 34 24 58t58 24t58 -24t24 -58t-24 -58t-58 -24t-58 24t-24 58zM-17 -179l66 329h136l-45 -224z" />
    <glyph glyph-name="question.ss01" horiz-adv-x="434" 
d="M117 78q0 34 24 58t58 24t58 -24t24 -58t-24 -58t-58 -24t-58 24t-24 58zM153 207l12 60q7 30 17 49t37 46l67 67q32 32 44 86q6 28 6 45q0 22 -11 33t-29 11q-22 0 -39 -17q-16 -16 -28 -76h-127q24 121 74 163q51 44 134 44q89 0 128 -51q26 -35 26 -86q0 -35 -7 -70
q-17 -87 -66 -136l-64 -64q-32 -32 -37 -59l-9 -45h-128z" />
    <glyph glyph-name="at.ss01" horiz-adv-x="793" 
d="M248 268q21 105 34.5 143t36.5 61q33 35 86 35q32 0 50 -12q14 -10 23 -26l6 32h109l-75 -372q66 14 107 90.5t41 163.5q0 111 -51.5 174t-158.5 63q-97 0 -169 -59.5t-106 -151.5t-34 -201q0 -154 71.5 -219.5t211.5 -65.5h18l-19 -97h-19q-175 0 -273 96.5t-98 285.5
q0 139 48.5 253.5t145 185t223.5 70.5q150 0 234 -88t84 -246q0 -88 -34 -165.5t-104.5 -129t-163.5 -51.5h-80l6 32q-13 -17 -35 -28q-20 -10 -46 -10q-41 0 -64 23q-25 25 -25 75q0 39 20 139zM362 268q-17 -85 -17 -103t7 -26q8 -10 22 -10t24 10t16 40l37 182q2 10 2 20
q0 13 -8 21q-7 7 -18 7q-17 0 -29 -15q-15 -21 -36 -126z" />
    <glyph glyph-name="a.ss01" horiz-adv-x="411" 
d="M210 546q31 0 51 -14q19 -13 31 -34l8 40h122l-107 -538h-122l7 39q-19 -23 -40 -34q-24 -13 -51 -13q-63 0 -87 44q-16 31 -16 71q0 47 23 162q24 118 40 165t38 69q43 43 103 43zM157 269q-19 -95 -19 -125q0 -21 9 -30q8 -8 22 -8q18 0 30 12q14 14 20 43l43 216
q3 15 3 23q0 16 -9 25q-7 7 -22 7q-18 0 -32 -14q-19 -19 -45 -149z" />
    <glyph glyph-name="i.ss01" horiz-adv-x="216" 
d="M-9 0l103 517h128l-103 -517h-128zM267 654q0 -34 -24 -58t-58 -24t-58 24t-24 58t24 58t58 24t58 -24t24 -58z" />
    <glyph glyph-name="j.ss01" horiz-adv-x="216" 
d="M-85 -60q35 0 52.5 17.5t24.5 52.5l102 507h128l-104 -517q-21 -103 -82 -144q-28 -19 -57.5 -24.5t-86.5 -5.5zM185 572q-34 0 -58 24t-24 58t24 58t58 24t58 -24t24 -58t-24 -58t-58 -24z" />
    <glyph glyph-name="exclamdown.ss01" horiz-adv-x="261" 
d="M193 331l-86 -505h-148l106 505h128zM242 460q0 -34 -24 -58t-58 -24t-58 24t-24 58t24 58t58 24t58 -24t24 -58z" />
    <glyph glyph-name="dieresis.ss01" horiz-adv-x="404" 
d="M250 648q0 -26 -18 -44t-44 -18t-44 18t-18 44t18 44t44 18t44 -18t18 -44zM432 648q0 -26 -18 -44t-44 -18t-44 18t-18 44t18 44t44 18t44 -18t18 -44z" />
    <glyph glyph-name="ordfeminine.ss01" horiz-adv-x="339" 
d="M75 495q19 98 32.5 134t34.5 57q32 32 79 32q31 0 47 -12q14 -9 21 -24l6 30h101l-86 -432h-101l6 30q-11 -15 -33 -26q-18 -10 -43 -10q-37 0 -59 22q-23 23 -23 70q0 39 18 129zM181 495q-15 -75 -15 -94q0 -16 6 -23q8 -9 20 -9q15 0 25 10q9 9 14 36l32 164
q2 10 2 18q0 13 -7 20q-6 6 -17 6q-17 0 -27 -14q-14 -21 -33 -114z" />
    <glyph glyph-name="periodcentered.ss01" horiz-adv-x="290" 
d="M151 199q-41 0 -70 29.5t-29 69.5t29 69.5t70 29.5t70 -29.5t29 -69.5t-29 -69.5t-70 -29.5z" />
    <glyph glyph-name="cedilla.ss01" 
d="M91 -26q41 -4 66 -26.5t25 -62.5q0 -44 -30 -75t-94 -31h-7l14 67q36 3 36 35q0 21 -24 26z" />
    <glyph glyph-name="questiondown.ss01" horiz-adv-x="434" 
d="M314 460q0 -34 -24 -58t-58 -24t-58 24t-24 58t24 58t58 24t58 -24t24 -58zM278 331l-12 -60q-7 -30 -17 -49t-37 -46l-67 -67q-32 -32 -44 -86q-6 -28 -6 -45q0 -22 11 -33t29 -11q22 0 39 17q16 16 28 76h127q-24 -121 -74 -163q-51 -44 -134 -44q-89 0 -128 51
q-26 35 -26 86q0 35 7 70q10 50 25.5 80.5t40.5 55.5l64 64q32 32 37 59l9 45h128z" />
    <glyph glyph-name="Adieresis.ss01" horiz-adv-x="492" 
d="M433 0h-135l1 115h-156l-46 -115h-144l316 712h132zM297 235l1 279l-107 -279h106zM320 818q0 -26 -18.5 -44.5t-44.5 -18.5t-44.5 18.5t-18.5 44.5t18.5 44.5t44.5 18.5t44.5 -18.5t18.5 -44.5zM504 818q0 -26 -18.5 -44.5t-44.5 -18.5t-44.5 18.5t-18.5 44.5t18.5 44.5
t44.5 18.5t44.5 -18.5t18.5 -44.5z" />
    <glyph glyph-name="Ccedilla.ss01" horiz-adv-x="450" 
d="M23 164q0 63 27 192q31 152 52.5 212.5t56.5 95.5q56 56 148 56q90 0 132 -52q34 -42 34 -110q0 -28 -2 -45h-134q2 15 2 37q0 50 -43 50q-25 0 -44 -19q-17 -17 -31 -64t-37 -161q-27 -135 -27 -190q0 -54 43 -54q32 0 51 27q16 23 25 61h136q-23 -110 -82 -162
q-52 -46 -142 -46q-103 0 -142 69q-23 41 -23 103zM127 -26q41 -4 66 -26.5t25 -62.5q0 -44 -30 -75t-94 -31h-7l14 67q36 3 36 35q0 21 -24 26z" />
    <glyph glyph-name="Edieresis.ss01" horiz-adv-x="394" 
d="M-1 0l142 712h312l-24 -120h-178l-35 -173h153l-24 -120h-153l-35 -179h178l-24 -120h-312zM285 818q0 -26 -18.5 -44.5t-44.5 -18.5t-44.5 18.5t-18.5 44.5t18.5 44.5t44.5 18.5t44.5 -18.5t18.5 -44.5zM469 818q0 -26 -18.5 -44.5t-44.5 -18.5t-44.5 18.5t-18.5 44.5
t18.5 44.5t44.5 18.5t44.5 -18.5t18.5 -44.5z" />
    <glyph glyph-name="Idieresis.ss01" horiz-adv-x="238" 
d="M-1 0l142 712h134l-142 -712h-134zM194 818q0 -26 -18.5 -44.5t-44.5 -18.5t-44.5 18.5t-18.5 44.5t18.5 44.5t44.5 18.5t44.5 -18.5t18.5 -44.5zM378 818q0 -26 -18.5 -44.5t-44.5 -18.5t-44.5 18.5t-18.5 44.5t18.5 44.5t44.5 18.5t44.5 -18.5t18.5 -44.5z" />
    <glyph glyph-name="Odieresis.ss01" horiz-adv-x="460" 
d="M50 356q31 152 52.5 212.5t56.5 95.5q56 56 149 56q103 0 142 -69q23 -41 23 -103q0 -63 -27 -192q-31 -152 -52.5 -212.5t-56.5 -95.5q-56 -56 -149 -56q-103 0 -142 69q-23 41 -23 103q0 63 27 192zM184 356q-27 -135 -27 -190q0 -54 44 -54q24 0 43 19q17 17 31 64
t37 161q27 135 27 190q0 54 -44 54q-24 0 -43 -19q-17 -17 -31 -64t-37 -161zM304 818q0 -26 -18.5 -44.5t-44.5 -18.5t-44.5 18.5t-18.5 44.5t18.5 44.5t44.5 18.5t44.5 -18.5t18.5 -44.5zM488 818q0 -26 -18.5 -44.5t-44.5 -18.5t-44.5 18.5t-18.5 44.5t18.5 44.5
t44.5 18.5t44.5 -18.5t18.5 -44.5z" />
    <glyph glyph-name="Udieresis.ss01" horiz-adv-x="476" 
d="M33 196l103 516h134l-105 -525q-3 -17 -3 -28q0 -47 48 -47q54 0 68 70l106 530h134l-106 -531q-19 -93 -73 -141t-146 -48q-80 0 -125 45q-40 40 -40 108q0 26 5 51zM312 818q0 -26 -18.5 -44.5t-44.5 -18.5t-44.5 18.5t-18.5 44.5t18.5 44.5t44.5 18.5t44.5 -18.5
t18.5 -44.5zM496 818q0 -26 -18.5 -44.5t-44.5 -18.5t-44.5 18.5t-18.5 44.5t18.5 44.5t44.5 18.5t44.5 -18.5t18.5 -44.5z" />
    <glyph glyph-name="agrave.ss01" horiz-adv-x="411" 
d="M210 546q31 0 51 -14q19 -13 31 -34l8 40h122l-107 -538h-122l7 39q-19 -23 -40 -34q-24 -13 -51 -13q-63 0 -87 44q-16 31 -16 71q0 47 23 162q24 118 40 165t38 69q43 43 103 43zM157 269q-19 -95 -19 -125q0 -21 9 -30q8 -8 22 -8q18 0 30 12q14 14 20 43l43 216
q3 15 3 23q0 16 -9 25q-7 7 -22 7q-18 0 -32 -14q-19 -19 -45 -149zM221 586l-57 143h100l43 -143h-86z" />
    <glyph glyph-name="aacute.ss01" horiz-adv-x="411" 
d="M210 546q31 0 51 -14q19 -13 31 -34l8 40h122l-107 -538h-122l7 39q-19 -23 -40 -34q-24 -13 -51 -13q-63 0 -87 44q-16 31 -16 71q0 47 23 162q24 118 40 165t38 69q43 43 103 43zM157 269q-19 -95 -19 -125q0 -21 9 -30q8 -8 22 -8q18 0 30 12q14 14 20 43l43 216
q3 15 3 23q0 16 -9 25q-7 7 -22 7q-18 0 -32 -14q-19 -19 -45 -149zM211 586l100 143h108l-118 -143h-90z" />
    <glyph glyph-name="acircumflex.ss01" horiz-adv-x="411" 
d="M210 546q31 0 51 -14q19 -13 31 -34l8 40h122l-107 -538h-122l7 39q-19 -23 -40 -34q-24 -13 -51 -13q-63 0 -87 44q-16 31 -16 71q0 47 23 162q24 118 40 165t38 69q43 43 103 43zM157 269q-19 -95 -19 -125q0 -21 9 -30q8 -8 22 -8q18 0 30 12q14 14 20 43l43 216
q3 15 3 23q0 16 -9 25q-7 7 -22 7q-18 0 -32 -14q-19 -19 -45 -149zM336 731l72 -145h-86l-43 78l-71 -78h-96l130 145h94z" />
    <glyph glyph-name="atilde.ss01" horiz-adv-x="411" 
d="M210 546q31 0 51 -14q19 -13 31 -34l8 40h122l-107 -538h-122l7 39q-19 -23 -40 -34q-24 -13 -51 -13q-63 0 -87 44q-16 31 -16 71q0 47 23 162q24 118 40 165t38 69q43 43 103 43zM157 269q-19 -95 -19 -125q0 -21 9 -30q8 -8 22 -8q18 0 30 12q14 14 20 43l43 216
q3 15 3 23q0 16 -9 25q-7 7 -22 7q-18 0 -32 -14q-19 -19 -45 -149zM167 604l-44 59q50 45 97 45q33 0 62 -17q25 -14 47 -14q25 0 52 24l44 -59q-50 -45 -97 -45q-33 0 -62 17q-25 14 -47 14q-25 0 -52 -24z" />
    <glyph glyph-name="adieresis.ss01" horiz-adv-x="411" 
d="M210 546q31 0 51 -14q19 -13 31 -34l8 40h122l-107 -538h-122l7 39q-19 -23 -40 -34q-24 -13 -51 -13q-63 0 -87 44q-16 31 -16 71q0 47 23 162q24 118 40 165t38 69q43 43 103 43zM157 269q-19 -95 -19 -125q0 -21 9 -30q8 -8 22 -8q18 0 30 12q14 14 20 43l43 216
q3 15 3 23q0 16 -9 25q-7 7 -22 7q-18 0 -32 -14q-19 -19 -45 -149zM240 649q0 -26 -18.5 -44.5t-44.5 -18.5t-44.5 18.5t-18.5 44.5t18.5 44.5t44.5 18.5t44.5 -18.5t18.5 -44.5zM424 649q0 -26 -18.5 -44.5t-44.5 -18.5t-44.5 18.5t-18.5 44.5t18.5 44.5t44.5 18.5
t44.5 -18.5t18.5 -44.5z" />
    <glyph glyph-name="aring.ss01" horiz-adv-x="411" 
d="M210 546q31 0 51 -14q19 -13 31 -34l8 40h122l-107 -538h-122l7 39q-19 -23 -40 -34q-24 -13 -51 -13q-63 0 -87 44q-16 31 -16 71q0 47 23 162q24 118 40 165t38 69q43 43 103 43zM157 269q-19 -95 -19 -125q0 -21 9 -30q8 -8 22 -8q18 0 30 12q14 14 20 43l43 216
q3 15 3 23q0 16 -9 25q-7 7 -22 7q-18 0 -32 -14q-19 -19 -45 -149zM226 699q0 -20 13 -33.5t31 -13.5t31 13.5t13 33.5t-13 33.5t-31 13.5t-31 -13.5t-13 -33.5zM160 699q0 46 32 78t78 32t78 -32t32 -78t-32 -78t-78 -32t-78 32t-32 78z" />
    <glyph glyph-name="ae.ss01" horiz-adv-x="610" 
d="M408 538l-7 -41q37 49 90 49q56 0 88 -50q20 -33 20 -90q0 -54 -25 -179h-215q-12 -65 -12 -86q0 -18 9 -27q8 -8 22 -8q18 0 29 11q14 14 23 48h128q-21 -86 -48 -119q-45 -54 -112 -54q-65 0 -89 50l-8 -42h-108l7 39q-19 -23 -40 -34q-24 -13 -51 -13q-63 0 -87 44
q-16 31 -16 71q0 43 23 162q23 118 39.5 164.5t38.5 69.5q43 43 105 43q29 0 49 -14q22 -15 32 -34l7 40h108zM157 269q-19 -95 -19 -125q0 -21 9 -30q8 -8 22 -8q18 0 30 12q14 14 20 43l43 216q3 15 3 23q0 16 -9 25q-7 7 -22 7q-18 0 -32 -14q-19 -19 -45 -149zM379 322
h86q10 47 10 74q0 36 -31 36q-24 0 -37 -21q-15 -23 -28 -89z" />
    <glyph glyph-name="ccedilla.ss01" horiz-adv-x="389" 
d="M29 269q20 99 36 144t42 76q47 57 140 57t126 -63q17 -33 17 -78q0 -18 -2 -32h-127q2 12 2 24q0 18 -9 27q-8 8 -21 8q-24 0 -37 -21q-15 -23 -39 -142q-21 -101 -21 -128q0 -18 9 -27q8 -8 22 -8q18 0 29 11q14 14 23 48h128q-18 -73 -53 -116q-47 -57 -141 -57
q-93 0 -126 63q-17 33 -17 80q0 36 19 134zM88 -26q41 -4 66 -26.5t25 -62.5q0 -44 -30 -75t-94 -31h-7l14 67q36 3 36 35q0 21 -24 26z" />
    <glyph glyph-name="edieresis.ss01" horiz-adv-x="399" 
d="M27 55q-17 33 -17 80q0 36 19 134q20 99 36 144t42 76q47 57 143 57q80 0 115 -50q23 -33 23 -90q0 -54 -25 -179h-215q-12 -65 -12 -86q0 -18 9 -27q8 -8 22 -8q18 0 29 11q14 14 23 48h128q-18 -73 -53 -116q-47 -57 -141 -57q-93 0 -126 63zM168 322h86q10 47 10 74
q0 36 -31 36q-24 0 -37 -21q-12 -19 -28 -89zM240 649q0 -26 -18.5 -44.5t-44.5 -18.5t-44.5 18.5t-18.5 44.5t18.5 44.5t44.5 18.5t44.5 -18.5t18.5 -44.5zM424 649q0 -26 -18.5 -44.5t-44.5 -18.5t-44.5 18.5t-18.5 44.5t18.5 44.5t44.5 18.5t44.5 -18.5t18.5 -44.5z" />
    <glyph glyph-name="idieresis.ss01" horiz-adv-x="216" 
d="M-9 0l103 517h128l-103 -517h-128zM151 649q0 -26 -18.5 -44.5t-44.5 -18.5t-44.5 18.5t-18.5 44.5t18.5 44.5t44.5 18.5t44.5 -18.5t18.5 -44.5zM335 649q0 -26 -18.5 -44.5t-44.5 -18.5t-44.5 18.5t-18.5 44.5t18.5 44.5t44.5 18.5t44.5 -18.5t18.5 -44.5z" />
    <glyph glyph-name="odieresis.ss01" 
d="M157 269q-21 -101 -21 -128q0 -18 9 -27q8 -8 22 -8q24 0 37 21q15 23 39 142q21 101 21 128q0 18 -9 27q-8 8 -22 8q-24 0 -37 -21q-15 -23 -39 -142zM29 269q20 99 36 144t42 76q47 57 140 57t126 -63q17 -33 17 -80q0 -36 -19 -134q-20 -99 -36 -144t-42 -76
q-48 -57 -140 -57q-93 0 -126 63q-17 33 -17 80q0 36 19 134zM240 649q0 -26 -18.5 -44.5t-44.5 -18.5t-44.5 18.5t-18.5 44.5t18.5 44.5t44.5 18.5t44.5 -18.5t18.5 -44.5zM424 649q0 -26 -18.5 -44.5t-44.5 -18.5t-44.5 18.5t-18.5 44.5t18.5 44.5t44.5 18.5t44.5 -18.5
t18.5 -44.5z" />
    <glyph glyph-name="divide.ss01" horiz-adv-x="448" 
d="M108 87q0 34 24 58t58 24t58 -24t24 -58t-24 -58t-58 -24t-58 24t-24 58zM34 235l24 120h368l-24 -120h-368zM271 421q-34 0 -58 24t-24 58t24 58t58 24t58 -24t24 -58t-24 -58t-58 -24z" />
    <glyph glyph-name="udieresis.ss01" horiz-adv-x="422" 
d="M432 538l-107 -538h-122l8 38q-24 -24 -43 -34q-24 -12 -51 -12q-62 0 -89 45q-15 26 -15 66q0 15 9 61l74 374h128l-74 -373q-4 -20 -4 -27q0 -15 9 -23.5t23 -8.5q40 0 52 59l74 373h128zM253 649q0 -26 -18.5 -44.5t-44.5 -18.5t-44.5 18.5t-18.5 44.5t18.5 44.5
t44.5 18.5t44.5 -18.5t18.5 -44.5zM437 649q0 -26 -18.5 -44.5t-44.5 -18.5t-44.5 18.5t-18.5 44.5t18.5 44.5t44.5 18.5t44.5 -18.5t18.5 -44.5z" />
    <glyph glyph-name="ydieresis.ss01" horiz-adv-x="404" 
d="M-23 -60q44 2 60 8q26 10 44 52l-23 538h134l-6 -343l127 343h146l-260 -587q-19 -43 -42.5 -69t-56.5 -37.5t-63.5 -15t-82.5 -3.5zM245 649q0 -26 -18.5 -44.5t-44.5 -18.5t-44.5 18.5t-18.5 44.5t18.5 44.5t44.5 18.5t44.5 -18.5t18.5 -44.5zM429 649
q0 -26 -18.5 -44.5t-44.5 -18.5t-44.5 18.5t-18.5 44.5t18.5 44.5t44.5 18.5t44.5 -18.5t18.5 -44.5z" />
    <glyph glyph-name="amacron.ss01" horiz-adv-x="411" 
d="M210 546q31 0 51 -14q19 -13 31 -34l8 40h122l-107 -538h-122l7 39q-19 -23 -40 -34q-24 -13 -51 -13q-63 0 -87 44q-16 31 -16 71q0 47 23 162q24 118 40 165t38 69q43 43 103 43zM157 269q-19 -95 -19 -125q0 -21 9 -30q8 -8 22 -8q18 0 30 12q14 14 20 43l43 216
q3 15 3 23q0 16 -9 25q-7 7 -22 7q-18 0 -32 -14q-19 -19 -45 -149zM131 600l16 81h252l-16 -81h-252z" />
    <glyph glyph-name="abreve.ss01" horiz-adv-x="411" 
d="M210 546q31 0 51 -14q19 -13 31 -34l8 40h122l-107 -538h-122l7 39q-19 -23 -40 -34q-24 -13 -51 -13q-63 0 -87 44q-16 31 -16 71q0 47 23 162q24 118 40 165t38 69q43 43 103 43zM157 269q-19 -95 -19 -125q0 -21 9 -30q8 -8 22 -8q18 0 30 12q14 14 20 43l43 216
q3 15 3 23q0 16 -9 25q-7 7 -22 7q-18 0 -32 -14q-19 -19 -45 -149zM412 709q-12 -66 -47 -94.5t-96 -28.5q-52 0 -83 26t-31 68q0 12 3 29h80v-6q0 -34 40 -34q44 0 54 40h80z" />
    <glyph glyph-name="Aogonek.ss01" horiz-adv-x="492" 
d="M433 0h-135l1 115h-156l-46 -115h-144l316 712h132zM297 235l1 279l-107 -279h106zM378 -221q-41 4 -66 26.5t-25 62.5q0 44 30 75t94 31h7l-14 -67q-36 -3 -36 -35q0 -21 24 -26z" />
    <glyph glyph-name="aogonek.ss01" horiz-adv-x="411" 
d="M210 546q31 0 51 -14q19 -13 31 -34l8 40h122l-107 -538h-122l7 39q-19 -23 -40 -34q-24 -13 -51 -13q-63 0 -87 44q-16 31 -16 71q0 47 23 162q24 118 40 165t38 69q43 43 103 43zM157 269q-19 -95 -19 -125q0 -21 9 -30q8 -8 22 -8q18 0 30 12q14 14 20 43l43 216
q3 15 3 23q0 16 -9 25q-7 7 -22 7q-18 0 -32 -14q-19 -19 -45 -149zM269 -221q-41 4 -66 26.5t-25 62.5q0 44 30 75t94 31h7l-14 -67q-36 -3 -36 -35q0 -21 24 -26z" />
    <glyph glyph-name="Cdotaccent.ss01" horiz-adv-x="450" 
d="M23 164q0 63 27 192q31 152 52.5 212.5t56.5 95.5q56 56 148 56q90 0 132 -52q34 -42 34 -110q0 -28 -2 -45h-134q2 15 2 37q0 50 -43 50q-25 0 -44 -19q-17 -17 -31 -64t-37 -161q-27 -135 -27 -190q0 -54 43 -54q32 0 51 27q16 23 25 61h136q-23 -110 -82 -162
q-52 -46 -142 -46q-103 0 -142 69q-23 41 -23 103zM398 818q0 -26 -18.5 -44.5t-44.5 -18.5t-44.5 18.5t-18.5 44.5t18.5 44.5t44.5 18.5t44.5 -18.5t18.5 -44.5z" />
    <glyph glyph-name="cdotaccent.ss01" horiz-adv-x="389" 
d="M29 269q20 99 36 144t42 76q47 57 140 57t126 -63q17 -33 17 -78q0 -18 -2 -32h-127q2 12 2 24q0 18 -9 27q-8 8 -21 8q-24 0 -37 -21q-15 -23 -39 -142q-21 -101 -21 -128q0 -18 9 -27q8 -8 22 -8q18 0 29 11q14 14 23 48h128q-18 -73 -53 -116q-47 -57 -141 -57
q-93 0 -126 63q-17 33 -17 80q0 36 19 134zM334 649q0 -26 -18.5 -44.5t-44.5 -18.5t-44.5 18.5t-18.5 44.5t18.5 44.5t44.5 18.5t44.5 -18.5t18.5 -44.5z" />
    </font>
</defs>
</svg>
