<?xml version="1.0" standalone="no"?>
<!DOCTYPE svg PUBLIC "-//W3C//DTD SVG 1.1//EN" "http://www.w3.org/Graphics/SVG/1.1/DTD/svg11.dtd" >
<svg xmlns="http://www.w3.org/2000/svg" xmlns:xlink="http://www.w3.org/1999/xlink" version="1.1">
<metadata>
Created by FontForge 20201107 at Wed Jun  5 23:50:43 2024
 By 
Copyright (c)2014 Commercial Type.
</metadata>
<defs>
<font id="Druk-Bold" horiz-adv-x="696" >
  <font-face 
    font-family="Druk Bold Trial"
    font-weight="700"
    font-stretch="normal"
    units-per-em="2048"
    panose-1="0 0 0 0 0 0 0 0 0 0"
    ascent="1663"
    descent="-385"
    x-height="1102"
    cap-height="1524"
    bbox="-109 -399 1169 1544"
    underline-thickness="172"
    underline-position="-41"
    unicode-range="U+0020-201D"
  />
<missing-glyph horiz-adv-x="1024" 
 />
    <glyph glyph-name=".notdef" horiz-adv-x="1024" 
 />
    <glyph glyph-name=".null" horiz-adv-x="0" 
 />
    <glyph glyph-name="nonmarkingreturn" horiz-adv-x="682" 
 />
    <glyph glyph-name="space" unicode=" " horiz-adv-x="210" 
 />
    <glyph glyph-name="exclam" unicode="!" horiz-adv-x="327" 
d="M285 295v-295h-244v295h244zM14 1524h297l-96 -1182h-104z" />
    <glyph glyph-name="quotedbl" unicode="&#x22;" horiz-adv-x="466" 
d="M213 1524v-391h-186v391h186zM440 1524v-391h-186v391h186z" />
    <glyph glyph-name="quotesingle" unicode="'" horiz-adv-x="243" 
d="M217 1524v-391h-190v391h190z" />
    <glyph glyph-name="comma" unicode="," horiz-adv-x="296" 
d="M207 -195h-137q49 116 51 195h-94v295h243v-217q0 -144 -63 -273z" />
    <glyph glyph-name="hyphen" unicode="-" horiz-adv-x="366" 
d="M27 735h313v-248h-313v248z" />
    <glyph glyph-name="period" unicode="." horiz-adv-x="296" 
d="M270 295v-295h-243v295h243z" />
    <glyph glyph-name="zero" unicode="0" horiz-adv-x="757" 
d="M725 1155v-817q0 -166 -85 -263.5t-234 -97.5h-62q-155 0 -233 95.5t-78 265.5v815q0 389 313 389h62q317 0 317 -387zM438 338v844q0 50 -13 72t-48 22q-34 0 -48 -22.5t-14 -71.5v-844q0 -88 60 -88q36 0 49.5 22t13.5 66z" />
    <glyph glyph-name="one" unicode="1" horiz-adv-x="489" 
d="M174 1120h-160v234q58 0 98 12.5t61.5 37.5t31.5 53t14 67h227v-1524h-272v1120z" />
    <glyph glyph-name="two" unicode="2" horiz-adv-x="735" 
d="M358 1294q-29 0 -40 -15.5t-11 -53.5v-236h-256v268q0 57 14.5 105.5t46 90t87.5 65.5t131 24h55q148 0 228.5 -74t80.5 -219v-86q0 -74 -3 -113t-15.5 -90.5t-39.5 -99.5t-75 -110q-49 -67 -149 -195q-75 -98 -113 -162.5t-42.5 -83t-4.5 -39.5v-6h190v260h267v-524
h-691v156q0 143 32.5 241.5t152.5 296.5l131 217q35 58 52.5 101t20.5 65t3 56v92q0 37 -12 53t-40 16z" />
    <glyph glyph-name="three" unicode="3" horiz-adv-x="708" 
d="M289 1055h-250v196q0 56 14 105t43.5 92t84 68.5t128.5 25.5h58q150 0 224.5 -78.5t74.5 -214.5v-170q0 -172 -99 -231q113 -38 113 -174v-381q0 -146 -82 -231t-221 -85h-58q-81 0 -140.5 23t-92.5 63t-48 87t-15 102v307h266v-242q0 -71 57 -71q55 0 55 71v297
q0 36 -9 49t-42 13h-141v272h127q33 0 45 15t12 53v209q0 40 -12 54.5t-41 14.5q-27 0 -39 -15t-12 -54v-170z" />
    <glyph glyph-name="four" unicode="4" horiz-adv-x="743" 
d="M326 600v371q-67 -215 -125 -371h125zM10 571q145 385 342 963h240v-934h141v-260h-141v-340h-266v340h-316v231z" />
    <glyph glyph-name="five" unicode="5" horiz-adv-x="714" 
d="M309 678h-268v846h625v-264h-363v-302q82 144 186 144h25q86 0 128 -59t42 -140v-629q0 -124 -73.5 -210.5t-215.5 -86.5h-82q-65 0 -116.5 17t-83 44.5t-52 64t-28.5 72t-8 73.5v311h272v-252q0 -35 11 -53t40 -18q51 0 51 71v461q0 24 -2 37.5t-13 26t-32 12.5
q-15 0 -24 -6.5t-13 -19t-5 -22.5t-1 -26v-92z" />
    <glyph glyph-name="six" unicode="6" horiz-adv-x="753" 
d="M524 981h17q91 0 137.5 -59.5t46.5 -133.5v-503q0 -123 -83 -214t-228 -91h-62q-156 0 -237.5 84t-81.5 212v945q0 149 78.5 236t236.5 87h58q139 0 214.5 -73.5t75.5 -178.5v-229h-280v170q0 30 -10 44.5t-39 14.5q-52 0 -52 -59v-387q23 28 36 42t42.5 40.5t62 39.5
t68.5 13zM379 238q61 0 61 79v351q0 41 -14 58t-47 17q-64 0 -64 -73v-353q0 -37 13 -58t51 -21z" />
    <glyph glyph-name="seven" unicode="7" horiz-adv-x="665" 
d="M23 1524h626v-246q-21 -139 -90 -496q-65 -365 -65 -600v-182h-328v156q0 102 22.5 223.5t87.5 318.5q101 305 129.5 416.5t28.5 163.5h-162v-223h-249v469z" />
    <glyph glyph-name="eight" unicode="8" horiz-adv-x="735" 
d="M692 1253v-219q0 -73 -31 -124.5t-75 -78.5q121 -57 121 -215v-323q0 -142 -80 -228.5t-232 -87.5h-57q-156 0 -232.5 82.5t-76.5 235.5v321q0 150 121 215q-47 26 -77 77t-30 126v223q0 57 15.5 105.5t48.5 90t93 65.5t140 24h47q152 0 228.5 -80t76.5 -209zM424 305
v299q0 38 -13 57t-44 19q-30 0 -43 -18t-13 -58v-299q0 -67 56 -67q57 0 57 67zM420 995v242q0 66 -53 66q-52 0 -52 -66v-240q0 -65 54 -65q51 0 51 63z" />
    <glyph glyph-name="nine" unicode="9" horiz-adv-x="753" 
d="M236 539h-17q-63 0 -107.5 36t-63.5 86.5t-19 108.5v475q0 56 17 107t51 94.5t94 69.5t139 26h61q164 0 247 -82.5t83 -208.5v-983q0 -129 -75 -210t-228 -81h-62q-154 0 -226.5 64.5t-72.5 173.5v242h281v-170q0 -30 10.5 -45t40.5 -15q47 0 47 60v387
q-99 -135 -200 -135zM373 1284q-62 0 -62 -82v-350q0 -78 62 -78q63 0 63 76v352q0 39 -12 60.5t-51 21.5z" />
    <glyph glyph-name="question" unicode="?" horiz-adv-x="673" 
d="M408 342h-213v262q0 74 13 117.5t56 112.5l72 114q27 42 35 79t8 95v101q0 40 -11 55.5t-40 15.5q-30 0 -41 -16t-11 -55v-234h-253v242q0 55 6.5 98t24.5 84.5t48.5 68.5t80.5 43.5t118 16.5h55q158 0 226.5 -77t68.5 -220v-106q0 -97 -18.5 -162t-73.5 -135l-100 -137
q-32 -45 -41.5 -75.5t-9.5 -99.5v-188zM424 295v-295h-244v295h244z" />
    <glyph glyph-name="A" unicode="A" horiz-adv-x="706" 
d="M451 0l-29 256h-164l-25 -256h-241l192 1524h324l207 -1524h-264zM338 1040l-53 -522h110z" />
    <glyph glyph-name="B" unicode="B" horiz-adv-x="761" 
d="M39 0v1524h412q139 0 201.5 -62.5t62.5 -210.5v-202q0 -85 -40 -141t-89 -72q151 -39 151 -240v-254q0 -178 -62 -260t-188 -82h-448zM377 682h-66v-440h76q37 0 53.5 20t16.5 80v248q0 49 -17.5 70.5t-62.5 21.5zM377 1290h-66v-362h62q36 0 54.5 20t18.5 70v190
q0 42 -16 62t-53 20z" />
    <glyph glyph-name="C" unicode="C" horiz-adv-x="753" 
d="M455 336v336h270v-344q0 -72 -16 -132.5t-50.5 -111.5t-98 -80t-150.5 -29h-56q-76 0 -133.5 19.5t-92.5 52t-57 80.5t-30 98t-8 111v860q0 73 16.5 132.5t52.5 109t100 77t152 27.5h56q76 0 132.5 -18.5t91 -49t55.5 -75.5t28.5 -91t7.5 -102v-256h-270v246q0 88 -70 88
q-37 0 -52.5 -21t-15.5 -67v-860q0 -92 70 -92q68 0 68 92z" />
    <glyph glyph-name="D" unicode="D" horiz-adv-x="757" 
d="M39 0v1524h387q154 0 225.5 -77t71.5 -249v-860q0 -170 -68 -254t-229 -84h-387zM311 1282v-1028h54q45 0 62 24.5t17 81.5v820q0 55 -16.5 78.5t-54.5 23.5h-62z" />
    <glyph glyph-name="E" unicode="E" horiz-adv-x="636" 
d="M39 1524h569v-269h-297v-331h234v-275h-234v-375h312v-274h-584v1524z" />
    <glyph glyph-name="F" unicode="F" horiz-adv-x="638" 
d="M39 0v1524h584v-267h-312v-331h230v-275h-230v-651h-272z" />
    <glyph glyph-name="G" unicode="G" horiz-adv-x="765" 
d="M301 -20h-20q-116 0 -182 86t-66 213v907q0 74 16.5 135.5t51.5 112.5t98.5 79.5t150.5 28.5h56q78 0 135.5 -20t91.5 -51.5t54 -79.5t27 -95.5t7 -107.5v-168h-266v170q0 49 -15.5 72.5t-54.5 23.5q-68 0 -68 -96v-848q0 -98 74 -98q38 0 59 24t21 70v328h-100v256h362
v-922h-166q-17 75 -41 145q-81 -165 -225 -165z" />
    <glyph glyph-name="H" unicode="H" horiz-adv-x="765" 
d="M311 643v-643h-272v1524h272v-582h144v582h272v-1524h-272v643h-144z" />
    <glyph glyph-name="I" unicode="I" horiz-adv-x="350" 
d="M311 1524v-1524h-272v1524h272z" />
    <glyph glyph-name="J" unicode="J" horiz-adv-x="716" 
d="M23 670h262v-353q0 -67 53 -67h8q51 0 51 67v1207h283v-1215q0 -157 -76.5 -241t-212.5 -84h-90q-139 0 -208.5 70.5t-69.5 226.5v389z" />
    <glyph glyph-name="K" unicode="K" horiz-adv-x="761" 
d="M311 645v-645h-272v1524h272v-586l178 586h269l-215 -693l237 -831h-286z" />
    <glyph glyph-name="L" unicode="L" horiz-adv-x="614" 
d="M39 1524h272v-1250h289v-274h-561v1524z" />
    <glyph glyph-name="M" unicode="M" horiz-adv-x="935" 
d="M39 0v1524h336l104 -770l105 770h313v-1524h-246v901l-135 -901h-102l-138 901v-901h-237z" />
    <glyph glyph-name="N" unicode="N" horiz-adv-x="761" 
d="M39 1524h256l186 -779v779h242v-1524h-231l-211 836v-836h-242v1524z" />
    <glyph glyph-name="O" unicode="O" horiz-adv-x="780" 
d="M748 1155v-807q0 -169 -86 -270t-238 -101h-62q-161 0 -245 96t-84 275v805q0 389 327 389h62q326 0 326 -387zM463 340v836q0 100 -72 100q-39 0 -56.5 -24t-17.5 -76v-836q0 -39 18 -64.5t58 -25.5q70 0 70 90z" />
    <glyph glyph-name="P" unicode="P" horiz-adv-x="731" 
d="M440 610h-129v-610h-272v1524h387q85 0 141 -20t86.5 -61.5t42 -93t11.5 -126.5v-305q0 -146 -65 -227t-202 -81zM311 1288v-430h51q42 0 56 22.5t14 63.5v254q0 45 -14 67.5t-56 22.5h-51z" />
    <glyph glyph-name="Q" unicode="Q" horiz-adv-x="780" 
d="M748 1155v-807q0 -144 -62.5 -239t-177.5 -121l131 -305h-340v299q-130 19 -198 112.5t-68 253.5v805q0 389 327 389h62q326 0 326 -387zM463 340v836q0 100 -72 100q-39 0 -56.5 -24t-17.5 -76v-836q0 -39 18 -64.5t58 -25.5q70 0 70 90z" />
    <glyph glyph-name="R" unicode="R" horiz-adv-x="747" 
d="M311 1288v-385h54q41 0 58 19.5t17 72.5v207q0 50 -13 68t-54 18h-62zM311 651v-651h-272v1524h430q123 0 186.5 -65.5t63.5 -188.5v-244q0 -83 -37 -135t-84 -70q45 -16 81 -59.5t36 -120.5v-518q0 -73 22 -113v-10h-272q-25 33 -25 117v444q0 52 -15 71t-56 19h-58z
" />
    <glyph glyph-name="S" unicode="S" horiz-adv-x="727" 
d="M340 1542h55q157 0 225 -72.5t68 -226.5v-205h-262v191q0 40 -12.5 60t-46.5 20q-33 0 -46.5 -20.5t-13.5 -61.5v-35q0 -56 17.5 -99t66.5 -98l156 -174q97 -109 131.5 -197.5t34.5 -193.5v-72q0 -176 -84 -276t-248 -100h-53q-155 0 -233.5 80.5t-78.5 234.5v274h269
v-243q0 -92 69 -92q68 0 68 110v29q0 84 -15.5 129t-72.5 108l-158 174q-81 88 -113 180.5t-32 207.5v65q0 145 82.5 224t226.5 79z" />
    <glyph glyph-name="T" unicode="T" horiz-adv-x="686" 
d="M12 1524h662v-269h-195v-1255h-272v1255h-195v269z" />
    <glyph glyph-name="U" unicode="U" horiz-adv-x="768" 
d="M37 354v1170h280v-1180q0 -94 68 -94q66 0 66 94v1180h280v-1170q0 -184 -83.5 -280.5t-231.5 -96.5h-68q-151 0 -231 95.5t-80 281.5z" />
    <glyph glyph-name="V" unicode="V" horiz-adv-x="731" 
d="M197 0l-203 1524h282l101 -1022l100 1022h260l-194 -1524h-346z" />
    <glyph glyph-name="W" unicode="W" horiz-adv-x="1163" 
d="M461 1524h260l96 -967l90 967h262l-194 -1524h-309l-80 838l-80 -838h-322l-190 1524h282l86 -977z" />
    <glyph glyph-name="X" unicode="X" horiz-adv-x="733" 
d="M182 815l-166 709h275l84 -457l82 457h258l-162 -709l190 -815h-274l-104 528l-109 -528h-266z" />
    <glyph glyph-name="Y" unicode="Y" horiz-adv-x="669" 
d="M686 1524l-205 -924v-600h-272v590l-225 934h272l92 -541l92 541h246z" />
    <glyph glyph-name="Z" unicode="Z" horiz-adv-x="675" 
d="M37 1524h602v-242l-332 -1016h355v-266h-648v246l332 1016h-309v262z" />
    <glyph glyph-name="a" unicode="a" horiz-adv-x="686" 
d="M369 274v269q-51 -29 -68 -51q-25 -32 -25 -84v-134q0 -65 43 -65q50 0 50 65zM25 180v240q0 82 27.5 135t86.5 90q28 18 115 60.5t98 48.5q17 10 17 41v59q0 34 -11 46.5t-34 12.5h-9q-25 0 -35 -14t-10 -45v-109h-233v152q0 40 11.5 75t38 69t80 53.5t128.5 19.5h47
q154 0 216.5 -63t62.5 -179v-608q0 -18 7 -24.5t31 -6.5h29v-233h-244q-39 0 -57 29t-18 96q-29 -53 -76 -94t-111 -41h-8q-71 0 -110 56t-39 134z" />
    <glyph glyph-name="b" unicode="b" horiz-adv-x="688" 
d="M33 1524h262v-545q9 16 24 35t39 43.5t57 40.5t66 16h13q75 0 119 -58t44 -136v-693q0 -94 -58 -169.5t-144 -75.5h-4q-40 0 -72.5 13.5t-58.5 42t-40 50t-36 59.5q-8 -29 -17.5 -83.5t-9.5 -63.5h-184v1524zM295 817v-536q0 -72 49 -72t49 67v541q0 41 -12.5 56.5
t-38.5 15.5q-47 0 -47 -72z" />
    <glyph glyph-name="c" unicode="c" horiz-adv-x="651" 
d="M385 494h244v-238q0 -122 -68 -200.5t-203 -78.5h-43q-148 0 -218 78t-70 209v555q0 303 284 303h51q267 0 267 -266v-182h-242v155q0 39 -10 58.5t-39 19.5q-28 0 -37.5 -18t-9.5 -58v-555q0 -34 9.5 -50.5t35.5 -16.5q49 0 49 63v222z" />
    <glyph glyph-name="d" unicode="d" 
d="M401 1524h263v-1524h-263v123q-26 -53 -73.5 -99.5t-108.5 -46.5h-4q-81 0 -132.5 69t-51.5 167v682q0 86 43.5 152.5t120.5 66.5h10q111 0 196 -135v545zM401 293v510q0 86 -55 86q-51 0 -51 -76v-530q0 -76 51 -76q55 0 55 86z" />
    <glyph glyph-name="e" unicode="e" horiz-adv-x="653" 
d="M352 1122q277 0 277 -280v-326h-350v-240q0 -34 11.5 -50.5t39.5 -16.5q47 0 47 67v164h252v-200q0 -125 -77.5 -192.5t-199.5 -67.5h-49q-126 0 -201 67.5t-75 192.5v606q0 122 67.5 199t208.5 77h49zM279 846v-133h106v133q0 37 -11.5 55.5t-41.5 18.5q-33 0 -43 -18
t-10 -56z" />
    <glyph glyph-name="f" unicode="f" horiz-adv-x="552" 
d="M539 1524v-232h-101q-25 0 -33 -10.5t-8 -36.5v-143h142v-244h-142v-858h-260v858h-129v244h129v270q0 61 42.5 106.5t125.5 45.5h234z" />
    <glyph glyph-name="g" unicode="g" horiz-adv-x="692" 
d="M397 -133v256q-77 -143 -178 -143q-81 0 -134.5 60t-53.5 155v657q0 117 45 186.5t129 69.5h2q63 0 108 -36.5t86 -102.5v133h258v-1254q0 -37 -7 -69.5t-27.5 -66t-52.5 -57.5t-86 -39t-124 -15h-36q-158 0 -221.5 53t-63.5 147v148h252v-90q0 -24 9.5 -35.5t35.5 -11.5
h10q28 0 38.5 13t10.5 42zM397 264v553q0 70 -51 70q-49 0 -49 -68v-557q0 -65 49 -65q24 0 37.5 18.5t13.5 48.5z" />
    <glyph glyph-name="h" unicode="h" 
d="M33 0v1524h262v-549q88 131 197 131h10q74 0 118 -48.5t44 -123.5v-934h-265v815q0 62 -51 62q-30 0 -41.5 -18t-11.5 -52v-807h-262z" />
    <glyph glyph-name="i" unicode="i" horiz-adv-x="327" 
d="M295 1102v-1102h-262v1102h262zM295 1413v-258h-262v258h262z" />
    <glyph glyph-name="j" unicode="j" horiz-adv-x="329" 
d="M297 1413v-258h-262v258h262zM-109 -141h107q21 0 29 8.5t8 34.5v1200h262v-1340q0 -62 -41.5 -104.5t-110.5 -42.5h-254v244z" />
    <glyph glyph-name="k" unicode="k" horiz-adv-x="700" 
d="M295 719l154 383h249l-194 -463l209 -639h-260l-158 489v-489h-262v1524h262v-805z" />
    <glyph glyph-name="l" unicode="l" horiz-adv-x="327" 
d="M295 1524v-1524h-262v1524h262z" />
    <glyph glyph-name="m" unicode="m" horiz-adv-x="1048" 
d="M33 0v1102h260v-129q89 137 188 137h8q64 0 106.5 -38.5t55.5 -96.5q91 135 197 135h10q74 0 116 -50t42 -126v-934h-262v803q0 37 -9.5 55.5t-39.5 18.5q-47 0 -50 -58v-819h-262v803q0 37 -10 55.5t-41 18.5q-27 0 -37 -18.5t-10 -55.5v-803h-262z" />
    <glyph glyph-name="n" unicode="n" 
d="M33 0v1102h260v-133q42 64 89.5 100.5t109.5 36.5h14q44 0 76.5 -18.5t49 -48.5t24.5 -59.5t8 -57.5v-922h-265v811q0 66 -51 66q-30 0 -41.5 -18.5t-11.5 -55.5v-803h-262z" />
    <glyph glyph-name="o" unicode="o" horiz-adv-x="690" 
d="M27 291v522q0 148 75.5 228.5t210.5 80.5h62q136 0 212.5 -80t76.5 -225v-522q0 -138 -78.5 -226.5t-210.5 -88.5h-62q-144 0 -215 85.5t-71 225.5zM291 819v-524q0 -78 53 -78q55 0 55 78v524q0 76 -55 76q-53 0 -53 -76z" />
    <glyph glyph-name="p" unicode="p" 
d="M33 1102h262v-121q82 133 192 133h5q86 0 130 -64.5t44 -170.5v-658q0 -107 -54.5 -175.5t-130.5 -68.5h-4q-104 0 -182 119v-481h-262v1487zM295 823v-557q0 -35 14 -54t37 -19q51 0 51 71v559q0 70 -51 70t-51 -70z" />
    <glyph glyph-name="q" unicode="q" 
d="M483 1102h181v-1487h-263v506q-77 -141 -184 -141h-12q-76 0 -125 70t-49 161v635q0 55 10 100.5t32 84.5t63 61t97 22h17q36 0 67.5 -14.5t56 -42t41.5 -53t36 -62.5q23 62 32 160zM401 276v539q0 74 -55 74q-49 0 -49 -74v-547q0 -71 51 -71q53 0 53 79z" />
    <glyph glyph-name="r" unicode="r" horiz-adv-x="622" 
d="M293 1102v-137q57 143 174 143h12q125 0 125 -135v-400h-244v252q0 30 -6.5 42t-25.5 12t-26 -13t-7 -41v-825h-262v1102h260z" />
    <glyph glyph-name="s" unicode="s" horiz-adv-x="610" 
d="M588 913v-149h-234v115q0 57 -43 57t-43 -57v-23q0 -36 9.5 -57t37.5 -49l146 -144q82 -82 111.5 -148t29.5 -157v-37q0 -123 -69 -202.5t-203 -79.5h-54q-135 0 -200.5 66t-65.5 173v180h242v-147q0 -61 47 -61h2q43 0 43 63v25q0 44 -11.5 74t-45.5 63l-140 133
q-70 67 -96 133.5t-26 157.5v35q0 114 65.5 179.5t192.5 65.5h55q250 0 250 -209z" />
    <glyph glyph-name="t" unicode="t" horiz-adv-x="538" 
d="M520 0h-262q-54 0 -89.5 38.5t-35.5 96.5v723h-125v244h125v364h260v-364h127v-244h-127v-565q0 -25 7 -35t32 -10h88v-248z" />
    <glyph glyph-name="u" unicode="u" horiz-adv-x="686" 
d="M653 1102v-1102h-254v135q-44 -67 -89 -103t-109 -36h-8q-73 0 -116.5 58.5t-43.5 131.5v916h264v-809q0 -68 45 -68q51 0 51 74v803h260z" />
    <glyph glyph-name="v" unicode="v" horiz-adv-x="632" 
d="M160 0l-168 1102h254l71 -703l74 703h250l-180 -1102h-301z" />
    <glyph glyph-name="w" unicode="w" horiz-adv-x="1011" 
d="M438 0h-280l-166 1102h258l72 -682l75 682h232l73 -690l72 690h246l-168 -1102h-272l-72 598z" />
    <glyph glyph-name="x" unicode="x" horiz-adv-x="636" 
d="M150 592l-148 510h250l72 -316l63 316h240l-140 -502l158 -600h-250l-78 348l-81 -348h-244z" />
    <glyph glyph-name="y" unicode="y" horiz-adv-x="636" 
d="M182 18l-190 1084h258l74 -608l71 608h252l-231 -1321q-29 -166 -152 -166h-237v244h108q25 0 33.5 12t11.5 43l4 43q2 29 -2 61z" />
    <glyph glyph-name="z" unicode="z" horiz-adv-x="544" 
d="M29 1102h493v-217l-254 -652h269v-233h-529v219l256 653h-235v230z" />
    <glyph glyph-name="quoteleft" unicode="&#x2018;" horiz-adv-x="276" 
d="M74 1524h129q-36 -115 -39 -189h88v-262h-227v211q0 123 49 240z" />
    <glyph glyph-name="quoteright" unicode="&#x2019;" horiz-adv-x="276" 
d="M203 1073h-129q36 115 39 189h-88v262h227v-211q0 -123 -49 -240z" />
    <glyph glyph-name="quotedblleft" unicode="&#x201c;" horiz-adv-x="538" 
d="M74 1524h129q-36 -115 -39 -189h88v-262h-227v211q0 123 49 240zM336 1524h129q-36 -115 -39 -189h88v-262h-227v211q0 123 49 240z" />
    <glyph glyph-name="quotedblright" unicode="&#x201d;" horiz-adv-x="538" 
d="M203 1073h-129q36 115 39 189h-88v262h227v-211q0 -123 -49 -240zM465 1073h-129q36 115 39 189h-88v262h227v-211q0 -123 -49 -240z" />
    </font>
</defs>
</svg>
