<?xml version="1.0" standalone="no"?>
<!DOCTYPE svg PUBLIC "-//W3C//DTD SVG 1.1//EN" "http://www.w3.org/Graphics/SVG/1.1/DTD/svg11.dtd" >
<svg xmlns="http://www.w3.org/2000/svg" xmlns:xlink="http://www.w3.org/1999/xlink" version="1.1">
<metadata>
Created by FontForge 20201107 at Wed Feb 26 13:22:40 2025
 By 
Copyright (c)2014 Commercial Type.
</metadata>
<defs>
<font id="Druk-Heavy" horiz-adv-x="804" >
  <font-face 
    font-family="Druk Heavy Trial"
    font-weight="900"
    font-stretch="normal"
    units-per-em="2048"
    panose-1="0 0 0 0 0 0 0 0 0 0"
    ascent="1638"
    descent="-410"
    x-height="1102"
    cap-height="1524"
    bbox="-98 -399 1286 1544"
    underline-thickness="172"
    underline-position="-41"
    unicode-range="U+0020-201D"
  />
<missing-glyph horiz-adv-x="1024" 
 />
    <glyph glyph-name=".notdef" horiz-adv-x="1024" 
 />
    <glyph glyph-name=".null" horiz-adv-x="0" 
 />
    <glyph glyph-name="nonmarkingreturn" horiz-adv-x="682" 
 />
    <glyph glyph-name="space" unicode=" " horiz-adv-x="223" 
 />
    <glyph glyph-name="exclam" unicode="!" horiz-adv-x="385" 
d="M336 330v-330h-289v330h289zM12 1524h361l-101 -1143h-161z" />
    <glyph glyph-name="quotedbl" unicode="&#x22;" horiz-adv-x="522" 
d="M242 1524v-428h-217v428h217zM496 1524v-428h-217v428h217z" />
    <glyph glyph-name="quotesingle" unicode="'" horiz-adv-x="270" 
d="M246 1524v-428h-221v428h221z" />
    <glyph glyph-name="comma" unicode="," horiz-adv-x="339" 
d="M246 -207h-164q49 114 55 207h-112v330h290v-246q0 -140 -69 -291z" />
    <glyph glyph-name="hyphen" unicode="-" horiz-adv-x="403" 
d="M25 762h354v-299h-354v299z" />
    <glyph glyph-name="period" unicode="." horiz-adv-x="339" 
d="M315 330v-330h-290v330h290z" />
    <glyph glyph-name="zero" unicode="0" horiz-adv-x="860" 
d="M834 1114v-727q0 -194 -100.5 -302t-272.5 -108h-66q-178 0 -272 108.5t-94 301.5v727q0 204 89.5 317t278.5 113h64q192 0 282.5 -113.5t90.5 -316.5zM481 365v792q0 40 -11.5 59t-41.5 19q-28 0 -38.5 -18.5t-10.5 -59.5v-792q0 -72 49 -72q29 0 41 18t12 54z" />
    <glyph glyph-name="one" unicode="1" horiz-adv-x="550" 
d="M178 1069h-164v283q110 0 158 45t55 127h287v-1524h-336v1069z" />
    <glyph glyph-name="two" unicode="2" horiz-adv-x="813" 
d="M391 1266q-24 0 -33.5 -14t-9.5 -44v-207h-307v240q0 60 17.5 112.5t54 95.5t100 68t147.5 25h70q170 0 261 -82t91 -235v-80q0 -128 -23 -204t-110 -183q-69 -88 -147 -178q-89 -108 -132.5 -170.5t-49 -79t-5.5 -37.5h170v221h308v-514h-777v201q0 92 9.5 145.5
t53.5 142.5t140 230q45 71 129 196q53 83 70.5 126t17.5 85v82q0 58 -45 58z" />
    <glyph glyph-name="three" unicode="3" horiz-adv-x="798" 
d="M340 1040h-305v199q0 130 79 216.5t240 86.5h60q169 0 256.5 -80.5t87.5 -222.5v-152q0 -154 -105 -223q55 -20 89 -71t34 -123v-351q0 -162 -96 -252t-260 -90h-60q-76 0 -136 17.5t-98 46.5t-63 69t-35 81.5t-10 87.5v286h324v-225q0 -55 47 -55t47 55v260q0 29 -9 40
t-36 11h-162v310h150q26 0 37.5 12t11.5 41v194q0 32 -10 44t-35 12q-43 0 -43 -56v-168z" />
    <glyph glyph-name="four" unicode="4" horiz-adv-x="813" 
d="M332 625v325q-43 -147 -109 -325h109zM12 582q152 402 340 952h305v-909h144v-314h-144v-311h-325v311h-320v271z" />
    <glyph glyph-name="five" unicode="5" 
d="M356 674h-319v850h713v-301h-402v-258q101 137 213 137h21q97 0 147.5 -68t50.5 -160v-575q0 -137 -90.5 -229.5t-251.5 -92.5h-82q-73 0 -131 17t-95 45t-62 67t-35 79.5t-10 84.5v289h325v-227q0 -58 45 -58q41 0 41 58v430q0 57 -39 57t-39 -57v-88z" />
    <glyph glyph-name="six" unicode="6" horiz-adv-x="856" 
d="M608 991h17q99 0 152.5 -66t53.5 -157v-444q0 -146 -99.5 -245t-264.5 -99h-70q-178 0 -273 93.5t-95 245.5v875q0 72 21.5 134t65 111t115 77t164.5 28h60q173 0 260.5 -87.5t87.5 -221.5v-182h-342v149q0 27 -9 39t-32 12q-43 0 -43 -51v-348q55 63 89 88q66 49 142 49
zM430 276q30 0 40.5 18t10.5 48v315q0 35 -11.5 51.5t-39.5 16.5q-53 0 -53 -68v-315q0 -66 53 -66z" />
    <glyph glyph-name="seven" unicode="7" horiz-adv-x="747" 
d="M20 1524h709v-269q-8 -57 -19 -115t-33 -167t-44 -225q-64 -329 -64 -555v-193h-401v162q0 111 21.5 224t89.5 300q119 320 149.5 414.5t30.5 138.5h-142v-207h-297v492z" />
    <glyph glyph-name="eight" unicode="8" horiz-adv-x="835" 
d="M801 1225v-183q0 -138 -117 -217q131 -69 131 -225v-272q0 -167 -97.5 -258t-271.5 -93h-59q-180 0 -272 89t-92 264v270q0 154 127 225q-113 71 -113 217v185q0 67 19 122t59.5 99.5t110 69t163.5 24.5h53q182 0 270.5 -86.5t88.5 -230.5zM467 336v272q0 66 -49 66
t-49 -66v-272q0 -60 49 -60t49 60zM465 991v217q0 58 -47 58t-47 -58v-217q0 -57 49 -57q45 0 45 57z" />
    <glyph glyph-name="nine" unicode="9" horiz-adv-x="854" 
d="M262 528h-16q-104 0 -162.5 75t-58.5 185v408q0 53 11.5 101.5t38 93.5t65.5 78t99.5 53t135.5 20h74q184 0 281 -94.5t97 -247.5v-889q0 -67 -21 -125.5t-63 -106t-113 -75t-163 -27.5h-64q-182 0 -267 79t-85 208v203h344v-150q0 -27 9 -39t34 -12q39 0 39 51v347
q-109 -136 -215 -136zM424 1245q-51 0 -51 -67v-316q0 -67 51 -67q53 0 53 67v316q0 67 -53 67z" />
    <glyph glyph-name="question" unicode="?" horiz-adv-x="763" 
d="M469 381h-252v209q0 74 13 116t55 109l92 146q23 36 30 66t7 79v104q0 34 -10 49t-35 15q-26 0 -35.5 -15.5t-9.5 -48.5v-229h-304v238q0 54 7.5 98t29 87t56 72.5t92.5 47.5t135 18h72q331 0 331 -313v-105q0 -100 -18.5 -163t-73.5 -132l-131 -167q-32 -41 -41.5 -68.5
t-9.5 -85.5v-127zM489 330v-330h-290v330h290z" />
    <glyph glyph-name="A" unicode="A" 
d="M487 0l-24 223h-156l-22 -223h-293l194 1524h416l213 -1524h-328zM385 987l-47 -463h94z" />
    <glyph glyph-name="B" unicode="B" horiz-adv-x="862" 
d="M33 0v1524h512q134 0 201 -68t67 -219v-168q0 -97 -46 -156t-95 -75q30 -9 56.5 -24.5t54 -44.5t43.5 -78t16 -113v-226q0 -352 -277 -352h-532zM426 672h-55v-402h61q32 0 44.5 17t12.5 65v242q0 41 -13.5 59.5t-49.5 18.5zM420 1264h-49v-328h47q31 0 46 17.5t15 58.5
v180q0 37 -12.5 54.5t-46.5 17.5z" />
    <glyph glyph-name="C" unicode="C" horiz-adv-x="847" 
d="M489 360v306h334v-316q0 -76 -19.5 -140.5t-60 -118.5t-112.5 -85t-168 -31h-60q-104 0 -178 29.5t-116 85.5t-61 127t-19 162v774q0 85 20 154t62.5 123t116 84t173.5 30h62q98 0 169.5 -27t112 -76.5t59.5 -111.5t19 -141v-250h-334v236q0 39 -12 57t-43 18t-43 -17
t-12 -58v-814q0 -40 13 -59.5t44 -19.5q53 0 53 79z" />
    <glyph glyph-name="D" unicode="D" horiz-adv-x="851" 
d="M33 0v1524h483q148 0 226.5 -80t78.5 -256v-838q0 -350 -303 -350h-485zM367 1241v-948h47q36 0 49.5 21.5t13.5 70.5v768q0 47 -13 67.5t-46 20.5h-51z" />
    <glyph glyph-name="E" unicode="E" horiz-adv-x="692" 
d="M33 1524h633v-316h-299v-260h239v-323h-239v-303h311v-322h-645v1524z" />
    <glyph glyph-name="F" unicode="F" horiz-adv-x="686" 
d="M33 0v1524h637v-314h-303v-262h233v-321h-233v-627h-334z" />
    <glyph glyph-name="G" unicode="G" horiz-adv-x="866" 
d="M330 -20h-17q-136 0 -210 99t-74 247v831q0 81 19.5 148t61.5 122.5t116 86t175 30.5h58q366 0 366 -366v-177h-327v173q0 40 -13.5 59.5t-48.5 19.5q-57 0 -57 -79v-818q0 -88 67 -88q34 0 52 22.5t18 63.5v283h-94v281h418v-918h-219q-14 75 -41 141
q-95 -161 -250 -161z" />
    <glyph glyph-name="H" unicode="H" horiz-adv-x="860" 
d="M371 614v-614h-338v1524h338v-553h116v553h338v-1524h-338v614h-116z" />
    <glyph glyph-name="I" unicode="I" horiz-adv-x="403" 
d="M371 1524v-1524h-338v1524h338z" />
    <glyph glyph-name="J" unicode="J" horiz-adv-x="808" 
d="M20 680h316v-344q0 -53 45 -53h4q43 0 43 53v1188h348v-1198q0 -162 -86.5 -253t-253.5 -91h-100q-316 0 -316 321v377z" />
    <glyph glyph-name="K" unicode="K" horiz-adv-x="862" 
d="M371 608v-608h-338v1524h338v-539l157 539h336l-207 -680l220 -844h-355z" />
    <glyph glyph-name="L" unicode="L" horiz-adv-x="661" 
d="M33 1524h338v-1200h276v-324h-614v1524z" />
    <glyph glyph-name="M" unicode="M" horiz-adv-x="1024" 
d="M33 0v1524h403l84 -713l88 713h381v-1524h-291v831l-129 -831h-120l-130 831v-831h-286z" />
    <glyph glyph-name="N" unicode="N" horiz-adv-x="858" 
d="M33 1524h327l175 -738v738h288v-1524h-297l-200 795v-795h-293v1524z" />
    <glyph glyph-name="O" unicode="O" horiz-adv-x="878" 
d="M852 1114v-723q0 -195 -101.5 -304.5t-275.5 -109.5h-65q-184 0 -282.5 107.5t-98.5 306.5v723q0 205 92.5 317.5t286.5 112.5h65q195 0 287 -113t92 -317zM502 369v780q0 86 -62 86q-33 0 -47 -21t-14 -65v-780q0 -76 63 -76q60 0 60 76z" />
    <glyph glyph-name="P" unicode="P" horiz-adv-x="827" 
d="M530 588h-161v-588h-336v1524h487q149 0 218 -75.5t69 -231.5v-316q0 -149 -73 -231t-204 -82zM369 1257v-389h41q34 0 46.5 18.5t12.5 55.5v240q0 38 -12 56.5t-47 18.5h-41z" />
    <glyph glyph-name="Q" unicode="Q" horiz-adv-x="880" 
d="M852 1114v-723q0 -162 -71 -266t-199 -135l131 -307h-385v301q-146 23 -222.5 127.5t-76.5 279.5v723q0 205 92.5 317.5t286.5 112.5h65q379 0 379 -430zM502 369v780q0 86 -62 86q-33 0 -47 -21t-14 -65v-780q0 -76 63 -76q60 0 60 76z" />
    <glyph glyph-name="R" unicode="R" horiz-adv-x="845" 
d="M371 1262v-351h43q32 0 46.5 17t14.5 57v205q0 41 -11 56.5t-44 15.5h-49zM371 625v-625h-338v1524h530q116 0 184 -69t68 -200v-200q0 -171 -133 -232q53 -21 93 -70.5t40 -127.5v-504q0 -69 21 -111v-10h-334q-27 35 -27 109v442q0 40 -12 57t-45 17h-47z" />
    <glyph glyph-name="S" unicode="S" horiz-adv-x="833" 
d="M385 1544h76q180 0 259 -80.5t79 -230.5v-182h-326v163q0 33 -11 49.5t-40 16.5q-51 0 -51 -68v-38q0 -48 15 -82t58 -74l174 -156q114 -103 157.5 -193.5t43.5 -215.5v-76q0 -185 -93.5 -291t-283.5 -106h-73q-175 0 -265 84.5t-90 250.5v244h332v-211q0 -80 57 -80
q56 0 56 90v41q0 71 -13.5 108t-66.5 85l-176 158q-93 83 -133.5 177.5t-40.5 215.5v71q0 154 91 242t265 88z" />
    <glyph glyph-name="T" unicode="T" horiz-adv-x="745" 
d="M14 1524h717v-316h-190v-1208h-336v1208h-191v316z" />
    <glyph glyph-name="U" unicode="U" horiz-adv-x="872" 
d="M33 362v1162h348v-1145q0 -78 55 -78q56 0 56 78v1145h348v-1162q0 -177 -98 -282t-275 -105h-66q-185 0 -276.5 103t-91.5 284z" />
    <glyph glyph-name="V" unicode="V" horiz-adv-x="854" 
d="M213 0l-219 1524h356l92 -955l93 955h325l-205 -1524h-442z" />
    <glyph glyph-name="W" unicode="W" horiz-adv-x="1280" 
d="M492 1524h317l82 -936l72 936h323l-194 -1524h-383l-66 807l-65 -807h-392l-192 1524h346l70 -944z" />
    <glyph glyph-name="X" unicode="X" horiz-adv-x="833" 
d="M172 815l-164 709h342l72 -447l70 447h321l-156 -709l187 -815h-340l-90 514l-95 -514h-329z" />
    <glyph glyph-name="Y" unicode="Y" horiz-adv-x="774" 
d="M788 1524l-223 -949v-575h-336v569l-245 955h338l84 -502l79 502h303z" />
    <glyph glyph-name="Z" unicode="Z" horiz-adv-x="745" 
d="M33 1524h678v-287l-328 -922h346v-315h-715v289l326 923h-307v312z" />
    <glyph glyph-name="a" unicode="a" horiz-adv-x="786" 
d="M410 279v251q-40 -23 -58 -43q-22 -27 -22 -79v-129q0 -54 39 -54q41 0 41 54zM18 197v217q0 86 34.5 141.5t105.5 93.5q31 16 123 56t106 47q10 5 13.5 8t6.5 11t3 22v57q0 49 -39 49h-6q-23 0 -32 -12t-9 -37v-102h-291v124q0 113 77.5 180.5t233.5 67.5h45
q173 0 254.5 -64.5t81.5 -195.5v-567q0 -14 6.5 -19.5t24.5 -5.5h28v-268h-288q-84 0 -84 125q-87 -137 -211 -137h-8q-82 0 -128.5 61t-46.5 148z" />
    <glyph glyph-name="b" unicode="b" horiz-adv-x="800" 
d="M29 1524h327v-553q102 141 217 141h13q90 0 139 -66.5t49 -164.5v-633q0 -103 -64 -185.5t-157 -82.5h-6q-42 0 -77 12.5t-63.5 39t-48 50.5t-45.5 63q-19 -61 -26 -145h-258v1524zM356 803v-514q0 -62 41 -62q45 0 45 60v516q0 33 -10 47t-35 14q-41 0 -41 -61z" />
    <glyph glyph-name="c" unicode="c" horiz-adv-x="745" 
d="M430 494h297v-222q0 -132 -81 -214.5t-230 -82.5h-62q-160 0 -245.5 83.5t-85.5 238.5v491q0 153 79 244.5t250 91.5h68q307 0 307 -293v-165h-295v159q0 30 -9 45t-34 15q-22 0 -29.5 -14t-7.5 -44v-542q0 -56 37 -56q41 0 41 54v211z" />
    <glyph glyph-name="d" unicode="d" 
d="M451 1524h327v-1524h-325v123q-97 -146 -211 -146h-6q-92 0 -150.5 77.5t-58.5 187.5v624q0 103 51 175.5t137 72.5h12q39 0 74 -12.5t64 -36t46.5 -42t39.5 -46.5v547zM451 299v489q0 74 -48 74q-26 0 -36.5 -16t-10.5 -49v-504q0 -66 47 -66q48 0 48 72z" />
    <glyph glyph-name="e" unicode="e" horiz-adv-x="759" 
d="M416 1124q153 0 238 -80.5t85 -246.5v-283h-399v-231q0 -33 10.5 -47.5t34.5 -14.5q43 0 43 62v155h311v-151q0 -146 -88.5 -228t-234.5 -82h-64q-155 0 -242 80t-87 236v504q0 151 83 239t246 88h64zM340 840v-125h92v125q0 36 -9.5 51.5t-37.5 15.5t-36.5 -15t-8.5 -52
z" />
    <glyph glyph-name="f" unicode="f" horiz-adv-x="608" 
d="M594 1524v-264h-94q-24 0 -31.5 -9t-7.5 -32v-117h133v-277h-133v-825h-326v825h-127v277h127v241q0 81 52.5 131t136.5 50h270z" />
    <glyph glyph-name="g" unicode="g" horiz-adv-x="802" 
d="M449 -113v234q-93 -141 -207 -141q-94 0 -154.5 66.5t-60.5 178.5v623q0 113 51.5 187.5t146.5 74.5h6q70 0 122 -38.5t100 -102.5v133h323v-1219q0 -126 -84 -204t-258 -78h-63q-175 0 -252.5 61.5t-77.5 165.5v129h317v-74q0 -23 8.5 -34t32.5 -11h7q24 0 33.5 11.5
t9.5 37.5zM449 279v522q0 61 -46 61q-45 0 -45 -59v-524q0 -62 45 -62q22 0 34 18t12 44z" />
    <glyph glyph-name="h" unicode="h" horiz-adv-x="808" 
d="M29 0v1524h327v-557q97 145 226 145h12q91 0 138.5 -60.5t47.5 -138.5v-913h-331v793q0 57 -48 57q-45 0 -45 -64v-786h-327z" />
    <glyph glyph-name="i" unicode="i" horiz-adv-x="382" 
d="M356 1102v-1102h-327v1102h327zM356 1438v-289h-327v289h327z" />
    <glyph glyph-name="j" unicode="j" horiz-adv-x="385" 
d="M356 1438v-289h-327v289h327zM-98 -96h92q19 0 27 8t8 31v1159h327v-1321q0 -75 -45.5 -120.5t-115.5 -45.5h-293v289z" />
    <glyph glyph-name="k" unicode="k" horiz-adv-x="792" 
d="M356 741l123 361h309l-172 -461l189 -641h-320l-129 455v-455h-327v1524h327v-783z" />
    <glyph glyph-name="l" unicode="l" horiz-adv-x="382" 
d="M356 1524v-1524h-327v1524h327z" />
    <glyph glyph-name="m" unicode="m" horiz-adv-x="1214" 
d="M29 0v1102h323v-137q98 149 217 149h13q73 0 119 -41.5t63 -101.5q107 143 227 143h13q92 0 137 -62.5t45 -140.5v-911h-330v786q0 33 -8 48.5t-35 15.5q-38 0 -41 -49v-801h-332v786q0 33 -8 48.5t-35 15.5q-24 0 -32.5 -16t-8.5 -48v-786h-327z" />
    <glyph glyph-name="n" unicode="n" horiz-adv-x="808" 
d="M29 0v1102h323v-139q105 149 230 149h14q41 0 74.5 -14.5t53.5 -36.5t33 -50t18 -54t5 -50v-907h-331v791q0 59 -48 59q-26 0 -35.5 -17t-9.5 -49v-784h-327z" />
    <glyph glyph-name="o" unicode="o" horiz-adv-x="802" 
d="M23 342v420q0 177 90 269.5t256 92.5h63q169 0 258.5 -92t89.5 -268v-420q0 -172 -93 -269.5t-255 -97.5h-65q-173 0 -258.5 94.5t-85.5 270.5zM352 799v-488q0 -69 47 -69q50 0 50 69v488q0 69 -50 69q-47 0 -47 -69z" />
    <glyph glyph-name="p" unicode="p" 
d="M29 1102h325v-135q53 75 105 112t119 37h6q97 0 145.5 -71.5t48.5 -194.5v-610q0 -115 -61 -189t-148 -74h-6q-120 0 -207 127v-489h-327v1487zM356 809v-528q0 -66 43 -66q45 0 45 64v530q0 61 -45 61q-43 0 -43 -61z" />
    <glyph glyph-name="q" unicode="q" 
d="M537 1102h241v-1487h-327v506q-95 -141 -211 -141h-11q-85 0 -143.5 75.5t-58.5 180.5v589q0 132 56.5 211.5t172.5 79.5h14q42 0 77.5 -13.5t64.5 -40.5t48.5 -52t43.5 -62q9 23 19.5 70t13.5 84zM451 295v510q0 67 -50 67q-43 0 -43 -63v-528q0 -64 45 -64q48 0 48 78z
" />
    <glyph glyph-name="r" unicode="r" horiz-adv-x="727" 
d="M352 1102v-141q81 147 197 147h18q71 0 107.5 -41t36.5 -109v-397h-295v250q0 24 -6.5 34.5t-24.5 10.5q-17 0 -23 -10.5t-6 -34.5v-811h-327v1102h323z" />
    <glyph glyph-name="s" unicode="s" horiz-adv-x="708" 
d="M684 897v-127h-287v100q0 50 -37 50q-22 0 -30 -12.5t-8 -37.5v-28q0 -31 8.5 -47.5t36.5 -38.5l163 -123q98 -72 134 -143.5t36 -172.5v-36q0 -141 -82 -222.5t-233 -81.5h-74q-148 0 -224.5 67.5t-76.5 193.5v153h293v-129q0 -53 43 -53h2q37 0 37 53v33q0 38 -11.5 63
t-41.5 48l-156 112q-89 63 -121 134t-32 165v37q0 131 76 200.5t225 69.5h71q289 0 289 -227z" />
    <glyph glyph-name="t" unicode="t" horiz-adv-x="598" 
d="M582 0h-318q-54 0 -92.5 39t-38.5 106v680h-125v277h125v364h328v-364h121v-277h-121v-501q0 -23 7 -32t30 -9h84v-283z" />
    <glyph glyph-name="u" unicode="u" horiz-adv-x="800" 
d="M772 1102v-1102h-321v141q-47 -69 -101 -109t-129 -40h-10q-47 0 -83.5 20t-57 51.5t-31 66.5t-10.5 69v903h329v-791q0 -59 43 -59q45 0 45 63v787h326z" />
    <glyph glyph-name="v" unicode="v" horiz-adv-x="745" 
d="M168 0l-176 1102h323l60 -672l63 672h316l-183 -1102h-403z" />
    <glyph glyph-name="w" unicode="w" horiz-adv-x="1153" 
d="M520 0h-354l-174 1102h323l58 -662l65 662h289l64 -672l59 672h311l-174 -1102h-348l-59 555z" />
    <glyph glyph-name="x" unicode="x" horiz-adv-x="745" 
d="M152 592l-150 510h315l60 -303l55 303h307l-143 -502l158 -600h-318l-65 334l-70 -334h-309z" />
    <glyph glyph-name="y" unicode="y" horiz-adv-x="747" 
d="M201 45l-209 1057h323l68 -586l57 586h318l-252 -1319q-18 -89 -62 -128.5t-104 -39.5h-289v279h117q22 0 29.5 9.5t9.5 35.5l2 26q3 26 -8 80z" />
    <glyph glyph-name="z" unicode="z" horiz-adv-x="626" 
d="M27 1102h577v-248l-248 -578h258v-276h-604v248l254 590h-237v264z" />
    <glyph glyph-name="quoteleft" unicode="&#x2018;" horiz-adv-x="317" 
d="M82 1524h156q-46 -135 -48 -195h103v-287h-268v222q0 132 57 260z" />
    <glyph glyph-name="quoteright" unicode="&#x2019;" horiz-adv-x="317" 
d="M233 1042h-155q45 132 47 195h-100v287h268v-221q0 -126 -60 -261z" />
    <glyph glyph-name="quotedblleft" unicode="&#x201c;" horiz-adv-x="616" 
d="M383 1524h156q-45 -132 -47 -195h100v-287h-268v222q0 127 59 260zM82 1524h156q-46 -135 -48 -195h103v-287h-268v222q0 132 57 260z" />
    <glyph glyph-name="quotedblright" unicode="&#x201d;" horiz-adv-x="616" 
d="M535 1042h-156q43 126 45 195h-100v287h268v-221q0 -133 -57 -261zM233 1042h-155q45 132 47 195h-100v287h268v-221q0 -126 -60 -261z" />
    </font>
</defs>
</svg>
