<?xml version="1.0" standalone="no"?>
<!DOCTYPE svg PUBLIC "-//W3C//DTD SVG 1.1//EN" "http://www.w3.org/Graphics/SVG/1.1/DTD/svg11.dtd" >
<svg xmlns="http://www.w3.org/2000/svg" xmlns:xlink="http://www.w3.org/1999/xlink" version="1.1">
<metadata></metadata>
<defs>
<font id="europa-boldbolditalic" horiz-adv-x="1064" >
<font-face units-per-em="2048" ascent="1536" descent="-512" />
<missing-glyph horiz-adv-x="602" />
<glyph unicode="&#xfb01;" horiz-adv-x="1191" d="M164 754l39 217h192l41 227q30 178 153.5 276.5t305.5 98.5q100 0 177 -29t120 -77.5t60 -109.5t5 -126l-4 -23q-9 -51 -52.5 -86t-94.5 -35t-79 34.5t-19 86.5l2 15q9 56 -33.5 92.5t-112.5 36.5q-66 0 -119 -44.5t-67 -129.5l-37 -207h199l-39 -217h-199l-131 -754 h-246l131 754h-192zM795 0l170 971h245l-170 -971h-245z" />
<glyph unicode="&#xfb02;" horiz-adv-x="1193" d="M164 754l39 217h190l41 227q30 178 152.5 276.5t304.5 98.5q185 0 287.5 -104.5t72.5 -280.5l-209 -1188h-245l207 1178q14 84 -29 129t-111 45q-67 0 -120.5 -45t-67.5 -129l-37 -207h199l-39 -217h-199l-131 -754h-246l131 754h-190z" />
<glyph unicode="&#xfb03;" horiz-adv-x="1761" d="M164 754l39 217h192l41 227q30 176 155.5 275.5t301.5 99.5q89 0 165 -26t118 -68q131 94 297 94q96 0 171 -29t118 -77.5t60 -109.5t5 -126l-4 -23q-9 -50 -52.5 -85.5t-95.5 -35.5q-51 0 -79 34.5t-19 86.5l2 15q9 56 -34 92.5t-113 36.5q-66 0 -118.5 -44.5 t-66.5 -129.5l-37 -207h199l-39 -217h-199l-131 -754h-245l213 1208l2 15q9 56 -31.5 92.5t-110.5 36.5q-67 0 -121.5 -45t-68.5 -129l-37 -207h195l-39 -217h-195l-131 -754h-246l131 754h-192zM1364 0l170 971h246l-170 -971h-246z" />
<glyph unicode="&#xfb04;" horiz-adv-x="1746" d="M164 754l39 217h174l41 227q30 178 152 276.5t304 98.5q88 0 163.5 -26t117.5 -68q131 94 291 94q86 0 158.5 -27t122 -75.5t71 -121.5t6.5 -161l-209 -1188h-245l206 1178q14 84 -28.5 129t-110.5 45q-67 0 -120.5 -45t-67.5 -129l-37 -207h199l-39 -217h-199l-131 -754 h-246l131 754h-323l-131 -754h-246l131 754h-174zM623 971h323l45 252q10 56 -32.5 92.5t-112.5 36.5q-66 0 -119.5 -45t-67.5 -129z" />
<glyph horiz-adv-x="0" />
<glyph horiz-adv-x="682" />
<glyph horiz-adv-x="0" />
<glyph horiz-adv-x="0" />
<glyph unicode=" "  horiz-adv-x="602" />
<glyph unicode="&#x09;" horiz-adv-x="602" />
<glyph unicode="&#xa0;" horiz-adv-x="602" />
<glyph unicode="!" horiz-adv-x="626" d="M184 137q0 67 47 114.5t115 47.5t115 -47.5t47 -114.5t-47 -114.5t-115 -47.5t-115 47.5t-47 114.5zM268 410l170 1024h254l-190 -1024h-234z" />
<glyph unicode="&#x22;" horiz-adv-x="819" d="M285 926l90 508h217l-90 -508h-217zM641 926l90 508h217l-90 -508h-217z" />
<glyph unicode="#" horiz-adv-x="1298" d="M156 430l30 180h265l77 246h-237l33 180h262l141 445l170 -49l-125 -396h219l142 445l170 -49l-125 -396h237l-33 -180h-262l-78 -246h236l-31 -180h-262l-149 -477l-172 49l135 428h-219l-150 -477l-172 49l135 428h-237zM637 610h219l78 246h-219z" />
<glyph unicode="$" horiz-adv-x="1187" d="M127 258l184 168q4 -7 12.5 -20t36.5 -46t58 -60t77.5 -53t96.5 -34l70 399q-57 23 -102 47t-92.5 60.5t-79 78t-51.5 99.5t-20 125q0 78 36.5 155t99.5 138.5t157 101t201 41.5l31 168h129l-33 -178q69 -12 131.5 -39t101.5 -56.5t68.5 -57.5t42.5 -46l12 -18l-172 -162 q-4 5 -10.5 12.5t-29 29t-47 39.5t-62.5 37.5t-76 29.5l-70 -396l19 -6q61 -26 105 -49t89.5 -57.5t73.5 -74t46 -95.5t18 -123q0 -100 -42 -182.5t-112.5 -136t-159 -84.5t-186.5 -36l-29 -170h-129l31 175q-79 11 -152 44t-120.5 71.5t-83.5 75t-52 61.5zM571 1022 q0 -53 33.5 -86.5t104.5 -65.5l61 349q-87 -14 -143 -69t-56 -128zM721 215q86 15 144.5 63.5t58.5 131.5q0 58 -34 92.5t-108 64.5z" />
<glyph unicode="%" horiz-adv-x="1458" d="M184 18l1223 1483l104 -90l-1224 -1483zM221 1102q0 92 55 175.5t139 132t169 48.5q145 0 225 -86t80 -209q0 -92 -55 -175.5t-139 -132t-169 -48.5q-145 0 -225 86t-80 209zM385 1102q0 -61 38 -99t103 -38q84 0 141.5 58t57.5 140q0 61 -38.5 99t-102.5 38 q-86 0 -142.5 -58.5t-56.5 -139.5zM819 270q0 92 55 175.5t139 132.5t169 49q145 0 225 -86t80 -209q0 -92 -55 -175.5t-139 -132.5t-169 -49q-145 0 -225 86t-80 209zM983 270q0 -61 38 -99t103 -38q84 0 141.5 58.5t57.5 140.5q0 61 -38.5 99t-102.5 38q-86 0 -142.5 -59 t-56.5 -140z" />
<glyph unicode="&#x26;" horiz-adv-x="1423" d="M166 315q0 56 22 111t53.5 98.5t83 90t95 78.5t104.5 73q-77 90 -110 157t-33 142q0 109 61 200.5t156 142t199 50.5q154 0 264 -87.5t110 -233.5q0 -117 -72 -208t-220 -194l215 -225q6 7 15.5 23t31.5 86.5t35 166.5h239q-11 -87 -32 -164.5t-42.5 -126t-41 -85 t-31.5 -52.5l-13 -16l193 -199l-170 -163l-174 184q-90 -84 -225.5 -136.5t-255.5 -52.5q-210 0 -333.5 97t-123.5 243zM418 340q0 -63 60.5 -101t144.5 -38q88 0 176 36t149 89l-272 282q-10 -7 -42 -28.5t-56 -38t-56 -43t-53 -50t-36 -52.5t-15 -56zM618 1069 q0 -11 2.5 -22t5 -19.5t10 -20.5t12 -19.5t17 -22.5t19 -22t23 -26t24.5 -28q7 5 44 31t55.5 41t45.5 42t39.5 55t12.5 58q0 53 -40 85t-91 32q-76 0 -127.5 -46.5t-51.5 -117.5z" />
<glyph unicode="'" horiz-adv-x="380" d="M246 930l88 504h217l-88 -504h-217z" />
<glyph unicode="(" horiz-adv-x="638" d="M182 362q0 323 131 628t361 564l180 -145q-191 -208 -309.5 -479.5t-118.5 -556.5q0 -99 14 -196.5t33.5 -167t39.5 -124.5t34 -83l14 -27l-211 -123q-7 12 -18 34.5t-40 96t-51.5 151.5t-40.5 195t-18 233z" />
<glyph unicode=")" horiz-adv-x="638" d="M-4 -203q190 209 309 481t119 556q0 99 -14 196.5t-33.5 167t-39.5 124.5t-34 82l-14 28l211 122q7 -12 18 -34.5t40 -96t51.5 -151.5t40.5 -195t18 -233q0 -323 -131 -628t-361 -564z" />
<glyph unicode="*" horiz-adv-x="815" d="M217 1108l64 168l247 -88l47 270h177l-47 -270l258 80l41 -168l-275 -82l123 -203l-152 -96l-118 209l-189 -215l-131 112l187 203z" />
<glyph unicode="+" d="M115 389l41 229h362l66 377h245l-65 -377h362l-41 -229h-362l-68 -389h-245l67 389h-362z" />
<glyph unicode="," horiz-adv-x="493" d="M-8 -274l246 483l190 -94l-262 -477z" />
<glyph unicode="-" horiz-adv-x="681" d="M135 389l41 234h547l-41 -234h-547z" />
<glyph unicode="." horiz-adv-x="536" d="M129 137q0 67 47.5 114.5t114.5 47.5t114.5 -47.5t47.5 -114.5t-47.5 -114.5t-114.5 -47.5t-114.5 47.5t-47.5 114.5z" />
<glyph unicode="/" d="M-25 -188l1143 1839l185 -113l-1143 -1839z" />
<glyph unicode="0" horiz-adv-x="1241" d="M188 537q0 126 27.5 255.5t83 248.5t132 212.5t182.5 149t225 55.5q123 0 215 -42t146 -118.5t80 -175t26 -221.5q0 -105 -19.5 -213.5t-56 -211.5t-93.5 -194t-127 -159.5t-161 -108t-191 -39.5q-124 0 -216 42.5t-146.5 119.5t-80.5 177t-26 223zM436 537 q0 -152 55 -242t166 -90q90 0 168 67t127 171t77 224.5t28 233.5q0 150 -54.5 239t-164.5 89q-73 0 -139 -43.5t-113 -115t-81.5 -162t-51.5 -186t-17 -185.5z" />
<glyph unicode="1" horiz-adv-x="909" d="M203 1090l493 344h228l-252 -1434h-246l195 1106l-289 -201z" />
<glyph unicode="2" horiz-adv-x="1136" d="M82 0l643 668q6 7 42 44t47.5 50t40.5 48t41 56.5t28.5 54.5t23 64.5t6.5 65.5q0 75 -51 126.5t-137 51.5q-60 0 -111 -21.5t-81 -52t-52 -61.5t-30 -52l-9 -22l-215 88q2 7 7 20t24.5 49t43.5 69t65.5 73.5t90 69.5t118.5 49t149 20q115 0 202.5 -35.5t138 -95 t75 -129.5t24.5 -147q0 -93 -47 -196t-129 -193q-78 -86 -179 -193t-163 -171l-61 -65h440l-41 -233h-944z" />
<glyph unicode="3" horiz-adv-x="1167" d="M129 293l203 125q3 -9 8.5 -23t28.5 -51t52 -65t80 -51t111 -23q72 0 136 25t108.5 80.5t44.5 131.5q0 86 -66.5 123t-189.5 37h-72l41 225h48q55 0 107 13.5t98 41t74 74.5t28 107q0 73 -56 119.5t-143 46.5q-51 0 -96.5 -18t-74 -43.5t-50 -51t-30.5 -43.5l-9 -18 l-203 106l8.5 17t25.5 41.5t43.5 58.5t63.5 62.5t84.5 59t107 41.5t130.5 17q199 0 325 -106t126 -289q0 -220 -226 -340q6 -3 16.5 -8t37.5 -28t47.5 -51.5t37.5 -80.5t17 -113q0 -110 -48.5 -201t-127 -147.5t-172.5 -87.5t-191 -31q-75 0 -142.5 17.5t-115 45.5t-87.5 62 t-64.5 68t-42 62t-24.5 46z" />
<glyph unicode="4" horiz-adv-x="1214" d="M45 311l928 1123h274l-157 -893h178l-41 -230h-178l-54 -311h-245l53 311h-758zM498 541h350l96 542z" />
<glyph unicode="5" horiz-adv-x="1198" d="M152 293l206 125q3 -9 9 -23t30 -51t53 -65t78.5 -51t106.5 -23q130 0 221.5 92t91.5 227q0 95 -74 154t-208 59q-54 0 -115 -16.5t-109.5 -39.5t-89.5 -46.5t-64 -40.5l-22 -16l150 856h889l-41 -234h-643l-46 -260q62 23 185 23q209 0 325.5 -119t116.5 -320 q0 -155 -76 -281.5t-205.5 -197t-285.5 -70.5q-78 0 -147 17.5t-116.5 45.5t-87 62t-63.5 68t-40 62t-23 46z" />
<glyph unicode="6" horiz-adv-x="1155" d="M152 410q0 161 151 376l553 715l188 -143l-331 -418q30 6 53 6q121 0 215 -62t142 -159.5t48 -210.5q0 -146 -78.5 -271t-206.5 -196.5t-270 -71.5q-96 0 -175 25t-132 67t-89 98.5t-52 118t-16 126.5zM403 410q0 -93 62 -149t158 -56q120 0 208.5 90t88.5 219 q0 92 -62 147.5t-158 55.5q-122 0 -209.5 -90.5t-87.5 -216.5z" />
<glyph unicode="7" horiz-adv-x="1077" d="M125 82l780 1118h-620l41 234h1024l-1031 -1483z" />
<glyph unicode="8" horiz-adv-x="1179" d="M164 385q0 120 71 225t189 154q-4 4 -11.5 11t-26 30.5t-32.5 50t-25.5 68t-11.5 84.5q0 186 141.5 318t348.5 132q206 0 315 -103.5t109 -275.5q0 -108 -65 -199t-148 -126q6 -2 15.5 -7.5t34 -27.5t43.5 -51t34.5 -82.5t15.5 -118.5q0 -141 -75 -255t-197 -175.5 t-264 -61.5q-125 0 -217.5 35t-144 95t-75.5 130t-24 150zM416 385q0 -80 54 -132t155 -52q112 0 199 76t87 190q0 78 -54 129t-155 51q-113 0 -199.5 -74t-86.5 -188zM561 1008q0 -71 50 -113.5t128 -42.5q96 0 170 65t74 162q0 71 -49 112.5t-127 41.5q-95 0 -170.5 -64.5 t-75.5 -160.5z" />
<glyph unicode="9" horiz-adv-x="1155" d="M233 922q0 109 46.5 209.5t123 172t178 114t207.5 42.5q97 0 177 -25t132.5 -67t88.5 -98.5t51.5 -117.5t15.5 -126q0 -162 -151 -377l-545 -704l-188 143l323 408q-30 -7 -53 -7q-166 0 -286 123t-120 310zM485 922q0 -92 62 -147.5t158 -55.5q121 0 208.5 90.5 t87.5 216.5q0 94 -61.5 149.5t-157.5 55.5q-120 0 -208.5 -90t-88.5 -219z" />
<glyph unicode=":" horiz-adv-x="561" d="M141 137q0 67 47.5 114.5t114.5 47.5t114.5 -47.5t47.5 -114.5t-47.5 -114.5t-114.5 -47.5t-114.5 47.5t-47.5 114.5zM264 834q0 67 47 114t115 47t115 -47t47 -114q0 -68 -47 -115t-115 -47t-115 47t-47 115z" />
<glyph unicode=";" horiz-adv-x="497" d="M-8 -274l246 483l190 -94l-262 -477zM233 831q0 67 47.5 114.5t114.5 47.5t114.5 -47.5t47.5 -114.5t-47 -114t-115 -47t-115 47t-47 114z" />
<glyph unicode="&#x3c;" d="M115 453l37 204l1017 404l-45 -262l-675 -254l585 -256l-43 -242z" />
<glyph unicode="=" d="M133 238l39 225h881l-39 -225h-881zM201 618l39 226h880l-39 -226h-880z" />
<glyph unicode="&#x3e;" d="M98 47l45 262l668 256l-578 254l43 242l875 -404l-37 -204z" />
<glyph unicode="?" horiz-adv-x="1001" d="M215 1128q3 7 8 19t25 46t43.5 65.5t64 69.5t86 65t109.5 46t135 19q190 0 307 -102.5t117 -280.5q0 -121 -73 -221.5t-228 -198.5q-42 -26 -63 -48.5t-25.5 -36.5t-9.5 -46l-19 -104h-246l27 151q13 75 32 112.5t54 66.5t125 84q41 25 67 44.5t54 49t41.5 66t13.5 81.5 q0 64 -48 107t-126 43q-55 0 -102.5 -20.5t-76 -49.5t-49 -57.5t-28.5 -49.5l-8 -20zM367 137q0 68 47 115t114 47q68 0 115 -47.5t47 -114.5t-47 -114.5t-115 -47.5q-67 0 -114 47t-47 115z" />
<glyph unicode="@" horiz-adv-x="1636" d="M211 614q0 170 68.5 326.5t183 269.5t270.5 180.5t324 67.5q147 0 266 -46t197 -126.5t119.5 -189.5t41.5 -236q0 -136 -34.5 -244.5t-90.5 -173t-122.5 -98t-135.5 -33.5t-124.5 34.5t-69.5 100.5q-4 -5 -12 -14.5t-34.5 -32.5t-56 -41t-75 -32.5t-92.5 -14.5 q-115 0 -181.5 71.5t-66.5 176.5q0 83 51.5 147t126.5 94.5t158 30.5q56 0 107 -17.5t74 -34.5l23 -17l7 35q4 24 4 32q0 62 -39.5 93.5t-98.5 31.5q-54 0 -113.5 -14t-92.5 -28l-33 -15l-53 152q16 8 44.5 20t106 32.5t141.5 20.5q143 0 231.5 -64t88.5 -175q0 -28 -6 -58 l-45 -247q-4 -28 -4 -39q0 -68 59 -68q69 0 123.5 107.5t54.5 281.5q0 190 -120 308t-324 118q-137 0 -260 -51.5t-211.5 -140t-140.5 -213.5t-52 -267q0 -203 129.5 -335t341.5 -132q176 0 336 78l62 -159q-186 -91 -398 -91q-150 0 -274.5 51t-206.5 138t-127 203t-45 247 zM772 559q0 -38 34 -61t97 -23q54 0 101 21t68 42l20 21l10 59q-5 6 -15 16t-51.5 26t-95.5 16q-75 0 -121.5 -32.5t-46.5 -84.5z" />
<glyph unicode="A" horiz-adv-x="1388" d="M12 0l809 1434h250l305 -1434h-241l-72 340h-598l-191 -340h-262zM592 565h422l-115 553z" />
<glyph unicode="B" horiz-adv-x="1208" d="M152 0l251 1434h455q185 0 294.5 -100t109.5 -275q0 -58 -18.5 -110.5t-45 -87.5t-57 -62t-52 -40t-32.5 -16q13 -5 28.5 -13t43 -31t48 -51.5t36.5 -77.5t16 -107q0 -193 -148 -328t-372 -135h-557zM438 233h262h11q112 0 188 62t76 170q0 76 -56.5 112.5t-152.5 36.5 h-262zM545 848h211q114 0 183 54t69 157q0 71 -51.5 106t-137.5 35h-211z" />
<glyph unicode="C" horiz-adv-x="1384" d="M182 637q0 169 68.5 322t182.5 262t266 173t313 64q102 0 194.5 -23t151.5 -56t103 -66.5t63 -56.5l20 -23l-162 -162q-5 6 -15.5 17t-46.5 38t-76 48t-103 38t-129 17q-121 0 -229 -48.5t-183.5 -129t-119.5 -189t-44 -225.5q0 -88 25 -165t73 -137t124.5 -95t172.5 -35 q71 0 139.5 18t116 44t85 52t55.5 44l18 18l144 -180q-9 -9 -26.5 -24.5t-74 -54.5t-117.5 -68.5t-154 -54t-186 -24.5q-126 0 -233 35t-182.5 97t-129 146t-79 181t-25.5 203z" />
<glyph unicode="D" horiz-adv-x="1392" d="M152 0l251 1434h463q138 0 251.5 -49t188.5 -133t115.5 -196t40.5 -239q0 -130 -33 -250.5t-99.5 -223.5t-159.5 -179.5t-220 -120t-274 -43.5h-524zM438 233h221q104 0 193.5 32t153.5 87.5t109.5 129.5t68 159.5t22.5 175.5q0 168 -100 275.5t-277 107.5h-221z" />
<glyph unicode="E" horiz-adv-x="1118" d="M152 0l251 1434h869l-41 -234h-623l-61 -348h573l-41 -234h-573l-68 -385h635l-41 -233h-880z" />
<glyph unicode="F" horiz-adv-x="1079" d="M152 0l251 1434h850l-41 -234h-604l-61 -350h563l-41 -234h-563l-109 -616h-245z" />
<glyph unicode="G" horiz-adv-x="1460" d="M182 625q0 231 115.5 423t309.5 301t421 109q78 0 150 -12t124 -31t97 -42t74.5 -45.5t50.5 -41.5t30 -31l9 -12l-170 -160q-5 6 -14.5 16t-43.5 35t-73 44t-102.5 35t-131.5 16q-170 0 -307 -84.5t-211 -222t-74 -297.5q0 -182 114.5 -301t307.5 -119q57 0 109 6 t85 14.5t58 17.5t36 15l11 6l55 314h-325l41 229h567l-123 -694q-9 -6 -25.5 -15t-70 -33t-110 -42t-141 -33t-167.5 -15q-160 0 -289.5 50t-213.5 138t-128.5 206t-44.5 256z" />
<glyph unicode="H" horiz-adv-x="1406" d="M152 0l251 1434h246l-102 -584h612l103 584h245l-252 -1434h-245l108 616h-612l-109 -616h-245z" />
<glyph unicode="I" horiz-adv-x="606" d="M180 0l252 1434h246l-252 -1434h-246z" />
<glyph unicode="J" horiz-adv-x="1067" d="M43 211l178 158q3 -7 10 -17.5t29.5 -38t48.5 -48.5t67 -38.5t85 -17.5q66 0 119 20.5t86.5 55t53.5 74t28 83.5l174 992h245l-174 -983q-40 -228 -176.5 -352t-355.5 -124q-77 0 -148.5 24.5t-118.5 59t-82.5 69t-51.5 58.5z" />
<glyph unicode="K" horiz-adv-x="1286" d="M152 0l251 1434h246l-110 -625l610 625h319l-686 -705l504 -729h-299l-471 684l-119 -684h-245z" />
<glyph unicode="L" horiz-adv-x="1024" d="M152 0l251 1434h246l-211 -1201h611l-41 -233h-856z" />
<glyph unicode="M" horiz-adv-x="1691" d="M152 0l251 1434h228l325 -723l582 723h254l-252 -1434h-246l170 973l-569 -692l-330 682l-168 -963h-245z" />
<glyph unicode="N" horiz-adv-x="1486" d="M152 0l251 1434h222l540 -1004l176 1004h246l-252 -1434h-221l-543 1001l-174 -1001h-245z" />
<glyph unicode="O" horiz-adv-x="1589" d="M182 625q0 164 66.5 317t177.5 266.5t264.5 181.5t319.5 68q154 0 278 -50.5t204 -138.5t122.5 -205t42.5 -253q0 -164 -66.5 -318t-177.5 -267.5t-264.5 -182t-319.5 -68.5q-154 0 -278 51t-204 139.5t-122.5 206t-42.5 253.5zM434 625q0 -177 106 -296.5t289 -119.5 q125 0 234.5 52.5t183 138t116 193t42.5 218.5q0 177 -106 295.5t-289 118.5q-125 0 -234.5 -52.5t-183 -137t-116 -192t-42.5 -218.5z" />
<glyph unicode="P" horiz-adv-x="1159" d="M152 0l251 1434h478q186 0 298.5 -113.5t112.5 -296.5q0 -98 -37.5 -189t-106.5 -162.5t-176.5 -114t-236.5 -42.5h-248l-90 -516h-245zM528 750h211q137 0 218 76t81 198q0 82 -55.5 129t-163.5 47h-211z" />
<glyph unicode="Q" horiz-adv-x="1619" d="M182 625q0 164 66.5 317t177 266.5t264.5 181.5t320 68q154 0 278 -50.5t204 -138.5t122.5 -205t42.5 -253q0 -151 -55.5 -292t-155.5 -257l160 -164l-162 -168l-174 179q-206 -134 -441 -134q-154 0 -278 51t-204 139.5t-122.5 206t-42.5 253.5zM434 625 q0 -177 106 -296.5t289 -119.5q145 0 273 72l-205 211l162 167l217 -223q129 171 129 375q0 177 -106 295.5t-289 118.5q-125 0 -234.5 -52.5t-183 -137t-116 -192t-42.5 -218.5z" />
<glyph unicode="R" horiz-adv-x="1193" d="M152 0l251 1434h465q187 0 298.5 -110.5t111.5 -287.5q0 -182 -119.5 -316.5t-286.5 -158.5l265 -561h-269l-245 541h-131l-95 -541h-245zM532 774h195q134 0 215.5 70.5t81.5 191.5q0 81 -57.5 122.5t-163.5 41.5h-195z" />
<glyph unicode="S" horiz-adv-x="1218" d="M141 258l185 168q5 -9 14.5 -23.5t42 -52t68.5 -66t92 -52t114 -23.5q48 0 94.5 11t90 33t70 63t26.5 94q0 22 -6 41t-13.5 33.5t-25.5 28.5t-31.5 23t-43.5 22t-48.5 20t-58.5 22q-62 24 -109.5 46t-101 59t-88 78.5t-57.5 102t-23 132.5q0 79 37.5 157.5t102.5 141.5 t161.5 102t206.5 39q67 0 129 -12.5t107.5 -32.5t85.5 -44.5t66 -48.5t45 -44t27 -32l9 -13l-172 -160q-5 6 -14 16.5t-39 37t-62.5 47t-82 37t-99.5 16.5q-105 0 -179.5 -58.5t-74.5 -144.5q0 -27 10.5 -49t23.5 -36.5t44 -31t53.5 -25.5t71 -28t77.5 -31q62 -26 105 -48.5 t87.5 -57t71.5 -73.5t44.5 -96t17.5 -126q0 -85 -29.5 -158t-80.5 -125t-119 -89t-146 -55t-160 -18q-98 0 -187 29t-146.5 70.5t-101 83.5t-62.5 71z" />
<glyph unicode="T" horiz-adv-x="1093" d="M240 1200l41 234h1036l-41 -234h-395l-211 -1200h-246l211 1200h-395z" />
<glyph unicode="U" horiz-adv-x="1409" d="M240 510l163 924h246q-73 -421 -157 -893q-9 -49 -8 -91q0 -94 42 -154q62 -88 213 -87.5t245.5 92t123.5 250.5l156 883h245l-163 -924q-43 -244 -203 -389.5t-414 -145.5q-271 0 -401 147q-98 111 -98 276q0 53 10 112z" />
<glyph unicode="V" horiz-adv-x="1290" d="M256 1434h260l219 -914l529 914h274l-903 -1483z" />
<glyph unicode="W" horiz-adv-x="2013" d="M260 1434h275l147 -836l471 836h217l166 -836l446 836h275l-825 -1483l-242 1075l-625 -1075z" />
<glyph unicode="X" horiz-adv-x="1253" d="M25 0l591 741l-311 693h281l202 -490l367 490h293l-551 -703l332 -731h-279l-221 524l-401 -524h-303z" />
<glyph unicode="Y" horiz-adv-x="1257" d="M268 1434h258l236 -639l459 639h272l-643 -869l-98 -565h-246l98 565z" />
<glyph unicode="Z" horiz-adv-x="1222" d="M29 0l954 1200h-674l41 234h1096l-950 -1201h698l-41 -233h-1124z" />
<glyph unicode="[" horiz-adv-x="675" d="M68 -471l356 2019h459l-35 -196h-234l-286 -1626h233l-35 -197h-458z" />
<glyph unicode="\" d="M305 1561l221 69l494 -1839l-221 -70z" />
<glyph unicode="]" horiz-adv-x="675" d="M-18 -471l34 197h234l287 1626h-234l35 196h459l-357 -2019h-458z" />
<glyph unicode="^" horiz-adv-x="1099" d="M145 717l570 831h215l274 -831h-246l-170 561l-368 -561h-275z" />
<glyph unicode="_" horiz-adv-x="1024" d="M2 -471l41 233h852l-41 -233h-852z" />
<glyph unicode="`" horiz-adv-x="557" d="M231 1409l181 152l307 -377l-172 -140z" />
<glyph unicode="a" horiz-adv-x="1097" d="M125 281q0 79 36 145t96 108.5t135 65.5t155 23q48 0 93.5 -8t77.5 -20t56.5 -24t36.5 -20l12 -8l13 65q3 17 3 33q-1 27 -9 47q-14 34 -43 52.5t-65.5 27t-78.5 8.5q-63 0 -137 -16t-117 -32l-43 -15l-63 209q22 8 59.5 20t141.5 32.5t194 20.5q210 0 322 -103 q89 -82 89 -204q0 -31 -6 -65l-108 -623h-227l20 123q-5 -6 -15 -16t-43 -35.5t-68 -45t-89 -35.5t-109 -16q-146 0 -232.5 87.5t-86.5 218.5zM379 289q0 -40 25.5 -66t58.5 -34.5t72 -8.5q41 0 81.5 11.5t68.5 28t50.5 33.5t33.5 29l11 11l19 100q-9 5 -26 13.5t-72.5 22 t-114.5 13.5q-46 0 -91 -14t-80.5 -50.5t-35.5 -88.5z" />
<glyph unicode="b" horiz-adv-x="1202" d="M152 0l272 1548h246l-121 -680l13.5 13.5t38 30.5t61.5 39t82 30.5t102 13.5q173 0 282 -127.5t109 -320.5q0 -153 -77 -286t-200.5 -209.5t-259.5 -76.5q-60 0 -112.5 16.5t-85 40.5t-57 48t-34.5 40l-10 17l-22 -137h-227zM457 340q2 -5 6 -14.5t20.5 -32.5t37.5 -41 t59.5 -32.5t83.5 -14.5q138 0 229.5 100.5t91.5 241.5q0 99 -59 159t-164 60q-45 0 -88 -14t-72 -34t-51 -39.5t-33 -33.5l-10 -14z" />
<glyph unicode="c" horiz-adv-x="1017" d="M133 430q0 157 83.5 288.5t216.5 204t280 72.5q83 0 155.5 -18.5t116 -45t75.5 -53t45 -44.5l13 -19l-176 -149q-3 4 -9 11t-27.5 24t-45.5 30t-64 24t-83 11q-133 0 -229.5 -102t-96.5 -234q0 -96 63.5 -160.5t163.5 -64.5q46 0 90.5 11t74.5 27t53 32t34 27l11 11 l133 -186q-6 -6 -18.5 -16.5t-52.5 -36.5t-83 -46t-109 -36.5t-133 -16.5q-114 0 -206.5 37t-152 100t-91 144.5t-31.5 173.5z" />
<glyph unicode="d" horiz-adv-x="1202" d="M133 426q0 123 48.5 231.5t126.5 181t176.5 114.5t199.5 42q52 0 99 -12.5t77.5 -30.5t53.5 -35.5t34 -30.5l10 -12l119 674h246l-272 -1548h-228l21 127q-5 -6 -14 -16.5t-40.5 -36.5t-66 -46t-89 -36.5t-110.5 -16.5q-166 0 -278.5 124.5t-112.5 326.5zM387 426 q0 -100 57.5 -160.5t163.5 -60.5q46 0 90 15t73 36.5t51.5 42.5t33.5 36l10 15l52 291q-2 5 -6.5 13.5t-21.5 30t-38.5 38t-60.5 30t-84 13.5q-136 0 -228 -100.5t-92 -239.5z" />
<glyph unicode="e" horiz-adv-x="1091" d="M133 436q0 116 47 221.5t123 178.5t175 116t202 43q204 0 326 -112t122 -297q0 -59 -26 -189h-729q2 -72 68 -134t173 -62q48 0 94 10t78 24.5t57.5 29t37.5 24.5l12 10l115 -188q-6 -6 -18.5 -15t-52.5 -32.5t-83 -41.5t-108.5 -32.5t-131.5 -14.5q-118 0 -212 37.5 t-151.5 102.5t-87.5 146.5t-30 174.5zM399 575h490q0 3 1 9.5t1 9.5q0 70 -53.5 124t-157.5 54q-107 0 -182 -61t-99 -136z" />
<glyph unicode="f" horiz-adv-x="759" d="M164 750l39 221h192l43 237q17 97 58.5 170t97 114t115 61t122.5 20q67 0 123.5 -12.5t79.5 -25.5l23 -13l-105 -207q-40 28 -114 28q-20 0 -41.5 -6.5t-46 -21.5t-43.5 -45.5t-27 -73.5l-39 -225h238l-39 -221h-238l-131 -750h-246l131 750h-192z" />
<glyph unicode="g" horiz-adv-x="1173" d="M12 -317l138 192q5 -6 15 -15.5t42.5 -33.5t67.5 -43t88.5 -34t107.5 -15q138 0 223.5 68.5t106.5 181.5l20 116q-43 -46 -119.5 -85.5t-177.5 -39.5q-168 0 -279.5 124t-111.5 327q0 123 48.5 231.5t126.5 181t176.5 114.5t199.5 42q56 0 106.5 -14.5t82.5 -35.5 t55.5 -41.5t33.5 -35.5l11 -14l20 117h228l-172 -979q-22 -123 -76.5 -218t-133 -153t-171.5 -87.5t-197 -29.5q-78 0 -154 18.5t-129 45t-94.5 52.5t-61.5 44zM387 426q0 -100 56.5 -160.5t162.5 -60.5q47 0 91 15t73.5 36.5t52 42.5t33.5 36l10 15l52 291q-2 5 -6.5 13.5 t-22 30t-39 38t-59.5 30t-82 13.5q-137 0 -229.5 -100.5t-92.5 -239.5z" />
<glyph unicode="h" horiz-adv-x="1150" d="M152 0l272 1548h246l-123 -694q28 31 61 58t97.5 55t130.5 28q151 -1 240 -109q67 -81 66 -196q0 -39 -7 -82l-107 -608h-246l99 567q5 31 5 56q0 59 -28 93q-41 50 -125 50q-56 0 -111.5 -29t-82.5 -57l-27 -29l-115 -651h-245z" />
<glyph unicode="i" horiz-adv-x="569" d="M162 0l170 971h246l-170 -971h-246zM338 1284q0 68 47 115t115 47t115 -47t47 -115t-47 -115t-115 -47t-115 47t-47 115z" />
<glyph unicode="j" horiz-adv-x="679" d="M-147 -432l96 211q57 -43 127 -43q21 0 37 2.5t41 13.5t44 31t37 58.5t27 92.5l182 1037h246l-186 -1059q-16 -92 -49.5 -164t-74.5 -117t-92.5 -74.5t-100.5 -41t-101 -11.5q-68 0 -126.5 16t-82.5 32zM451 1284q0 68 47 115t114 47q68 0 115 -47t47 -115t-47 -115 t-115 -47q-67 0 -114 47t-47 115z" />
<glyph unicode="k" horiz-adv-x="1095" d="M152 0l272 1548h246l-166 -940l391 363h338l-506 -459l365 -512h-304l-313 446l-78 -446h-245z" />
<glyph unicode="l" horiz-adv-x="548" d="M152 0l272 1548h246l-273 -1548h-245z" />
<glyph unicode="m" horiz-adv-x="1712" d="M123 0l170 971h229l-24 -142q4 7 12.5 18t37 39.5t60.5 50.5t82 40t103 18q61 0 111.5 -19t79 -46t48 -54t26.5 -46l7 -19q5 7 14 19.5t39.5 44.5t65 56t88.5 44t110 20q158 0 251 -110q70 -83 70 -201q0 -38 -7 -80l-107 -604h-246l99 561q6 35 6 64q0 141 -145 141 q-36 0 -71 -12t-59 -29t-42.5 -33.5t-27.5 -28.5l-9 -12l-115 -651h-246l98 561q6 36 6 65q1 54 -21 88q-34 52 -124 52q-36 0 -71 -12t-59 -29t-42.5 -33.5t-27.5 -28.5l-9 -12l-114 -651h-246z" />
<glyph unicode="n" horiz-adv-x="1122" d="M123 0l170 971h229l-24 -142q5 7 14 18t40.5 39.5t65 50.5t85 40t104.5 18q151 -1 240 -109q67 -81 67 -196q0 -39 -8 -82l-107 -608h-245l98 567q6 31 6 57q0 58 -28 92q-40 50 -125 50q-56 0 -111.5 -29t-83.5 -57l-27 -29l-114 -651h-246z" />
<glyph unicode="o" horiz-adv-x="1150" d="M133 430q0 118 50 224.5t130 180t182.5 117t206.5 43.5q116 0 209.5 -36.5t152.5 -99.5t90.5 -144.5t31.5 -173.5q0 -117 -50 -223.5t-130.5 -180.5t-183 -118t-206.5 -44q-116 0 -209.5 37t-152.5 100t-90 144.5t-31 173.5zM387 430q0 -98 60 -161.5t169 -63.5 q136 0 226 100.5t90 235.5q0 98 -60.5 161.5t-169.5 63.5q-136 0 -225.5 -100.5t-89.5 -235.5z" />
<glyph unicode="p" horiz-adv-x="1173" d="M39 -471l254 1442h227l-20 -117q5 6 14 15.5t39.5 33.5t65 43t88.5 34t110 15q173 0 282 -127.5t109 -320.5q0 -122 -45.5 -230.5t-120 -182.5t-171.5 -116.5t-199 -42.5q-103 0 -181.5 42t-105.5 83l-100 -571h-246zM426 330q2 -5 6 -13.5t21 -30t38.5 -38t60 -30 t83.5 -13.5q138 0 229.5 100.5t91.5 241.5q0 99 -59 159t-164 60q-45 0 -88 -14t-72 -34t-51 -39.5t-32 -33.5l-11 -14z" />
<glyph unicode="q" horiz-adv-x="1173" d="M133 426q0 123 48.5 231.5t126.5 181t176.5 114.5t199.5 42q56 0 106.5 -14.5t82.5 -35.5t55.5 -41.5t33.5 -35.5l11 -14l20 117h228l-254 -1442h-246l98 563q-44 -44 -118.5 -80.5t-176.5 -36.5q-166 0 -278.5 124.5t-112.5 326.5zM387 426q0 -100 57.5 -160.5 t163.5 -60.5q47 0 91 16t73.5 38.5t52 45.5t33.5 39l10 16l50 281q-2 5 -6.5 13.5t-21.5 30t-38.5 38t-60.5 30t-84 13.5q-136 0 -228 -100.5t-92 -239.5z" />
<glyph unicode="r" horiz-adv-x="792" d="M123 0l170 971h233l-24 -142q5 7 13.5 18t37.5 39.5t61 50.5t81.5 40t99.5 18q39 0 80 -7.5t62 -15.5l21 -7l-104 -222q-63 23 -135 23q-42 0 -82 -13.5t-67.5 -33t-49 -38.5t-31.5 -33l-10 -13l-110 -635h-246z" />
<glyph unicode="s" horiz-adv-x="989" d="M88 152l143 176q5 -6 14 -15t39 -33t62 -42t80.5 -33t97.5 -15q89 0 145 24.5t56 76.5q0 39 -36.5 56t-147.5 42q-140 31 -225 100.5t-85 186.5q0 134 116 226.5t300 92.5q68 0 133 -12.5t109 -30.5t78.5 -35.5t50.5 -30.5l16 -12l-127 -186q-14 10 -39.5 25.5t-94 41 t-126.5 25.5q-42 0 -79.5 -8.5t-66 -32t-28.5 -59.5q0 -35 43.5 -55.5t159.5 -46.5q62 -14 110 -33t93.5 -51t70.5 -82t25 -115q0 -101 -67 -176t-167.5 -110.5t-216.5 -35.5q-75 0 -147.5 18t-122.5 44t-89 52.5t-58 44.5z" />
<glyph unicode="t" horiz-adv-x="851" d="M156 750l39 221h211l51 289h245l-51 -289h293l-39 -221h-293l-71 -402q-4 -26 -4 -47q0 -45 20 -65q30 -30 88 -31q24 0 50.5 8.5t41.5 17.5l15 9l69 -205q-11 -7 -31 -17t-82.5 -26.5t-125.5 -16.5q-144 -1 -230 101q-66 77 -65 185q0 33 6 69l74 420h-211z" />
<glyph unicode="u" horiz-adv-x="1122" d="M186 362l107 609h246l-99 -561q-6 -34 -7 -63q0 -142 163 -142q37 0 73 13.5t60.5 32.5t44 37.5t28.5 31.5l9 14l113 637h245l-170 -971h-229l23 131q-5 -6 -13.5 -16.5t-38 -37.5t-62 -47.5t-83.5 -37.5t-104 -17q-70 0 -132 28t-106 77.5t-64 123.5q-11 42 -11 86 q0 35 7 72z" />
<glyph unicode="v" horiz-adv-x="1036" d="M174 971h264l158 -525l330 525h276l-692 -1012z" />
<glyph unicode="w" horiz-adv-x="1572" d="M178 971h266l111 -488l291 488h225l109 -488l284 488h271l-648 -1020l-190 692l-428 -692z" />
<glyph unicode="x" horiz-adv-x="1075" d="M33 0l446 506l-250 465h275l145 -297l248 297h295l-422 -471l272 -500h-278l-160 322l-270 -322h-301z" />
<glyph unicode="y" horiz-adv-x="1140" d="M-27 -397l115 194q7 -7 19.5 -17.5t50 -28t73.5 -17.5q65 0 103.5 28.5t91.5 120.5l57 101l-297 987h267l198 -707l377 707h279l-680 -1188q-90 -156 -179 -217.5t-210 -61.5q-68 0 -134.5 25t-98.5 49z" />
<glyph unicode="z" horiz-adv-x="1013" d="M61 0l603 741h-439l41 230h864l-604 -742h451l-39 -229h-877z" />
<glyph unicode="{" horiz-adv-x="716" d="M129 438l33 180q35 0 61.5 3.5t57.5 16.5t53 34.5t40.5 60.5t28.5 92l74 426q23 129 102 213t195 84h141l-38 -221q-23 0 -34 -0.5t-29.5 -2.5t-28 -7t-22.5 -14.5t-20.5 -23.5t-15 -34.5t-12.5 -48.5l-72 -401q-14 -77 -41.5 -130.5t-65 -80.5t-73.5 -38.5t-80 -13.5v-8 q212 -8 166 -262l-64 -360q-4 -34 -4.5 -58.5t9.5 -41t21 -27t30.5 -16t36.5 -7.5t40 -2l-38 -221h-111q-120 0 -192 87t-50 210l70 405q9 39 6.5 69.5t-7.5 52t-19.5 37t-28.5 25t-35.5 14.5t-40.5 7t-43 2z" />
<glyph unicode="|" horiz-adv-x="532" d="M63 -471l351 1987h237l-350 -1987h-238z" />
<glyph unicode="}" horiz-adv-x="716" d="M-8 -471l37 221q32 0 47 1t37.5 7.5t34.5 20t23.5 39t18.5 63.5l68 381q14 77 41.5 130.5t65 80.5t73.5 38t80 13v8q-212 8 -166 263l68 381q3 34 3.5 58t-9.5 41t-21 27t-30 15.5t-36 7.5t-40 2l39 221h110q120 0 192 -87t50 -210l-74 -426q-9 -39 -6.5 -69.5t7.5 -52 t19.5 -37t28.5 -25t35.5 -14.5t40.5 -7t43 -2l-33 -180q-35 0 -61.5 -3.5t-57.5 -16.5t-53 -34.5t-40.5 -60.5t-28.5 -92l-74 -426q-22 -126 -99 -201t-194 -75h-139z" />
<glyph unicode="~" horiz-adv-x="1001" d="M152 647q3 9 10 24t34 53t59 67t87.5 53t118.5 24q51 0 114.5 -24t119.5 -48t89 -24q49 0 85.5 29t48.5 57l12 29l166 -121q-3 -9 -9.5 -23.5t-32.5 -52.5t-57.5 -67t-86.5 -52.5t-119 -23.5q-54 0 -119.5 24t-120.5 48t-84 24q-31 0 -57.5 -12t-42.5 -28.5t-27.5 -33.5 t-15.5 -29l-5 -12z" />
<glyph unicode="&#xa1;" horiz-adv-x="626" d="M104 -463l191 1024h233l-170 -1024h-254zM289 834q0 67 47 114t115 47q67 0 114 -46.5t47 -114.5t-47 -115t-114 -47t-114.5 47t-47.5 115z" />
<glyph unicode="&#xa2;" horiz-adv-x="1187" d="M219 430q0 150 78.5 277.5t201.5 201.5t261 84l31 174h129l-33 -178q65 -9 122 -30t91.5 -45t59.5 -46.5t36 -37.5l10 -15l-178 -151q-2 3 -6.5 8.5t-21 20.5t-36 27t-51 24.5t-65.5 17.5l-98 -553q38 6 73.5 19.5t59.5 29.5t42.5 31t26.5 25l9 10l149 -170 q-6 -7 -18 -19t-51.5 -42.5t-83 -53.5t-111.5 -43t-137 -21l-29 -168h-129l31 181q-169 33 -266 156.5t-97 285.5zM473 430q0 -78 39.5 -136t110.5 -79l94 541q-106 -29 -175 -122t-69 -204z" />
<glyph unicode="&#xa3;" horiz-adv-x="1187" d="M106 90q4 8 12 20.5t34.5 46.5t56.5 62.5t78 56.5t98 39q27 25 54.5 76t27.5 96q0 18 -5.5 41.5t-10.5 37.5l-5 14h-253l30 172h160q-53 131 -53 245q0 189 146 325t355 136q94 0 173 -23.5t125 -57t79 -67.5t46 -58l12 -23l-191 -131q-3 5 -9 14t-28.5 31.5t-48 40 t-68.5 31.5t-90 14q-104 0 -180 -64t-76 -168q0 -14 2.5 -30.5t5.5 -30t9.5 -33t10 -31t12.5 -33t12.5 -28.5t13 -28.5t10.5 -24.5q0 -1 1 -3t1 -3h379l-31 -172h-292q8 -33 8 -64q0 -111 -72 -215q34 -12 101.5 -54t111.5 -42q27 0 53 13t43 31.5t30.5 37.5t19.5 32l6 13 l186 -119q-4 -10 -12 -26t-38 -57t-65.5 -72.5t-95.5 -57t-127 -25.5q-66 0 -120.5 18t-86 39.5t-73.5 39.5t-86 18q-41 0 -77.5 -13.5t-58.5 -32.5t-38.5 -38.5t-23.5 -33.5l-7 -13z" />
<glyph unicode="&#xa4;" horiz-adv-x="1187" d="M106 268l173 148q-52 96 -52 205q0 166 115 311l-115 141l160 135l115 -139q125 72 254 72q150 0 268 -90l186 157l129 -155l-188 -160q45 -92 45 -188q0 -183 -125 -328l107 -129l-160 -135l-111 133q-115 -62 -239 -62q-143 0 -254 78l-178 -149zM459 621 q0 -89 59 -148t150 -59q120 0 207.5 85.5t87.5 205.5q0 86 -58 146t-149 60q-118 0 -207.5 -87t-89.5 -203z" />
<glyph unicode="&#xa5;" horiz-adv-x="1187" d="M133 473l31 172h375l-56 143h-295l31 173h197l-183 473h254l238 -641l463 641h270l-350 -473h197l-31 -173h-293l-107 -143h375l-30 -172h-420l-82 -473h-246l82 473h-420z" />
<glyph unicode="&#xa6;" horiz-adv-x="532" d="M63 -471l142 799h237l-141 -799h-238zM272 717l142 799h237l-141 -799h-238z" />
<glyph unicode="&#xa7;" horiz-adv-x="1040" d="M98 -231l164 161q3 -4 9 -11t25.5 -24.5t41 -31t55.5 -24.5t68 -11q65 0 112.5 42t47.5 99q0 42 -38.5 76.5t-144.5 101.5q-2 1 -6 4.5t-6 4.5q-52 34 -89 64.5t-74.5 73.5t-57 96.5t-19.5 115.5q0 104 81 196.5t196 126.5q-127 102 -127 265q0 98 60.5 183t154.5 133 t194 48q72 0 135.5 -17.5t103 -42t68.5 -49t42 -41.5l12 -18l-168 -151q-3 4 -8.5 10t-24 22.5t-39.5 29t-54 22.5t-67 10q-58 0 -109.5 -39.5t-51.5 -99.5q0 -43 38.5 -78t143.5 -103q56 -36 94 -66t77.5 -74t60 -98t20.5 -118q0 -105 -81 -198.5t-196 -129.5 q60 -49 92.5 -117.5t32.5 -142.5q0 -154 -116 -260t-289 -106q-71 0 -134 17t-103 41.5t-70 49t-43 41.5zM440 506q0 -41 27.5 -74.5t103.5 -79.5l9 -6q186 70 186 211q0 40 -28 74t-103 78l-10 4q-82 -28 -133.5 -79.5t-51.5 -127.5z" />
<glyph unicode="&#xa8;" horiz-adv-x="802" d="M252 1272q0 68 47 115t115 47q67 0 114 -47t47 -115t-47 -115t-114 -47q-68 0 -115 47t-47 115zM674 1272q0 68 47 115t115 47q67 0 114 -47t47 -115t-47 -115t-114 -47q-68 0 -115 47t-47 115z" />
<glyph unicode="&#xa9;" horiz-adv-x="1677" d="M213 623q0 168 65.5 322t177.5 266.5t271 179.5t338 67q153 0 277.5 -51t205 -139t123.5 -204t43 -249q0 -169 -64.5 -323t-176 -268t-270 -181.5t-337.5 -67.5q-123 0 -228.5 33.5t-183 93.5t-132.5 141t-82 177.5t-27 202.5zM391 623q0 -132 58 -239t167.5 -169.5 t249.5 -62.5q192 0 347 93t239 244t84 326q0 202 -129.5 334.5t-341.5 132.5q-192 0 -348 -91t-241 -241.5t-85 -326.5zM557 674q0 93 39 177t103 142.5t147 92.5t170 34q66 0 123.5 -14.5t92 -35t60 -41.5t35.5 -35l10 -15l-139 -119q-2 3 -7 8.5t-22 19.5t-36.5 24.5 t-51 19t-65.5 8.5q-106 0 -182 -80.5t-76 -185.5q0 -78 49.5 -129t130.5 -51q37 0 71.5 9t58 21.5t42 25t26.5 21.5l9 9l106 -148q-5 -5 -14.5 -13t-41.5 -29t-66 -37t-86 -29t-105 -13q-178 0 -279.5 105t-101.5 258z" />
<glyph unicode="&#xaa;" horiz-adv-x="665" d="M211 1012q0 96 77.5 153.5t186.5 57.5q50 0 93.5 -15t61.5 -30l19 -15l8 45q9 51 -22.5 76t-95.5 25q-39 0 -87 -9.5t-76 -19.5l-28 -10l-41 139q12 5 34.5 13.5t92 22t137.5 13.5q124 0 192.5 -64.5t49.5 -162.5l-70 -400h-143l14 80q-3 -4 -8.5 -10t-25 -22.5 t-40.5 -29t-54.5 -22.5t-67.5 -10q-84 0 -145.5 49.5t-61.5 145.5zM375 1012q0 -32 27 -47t65 -15q40 0 79.5 18.5t59.5 37.5l19 18l8 45q-55 33 -137 33q-47 0 -84 -22.5t-37 -67.5z" />
<glyph unicode="&#xab;" horiz-adv-x="1083" d="M94 512l441 483l151 -151l-326 -346l222 -365l-187 -127zM545 512l440 483l152 -151l-326 -346l221 -365l-186 -127z" />
<glyph unicode="&#xac;" horiz-adv-x="1380" d="M178 807l41 233h1229l-115 -647h-241l73 414h-987z" />
<glyph unicode="&#xad;" horiz-adv-x="681" d="M135 389l41 234h547l-41 -234h-547z" />
<glyph unicode="&#xae;" horiz-adv-x="870" d="M186 993q0 125 63 235.5t176 178.5t247 68q77 0 140.5 -20t108 -55.5t75 -83.5t45 -103.5t14.5 -116.5q0 -126 -63.5 -235.5t-176.5 -176t-248 -66.5q-95 0 -169.5 30t-120 82.5t-68.5 119t-23 143.5zM322 993q0 -107 63 -174t182 -67q153 0 252 99.5t99 244.5 q0 107 -63.5 175t-182.5 68q-153 0 -251.5 -100.5t-98.5 -245.5zM430 854l70 389h180q61 0 95 -35.5t34 -83.5q0 -51 -35 -86.5t-78 -40.5l78 -143h-123l-59 125h-29l-22 -125h-111zM580 1073h49q23 0 36 2t24 14t11 35q0 35 -55 35h-51z" />
<glyph unicode="&#xaf;" horiz-adv-x="684" d="M217 1171l39 222h659l-38 -222h-660z" />
<glyph unicode="&#xb0;" horiz-adv-x="731" d="M240 1112q0 139 107 242.5t241 103.5q145 0 224 -86.5t79 -208.5q0 -139 -106 -242.5t-240 -103.5q-145 0 -225 86.5t-80 208.5zM418 1112q0 -52 36.5 -86.5t90.5 -34.5q69 0 118.5 50t49.5 122q0 52 -35.5 85.5t-89.5 33.5q-70 0 -120 -49.5t-50 -120.5z" />
<glyph unicode="&#xb1;" d="M78 0l35 209h909l-35 -209h-909zM174 551l37 209h342l47 266h225l-47 -266h342l-37 -209h-342l-45 -252h-225l45 252h-342z" />
<glyph unicode="&#xb2;" horiz-adv-x="741" d="M31 807l379 377l28.5 28.5t37 39t29 37.5t26.5 47.5t8 45.5q0 42 -31.5 68.5t-83.5 26.5q-34 0 -63 -12.5t-45.5 -30.5t-28 -35.5t-15.5 -30.5l-4 -12l-157 61q3 10 10 25.5t33.5 56t58.5 71t89 56t122 25.5q80 0 141.5 -24.5t95 -65t50 -86t16.5 -93.5q0 -114 -96 -217 l-174 -190h227l-31 -168h-622z" />
<glyph unicode="&#xb3;" horiz-adv-x="753" d="M59 991l142 84q1 -5 4.5 -12.5t16 -27t28.5 -34.5t44.5 -27.5t61.5 -12.5q55 0 102.5 28t47.5 84q0 39 -35 60.5t-96 21.5h-45l24 143h31q38 0 70.5 8t59 33.5t26.5 65.5q0 36 -29 58t-78 22q-31 0 -57 -9t-41.5 -22t-26.5 -26t-15 -22l-5 -9l-142 84q4 7 11 18.5 t33 40.5t56.5 51.5t81 41t105.5 18.5q128 0 211.5 -62.5t83.5 -183.5q0 -52 -35 -105t-88 -71q3 -1 9 -4t21 -14.5t26 -27.5t20.5 -45t9.5 -65q0 -87 -52.5 -152.5t-127 -95.5t-156.5 -30q-66 0 -121 20t-86 49t-53 58t-30 49z" />
<glyph unicode="&#xb4;" horiz-adv-x="557" d="M240 1198l397 354l151 -180l-407 -336z" />
<glyph unicode="&#xb5;" horiz-adv-x="1122" d="M39 -471l254 1442h246l-99 -561q-39 -205 156 -205q34 0 69 12.5t59.5 29.5t44.5 34.5t30 30.5l10 12l115 647h245l-170 -971h-229l25 141q-5 -7 -14.5 -18t-41 -39.5t-65.5 -50.5t-86 -40t-105 -18q-59 0 -116 23l-82 -469h-246z" />
<glyph unicode="&#xb6;" horiz-adv-x="1376" d="M236 874q0 268 150.5 414t428.5 146h662l-322 -1819h-229l284 1610h-204l-285 -1610h-227l149 848q-103 0 -196.5 53.5t-152 149t-58.5 208.5z" />
<glyph unicode="&#xb7;" horiz-adv-x="536" d="M231 717q0 67 47.5 114.5t114.5 47.5t114.5 -47.5t47.5 -114.5t-47.5 -114.5t-114.5 -47.5t-114.5 47.5t-47.5 114.5z" />
<glyph unicode="&#xb8;" horiz-adv-x="645" d="M45 -496l207 404l223 -19l-203 -444z" />
<glyph unicode="&#xb9;" horiz-adv-x="661" d="M70 1380l356 258h201l-148 -831h-190l104 592l-227 -164z" />
<glyph unicode="&#xba;" horiz-adv-x="731" d="M240 1112q0 139 108 242.5t242 103.5q138 0 219.5 -85t81.5 -210q0 -98 -51 -179t-131 -125t-168 -44q-138 0 -219.5 86t-81.5 211zM416 1112q0 -51 35.5 -86t89.5 -35q70 0 122 51t52 121q0 51 -35.5 85t-89.5 34q-70 0 -122 -50t-52 -120z" />
<glyph unicode="&#xbb;" horiz-adv-x="1083" d="M111 164l329 350l-221 344l182 127l301 -493l-434 -486zM561 164l330 350l-221 344l182 127l305 -504l-438 -475z" />
<glyph unicode="&#xbc;" horiz-adv-x="1699" d="M246 1176l356 258h201l-148 -832h-190l104 592l-227 -164zM373 18l1222 1483l105 -90l-1225 -1483zM946 160l545 671h201l-90 -512h102l-29 -159h-102l-29 -160h-176l29 160h-451zM1253 319h172l48 275z" />
<glyph unicode="&#xbd;" horiz-adv-x="1699" d="M225 1176l357 258h200l-147 -832h-191l105 592l-227 -164zM250 18l1223 1483l104 -90l-1225 -1483zM981 0l379 377l28.5 28.5t37 39t29 37.5t26.5 47.5t8 45.5q0 42 -31.5 68.5t-83.5 26.5q-34 0 -63 -12.5t-45 -30t-27.5 -35.5t-15.5 -30l-4 -13l-158 61q3 10 10 25.5 t33.5 56t58.5 71t89 56t122 25.5q80 0 141.5 -24.5t95 -65t50 -86t16.5 -93.5q0 -114 -96 -217l-174 -190h227l-30 -168h-623z" />
<glyph unicode="&#xbe;" horiz-adv-x="1699" d="M219 786l141 84l5 -12.5t16 -27t29 -34.5t44.5 -27.5t61.5 -12.5q55 0 102.5 28t47.5 84q0 39 -35 60.5t-96 21.5h-46l25 144h31q28 0 52.5 4.5t49 15.5t39 33t14.5 53q0 36 -28.5 58t-77.5 22q-31 0 -57 -9t-41.5 -22t-26.5 -26t-15 -22l-5 -9l-142 84q4 7 11 18.5 t33 40.5t56.5 51.5t81 41t105.5 18.5q128 0 211.5 -62.5t83.5 -183.5q0 -52 -35 -105t-88 -71q3 -1 9 -4t21 -14.5t26 -27.5t20.5 -45t9.5 -65q0 -87 -52.5 -152.5t-127 -95.5t-156.5 -30q-66 0 -121 20t-86 49t-53 58t-30 49zM391 18l1223 1483l104 -90l-1224 -1483z M946 160l545 671h201l-90 -512h102l-29 -159h-102l-29 -160h-176l29 160h-451zM1253 319h172l48 275z" />
<glyph unicode="&#xbf;" horiz-adv-x="1001" d="M61 -104q0 121 73 221t228 198q32 20 51 35.5t28.5 32.5t12.5 28t7 35l18 105h246l-27 -152q-8 -46 -17 -73.5t-20 -50.5t-37 -44.5t-53.5 -40.5t-83.5 -53q-41 -25 -67 -44.5t-54 -49t-41.5 -66t-13.5 -81.5q0 -64 48 -107t126 -43q55 0 102.5 20.5t76 49t49.5 57.5 t29 49l8 21l206 -101q-3 -7 -8 -19t-25 -46t-43.5 -65t-64 -69t-86 -65.5t-109.5 -46t-135 -18.5q-190 0 -307 102.5t-117 280.5zM481 834q0 67 47 114t115 47t115 -47t47 -114q0 -68 -47.5 -115t-114.5 -47t-114.5 47t-47.5 115z" />
<glyph unicode="&#xc0;" horiz-adv-x="1388" d="M12 0l809 1434h250l305 -1434h-241l-72 340h-598l-191 -340h-262zM592 565h422l-115 553zM684 1896l180 152l307 -377l-172 -139z" />
<glyph unicode="&#xc1;" horiz-adv-x="1388" d="M12 0l809 1434h250l305 -1434h-241l-72 340h-598l-191 -340h-262zM592 565h422l-115 553zM727 1686l397 354l152 -180l-408 -336z" />
<glyph unicode="&#xc2;" horiz-adv-x="1388" d="M12 0l809 1434h250l305 -1434h-241l-72 340h-598l-191 -340h-262zM567 1694l408 268l371 -287l-150 -155l-233 198l-273 -194zM592 565h422l-115 553z" />
<glyph unicode="&#xc3;" horiz-adv-x="1388" d="M12 0l809 1434h250l305 -1434h-241l-72 340h-598l-191 -340h-262zM522 1708q3 9 10 23.5t33 52t57 66t84 52t113 23.5q52 0 106 -30t100 -59.5t77 -29.5q25 0 47.5 13.5t37.5 32t26.5 37.5t16.5 33l5 13l162 -125q-3 -9 -10 -24t-32 -53t-55 -67t-81.5 -53t-110.5 -24 q-51 0 -105.5 29.5t-101.5 58.5t-78 29q-39 0 -73 -29t-48 -57l-14 -29zM592 565h422l-115 553z" />
<glyph unicode="&#xc4;" horiz-adv-x="1388" d="M12 0l809 1434h250l305 -1434h-241l-72 340h-598l-191 -340h-262zM592 565h422l-115 553zM606 1759q0 67 47 114.5t115 47.5t115 -47.5t47 -114.5t-47 -114.5t-115 -47.5t-115 47.5t-47 114.5zM1028 1759q0 67 47 114.5t115 47.5t115 -47.5t47 -114.5t-47 -114.5 t-115 -47.5t-115 47.5t-47 114.5z" />
<glyph unicode="&#xc5;" horiz-adv-x="1388" d="M12 0l809 1434h250l305 -1434h-241l-72 340h-598l-191 -340h-262zM592 565h422l-115 553zM723 1749q0 107 83 185.5t189 78.5q110 0 173 -67.5t63 -159.5q0 -107 -84.5 -185.5t-190.5 -78.5q-109 0 -171 67t-62 160zM864 1749q0 -39 25.5 -65.5t66.5 -26.5 q57 0 95.5 37.5t38.5 91.5q0 40 -27 66t-68 26q-57 0 -94 -37t-37 -92z" />
<glyph unicode="&#xc6;" horiz-adv-x="1873" d="M12 0l1098 1434h918l-41 -230h-500l-62 -352h451l-41 -234h-451l-69 -389h512l-39 -229h-758l51 293h-557l-225 -293h-287zM700 526h422l125 713z" />
<glyph unicode="&#xc7;" horiz-adv-x="1384" d="M182 637q0 169 68.5 322t182.5 262t266 173t313 64q102 0 194.5 -23t151.5 -56t103 -66.5t63 -56.5l20 -23l-162 -162q-5 6 -15.5 17t-46.5 38t-76 48t-103 38t-129 17q-121 0 -229 -48.5t-183.5 -129t-119.5 -189t-44 -225.5q0 -88 25 -165t73 -137t124.5 -95t172.5 -35 q71 0 139.5 18t116 44t85 52t55.5 44l18 18l144 -180q-9 -9 -26.5 -24.5t-74 -54.5t-117.5 -68.5t-154 -54t-186 -24.5q-126 0 -233 35t-182.5 97t-129 146t-79 181t-25.5 203zM438 -506l207 404l223 -19l-202 -444z" />
<glyph unicode="&#xc8;" horiz-adv-x="1118" d="M152 0l251 1434h869l-41 -234h-623l-61 -348h573l-41 -234h-573l-68 -385h635l-41 -233h-880zM532 1896l181 152l307 -377l-172 -139z" />
<glyph unicode="&#xc9;" horiz-adv-x="1118" d="M152 0l251 1434h869l-41 -234h-623l-61 -348h573l-41 -234h-573l-68 -385h635l-41 -233h-880zM649 1686l398 354l151 -180l-407 -336z" />
<glyph unicode="&#xca;" horiz-adv-x="1118" d="M152 0l251 1434h869l-41 -234h-623l-61 -348h573l-41 -234h-573l-68 -385h635l-41 -233h-880zM465 1694l407 268l371 -287l-149 -155l-234 198l-272 -194z" />
<glyph unicode="&#xcb;" horiz-adv-x="1118" d="M152 0l251 1434h869l-41 -234h-623l-61 -348h573l-41 -234h-573l-68 -385h635l-41 -233h-880zM504 1759q0 67 47 114.5t115 47.5q67 0 114 -47t47 -115t-47 -115t-114 -47q-68 0 -115 47.5t-47 114.5zM926 1759q0 68 47 115t114 47t114.5 -47.5t47.5 -114.5t-47.5 -114.5 t-114.5 -47.5t-114 47t-47 115z" />
<glyph unicode="&#xcc;" horiz-adv-x="606" d="M180 0l252 1434h246l-252 -1434h-246zM219 1896l180 152l308 -377l-172 -139z" />
<glyph unicode="&#xcd;" horiz-adv-x="606" d="M174 0l252 1434h246l-252 -1434h-246zM342 1686l397 354l152 -180l-408 -336z" />
<glyph unicode="&#xce;" horiz-adv-x="606" d="M180 0l252 1434h246l-252 -1434h-246zM193 1714l407 268l371 -286l-150 -156l-233 199l-273 -195z" />
<glyph unicode="&#xcf;" horiz-adv-x="606" d="M152 0l251 1434h246l-252 -1434h-245zM184 1759q0 67 47 114.5t115 47.5t115 -47.5t47 -114.5t-47 -114.5t-115 -47.5t-115 47.5t-47 114.5zM606 1759q0 67 47 114.5t115 47.5t115 -47.5t47 -114.5t-47 -114.5t-115 -47.5t-115 47.5t-47 114.5z" />
<glyph unicode="&#xd0;" horiz-adv-x="1449" d="M133 625l39 213h184l105 596h463q179 0 316 -84t208.5 -223.5t71.5 -309.5q0 -130 -33 -250.5t-100 -223.5t-160 -179.5t-220 -120t-274 -43.5h-524l108 625h-184zM496 233h221q104 0 193.5 32t153.5 87.5t109.5 129.5t68 159.5t22.5 175.5q0 168 -100 275.5t-277 107.5 h-221l-64 -362h414l-39 -213h-414z" />
<glyph unicode="&#xd1;" horiz-adv-x="1486" d="M152 0l251 1434h222l540 -1004l176 1004h246l-252 -1434h-221l-543 1001l-174 -1001h-245zM578 1708q3 9 10 23.5t33 52t57 66t83.5 52t112.5 23.5q52 0 106 -30t100 -59.5t77 -29.5q25 0 47.5 13.5t37.5 32t26.5 37.5t16.5 33l5 13l162 -125q-3 -9 -10 -24t-32 -53 t-55 -67t-81.5 -53t-110.5 -24q-51 0 -105.5 29.5t-101 58.5t-77.5 29q-39 0 -73 -29t-48 -57l-15 -29z" />
<glyph unicode="&#xd2;" horiz-adv-x="1589" d="M182 625q0 164 66.5 317t177.5 266.5t264.5 181.5t319.5 68q154 0 278 -50.5t204 -138.5t122.5 -205t42.5 -253q0 -164 -66.5 -318t-177.5 -267.5t-264.5 -182t-319.5 -68.5q-154 0 -278 51t-204 139.5t-122.5 206t-42.5 253.5zM434 625q0 -177 106 -296.5t289 -119.5 q125 0 234.5 52.5t183 138t116 193t42.5 218.5q0 177 -106 295.5t-289 118.5q-125 0 -234.5 -52.5t-183 -137t-116 -192t-42.5 -218.5zM844 1896l180 152l307 -377l-172 -139z" />
<glyph unicode="&#xd3;" horiz-adv-x="1589" d="M182 625q0 164 66.5 317t177.5 266.5t264.5 181.5t319.5 68q154 0 278 -50.5t204 -138.5t122.5 -205t42.5 -253q0 -164 -66.5 -318t-177.5 -267.5t-264.5 -182t-319.5 -68.5q-154 0 -278 51t-204 139.5t-122.5 206t-42.5 253.5zM434 625q0 -177 106 -296.5t289 -119.5 q125 0 234.5 52.5t183 138t116 193t42.5 218.5q0 177 -106 295.5t-289 118.5q-125 0 -234.5 -52.5t-183 -137t-116 -192t-42.5 -218.5zM731 1686l397 354l152 -180l-408 -336z" />
<glyph unicode="&#xd4;" horiz-adv-x="1589" d="M182 625q0 164 66.5 317t177.5 266.5t264.5 181.5t319.5 68q154 0 278 -50.5t204 -138.5t122.5 -205t42.5 -253q0 -164 -66.5 -318t-177.5 -267.5t-264.5 -182t-319.5 -68.5q-154 0 -278 51t-204 139.5t-122.5 206t-42.5 253.5zM434 625q0 -177 106 -296.5t289 -119.5 q125 0 234.5 52.5t183 138t116 193t42.5 218.5q0 177 -106 295.5t-289 118.5q-125 0 -234.5 -52.5t-183 -137t-116 -192t-42.5 -218.5zM676 1714l407 268l371 -286l-149 -156l-234 199l-272 -195z" />
<glyph unicode="&#xd5;" horiz-adv-x="1589" d="M182 625q0 164 66.5 317t177.5 266.5t264.5 181.5t319.5 68q154 0 278 -50.5t204 -138.5t122.5 -205t42.5 -253q0 -164 -66.5 -318t-177.5 -267.5t-264.5 -182t-319.5 -68.5q-154 0 -278 51t-204 139.5t-122.5 206t-42.5 253.5zM434 625q0 -177 106 -296.5t289 -119.5 q125 0 234.5 52.5t183 138t116 193t42.5 218.5q0 177 -106 295.5t-289 118.5q-125 0 -234.5 -52.5t-183 -137t-116 -192t-42.5 -218.5zM641 1708q3 9 10 23.5t33 52t57 66t84 52t113 23.5q52 0 106 -30t100 -59.5t77 -29.5q25 0 47.5 13.5t37.5 32t26.5 37.5t16.5 33l5 13 l162 -125q-3 -9 -10 -24t-32 -53t-55 -67t-81.5 -53t-110.5 -24q-51 0 -105.5 29.5t-101.5 58.5t-78 29q-39 0 -73 -29t-48 -57l-14 -29z" />
<glyph unicode="&#xd6;" horiz-adv-x="1589" d="M182 625q0 164 66.5 317t177.5 266.5t264.5 181.5t319.5 68q154 0 278 -50.5t204 -138.5t122.5 -205t42.5 -253q0 -164 -66.5 -318t-177.5 -267.5t-264.5 -182t-319.5 -68.5q-154 0 -278 51t-204 139.5t-122.5 206t-42.5 253.5zM434 625q0 -177 106 -296.5t289 -119.5 q125 0 234.5 52.5t183 138t116 193t42.5 218.5q0 177 -106 295.5t-289 118.5q-125 0 -234.5 -52.5t-183 -137t-116 -192t-42.5 -218.5zM690 1759q0 67 47 114.5t115 47.5t115 -47.5t47 -114.5t-47 -114.5t-115 -47.5t-115 47.5t-47 114.5zM1112 1759q0 67 47 114.5t115 47.5 t115 -47.5t47 -114.5t-47 -114.5t-115 -47.5t-115 47.5t-47 114.5z" />
<glyph unicode="&#xd7;" d="M88 215l373 317l-252 308l180 151l252 -307l373 317l143 -172l-373 -317l252 -307l-178 -152l-252 307l-373 -317z" />
<glyph unicode="&#xd8;" horiz-adv-x="1605" d="M133 31l180 176q-131 172 -131 418q0 164 66.5 317t177.5 266.5t264.5 181.5t319.5 68q263 0 434 -145l188 186l90 -96l-190 -186q125 -169 125 -406q0 -164 -66.5 -318t-177.5 -267.5t-264.5 -182t-319.5 -68.5q-256 0 -423 138l-183 -179zM434 625q0 -137 62 -240 l768 754q-102 86 -254 86q-125 0 -234.5 -52.5t-183 -137t-116 -192t-42.5 -218.5zM584 287q100 -78 245 -78q125 0 234.5 52.5t183 138t116 193t42.5 218.5q0 123 -57 225z" />
<glyph unicode="&#xd9;" horiz-adv-x="1409" d="M242 510l164 924h245q-73 -421 -157 -893q-28 -157 34 -244.5t213 -87.5t245.5 91.5t123.5 250.5l156 883h245l-163 -924q-43 -244 -203 -389.5t-414 -145.5q-272 0 -401.5 147t-87.5 388zM659 1896l181 152l307 -377l-172 -139z" />
<glyph unicode="&#xda;" horiz-adv-x="1409" d="M240 510l163 924h246q-73 -421 -157 -893q-28 -157 34 -244.5t213 -87.5t245.5 91.5t123.5 250.5l156 883h245l-163 -924q-43 -244 -203 -389.5t-414 -145.5q-272 0 -401.5 147t-87.5 388zM756 1686l397 354l152 -180l-408 -336z" />
<glyph unicode="&#xdb;" horiz-adv-x="1409" d="M240 510l163 924h246q-73 -421 -157 -893q-28 -157 34 -244.5t213 -87.5t245.5 91.5t123.5 250.5l156 883h245l-163 -924q-43 -244 -203 -389.5t-414 -145.5q-272 0 -401.5 147t-87.5 388zM586 1714l407 268l371 -286l-150 -156l-233 199l-272 -195z" />
<glyph unicode="&#xdc;" horiz-adv-x="1409" d="M240 510l163 924h246q-73 -421 -157 -893q-28 -157 34 -244.5t213 -87.5t245.5 91.5t123.5 250.5l156 883h245l-163 -924q-43 -244 -203 -389.5t-414 -145.5q-272 0 -401.5 147t-87.5 388zM600 1759q0 67 47 114.5t115 47.5t115 -47.5t47 -114.5t-47 -114.5t-115 -47.5 t-115 47.5t-47 114.5zM1022 1759q0 67 47 114.5t115 47.5t115 -47.5t47 -114.5t-47 -114.5t-115 -47.5t-115 47.5t-47 114.5z" />
<glyph unicode="&#xdd;" horiz-adv-x="1257" d="M268 1434h258l236 -639l459 639h272l-643 -869l-98 -565h-246l98 565zM680 1686l397 354l152 -180l-408 -336z" />
<glyph unicode="&#xde;" horiz-adv-x="1116" d="M152 0l251 1434h246l-41 -228h170q206 0 325.5 -106t119.5 -285q0 -100 -31.5 -182t-85.5 -137.5t-128.5 -93.5t-158.5 -55t-178 -17h-186l-58 -330h-245zM496 559h176q301 0 301 256q0 90 -65.5 126t-182.5 36h-156z" />
<glyph unicode="&#xdf;" horiz-adv-x="1230" d="M131 0q103 581 197 1112q38 216 166 338.5t335 122.5q126 0 223.5 -45t155.5 -137.5t58 -219.5q0 -104 -65.5 -200.5t-164.5 -126.5q9 -2 23 -6.5t50.5 -27.5t64 -55t50.5 -94t23 -139q0 -254 -163 -400.5t-459 -146.5h-93l41 230h41q379 0 379 317q0 199 -311 199 l37 217q51 1 100.5 15t93 40.5t70.5 72.5t27 105q0 65 -46.5 116.5t-134.5 51.5q-105 0 -172 -60.5t-86 -166.5l-194 -1112h-246z" />
<glyph unicode="&#xe0;" horiz-adv-x="1097" d="M125 281q0 79 36 145t96 108.5t135 65.5t155 23q48 0 93.5 -8t77.5 -20t56.5 -24t36.5 -20l12 -8l13 65q8 46 -5.5 79.5t-43 52.5t-66 27.5t-78.5 8.5q-63 0 -137 -16t-117 -32l-43 -15l-63 209q22 8 59.5 20t141.5 32.5t194 20.5q209 0 321.5 -103t83.5 -269l-108 -623 h-227l20 123q-5 -6 -15 -16t-43 -35.5t-68 -45t-89 -35.5t-109 -16q-146 0 -232.5 87.5t-86.5 218.5zM379 289q0 -40 25.5 -66t58.5 -34.5t72 -8.5q41 0 81.5 11.5t68.5 28t50.5 33.5t33.5 29l11 11l19 100q-9 5 -26 13.5t-72.5 22t-114.5 13.5q-46 0 -91 -14t-80.5 -50.5 t-35.5 -88.5zM504 1468l180 152l307 -377l-172 -139z" />
<glyph unicode="&#xe1;" horiz-adv-x="1097" d="M125 281q0 79 36 145t96 108.5t135 65.5t155 23q48 0 93.5 -8t77.5 -20t56.5 -24t36.5 -20l12 -8l13 65q8 46 -5.5 79.5t-43 52.5t-66 27.5t-78.5 8.5q-63 0 -137 -16t-117 -32l-43 -15l-63 209q22 8 59.5 20t141.5 32.5t194 20.5q209 0 321.5 -103t83.5 -269l-108 -623 h-227l20 123q-5 -6 -15 -16t-43 -35.5t-68 -45t-89 -35.5t-109 -16q-146 0 -232.5 87.5t-86.5 218.5zM379 289q0 -40 25.5 -66t58.5 -34.5t72 -8.5q41 0 81.5 11.5t68.5 28t50.5 33.5t33.5 29l11 11l19 100q-9 5 -26 13.5t-72.5 22t-114.5 13.5q-46 0 -91 -14t-80.5 -50.5 t-35.5 -88.5zM492 1260l397 354l151 -180l-407 -336z" />
<glyph unicode="&#xe2;" horiz-adv-x="1097" d="M125 281q0 79 36 145t96 108.5t135 65.5t155 23q48 0 93.5 -8t77.5 -20t56.5 -24t36.5 -20l12 -8l13 65q8 46 -5.5 79.5t-43 52.5t-66 27.5t-78.5 8.5q-63 0 -137 -16t-117 -32l-43 -15l-63 209q22 8 59.5 20t141.5 32.5t194 20.5q209 0 321.5 -103t83.5 -269l-108 -623 h-227l20 123q-5 -6 -15 -16t-43 -35.5t-68 -45t-89 -35.5t-109 -16q-146 0 -232.5 87.5t-86.5 218.5zM348 1245l408 268l370 -286l-149 -156l-234 199l-272 -195zM379 289q0 -40 25.5 -66t58.5 -34.5t72 -8.5q41 0 81.5 11.5t68.5 28t50.5 33.5t33.5 29l11 11l19 100 q-9 5 -26 13.5t-72.5 22t-114.5 13.5q-46 0 -91 -14t-80.5 -50.5t-35.5 -88.5z" />
<glyph unicode="&#xe3;" horiz-adv-x="1097" d="M125 281q0 79 36 145t96 108.5t135 65.5t155 23q48 0 93.5 -8t77.5 -20t56.5 -24t36.5 -20l12 -8l13 65q8 46 -5.5 79.5t-43 52.5t-66 27.5t-78.5 8.5q-63 0 -137 -16t-117 -32l-43 -15l-63 209q22 8 59.5 20t141.5 32.5t194 20.5q209 0 321.5 -103t83.5 -269l-108 -623 h-227l20 123q-5 -6 -15 -16t-43 -35.5t-68 -45t-89 -35.5t-109 -16q-146 0 -232.5 87.5t-86.5 218.5zM338 1255q3 9 10 23.5t33 52t57 66.5t84 52.5t113 23.5q52 0 106 -30t100 -59.5t77 -29.5q25 0 47.5 13.5t37.5 32t26.5 37.5t16.5 33l5 13l161 -125q-3 -9 -9.5 -24 t-31.5 -53t-55 -67t-81.5 -53t-110.5 -24q-40 0 -83.5 18t-74.5 40t-66 40t-61 18q-25 0 -48 -11.5t-38 -28.5t-26.5 -34t-16.5 -29l-6 -11zM379 289q0 -40 25.5 -66t58.5 -34.5t72 -8.5q41 0 81.5 11.5t68.5 28t50.5 33.5t33.5 29l11 11l19 100q-9 5 -26 13.5t-72.5 22 t-114.5 13.5q-46 0 -91 -14t-80.5 -50.5t-35.5 -88.5z" />
<glyph unicode="&#xe4;" horiz-adv-x="1097" d="M125 281q0 79 36 145t96 108.5t135 65.5t155 23q48 0 93.5 -8t77.5 -20t56.5 -24t36.5 -20l12 -8l13 65q8 46 -5.5 79.5t-43 52.5t-66 27.5t-78.5 8.5q-63 0 -137 -16t-117 -32l-43 -15l-63 209q22 8 59.5 20t141.5 32.5t194 20.5q209 0 321.5 -103t83.5 -269l-108 -623 h-227l20 123q-5 -6 -15 -16t-43 -35.5t-68 -45t-89 -35.5t-109 -16q-146 0 -232.5 87.5t-86.5 218.5zM377 1292q0 68 47.5 115t114.5 47t114 -47t47 -115t-47 -115t-114 -47t-114.5 47t-47.5 115zM379 289q0 -40 25.5 -66t58.5 -34.5t72 -8.5q41 0 81.5 11.5t68.5 28 t50.5 33.5t33.5 29l11 11l19 100q-9 5 -26 13.5t-72.5 22t-114.5 13.5q-46 0 -91 -14t-80.5 -50.5t-35.5 -88.5zM799 1292q0 68 47.5 115t114.5 47t114 -47t47 -115t-47 -115t-114 -47t-114.5 47t-47.5 115z" />
<glyph unicode="&#xe5;" horiz-adv-x="1097" d="M125 281q0 79 36 145t96 108.5t135 65.5t155 23q48 0 93.5 -8t77.5 -20t56.5 -24t36.5 -20l12 -8l13 65q8 46 -5.5 79.5t-43 52.5t-66 27.5t-78.5 8.5q-63 0 -137 -16t-117 -32l-43 -15l-63 209q22 8 59.5 20t141.5 32.5t194 20.5q209 0 321.5 -103t83.5 -269l-108 -623 h-227l20 123q-5 -6 -15 -16t-43 -35.5t-68 -45t-89 -35.5t-109 -16q-146 0 -232.5 87.5t-86.5 218.5zM379 289q0 -40 25.5 -66t58.5 -34.5t72 -8.5q41 0 81.5 11.5t68.5 28t50.5 33.5t33.5 29l11 11l19 100q-9 5 -26 13.5t-72.5 22t-114.5 13.5q-46 0 -91 -14t-80.5 -50.5 t-35.5 -88.5zM506 1307q0 107 83 185.5t189 78.5q110 0 173 -67.5t63 -160.5q0 -107 -84.5 -185.5t-190.5 -78.5q-109 0 -171 67.5t-62 160.5zM647 1307q0 -39 26 -66t66 -27q57 0 95 37.5t38 91.5q0 40 -26.5 66.5t-67.5 26.5q-56 0 -93.5 -37t-37.5 -92z" />
<glyph unicode="&#xe6;" horiz-adv-x="1771" d="M123 276q0 58 24 110.5t69 94.5t119 67t167 25h344q2 10 2 29q0 78 -60.5 123t-158.5 45q-67 0 -143 -16t-119 -32l-43 -15l-66 211q22 9 60.5 21.5t141.5 34t189 21.5q262 0 348 -147q72 70 168 108.5t199 38.5q204 0 326 -112t122 -297q0 -59 -26 -189h-729 q2 -72 68 -134t173 -62q48 0 94 10t78 24.5t57.5 29t37.5 24.5l12 10l115 -188q-6 -6 -18.5 -15t-52.5 -32.5t-83 -41.5t-108.5 -32.5t-131.5 -14.5q-266 0 -401 191q-68 -85 -172 -138t-233 -53q-172 0 -270.5 83t-98.5 218zM373 293q0 -100 149 -100q127 0 207 58.5 t96 145.5h-303q-149 0 -149 -104zM1083 575h490q0 3 1 9.5t1 9.5q0 70 -53.5 124t-157.5 54q-107 0 -182 -61t-99 -136z" />
<glyph unicode="&#xe7;" horiz-adv-x="1017" d="M133 430q0 157 83.5 288.5t216.5 204t280 72.5q83 0 155.5 -18.5t116 -45t75.5 -53t45 -44.5l13 -19l-176 -149q-3 4 -9 11t-27.5 24t-45.5 30t-64 24t-83 11q-133 0 -229.5 -102t-96.5 -234q0 -96 63.5 -160.5t163.5 -64.5q46 0 90.5 11t74.5 27t53 32t34 27l11 11 l133 -186q-6 -6 -18.5 -16.5t-52.5 -36.5t-83 -46t-109 -36.5t-133 -16.5q-114 0 -206.5 37t-152 100t-91 144.5t-31.5 173.5zM266 -506l207 404l223 -19l-202 -444z" />
<glyph unicode="&#xe8;" horiz-adv-x="1091" d="M133 436q0 116 47 221.5t123 178.5t175 116t202 43q204 0 326 -112t122 -297q0 -59 -26 -189h-729q2 -72 68 -134t173 -62q48 0 94 10t78 24.5t57.5 29t37.5 24.5l12 10l115 -188q-6 -6 -18.5 -15t-52.5 -32.5t-83 -41.5t-108.5 -32.5t-131.5 -14.5q-118 0 -212 37.5 t-151.5 102.5t-87.5 146.5t-30 174.5zM399 575h490q0 3 1 9.5t1 9.5q0 70 -53.5 124t-157.5 54q-107 0 -182 -61t-99 -136zM502 1448l180 151l307 -376l-172 -140z" />
<glyph unicode="&#xe9;" horiz-adv-x="1091" d="M133 436q0 116 47 221.5t123 178.5t175 116t202 43q204 0 326 -112t122 -297q0 -59 -26 -189h-729q2 -72 68 -134t173 -62q48 0 94 10t78 24.5t57.5 29t37.5 24.5l12 10l115 -188q-6 -6 -18.5 -15t-52.5 -32.5t-83 -41.5t-108.5 -32.5t-131.5 -14.5q-118 0 -212 37.5 t-151.5 102.5t-87.5 146.5t-30 174.5zM399 575h490q0 3 1 9.5t1 9.5q0 70 -53.5 124t-157.5 54q-107 0 -182 -61t-99 -136zM494 1239l397 354l151 -180l-407 -336z" />
<glyph unicode="&#xea;" horiz-adv-x="1091" d="M133 436q0 116 47 221.5t123 178.5t175 116t202 43q204 0 326 -112t122 -297q0 -59 -26 -189h-729q2 -72 68 -134t173 -62q48 0 94 10t78 24.5t57.5 29t37.5 24.5l12 10l115 -188q-6 -6 -18.5 -15t-52.5 -32.5t-83 -41.5t-108.5 -32.5t-131.5 -14.5q-118 0 -212 37.5 t-151.5 102.5t-87.5 146.5t-30 174.5zM346 1245l408 268l370 -286l-149 -156l-234 199l-272 -195zM399 575h490q0 3 1 9.5t1 9.5q0 70 -53.5 124t-157.5 54q-107 0 -182 -61t-99 -136z" />
<glyph unicode="&#xeb;" horiz-adv-x="1091" d="M133 436q0 116 47 221.5t123 178.5t175 116t202 43q204 0 326 -112t122 -297q0 -59 -26 -189h-729q2 -72 68 -134t173 -62q48 0 94 10t78 24.5t57.5 29t37.5 24.5l12 10l115 -188q-6 -6 -18.5 -15t-52.5 -32.5t-83 -41.5t-108.5 -32.5t-131.5 -14.5q-118 0 -212 37.5 t-151.5 102.5t-87.5 146.5t-30 174.5zM375 1292q0 68 47.5 115t114.5 47t114 -47t47 -115t-47 -115t-114 -47t-114.5 47t-47.5 115zM399 575h490q0 3 1 9.5t1 9.5q0 70 -53.5 124t-157.5 54q-107 0 -182 -61t-99 -136zM797 1292q0 68 47 115t114 47q68 0 115 -47t47 -115 t-47 -115t-115 -47q-67 0 -114 47t-47 115z" />
<glyph unicode="&#xec;" horiz-adv-x="569" d="M158 0l166 946h245l-166 -946h-245zM190 1450l181 152l307 -377l-172 -140z" />
<glyph unicode="&#xed;" horiz-adv-x="569" d="M150 0l165 946h246l-166 -946h-245zM252 1239l397 354l152 -180l-408 -336z" />
<glyph unicode="&#xee;" horiz-adv-x="630" d="M125 1272l407 268l371 -287l-149 -155l-234 198l-272 -194zM193 0l165 946h246l-166 -946h-245z" />
<glyph unicode="&#xef;" horiz-adv-x="569" d="M98 1292q0 68 47 115t115 47t115 -47t47 -115t-47 -115t-115 -47t-115 47t-47 115zM162 0l166 946h245l-165 -946h-246zM520 1292q0 68 47 115t115 47t115 -47t47 -115t-47 -115t-115 -47t-115 47t-47 115z" />
<glyph unicode="&#xf0;" horiz-adv-x="1181" d="M133 430q0 112 46 216.5t123 181t183 122t220 45.5q53 0 116 -13.5t103 -41.5q-52 135 -170 248l-312 -131l-63 151l227 99q-42 27 -176 98l105 190q208 -111 305 -188l280 121l66 -150l-215 -94q112 -121 168.5 -258t56.5 -328q0 -110 -23 -214t-71.5 -196.5 t-117.5 -162t-166.5 -110t-211.5 -40.5q-112 0 -203.5 37t-149.5 100t-89 144.5t-31 173.5zM383 430q0 -98 59.5 -161.5t163.5 -63.5q127 0 224.5 99.5t97.5 236.5q0 98 -59.5 161.5t-163.5 63.5q-127 0 -224.5 -99.5t-97.5 -236.5z" />
<glyph unicode="&#xf1;" horiz-adv-x="1122" d="M123 0l170 971h229l-24 -142q5 7 14 18t40.5 39.5t65 50.5t85 40t104.5 18q151 0 240 -108.5t59 -278.5l-107 -608h-245l98 567q18 100 -22.5 149.5t-124.5 49.5q-56 0 -111.5 -29t-83.5 -57l-27 -29l-114 -651h-246zM338 1255q3 9 10 23.5t33 52t57 66.5t84 52.5 t113 23.5q52 0 106 -30t100 -59.5t77 -29.5q25 0 47.5 13.5t37.5 32t26.5 37.5t16.5 33l5 13l161 -125q-3 -9 -9.5 -24t-31.5 -53t-55 -67t-81.5 -53t-110.5 -24q-40 0 -83.5 18t-74.5 40t-66 40t-61 18q-25 0 -48 -11.5t-38 -28.5t-26.5 -34t-16.5 -29l-6 -11z" />
<glyph unicode="&#xf2;" horiz-adv-x="1150" d="M133 430q0 118 50 224.5t130 180t182.5 117t206.5 43.5q116 0 209.5 -36.5t152.5 -99.5t90.5 -144.5t31.5 -173.5q0 -117 -50 -223.5t-130.5 -180.5t-183 -118t-206.5 -44q-116 0 -209.5 37t-152.5 100t-90 144.5t-31 173.5zM387 430q0 -98 60 -161.5t169 -63.5 q136 0 226 100.5t90 235.5q0 98 -60.5 161.5t-169.5 63.5q-136 0 -225.5 -100.5t-89.5 -235.5zM487 1450l181 152l307 -377l-172 -140z" />
<glyph unicode="&#xf3;" horiz-adv-x="1150" d="M133 430q0 118 50 224.5t130 180t182.5 117t206.5 43.5q116 0 209.5 -36.5t152.5 -99.5t90.5 -144.5t31.5 -173.5q0 -117 -50 -223.5t-130.5 -180.5t-183 -118t-206.5 -44q-116 0 -209.5 37t-152.5 100t-90 144.5t-31 173.5zM387 430q0 -98 60 -161.5t169 -63.5 q136 0 226 100.5t90 235.5q0 98 -60.5 161.5t-169.5 63.5q-136 0 -225.5 -100.5t-89.5 -235.5zM537 1239l397 354l151 -180l-407 -336z" />
<glyph unicode="&#xf4;" horiz-adv-x="1150" d="M133 430q0 118 50 224.5t130 180t182.5 117t206.5 43.5q116 0 209.5 -36.5t152.5 -99.5t90.5 -144.5t31.5 -173.5q0 -117 -50 -223.5t-130.5 -180.5t-183 -118t-206.5 -44q-116 0 -209.5 37t-152.5 100t-90 144.5t-31 173.5zM365 1245l407 268l371 -286l-150 -156 l-233 199l-273 -195zM387 430q0 -98 60 -161.5t169 -63.5q136 0 226 100.5t90 235.5q0 98 -60.5 161.5t-169.5 63.5q-136 0 -225.5 -100.5t-89.5 -235.5z" />
<glyph unicode="&#xf5;" horiz-adv-x="1150" d="M133 430q0 118 50 224.5t130 180t182.5 117t206.5 43.5q116 0 209.5 -36.5t152.5 -99.5t90.5 -144.5t31.5 -173.5q0 -117 -50 -223.5t-130.5 -180.5t-183 -118t-206.5 -44q-116 0 -209.5 37t-152.5 100t-90 144.5t-31 173.5zM352 1255q3 9 10 23.5t33 52t57 66.5t84 52.5 t113 23.5q52 0 106 -30t100 -59.5t77 -29.5q25 0 47.5 13.5t37.5 32t26.5 37.5t16.5 33l5 13l162 -125q-3 -9 -10 -24t-32 -53t-55 -67t-81.5 -53t-110.5 -24q-40 0 -83.5 18t-74.5 40t-66 40t-61 18q-25 0 -48 -11.5t-38 -28.5t-26.5 -34t-16.5 -29l-6 -11zM387 430 q0 -98 60 -161.5t169 -63.5q136 0 226 100.5t90 235.5q0 98 -60.5 161.5t-169.5 63.5q-136 0 -225.5 -100.5t-89.5 -235.5z" />
<glyph unicode="&#xf6;" horiz-adv-x="1150" d="M133 430q0 118 50 224.5t130 180t182.5 117t206.5 43.5q116 0 209.5 -36.5t152.5 -99.5t90.5 -144.5t31.5 -173.5q0 -117 -50 -223.5t-130.5 -180.5t-183 -118t-206.5 -44q-116 0 -209.5 37t-152.5 100t-90 144.5t-31 173.5zM385 1292q0 68 47.5 115t114.5 47t114.5 -47 t47.5 -115t-47.5 -115t-114.5 -47t-114.5 47t-47.5 115zM387 430q0 -98 60 -161.5t169 -63.5q136 0 226 100.5t90 235.5q0 98 -60.5 161.5t-169.5 63.5q-136 0 -225.5 -100.5t-89.5 -235.5zM807 1292q0 68 47.5 115t114.5 47t114 -47t47 -115t-47 -115t-114 -47t-114.5 47 t-47.5 115z" />
<glyph unicode="&#xf7;" d="M137 373l39 225h922l-39 -225h-922zM414 137q0 68 47 115t114 47t114.5 -47.5t47.5 -114.5t-47.5 -114.5t-114.5 -47.5t-114 47t-47 115zM494 834q0 68 47 114.5t114 46.5q68 0 115 -47t47 -114q0 -68 -47.5 -115t-114.5 -47t-114 47t-47 115z" />
<glyph unicode="&#xf8;" horiz-adv-x="1167" d="M109 31l116 114q-92 118 -92 285q0 118 50 224.5t130 180t182.5 117t206.5 43.5q177 0 304 -86l118 117l93 -90l-119 -117q88 -120 88 -278q0 -117 -50 -223.5t-130.5 -180.5t-183 -118t-206.5 -44q-175 0 -297 82l-118 -116zM387 430q0 -56 21 -106l419 411 q-57 31 -125 31q-136 0 -225.5 -100.5t-89.5 -235.5zM498 231q48 -26 118 -26q136 0 226 100.5t90 235.5q0 49 -19 98z" />
<glyph unicode="&#xf9;" horiz-adv-x="1122" d="M186 362l107 609h246l-99 -561q-39 -205 156 -205q37 0 73 13.5t60.5 32.5t44 37.5t28.5 31.5l9 14l113 637h245l-170 -971h-229l23 131q-5 -6 -13.5 -16.5t-38 -37.5t-62 -47.5t-83.5 -37.5t-104 -17q-70 0 -132 28t-106 77.5t-63.5 123t-4.5 158.5zM449 1450l180 152 l307 -377l-172 -140z" />
<glyph unicode="&#xfa;" horiz-adv-x="1122" d="M186 362l107 609h246l-99 -561q-39 -205 156 -205q37 0 73 13.5t60.5 32.5t44 37.5t28.5 31.5l9 14l113 637h245l-170 -971h-229l23 131q-5 -6 -13.5 -16.5t-38 -37.5t-62 -47.5t-83.5 -37.5t-104 -17q-70 0 -132 28t-106 77.5t-63.5 123t-4.5 158.5zM565 1239l398 354 l151 -180l-407 -336z" />
<glyph unicode="&#xfb;" horiz-adv-x="1122" d="M186 362l107 609h246l-99 -561q-39 -205 156 -205q37 0 73 13.5t60.5 32.5t44 37.5t28.5 31.5l9 14l113 637h245l-170 -971h-229l23 131q-5 -6 -13.5 -16.5t-38 -37.5t-62 -47.5t-83.5 -37.5t-104 -17q-70 0 -132 28t-106 77.5t-63.5 123t-4.5 158.5zM369 1245l407 268 l371 -286l-150 -156l-233 199l-272 -195z" />
<glyph unicode="&#xfc;" horiz-adv-x="1122" d="M186 362l107 609h246l-99 -561q-39 -205 156 -205q37 0 73 13.5t60.5 32.5t44 37.5t28.5 31.5l9 14l113 637h245l-170 -971h-229l23 131q-5 -6 -13.5 -16.5t-38 -37.5t-62 -47.5t-83.5 -37.5t-104 -17q-70 0 -132 28t-106 77.5t-63.5 123t-4.5 158.5zM381 1292 q0 68 47.5 115t114.5 47t114.5 -47t47.5 -115t-47.5 -115t-114.5 -47t-114.5 47t-47.5 115zM803 1292q0 68 47.5 115t114.5 47t114 -47t47 -115t-47 -115t-114 -47t-114.5 47t-47.5 115z" />
<glyph unicode="&#xfd;" horiz-adv-x="1140" d="M-27 -397l115 194q7 -7 19.5 -17.5t50 -28t73.5 -17.5q65 0 103.5 28.5t91.5 120.5l57 101l-297 987h267l198 -707l377 707h279l-680 -1188q-90 -156 -179 -217.5t-210 -61.5q-68 0 -134.5 25t-98.5 49zM561 1239l397 354l152 -180l-408 -336z" />
<glyph unicode="&#xfe;" horiz-adv-x="1193" d="M68 -471l356 2019h246l-119 -669q45 45 119 80.5t176 35.5q173 0 282 -127.5t109 -320.5q0 -122 -45.5 -230.5t-120 -182.5t-172 -116.5t-199.5 -42.5q-103 0 -181 41t-105 82l-101 -569h-245zM455 330q2 -5 6 -13.5t21 -30t38.5 -38t60 -30t83.5 -13.5 q138 0 229.5 100.5t91.5 241.5q0 99 -59 159t-164 60q-45 0 -88 -14t-72 -34t-51 -39.5t-33 -33.5l-10 -14z" />
<glyph unicode="&#xff;" horiz-adv-x="1140" d="M-25 -397l115 194q7 -7 19.5 -17.5t50 -28t73.5 -17.5q65 0 103.5 28.5t91.5 120.5l57 101l-297 987h267l198 -707l377 707h279l-680 -1188q-90 -156 -179 -217.5t-210 -61.5q-68 0 -134.5 25t-98.5 49zM401 1292q0 68 47.5 115t114.5 47t114.5 -47t47.5 -115t-47.5 -115 t-114.5 -47t-114.5 47t-47.5 115zM823 1292q0 68 47.5 115t114.5 47t114.5 -47t47.5 -115t-47.5 -115t-114.5 -47t-114.5 47t-47.5 115z" />
<glyph unicode="&#x152;" horiz-adv-x="1691" d="M174 627q0 175 63.5 326t172.5 256t259 165t318 60h858l-41 -230h-520l-61 -352h471l-41 -234h-471l-70 -389h533l-39 -229h-791q-107 0 -202.5 25.5t-176 78t-139 126.5t-91 175.5t-32.5 221.5zM428 627q0 -182 104 -290t283 -108h51l172 975h-51q-152 0 -278 -67.5 t-203.5 -201t-77.5 -308.5z" />
<glyph unicode="&#x153;" horiz-adv-x="1875" d="M133 430q0 118 50 224.5t130 180t182.5 117t206.5 43.5q245 0 385 -164q77 77 174.5 120.5t202.5 43.5q204 0 326.5 -112t122.5 -297q0 -54 -27 -189h-729q2 -72 68 -134t174 -62q48 0 94 10t78 24.5t57 29t37 24.5l12 10l115 -188q-6 -6 -18 -15t-52 -32.5t-83 -41.5 t-108.5 -32.5t-131.5 -14.5q-124 0 -223 47.5t-164 127.5q-84 -81 -187.5 -128t-208.5 -47q-116 0 -209.5 37t-152.5 100t-90 144.5t-31 173.5zM387 430q0 -98 60 -161.5t169 -63.5q136 0 226 100.5t90 235.5q0 98 -60.5 161.5t-169.5 63.5q-136 0 -225.5 -100.5 t-89.5 -235.5zM1184 575h489q0 3 1 9.5t1 9.5q0 70 -53.5 124t-157.5 54q-107 0 -181.5 -61t-98.5 -136z" />
<glyph unicode="&#x178;" horiz-adv-x="1257" d="M268 1434h258l236 -639l459 639h272l-643 -869l-98 -565h-246l98 565zM520 1743q0 67 47 114.5t115 47.5t115 -47.5t47 -114.5t-47 -114.5t-115 -47.5t-115 47.5t-47 114.5zM942 1743q0 67 47 114.5t115 47.5t115 -47.5t47 -114.5t-47 -114.5t-115 -47.5t-115 47.5 t-47 114.5z" />
<glyph unicode="&#x2c6;" horiz-adv-x="868" d="M254 1227l408 268l370 -287l-149 -155l-234 198l-272 -194z" />
<glyph unicode="&#x2dc;" horiz-adv-x="870" d="M221 1221q3 9 10 23.5t33 52t57 66t84 52t113 23.5q52 0 106 -30t100 -59.5t77 -29.5q25 0 47.5 13.5t37.5 32.5t26.5 37.5t16.5 31.5l5 14l162 -125q-3 -9 -10 -24t-32 -53t-55 -67t-81.5 -53t-110.5 -24q-40 0 -83.5 18.5t-74.5 40t-66 40t-61 18.5q-25 0 -48 -12 t-38 -28.5t-26.5 -33.5t-17.5 -29l-5 -12z" />
<glyph unicode="&#x2000;" horiz-adv-x="1024" />
<glyph unicode="&#x2001;" horiz-adv-x="2048" />
<glyph unicode="&#x2002;" horiz-adv-x="1024" />
<glyph unicode="&#x2003;" horiz-adv-x="2048" />
<glyph unicode="&#x2004;" horiz-adv-x="682" />
<glyph unicode="&#x2005;" horiz-adv-x="512" />
<glyph unicode="&#x2006;" horiz-adv-x="341" />
<glyph unicode="&#x2007;" horiz-adv-x="341" />
<glyph unicode="&#x2008;" horiz-adv-x="256" />
<glyph unicode="&#x2009;" horiz-adv-x="409" />
<glyph unicode="&#x200a;" horiz-adv-x="113" />
<glyph unicode="&#x2010;" horiz-adv-x="681" d="M135 389l41 234h547l-41 -234h-547z" />
<glyph unicode="&#x2011;" horiz-adv-x="681" d="M135 389l41 234h547l-41 -234h-547z" />
<glyph unicode="&#x2012;" horiz-adv-x="681" d="M135 389l41 234h547l-41 -234h-547z" />
<glyph unicode="&#x2013;" horiz-adv-x="1024" d="M70 397l39 226h1024l-39 -226h-1024z" />
<glyph unicode="&#x2014;" horiz-adv-x="2048" d="M70 397l39 226h2048l-39 -226h-2048z" />
<glyph unicode="&#x2018;" horiz-adv-x="380" d="M246 930l88 504h217l-88 -504h-217z" />
<glyph unicode="&#x2019;" horiz-adv-x="380" d="M246 930l88 504h217l-88 -504h-217z" />
<glyph unicode="&#x201a;" horiz-adv-x="380" d="M31 -287l90 508h217l-90 -508h-217z" />
<glyph unicode="&#x201c;" horiz-adv-x="819" d="M285 926l90 508h217l-90 -508h-217zM641 926l90 508h217l-90 -508h-217z" />
<glyph unicode="&#x201d;" horiz-adv-x="819" d="M285 926l90 508h217l-90 -508h-217zM641 926l90 508h217l-90 -508h-217z" />
<glyph unicode="&#x201e;" horiz-adv-x="819" d="M72 -287l90 508h217l-90 -508h-217zM428 -287l90 508h217l-90 -508h-217z" />
<glyph unicode="&#x2022;" horiz-adv-x="1024" d="M342 717q0 121 87 208t208 87t208 -87t87 -208t-87 -208t-208 -87t-208 87t-87 208z" />
<glyph unicode="&#x2026;" horiz-adv-x="2048" d="M227 137q0 67 47.5 114.5t114.5 47.5t114.5 -47.5t47.5 -114.5t-47.5 -114.5t-114.5 -47.5t-114.5 47.5t-47.5 114.5zM883 137q0 68 47 115t114 47q68 0 115 -47.5t47 -114.5t-47 -114.5t-115 -47.5q-67 0 -114 47t-47 115zM1538 137q0 67 47 114.5t115 47.5t115 -47.5 t47 -114.5t-47 -114.5t-115 -47.5t-115 47.5t-47 114.5z" />
<glyph unicode="&#x202f;" horiz-adv-x="409" />
<glyph unicode="&#x2039;" horiz-adv-x="659" d="M94 512l441 483l151 -151l-326 -346l222 -365l-187 -127z" />
<glyph unicode="&#x203a;" horiz-adv-x="659" d="M150 164l329 350l-221 344l182 127l301 -493l-434 -486z" />
<glyph unicode="&#x205f;" horiz-adv-x="512" />
<glyph unicode="&#x20ac;" horiz-adv-x="1187" d="M127 473l31 172h155q1 7 11 72q6 38 14 71h-156l31 173h174q92 227 284.5 362t436.5 135q73 0 143.5 -12t104.5 -24l35 -13l-82 -211q-88 35 -201 35q-156 0 -282.5 -75t-182.5 -197h434l-30 -173h-463q-13 -34 -19 -71l-10 -72h467l-31 -172h-436q14 -112 114 -190 t257 -78q50 0 96 6.5t67 12.5l21 7l61 -206q-12 -6 -34.5 -14t-92.5 -22t-139 -14q-251 0 -409.5 136t-186.5 362h-182z" />
<glyph unicode="&#x2122;" horiz-adv-x="1648" d="M264 1264l31 170h600l-31 -170h-211l-102 -588h-178l102 588h-211zM854 676l133 758h162l168 -377l301 377h176l-133 -758h-178l76 432l-281 -344l-168 354l-78 -442h-178z" />
<glyph unicode="&#x25fc;" horiz-adv-x="972" d="M0 0v973h973v-973h-973z" />
</font>
</defs>
</svg>
