<?xml version="1.0" standalone="no"?>
<!DOCTYPE svg PUBLIC "-//W3C//DTD SVG 1.1//EN" "http://www.w3.org/Graphics/SVG/1.1/DTD/svg11.dtd" >
<svg xmlns="http://www.w3.org/2000/svg" xmlns:xlink="http://www.w3.org/1999/xlink" version="1.1">
<metadata></metadata>
<defs>
<font id="europa-regularregular" horiz-adv-x="1064" >
<font-face units-per-em="2048" ascent="1536" descent="-512" />
<missing-glyph horiz-adv-x="573" />
<glyph unicode="&#xfb01;" horiz-adv-x="1101" d="M41 791v155h192v275q0 149 98 250.5t253 101.5t252.5 -101.5t97.5 -250.5v-21q0 -35 -25.5 -60.5t-60.5 -25.5t-60.5 25.5t-25.5 60.5v29q0 73 -44.5 128.5t-133.5 55.5t-133.5 -55.5t-44.5 -128.5v-283h210v-155h-210v-791h-173v791h-192zM762 0v946h172v-946h-172z" />
<glyph unicode="&#xfb02;" horiz-adv-x="1101" d="M41 791v155h192v275q0 149 98 250.5t253 101.5t252.5 -101.5t97.5 -250.5v-1221h-172v1229q0 73 -44.5 128.5t-133.5 55.5t-133.5 -55.5t-44.5 -128.5v-283h210v-155h-210v-791h-173v791h-192z" />
<glyph unicode="&#xfb03;" horiz-adv-x="1634" d="M41 791v155h192v275q0 149 98.5 250.5t254.5 101.5q162 0 266 -115q100 115 264 115q155 0 252.5 -101.5t97.5 -250.5v-21q0 -35 -25.5 -60.5t-60.5 -25.5t-60.5 25.5t-25.5 60.5v29q0 73 -44.5 128.5t-133.5 55.5q-88 0 -132 -53.5t-46 -124.5v-6v-283h211v-155h-211 v-791h-172v1221v8q0 72 -45.5 128t-134.5 56t-134.5 -56t-45.5 -128v-283h206v-155h-206v-791h-173v791h-192zM1294 0v946h172v-946h-172z" />
<glyph unicode="&#xfb04;" horiz-adv-x="1634" d="M41 791v155h192v275q0 149 98.5 250.5t254.5 101.5q162 0 266 -115q100 115 264 115q155 0 252.5 -101.5t97.5 -250.5v-1221h-172v1229q0 73 -44.5 128.5t-133.5 55.5t-133.5 -55.5t-44.5 -128.5v-8v-275h205v-155h-205v-791h-172v1221v14q-2 70 -47.5 124t-132.5 54 q-89 0 -134.5 -56t-45.5 -128v-283h204v-155h-204v-791h-173v791h-192z" />
<glyph horiz-adv-x="0" />
<glyph horiz-adv-x="682" />
<glyph horiz-adv-x="0" />
<glyph horiz-adv-x="0" />
<glyph unicode=" "  horiz-adv-x="573" />
<glyph unicode="&#x09;" horiz-adv-x="573" />
<glyph unicode="&#xa0;" horiz-adv-x="573" />
<glyph unicode="!" horiz-adv-x="567" d="M168 92q0 46 35.5 80.5t81.5 34.5t80 -34.5t34 -80.5t-34.5 -81.5t-79.5 -35.5q-46 0 -81.5 35.5t-35.5 81.5zM199 371v1063h172v-1063h-172z" />
<glyph unicode="&#x22;" horiz-adv-x="679" d="M123 946v488h147v-488h-147zM410 946v488h147v-488h-147z" />
<glyph unicode="#" horiz-adv-x="1298" d="M98 455v131h262l41 295h-243v131h262l65 454l125 -18l-61 -436h278l64 454l127 -18l-62 -436h244v-131h-262l-43 -295h246v-131h-264l-68 -486l-125 19l66 467h-279l-68 -486l-127 19l66 467h-244zM489 586h279l41 295h-279z" />
<glyph unicode="$" horiz-adv-x="1187" d="M145 274l144 88q3 -8 9.5 -21.5t30.5 -49t53 -63.5t78 -54.5t105 -32.5v514q-69 32 -115.5 57.5t-98 64t-82 79.5t-50.5 98.5t-20 126.5q0 61 23.5 122.5t67.5 115.5t115.5 91.5t159.5 45.5v170h105v-172q65 -8 124.5 -31.5t98.5 -52.5t68.5 -56.5t42.5 -45.5l14 -19 l-129 -106q-3 5 -9 13t-27.5 30t-45 40t-61 36t-76.5 26v-491q9 -6 18 -9q73 -33 122 -60.5t97 -65t75.5 -78t44.5 -96t17 -123.5q0 -156 -104.5 -261t-269.5 -124v-173h-105v170q-64 4 -121.5 22t-99 44.5t-76 57.5t-57 61.5t-38 55.5t-21.5 40zM371 1081q0 -80 46.5 -132 t147.5 -103v444q-90 -13 -142 -74t-52 -135zM670 145q87 18 142.5 75t55.5 145q0 86 -49.5 139.5t-148.5 101.5v-461z" />
<glyph unicode="%" horiz-adv-x="1458" d="M66 1141q0 133 93.5 225t227.5 92t228 -92t94 -225t-94 -225.5t-228 -92.5t-227.5 92.5t-93.5 225.5zM184 1141q0 -85 58.5 -146t144.5 -61t144.5 61t58.5 146t-58.5 146t-144.5 61t-144.5 -61t-58.5 -146zM197 23l944 1452l88 -60l-940 -1456zM750 293q0 133 93.5 225 t227.5 92t228 -92t94 -225t-94 -225.5t-228 -92.5t-227.5 92.5t-93.5 225.5zM868 293q0 -85 58.5 -146t144.5 -61t144.5 61t58.5 146t-58.5 146t-144.5 61t-144.5 -61t-58.5 -146z" />
<glyph unicode="&#x26;" horiz-adv-x="1435" d="M147 313q0 120 61.5 210.5t246.5 234.5q-121 108 -168 191.5t-47 180.5q0 59 24.5 117t68.5 105.5t114 76.5t153 29t153 -29.5t114.5 -77t69 -105t24.5 -116.5q0 -94 -50 -169t-206 -205l358 -324q2 3 5.5 9t13 33t16.5 63t12.5 102.5t5.5 146.5h160q0 -89 -9.5 -169.5 t-22.5 -131.5t-26 -89.5t-22 -55.5l-10 -16l250 -226l-105 -123l-246 218q-77 -97 -207 -157.5t-274 -60.5q-103 0 -190.5 28.5t-145 76t-89.5 108t-32 125.5zM319 334q0 -68 44.5 -114.5t106.5 -65.5t134 -19q107 0 207 44t160 118l-396 352l-6 -6q-144 -118 -197 -179.5 t-53 -129.5zM412 1130q0 -38 8 -68t28.5 -58t37 -45t51.5 -49t53 -50q138 121 168 161t30 109t-54 123t-134 54q-84 0 -136 -54.5t-52 -122.5z" />
<glyph unicode="'" horiz-adv-x="307" d="M82 946v488h143v-488h-143z" />
<glyph unicode="(" horiz-adv-x="630" d="M135 604q0 184 39.5 346.5t103.5 291t171 290.5l124 -88q-97 -149 -152.5 -261.5t-90.5 -259.5t-35 -319t35 -319t90.5 -259.5t152.5 -261.5l-124 -88q-107 162 -171 290.5t-103.5 291t-39.5 346.5z" />
<glyph unicode=")" horiz-adv-x="630" d="M57 -236q72 111 118.5 197t85.5 188.5t57 213t18 241.5t-18 241.5t-57 213t-85.5 188.5t-118.5 197l125 88q107 -162 171 -290.5t103.5 -291t39.5 -346.5t-39.5 -346.5t-103.5 -291t-171 -290.5z" />
<glyph unicode="*" horiz-adv-x="815" d="M57 1155l37 117l252 -84v270h123v-270l252 84l37 -117l-250 -80l151 -213l-98 -69l-151 217l-156 -217l-98 71l155 211z" />
<glyph unicode="+" d="M57 418v151h398v402h155v-402h398v-151h-398v-418h-155v418h-398z" />
<glyph unicode="," horiz-adv-x="468" d="M49 -291l166 479l156 -53l-176 -477z" />
<glyph unicode="-" horiz-adv-x="681" d="M68 418v164h546v-164h-546z" />
<glyph unicode="." horiz-adv-x="471" d="M119 92q0 47 35 82t82 35t81.5 -35t34.5 -82t-34.5 -82t-81.5 -35t-82 35t-35 82z" />
<glyph unicode="/" horiz-adv-x="1017" d="M45 -211l813 1837l139 -61l-813 -1837z" />
<glyph unicode="0" horiz-adv-x="1212" d="M86 717q0 117 19 224t60 202t101 164.5t148 110t194 40.5t193.5 -40.5t147 -110t100 -164.5t59 -201.5t18.5 -224.5q0 -148 -30.5 -278t-91 -235.5t-162.5 -167t-234 -61.5t-234.5 61.5t-164 166.5t-92.5 235.5t-31 278.5zM258 717q0 -110 19.5 -210t59.5 -185.5 t110 -136t161 -50.5q74 0 133.5 34t98.5 90t65 132t37.5 157t11.5 169q0 111 -19 210.5t-58 184.5t-108.5 135.5t-160.5 50.5t-161 -50.5t-110 -135.5t-59.5 -185t-19.5 -210z" />
<glyph unicode="1" horiz-adv-x="829" d="M37 1120l393 314h154v-1434h-172v1208l-275 -219z" />
<glyph unicode="2" horiz-adv-x="1089" d="M98 1135q2 7 5.5 18.5t19 45t35 64t55 68t77.5 64t104.5 45t133.5 18.5q195 0 316 -119.5t121 -300.5q0 -40 -6 -78.5t-18.5 -72.5t-24.5 -61.5t-29.5 -55.5t-27.5 -43t-26 -36t-18 -23l-381 -508h541v-160h-869l504 668q4 6 31 40t41 53t38.5 58t37.5 69.5t24 71 t11 78.5q0 110 -69 185t-196 75q-46 0 -87 -12t-68.5 -31.5t-50.5 -43t-36.5 -46.5t-23 -42.5t-12.5 -31.5l-4 -12z" />
<glyph unicode="3" horiz-adv-x="1114" d="M76 301l151 70q3 -10 8.5 -25.5t29.5 -56.5t55.5 -72t89.5 -56.5t127 -25.5q133 0 213.5 76.5t80.5 183.5q0 123 -76 190.5t-227 67.5h-67v158h43q128 0 210.5 63t82.5 181q0 98 -72.5 170.5t-183.5 72.5q-57 0 -106 -19t-77.5 -46.5t-49 -55t-28.5 -46.5l-8 -19l-147 66 q2 6 6.5 16t21.5 39t37.5 55.5t55.5 59t75.5 55.5t98 39t121.5 16q178 0 303 -117t125 -286q0 -65 -18 -121.5t-44 -90t-52 -57.5t-44 -34l-18 -9q9 -2 23 -7.5t50.5 -31t64 -60t50.5 -101t23 -148.5q0 -191 -133 -305.5t-334 -114.5q-75 0 -141.5 18t-112 46.5t-83 63.5 t-59.5 70t-37.5 63.5t-21.5 46.5z" />
<glyph unicode="4" horiz-adv-x="1150" d="M4 377l748 1057h151v-897h178v-160h-178v-377h-168v377h-731zM291 537h444v634z" />
<glyph unicode="5" horiz-adv-x="1177" d="M127 285l149 80q3 -9 10 -24.5t33.5 -55.5t59 -70t90 -55t123.5 -25q133 0 224 85t91 237q0 155 -90 238t-229 83q-56 0 -116.5 -16.5t-107 -40t-85 -47t-59.5 -40.5l-21 -16v816h850v-160h-687v-393q12 7 33.5 16.5t91 26t140.5 16.5q89 0 168.5 -30t143.5 -87.5 t102 -152t38 -213.5q0 -117 -41 -210.5t-110 -152t-155 -89t-181 -30.5q-72 0 -136.5 17t-110 44.5t-84 60.5t-62.5 66t-41 60.5t-24 44.5z" />
<glyph unicode="6" horiz-adv-x="1110" d="M90 449q0 123 70 253l467 781l139 -90l-309 -492q43 21 102 21q109 0 199.5 -39t148.5 -105t89.5 -149.5t31.5 -175.5q0 -91 -31.5 -176t-89.5 -152.5t-148.5 -108.5t-199.5 -41t-199.5 40.5t-148.5 108t-89.5 151.5t-31.5 174zM262 453q0 -131 82 -224.5t215 -93.5 t215 93.5t82 224.5q0 129 -82.5 219t-214.5 90t-214.5 -90t-82.5 -219z" />
<glyph unicode="7" horiz-adv-x="1036" d="M94 1274v160h955l-762 -1471l-146 78l637 1233h-684z" />
<glyph unicode="8" horiz-adv-x="1130" d="M111 410q0 121 56.5 217t154.5 149q-71 42 -115.5 125t-44.5 172q0 71 27.5 139.5t77.5 123.5t127.5 88.5t170.5 33.5q122 0 216.5 -57.5t141 -144.5t46.5 -183q0 -89 -44.5 -172t-115.5 -125q98 -53 154.5 -149t56.5 -217q0 -180 -127.5 -307.5t-327.5 -127.5 t-327 127.5t-127 307.5zM283 410q0 -109 78.5 -192t203.5 -83t204 83t79 192q0 116 -78 200t-205 84t-204.5 -84t-77.5 -200zM334 1071q0 -99 66.5 -163t164.5 -64t165 64t67 163t-67 163t-165 64t-164.5 -64t-66.5 -163z" />
<glyph unicode="9" horiz-adv-x="1110" d="M82 983q0 90 31.5 174t89.5 151.5t148.5 108.5t199.5 41t199.5 -41t148.5 -108.5t89.5 -151.5t31.5 -174q0 -106 -57 -223q-13 -26 -132.5 -227t-232.5 -389l-113 -187l-139 90l309 494q-30 -25 -104 -25q-109 0 -199.5 39.5t-148.5 105.5t-89.5 149t-31.5 173zM254 983 q0 -129 82.5 -218t214.5 -89t214.5 89t82.5 218q0 131 -81.5 223t-215.5 92t-215.5 -92t-81.5 -223z" />
<glyph unicode=":" horiz-adv-x="483" d="M125 92q0 47 35 82t82 35t81.5 -35t34.5 -82t-34.5 -82t-81.5 -35t-82 35t-35 82zM125 854q0 47 35 82t82 35t81.5 -35t34.5 -82t-34.5 -82t-81.5 -35t-82 35t-35 82z" />
<glyph unicode=";" horiz-adv-x="471" d="M49 -291l166 479l156 -53l-176 -477zM139 854q0 47 35 82t82 35t82 -35t35 -82t-35 -82t-82 -35t-82 35t-35 82z" />
<glyph unicode="&#x3c;" d="M37 483v144l946 403v-160l-750 -315l750 -317v-160z" />
<glyph unicode="=" d="M113 256v152h839v-152h-839zM113 580v151h839v-151h-839z" />
<glyph unicode="&#x3e;" d="M82 78v160l749 317l-749 315v160l946 -403v-144z" />
<glyph unicode="?" horiz-adv-x="987" d="M45 1157q2 6 6 17t21 42t37.5 59.5t56.5 63.5t78 60t103 42t130 17q173 0 295.5 -113.5t122.5 -281.5q0 -56 -15.5 -109t-35 -89t-54.5 -75.5t-56.5 -59.5t-57.5 -50q-31 -25 -49 -40.5t-32 -32t-20 -25.5t-9.5 -27t-4 -29.5t-0.5 -38.5v-118h-160v118q0 109 23.5 158 t120.5 133q8 7 36 30.5t37.5 32.5t31.5 31t31 38.5t21 41t16.5 52t4.5 59.5q0 96 -71.5 165.5t-174.5 69.5q-43 0 -82 -11.5t-67 -30t-51.5 -41.5t-38.5 -45.5t-25.5 -41t-14.5 -30.5l-5 -11zM367 90q0 48 33.5 82.5t80.5 34.5t82 -35t35 -82t-35 -81t-82 -34t-80.5 34 t-33.5 81z" />
<glyph unicode="@" horiz-adv-x="1636" d="M98 717q0 202 99.5 372.5t270 269.5t372.5 99q200 0 361 -96t249 -258t88 -356q0 -111 -21.5 -194.5t-53 -129.5t-75 -74t-79.5 -36.5t-74 -8.5q-47 0 -89 13t-77 47.5t-43 85.5q-3 -6 -9.5 -16t-29.5 -35t-50 -44t-72 -35t-95 -16q-105 0 -187.5 73.5t-82.5 190.5 q0 113 85 185.5t214 72.5q37 0 73 -10t60.5 -24.5t44 -29t28.5 -24.5l9 -10v62q0 48 -12 84.5t-31 57.5t-45 34t-50 17.5t-51 4.5q-59 0 -114 -20t-80 -40l-25 -20l-59 109q5 4 14 10.5t38.5 23.5t60 30t76.5 23.5t91 10.5q150 0 235 -80t85 -217v-305q0 -88 94 -88 q20 0 37 3.5t43.5 21.5t44.5 49.5t31.5 95.5t13.5 152q0 163 -71.5 296t-202.5 210t-297 77t-308 -82.5t-224.5 -224t-82.5 -307.5q0 -124 49 -238t131.5 -196.5t196.5 -131.5t238 -49q191 0 342 80l51 -110q-181 -97 -393 -97q-202 0 -372.5 99.5t-270 270t-99.5 372.5z M639 569q0 -69 46 -105t114 -36q45 0 84 13.5t62 33t39.5 38.5t23.5 33l6 13v62q-3 4 -8.5 10t-24.5 21.5t-40.5 27.5t-56.5 21.5t-73 9.5q-73 0 -122.5 -41t-49.5 -101z" />
<glyph unicode="A" horiz-adv-x="1314" d="M16 0l564 1434h159l559 -1434h-180l-149 387h-619l-149 -387h-185zM414 551h491l-246 637z" />
<glyph unicode="B" horiz-adv-x="1153" d="M168 0v1434h377q219 0 340 -105t121 -287q0 -68 -22 -124.5t-52 -88t-53.5 -48.5t-34.5 -19q12 -2 33 -10t59 -34t69 -62t54.5 -101t23.5 -145q0 -187 -127 -298.5t-340 -111.5h-448zM340 164h276q146 0 220.5 69t74.5 177t-74.5 176.5t-220.5 68.5h-276v-491zM340 815 h233q121 0 191 61t70 166t-70 166.5t-191 61.5h-233v-455z" />
<glyph unicode="C" horiz-adv-x="1357" d="M78 717q0 154 53 290.5t145.5 235.5t225 157t284.5 58q94 0 181.5 -22.5t145.5 -55t102 -64.5t65 -54l20 -23l-118 -113q-5 7 -16 18t-48 40t-79.5 51.5t-111 40.5t-141.5 18q-151 0 -272.5 -81t-186.5 -212t-65 -284q0 -114 38.5 -219t106 -184.5t166.5 -127t213 -47.5 q73 0 142.5 19.5t116.5 48t83.5 56.5t53.5 47l18 20l117 -119q-8 -10 -23 -25.5t-67 -56.5t-109 -72t-147.5 -56.5t-184.5 -25.5q-152 0 -284.5 58t-225 157.5t-145.5 236t-53 290.5z" />
<glyph unicode="D" horiz-adv-x="1366" d="M168 0v1434h412q217 0 379 -93t245.5 -254.5t83.5 -369.5t-83.5 -369.5t-245.5 -254.5t-379 -93h-412zM340 164h229q170 0 293 75.5t182.5 199t59.5 278.5t-59.5 278.5t-182.5 199t-293 75.5h-229v-1106z" />
<glyph unicode="E" horiz-adv-x="1114" d="M168 0v1434h827v-164h-655v-453h606v-164h-606v-489h668v-164h-840z" />
<glyph unicode="F" horiz-adv-x="1071" d="M168 0v1434h809v-164h-637v-453h596v-164h-596v-653h-172z" />
<glyph unicode="G" horiz-adv-x="1468" d="M78 717q0 205 91 374.5t255 268t367 98.5q104 0 196 -21t149.5 -50.5t100 -59.5t60.5 -51l18 -21l-123 -120q-6 6 -16.5 17t-48.5 38.5t-81 48.5t-112 38t-143 17q-151 0 -273.5 -80.5t-189 -212.5t-66.5 -284t66.5 -284t189 -213t273.5 -81q73 0 140.5 11t111.5 26 t77.5 30.5t48.5 26.5l15 11v379h-359v163h529v-622q-8 -8 -23 -20.5t-68 -45t-113 -57.5t-157.5 -45.5t-201.5 -20.5q-203 0 -367 99t-255 268.5t-91 374.5z" />
<glyph unicode="H" horiz-adv-x="1398" d="M168 0v1434h172v-617h719v617h172v-1434h-172v653h-719v-653h-172z" />
<glyph unicode="I" horiz-adv-x="565" d="M197 0v1434h172v-1434h-172z" />
<glyph unicode="J" horiz-adv-x="970" d="M8 182l125 109q4 -6 10.5 -16.5t30 -36.5t50 -46t69.5 -36.5t88 -16.5q69 0 120 21.5t78 58.5t39.5 77t12.5 85v1053h172v-1051q0 -183 -113.5 -295.5t-308.5 -112.5q-67 0 -130 21.5t-105 52t-74.5 60.5t-47.5 51z" />
<glyph unicode="K" horiz-adv-x="1206" d="M168 0v1434h172v-674l580 674h219l-607 -701l674 -733h-233l-633 684v-684h-172z" />
<glyph unicode="L" horiz-adv-x="999" d="M168 0v1434h172v-1270h643v-164h-815z" />
<glyph unicode="M" horiz-adv-x="1658" d="M168 0v1434h172l494 -801l491 801h166v-1434h-172v1122l-490 -796l-489 794v-1120h-172z" />
<glyph unicode="N" horiz-adv-x="1454" d="M168 0v1434h178l768 -1147v1147h172v-1434h-178l-768 1147v-1147h-172z" />
<glyph unicode="O" horiz-adv-x="1572" d="M78 717q0 154 53 290.5t145.5 235.5t225 157t284.5 58q203 0 366 -98.5t253 -268t90 -374.5t-90 -374.5t-253 -268.5t-366 -99q-152 0 -284.5 58t-225 157.5t-145.5 236t-53 290.5zM262 717q0 -114 38.5 -219t105.5 -184.5t166.5 -127t213.5 -47.5q152 0 273.5 81 t186.5 212.5t65 284.5t-65 284t-186.5 212t-273.5 81t-273.5 -81t-186 -212t-64.5 -284z" />
<glyph unicode="P" horiz-adv-x="1081" d="M168 0v1434h371q226 0 357.5 -114.5t131.5 -318.5t-131.5 -318t-357.5 -114h-199v-569h-172zM340 733h188q152 0 240 68t88 200q0 133 -88.5 201t-239.5 68h-188v-537z" />
<glyph unicode="Q" horiz-adv-x="1619" d="M78 717q0 154 53 290.5t145.5 235.5t225 157t284.5 58q203 0 366 -98.5t253 -268t90 -374.5q0 -264 -149 -465l221 -197l-107 -125l-227 201q-189 -156 -447 -156q-152 0 -284.5 58t-225 157.5t-145.5 236t-53 290.5zM262 717q0 -114 38.5 -219t106 -184.5t166.5 -127 t213 -47.5q177 0 312 109l-201 180l109 127l204 -184q103 153 103 346q0 153 -66 284.5t-188 212t-273 80.5t-272.5 -81t-186.5 -212t-65 -284z" />
<glyph unicode="R" horiz-adv-x="1132" d="M168 0v1434h373q215 0 347 -116.5t132 -307.5q0 -70 -17.5 -129.5t-44.5 -99.5t-63.5 -73t-69.5 -51.5t-68 -32t-54 -18t-33 -6.5l397 -600h-207l-387 586h-133v-586h-172zM340 750h211q143 0 220 69.5t77 190.5t-77 190.5t-220 69.5h-211v-520z" />
<glyph unicode="S" horiz-adv-x="1110" d="M102 274l144 86q4 -9 11 -24t34 -53t59.5 -67t88.5 -53t120 -24q110 0 189 60.5t79 165.5q0 32 -8 59.5t-18.5 48.5t-33 42.5t-41 35.5t-53.5 33t-57.5 30t-66.5 31q-63 29 -103 49.5t-91 51.5t-82 62t-60.5 72t-43 91.5t-13.5 109.5q0 65 27 130t76 121t130.5 91 t179.5 35q76 0 145.5 -21.5t115.5 -52t80.5 -61.5t50.5 -53l16 -21l-129 -104q-4 6 -12 16t-35 36t-57 45.5t-77.5 35.5t-97.5 16q-111 0 -176 -65t-65 -148q0 -31 8 -57.5t20 -47.5t36.5 -43t45.5 -37t60.5 -36t68 -34.5t80.5 -37.5q92 -42 150 -77t109 -84.5t74.5 -113.5 t23.5 -148q0 -173 -127 -281.5t-318 -108.5q-69 0 -132 16.5t-107.5 43t-82.5 58t-62.5 63.5t-41.5 58.5t-24 43.5z" />
<glyph unicode="T" horiz-adv-x="1052" d="M29 1270v164h995v-164h-412v-1270h-172v1270h-411z" />
<glyph unicode="U" horiz-adv-x="1380" d="M168 528v906h172v-887q0 -184 86.5 -296t263.5 -112t263.5 112t86.5 296v887h172v-906q0 -248 -140 -400.5t-382 -152.5t-382 152.5t-140 400.5z" />
<glyph unicode="V" horiz-adv-x="1212" d="M8 1434h189l413 -1051l416 1051h178l-598 -1475z" />
<glyph unicode="W" horiz-adv-x="1945" d="M8 1434h193l362 -994l352 994h125l349 -994l366 994h182l-553 -1475l-411 1128l-414 -1128z" />
<glyph unicode="X" horiz-adv-x="1208" d="M35 0l463 741l-430 693h202l340 -557l338 557h193l-430 -693l463 -741h-205l-371 602l-369 -602h-194z" />
<glyph unicode="Y" horiz-adv-x="1187" d="M25 1434h192l385 -705l379 705h182l-483 -871v-563h-172v563z" />
<glyph unicode="Z" horiz-adv-x="1171" d="M37 0l805 1270h-750v164h1043l-805 -1270h766v-164h-1059z" />
<glyph unicode="[" horiz-adv-x="641" d="M154 -471v1987h385v-136h-234v-1716h234v-135h-385z" />
<glyph unicode="\" horiz-adv-x="1017" d="M20 1565l140 61l813 -1837l-139 -61z" />
<glyph unicode="]" horiz-adv-x="641" d="M102 -336h234v1716h-234v136h385v-1987h-385v135z" />
<glyph unicode="^" horiz-adv-x="1097" d="M57 717l422 831h139l422 -831h-186l-305 618l-309 -618h-183z" />
<glyph unicode="_" horiz-adv-x="1024" d="M86 -307h852v-164h-852v164z" />
<glyph unicode="`" horiz-adv-x="540" d="M37 1329l106 107l306 -306l-103 -96z" />
<glyph unicode="a" horiz-adv-x="1048" d="M86 299q0 137 107 226t268 89q49 0 96 -8t79.5 -19t58 -22.5t37.5 -19.5l13 -8v51q0 56 -18 98.5t-44 65.5t-60.5 37t-62 18t-54.5 4q-64 0 -134.5 -20t-109.5 -40l-39 -20l-71 143q6 4 17 10.5t47.5 23t75.5 29.5t97.5 23.5t116.5 10.5q101 0 181.5 -29.5t129.5 -79 t75 -110.5t26 -129v-623h-158v137q-4 -7 -12.5 -17.5t-38.5 -38.5t-64.5 -49.5t-90.5 -39t-116 -17.5q-65 0 -127 22.5t-112.5 62.5t-81.5 102.5t-31 136.5zM258 299q0 -86 64 -129t153 -43q47 0 92 14.5t76 35.5t55 42.5t36 36.5l11 14v133q-10 8 -30 19t-84.5 30 t-132.5 19q-108 0 -174 -48.5t-66 -123.5z" />
<glyph unicode="b" horiz-adv-x="1169" d="M168 0v1548h172v-719q4 6 11.5 15.5t35.5 34t60.5 43t85.5 34t112 15.5q192 0 325.5 -144.5t133.5 -353.5t-133.5 -353.5t-325.5 -144.5q-64 0 -120 16.5t-91 40.5t-60.5 48t-36.5 40l-11 17v-137h-158zM340 299q4 -7 11 -18t32.5 -39t55 -50t78 -39.5t101.5 -17.5 q141 0 227.5 97.5t86.5 240.5q0 142 -88 240t-226 98q-53 0 -101 -17t-78.5 -41t-54 -48t-34.5 -41l-10 -17v-348z" />
<glyph unicode="c" horiz-adv-x="976" d="M66 473q0 137 63 251t175 180.5t249 66.5q68 0 131.5 -17.5t106 -42.5t75.5 -50t48 -43l16 -17l-117 -105q-4 5 -11 12.5t-32 27.5t-53 35t-72.5 27.5t-91.5 12.5q-140 0 -227.5 -97.5t-87.5 -240.5t87.5 -240.5t227.5 -97.5q52 0 99 14t78 33.5t54.5 39.5t33.5 34l11 14 l111 -112q-6 -7 -16.5 -19.5t-47.5 -44t-78.5 -55.5t-108 -44t-136.5 -20q-208 0 -347.5 144t-139.5 354z" />
<glyph unicode="d" horiz-adv-x="1169" d="M66 473q0 209 133 353.5t325 144.5q59 0 111.5 -14.5t86.5 -35.5t59.5 -42t36.5 -35l11 -15v719h172v-1548h-157v137q-4 -7 -11.5 -17.5t-36 -38.5t-62 -49.5t-90 -39t-120.5 -17.5q-192 0 -325 144.5t-133 353.5zM238 473q0 -144 86 -241t227 -97q53 0 101 17t78.5 41 t54 48t33.5 41l11 17v348q-4 7 -11 18t-32.5 39t-55 50t-78 39.5t-101.5 17.5q-138 0 -225.5 -97.5t-87.5 -240.5z" />
<glyph unicode="e" d="M66 473q0 138 58 251t167 180t248 67q201 0 330.5 -139t129.5 -365q0 -32 -2 -55h-764q8 -110 102 -193.5t224 -83.5q52 0 100.5 14.5t80.5 35t56.5 40.5t35.5 35l12 14l108 -112q-6 -8 -17 -20.5t-49 -44.5t-80.5 -57t-109.5 -45t-137 -20q-214 0 -353.5 143t-139.5 355 zM238 555h593q-2 42 -22 85t-54.5 82t-91 64t-124.5 25q-73 0 -131 -25.5t-92.5 -66t-53.5 -82.5t-24 -82z" />
<glyph unicode="f" horiz-adv-x="702" d="M41 791v155h197v326q0 72 26 131t68.5 95t93 55.5t102.5 19.5q99 0 199 -55l-63 -142q-58 37 -111 37q-68 0 -105.5 -40.5t-37.5 -110.5v-316h245v-155h-245v-791h-172v791h-197z" />
<glyph unicode="g" horiz-adv-x="1132" d="M66 473q0 209 133 353.5t325 144.5q64 0 120 -16.5t91 -40.5t61 -48t37 -40l11 -17v137h157v-950q0 -120 -39 -215t-107 -154.5t-157.5 -91t-193.5 -31.5q-73 0 -142.5 18.5t-116.5 45t-83.5 53.5t-53.5 45l-18 19l105 129q5 -6 13.5 -16t39 -36t63.5 -46t85.5 -36 t107.5 -16q153 0 239 83.5t86 240.5v131q-16 -21 -38.5 -41.5t-60 -46t-91.5 -41t-115 -15.5q-192 0 -325 144.5t-133 353.5zM238 473q0 -144 86 -241t227 -97q53 0 101 16.5t78.5 40t54 47t33.5 39.5l11 17v356q-4 7 -11 17.5t-33 38t-55.5 48.5t-78 38.5t-100.5 17.5 q-141 0 -227 -97t-86 -241z" />
<glyph unicode="h" horiz-adv-x="1105" d="M168 0v1548h172v-717q15 21 34 40.5t53 44.5t84 40t107 15q96 0 176 -41t130.5 -125.5t50.5 -196.5v-608h-172v580q0 116 -63 173.5t-165 57.5q-43 0 -83 -16.5t-66.5 -40t-46.5 -47t-29 -39.5l-10 -17v-651h-172z" />
<glyph unicode="i" horiz-adv-x="495" d="M131 1249q0 47 35 82t82 35t82 -35t35 -82t-35 -81.5t-82 -34.5t-82 34.5t-35 81.5zM162 0v946h172v-946h-172z" />
<glyph unicode="j" horiz-adv-x="526" d="M-49 -453l61 144q47 -27 72 -27q21 0 37.5 4.5t34 18t27.5 45t10 78.5v1136h172v-1153q0 -65 -17 -116.5t-43 -83t-60.5 -52.5t-67.5 -29t-66 -8q-88 0 -160 43zM162 1249q0 47 35 82t82 35t81.5 -35t34.5 -82t-34.5 -81.5t-81.5 -34.5t-82 34.5t-35 81.5z" />
<glyph unicode="k" horiz-adv-x="1011" d="M168 0v1548h172v-1022l405 420h226l-443 -446l480 -500h-240l-428 459v-459h-172z" />
<glyph unicode="l" horiz-adv-x="507" d="M168 0v1548h172v-1548h-172z" />
<glyph unicode="m" horiz-adv-x="1589" d="M131 0v946h160v-139q3 7 8.5 18t28 39t50 50t74.5 39.5t101 17.5q66 0 120.5 -18t85.5 -44t52.5 -52t28.5 -44l8 -18q3 7 9.5 19t30.5 42.5t53.5 53.5t80 42t108.5 19q150 0 239 -95.5t89 -267.5v-608h-172v582q0 113 -54 171t-149 58q-39 0 -74.5 -15.5t-58 -38t-39 -45 t-23.5 -38.5l-7 -15v-659h-172v582q0 113 -54 171t-149 58q-39 0 -74 -15.5t-57.5 -38t-39.5 -45t-25 -38.5l-7 -15v-659h-172z" />
<glyph unicode="n" horiz-adv-x="1069" d="M131 0v946h160v-133q4 6 11 17t32.5 38t56.5 48t82.5 38t108.5 17q148 0 252 -97.5t104 -265.5v-608h-172v580q0 116 -63 173.5t-164 57.5q-43 0 -83 -16.5t-67 -40t-47 -47t-30 -39.5l-9 -17v-651h-172z" />
<glyph unicode="o" horiz-adv-x="1105" d="M66 473q0 210 139.5 354t347.5 144t347.5 -144t139.5 -354t-139.5 -354t-347.5 -144t-347.5 144t-139.5 354zM238 473q0 -143 87.5 -240.5t227.5 -97.5t227.5 97.5t87.5 240.5t-87.5 240.5t-227.5 97.5t-227.5 -97.5t-87.5 -240.5z" />
<glyph unicode="p" horiz-adv-x="1132" d="M131 -471v1417h158v-137q4 7 11.5 17.5t36 38.5t62 49.5t90 39t119.5 17.5q192 0 325.5 -144.5t133.5 -353.5t-133.5 -353.5t-325.5 -144.5q-61 0 -115 15.5t-91.5 40t-60 45t-38.5 41.5v-588h-172zM303 297q4 -7 11 -17.5t33 -38.5t55.5 -49.5t78 -39t101.5 -17.5 q141 0 227 97t86 241t-86 241t-227 97q-53 0 -101 -16.5t-79 -40.5t-54.5 -48t-33.5 -40l-11 -17v-352z" />
<glyph unicode="q" horiz-adv-x="1132" d="M66 473q0 209 133 353.5t325 144.5q63 0 119 -16.5t91.5 -40.5t61.5 -48t37 -40l11 -17v137h157v-1417h-172v588q-16 -21 -38.5 -41.5t-60 -45t-91.5 -40t-115 -15.5q-192 0 -325 144.5t-133 353.5zM238 473q0 -144 86 -241t227 -97q53 0 101 16.5t78.5 40.5t54 48 t33.5 40l11 17v352q-4 7 -11 17.5t-32.5 38.5t-55 49.5t-78 39t-101.5 17.5q-141 0 -227 -97t-86 -241z" />
<glyph unicode="r" horiz-adv-x="696" d="M131 0v946h160v-145q3 7 10 18.5t31 40.5t52 51.5t74.5 41t96.5 18.5q35 0 69 -6.5t51 -12.5l17 -6l-63 -155q-37 20 -109 20q-42 0 -80 -16.5t-62 -40t-41.5 -47t-25.5 -39.5l-8 -17v-651h-172z" />
<glyph unicode="s" horiz-adv-x="931" d="M70 174l118 111q4 -6 12 -16.5t35.5 -37t58 -47t80 -37t101.5 -16.5q79 0 142 31.5t63 85.5q0 60 -51.5 94.5t-163.5 56.5q-80 16 -140.5 39.5t-108 58.5t-72.5 85.5t-25 115.5q0 108 98 190.5t250 82.5q62 0 121 -15t99 -36t70.5 -42t44.5 -36l15 -15l-112 -116l-11 11 t-31.5 25t-50.5 32t-65.5 25t-79.5 11q-86 0 -133 -35.5t-47 -85.5q0 -53 54 -85t175 -58q59 -13 104.5 -27.5t90.5 -39t74 -55t47 -76t18 -101.5q0 -87 -56.5 -151.5t-140.5 -95t-178 -30.5q-74 0 -143.5 20.5t-115 49.5t-80 58.5t-50.5 50.5z" />
<glyph unicode="t" horiz-adv-x="770" d="M49 791v155h184v289h173v-289h294v-155h-294v-510q0 -70 34.5 -108t102.5 -38q24 0 51 9.5t42 19.5l15 10l64 -141q-106 -58 -197 -58q-53 0 -102 17.5t-91 52t-67 93.5t-25 134v519h-184z" />
<glyph unicode="u" horiz-adv-x="1069" d="M131 338v608h172v-579q0 -116 63 -174t164 -58q45 0 85.5 16t67 39t46 46t28.5 39l9 16v655h172v-946h-160v145q-4 -7 -11 -18.5t-32.5 -40.5t-56.5 -51.5t-82.5 -41t-108.5 -18.5q-148 0 -252 97.5t-104 265.5z" />
<glyph unicode="v" horiz-adv-x="970" d="M12 946h189l291 -641l290 641h176l-473 -987z" />
<glyph unicode="w" horiz-adv-x="1519" d="M16 946h187l254 -612l250 612h116l252 -612l252 612h176l-432 -987l-311 711l-311 -711z" />
<glyph unicode="x" horiz-adv-x="1001" d="M45 0l344 487l-323 459h200l240 -348l237 348h191l-318 -459l340 -487h-202l-260 371l-256 -371h-193z" />
<glyph unicode="y" horiz-adv-x="1024" d="M20 946h195l332 -747l282 747h187q-475 -1196 -498 -1251q-39 -97 -110 -144t-152 -47q-52 0 -102 17t-74 34l-25 17l74 141q60 -49 113 -49t84.5 35t62.5 111l74 186z" />
<glyph unicode="z" horiz-adv-x="962" d="M70 0l542 786h-514v160h817l-542 -786h520v-160h-823z" />
<glyph unicode="{" horiz-adv-x="638" d="M53 463v119q35 0 61 3.5t54.5 16t47 34t30.5 60.5t12 92v451q0 122 79 199.5t200 77.5h41v-148h-21q-69 0 -104 -34t-35 -128v-418q0 -253 -223 -262v-8q223 -9 223 -262v-418q0 -94 35 -128t104 -34h21v-147h-41q-144 0 -211.5 73t-67.5 203v451q0 53 -12 92t-30.5 60.5 t-47 34.5t-54.5 16.5t-61 3.5z" />
<glyph unicode="|" horiz-adv-x="532" d="M184 -471v1987h164v-1987h-164z" />
<glyph unicode="}" horiz-adv-x="638" d="M61 -324h21q69 0 104 34t35 128v418q0 253 223 262v8q-223 9 -223 262v418q0 94 -35 128t-104 34h-21v148h41q121 0 200 -77.5t79 -199.5v-451q0 -53 12 -92t30.5 -60.5t47 -34t54.5 -16t61 -3.5v-119q-35 0 -61 -3.5t-54.5 -16.5t-47 -34.5t-30.5 -60.5t-12 -92v-451 q0 -130 -67.5 -203t-211.5 -73h-41v147z" />
<glyph unicode="~" horiz-adv-x="880" d="M41 639q3 8 9.5 20.5t30 44.5t51 56.5t74.5 44.5t99 20q47 0 99 -24t96.5 -48t74.5 -24q33 0 61 12.5t43.5 30.5t26.5 35.5t15 30.5l4 12l115 -80q-3 -8 -8.5 -20.5t-27.5 -44.5t-48.5 -56.5t-72.5 -44.5t-99 -20q-50 0 -104.5 24t-99.5 48t-71 24q-33 0 -61 -12.5 t-44 -30t-27 -35.5t-15 -30l-4 -13z" />
<glyph unicode="&#xa1;" horiz-adv-x="567" d="M168 854q0 46 35.5 81.5t81.5 35.5q45 0 79.5 -35.5t34.5 -81.5t-34 -80.5t-80 -34.5t-81.5 34.5t-35.5 80.5zM199 -487v1062h172v-1062h-172z" />
<glyph unicode="&#xa2;" horiz-adv-x="1187" d="M180 473q0 189 117.5 328t300.5 164v178h104v-174q61 -4 119 -22.5t96.5 -42.5t68.5 -47.5t44 -39.5l14 -16l-116 -105q-3 4 -9.5 11t-28.5 24.5t-46 32t-62.5 28t-79.5 17.5v-672q45 4 86.5 19t68.5 34t47.5 37t29.5 31l10 12l111 -112q-5 -7 -15 -18t-44 -40.5 t-72 -52.5t-98 -44.5t-124 -25.5v-170h-104v175q-183 23 -300.5 161t-117.5 330zM352 473q0 -124 66.5 -216t179.5 -116v662q-112 -23 -179 -115t-67 -215z" />
<glyph unicode="&#xa3;" horiz-adv-x="1187" d="M135 63q3 6 8.5 16.5t25 39.5t41 53.5t56 50.5t70.5 39q3 3 8.5 9.5t19.5 27t24.5 43t19 57t8.5 68.5q0 79 -45 164h-228v131h152q-61 101 -83 163.5t-22 137.5q0 65 24 131t72 126.5t133.5 99t194.5 38.5q68 0 134 -21t111 -50.5t80 -59.5t52 -51l17 -21l-119 -114 q-4 6 -11.5 16.5t-34 37t-56 46.5t-76.5 36.5t-97 16.5q-67 0 -118.5 -24t-79 -60.5t-41 -74.5t-13.5 -72q0 -20 1.5 -36.5t8.5 -37.5t11 -32.5t19.5 -40t22 -40t31.5 -53.5t36 -61h348v-131h-283q31 -74 31 -168q0 -54 -15 -103.5t-30 -72.5l-15 -23q48 -13 93.5 -45.5 t85.5 -56t88 -23.5q34 0 64 13.5t48.5 32.5t31.5 38.5t19 32.5l5 14l127 -88q-3 -8 -10 -22t-32.5 -50t-56.5 -63t-83.5 -49.5t-112.5 -22.5q-66 0 -119.5 22t-83.5 48t-71 48t-85 22q-34 0 -65 -14.5t-50 -35t-33 -41t-20 -34.5l-6 -15z" />
<glyph unicode="&#xa4;" horiz-adv-x="1187" d="M68 248l139 139q-88 125 -88 275q0 149 88 274l-139 139l112 113l139 -139q125 88 275 88q149 0 274 -88l140 139l112 -113l-139 -139q88 -125 88 -274q0 -150 -88 -275l139 -139l-112 -113l-140 139q-125 -88 -274 -88q-150 0 -275 88l-139 -139zM266 662 q0 -137 95 -232.5t233 -95.5q136 0 232 96t96 232q0 138 -95.5 232.5t-232.5 94.5q-138 0 -233 -94.5t-95 -232.5z" />
<glyph unicode="&#xa5;" horiz-adv-x="1187" d="M39 1434h184l373 -699l369 699h184l-277 -514h246v-132h-315l-78 -143h393v-131h-436v-514h-172v514h-436v131h391l-78 143h-313v132h243z" />
<glyph unicode="&#xa6;" horiz-adv-x="532" d="M184 328h164v-799h-164v799zM184 717v799h164v-799h-164z" />
<glyph unicode="&#xa7;" horiz-adv-x="1040" d="M156 520q0 60 21 111t57 86t69.5 57.5t71.5 38.5q-98 58 -149.5 133t-51.5 184q0 139 106 233.5t261 94.5q60 0 116.5 -17.5t94 -42t66.5 -49t42 -41.5l14 -18l-120 -110q-3 5 -8.5 12.5t-25.5 27t-43 34.5t-60 27.5t-76 12.5q-90 0 -142.5 -48t-52.5 -116q0 -25 6 -47 t14 -39t26 -35t31 -29t41 -28.5t43.5 -26t51.5 -27.5t53 -28q134 -73 181 -111q107 -89 108 -218q0 -60 -21.5 -111.5t-57.5 -87t-69.5 -58t-70.5 -38.5q97 -57 149 -132t52 -184q0 -139 -105.5 -233t-261.5 -94q-60 0 -116.5 17.5t-94.5 42.5t-67 50t-42 43l-14 17l121 110 q3 -5 8.5 -12.5t25.5 -27.5t43 -35.5t60 -28t76 -12.5q90 0 142.5 47.5t52.5 115.5q0 25 -6 47t-14 39t-26.5 35t-31.5 29.5t-41 28t-44 25.5t-51.5 28t-52.5 28q-38 21 -51.5 28.5t-46.5 26.5t-46 29t-38.5 30t-36.5 34t-27.5 36.5t-23.5 43t-12.5 47t-5.5 55.5zM322 532 q0 -27 10.5 -50.5t23.5 -40t45 -38t55.5 -34.5t75.5 -41l11 -6q30 8 57 20t60.5 35t54 62.5t20.5 88.5q0 34 -12 59.5t-45 51.5t-62 43t-92 51l-8 4q-29 -7 -57 -19t-61.5 -35t-54.5 -62.5t-21 -88.5z" />
<glyph unicode="&#xa8;" horiz-adv-x="800" d="M98 1249q0 47 35 82t82 35t82 -35t35 -82t-35 -81.5t-82 -34.5t-82 34.5t-35 81.5zM469 1249q0 47 35 82t82 35t81.5 -35t34.5 -82t-34.5 -81.5t-81.5 -34.5t-82 34.5t-35 81.5z" />
<glyph unicode="&#xa9;" horiz-adv-x="1677" d="M98 717q0 202 99.5 372.5t270 269.5t372.5 99q151 0 288 -58.5t235.5 -157.5t157 -236.5t58.5 -288.5q0 -202 -98.5 -372.5t-268.5 -270t-372 -99.5t-372.5 99.5t-270 270t-99.5 372.5zM219 717q0 -125 49.5 -240t133 -198.5t198.5 -133t240 -49.5t239.5 49.5t197.5 133 t132 198.5t49 240q0 167 -83 310t-225.5 226.5t-309.5 83.5q-125 0 -240 -49.5t-198.5 -132.5t-133 -198t-49.5 -240zM475 717q0 170 113.5 286.5t281.5 116.5q49 0 96 -13.5t79.5 -33t57.5 -39.5t37 -34l13 -13l-84 -74q-3 4 -9 10.5t-26.5 22.5t-42 28.5t-55 23 t-66.5 10.5q-126 0 -197 -81.5t-71 -209.5q0 -127 71 -208t197 -81q34 0 68 10.5t57.5 25t42 29.5t28.5 24.5t11 8.5l78 -75q-4 -6 -12.5 -15t-36.5 -33t-59 -42t-79 -33t-98 -15q-168 0 -281.5 118t-113.5 286z" />
<glyph unicode="&#xaa;" horiz-adv-x="671" d="M68 1059q0 82 60.5 134t152.5 52q46 0 86 -10.5t57 -21.5l16 -11v33q0 48 -41 71t-88 23q-38 0 -76.5 -11.5t-57.5 -23.5l-19 -12l-62 115q10 7 28 17t77.5 27t122.5 17q116 0 187 -60.5t71 -148.5v-364h-131v71q-2 -3 -7 -9t-21.5 -21t-36.5 -26t-52 -20.5t-68 -9.5 q-77 0 -137.5 52t-60.5 137zM209 1065q0 -39 30.5 -57.5t69.5 -18.5q38 0 71 16.5t46 32.5l14 17v47q-53 37 -129 37q-39 0 -70.5 -17.5t-31.5 -56.5z" />
<glyph unicode="&#xab;" horiz-adv-x="999" d="M29 502l362 473l121 -90l-299 -383l299 -383l-121 -90zM403 502l363 473l121 -90l-299 -383l299 -383l-121 -90z" />
<glyph unicode="&#xac;" horiz-adv-x="1388" d="M45 864v160h1229v-614h-156v454h-1073z" />
<glyph unicode="&#xad;" horiz-adv-x="681" d="M68 418v164h546v-164h-546z" />
<glyph unicode="&#xae;" horiz-adv-x="923" d="M45 1087q0 172 122 295t294 123t295 -123t123 -295q0 -171 -123 -293t-295 -122t-294 121.5t-122 293.5zM150 1087q0 -131 91 -222t222 -91t223 91.5t92 221.5q0 131 -92.5 223.5t-222.5 92.5t-221.5 -92.5t-91.5 -223.5zM315 895v393h187q57 0 93 -37.5t36 -91.5 q0 -43 -24 -76t-64 -45l102 -143h-115l-86 133h-30v-133h-99zM414 1110h57q61 0 61 49t-61 49h-57v-98z" />
<glyph unicode="&#xaf;" horiz-adv-x="643" d="M12 1171v142h619v-142h-619z" />
<glyph unicode="&#xb0;" horiz-adv-x="679" d="M45 1163q0 121 86.5 208t208.5 87t208.5 -87t86.5 -208t-86.5 -208t-208.5 -87t-208.5 87t-86.5 208zM193 1161q0 -61 41.5 -103t103.5 -42t104.5 42t42.5 103q0 62 -43 105t-104 43t-103 -43t-42 -105z" />
<glyph unicode="&#xb1;" d="M92 0v139h881v-139h-881zM92 535v143h365v293h151v-293h365v-143h-365v-306h-151v306h-365z" />
<glyph unicode="&#xb2;" horiz-adv-x="716" d="M57 1442q30 89 105.5 149t179.5 60q123 0 201 -74.5t78 -200.5q0 -64 -22 -116.5t-75 -114.5l-205 -227h312v-111h-572l338 371q36 39 54 60.5t36.5 60.5t18.5 77q0 70 -42 119t-122 49q-66 0 -111.5 -41.5t-68.5 -103.5z" />
<glyph unicode="&#xb3;" horiz-adv-x="720" d="M74 993l96 47l5 -15t17 -33t32.5 -42.5t52 -33.5t73.5 -15q72 0 121 35.5t49 97.5q0 70 -41.5 108t-118.5 38h-49v106h35q75 0 121.5 32t46.5 99q0 55 -40 91t-105 36q-34 0 -64 -11.5t-48.5 -28.5t-31.5 -34t-19 -28l-5 -12l-95 47q3 7 8.5 19t27 42t48.5 52.5t75 41.5 t104 19q113 0 186.5 -67t73.5 -167q0 -37 -11.5 -69.5t-28 -52t-33.5 -33.5t-28 -20l-12 -5q5 -1 13 -4t28.5 -18t36 -35t28.5 -59t13 -87q0 -109 -83 -174t-202 -65q-61 0 -112 20.5t-80 49.5t-49.5 58t-27.5 49z" />
<glyph unicode="&#xb4;" horiz-adv-x="540" d="M92 1130l305 306l107 -107l-309 -295z" />
<glyph unicode="&#xb5;" horiz-adv-x="1081" d="M135 -471v1417h172v-571q0 -117 64 -178.5t164 -61.5q46 0 87.5 16.5t68 40t46.5 47t29 39.5l8 17v651h172v-946h-160v145q-3 -7 -10 -18.5t-33 -40.5t-56.5 -51.5t-83 -41t-111.5 -18.5q-103 0 -185 45v-491h-172z" />
<glyph unicode="&#xb6;" horiz-adv-x="1265" d="M74 946q0 132 65.5 244.5t177.5 178t244 65.5h537v-1819h-172v1659h-193v-1659h-172v848q-132 0 -244 64.5t-177.5 175.5t-65.5 243z" />
<glyph unicode="&#xb7;" horiz-adv-x="471" d="M119 717q0 47 35 82t82 35t81.5 -35t34.5 -82t-34.5 -82t-81.5 -35t-82 35t-35 82z" />
<glyph unicode="&#xb8;" horiz-adv-x="645" d="M180 -471l127 375l158 -19l-121 -405z" />
<glyph unicode="&#xb9;" horiz-adv-x="589" d="M25 1386l303 252h98v-831h-115v676l-219 -180z" />
<glyph unicode="&#xba;" horiz-adv-x="679" d="M45 1163q0 121 86.5 208t208.5 87t208.5 -87t86.5 -208t-86.5 -208t-208.5 -87t-208.5 87t-86.5 208zM178 1163q0 -72 46.5 -115.5t115.5 -43.5t115.5 43.5t46.5 115.5t-46.5 117t-115.5 45t-115.5 -45t-46.5 -117z" />
<glyph unicode="&#xbb;" horiz-adv-x="999" d="M113 119l299 383l-299 383l120 90l363 -473l-363 -473zM487 119l299 383l-299 383l121 90l363 -473l-363 -473z" />
<glyph unicode="&#xbc;" horiz-adv-x="1699" d="M94 1182l303 252h99v-832h-115v676l-219 -180zM387 0l973 1495l88 -61l-969 -1497zM954 190l445 641h102v-530h111v-111h-111v-190h-115v190h-432zM1155 301h231v336z" />
<glyph unicode="&#xbd;" horiz-adv-x="1699" d="M94 1182l303 252h99v-832h-115v676l-219 -180zM289 0l973 1495l88 -61l-969 -1497zM995 635q30 89 105.5 149t179.5 60q123 0 201 -74.5t78 -200.5q0 -64 -22 -116.5t-75 -114.5l-205 -227h312v-111h-572l338 371q36 39 54 60.5t36.5 60.5t18.5 77q0 70 -42 119t-122 49 q-66 0 -111.5 -41.5t-68.5 -103.5z" />
<glyph unicode="&#xbe;" horiz-adv-x="1699" d="M100 788l97 48q2 -6 5 -15.5t17 -33.5t32.5 -42.5t52 -33.5t73.5 -15q72 0 121 35.5t49 97.5q0 70 -41.5 108t-118.5 38h-49v106h35q75 0 121.5 32t46.5 99q0 55 -40.5 91t-105.5 36q-34 0 -64 -11.5t-48.5 -28.5t-31.5 -34t-19 -29l-5 -11l-94 47q3 7 8 19t27 42 t49 52.5t74.5 41.5t103.5 19q113 0 186.5 -67t73.5 -167q0 -37 -11.5 -69.5t-28 -52t-33 -33.5t-28.5 -19l-11 -6q5 -1 13 -4t28.5 -18t36 -35t28.5 -59t13 -87q0 -109 -83 -174t-202 -65q-61 0 -112 20.5t-80.5 49.5t-49.5 58t-27 50zM387 0l973 1495l88 -61l-969 -1497z M956 190l445 641h102v-530h111v-111h-111v-190h-114v190h-433zM1157 301h232v336z" />
<glyph unicode="&#xbf;" horiz-adv-x="987" d="M94 -117q0 56 15.5 109t35 89t54.5 75.5t56.5 59.5t57.5 50q37 30 56.5 48.5t33 33.5t18 33t6 32t1.5 46v119h160v-119q0 -109 -23.5 -158t-120.5 -133q-8 -7 -36 -30.5t-37.5 -32.5t-31.5 -31t-31 -38.5t-21 -41t-16.5 -52t-4.5 -59.5q0 -96 71.5 -165.5t174.5 -69.5 q59 0 110 21.5t82 52.5t53 62.5t31 53.5l9 21l147 -70q-2 -6 -6 -17t-21 -42t-37.5 -59.5t-56.5 -63.5t-78 -60t-103 -42t-130 -17q-173 0 -295.5 113.5t-122.5 281.5zM391 856q0 47 35 81t82 34t81 -34t34 -81t-34 -82t-81 -35t-82 35t-35 82z" />
<glyph unicode="&#xc0;" horiz-adv-x="1314" d="M16 0l564 1434h159l559 -1434h-180l-149 387h-619l-149 -387h-185zM395 1817l107 106l305 -305l-102 -96zM414 551h491l-246 637z" />
<glyph unicode="&#xc1;" horiz-adv-x="1314" d="M16 0l564 1434h159l559 -1434h-180l-149 387h-619l-149 -387h-185zM414 551h491l-246 637zM512 1618l305 305l107 -106l-310 -295z" />
<glyph unicode="&#xc2;" horiz-adv-x="1314" d="M16 0l564 1434h159l559 -1434h-180l-149 387h-619l-149 -387h-185zM324 1636l340 248l340 -248l-95 -110l-245 188l-246 -188zM414 551h491l-246 637z" />
<glyph unicode="&#xc3;" horiz-adv-x="1314" d="M16 0l564 1434h159l559 -1434h-180l-149 387h-619l-149 -387h-185zM307 1655q2 7 7 18.5t25 41t44 52.5t67 41.5t93 18.5q45 0 89 -23t80 -46t60 -23t45 10.5t33.5 25.5t22 30t13.5 25l3 11l119 -76q-2 -7 -6.5 -18.5t-23 -41t-42.5 -52.5t-66 -41.5t-92 -18.5 q-48 0 -93 23t-80.5 46t-59.5 23q-25 0 -46 -10.5t-33.5 -25.5t-21.5 -30t-12 -25l-4 -11zM414 551h491l-246 637z" />
<glyph unicode="&#xc4;" horiz-adv-x="1314" d="M16 0l564 1434h159l559 -1434h-180l-149 387h-619l-149 -387h-185zM356 1716q0 47 35 82t82 35t82 -35t35 -82t-35 -82t-82 -35t-82 35t-35 82zM414 551h491l-246 637zM727 1716q0 47 35 82t82 35t82 -35t35 -82t-35 -82t-82 -35t-82 35t-35 82z" />
<glyph unicode="&#xc5;" horiz-adv-x="1314" d="M16 0l564 1434h159l559 -1434h-180l-149 387h-619l-149 -387h-185zM414 551h491l-246 637zM438 1720q0 92 64.5 157t156.5 65t157 -65t65 -157t-65 -156.5t-157 -64.5t-156.5 64.5t-64.5 156.5zM547 1720q0 -47 32.5 -79.5t79.5 -32.5t80 32.5t33 79.5t-33 80t-80 33 t-79.5 -33t-32.5 -80z" />
<glyph unicode="&#xc6;" horiz-adv-x="1812" d="M16 0l836 1434h842v-164h-574v-453h525v-164h-525v-489h586v-164h-758v387h-516l-225 -387h-191zM526 551h422v721z" />
<glyph unicode="&#xc7;" horiz-adv-x="1357" d="M78 717q0 154 53 290.5t145.5 235.5t225 157t284.5 58q94 0 181.5 -22.5t145.5 -55t102 -64.5t65 -54l20 -23l-118 -113q-5 7 -16 18t-48 40t-79.5 51.5t-111 40.5t-141.5 18q-151 0 -272.5 -81t-186.5 -212t-65 -284q0 -114 38.5 -219t106 -184.5t166.5 -127t213 -47.5 q73 0 142.5 19.5t116.5 48t83.5 56.5t53.5 47l18 20l117 -119q-8 -10 -23 -25.5t-67 -56.5t-109 -72t-147.5 -56.5t-184.5 -25.5q-152 0 -284.5 58t-225 157.5t-145.5 236t-53 290.5zM528 -471l127 375l158 -19l-121 -405z" />
<glyph unicode="&#xc8;" horiz-adv-x="1114" d="M168 0v1434h827v-164h-655v-453h606v-164h-606v-489h668v-164h-840zM330 1817l106 106l305 -305l-102 -96z" />
<glyph unicode="&#xc9;" horiz-adv-x="1114" d="M168 0v1434h827v-164h-655v-453h606v-164h-606v-489h668v-164h-840zM410 1618l305 305l106 -106l-309 -295z" />
<glyph unicode="&#xca;" horiz-adv-x="1114" d="M168 0v1434h827v-164h-655v-453h606v-164h-606v-489h668v-164h-840zM240 1636l340 248l340 -248l-95 -110l-245 188l-246 -188z" />
<glyph unicode="&#xcb;" horiz-adv-x="1114" d="M168 0v1434h827v-164h-655v-453h606v-164h-606v-489h668v-164h-840zM289 1716q0 47 35 82t82 35t81.5 -35t34.5 -82t-34.5 -82t-81.5 -35t-82 35t-35 82zM659 1716q0 47 35 82t82 35t82 -35t35 -82t-35 -82t-82 -35t-82 35t-35 82z" />
<glyph unicode="&#xcc;" horiz-adv-x="565" d="M41 1817l106 106l306 -305l-103 -96zM197 0v1434h172v-1434h-172z" />
<glyph unicode="&#xcd;" horiz-adv-x="565" d="M113 1618l305 305l106 -106l-309 -295zM197 0v1434h172v-1434h-172z" />
<glyph unicode="&#xce;" horiz-adv-x="565" d="M-57 1640l340 248l340 -248l-95 -110l-245 188l-246 -188zM197 0v1434h172v-1434h-172z" />
<glyph unicode="&#xcf;" horiz-adv-x="565" d="M-41 1716q0 47 35 82t82 35t82 -35t35 -82t-35 -82t-82 -35t-82 35t-35 82zM174 0v1434h172v-1434h-172zM330 1716q0 47 34.5 82t81.5 35t82 -35t35 -82t-35 -82t-82 -35t-81.5 35t-34.5 82z" />
<glyph unicode="&#xd0;" horiz-adv-x="1376" d="M25 668v143h174v623h391q204 0 366 -92.5t252 -256t90 -368.5t-90 -368.5t-252 -256t-366 -92.5h-391v668h-174zM371 164h219q152 0 272.5 74.5t186 200.5t65.5 278t-65.5 278t-186 200.5t-272.5 74.5h-219v-459h415v-143h-415v-504z" />
<glyph unicode="&#xd1;" horiz-adv-x="1454" d="M168 0v1434h178l768 -1147v1147h172v-1434h-178l-768 1147v-1147h-172zM385 1696q2 7 7 18.5t25 41t44 52.5t67 41.5t93 18.5q45 0 89 -23t80 -46t60 -23t45 10.5t33.5 25.5t22 30t13.5 26l3 10l118 -76q-2 -7 -6.5 -18.5t-23 -41t-42 -52.5t-65.5 -41.5t-92 -18.5 q-48 0 -93 23t-80.5 46t-59.5 23q-25 0 -46 -10.5t-33.5 -25.5t-21.5 -30t-12 -26l-4 -10z" />
<glyph unicode="&#xd2;" horiz-adv-x="1572" d="M78 717q0 154 53 290.5t145.5 235.5t225 157t284.5 58q203 0 366 -98.5t253 -268t90 -374.5t-90 -374.5t-253 -268.5t-366 -99q-152 0 -284.5 58t-225 157.5t-145.5 236t-53 290.5zM262 717q0 -114 38.5 -219t105.5 -184.5t166.5 -127t213.5 -47.5q152 0 273.5 81 t186.5 212.5t65 284.5t-65 284t-186.5 212t-273.5 81t-273.5 -81t-186 -212t-64.5 -284zM535 1837l106 107l305 -306l-102 -96z" />
<glyph unicode="&#xd3;" horiz-adv-x="1572" d="M78 717q0 154 53 290.5t145.5 235.5t225 157t284.5 58q203 0 366 -98.5t253 -268t90 -374.5t-90 -374.5t-253 -268.5t-366 -99q-152 0 -284.5 58t-225 157.5t-145.5 236t-53 290.5zM262 717q0 -114 38.5 -219t105.5 -184.5t166.5 -127t213.5 -47.5q152 0 273.5 81 t186.5 212.5t65 284.5t-65 284t-186.5 212t-273.5 81t-273.5 -81t-186 -212t-64.5 -284zM610 1638l305 306l107 -107l-309 -295z" />
<glyph unicode="&#xd4;" horiz-adv-x="1572" d="M78 717q0 154 53 290.5t145.5 235.5t225 157t284.5 58q203 0 366 -98.5t253 -268t90 -374.5t-90 -374.5t-253 -268.5t-366 -99q-152 0 -284.5 58t-225 157.5t-145.5 236t-53 290.5zM262 717q0 -114 38.5 -219t105.5 -184.5t166.5 -127t213.5 -47.5q152 0 273.5 81 t186.5 212.5t65 284.5t-65 284t-186.5 212t-273.5 81t-273.5 -81t-186 -212t-64.5 -284zM446 1640l340 248l340 -248l-94 -110l-246 188l-245 -188z" />
<glyph unicode="&#xd5;" horiz-adv-x="1572" d="M78 717q0 154 53 290.5t145.5 235.5t225 157t284.5 58q203 0 366 -98.5t253 -268t90 -374.5t-90 -374.5t-253 -268.5t-366 -99q-152 0 -284.5 58t-225 157.5t-145.5 236t-53 290.5zM262 717q0 -114 38.5 -219t105.5 -184.5t166.5 -127t213.5 -47.5q152 0 273.5 81 t186.5 212.5t65 284.5t-65 284t-186.5 212t-273.5 81t-273.5 -81t-186 -212t-64.5 -284zM436 1655q2 7 7 18.5t25 41t44 52.5t67 41.5t93 18.5q45 0 89 -23t80 -46t60 -23t45 10.5t33.5 25.5t22 30t12.5 25l4 11l119 -76q-2 -7 -6.5 -18.5t-23 -41t-42.5 -52.5t-66 -41.5 t-92 -18.5q-48 0 -93 23t-80.5 46t-59.5 23q-25 0 -46 -10.5t-33.5 -25.5t-21.5 -30t-13 -25l-3 -11z" />
<glyph unicode="&#xd6;" horiz-adv-x="1572" d="M78 717q0 154 53 290.5t145.5 235.5t225 157t284.5 58q203 0 366 -98.5t253 -268t90 -374.5t-90 -374.5t-253 -268.5t-366 -99q-152 0 -284.5 58t-225 157.5t-145.5 236t-53 290.5zM262 717q0 -114 38.5 -219t105.5 -184.5t166.5 -127t213.5 -47.5q152 0 273.5 81 t186.5 212.5t65 284.5t-65 284t-186.5 212t-273.5 81t-273.5 -81t-186 -212t-64.5 -284zM485 1716q0 47 35 82t82 35t82 -35t35 -82t-35 -82t-82 -35t-82 35t-35 82zM856 1716q0 47 35 82t82 35t82 -35t35 -82t-35 -82t-82 -35t-82 35t-35 82z" />
<glyph unicode="&#xd7;" d="M84 174l348 348l-348 348l100 101l348 -348l349 348l100 -101l-348 -348l348 -348l-100 -100l-349 348l-348 -348z" />
<glyph unicode="&#xd8;" horiz-adv-x="1589" d="M86 717q0 205 90 374.5t253 268t366 98.5q249 0 438 -149l151 180l91 -78l-156 -184q184 -209 184 -510q0 -154 -53 -290.5t-145.5 -236t-225 -157.5t-284.5 -58q-235 0 -418 134l-141 -166l-91 77l142 168q-96 102 -148.5 238t-52.5 291zM270 717q0 -224 133 -389 l715 846q-136 120 -323 120q-151 0 -272.5 -80.5t-187 -212t-65.5 -284.5zM489 244q130 -105 306 -105q114 0 213 47.5t166.5 127t106 184.5t38.5 219q0 208 -119 368z" />
<glyph unicode="&#xd9;" horiz-adv-x="1380" d="M168 528v906h172v-887q0 -184 86.5 -296t263.5 -112t263.5 112t86.5 296v887h172v-906q0 -248 -140 -400.5t-382 -152.5t-382 152.5t-140 400.5zM395 1817l107 106l305 -305l-102 -96z" />
<glyph unicode="&#xda;" horiz-adv-x="1380" d="M168 528v906h172v-887q0 -184 86.5 -296t263.5 -112t263.5 112t86.5 296v887h172v-906q0 -248 -140 -400.5t-382 -152.5t-382 152.5t-140 400.5zM575 1618l306 305l106 -106l-309 -295z" />
<glyph unicode="&#xdb;" horiz-adv-x="1380" d="M168 528v906h172v-887q0 -184 86.5 -296t263.5 -112t263.5 112t86.5 296v887h172v-906q0 -248 -140 -400.5t-382 -152.5t-382 152.5t-140 400.5zM350 1638l340 248l340 -248l-94 -110l-246 188l-246 -188z" />
<glyph unicode="&#xdc;" horiz-adv-x="1380" d="M168 528v906h172v-887q0 -184 86.5 -296t263.5 -112t263.5 112t86.5 296v887h172v-906q0 -248 -140 -400.5t-382 -152.5t-382 152.5t-140 400.5zM389 1716q0 47 35 82t82 35t82 -35t35 -82t-35 -82t-82 -35t-82 35t-35 82zM760 1716q0 47 35 82t82 35t81.5 -35t34.5 -82 t-34.5 -82t-81.5 -35t-82 35t-35 82z" />
<glyph unicode="&#xdd;" horiz-adv-x="1187" d="M25 1434h192l385 -705l379 705h182l-483 -871v-563h-172v563zM471 1618l305 305l107 -106l-310 -295z" />
<glyph unicode="&#xde;" horiz-adv-x="1105" d="M168 0v1434h172v-260h215q218 0 351.5 -104t133.5 -302t-133.5 -302t-351.5 -104h-215v-362h-172zM340 526h215q152 0 232.5 56t80.5 186t-80.5 186t-232.5 56h-215v-484z" />
<glyph unicode="&#xdf;" horiz-adv-x="1163" d="M135 0v1133q0 199 109 319.5t305 120.5q54 0 109.5 -12.5t111.5 -43t99.5 -74.5t70.5 -112.5t27 -152.5q0 -63 -19.5 -116.5t-47.5 -85t-56.5 -54t-47.5 -30.5l-20 -9q6 -1 17 -4.5t41.5 -17.5t58.5 -32.5t62.5 -53t59 -75.5t41.5 -102.5t17 -132.5q0 -101 -31 -184.5 t-83 -139t-121 -94t-142 -55.5t-149 -17h-62v160h52q178 0 271 93.5t93 236.5t-100.5 236.5t-294.5 93.5v151q67 0 118.5 14.5t83 37.5t52 55t28 62.5t7.5 64.5q0 26 -6 54.5t-23.5 61t-43.5 58t-71 42.5t-102 17q-67 0 -116 -25.5t-75.5 -69t-38.5 -92.5t-12 -106v-1120 h-172z" />
<glyph unicode="&#xe0;" horiz-adv-x="1048" d="M86 299q0 137 107 226t268 89q49 0 96 -8t79.5 -19t58 -22.5t37.5 -19.5l13 -8v51q0 56 -18 98.5t-44 65.5t-60.5 37t-62 18t-54.5 4q-64 0 -134.5 -20t-109.5 -40l-39 -20l-71 143q6 4 17 10.5t47.5 23t75.5 29.5t97.5 23.5t116.5 10.5q101 0 181.5 -29.5t129.5 -79 t75 -110.5t26 -129v-623h-158v137q-4 -7 -12.5 -17.5t-38.5 -38.5t-64.5 -49.5t-90.5 -39t-116 -17.5q-65 0 -127 22.5t-112.5 62.5t-81.5 102.5t-31 136.5zM258 299q0 -86 64 -129t153 -43q47 0 92 14.5t76 35.5t55 42.5t36 36.5l11 14v133q-10 8 -30 19t-84.5 30 t-132.5 19q-108 0 -174 -48.5t-66 -123.5zM322 1370l106 107l305 -306l-102 -96z" />
<glyph unicode="&#xe1;" horiz-adv-x="1048" d="M86 299q0 137 107 226t268 89q49 0 96 -8t79.5 -19t58 -22.5t37.5 -19.5l13 -8v51q0 56 -18 98.5t-44 65.5t-60.5 37t-62 18t-54.5 4q-64 0 -134.5 -20t-109.5 -40l-39 -20l-71 143q6 4 17 10.5t47.5 23t75.5 29.5t97.5 23.5t116.5 10.5q101 0 181.5 -29.5t129.5 -79 t75 -110.5t26 -129v-623h-158v137q-4 -7 -12.5 -17.5t-38.5 -38.5t-64.5 -49.5t-90.5 -39t-116 -17.5q-65 0 -127 22.5t-112.5 62.5t-81.5 102.5t-31 136.5zM258 299q0 -86 64 -129t153 -43q47 0 92 14.5t76 35.5t55 42.5t36 36.5l11 14v133q-10 8 -30 19t-84.5 30 t-132.5 19q-108 0 -174 -48.5t-66 -123.5zM428 1171l305 306l107 -107l-310 -295z" />
<glyph unicode="&#xe2;" horiz-adv-x="1048" d="M86 299q0 137 107 226t268 89q49 0 96 -8t79.5 -19t58 -22.5t37.5 -19.5l13 -8v51q0 56 -18 98.5t-44 65.5t-60.5 37t-62 18t-54.5 4q-64 0 -134.5 -20t-109.5 -40l-39 -20l-71 143q6 4 17 10.5t47.5 23t75.5 29.5t97.5 23.5t116.5 10.5q101 0 181.5 -29.5t129.5 -79 t75 -110.5t26 -129v-623h-158v137q-4 -7 -12.5 -17.5t-38.5 -38.5t-64.5 -49.5t-90.5 -39t-116 -17.5q-65 0 -127 22.5t-112.5 62.5t-81.5 102.5t-31 136.5zM207 1190l340 248l340 -248l-94 -111l-246 189l-246 -189zM258 299q0 -86 64 -129t153 -43q47 0 92 14.5t76 35.5 t55 42.5t36 36.5l11 14v133q-10 8 -30 19t-84.5 30t-132.5 19q-108 0 -174 -48.5t-66 -123.5z" />
<glyph unicode="&#xe3;" horiz-adv-x="1048" d="M86 299q0 137 107 226t268 89q49 0 96 -8t79.5 -19t58 -22.5t37.5 -19.5l13 -8v51q0 56 -18 98.5t-44 65.5t-60.5 37t-62 18t-54.5 4q-64 0 -134.5 -20t-109.5 -40l-39 -20l-71 143q6 4 17 10.5t47.5 23t75.5 29.5t97.5 23.5t116.5 10.5q101 0 181.5 -29.5t129.5 -79 t75 -110.5t26 -129v-623h-158v137q-4 -7 -12.5 -17.5t-38.5 -38.5t-64.5 -49.5t-90.5 -39t-116 -17.5q-65 0 -127 22.5t-112.5 62.5t-81.5 102.5t-31 136.5zM184 1206q2 7 7 18.5t25 41t44 52.5t67 41.5t93 18.5q45 0 89 -23t80 -46t60 -23q38 0 67.5 26t39.5 52l10 25 l119 -76q-2 -7 -6.5 -18.5t-23 -41t-42.5 -52.5t-66 -41.5t-92 -18.5q-48 0 -93 23t-80.5 46t-59.5 23q-25 0 -46 -10.5t-33.5 -25.5t-21.5 -30.5t-13 -26.5l-3 -10zM258 299q0 -86 64 -129t153 -43q47 0 92 14.5t76 35.5t55 42.5t36 36.5l11 14v133q-10 8 -30 19t-84.5 30 t-132.5 19q-108 0 -174 -48.5t-66 -123.5z" />
<glyph unicode="&#xe4;" horiz-adv-x="1048" d="M86 299q0 137 107 226t268 89q49 0 96 -8t79.5 -19t58 -22.5t37.5 -19.5l13 -8v51q0 56 -18 98.5t-44 65.5t-60.5 37t-62 18t-54.5 4q-64 0 -134.5 -20t-109.5 -40l-39 -20l-71 143q6 4 17 10.5t47.5 23t75.5 29.5t97.5 23.5t116.5 10.5q101 0 181.5 -29.5t129.5 -79 t75 -110.5t26 -129v-623h-158v137q-4 -7 -12.5 -17.5t-38.5 -38.5t-64.5 -49.5t-90.5 -39t-116 -17.5q-65 0 -127 22.5t-112.5 62.5t-81.5 102.5t-31 136.5zM236 1249q0 47 34.5 82t81.5 35t82 -35t35 -82t-35 -81.5t-82 -34.5t-81.5 34.5t-34.5 81.5zM258 299 q0 -86 64 -129t153 -43q47 0 92 14.5t76 35.5t55 42.5t36 36.5l11 14v133q-10 8 -30 19t-84.5 30t-132.5 19q-108 0 -174 -48.5t-66 -123.5zM606 1249q0 47 35 82t82 35t82 -35t35 -82t-35 -81.5t-82 -34.5t-82 34.5t-35 81.5z" />
<glyph unicode="&#xe5;" horiz-adv-x="1048" d="M86 299q0 137 107 226t268 89q49 0 96 -8t79.5 -19t58 -22.5t37.5 -19.5l13 -8v51q0 56 -18 98.5t-44 65.5t-60.5 37t-62 18t-54.5 4q-64 0 -134.5 -20t-109.5 -40l-39 -20l-71 143q6 4 17 10.5t47.5 23t75.5 29.5t97.5 23.5t116.5 10.5q101 0 181.5 -29.5t129.5 -79 t75 -110.5t26 -129v-623h-158v137q-4 -7 -12.5 -17.5t-38.5 -38.5t-64.5 -49.5t-90.5 -39t-116 -17.5q-65 0 -127 22.5t-112.5 62.5t-81.5 102.5t-31 136.5zM258 299q0 -86 64 -129t153 -43q47 0 92 14.5t76 35.5t55 42.5t36 36.5l11 14v133q-10 8 -30 19t-84.5 30 t-132.5 19q-108 0 -174 -48.5t-66 -123.5zM313 1321q0 92 65 156.5t157 64.5t156.5 -64.5t64.5 -156.5t-64.5 -156.5t-156.5 -64.5t-157 64.5t-65 156.5zM422 1321q0 -47 33 -80t80 -33t79.5 33t32.5 80t-32.5 80t-79.5 33t-80 -33t-33 -80z" />
<glyph unicode="&#xe6;" horiz-adv-x="1679" d="M86 274q0 68 23.5 119.5t59 81t84 48t91 24.5t86.5 6h295v18q0 115 -79 177.5t-191 62.5q-60 0 -120.5 -21.5t-90.5 -43.5l-31 -21l-86 135q6 5 16.5 12t45.5 26.5t71.5 34t89.5 26.5t105 12q270 0 383 -166q139 166 348 166q197 0 323.5 -139t126.5 -365q0 -32 -2 -55 h-743q5 -111 96.5 -194t216.5 -83q83 0 159.5 39.5t125.5 101.5l106 -110q-70 -85 -174.5 -138t-216.5 -53q-125 0 -230.5 58t-166.5 155q-53 -93 -151 -153t-226 -60q-92 0 -169 33.5t-126 103t-49 162.5zM258 274q0 -48 30.5 -81.5t67.5 -45.5t74 -12q130 0 212.5 73.5 t82.5 145.5v58q-76 4 -244 4q-46 0 -78.5 -4t-69 -17.5t-56 -43.5t-19.5 -77zM895 553h571q-2 42 -19.5 85.5t-50 83t-87.5 64.5t-123 25t-124.5 -26t-91 -66t-54 -83t-21.5 -83z" />
<glyph unicode="&#xe7;" horiz-adv-x="976" d="M66 473q0 137 63 251t175 180.5t249 66.5q68 0 131.5 -17.5t106 -42.5t75.5 -50t48 -43l16 -17l-117 -105q-4 5 -11 12.5t-32 27.5t-53 35t-72.5 27.5t-91.5 12.5q-140 0 -227.5 -97.5t-87.5 -240.5t87.5 -240.5t227.5 -97.5q52 0 99 14t78 33.5t54.5 39.5t33.5 34l11 14 l111 -112q-6 -7 -16.5 -19.5t-47.5 -44t-78.5 -55.5t-108 -44t-136.5 -20q-208 0 -347.5 144t-139.5 354zM330 -471l127 375l157 -19l-120 -405z" />
<glyph unicode="&#xe8;" d="M66 473q0 138 58 251t167 180t248 67q201 0 330.5 -139t129.5 -365q0 -32 -2 -55h-764q8 -110 102 -193.5t224 -83.5q52 0 100.5 14.5t80.5 35t56.5 40.5t35.5 35l12 14l108 -112q-6 -8 -17 -20.5t-49 -44.5t-80.5 -57t-109.5 -45t-137 -20q-214 0 -353.5 143t-139.5 355 zM238 555h593q-2 42 -22 85t-54.5 82t-91 64t-124.5 25q-73 0 -131 -25.5t-92.5 -66t-53.5 -82.5t-24 -82zM332 1372l106 107l305 -305l-102 -97z" />
<glyph unicode="&#xe9;" d="M66 473q0 138 58 251t167 180t248 67q201 0 330.5 -139t129.5 -365q0 -32 -2 -55h-764q8 -110 102 -193.5t224 -83.5q52 0 100.5 14.5t80.5 35t56.5 40.5t35.5 35l12 14l108 -112q-6 -8 -17 -20.5t-49 -44.5t-80.5 -57t-109.5 -45t-137 -20q-214 0 -353.5 143t-139.5 355 zM238 555h593q-2 42 -22 85t-54.5 82t-91 64t-124.5 25q-73 0 -131 -25.5t-92.5 -66t-53.5 -82.5t-24 -82zM356 1171l306 306l106 -107l-309 -295z" />
<glyph unicode="&#xea;" d="M66 473q0 138 58 251t167 180t248 67q201 0 330.5 -139t129.5 -365q0 -32 -2 -55h-764q8 -110 102 -193.5t224 -83.5q52 0 100.5 14.5t80.5 35t56.5 40.5t35.5 35l12 14l108 -112q-6 -8 -17 -20.5t-49 -44.5t-80.5 -57t-109.5 -45t-137 -20q-214 0 -353.5 143t-139.5 355 zM213 1190l340 248l340 -248l-94 -111l-246 189l-246 -189zM238 555h593q-2 42 -22 85t-54.5 82t-91 64t-124.5 25q-73 0 -131 -25.5t-92.5 -66t-53.5 -82.5t-24 -82z" />
<glyph unicode="&#xeb;" d="M66 473q0 138 58 251t167 180t248 67q201 0 330.5 -139t129.5 -365q0 -32 -2 -55h-764q8 -110 102 -193.5t224 -83.5q52 0 100.5 14.5t80.5 35t56.5 40.5t35.5 35l12 14l108 -112q-6 -8 -17 -20.5t-49 -44.5t-80.5 -57t-109.5 -45t-137 -20q-214 0 -353.5 143t-139.5 355 zM238 555h593q-2 42 -22 85t-54.5 82t-91 64t-124.5 25q-73 0 -131 -25.5t-92.5 -66t-53.5 -82.5t-24 -82zM240 1249q0 47 34.5 82t81.5 35t82 -35t35 -82t-35 -81.5t-82 -34.5t-81.5 34.5t-34.5 81.5zM610 1249q0 47 35 82t82 35t82 -35t35 -82t-35 -81.5t-82 -34.5 t-82 34.5t-35 81.5z" />
<glyph unicode="&#xec;" horiz-adv-x="458" d="M6 1370l107 107l305 -306l-103 -96zM143 0v946h172v-946h-172z" />
<glyph unicode="&#xed;" horiz-adv-x="468" d="M51 1171l305 306l107 -107l-309 -295zM143 0v946h172v-946h-172z" />
<glyph unicode="&#xee;" horiz-adv-x="524" d="M-78 1210l340 248l340 -248l-94 -110l-246 188l-246 -188zM176 0v946h172v-946h-172z" />
<glyph unicode="&#xef;" horiz-adv-x="501" d="M-51 1249q0 47 35 82t82 35t81.5 -35t34.5 -82t-34.5 -81.5t-81.5 -34.5t-82 34.5t-35 81.5zM164 0v946h172v-946h-172zM319 1249q0 47 35 82t82 35t82 -35t35 -82t-35 -81.5t-82 -34.5t-82 34.5t-35 81.5z" />
<glyph unicode="&#xf0;" horiz-adv-x="1114" d="M66 473q0 210 139.5 354t347.5 144q47 0 91.5 -10.5t74.5 -25.5t53 -29.5t34 -25.5l11 -10q-78 177 -282 338l-271 -125l-61 131l198 93q-115 72 -229 133l70 133q169 -83 323 -191l258 121l62 -131l-193 -90q348 -310 348 -725q0 -147 -36.5 -259.5t-102.5 -182.5 t-154 -105t-194 -35q-208 0 -347.5 144t-139.5 354zM242 473q0 -143 87.5 -240.5t227.5 -97.5t227.5 97.5t87.5 240.5q0 145 -87.5 241.5t-227.5 96.5t-227.5 -97.5t-87.5 -240.5z" />
<glyph unicode="&#xf1;" horiz-adv-x="1069" d="M131 0v946h160v-133q4 6 11 17t32.5 38t56.5 48t82.5 38t108.5 17q148 0 252 -97.5t104 -265.5v-608h-172v580q0 116 -63 173.5t-164 57.5q-43 0 -83 -16.5t-67 -40t-47 -47t-30 -39.5l-9 -17v-651h-172zM186 1208q2 7 7 18.5t25 41t44 52.5t67 41.5t93 18.5q45 0 89 -23 t80 -46t60 -23q38 0 67.5 26t39.5 52l10 25l119 -76q-2 -7 -6.5 -18.5t-23 -41t-42.5 -52.5t-66 -41.5t-92 -18.5q-48 0 -93 23t-80.5 46t-59.5 23q-25 0 -46 -10.5t-33.5 -25.5t-21.5 -30t-13 -25l-3 -11z" />
<glyph unicode="&#xf2;" horiz-adv-x="1105" d="M66 473q0 210 139.5 354t347.5 144t347.5 -144t139.5 -354t-139.5 -354t-347.5 -144t-347.5 144t-139.5 354zM238 473q0 -143 87.5 -240.5t227.5 -97.5t227.5 97.5t87.5 240.5t-87.5 240.5t-227.5 97.5t-227.5 -97.5t-87.5 -240.5zM299 1370l107 107l305 -306l-103 -96z " />
<glyph unicode="&#xf3;" horiz-adv-x="1105" d="M66 473q0 210 139.5 354t347.5 144t347.5 -144t139.5 -354t-139.5 -354t-347.5 -144t-347.5 144t-139.5 354zM238 473q0 -143 87.5 -240.5t227.5 -97.5t227.5 97.5t87.5 240.5t-87.5 240.5t-227.5 97.5t-227.5 -97.5t-87.5 -240.5zM375 1171l305 306l106 -107l-309 -295z " />
<glyph unicode="&#xf4;" horiz-adv-x="1105" d="M66 473q0 210 139.5 354t347.5 144t347.5 -144t139.5 -354t-139.5 -354t-347.5 -144t-347.5 144t-139.5 354zM213 1190l340 248l340 -248l-94 -111l-246 189l-246 -189zM238 473q0 -143 87.5 -240.5t227.5 -97.5t227.5 97.5t87.5 240.5t-87.5 240.5t-227.5 97.5 t-227.5 -97.5t-87.5 -240.5z" />
<glyph unicode="&#xf5;" horiz-adv-x="1105" d="M66 473q0 210 139.5 354t347.5 144t347.5 -144t139.5 -354t-139.5 -354t-347.5 -144t-347.5 144t-139.5 354zM205 1208q2 7 7 18.5t24.5 41t43.5 52.5t67 41.5t93 18.5q35 0 71 -14.5t60 -31.5t51.5 -31.5t47.5 -14.5q38 0 67 26t39 52l10 25l119 -76q-2 -7 -6.5 -18.5 t-23 -41t-42 -52.5t-65.5 -41.5t-92 -18.5q-38 0 -75 14.5t-61 31.5t-51 31.5t-47 14.5q-39 0 -68 -25.5t-38 -51.5l-10 -25zM238 473q0 -143 87.5 -240.5t227.5 -97.5t227.5 97.5t87.5 240.5t-87.5 240.5t-227.5 97.5t-227.5 -97.5t-87.5 -240.5z" />
<glyph unicode="&#xf6;" horiz-adv-x="1105" d="M66 473q0 210 139.5 354t347.5 144t347.5 -144t139.5 -354t-139.5 -354t-347.5 -144t-347.5 144t-139.5 354zM238 473q0 -143 87.5 -240.5t227.5 -97.5t227.5 97.5t87.5 240.5t-87.5 240.5t-227.5 97.5t-227.5 -97.5t-87.5 -240.5zM252 1249q0 47 35 82t82 35t81.5 -35 t34.5 -82t-34.5 -81.5t-81.5 -34.5t-82 34.5t-35 81.5zM623 1249q0 47 34.5 82t81.5 35t82 -35t35 -82t-35 -81.5t-82 -34.5t-81.5 34.5t-34.5 81.5z" />
<glyph unicode="&#xf7;" d="M92 438v152h881v-152h-881zM414 195q0 47 34.5 81.5t81.5 34.5t82 -34.5t35 -81.5t-35 -82t-82 -35t-81.5 35t-34.5 82zM414 854q0 47 34.5 82t81.5 35t82 -35t35 -82t-35 -82t-82 -35t-81.5 35t-34.5 82z" />
<glyph unicode="&#xf8;" horiz-adv-x="1122" d="M74 473q0 210 139.5 354t347.5 144q153 0 277 -84l82 98l88 -76l-84 -100q125 -141 125 -336q0 -210 -140 -354t-348 -144q-151 0 -270 80l-80 -94l-88 76l80 94q-129 138 -129 342zM246 473q0 -127 65 -213l420 502q-74 49 -170 49q-140 0 -227.5 -97.5t-87.5 -240.5z M395 180q73 -45 166 -45q140 0 228 97.5t88 240.5q0 116 -62 207z" />
<glyph unicode="&#xf9;" horiz-adv-x="1069" d="M131 338v608h172v-579q0 -116 63 -174t164 -58q45 0 85.5 16t67 39t46 46t28.5 39l9 16v655h172v-946h-160v145q-4 -7 -11 -18.5t-32.5 -40.5t-56.5 -51.5t-82.5 -41t-108.5 -18.5q-148 0 -252 97.5t-104 265.5zM274 1370l107 107l305 -306l-102 -96z" />
<glyph unicode="&#xfa;" horiz-adv-x="1069" d="M131 338v608h172v-579q0 -116 63 -174t164 -58q45 0 85.5 16t67 39t46 46t28.5 39l9 16v655h172v-946h-160v145q-4 -7 -11 -18.5t-32.5 -40.5t-56.5 -51.5t-82.5 -41t-108.5 -18.5q-148 0 -252 97.5t-104 265.5zM391 1171l305 306l107 -107l-309 -295z" />
<glyph unicode="&#xfb;" horiz-adv-x="1069" d="M131 338v608h172v-579q0 -116 63 -174t164 -58q45 0 85.5 16t67 39t46 46t28.5 39l9 16v655h172v-946h-160v145q-4 -7 -11 -18.5t-32.5 -40.5t-56.5 -51.5t-82.5 -41t-108.5 -18.5q-148 0 -252 97.5t-104 265.5zM197 1210l340 248l340 -248l-95 -110l-245 188l-246 -188z " />
<glyph unicode="&#xfc;" horiz-adv-x="1069" d="M131 338v608h172v-579q0 -116 63 -174t164 -58q45 0 85.5 16t67 39t46 46t28.5 39l9 16v655h172v-946h-160v145q-4 -7 -11 -18.5t-32.5 -40.5t-56.5 -51.5t-82.5 -41t-108.5 -18.5q-148 0 -252 97.5t-104 265.5zM233 1249q0 47 35 82t82 35t82 -35t35 -82t-35 -81.5 t-82 -34.5t-82 34.5t-35 81.5zM604 1249q0 47 35 82t82 35t82 -35t35 -82t-35 -81.5t-82 -34.5t-82 34.5t-35 81.5z" />
<glyph unicode="&#xfd;" horiz-adv-x="1024" d="M20 946h195l332 -747l282 747h187q-475 -1196 -498 -1251q-39 -97 -110 -144t-152 -47q-52 0 -102 17t-74 34l-25 17l74 141q60 -49 113 -49t84.5 35t62.5 111l74 186zM356 1171l306 306l106 -107l-309 -295z" />
<glyph unicode="&#xfe;" horiz-adv-x="1169" d="M168 -471v2019h172v-719q15 20 36.5 40t58.5 45.5t92 41t118 15.5q192 0 325.5 -144.5t133.5 -353.5t-133.5 -353.5t-325.5 -144.5q-61 0 -115 15.5t-91.5 40t-60 45t-38.5 41.5v-588h-172zM340 297q4 -7 11 -17.5t32.5 -38.5t55 -49.5t78 -39t101.5 -17.5 q141 0 227.5 97.5t86.5 240.5t-86.5 240.5t-227.5 97.5q-53 0 -101 -16.5t-78.5 -40.5t-54 -48t-34.5 -40l-10 -17v-352z" />
<glyph unicode="&#xff;" horiz-adv-x="1024" d="M20 946h195l332 -747l282 747h187q-475 -1196 -498 -1251q-39 -97 -110 -144t-152 -47q-52 0 -102 17t-74 34l-25 17l74 141q60 -49 113 -49t84.5 35t62.5 111l74 186zM225 1249q0 47 35 82t82 35t82 -35t35 -82t-35 -81.5t-82 -34.5t-82 34.5t-35 81.5zM596 1249 q0 47 35 82t82 35t81.5 -35t34.5 -82t-34.5 -81.5t-81.5 -34.5t-82 34.5t-35 81.5z" />
<glyph unicode="&#x152;" horiz-adv-x="1712" d="M78 717q0 205 90 368.5t252 256t366 92.5h807v-164h-573v-453h524v-164h-524v-489h586v-164h-820q-204 0 -366 92.5t-252 256t-90 368.5zM254 717q0 -152 67.5 -278t190 -200.5t274.5 -74.5h62v1106h-62q-152 0 -274.5 -74.5t-190 -200.5t-67.5 -278z" />
<glyph unicode="&#x153;" horiz-adv-x="1847" d="M66 473q0 210 139.5 354t347.5 144q122 0 225.5 -55.5t169.5 -151.5q62 96 161 151.5t222 55.5q197 0 324 -139t127 -365q0 -32 -2 -55h-744q5 -111 96.5 -194t217.5 -83q83 0 159 39t125 102l107 -110q-70 -85 -174.5 -138t-216.5 -53q-125 0 -228.5 55t-169.5 152 q-66 -96 -170.5 -151.5t-228.5 -55.5q-208 0 -347.5 144t-139.5 354zM238 473q0 -143 87.5 -240.5t227.5 -97.5q135 0 222.5 93t92.5 231v14q0 143 -87.5 240.5t-227.5 97.5t-227.5 -97.5t-87.5 -240.5zM1040 553h572q-2 42 -19.5 85.5t-50.5 83t-88 64.5t-123 25 t-124.5 -26t-91 -66t-54 -83t-21.5 -83z" />
<glyph unicode="&#x178;" horiz-adv-x="1187" d="M25 1434h192l385 -705l379 705h182l-483 -871v-563h-172v563zM293 1716q0 47 35 82t82 35t81.5 -35t34.5 -82t-34.5 -82t-81.5 -35t-82 35t-35 82zM664 1716q0 47 34.5 82t81.5 35t82 -35t35 -82t-35 -82t-82 -35t-81.5 35t-34.5 82z" />
<glyph unicode="&#x2c6;" horiz-adv-x="868" d="M94 1153l340 248l340 -248l-94 -111l-246 189l-246 -189z" />
<glyph unicode="&#x2dc;" horiz-adv-x="798" d="M49 1208q2 7 7 18.5t25 41t44 52.5t67 41.5t93 18.5q45 0 89 -23t80 -46t60 -23q38 0 67.5 26t39.5 52l10 25l119 -76q-2 -7 -6.5 -18.5t-23 -41t-42.5 -52.5t-66 -41.5t-92 -18.5q-48 0 -93 23t-80.5 46t-59.5 23q-25 0 -46 -10.5t-33.5 -25.5t-21.5 -30t-12 -25l-4 -11 z" />
<glyph unicode="&#x2000;" horiz-adv-x="972" />
<glyph unicode="&#x2001;" horiz-adv-x="1944" />
<glyph unicode="&#x2002;" horiz-adv-x="972" />
<glyph unicode="&#x2003;" horiz-adv-x="1944" />
<glyph unicode="&#x2004;" horiz-adv-x="648" />
<glyph unicode="&#x2005;" horiz-adv-x="486" />
<glyph unicode="&#x2006;" horiz-adv-x="324" />
<glyph unicode="&#x2007;" horiz-adv-x="324" />
<glyph unicode="&#x2008;" horiz-adv-x="243" />
<glyph unicode="&#x2009;" horiz-adv-x="388" />
<glyph unicode="&#x200a;" horiz-adv-x="108" />
<glyph unicode="&#x2010;" horiz-adv-x="681" d="M68 418v164h546v-164h-546z" />
<glyph unicode="&#x2011;" horiz-adv-x="681" d="M68 418v164h546v-164h-546z" />
<glyph unicode="&#x2012;" horiz-adv-x="681" d="M68 418v164h546v-164h-546z" />
<glyph unicode="&#x2013;" horiz-adv-x="1024" d="M0 418v164h1024v-164h-1024z" />
<glyph unicode="&#x2014;" horiz-adv-x="2048" d="M0 418v164h2048v-164h-2048z" />
<glyph unicode="&#x2018;" horiz-adv-x="307" d="M82 946v488h143v-488h-143z" />
<glyph unicode="&#x2019;" horiz-adv-x="307" d="M82 946v488h143v-488h-143z" />
<glyph unicode="&#x201a;" horiz-adv-x="307" d="M82 201h143v-488h-143v488z" />
<glyph unicode="&#x201c;" horiz-adv-x="679" d="M123 946v488h147v-488h-147zM410 946v488h147v-488h-147z" />
<glyph unicode="&#x201d;" horiz-adv-x="679" d="M123 946v488h147v-488h-147zM410 946v488h147v-488h-147z" />
<glyph unicode="&#x201e;" horiz-adv-x="679" d="M123 201h147v-488h-147v488zM410 201h147v-488h-147v488z" />
<glyph unicode="&#x2022;" horiz-adv-x="1024" d="M264 717q0 103 72.5 175.5t175.5 72.5t175.5 -72.5t72.5 -175.5t-72.5 -175.5t-175.5 -72.5t-175.5 72.5t-72.5 175.5z" />
<glyph unicode="&#x2026;" horiz-adv-x="2048" d="M231 92q0 47 35 82t82 35t82 -35t35 -82t-35 -82t-82 -35t-82 35t-35 82zM907 92q0 47 35 82t82 35t82 -35t35 -82t-35 -82t-82 -35t-82 35t-35 82zM1583 92q0 47 35 82t82 35t82 -35t35 -82t-35 -82t-82 -35t-82 35t-35 82z" />
<glyph unicode="&#x202f;" horiz-adv-x="388" />
<glyph unicode="&#x2039;" horiz-adv-x="624" d="M29 502l362 473l121 -90l-299 -383l299 -383l-121 -90z" />
<glyph unicode="&#x203a;" horiz-adv-x="624" d="M113 119l299 383l-299 383l120 90l363 -473l-363 -473z" />
<glyph unicode="&#x205f;" horiz-adv-x="486" />
<glyph unicode="&#x20ac;" horiz-adv-x="1187" d="M68 514v131h149q-6 70 0 143h-149v132h168q55 239 224 388.5t419 149.5q133 0 258 -51l-60 -152q-85 39 -198 39q-175 0 -296 -103.5t-161 -270.5h475v-132h-500q-6 -73 0 -143h500v-131h-483q19 -117 90 -203.5t168 -129t207 -42.5q117 0 211 43l49 -157 q-118 -50 -281 -50q-253 0 -423.5 149t-203.5 390h-163z" />
<glyph unicode="&#x2122;" horiz-adv-x="1570" d="M41 1325v109h526v-109h-209v-649h-112v649h-205zM707 676v758h112l258 -424l258 424h113v-758h-113v547l-258 -428l-258 428v-547h-112z" />
<glyph unicode="&#x25fc;" horiz-adv-x="942" d="M0 0v942h942v-942h-942z" />
</font>
</defs>
</svg>
