<?xml version="1.0" standalone="no"?>
<!DOCTYPE svg PUBLIC "-//W3C//DTD SVG 1.1//EN" "http://www.w3.org/Graphics/SVG/1.1/DTD/svg11.dtd" >
<svg xmlns="http://www.w3.org/2000/svg" xmlns:xlink="http://www.w3.org/1999/xlink" version="1.1">
<metadata>
Created by FontForge 20201107 at Wed Jan 22 23:47:42 2025
 By 
Copyright (c) 2006-2022 Hoefler &#38; Co. All rights reserved.
</metadata>
<defs>
<font id="GothamRounded-BoldItalic" horiz-adv-x="1024" >
  <font-face 
    font-family="Gotham Rounded Bold"
    font-weight="700"
    font-style="italic"
    font-stretch="normal"
    units-per-em="2048"
    panose-1="0 0 0 0 0 0 0 0 0 0"
    ascent="1638"
    descent="-410"
    x-height="1098"
    cap-height="1446"
    bbox="-322 -608 2554 2226"
    underline-thickness="102"
    underline-position="-204"
    slope="-15"
    unicode-range="U+0020-FB04"
  />
<missing-glyph 
d="M0 -410v2048h1024v-2048h-1024zM145 1536l367 -799l367 799h-734zM102 -156l353 770l-353 770v-1540zM922 1384l-353 -770l353 -770v1540zM512 492l-367 -799h734z" />
    <glyph glyph-name="f_f" unicode="ff" horiz-adv-x="1683" 
d="M584 831l-187 -686q-20 -75 -66 -116t-108 -41q-80 0 -115.5 55t-9.5 150l174 638q-45 7 -79.5 42t-34.5 92t37.5 95t91.5 38h55l14 59q91 352 445 352q57 0 94 -6q45 -8 73.5 -38.5t28.5 -80.5q0 -71 -42 -110.5t-95 -30.5q-32 4 -49 4q-120 0 -154 -119l-8 -30h111
q54 0 91.5 -38t37.5 -95t-37.5 -95.5t-91.5 -38.5h-176zM1425 831l-186 -686q-20 -75 -66 -116t-108 -41q-80 0 -115.5 55t-9.5 150l174 638q-45 7 -80 42t-35 92t37.5 95t91.5 38h56l14 59q91 352 444 352q58 0 95 -6q45 -8 73.5 -38.5t28.5 -80.5q0 -71 -42 -110.5
t-95 -30.5q-32 4 -49 4q-120 0 -154 -119l-8 -30h111q54 0 91.5 -38t37.5 -95t-37.5 -95.5t-91.5 -38.5h-177z" />
    <glyph glyph-name="fi" unicode="fi" horiz-adv-x="1460" 
d="M584 831l-187 -686q-20 -75 -66 -116t-108 -41q-80 0 -115.5 55t-9.5 150l174 638q-45 7 -79.5 42t-34.5 92t37.5 95t91.5 38h55l14 59q91 352 445 352q57 0 94 -6q45 -8 73.5 -38.5t28.5 -80.5q0 -71 -42 -110.5t-95 -30.5q-32 4 -49 4q-120 0 -154 -119l-8 -30h111
q54 0 91.5 -38t37.5 -95t-37.5 -95.5t-91.5 -38.5h-176zM1403 905l-205 -760q-20 -75 -66 -116t-108 -41q-80 0 -115.5 55t-9.5 150l205 759q20 75 66 116.5t108 41.5q80 0 115.5 -55t9.5 -150zM1542 1352q-13 -65 -69.5 -104.5t-131.5 -39.5q-74 0 -117.5 41.5t-31.5 102.5
l2 10q13 65 69.5 104t131.5 39q74 0 117.5 -41t31.5 -102z" />
    <glyph glyph-name="fl" unicode="fl" horiz-adv-x="1460" 
d="M584 831l-187 -686q-20 -75 -66 -116t-108 -41q-80 0 -115.5 55t-9.5 150l174 638q-45 7 -79.5 42t-34.5 92t37.5 95t91.5 38h55l14 59q91 352 445 352q57 0 94 -6q45 -8 73.5 -38.5t28.5 -80.5q0 -71 -42 -110.5t-95 -30.5q-32 4 -49 4q-120 0 -154 -119l-8 -30h111
q54 0 91.5 -38t37.5 -95t-37.5 -95.5t-91.5 -38.5h-176zM1509 1303l-311 -1158q-20 -75 -66 -116t-108 -41q-80 0 -115.5 55t-9.5 150l311 1157q20 75 66 116t108 41q80 0 115.5 -54.5t9.5 -149.5z" />
    <glyph glyph-name="f_f_i" unicode="ffi" horiz-adv-x="2301" 
d="M584 831l-187 -686q-20 -75 -66 -116t-108 -41q-80 0 -115.5 55t-9.5 150l174 638q-45 7 -79.5 42t-34.5 92t37.5 95t91.5 38h55l14 59q91 352 445 352q57 0 94 -6q45 -8 73.5 -38.5t28.5 -80.5q0 -71 -42 -110.5t-95 -30.5q-32 4 -49 4q-120 0 -154 -119l-8 -30h111
q54 0 91.5 -38t37.5 -95t-37.5 -95.5t-91.5 -38.5h-176zM1425 831l-186 -686q-20 -75 -66 -116t-108 -41q-80 0 -115.5 55t-9.5 150l174 638q-45 7 -80 42t-35 92t37.5 95t91.5 38h56l14 59q91 352 444 352q58 0 95 -6q45 -8 73.5 -38.5t28.5 -80.5q0 -71 -42 -110.5
t-95 -30.5q-32 4 -49 4q-120 0 -154 -119l-8 -30h111q54 0 91.5 -38t37.5 -95t-37.5 -95.5t-91.5 -38.5h-177zM2245 905l-205 -760q-20 -75 -66 -116t-108 -41q-80 0 -115.5 55t-9.5 150l205 759q20 75 66 116.5t108 41.5q80 0 115.5 -55t9.5 -150zM2384 1352
q-13 -65 -69.5 -104.5t-131.5 -39.5q-74 0 -117.5 41.5t-31.5 102.5l2 10q13 65 69 104t131 39q74 0 118 -41t32 -102z" />
    <glyph glyph-name="f_f_l" unicode="ffl" horiz-adv-x="2301" 
d="M584 831l-187 -686q-20 -75 -66 -116t-108 -41q-80 0 -115.5 55t-9.5 150l174 638q-45 7 -79.5 42t-34.5 92t37.5 95t91.5 38h55l14 59q91 352 445 352q57 0 94 -6q45 -8 73.5 -38.5t28.5 -80.5q0 -71 -42 -110.5t-95 -30.5q-32 4 -49 4q-120 0 -154 -119l-8 -30h111
q54 0 91.5 -38t37.5 -95t-37.5 -95.5t-91.5 -38.5h-176zM1425 831l-186 -686q-20 -75 -66 -116t-108 -41q-80 0 -115.5 55t-9.5 150l174 638q-45 7 -80 42t-35 92t37.5 95t91.5 38h56l14 59q91 352 444 352q58 0 95 -6q45 -8 73.5 -38.5t28.5 -80.5q0 -71 -42 -110.5
t-95 -30.5q-32 4 -49 4q-120 0 -154 -119l-8 -30h111q54 0 91.5 -38t37.5 -95t-37.5 -95.5t-91.5 -38.5h-177zM2351 1303l-311 -1158q-20 -75 -66 -116t-108 -41q-80 0 -115.5 55t-9.5 150l311 1157q20 75 66 116t108 41q80 0 115.5 -54.5t9.5 -149.5z" />
    <glyph glyph-name=".notdef" 
d="M0 -410v2048h1024v-2048h-1024zM145 1536l367 -799l367 799h-734zM102 -156l353 770l-353 770v-1540zM922 1384l-353 -770l353 -770v1540zM512 492l-367 -799h734z" />
    <glyph glyph-name=".null" horiz-adv-x="0" 
 />
    <glyph glyph-name="nonmarkingreturn" horiz-adv-x="682" 
 />
    <glyph glyph-name="space" unicode=" " horiz-adv-x="614" 
 />
    <glyph glyph-name="exclam" unicode="!" horiz-adv-x="665" 
d="M719 1335l-293 -782q-29 -78 -102 -78q-42 0 -64.5 27t-15.5 73l123 760q8 45 37 75t69 30h186q41 0 58 -31.5t2 -73.5zM406 170l-3 -12q-12 -74 -67.5 -122t-132.5 -48q-79 0 -122.5 49t-31.5 121l2 12q14 76 69 123t132 47q79 0 122.5 -49t31.5 -121z" />
    <glyph glyph-name="quotedbl" unicode="&#x22;" horiz-adv-x="1081" 
d="M399 846q-44 -78 -110 -78q-38 0 -56.5 27t-7.5 67l115 438q16 61 57 101.5t101 40.5h92q44 0 64 -24t16.5 -57.5t-23.5 -68.5zM895 846q-44 -78 -111 -78q-38 0 -56 27t-7 67l115 438q16 62 56.5 102t100.5 40h92q44 0 64 -24t17 -57.5t-23 -68.5z" />
    <glyph glyph-name="numbersign" unicode="#" horiz-adv-x="1415" 
d="M561 569h277l104 303h-276zM817 1305l-59 -170h276l72 202q17 48 59.5 78.5t91.5 30.5q61 0 94 -43t13 -98l-59 -170h24q54 0 92.5 -38.5t38.5 -92.5t-38.5 -93t-92.5 -39h-117l-104 -303h47q54 0 92.5 -38.5t38.5 -92.5t-38.5 -92.5t-92.5 -38.5h-139l-74 -211
q-15 -46 -56.5 -77t-90.5 -31q-61 0 -96 42.5t-15 98.5l61 178h-276l-74 -211q-15 -43 -55 -75.5t-92 -32.5q-62 0 -97 40.5t-14 100.5l62 178h-23q-54 0 -92.5 38.5t-38.5 92.5t38.5 92.5t92.5 38.5h115l104 303h-47q-54 0 -92.5 39t-38.5 93t38.5 92.5t92.5 38.5h139
l72 202q17 48 58 78.5t90 30.5q61 0 95.5 -43t14.5 -98z" />
    <glyph glyph-name="dollar" unicode="$" horiz-adv-x="1302" 
d="M369 -74l28 94q-184 41 -305 138q-28 21 -46.5 55.5t-18.5 71.5q0 63 43.5 106t109.5 43q52 0 103 -41q90 -75 202 -106l97 317q-64 24 -110 46t-92 54.5t-74.5 70.5t-46 90.5t-17.5 117.5q0 127 74.5 230.5t204 162t286.5 58.5h16l8 24q37 107 119 107q55 0 79.5 -37
t6.5 -101l-6 -20q54 -12 113.5 -41.5t97.5 -56.5q76 -51 76 -125q0 -63 -45.5 -105.5t-110.5 -42.5q-48 0 -104 39q-53 38 -113 62l-92 -306q79 -30 135.5 -61.5t102.5 -76t69 -105t23 -137.5q0 -132 -77 -235.5t-208 -159.5t-291 -56h-2l-33 -106q-37 -107 -118 -107
q-55 0 -78.5 37t-5.5 102zM674 899l80 264q-94 -6 -141.5 -47t-47.5 -100q0 -37 24 -63.5t85 -53.5zM676 270q87 8 134.5 46t47.5 102q0 39 -22.5 66t-77.5 53z" />
    <glyph glyph-name="percent" unicode="%" horiz-adv-x="1802" 
d="M487 709q-142 0 -228.5 87.5t-86.5 227.5q0 107 48.5 203.5t141.5 159.5t207 63q142 0 229 -87.5t87 -227.5q0 -107 -49 -203.5t-142 -159.5t-207 -63zM1321 -16q-142 0 -228.5 87.5t-86.5 227.5q0 107 48.5 203.5t141.5 159.5t207 63q142 0 228.5 -87.5t86.5 -227.5
q0 -107 -48.5 -203.5t-141.5 -159.5t-207 -63zM500 887q80 0 132 75t52 164q0 67 -34 106.5t-93 39.5q-80 0 -132 -75.5t-52 -164.5q0 -67 34 -106t93 -39zM1333 162q80 0 132.5 75.5t52.5 163.5q0 67 -34 106.5t-93 39.5q-80 0 -132.5 -75.5t-52.5 -164.5q0 -67 34 -106
t93 -39zM1618 1278l-1202 -1251q-39 -39 -84 -39q-40 0 -67 25.5t-27 64.5q0 44 34 78l1203 1251q39 39 84 39q40 0 67 -25.5t27 -64.5q0 -43 -35 -78z" />
    <glyph glyph-name="ampersand" unicode="&#x26;" horiz-adv-x="1425" 
d="M713 893q135 49 185 94t50 109q0 45 -34.5 80.5t-94.5 35.5q-74 0 -120 -46.5t-46 -110.5q0 -73 60 -162zM537 238q116 0 264 92l-221 303q-118 -45 -177 -112t-59 -138q0 -64 50.5 -104.5t142.5 -40.5zM1024 33l-76 102q-223 -155 -446 -155q-203 0 -329 103t-126 282
q0 140 99.5 259t306.5 187q-76 133 -76 248q0 164 126.5 281.5t330.5 117.5q176 0 285.5 -97t109.5 -247q0 -56 -18.5 -107.5t-60.5 -104t-119.5 -100.5t-186.5 -85l160 -213q33 36 116 137q53 68 111 68q48 0 81.5 -28t33.5 -73q0 -44 -25 -82q-81 -118 -170 -211l70 -96
q17 -22 24.5 -33t15 -31t7.5 -40q0 -59 -38 -97t-97 -38q-70 0 -109 53z" />
    <glyph glyph-name="quotesingle" unicode="'" horiz-adv-x="585" 
d="M399 846q-44 -78 -110 -78q-38 0 -56.5 27t-7.5 67l115 438q16 61 57 101.5t101 40.5h92q44 0 64 -24t16.5 -57.5t-23.5 -68.5z" />
    <glyph glyph-name="parenleft" unicode="(" horiz-adv-x="911" 
d="M633 -33q39 -46 39 -106q0 -57 -39 -95t-101 -38q-40 0 -64 10.5t-46 30.5q-303 289 -303 659q0 319 187 575t542 427q36 18 76 18q56 0 91.5 -36.5t35.5 -94.5q0 -79 -86 -127q-265 -146 -398 -339t-133 -413q0 -127 51 -240t148 -231z" />
    <glyph glyph-name="parenright" unicode=")" horiz-adv-x="911" 
d="M299 1208q-39 46 -39 107q0 57 38.5 95t100.5 38q66 0 111 -41q303 -289 303 -659q0 -319 -187 -575t-542 -427q-36 -18 -76 -18q-56 0 -91.5 36.5t-35.5 94.5q0 79 86 127q265 147 398 339t133 412q0 127 -51 240t-148 231z" />
    <glyph glyph-name="asterisk" unicode="*" horiz-adv-x="880" 
d="M602 997l-22 -163q-4 -38 -25.5 -58t-54.5 -20q-42 0 -62.5 33.5t-1.5 74.5l66 160l-152 -61q-38 -15 -55 -15q-30 0 -51.5 21t-22.5 53q-2 31 17.5 53.5t54.5 26.5l180 24l-139 109q-41 30 -41 70q0 31 22.5 54t57.5 23q42 0 67 -36l109 -144l22 164q4 37 25.5 57.5
t52.5 20.5q46 0 65 -33t-1 -80l-64 -155l152 61q30 12 61 12q29 0 47.5 -19t20.5 -50q1 -36 -18 -57.5t-54 -26.5l-180 -23l139 -108q41 -30 41 -70q0 -31 -22.5 -54.5t-57.5 -23.5q-41 0 -67 37z" />
    <glyph glyph-name="plus" unicode="+" horiz-adv-x="1310" 
d="M809 580l-59 -224q-20 -73 -65.5 -115t-100.5 -42q-74 0 -107 51.5t-8 144.5l49 185h-203q-59 0 -100 41t-41 100t41 100t100 41h279l59 223q20 74 65.5 116t100.5 42q74 0 107 -51.5t8 -144.5l-49 -185h202q59 0 100.5 -41.5t41.5 -99.5t-41.5 -99.5t-100.5 -41.5h-278z
" />
    <glyph glyph-name="comma" unicode="," horiz-adv-x="653" 
d="M-66 -193q97 20 151.5 69t61.5 124q-55 15 -83 55.5t-15 108.5l2 10q15 74 67.5 120t123.5 46q90 0 128.5 -60.5t16.5 -168.5l-2 -11q-41 -202 -195 -329q-56 -46 -126 -74.5t-127 -28.5q-38 0 -56 19.5t-18 48.5q0 55 71 71z" />
    <glyph glyph-name="hyphen" unicode="-" horiz-adv-x="843" 
d="M625 485h-357q-61 0 -105 44t-44 106q0 61 43.5 105t105.5 44h357q61 0 105 -44t44 -105q0 -62 -44 -106t-105 -44z" />
    <glyph glyph-name="period" unicode="." horiz-adv-x="653" 
d="M401 170l-2 -12q-12 -74 -67.5 -122t-132.5 -48q-79 0 -122.5 49t-31.5 121l2 12q14 76 69 123t132 47q79 0 122 -48.5t31 -121.5z" />
    <glyph glyph-name="slash" unicode="/" horiz-adv-x="1085" 
d="M-129 -61l1196 1626q60 82 137 82q49 0 77 -27.5t28 -75.5q0 -23 -8.5 -46t-14 -31.5t-22.5 -32.5l-1196 -1627q-60 -81 -138 -81q-49 0 -76.5 27t-27.5 75q0 23 8.5 46t14.5 32.5t22 32.5z" />
    <glyph glyph-name="zero" unicode="0" horiz-adv-x="1495" 
d="M686 -25q-252 0 -405.5 163t-153.5 433q0 126 32.5 252.5t98.5 240.5t156.5 202t215 140t265.5 52q252 0 405.5 -163t153.5 -433q0 -126 -32.5 -252.5t-98.5 -240.5t-156.5 -202t-215 -140t-265.5 -52zM711 260q92 0 173 57t133.5 145.5t82.5 194.5t30 207
q0 150 -69.5 230t-190.5 80q-92 0 -173 -57t-133.5 -146t-82.5 -195t-30 -207q0 -150 69.5 -229.5t190.5 -79.5z" />
    <glyph glyph-name="one" unicode="1" horiz-adv-x="888" 
d="M850 1284l-305 -1139q-20 -75 -66 -116t-108 -41q-80 0 -115.5 55t-9.5 150l250 927l-121 -28q-25 -5 -37 -5q-51 0 -88 34.5t-37 95.5q0 48 30.5 88t80.5 53l249 69q100 27 154 27h2q70 0 105 -49.5t16 -120.5z" />
    <glyph glyph-name="two" unicode="2" horiz-adv-x="1257" 
d="M926 0h-787q-77 0 -123.5 35.5t-46.5 103.5q0 90 82 148l682 471q108 75 158.5 137t50.5 129q0 70 -48 108.5t-132 38.5q-138 0 -268 -112q-52 -45 -107 -45q-60 0 -99.5 41.5t-39.5 101.5q0 65 51 109q205 188 477 188q221 0 355.5 -110t134.5 -285q0 -135 -74.5 -244
t-263.5 -240l-443 -303h441q57 0 97 -40t40 -97t-40 -96t-97 -39z" />
    <glyph glyph-name="three" unicode="3" horiz-adv-x="1236" 
d="M49 137q-53 53 -53 113q0 62 45 106.5t106 44.5q52 0 101 -39q64 -57 118 -80.5t144 -23.5q113 0 191.5 60.5t78.5 140.5q0 82 -74 126t-206 44h-6q-55 0 -85 31.5t-30 87.5q0 60 70 116l372 299h-383q-56 0 -95.5 39.5t-39.5 95.5t40 96t95 40h692q72 0 116 -33.5
t44 -95.5q0 -53 -25 -86t-83 -78l-389 -297q305 -73 305 -357q0 -143 -78.5 -260t-217 -184.5t-306.5 -67.5q-288 0 -447 162z" />
    <glyph glyph-name="four" unicode="4" horiz-adv-x="1349" 
d="M432 565h365l123 459zM1024 309l-43 -164q-20 -75 -64.5 -116t-103.5 -41q-77 0 -110 55t-7 150l31 116h-545q-65 0 -109 36t-44 97q0 96 84 174l805 734q118 106 233 106q74 0 115.5 -45.5t21.5 -116.5l-194 -729h41q54 0 91.5 -37.5t37.5 -91.5t-37.5 -90.5
t-91.5 -36.5h-111z" />
    <glyph glyph-name="five" unicode="5" horiz-adv-x="1249" 
d="M86 125q-63 52 -63 123q0 62 42 105.5t103 43.5q51 0 106 -43q117 -92 265 -92q125 0 207.5 65.5t82.5 157.5q0 81 -66 133t-188 52q-44 0 -97.5 -14.5t-71.5 -14.5q-62 0 -127 53q-69 54 -43 137l159 482q42 121 150 121h592q57 0 98 -41.5t41 -98.5t-41 -97t-98 -40
h-494l-82 -244q80 17 146 17q198 0 322 -112t124 -298q0 -107 -46 -205t-127.5 -173t-203 -120t-264.5 -45q-110 0 -225.5 40t-200.5 108z" />
    <glyph glyph-name="six" unicode="6" horiz-adv-x="1316" 
d="M1264 1368q71 -41 71 -129q0 -61 -42.5 -103t-102.5 -42q-35 0 -96 32q-94 50 -199 50q-166 0 -279 -113q-98 -98 -147 -252q49 49 141.5 85t188.5 36q122 0 219.5 -45.5t157 -138t59.5 -216.5q0 -107 -46.5 -208.5t-125.5 -178.5t-190 -123.5t-232 -46.5
q-115 0 -212 33.5t-161 97.5q-147 147 -147 404q0 209 72.5 403.5t207.5 329.5q101 101 234 158t287 57q188 0 342 -90zM641 242q120 0 198.5 75t78.5 172q0 87 -60 138t-156 51q-124 0 -203 -72t-79 -174q0 -76 53 -129q61 -61 168 -61z" />
    <glyph glyph-name="seven" unicode="7" horiz-adv-x="1247" 
d="M1253 1149l-811 -1063q-76 -98 -170 -98q-63 0 -98 32t-35 89q0 64 49 129l721 923h-497q-57 0 -97.5 39t-40.5 96t40.5 97.5t97.5 40.5h768q71 0 108 -30.5t37 -86.5q0 -79 -72 -168z" />
    <glyph glyph-name="eight" unicode="8" horiz-adv-x="1355" 
d="M614 -20q-148 0 -272.5 49t-200 143t-75.5 213q0 156 99 253t267 138q-83 42 -128.5 116t-45.5 161q0 72 35 141.5t99.5 128.5t170 95t234.5 36q223 0 365.5 -108.5t142.5 -276.5q0 -134 -83.5 -228.5t-230.5 -129.5q101 -38 160 -116.5t59 -188.5q0 -82 -41 -158
t-115.5 -136t-189 -96t-250.5 -36zM774 852q99 0 166.5 51.5t69.5 126.5q2 71 -59 118.5t-169 47.5q-97 0 -164.5 -50.5t-68.5 -125.5q-2 -72 60.5 -120t164.5 -48zM631 233q117 0 194 52t78 137q2 77 -70 126.5t-190 49.5q-117 0 -192.5 -53t-77.5 -133q-2 -77 70 -128
t188 -51z" />
    <glyph glyph-name="nine" unicode="9" horiz-adv-x="1316" 
d="M498 -25q-102 0 -195.5 28.5t-159.5 70.5q-84 53 -84 135q0 61 43 103t103 42q35 0 96 -32q37 -20 59 -30t66.5 -22t87.5 -12q164 0 281 117q94 94 139 231q-49 -49 -139.5 -84t-186.5 -35q-189 0 -312.5 106.5t-123.5 299.5q0 154 78.5 284t215.5 205.5t300 75.5
q108 0 210.5 -33.5t164.5 -95.5q74 -74 110.5 -177t36.5 -257q0 -196 -75 -383t-212 -324q-213 -213 -503 -213zM709 741q123 0 200.5 74t77.5 180q0 84 -51 135q-62 62 -168 62q-123 0 -201 -75.5t-78 -182.5q0 -91 61 -142t159 -51z" />
    <glyph glyph-name="colon" unicode=":" horiz-adv-x="653" 
d="M401 170l-2 -12q-12 -74 -67.5 -122t-132.5 -48q-79 0 -122.5 49t-31.5 121l2 12q14 76 69 123t132 47q79 0 122 -48.5t31 -121.5zM608 940l-2 -12q-12 -74 -67.5 -122t-132.5 -48q-79 0 -122.5 49t-31.5 121l2 12q14 76 69 123t132 47q79 0 122 -48.5t31 -121.5z" />
    <glyph glyph-name="semicolon" unicode=";" horiz-adv-x="653" 
d="M-66 -193q97 20 151.5 69t61.5 124q-55 15 -83 55.5t-15 108.5l2 10q15 74 67.5 120t123.5 46q90 0 128.5 -60.5t16.5 -168.5l-2 -11q-41 -202 -195 -329q-56 -46 -126 -74.5t-127 -28.5q-38 0 -56 19.5t-18 48.5q0 55 71 71zM608 940l-2 -12q-12 -74 -67.5 -122
t-132.5 -48q-79 0 -122.5 49t-31.5 121l2 12q14 76 69 123t132 47q79 0 122 -48.5t31 -121.5z" />
    <glyph glyph-name="less" unicode="&#x3c;" horiz-adv-x="1310" 
d="M311 895l783 322q45 18 80 18q51 0 83.5 -30t32.5 -81q0 -94 -84 -127l-727 -288l520 -258q48 -24 66 -52.5t18 -72.5q0 -58 -38 -99t-97 -41q-38 0 -76 19l-563 295q-65 35 -101 78.5t-36 109.5v12q0 68 37.5 118t101.5 77z" />
    <glyph glyph-name="equal" unicode="=" horiz-adv-x="1310" 
d="M422 846q-58 0 -99.5 41t-41.5 100t41.5 100t99.5 41h711q59 0 100 -41t41 -100t-41 -100t-100 -41h-711zM279 313q-59 0 -100.5 41.5t-41.5 100.5q0 58 41.5 99.5t100.5 41.5h710q59 0 100 -41t41 -100t-41.5 -100.5t-99.5 -41.5h-710z" />
    <glyph glyph-name="greater" unicode="&#x3e;" horiz-adv-x="1310" 
d="M1085 547l-782 -322q-45 -18 -80 -18q-51 0 -84 29.5t-33 80.5q0 94 84 127l728 289l-521 258q-48 24 -66 52.5t-18 72.5q0 58 38.5 98.5t97.5 40.5q39 0 75 -18l563 -295q66 -36 102 -79t36 -109v-13q0 -68 -37.5 -117t-102.5 -77z" />
    <glyph glyph-name="question" unicode="?" horiz-adv-x="1114" 
d="M444 1104q-68 -35 -106 -35q-54 0 -89.5 37.5t-35.5 85.5q0 80 70 131q177 129 415 129q208 0 332.5 -109.5t124.5 -263.5q0 -180 -133 -294t-391 -154l-23 -56q-18 -44 -53 -72t-78 -28h-16q-45 0 -68.5 29t-17.5 78l18 155q6 50 36.5 73t96.5 32q136 20 217.5 68.5
t81.5 127.5q0 60 -42.5 93.5t-127.5 33.5q-99 0 -211 -61zM563 170l-2 -12q-12 -74 -68 -122t-133 -48q-79 0 -122 48.5t-31 121.5l2 12q14 76 69 123t132 47q79 0 122 -48.5t31 -121.5z" />
    <glyph glyph-name="at" unicode="@" horiz-adv-x="2007" 
d="M944 338q107 0 195 97t88 229q0 76 -49.5 123t-128.5 47q-106 0 -191.5 -95t-85.5 -225q0 -82 46 -129t126 -47zM1399 -225q-204 -92 -434 -92q-186 0 -344.5 59t-270 163t-174.5 252t-63 320q0 156 49.5 304.5t141 271t213.5 215.5t275.5 144.5t317.5 51.5
q151 0 283.5 -37t231 -103.5t170 -154.5t108 -192.5t36.5 -216.5q0 -156 -41 -279t-110.5 -197.5t-154.5 -112.5t-179 -38q-102 0 -177 42.5t-108 115.5q-156 -160 -327 -160q-141 0 -235.5 92.5t-94.5 253.5q0 120 44.5 227t117 180t165 115.5t187.5 42.5q180 0 268 -143
l2 6q21 61 54.5 92t85.5 31q55 0 87 -43t11 -106l-135 -426q-34 -106 1 -165t118 -59q56 0 114 35.5t108 99.5t81.5 168t31.5 228q0 125 -52 237.5t-146 198t-235.5 136t-309.5 50.5q-188 0 -358.5 -74t-291.5 -197.5t-192 -289.5t-71 -344q0 -156 56.5 -289t157 -226.5
t243.5 -146.5t311 -53q205 0 391 80q18 6 24 6q17 0 28 -11.5t11 -26.5q0 -25 -20 -35z" />
    <glyph glyph-name="A" unicode="A" horiz-adv-x="1566" 
d="M621 600h397l-74 473zM1208 1307l193 -1086q10 -72 10 -82q0 -62 -46.5 -106.5t-115.5 -44.5q-64 0 -104.5 34.5t-48.5 90.5l-33 209h-635l-164 -236q-69 -98 -160 -98q-61 0 -95 33.5t-34 89.5q0 55 37 104l797 1118q85 123 221 123h6q146 0 172 -149z" />
    <glyph glyph-name="B" unicode="B" horiz-adv-x="1468" 
d="M561 854h318q124 0 191 43.5t67 130.5q0 59 -49.5 94t-149.5 35h-297zM406 276h370q118 0 187 49t69 132q0 64 -50.5 99.5t-145.5 35.5h-347zM729 0h-522q-80 0 -116.5 55t-10.5 150l287 1071q20 74 67 116t109 42h424q241 0 363 -99t122 -254q0 -139 -82.5 -230.5
t-224.5 -123.5q201 -93 201 -291q0 -197 -162.5 -316.5t-454.5 -119.5z" />
    <glyph glyph-name="C" unicode="C" horiz-adv-x="1486" 
d="M1280 129q-83 -70 -208 -112t-259 -42q-297 0 -486.5 171t-189.5 454q0 113 31.5 222.5t87.5 203.5t136.5 174.5t176 137t209 88.5t232.5 32q282 0 473 -176q65 -61 65 -133q0 -68 -47 -116t-115 -48q-70 0 -110 45q-64 69 -131.5 103t-173.5 34q-97 0 -189.5 -44.5
t-162 -118.5t-112 -177t-42.5 -215q0 -154 97.5 -250t252.5 -96q83 0 135.5 20t134.5 72q60 37 107 37q61 0 102 -43.5t41 -105.5q0 -69 -55 -117z" />
    <glyph glyph-name="D" unicode="D" horiz-adv-x="1591" 
d="M416 285h178q145 0 269.5 44.5t209.5 129.5q144 144 144 358q0 143 -84 227q-105 105 -330 105h-154zM543 1434h284q377 0 562 -185q155 -155 155 -420q0 -330 -235 -565q-264 -264 -752 -264h-350q-80 0 -116.5 55t-10.5 150l287 1071q20 74 67 116t109 42z" />
    <glyph glyph-name="E" unicode="E" horiz-adv-x="1361" 
d="M1014 0h-807q-80 0 -116.5 55t-10.5 150l287 1071q20 74 67 116t109 42h770q58 0 99.5 -41.5t41.5 -100.5q0 -58 -41 -98.5t-100 -40.5h-666l-78 -293h498q59 0 100 -40.5t41 -98.5t-41 -97.5t-100 -39.5h-573l-82 -303h602q58 0 99.5 -41.5t41.5 -100.5q0 -58 -41 -98.5
t-100 -40.5z" />
    <glyph glyph-name="F" unicode="F" horiz-adv-x="1357" 
d="M543 1434h788q60 0 102 -42t42 -102t-42 -101.5t-102 -41.5h-684l-82 -305h514q60 0 102 -42t42 -102t-42 -101.5t-102 -41.5h-590l-110 -410q-20 -74 -67 -115.5t-109 -41.5q-80 0 -116.5 55t-10.5 150l291 1083q20 74 67 116t109 42z" />
    <glyph glyph-name="G" unicode="G" horiz-adv-x="1597" 
d="M1475 623l-113 -396q-30 -112 -127 -164q-66 -35 -182 -61.5t-244 -26.5q-100 0 -196 23t-183 73.5t-152.5 122t-104 176t-38.5 228.5q0 166 68 322.5t185 275t285.5 190.5t356.5 72q167 0 297.5 -46.5t202.5 -113.5q63 -55 63 -127q0 -65 -45.5 -110t-109.5 -45
q-52 0 -99 33q-78 62 -151.5 91t-181.5 29q-150 0 -275.5 -77.5t-196.5 -206.5t-71 -277q0 -162 103.5 -253t262.5 -91q137 0 256 55l68 234h-176q-57 0 -97 39t-40 96t40 97t97 40h371q80 0 116.5 -55t10.5 -147z" />
    <glyph glyph-name="H" unicode="H" horiz-adv-x="1548" 
d="M1563 1241l-295 -1096q-20 -74 -67 -115.5t-109 -41.5q-80 0 -116.5 55t-10.5 150l104 382h-573l-117 -430q-20 -74 -67 -115.5t-109 -41.5q-80 0 -116.5 55t-10.5 150l295 1095q20 74 67 116t109 42q80 0 116.5 -55t10.5 -150l-101 -375h574l113 422q20 74 67 116
t109 42q80 0 116.5 -55t10.5 -150z" />
    <glyph glyph-name="I" unicode="I" horiz-adv-x="688" 
d="M688 1241l-295 -1096q-20 -74 -67 -115.5t-109 -41.5q-80 0 -116.5 55t-10.5 150l295 1095q20 74 67 116t109 42q80 0 116.5 -55t10.5 -150z" />
    <glyph glyph-name="J" unicode="J" horiz-adv-x="1177" 
d="M1202 1241l-180 -672q-45 -173 -89.5 -267t-119.5 -169q-153 -153 -428 -153q-97 0 -195.5 32.5t-171.5 96.5q-57 53 -57 120q0 63 43.5 107.5t104.5 44.5q54 0 108 -43q81 -66 186 -66q119 0 199 80q36 36 62 95.5t63 197.5l172 643q20 74 67 116t109 42q80 0 116.5 -55
t10.5 -150z" />
    <glyph glyph-name="K" unicode="K" horiz-adv-x="1472" 
d="M444 391l-65 -246q-20 -74 -67 -115.5t-109 -41.5q-80 0 -116.5 55t-10.5 150l295 1095q20 74 67 116t109 42q80 0 116.5 -55t10.5 -150l-119 -442l698 585q24 20 40 31.5t40.5 21t50.5 9.5q65 0 104.5 -40.5t39.5 -100.5q0 -71 -55 -117l-461 -377l254 -580
q24 -59 24 -102q0 -63 -47.5 -102t-109.5 -39q-115 0 -160 110l-219 537z" />
    <glyph glyph-name="L" unicode="L" horiz-adv-x="1282" 
d="M965 0h-758q-80 0 -116.5 55t-10.5 150l291 1083q20 74 67 116t109 42q80 0 116.5 -55t10.5 -150l-256 -954h547q59 0 100 -42t41 -102q0 -61 -41 -102t-100 -41z" />
    <glyph glyph-name="M" unicode="M" horiz-adv-x="1777" 
d="M1636 1442h29q80 0 115.5 -55t9.5 -150l-293 -1092q-20 -74 -68 -115.5t-110 -41.5q-80 0 -117.5 55.5t-11.5 149.5l176 661l-352 -383q-84 -94 -172 -94q-52 0 -82 27t-53 88l-138 360l-190 -707q-20 -74 -67 -115.5t-109 -41.5q-80 0 -116.5 55t-10.5 150l293 1089
q43 160 180 160h18q59 0 97.5 -32.5t62.5 -96.5l217 -574l506 604q44 50 87 74.5t99 24.5z" />
    <glyph glyph-name="N" unicode="N" horiz-adv-x="1609" 
d="M1118 522l207 766q20 75 66 116.5t108 41.5q80 0 115.5 -55t9.5 -150l-297 -1102q-40 -147 -170 -147h-6q-71 0 -110.5 28.5t-69.5 90.5l-383 829l-213 -795q-20 -75 -66 -116t-108 -41q-80 0 -115.5 55t-9.5 150l293 1091q20 76 68 117t118 41h14q129 0 185 -125z" />
    <glyph glyph-name="O" unicode="O" horiz-adv-x="1703" 
d="M793 -25q-145 0 -268.5 49t-208 133.5t-132 201.5t-47.5 251q0 160 63.5 313t174 271.5t274 191t350.5 72.5q145 0 268.5 -49t208 -133.5t132 -201.5t47.5 -251q0 -160 -63.5 -313t-174 -271.5t-274 -191t-350.5 -72.5zM829 266q87 0 167 32t139 86t103 123t66.5 145.5
t22.5 150.5q0 164 -95.5 264t-268.5 100q-109 0 -204.5 -49t-158.5 -126.5t-99 -172t-36 -188.5q0 -164 95.5 -264.5t268.5 -100.5z" />
    <glyph glyph-name="P" unicode="P" horiz-adv-x="1390" 
d="M457 434l-78 -289q-20 -74 -67 -115.5t-109 -41.5q-80 0 -116.5 55t-10.5 150l291 1083q20 74 67 116t109 42h321q156 0 265 -34.5t186 -111.5q110 -110 110 -295q0 -173 -93 -301.5t-249.5 -193t-353.5 -64.5h-272zM530 711h215q159 0 255 68t96 188q0 71 -47 118
q-64 64 -197 64h-205z" />
    <glyph glyph-name="Q" unicode="Q" horiz-adv-x="1703" 
d="M1139 641l92 -147q96 148 96 309q0 164 -95.5 264t-268.5 100q-109 0 -204.5 -49t-158.5 -126.5t-99 -172t-36 -188.5q0 -164 95.5 -264.5t268.5 -100.5q96 0 181 37l-88 119q-18 25 -26.5 38t-18 38.5t-9.5 50.5q0 64 45 110t109 46q77 0 117 -64zM1212 0l-41 61
q-174 -86 -378 -86q-145 0 -268.5 49t-208 133.5t-132 201.5t-47.5 251q0 160 63.5 313t174 271.5t274 191t350.5 72.5q145 0 268.5 -49t208 -133.5t132 -201.5t47.5 -251q0 -163 -63.5 -316.5t-180.5 -273.5l27 -32q49 -57 49 -121q0 -63 -43 -105.5t-107 -42.5
q-82 0 -125 68z" />
    <glyph glyph-name="R" unicode="R" horiz-adv-x="1488" 
d="M463 459l-84 -314q-20 -74 -67 -115.5t-109 -41.5q-80 0 -116.5 55t-10.5 150l291 1083q20 74 67 116t109 42h389q310 0 454 -144q111 -111 111 -289q0 -208 -131 -339q-60 -60 -133.5 -99.5t-179.5 -68.5l176 -263q35 -51 35 -100q0 -67 -47 -105t-107 -38
q-121 0 -184 104l-228 367h-235zM539 737h280q197 0 289 92q59 59 59 146q0 70 -45 115q-59 59 -209 59h-264z" />
    <glyph glyph-name="S" unicode="S" horiz-adv-x="1302" 
d="M618 256q96 0 158 41.5t62 108.5q0 53 -50 91.5t-194 96.5q-62 25 -109 49t-95 59t-78.5 73.5t-50 91.5t-19.5 114q0 107 45.5 197t123.5 150t181.5 93t218.5 33q151 0 251 -34t185 -93q74 -53 74 -131q0 -65 -45.5 -109.5t-110.5 -44.5q-51 0 -86 27q-73 57 -140.5 83
t-152.5 26q-95 0 -151.5 -44t-56.5 -102q0 -55 49 -90t202 -98q64 -26 112 -51t94 -59.5t75 -73t46.5 -90.5t17.5 -113q0 -145 -80.5 -255.5t-208.5 -166t-281 -55.5q-147 0 -288 37.5t-242 125.5q-62 51 -62 131q0 68 44 114t110 46q51 0 100 -39q92 -76 170 -107.5
t182 -31.5z" />
    <glyph glyph-name="T" unicode="T" horiz-adv-x="1269" 
d="M948 1143l-268 -998q-20 -74 -67 -115.5t-109 -41.5q-80 0 -116.5 55t-10.5 150l256 950h-262q-60 0 -103 42.5t-43 102.5t43 103t103 43h919q60 0 103 -43t43 -103t-43 -102.5t-103 -42.5h-342z" />
    <glyph glyph-name="U" unicode="U" horiz-adv-x="1564" 
d="M1589 1241l-178 -661q-74 -279 -221 -426q-177 -177 -488 -177q-250 0 -393 128t-143 356q0 89 35 229l159 598q20 74 67.5 116t109.5 42q80 0 116.5 -55t10.5 -150l-156 -579q-23 -94 -23 -156q0 -108 65.5 -173t184.5 -65q141 0 234 90q93 93 139 267l178 663
q20 74 67 116t109 42q80 0 116.5 -55t10.5 -150z" />
    <glyph glyph-name="V" unicode="V" horiz-adv-x="1482" 
d="M1571 1239l-774 -1135q-85 -127 -209 -127h-15q-126 0 -147 140l-164 1112q-6 35 -6 74q0 62 46 102.5t120 40.5t116 -38.5t50 -107.5l104 -866l600 912q65 100 164 100q64 0 103.5 -29.5t39.5 -87.5q0 -50 -28 -90z" />
    <glyph glyph-name="W" unicode="W" horiz-adv-x="2269" 
d="M2357 1233l-706 -1129q-78 -127 -211 -127h-15q-66 0 -104 35.5t-41 104.5l-61 792l-492 -805q-77 -127 -205 -127h-14q-65 0 -103.5 36t-44.5 104l-98 1110q-4 46 -4 73q0 62 46.5 104t117.5 42q69 0 111 -35t45 -96l53 -852l512 862q36 61 79 93t103 32h18
q66 0 102.5 -32.5t41.5 -92.5l57 -862l524 878q64 105 168 105q66 0 107 -35t41 -94q0 -39 -27 -84z" />
    <glyph glyph-name="X" unicode="X" horiz-adv-x="1433" 
d="M961 709l241 -449q39 -72 39 -117q0 -66 -46 -110.5t-114 -44.5q-110 0 -166 114l-184 383l-416 -411q-31 -31 -48.5 -45.5t-47.5 -27.5t-65 -13q-56 0 -96 37.5t-40 101.5q0 33 17.5 67t44.5 60l495 489l-231 431q-39 72 -39 116q0 66 46 111t114 45q110 0 166 -115
l182 -375l389 404q42 44 78 65t84 21q55 0 95 -37.5t40 -99.5q0 -68 -55 -123z" />
    <glyph glyph-name="Y" unicode="Y" horiz-adv-x="1331" 
d="M803 524l-103 -379q-20 -74 -67 -115.5t-109 -41.5q-80 0 -116.5 55t-10.5 150l97 360l-258 625q-31 78 -31 118q0 64 48 107t122 43q58 0 94 -30.5t59 -92.5l183 -492l479 527q84 90 170 90q61 0 96 -34.5t35 -94.5q0 -68 -53 -125z" />
    <glyph glyph-name="Z" unicode="Z" horiz-adv-x="1411" 
d="M72 283l960 874h-573q-57 0 -98.5 40t-41.5 97t41.5 98.5t98.5 41.5h911q63 0 100 -33t37 -90v-4q0 -73 -86 -156l-960 -875h606q57 0 98 -41t41 -98t-41 -97t-98 -40h-944q-63 0 -100 33t-37 90v4q0 73 86 156z" />
    <glyph glyph-name="bracketleft" unicode="[" horiz-adv-x="952" 
d="M954 1190h-284l-326 -1213h219q51 0 87 -34.5t36 -85.5t-36 -87t-87 -36h-413q-68 0 -106 47t-21 110l370 1385q18 68 68.5 113t120.5 45h372q51 0 87 -36t36 -87t-36 -86t-87 -35z" />
    <glyph glyph-name="backslash" unicode="\" horiz-adv-x="1085" 
d="M524 1524l357 -1587q14 -68 14 -97q0 -50 -33.5 -82t-85.5 -32q-55 0 -88.5 33t-44.5 89l-356 1588q-15 73 -15 96q0 50 33.5 82.5t85.5 32.5q55 0 88.5 -33t44.5 -90z" />
    <glyph glyph-name="bracketright" unicode="]" horiz-adv-x="952" 
d="M389 -266h-373q-51 0 -86.5 36t-35.5 87t35.5 85.5t86.5 34.5h285l326 1213h-219q-51 0 -87 35t-36 86t36 87t87 36h413q68 0 106 -47.5t21 -110.5l-370 -1385q-18 -68 -68.5 -112.5t-120.5 -44.5z" />
    <glyph glyph-name="asciicircum" unicode="^" 
d="M291 1130l217 220q43 43 82.5 65.5t89.5 22.5h18q100 0 144 -95l98 -219q23 -52 23 -75t-19 -36.5t-49 -13.5q-60 0 -90.5 19t-67.5 92l-71 139l-150 -143q-65 -62 -103.5 -84.5t-84.5 -22.5q-34 0 -53 17.5t-19 42.5q0 36 35 71z" />
    <glyph glyph-name="underscore" unicode="_" horiz-adv-x="1228" 
d="M-203 -328q-49 0 -84 35t-35 84t35 84t84 35h1237q50 0 84.5 -35t34.5 -84t-34.5 -84t-84.5 -35h-1237z" />
    <glyph glyph-name="grave" unicode="`" 
d="M666 1274l-95 119q-28 40 -28 65q0 37 56.5 70t115.5 33q81 0 108 -76l62 -168q8 -24 8 -43q0 -31 -26.5 -49.5t-71.5 -18.5t-71 13.5t-58 54.5z" />
    <glyph glyph-name="a" unicode="a" horiz-adv-x="1204" 
d="M795 -12q-142 0 -133 139q-138 -147 -328 -147q-142 0 -231 82.5t-89 211.5q0 185 133.5 290.5t339.5 105.5q155 0 310 -49l4 14q12 50 12 82q0 129 -207 129q-95 0 -190 -25q-36 -8 -51 -8q-53 0 -88 35.5t-35 89.5q0 44 26.5 76t67.5 45q158 51 336 51
q219 0 331.5 -87.5t112.5 -250.5q0 -72 -24 -166l-123 -461q-20 -75 -66 -116t-108 -41zM467 193q94 0 171.5 64.5t104.5 156.5l9 28q-103 39 -205 39q-98 0 -160.5 -47t-62.5 -125q0 -52 39 -84t104 -32z" />
    <glyph glyph-name="b" unicode="b" horiz-adv-x="1380" 
d="M690 -20q-123 0 -204.5 46t-139.5 134l-4 -15q-19 -70 -62 -113.5t-110 -43.5q-80 0 -115.5 55t-9.5 150l307 1157q20 75 66 116t108 41q80 0 115.5 -54.5t9.5 -149.5l-86 -324q75 70 148 104.5t161 34.5q185 0 303.5 -126.5t118.5 -344.5q0 -142 -51.5 -268
t-135.5 -212.5t-194 -136.5t-225 -50zM649 242q129 0 227.5 111.5t98.5 273.5q0 106 -62.5 167.5t-167.5 61.5q-131 0 -231 -113t-100 -268q0 -104 66 -168.5t169 -64.5z" />
    <glyph glyph-name="c" unicode="c" horiz-adv-x="1146" 
d="M967 104q-160 -129 -369 -129q-226 0 -369 136.5t-143 359.5q0 175 88 324.5t237 236t322 86.5q229 0 371 -137q57 -53 57 -121q0 -60 -43 -102.5t-106 -42.5q-64 0 -103 45q-76 92 -200 92t-220 -115t-96 -266q0 -104 61 -167.5t154 -63.5q100 0 189 61q55 35 92 35
q54 0 89.5 -37.5t35.5 -91.5q0 -62 -47 -103z" />
    <glyph glyph-name="d" unicode="d" horiz-adv-x="1380" 
d="M950 -12q-66 0 -101.5 35.5t-35.5 95.5q-75 -70 -148 -104.5t-161 -34.5q-185 0 -303.5 126.5t-118.5 344.5q0 142 51.5 268t135.5 212.5t194 136.5t225 50q123 0 204.5 -46t139.5 -134l109 412q20 75 66 116t108 41q80 0 115.5 -54.5t9.5 -149.5l-310 -1158
q-20 -75 -67 -116t-113 -41zM633 242q131 0 231.5 113t100.5 268q0 104 -66.5 168.5t-169.5 64.5q-129 0 -227.5 -111.5t-98.5 -273.5q0 -106 62.5 -167.5t167.5 -61.5z" />
    <glyph glyph-name="e" unicode="e" horiz-adv-x="1243" 
d="M627 225q93 0 170 43q56 29 94 29q50 0 83.5 -33.5t33.5 -85.5q0 -65 -60 -104q-151 -99 -356 -99q-236 0 -372 130.5t-136 357.5q0 95 29.5 189.5t87 178t135 148t181.5 102t218 37.5q209 0 329 -120t120 -308q0 -52 -13 -112q-31 -138 -149 -138h-645q8 -101 69.5 -158
t180.5 -57zM403 635h478q10 33 10 72q0 72 -44.5 116.5t-135.5 44.5q-104 0 -186.5 -63.5t-121.5 -169.5z" />
    <glyph glyph-name="f" unicode="f" horiz-adv-x="841" 
d="M584 831l-187 -686q-20 -75 -66 -116t-108 -41q-80 0 -115.5 55t-9.5 150l174 638q-45 7 -79.5 42t-34.5 92t37.5 95t91.5 38h55l14 59q91 352 445 352q57 0 94 -6q45 -8 73.5 -38.5t28.5 -80.5q0 -71 -42 -110.5t-95 -30.5q-32 4 -49 4q-120 0 -154 -119l-8 -30h111
q54 0 91.5 -38t37.5 -95t-37.5 -95.5t-91.5 -38.5h-176z" />
    <glyph glyph-name="g" unicode="g" horiz-adv-x="1374" 
d="M618 338q130 0 227 94.5t97 224.5q0 93 -59 147t-158 54q-129 0 -222 -98.5t-93 -227.5q0 -94 56.5 -144t151.5 -50zM1022 928l8 24q19 70 62.5 114t109.5 44q80 0 115.5 -55t9.5 -150l-184 -690q-43 -162 -84 -244.5t-109 -150.5q-152 -152 -438 -152q-260 0 -473 94
q-88 42 -88 119q0 56 37 95.5t92 39.5q40 0 90 -24q157 -78 322 -78q149 0 237 88q60 60 100 197l11 37q-88 -78 -166.5 -112t-177.5 -34q-108 0 -199.5 42.5t-150 131.5t-58.5 209q0 134 51.5 255t135 205.5t192 134.5t221.5 50q68 0 123 -15t94 -43t66.5 -59.5t50.5 -72.5
z" />
    <glyph glyph-name="h" unicode="h" horiz-adv-x="1273" 
d="M1153 590l-119 -445q-20 -75 -66 -116t-108 -41q-80 0 -115.5 55t-9.5 150l111 409q14 54 14 98q0 66 -39.5 101t-111.5 35q-89 0 -150 -59t-88 -161l-127 -471q-20 -75 -66 -116t-108 -41q-80 0 -115.5 55t-9.5 150l307 1157q20 75 66 116t108 41q80 0 115.5 -54.5
t9.5 -149.5l-84 -320q150 135 299 135t236.5 -85.5t87.5 -233.5q0 -65 -37 -209z" />
    <glyph glyph-name="i" unicode="i" horiz-adv-x="618" 
d="M700 1352q-13 -65 -69 -104.5t-131 -39.5q-74 0 -118 41.5t-32 102.5l2 10q13 65 69.5 104t131.5 39q74 0 117.5 -41t31.5 -102zM561 905l-205 -760q-20 -75 -66 -116t-108 -41q-80 0 -115.5 55t-9.5 150l205 759q20 75 66 116.5t108 41.5q80 0 115.5 -55t9.5 -150z" />
    <glyph glyph-name="j" unicode="j" horiz-adv-x="616" 
d="M561 905l-235 -878q-98 -361 -420 -361q-77 0 -120.5 31t-43.5 94q0 55 34.5 93t84.5 34q5 0 24 -2t27 -2q41 0 64.5 31.5t43.5 105.5l242 901q20 75 66 116.5t108 41.5q80 0 115.5 -55t9.5 -150zM700 1352q-13 -65 -69 -104.5t-131 -39.5q-74 0 -118 41.5t-32 102.5
l2 10q13 65 69.5 104t131.5 39q74 0 117.5 -41t31.5 -102z" />
    <glyph glyph-name="k" unicode="k" horiz-adv-x="1210" 
d="M655 1303l-163 -607l471 359q25 20 37.5 28.5t35 17.5t45.5 9q57 0 93 -36t36 -89q0 -65 -57 -106l-324 -236l170 -412q27 -66 27 -106q0 -62 -48.5 -99.5t-111.5 -37.5q-115 0 -161 112l-146 349l-168 -123l-47 -181q-20 -75 -66 -116t-108 -41q-80 0 -115.5 55
t-9.5 150l311 1157q20 75 66 116t108 41q80 0 115.5 -54.5t9.5 -149.5z" />
    <glyph glyph-name="l" unicode="l" horiz-adv-x="618" 
d="M668 1303l-312 -1158q-20 -75 -66 -116t-108 -41q-80 0 -115.5 55t-9.5 150l312 1157q20 75 66 116t108 41q80 0 115.5 -54.5t9.5 -149.5z" />
    <glyph glyph-name="m" unicode="m" horiz-adv-x="1943" 
d="M725 193l111 409q14 54 14 98q0 136 -145 136q-89 0 -148 -58.5t-86 -161.5l-127 -471q-20 -75 -66 -116t-108 -41q-80 0 -115.5 55t-9.5 150l203 759q20 75 67 116.5t113 41.5q65 0 102 -36t37 -91q70 63 138.5 99t152.5 36q110 0 184 -52.5t107 -145.5q162 198 393 198
q148 0 233 -85t85 -234q0 -65 -37 -209l-119 -445q-20 -75 -66 -116t-108 -41q-80 0 -115.5 55t-9.5 150l111 409q14 54 14 98q0 66 -37 101t-109 35q-89 0 -147 -58.5t-86 -161.5l-127 -471q-20 -75 -66 -116t-108 -41q-80 0 -115.5 55t-9.5 150z" />
    <glyph glyph-name="n" unicode="n" horiz-adv-x="1267" 
d="M428 1110q65 0 102 -36t37 -91q150 135 299 135t236.5 -85.5t87.5 -233.5q0 -65 -37 -209l-119 -445q-20 -75 -66 -116t-108 -41q-80 0 -115.5 55t-9.5 150l111 409q14 54 14 98q0 66 -39.5 101t-111.5 35q-89 0 -150 -59t-88 -161l-127 -471q-20 -75 -66 -116t-108 -41
q-80 0 -115.5 55t-9.5 150l203 759q20 75 67 116.5t113 41.5z" />
    <glyph glyph-name="o" unicode="o" horiz-adv-x="1335" 
d="M614 -25q-241 0 -384.5 142.5t-143.5 365.5q0 121 50.5 237t134.5 203.5t202.5 141t247.5 53.5q241 0 384.5 -142.5t143.5 -365.5q0 -121 -50.5 -237t-134.5 -203.5t-202.5 -141t-247.5 -53.5zM629 242q90 0 164.5 58t112.5 140t38 162q0 118 -64.5 184t-172.5 66
q-68 0 -129 -34t-101 -87.5t-63 -116.5t-23 -122q0 -118 65 -184t173 -66z" />
    <glyph glyph-name="p" unicode="p" horiz-adv-x="1380" 
d="M428 1110q66 0 101.5 -35.5t35.5 -95.5q75 70 148 104.5t161 34.5q185 0 303.5 -126.5t118.5 -344.5q0 -142 -51.5 -268t-135.5 -212.5t-194 -136.5t-225 -50q-123 0 -204.5 46t-139.5 134l-90 -342q-20 -75 -66 -116.5t-108 -41.5q-80 0 -115.5 55t-9.5 150l291 1087
q20 75 67 116.5t113 41.5zM745 856q-131 0 -231 -113t-100 -268q0 -104 66 -168.5t169 -64.5q129 0 227.5 111.5t98.5 273.5q0 106 -62.5 167.5t-167.5 61.5z" />
    <glyph glyph-name="q" unicode="q" horiz-adv-x="1380" 
d="M688 1118q123 0 204.5 -46t139.5 -134l4 14q19 70 62.5 114t109.5 44q80 0 115.5 -55t9.5 -150l-289 -1087q-20 -75 -66 -116.5t-108 -41.5q-80 0 -115.5 55t-9.5 150l68 254q-75 -70 -148 -104.5t-161 -34.5q-185 0 -303.5 126.5t-118.5 344.5q0 142 51.5 268
t135.5 212.5t194 136.5t225 50zM729 856q-129 0 -227.5 -111.5t-98.5 -273.5q0 -106 62.5 -167.5t167.5 -61.5q131 0 231.5 113t100.5 268q0 104 -66.5 168.5t-169.5 64.5z" />
    <glyph glyph-name="r" unicode="r" horiz-adv-x="858" 
d="M549 924l-6 -25q111 211 252 211q61 0 97 -37t36 -102q0 -62 -32.5 -101t-102.5 -59q-149 -42 -241.5 -142t-141.5 -280l-68 -244q-20 -75 -66 -116t-108 -41q-80 0 -115.5 55t-9.5 150l205 759q20 75 66 116.5t108 41.5q77 0 112 -51.5t15 -134.5z" />
    <glyph glyph-name="s" unicode="s" 
d="M467 213q62 0 96.5 25t34.5 71q0 29 -31.5 52t-95.5 51q-63 27 -100.5 45.5t-84.5 48.5t-72.5 60t-43.5 73t-18 94q0 168 120 276.5t320 108.5q185 0 350 -98q72 -42 72 -115q0 -56 -37.5 -94.5t-91.5 -38.5q-32 0 -82 31q-119 78 -234 78q-57 0 -88.5 -25t-31.5 -68
q0 -30 34 -55t111 -59q53 -23 87.5 -40.5t79 -47t70.5 -59t45 -72.5t19 -93q0 -177 -125.5 -282t-325.5 -105q-115 0 -224 37.5t-197 100.5q-56 41 -56 106q0 54 36.5 92.5t88.5 38.5q46 0 82 -28q138 -109 293 -109z" />
    <glyph glyph-name="t" unicode="t" horiz-adv-x="849" 
d="M338 1098l37 135q20 75 66 116.5t108 41.5q80 0 115.5 -55t9.5 -150l-25 -88h105q54 0 91.5 -38t37.5 -95t-37.5 -95.5t-91.5 -38.5h-176l-123 -460q-9 -36 -9 -49q0 -31 20 -48.5t58 -17.5h25q48 0 79 -30.5t31 -86.5q0 -93 -79 -127q-68 -30 -183 -30
q-139 0 -211.5 59.5t-72.5 155.5q0 55 20 137l133 497q-45 7 -79.5 42t-34.5 92t37.5 95t91.5 38h57z" />
    <glyph glyph-name="u" unicode="u" horiz-adv-x="1273" 
d="M846 -12q-65 0 -102 36t-37 91q-150 -135 -299 -135t-236.5 85.5t-87.5 233.5q0 65 37 209l119 444q20 75 66 116.5t108 41.5q80 0 115.5 -55t9.5 -150l-111 -409q-14 -54 -14 -99q0 -66 39.5 -100.5t111.5 -34.5q89 0 150 58.5t88 160.5l127 471q20 75 66 116.5
t108 41.5q80 0 115.5 -55t9.5 -150l-203 -760q-20 -75 -67 -116t-113 -41z" />
    <glyph glyph-name="v" unicode="v" horiz-adv-x="1212" 
d="M1219 909l-555 -803q-46 -67 -93 -96.5t-114 -29.5h-8q-135 0 -156 139l-121 774q-6 34 -6 74q0 61 48 102t110 41q68 0 110.5 -35t46.5 -96l62 -612l407 645q63 98 162 98q61 0 96 -31.5t35 -87.5q0 -48 -24 -82z" />
    <glyph glyph-name="w" unicode="w" horiz-adv-x="1755" 
d="M215 119l-45 772q-4 46 -4 74q0 60 49 102.5t111 42.5q68 0 111 -35t44 -96l15 -547l319 555q71 125 182 125h17q62 0 99 -33t40 -92l25 -557l335 588q24 42 62 67t84 25q59 0 92 -31t33 -86q0 -42 -25 -84l-481 -803q-74 -126 -203 -126h-10q-65 0 -101.5 35.5
t-39.5 103.5l-27 547l-328 -560q-73 -126 -202 -126h-11q-135 0 -141 139z" />
    <glyph glyph-name="x" unicode="x" horiz-adv-x="1183" 
d="M514 997l125 -229l270 266q32 31 47 43.5t43 24.5t60 12q53 0 89 -34t36 -89q0 -75 -72 -139l-342 -307l184 -297q39 -62 39 -117q0 -67 -42 -108t-109 -41q-55 0 -90 28t-66 88l-131 246l-289 -281q-3 -2 -20 -18t-20.5 -18t-17.5 -13t-20.5 -13.5t-19.5 -8t-25 -7
t-26 -1.5q-53 0 -88 34t-35 88q0 77 69 140l361 321l-178 281q-39 58 -39 119q0 63 40 105t105 42q58 0 93.5 -28t68.5 -89z" />
    <glyph glyph-name="y" unicode="y" horiz-adv-x="1212" 
d="M127 -55q66 -17 92 -17q57 0 107 66l-131 897q-7 40 -7 74q0 61 45.5 103t110.5 42q64 0 106.5 -36t45.5 -97l63 -633l385 668q55 98 158 98q61 0 98 -32.5t37 -88.5q0 -41 -41 -106l-569 -910q-105 -167 -207.5 -237t-237.5 -70q-95 0 -147 23q-94 40 -94 135
q0 56 37 95.5t85 39.5q10 0 64 -14z" />
    <glyph glyph-name="z" unicode="z" horiz-adv-x="1140" 
d="M338 1098h684q65 0 102 -30.5t37 -84.5v-2q0 -74 -76 -139l-677 -590h409q53 0 90 -37t37 -90q0 -52 -37 -88.5t-90 -36.5h-706q-65 0 -102.5 30.5t-37.5 84.5v2q0 74 76 139l676 590h-385q-53 0 -90 36.5t-37 88.5q0 53 37.5 90t89.5 37z" />
    <glyph glyph-name="braceleft" unicode="{" horiz-adv-x="1003" 
d="M227 707h6q138 0 196 65t81 248q27 219 146.5 321.5t334.5 118.5q67 4 102 -24t35 -82q0 -45 -26 -73t-70 -36q-71 -12 -116.5 -33.5t-73.5 -59t-42 -85t-22 -121.5q-15 -140 -56.5 -221t-106 -116t-171.5 -46q83 -12 128.5 -61t45.5 -121q0 -64 -36 -158
q-35 -94 -35 -143q0 -39 14.5 -67.5t30.5 -41t45 -28.5q72 -35 72 -109q0 -57 -42 -89t-102 -19q-164 39 -239.5 109t-75.5 190q0 69 41 176q33 87 33 145q0 54 -19 80t-72 39q-71 14 -102 44.5t-31 78.5q0 52 35.5 85.5t91.5 33.5z" />
    <glyph glyph-name="bar" unicode="|" horiz-adv-x="716" 
d="M270 -152v1676q0 51 36 87t87 36t87 -36t36 -87v-1676q0 -51 -36 -86.5t-87 -35.5t-87 35.5t-36 86.5z" />
    <glyph glyph-name="braceright" unicode="}" horiz-adv-x="1003" 
d="M797 469h-6q-138 0 -196 -65t-81 -248q-27 -219 -146.5 -322t-334.5 -119q-67 -4 -102 24.5t-35 82.5q0 45 26 72.5t70 35.5q71 12 116.5 33.5t73.5 59t42 85t22 121.5q15 140 56.5 221t106 116t171.5 46q-83 12 -128.5 61.5t-45.5 121.5q0 63 36 157q35 94 35 144
q0 39 -14.5 67.5t-30.5 41t-45 28.5q-72 35 -72 108q0 57 42 89.5t102 19.5q164 -39 239.5 -109t75.5 -190q0 -69 -41 -176q-33 -87 -33 -146q0 -54 19 -79.5t72 -38.5q71 -15 102 -45t31 -78q0 -52 -35.5 -85.5t-91.5 -33.5z" />
    <glyph glyph-name="asciitilde" unicode="~" horiz-adv-x="1044" 
d="M217 459q-37 0 -61.5 23.5t-24.5 58.5q0 30 16 59q52 93 124.5 149t154.5 56q50 0 85.5 -15t76.5 -45q43 -31 64 -42t44 -11q57 0 111 66q21 24 41 35.5t51 11.5q37 0 61.5 -23.5t24.5 -58.5q0 -30 -16 -59q-52 -93 -124.5 -149t-154.5 -56q-50 0 -84.5 14.5t-77.5 44.5
q-43 31 -64 42t-44 11q-58 0 -111 -65q-21 -24 -41 -35.5t-51 -11.5z" />
    <glyph glyph-name="uni00A0" unicode="&#xa0;" horiz-adv-x="614" 
 />
    <glyph glyph-name="exclamdown" unicode="&#xa1;" horiz-adv-x="665" 
d="M35 98l293 783q29 77 102 77q42 0 64.5 -27t15.5 -73l-123 -760q-8 -45 -37 -74.5t-69 -29.5h-187q-41 0 -57.5 31t-1.5 73zM705 1276l-3 -12q-14 -76 -68.5 -123t-131.5 -47q-79 0 -122.5 49t-31.5 121l2 12q12 74 68 122t133 48q79 0 122.5 -49t31.5 -121z" />
    <glyph glyph-name="cent" unicode="&#xa2;" horiz-adv-x="1200" 
d="M1038 250q-151 -94 -338 -94q-48 0 -94 6l-33 -84q-41 -103 -116 -103q-54 0 -80 39t-2 99l39 100q-132 62 -205.5 179.5t-73.5 275.5q0 132 50 249t136.5 200.5t206.5 132t256 48.5q36 0 54 -2l22 60q44 102 119 102q54 0 79 -38t1 -99l-27 -68q97 -43 154 -100
q59 -59 59 -121q0 -60 -42.5 -102.5t-104.5 -42.5q-61 0 -101 43q-36 40 -75 63l-224 -571q94 3 185 49q60 29 100 29q53 0 87 -37t34 -92q0 -36 -18 -69t-48 -52zM440 672q0 -122 86 -195l217 553q-131 -13 -217 -119.5t-86 -238.5z" />
    <glyph glyph-name="sterling" unicode="&#xa3;" horiz-adv-x="1318" 
d="M922 1163q-83 0 -140 -57q-56 -56 -84 -160l-39 -139h320q54 0 92.5 -38.5t38.5 -92.5t-38.5 -91.5t-92.5 -37.5h-387l-74 -275h461q57 0 97 -40t40 -97t-40 -96t-97 -39h-858q-56 0 -91.5 33.5t-35.5 81.5q0 91 104 123l105 32l73 277h-2q-54 0 -92.5 37.5t-38.5 91.5
t38.5 92.5t92.5 38.5h72l51 192q53 199 164 310q145 145 383 145q214 0 338 -117q66 -62 66 -127q0 -68 -44 -113.5t-112 -45.5q-60 0 -105 45q-31 31 -67.5 49t-97.5 18z" />
    <glyph glyph-name="yen" unicode="&#xa5;" horiz-adv-x="1456" 
d="M803 903l422 455q41 44 75.5 67t75.5 23q61 0 95 -34.5t34 -94.5q0 -64 -57 -125l-434 -436h170q46 0 78 -32.5t32 -78.5t-32 -78t-78 -32h-310l-32 -127h250q46 0 78 -32.5t32 -78.5t-32 -78.5t-78 -32.5h-310l-12 -43q-20 -74 -66 -115.5t-104 -41.5q-77 0 -112.5 49.5
t-10.5 142.5l2 8h-250q-46 0 -78 32.5t-32 78.5t32 78.5t78 32.5h310l32 127h-249q-46 0 -78.5 32t-32.5 78t32.5 78.5t78.5 32.5h225l-189 420q-1 2 -8.5 20t-9.5 24t-6.5 20.5t-6 26.5t-1.5 25q0 66 45 109t112 43q111 0 150 -100z" />
    <glyph glyph-name="section" unicode="&#xa7;" horiz-adv-x="1294" 
d="M817 590q54 0 93.5 29t39.5 71q0 39 -40.5 64t-135.5 53q-139 43 -205 43q-54 0 -93.5 -29t-39.5 -71q0 -39 40.5 -64t135.5 -53q139 -43 205 -43zM596 215q66 0 104.5 21.5t38.5 56.5q0 33 -43 55t-166 55q-73 20 -121.5 36t-103 41.5t-86.5 54t-53 69.5t-21 92
q0 101 71 171.5t208 99.5q-74 71 -74 170q0 140 131.5 230.5t335.5 90.5q103 0 201 -28t168 -74q63 -43 63 -111q0 -55 -38 -92t-93 -37q-40 0 -74 23q-135 86 -247 86q-70 0 -110 -21t-40 -57q0 -33 43.5 -55.5t165.5 -55.5q73 -20 121.5 -36t103 -41.5t86.5 -54t53 -69.5
t21 -92q0 -101 -70.5 -171t-207.5 -99q73 -70 73 -170q0 -139 -129.5 -230t-326.5 -91q-259 0 -426 135q-50 43 -50 104q0 54 36.5 91.5t88.5 37.5q50 0 86 -28q75 -59 141 -83t140 -24z" />
    <glyph glyph-name="dieresis" unicode="&#xa8;" 
d="M668 1354q-13 -68 -65 -108t-122 -40q-71 0 -110.5 42t-24.5 106l2 8q13 66 65.5 105.5t121.5 39.5q68 0 107.5 -42.5t27.5 -102.5zM1106 1354q-13 -68 -64.5 -108t-121.5 -40q-71 0 -111 42t-25 106l2 8q13 66 65.5 105.5t121.5 39.5q68 0 107.5 -42.5t27.5 -102.5z" />
    <glyph glyph-name="copyright" unicode="&#xa9;" horiz-adv-x="1699" 
d="M891 -25q-153 0 -290.5 59t-235.5 158.5t-155.5 235.5t-57.5 285v4q0 149 58 285.5t157 236.5t237 159.5t291 59.5t290.5 -59t235.5 -158t155.5 -235t57.5 -285v-4q0 -149 -58 -285.5t-157 -237t-237 -160t-291 -59.5zM891 57q138 0 260.5 52.5t209 141.5t137 210.5
t50.5 255.5v4q0 179 -84.5 329t-235 238t-333.5 88q-138 0 -260.5 -52.5t-209 -141t-137 -210t-50.5 -255.5v-4q0 -134 50 -255t136 -209t208 -140t259 -52zM901 319q-172 0 -287.5 117t-115.5 287v4q0 171 115.5 289.5t293.5 118.5q157 0 267 -82q38 -26 38 -74
q0 -37 -25.5 -62.5t-60.5 -25.5q-29 0 -57 22q-76 58 -162 58q-97 0 -161 -70.5t-64 -171.5v-4q0 -100 63.5 -171t161.5 -71q93 0 174 68q24 20 54 20q34 0 59 -25t25 -59q0 -36 -27 -59q-61 -55 -128.5 -82t-162.5 -27z" />
    <glyph glyph-name="ordfeminine" unicode="&#xaa;" horiz-adv-x="798" 
d="M535 1296q-45 0 -103 -14q-30 -6 -37 -6q-28 0 -44.5 16.5t-16.5 48.5q0 55 55 74q83 27 182 27q120 0 182 -48.5t62 -138.5q0 -47 -12 -90l-70 -256q-10 -40 -36 -63t-60 -23q-39 0 -58 22.5t-14 55.5q-79 -82 -180 -82q-78 0 -127 45.5t-49 116.5q0 102 73.5 160.5
t186.5 58.5q83 0 172 -29l4 15q6 21 6 35q0 75 -116 75zM166 567q-28 0 -48 20t-20 48t20 47.5t48 19.5h459q28 0 47.5 -19.5t19.5 -47.5t-19.5 -48t-47.5 -20h-459zM459 936q52 0 95.5 36t55.5 87l4 16q-61 21 -112 21q-55 0 -89 -26t-34 -69q0 -28 22 -46.5t58 -18.5z" />
    <glyph glyph-name="guillemotleft" unicode="&#xab;" horiz-adv-x="1316" 
d="M150 590l346 342q65 61 118 61t85 -30t32 -82q0 -60 -43 -97l-299 -282l123 -234q20 -41 20 -80q0 -53 -38 -89t-93 -36q-47 0 -73.5 18.5t-46.5 57.5l-140 277q-1 3 -10 20.5t-12 24t-6.5 20t-3.5 25.5q0 46 41 84zM702 590l347 342q65 61 118 61t85 -30t32 -82
q0 -60 -43 -97l-299 -282l123 -234q20 -41 20 -80q0 -53 -38 -89t-93 -36q-47 0 -73.5 18.5t-46.5 57.5l-140 277q-1 3 -10 20.5t-12 24t-6.5 20t-3.5 25.5q0 47 40 84z" />
    <glyph glyph-name="registered" unicode="&#xae;" horiz-adv-x="753" 
d="M530 737q-150 0 -253 105t-103 252v2q0 147 104 252.5t252 105.5q150 0 253.5 -104.5t103.5 -251.5v-2q0 -147 -104.5 -253t-252.5 -106zM530 776q132 0 224 94t92 226v2q0 132 -91 224.5t-225 92.5q-132 0 -223.5 -93.5t-91.5 -225.5v-2q0 -132 90.5 -225t224.5 -93z
M375 958v279q0 22 15.5 37.5t37.5 15.5h127q73 0 115.5 -32.5t42.5 -96.5q0 -79 -70 -112l47 -56q15 -18 15 -37q0 -21 -16 -36t-38 -15q-23 0 -41 21l-80 100h-49v-68q0 -22 -15.5 -37.5t-37.5 -15.5t-37.5 15.5t-15.5 37.5zM481 1110h68q27 0 42 12t15 33q0 45 -57 45h-68
v-90z" />
    <glyph glyph-name="macron" unicode="&#xaf;" 
d="M995 1229h-544q-45 0 -77 31t-32 75t32.5 76.5t76.5 32.5h544q44 0 76.5 -32.5t32.5 -76.5t-32 -75t-77 -31z" />
    <glyph glyph-name="degree" unicode="&#xb0;" horiz-adv-x="911" 
d="M510 743q-150 0 -240 88.5t-90 227.5q0 102 51.5 192t142 145.5t197.5 55.5q150 0 240 -88t90 -227q0 -102 -51.5 -192.5t-142 -146t-197.5 -55.5zM516 903q86 0 144.5 71t58.5 156q0 72 -42.5 117t-111.5 45q-86 0 -144.5 -71t-58.5 -156q0 -72 42.5 -117t111.5 -45z
" />
    <glyph glyph-name="plusminus" unicode="&#xb1;" horiz-adv-x="1310" 
d="M854 778l-55 -215q-20 -70 -63 -109.5t-95 -39.5q-70 0 -101.5 48.5t-7.5 137.5l46 178h-201q-55 0 -94 39t-39 94t39 94t94 39h274l56 211q20 71 62.5 110.5t94.5 39.5q70 0 101.5 -48.5t7.5 -137.5l-45 -175h200q56 0 95 -39t39 -94t-39 -94t-95 -39h-274zM164 0h758
q54 0 91.5 37.5t37.5 91.5t-37.5 91.5t-91.5 37.5h-758q-54 0 -91.5 -37.5t-37.5 -91.5t37.5 -91.5t91.5 -37.5z" />
    <glyph glyph-name="acute" unicode="&#xb4;" 
d="M922 1393l-160 -119q-91 -68 -182 -68q-39 0 -62.5 15.5t-23.5 42.5q0 28 26 57l156 172q22 23 35.5 35t35.5 22.5t46 10.5q60 0 117 -31.5t57 -69.5q0 -33 -45 -67z" />
    <glyph glyph-name="paragraph" unicode="&#xb6;" horiz-adv-x="1226" 
d="M1249 1276l-301 -1131q-20 -74 -67 -115.5t-109 -41.5q-80 0 -116.5 55t-10.5 150l64 241q-255 5 -393 113.5t-138 320.5q0 121 44.5 222.5t131.5 179t227 121t320 43.5h221q71 0 107.5 -47t19.5 -111z" />
    <glyph glyph-name="periodcentered" unicode="&#xb7;" horiz-adv-x="653" 
d="M518 641l-2 -12q-12 -74 -68 -122t-133 -48q-79 0 -122 48.5t-31 121.5l2 12q14 76 69 123t132 47q79 0 122 -48.5t31 -121.5z" />
    <glyph glyph-name="cedilla" unicode="&#xb8;" 
d="M573 20l-198 -296q-43 -66 -107 -66q-45 0 -92 33t-47 71q0 32 31 66l184 192h229z" />
    <glyph glyph-name="ordmasculine" unicode="&#xba;" horiz-adv-x="823" 
d="M504 817q-132 0 -211.5 78t-79.5 201q0 139 101.5 243.5t246.5 104.5q132 0 211.5 -78t79.5 -201q0 -139 -101.5 -243.5t-246.5 -104.5zM510 963q76 0 125 61t49 135q0 62 -35.5 100.5t-93.5 38.5q-76 0 -125 -61t-49 -135q0 -62 35.5 -100.5t93.5 -38.5zM168 567
q-28 0 -48 20t-20 48t20 47.5t48 19.5h479q28 0 48 -19.5t20 -47.5t-20 -48t-48 -20h-479z" />
    <glyph glyph-name="guillemotright" unicode="&#xbb;" horiz-adv-x="1316" 
d="M1161 487l-346 -342q-65 -61 -119 -61q-53 0 -84.5 30.5t-31.5 82.5q0 59 43 96l299 282l-123 234q-21 44 -21 80q0 53 38 89t93 36q47 0 74 -18.5t47 -57.5l139 -276l10.5 -21l12 -24t7 -20.5t3.5 -25.5q0 -46 -41 -84zM608 487l-346 -342q-65 -61 -119 -61
q-53 0 -84.5 30.5t-31.5 82.5q0 59 43 96l299 282l-123 234q-21 43 -21 80q0 53 38 89t93 36q47 0 74 -18.5t47 -57.5l139 -276l10.5 -21l12 -24t7 -20.5t3.5 -25.5q0 -46 -41 -84z" />
    <glyph glyph-name="questiondown" unicode="&#xbf;" horiz-adv-x="1114" 
d="M760 330q68 35 106 35q54 0 89.5 -37.5t35.5 -85.5q0 -80 -69 -131q-177 -129 -416 -129q-208 0 -332.5 109t-124.5 263q0 180 133 294.5t391 154.5l23 55q18 44 53 72t78 28h16q45 0 68.5 -28.5t17.5 -77.5l-18 -156q-6 -50 -36 -72.5t-97 -31.5q-136 -20 -217.5 -69
t-81.5 -128q0 -60 42.5 -93.5t127.5 -33.5q97 0 211 62zM995 1264q-14 -76 -68.5 -123t-131.5 -47q-79 0 -122.5 49t-31.5 121l2 12q12 74 68 122t133 48q79 0 122 -48.5t31 -121.5z" />
    <glyph glyph-name="Agrave" unicode="&#xc0;" horiz-adv-x="1566" 
d="M621 600h397l-74 473zM1208 1307l193 -1086q10 -72 10 -82q0 -62 -46.5 -106.5t-115.5 -44.5q-64 0 -104.5 34.5t-48.5 90.5l-33 209h-635l-164 -236q-69 -98 -160 -98q-61 0 -95 33.5t-34 89.5q0 55 37 104l797 1118q85 123 221 123h6q146 0 172 -149zM905 1622l-94 119
q-29 42 -29 65q0 37 56.5 70t115.5 33q82 0 109 -76l61 -168q9 -27 9 -43q0 -31 -26.5 -49.5t-72.5 -18.5q-45 0 -71 13.5t-58 54.5z" />
    <glyph glyph-name="Aacute" unicode="&#xc1;" horiz-adv-x="1566" 
d="M621 600h397l-74 473zM1208 1307l193 -1086q10 -72 10 -82q0 -62 -46.5 -106.5t-115.5 -44.5q-64 0 -104.5 34.5t-48.5 90.5l-33 209h-635l-164 -236q-69 -98 -160 -98q-61 0 -95 33.5t-34 89.5q0 55 37 104l797 1118q85 123 221 123h6q146 0 172 -149zM1438 1741
l-160 -119q-91 -68 -182 -68q-39 0 -62.5 15.5t-23.5 42.5q0 28 26 57l156 172q22 23 35.5 35t35.5 22.5t46 10.5q60 0 117 -31.5t57 -69.5q0 -33 -45 -67z" />
    <glyph glyph-name="Acircumflex" unicode="&#xc2;" horiz-adv-x="1566" 
d="M621 600h397l-74 473zM1208 1307l193 -1086q10 -72 10 -82q0 -62 -46.5 -106.5t-115.5 -44.5q-64 0 -104.5 34.5t-48.5 90.5l-33 209h-635l-164 -236q-69 -98 -160 -98q-61 0 -95 33.5t-34 89.5q0 55 37 104l797 1118q85 123 221 123h6q146 0 172 -149zM1327 1821
l78 -152q27 -49 27 -65q0 -24 -19.5 -37t-50.5 -13q-43 0 -66.5 3t-54.5 18.5t-59 46.5l-74 80l-117 -80q-54 -37 -98 -52.5t-96 -15.5q-30 0 -48 12.5t-18 35.5q0 30 35 65l168 162q69 69 160 69h90q104 0 143 -77z" />
    <glyph glyph-name="Atilde" unicode="&#xc3;" horiz-adv-x="1566" 
d="M621 600h397l-74 473zM1208 1307l193 -1086q10 -72 10 -82q0 -62 -46.5 -106.5t-115.5 -44.5q-64 0 -104.5 34.5t-48.5 90.5l-33 209h-635l-164 -236q-69 -98 -160 -98q-61 0 -95 33.5t-34 89.5q0 55 37 104l797 1118q85 123 221 123h6q146 0 172 -149zM766 1561
q-37 0 -61.5 23t-24.5 58q0 31 16 60q52 93 124.5 149t154.5 56q50 0 85.5 -15t76.5 -45q43 -31 64 -42t44 -11q57 0 111 66q21 24 41 35.5t51 11.5q37 0 61.5 -23.5t24.5 -58.5q0 -31 -16 -60q-52 -93 -124 -148.5t-155 -55.5q-50 0 -84.5 14.5t-77.5 44.5q-43 31 -64 42
t-44 11q-58 0 -111 -65q-21 -24 -41 -35.5t-51 -11.5z" />
    <glyph glyph-name="Adieresis" unicode="&#xc4;" horiz-adv-x="1566" 
d="M621 600h397l-74 473zM1208 1307l193 -1086q10 -72 10 -82q0 -62 -46.5 -106.5t-115.5 -44.5q-64 0 -104.5 34.5t-48.5 90.5l-33 209h-635l-164 -236q-69 -98 -160 -98q-61 0 -95 33.5t-34 89.5q0 55 37 104l797 1118q85 123 221 123h6q146 0 172 -149zM1049 1702
q-13 -68 -65 -108t-122 -40q-71 0 -110.5 42t-24.5 106l2 8q13 66 65 105.5t121 39.5q68 0 108 -42.5t28 -102.5zM1487 1702q-13 -68 -65 -108t-122 -40q-71 0 -110.5 42t-24.5 106l2 8q13 66 65.5 105.5t121.5 39.5q68 0 107.5 -42.5t27.5 -102.5z" />
    <glyph glyph-name="Aring" unicode="&#xc5;" horiz-adv-x="1566" 
d="M104 -12q-61 0 -95 33.5t-34 89.5q0 55 37 104l856 1200q-55 55 -55 148q0 111 80 192.5t194 81.5q102 0 164 -61t62 -152q0 -69 -32.5 -129.5t-88.5 -97.5l209 -1176q10 -72 10 -82q0 -62 -46.5 -106.5t-115.5 -44.5q-64 0 -104.5 34.5t-48.5 90.5l-33 209h-635
l-164 -236q-69 -98 -160 -98zM621 600h397l-74 473zM1042 1462q61 0 100.5 48.5t39.5 111.5q0 44 -27 73t-72 29q-61 0 -100 -48t-39 -111q0 -44 26.5 -73.5t71.5 -29.5z" />
    <glyph glyph-name="AE" unicode="&#xc6;" horiz-adv-x="2166" 
d="M696 600h336l150 561h-39zM1149 1434h969q58 0 99.5 -41.5t41.5 -100.5q0 -58 -41 -98.5t-100 -40.5h-625l-78 -293h457q59 0 100 -40.5t41 -98.5t-41 -97.5t-100 -39.5h-533l-82 -303h562q58 0 99.5 -41.5t41.5 -100.5q0 -58 -41 -98.5t-100 -40.5h-768q-80 0 -117 55.5
t-10 149.5l32 117h-483l-194 -244q-38 -46 -72.5 -68t-79.5 -22q-57 0 -89 30.5t-32 81.5q0 63 47 121l887 1098q92 115 209 115z" />
    <glyph glyph-name="Ccedilla" unicode="&#xc7;" horiz-adv-x="1486" 
d="M1280 129q-83 -70 -208 -112t-259 -42h-18l-168 -251q-43 -66 -107 -66q-45 0 -92 33t-47 71q0 32 31 66l170 178q-204 60 -324.5 215.5t-120.5 378.5q0 113 31.5 222.5t87.5 203.5t136.5 174.5t176 137t209 88.5t232.5 32q282 0 473 -176q65 -61 65 -133q0 -68 -47 -116
t-115 -48q-70 0 -110 45q-64 69 -131.5 103t-173.5 34q-97 0 -189.5 -44.5t-162 -118.5t-112 -177t-42.5 -215q0 -154 97.5 -250t252.5 -96q83 0 135.5 20t134.5 72q60 37 107 37q61 0 102 -43.5t41 -105.5q0 -69 -55 -117z" />
    <glyph glyph-name="Egrave" unicode="&#xc8;" horiz-adv-x="1361" 
d="M1014 0h-807q-80 0 -116.5 55t-10.5 150l287 1071q20 74 67 116t109 42h770q58 0 99.5 -41.5t41.5 -100.5q0 -58 -41 -98.5t-100 -40.5h-666l-78 -293h498q59 0 100 -40.5t41 -98.5t-41 -97.5t-100 -39.5h-573l-82 -303h602q58 0 99.5 -41.5t41.5 -100.5q0 -58 -41 -98.5
t-100 -40.5zM809 1602l-94 118q-29 42 -29 66q0 37 56.5 69.5t115.5 32.5q82 0 109 -76l61 -167q8 -24 8 -43q0 -31 -26.5 -49.5t-71.5 -18.5t-71 13.5t-58 54.5z" />
    <glyph glyph-name="Eacute" unicode="&#xc9;" horiz-adv-x="1361" 
d="M1014 0h-807q-80 0 -116.5 55t-10.5 150l287 1071q20 74 67 116t109 42h770q58 0 99.5 -41.5t41.5 -100.5q0 -58 -41 -98.5t-100 -40.5h-666l-78 -293h498q59 0 100 -40.5t41 -98.5t-41 -97.5t-100 -39.5h-573l-82 -303h602q58 0 99.5 -41.5t41.5 -100.5q0 -58 -41 -98.5
t-100 -40.5zM1341 1720l-159 -118q-91 -68 -183 -68q-39 0 -62.5 15t-23.5 42q0 28 27 58l156 172q22 23 35 35t35 22t46 10q60 0 117 -31t57 -69q0 -34 -45 -68z" />
    <glyph glyph-name="Ecircumflex" unicode="&#xca;" horiz-adv-x="1361" 
d="M1014 0h-807q-80 0 -116.5 55t-10.5 150l287 1071q20 74 67 116t109 42h770q58 0 99.5 -41.5t41.5 -100.5q0 -58 -41 -98.5t-100 -40.5h-666l-78 -293h498q59 0 100 -40.5t41 -98.5t-41 -97.5t-100 -39.5h-573l-82 -303h602q58 0 99.5 -41.5t41.5 -100.5q0 -58 -41 -98.5
t-100 -40.5zM1229 1800l78 -151q26 -47 26 -66q0 -24 -19 -36.5t-50 -12.5q-32 0 -50.5 1.5t-43 7.5t-45.5 20.5t-42 38.5l-73 79l-117 -79q-54 -37 -98.5 -52.5t-96.5 -15.5q-65 0 -65 47q0 31 35 66l168 161q70 70 159 70h90q104 0 144 -78z" />
    <glyph glyph-name="Edieresis" unicode="&#xcb;" horiz-adv-x="1361" 
d="M1014 0h-807q-80 0 -116.5 55t-10.5 150l287 1071q20 74 67 116t109 42h770q58 0 99.5 -41.5t41.5 -100.5q0 -58 -41 -98.5t-100 -40.5h-666l-78 -293h498q59 0 100 -40.5t41 -98.5t-41 -97.5t-100 -39.5h-573l-82 -303h602q58 0 99.5 -41.5t41.5 -100.5q0 -58 -41 -98.5
t-100 -40.5zM950 1681q-13 -68 -64.5 -107.5t-121.5 -39.5q-71 0 -110.5 41.5t-24.5 105.5l2 9q13 66 65 105.5t121 39.5q68 0 107.5 -42.5t27.5 -102.5zM1389 1681q-13 -68 -65 -107.5t-122 -39.5q-71 0 -110.5 41.5t-24.5 105.5l2 9q13 66 65 105.5t121 39.5
q68 0 108 -42.5t28 -102.5z" />
    <glyph glyph-name="Igrave" unicode="&#xcc;" horiz-adv-x="688" 
d="M688 1241l-295 -1096q-20 -74 -67 -115.5t-109 -41.5q-80 0 -116.5 55t-10.5 150l295 1095q20 74 67 116t109 42q80 0 116.5 -55t10.5 -150zM446 1602l-94 118q-28 40 -28 66q0 37 56.5 69.5t115.5 32.5q81 0 108 -76l62 -167q8 -24 8 -43q0 -31 -26.5 -49.5t-72.5 -18.5
q-45 0 -71 13.5t-58 54.5z" />
    <glyph glyph-name="Iacute" unicode="&#xcd;" horiz-adv-x="688" 
d="M688 1241l-295 -1096q-20 -74 -67 -115.5t-109 -41.5q-80 0 -116.5 55t-10.5 150l295 1095q20 74 67 116t109 42q80 0 116.5 -55t10.5 -150zM979 1720l-160 -118q-91 -68 -182 -68q-39 0 -62.5 15t-23.5 42q0 28 27 58l155 172q32 34 57 50.5t60 16.5q60 0 117 -31
t57 -69q0 -34 -45 -68z" />
    <glyph glyph-name="Icircumflex" unicode="&#xce;" horiz-adv-x="688" 
d="M688 1241l-295 -1096q-20 -74 -67 -115.5t-109 -41.5q-80 0 -116.5 55t-10.5 150l295 1095q20 74 67 116t109 42q80 0 116.5 -55t10.5 -150zM866 1800l78 -151q27 -49 27 -66q0 -24 -19.5 -36.5t-50.5 -12.5q-43 0 -66.5 3t-54.5 18.5t-59 46.5l-74 79l-117 -79
q-54 -37 -98 -52.5t-96 -15.5q-30 0 -48 12t-18 35q0 31 35 66l168 161q70 70 160 70h90q103 0 143 -78z" />
    <glyph glyph-name="Idieresis" unicode="&#xcf;" horiz-adv-x="688" 
d="M688 1241l-295 -1096q-20 -74 -67 -115.5t-109 -41.5q-80 0 -116.5 55t-10.5 150l295 1095q20 74 67 116t109 42q80 0 116.5 -55t10.5 -150zM590 1681q-13 -68 -65 -107.5t-122 -39.5q-71 0 -110.5 41.5t-24.5 105.5l2 9q13 66 65.5 105.5t121.5 39.5q68 0 107.5 -42.5
t27.5 -102.5zM1028 1681q-13 -68 -64.5 -107.5t-121.5 -39.5q-71 0 -110.5 41.5t-24.5 105.5l2 9q13 66 65 105.5t121 39.5q68 0 107.5 -42.5t27.5 -102.5z" />
    <glyph glyph-name="Eth" unicode="&#xd0;" horiz-adv-x="1632" 
d="M584 1434h284q377 0 562 -185q155 -155 155 -420q0 -330 -235 -565q-264 -264 -752 -264h-350q-80 0 -116.5 55t-10.5 150l100 377h-6q-59 0 -99 40t-40 99t40 99t99 40h82l111 416q20 74 67 116t109 42zM457 285h178q145 0 269.5 44.5t209.5 129.5q143 143 143 358
q0 144 -83 227q-105 105 -330 105h-154l-78 -289h125q59 0 99.5 -40.5t40.5 -98.5t-40.5 -98.5t-99.5 -40.5h-200z" />
    <glyph glyph-name="Ntilde" unicode="&#xd1;" horiz-adv-x="1609" 
d="M1118 522l207 766q20 75 66 116.5t108 41.5q80 0 115.5 -55t9.5 -150l-297 -1102q-40 -147 -170 -147h-6q-71 0 -110.5 28.5t-69.5 90.5l-383 829l-213 -795q-20 -75 -66 -116t-108 -41q-80 0 -115.5 55t-9.5 150l293 1091q20 76 68 117t118 41h14q129 0 185 -125z
M768 1540q-37 0 -61.5 23.5t-24.5 58.5q0 30 16 59q52 93 124.5 149t154.5 56q50 0 86 -14.5t76 -44.5q43 -31 64 -42t44 -11q58 0 111 65q21 24 41 35.5t51 11.5q37 0 61.5 -23.5t24.5 -58.5q0 -30 -16 -59q-52 -93 -124.5 -149t-154.5 -56q-50 0 -84.5 14.5t-77.5 44.5
q-44 32 -64.5 43t-43.5 11q-57 0 -111 -66q-21 -24 -41 -35.5t-51 -11.5z" />
    <glyph glyph-name="Ograve" unicode="&#xd2;" horiz-adv-x="1703" 
d="M793 -25q-145 0 -268.5 49t-208 133.5t-132 201.5t-47.5 251q0 160 63.5 313t174 271.5t274 191t350.5 72.5q145 0 268.5 -49t208 -133.5t132 -201.5t47.5 -251q0 -160 -63.5 -313t-174 -271.5t-274 -191t-350.5 -72.5zM829 266q87 0 167 32t139 86t103 123t66.5 145.5
t22.5 150.5q0 164 -95.5 264t-268.5 100q-109 0 -204.5 -49t-158.5 -126.5t-99 -172t-36 -188.5q0 -164 95.5 -264.5t268.5 -100.5zM944 1622l-94 119q-29 42 -29 65q0 37 56.5 70t115.5 33q82 0 109 -76l61 -168q8 -24 8 -43q0 -31 -26.5 -49.5t-71.5 -18.5t-71 13.5
t-58 54.5z" />
    <glyph glyph-name="Oacute" unicode="&#xd3;" horiz-adv-x="1703" 
d="M793 -25q-145 0 -268.5 49t-208 133.5t-132 201.5t-47.5 251q0 160 63.5 313t174 271.5t274 191t350.5 72.5q145 0 268.5 -49t208 -133.5t132 -201.5t47.5 -251q0 -160 -63.5 -313t-174 -271.5t-274 -191t-350.5 -72.5zM829 266q87 0 167 32t139 86t103 123t66.5 145.5
t22.5 150.5q0 164 -95.5 264t-268.5 100q-109 0 -204.5 -49t-158.5 -126.5t-99 -172t-36 -188.5q0 -164 95.5 -264.5t268.5 -100.5zM1477 1741l-160 -119q-91 -68 -182 -68q-39 0 -62.5 15.5t-23.5 42.5q0 28 26 57l156 172q22 23 35.5 35t35.5 22.5t46 10.5q60 0 117 -31.5
t57 -69.5q0 -33 -45 -67z" />
    <glyph glyph-name="Ocircumflex" unicode="&#xd4;" horiz-adv-x="1703" 
d="M793 -25q-145 0 -268.5 49t-208 133.5t-132 201.5t-47.5 251q0 160 63.5 313t174 271.5t274 191t350.5 72.5q145 0 268.5 -49t208 -133.5t132 -201.5t47.5 -251q0 -160 -63.5 -313t-174 -271.5t-274 -191t-350.5 -72.5zM829 266q87 0 167 32t139 86t103 123t66.5 145.5
t22.5 150.5q0 164 -95.5 264t-268.5 100q-109 0 -204.5 -49t-158.5 -126.5t-99 -172t-36 -188.5q0 -164 95.5 -264.5t268.5 -100.5zM1364 1821l78 -152q26 -47 26 -65q0 -24 -19.5 -37t-49.5 -13q-43 0 -66.5 3t-54.5 18.5t-59 46.5l-74 80l-117 -80q-54 -37 -98 -52.5
t-96 -15.5q-30 0 -48 12.5t-18 35.5q0 30 35 65l168 162q69 69 159 69h91q104 0 143 -77z" />
    <glyph glyph-name="Otilde" unicode="&#xd5;" horiz-adv-x="1703" 
d="M793 -25q-145 0 -268.5 49t-208 133.5t-132 201.5t-47.5 251q0 160 63.5 313t174 271.5t274 191t350.5 72.5q145 0 268.5 -49t208 -133.5t132 -201.5t47.5 -251q0 -160 -63.5 -313t-174 -271.5t-274 -191t-350.5 -72.5zM829 266q87 0 167 32t139 86t103 123t66.5 145.5
t22.5 150.5q0 164 -95.5 264t-268.5 100q-109 0 -204.5 -49t-158.5 -126.5t-99 -172t-36 -188.5q0 -164 95.5 -264.5t268.5 -100.5zM805 1561q-37 0 -61.5 23t-24.5 58q0 31 16 60q52 93 124.5 149t154.5 56q50 0 85.5 -15t76.5 -45q43 -31 64 -42t44 -11q57 0 111 66
q21 24 41 35.5t51 11.5q37 0 61.5 -23.5t24.5 -58.5q0 -29 -17 -60q-52 -93 -124 -148.5t-154 -55.5q-50 0 -84.5 14.5t-77.5 44.5q-43 31 -64 42t-44 11q-58 0 -111 -65q-21 -24 -41 -35.5t-51 -11.5z" />
    <glyph glyph-name="Odieresis" unicode="&#xd6;" horiz-adv-x="1703" 
d="M793 -25q-145 0 -268.5 49t-208 133.5t-132 201.5t-47.5 251q0 160 63.5 313t174 271.5t274 191t350.5 72.5q145 0 268.5 -49t208 -133.5t132 -201.5t47.5 -251q0 -160 -63.5 -313t-174 -271.5t-274 -191t-350.5 -72.5zM829 266q87 0 167 32t139 86t103 123t66.5 145.5
t22.5 150.5q0 164 -95.5 264t-268.5 100q-109 0 -204.5 -49t-158.5 -126.5t-99 -172t-36 -188.5q0 -164 95.5 -264.5t268.5 -100.5zM1085 1702q-13 -68 -64.5 -108t-121.5 -40q-71 0 -110.5 42t-24.5 106l2 8q13 66 65 105.5t121 39.5q68 0 107.5 -42.5t27.5 -102.5z
M1524 1702q-13 -68 -65 -108t-122 -40q-71 0 -110.5 42t-24.5 106l2 8q13 66 65.5 105.5t121.5 39.5q68 0 107.5 -42.5t27.5 -102.5z" />
    <glyph glyph-name="multiply" unicode="&#xd7;" horiz-adv-x="1310" 
d="M897 702l158 -210q32 -44 32 -93q0 -60 -41.5 -101.5t-101.5 -41.5q-75 0 -119 63l-147 213l-303 -243q-36 -31 -86 -31q-55 0 -94 39t-39 94q0 64 55 109l309 239l-158 211q-32 44 -32 92q0 60 41.5 102t101.5 42q75 0 119 -64l147 -213l303 244q36 31 86 31
q56 0 95 -39t39 -94q0 -63 -56 -109z" />
    <glyph glyph-name="Oslash" unicode="&#xd8;" horiz-adv-x="1703" 
d="M453 631q0 -90 26 -158l738 623q-99 86 -254 86q-108 0 -205.5 -51t-163 -131.5t-103.5 -178t-38 -190.5zM829 252q108 0 205.5 51t163 131.5t103.5 178t38 190.5q0 74 -20 133l-729 -614q92 -70 239 -70zM354 123l-121 -103q-54 -43 -96 -43q-43 0 -67.5 25.5
t-24.5 63.5q0 28 16.5 51t47.5 51l118 102q-90 146 -90 340q0 160 63.5 313t174 271.5t274 191t350.5 72.5q270 0 453 -162l139 117q54 43 97 43t67.5 -25t24.5 -63q0 -28 -16.5 -51t-47.5 -51l-141 -123q80 -144 80 -320q0 -160 -63.5 -313t-174 -271.5t-274 -191
t-350.5 -72.5q-257 0 -439 148z" />
    <glyph glyph-name="Ugrave" unicode="&#xd9;" horiz-adv-x="1564" 
d="M1589 1241l-178 -661q-74 -279 -221 -426q-177 -177 -488 -177q-250 0 -393 128t-143 356q0 89 35 229l159 598q20 74 67.5 116t109.5 42q80 0 116.5 -55t10.5 -150l-156 -579q-23 -94 -23 -156q0 -108 65.5 -173t184.5 -65q141 0 234 90q93 93 139 267l178 663
q20 74 67 116t109 42q80 0 116.5 -55t10.5 -150zM872 1602l-94 118q-28 40 -28 66q0 37 56.5 69.5t115.5 32.5q81 0 108 -76l62 -167q8 -24 8 -43q0 -31 -26.5 -49.5t-72.5 -18.5q-45 0 -71 13.5t-58 54.5z" />
    <glyph glyph-name="Uacute" unicode="&#xda;" horiz-adv-x="1564" 
d="M1589 1241l-178 -661q-74 -279 -221 -426q-177 -177 -488 -177q-250 0 -393 128t-143 356q0 89 35 229l159 598q20 74 67.5 116t109.5 42q80 0 116.5 -55t10.5 -150l-156 -579q-23 -94 -23 -156q0 -108 65.5 -173t184.5 -65q141 0 234 90q93 93 139 267l178 663
q20 74 67 116t109 42q80 0 116.5 -55t10.5 -150zM1405 1720l-160 -118q-91 -68 -182 -68q-39 0 -62.5 15t-23.5 42q0 28 27 58l155 172q32 34 57 50.5t60 16.5q60 0 117 -31t57 -69q0 -34 -45 -68z" />
    <glyph glyph-name="Ucircumflex" unicode="&#xdb;" horiz-adv-x="1564" 
d="M1589 1241l-178 -661q-74 -279 -221 -426q-177 -177 -488 -177q-250 0 -393 128t-143 356q0 89 35 229l159 598q20 74 67.5 116t109.5 42q80 0 116.5 -55t10.5 -150l-156 -579q-23 -94 -23 -156q0 -108 65.5 -173t184.5 -65q141 0 234 90q93 93 139 267l178 663
q20 74 67 116t109 42q80 0 116.5 -55t10.5 -150zM1292 1800l78 -151q27 -49 27 -66q0 -24 -19.5 -36.5t-50.5 -12.5q-43 0 -66.5 3t-54.5 18.5t-59 46.5l-74 79l-117 -79q-54 -37 -98 -52.5t-96 -15.5q-30 0 -48 12t-18 35q0 31 35 66l168 161q70 70 160 70h90
q103 0 143 -78z" />
    <glyph glyph-name="Udieresis" unicode="&#xdc;" horiz-adv-x="1564" 
d="M1589 1241l-178 -661q-74 -279 -221 -426q-177 -177 -488 -177q-250 0 -393 128t-143 356q0 89 35 229l159 598q20 74 67.5 116t109.5 42q80 0 116.5 -55t10.5 -150l-156 -579q-23 -94 -23 -156q0 -108 65.5 -173t184.5 -65q141 0 234 90q93 93 139 267l178 663
q20 74 67 116t109 42q80 0 116.5 -55t10.5 -150zM1014 1681q-13 -68 -65 -107.5t-122 -39.5q-71 0 -110.5 41.5t-24.5 105.5l2 9q13 66 65.5 105.5t121.5 39.5q68 0 107.5 -42.5t27.5 -102.5zM1452 1681q-13 -68 -64.5 -107.5t-121.5 -39.5q-71 0 -111 41.5t-25 105.5l3 9
q13 66 65 105.5t121 39.5q68 0 107.5 -42.5t27.5 -102.5z" />
    <glyph glyph-name="Yacute" unicode="&#xdd;" horiz-adv-x="1331" 
d="M803 524l-103 -379q-20 -74 -67 -115.5t-109 -41.5q-80 0 -116.5 55t-10.5 150l97 360l-258 625q-31 78 -31 118q0 64 48 107t122 43q58 0 94 -30.5t59 -92.5l183 -492l479 527q84 90 170 90q61 0 96 -34.5t35 -94.5q0 -68 -53 -125zM1272 1720l-160 -118
q-91 -68 -182 -68q-39 0 -62.5 15t-23.5 42q0 29 26 58l156 172q32 34 57 50.5t60 16.5q60 0 117 -31t57 -69q0 -34 -45 -68z" />
    <glyph glyph-name="Thorn" unicode="&#xde;" horiz-adv-x="1411" 
d="M475 502h215q159 0 254.5 68t95.5 188q0 72 -47 119q-63 63 -196 63h-205zM809 1225q156 0 265 -34.5t186 -111.5q110 -110 110 -295q0 -173 -93 -301.5t-249.5 -193t-353.5 -64.5h-273l-22 -80q-20 -74 -67 -115.5t-109 -41.5q-80 0 -116.5 55t-10.5 150l295 1095
q20 74 67 116t109 42q80 0 116.5 -55t10.5 -150l-4 -16h139z" />
    <glyph glyph-name="germandbls" unicode="&#xdf;" horiz-adv-x="1294" 
d="M756 850q215 72 215 242q0 73 -46.5 114t-115.5 41q-175 0 -236 -233l-229 -869q-20 -75 -66 -116t-108 -41q-80 0 -115.5 55t-9.5 150l225 837q59 218 179 338q141 141 370 141q207 0 326 -109t119 -278q0 -145 -83.5 -244.5t-232.5 -146.5q213 -91 213 -285
q0 -193 -149 -322.5t-389 -129.5q-69 0 -103.5 33.5t-34.5 91.5q0 47 29.5 80t79.5 37q274 23 274 219q0 98 -116 147q-52 22 -76.5 46.5t-24.5 72.5q0 94 105 129z" />
    <glyph glyph-name="agrave" unicode="&#xe0;" horiz-adv-x="1204" 
d="M795 -12q-142 0 -133 139q-138 -147 -328 -147q-142 0 -231 82.5t-89 211.5q0 185 133.5 290.5t339.5 105.5q155 0 310 -49l4 14q12 50 12 82q0 129 -207 129q-95 0 -190 -25q-36 -8 -51 -8q-53 0 -88 35.5t-35 89.5q0 44 26.5 76t67.5 45q158 51 336 51
q219 0 331.5 -87.5t112.5 -250.5q0 -72 -24 -166l-123 -461q-20 -75 -66 -116t-108 -41zM467 193q94 0 171.5 64.5t104.5 156.5l9 28q-103 39 -205 39q-98 0 -160.5 -47t-62.5 -125q0 -52 39 -84t104 -32zM602 1274l-94 119q-29 42 -29 65q0 37 56.5 70t115.5 33
q82 0 109 -76l61 -168q8 -24 8 -43q0 -31 -26.5 -49.5t-71.5 -18.5t-71 13.5t-58 54.5z" />
    <glyph glyph-name="aacute" unicode="&#xe1;" horiz-adv-x="1204" 
d="M795 -12q-142 0 -133 139q-138 -147 -328 -147q-142 0 -231 82.5t-89 211.5q0 185 133.5 290.5t339.5 105.5q155 0 310 -49l4 14q12 50 12 82q0 129 -207 129q-95 0 -190 -25q-36 -8 -51 -8q-53 0 -88 35.5t-35 89.5q0 44 26.5 76t67.5 45q158 51 336 51
q219 0 331.5 -87.5t112.5 -250.5q0 -72 -24 -166l-123 -461q-20 -75 -66 -116t-108 -41zM1135 1393l-160 -119q-91 -68 -182 -68q-39 0 -62.5 15.5t-23.5 42.5q0 28 26 57l156 172q22 23 35.5 35t35.5 22.5t46 10.5q60 0 117 -31.5t57 -69.5q0 -33 -45 -67zM467 193
q94 0 171.5 64.5t104.5 156.5l9 28q-103 39 -205 39q-98 0 -160.5 -47t-62.5 -125q0 -52 39 -84t104 -32z" />
    <glyph glyph-name="acircumflex" unicode="&#xe2;" horiz-adv-x="1204" 
d="M795 -12q-142 0 -133 139q-138 -147 -328 -147q-142 0 -231 82.5t-89 211.5q0 185 133.5 290.5t339.5 105.5q155 0 310 -49l4 14q12 50 12 82q0 129 -207 129q-95 0 -190 -25q-36 -8 -51 -8q-53 0 -88 35.5t-35 89.5q0 44 26.5 76t67.5 45q158 51 336 51
q219 0 331.5 -87.5t112.5 -250.5q0 -72 -24 -166l-123 -461q-20 -75 -66 -116t-108 -41zM1022 1473l78 -152q26 -47 26 -66q0 -24 -19 -36.5t-50 -12.5q-43 0 -66.5 3t-54.5 18.5t-59 46.5l-74 80l-117 -80q-54 -37 -98 -52.5t-96 -15.5q-30 0 -48 12t-18 35q0 31 35 66
l168 162q69 69 159 69h91q104 0 143 -77zM467 193q94 0 171.5 64.5t104.5 156.5l9 28q-103 39 -205 39q-98 0 -160.5 -47t-62.5 -125q0 -52 39 -84t104 -32z" />
    <glyph glyph-name="atilde" unicode="&#xe3;" horiz-adv-x="1204" 
d="M795 -12q-142 0 -133 139q-138 -147 -328 -147q-142 0 -231 82.5t-89 211.5q0 185 133.5 290.5t339.5 105.5q155 0 310 -49l4 14q12 50 12 82q0 129 -207 129q-95 0 -190 -25q-36 -8 -51 -8q-53 0 -88 35.5t-35 89.5q0 44 26.5 76t67.5 45q158 51 336 51
q219 0 331.5 -87.5t112.5 -250.5q0 -72 -24 -166l-123 -461q-20 -75 -66 -116t-108 -41zM463 1212q-37 0 -61.5 23.5t-24.5 58.5q0 31 16 60q52 93 124.5 149t154.5 56q50 0 85.5 -15t76.5 -45q43 -31 64 -42t44 -11q58 0 111 65q21 25 41 36.5t51 11.5q37 0 61.5 -23.5
t24.5 -58.5q0 -29 -17 -60q-53 -93 -124.5 -149t-153.5 -56q-49 0 -84 14.5t-78 45.5t-64 42t-44 11q-58 0 -111 -65q-21 -25 -41 -36.5t-51 -11.5zM467 193q94 0 171.5 64.5t104.5 156.5l9 28q-103 39 -205 39q-98 0 -160.5 -47t-62.5 -125q0 -52 39 -84t104 -32z" />
    <glyph glyph-name="adieresis" unicode="&#xe4;" horiz-adv-x="1204" 
d="M795 -12q-142 0 -133 139q-138 -147 -328 -147q-142 0 -231 82.5t-89 211.5q0 185 133.5 290.5t339.5 105.5q155 0 310 -49l4 14q12 50 12 82q0 129 -207 129q-95 0 -190 -25q-36 -8 -51 -8q-53 0 -88 35.5t-35 89.5q0 44 26.5 76t67.5 45q158 51 336 51
q219 0 331.5 -87.5t112.5 -250.5q0 -72 -24 -166l-123 -461q-20 -75 -66 -116t-108 -41zM467 193q94 0 171.5 64.5t104.5 156.5l9 28q-103 39 -205 39q-98 0 -160.5 -47t-62.5 -125q0 -52 39 -84t104 -32zM743 1354q-13 -68 -64.5 -108t-121.5 -40q-71 0 -110.5 42
t-24.5 106l2 8q13 66 65 105.5t121 39.5q68 0 107.5 -42.5t27.5 -102.5zM1182 1354q-13 -68 -65 -108t-122 -40q-71 0 -110.5 42t-24.5 106l2 8q13 66 65.5 105.5t121.5 39.5q68 0 107.5 -42.5t27.5 -102.5z" />
    <glyph glyph-name="aring" unicode="&#xe5;" horiz-adv-x="1204" 
d="M795 -12q-142 0 -133 139q-138 -147 -328 -147q-142 0 -231 82.5t-89 211.5q0 185 133.5 290.5t339.5 105.5q155 0 310 -49l4 14q12 50 12 82q0 129 -207 129q-95 0 -190 -25q-36 -8 -51 -8q-53 0 -88 35.5t-35 89.5q0 44 26.5 76t67.5 45q158 51 336 51
q219 0 331.5 -87.5t112.5 -250.5q0 -72 -24 -166l-123 -461q-20 -75 -66 -116t-108 -41zM807 1214q-102 0 -163.5 60.5t-61.5 152.5q0 112 80 193.5t194 81.5q102 0 163.5 -60.5t61.5 -152.5q0 -112 -80 -193.5t-194 -81.5zM467 193q94 0 171.5 64.5t104.5 156.5l9 28
q-103 39 -205 39q-98 0 -160.5 -47t-62.5 -125q0 -52 39 -84t104 -32zM811 1327q61 0 100 48.5t39 111.5q0 44 -26.5 73t-71.5 29q-61 0 -100 -48t-39 -111q0 -44 26.5 -73.5t71.5 -29.5z" />
    <glyph glyph-name="ae" unicode="&#xe6;" horiz-adv-x="1925" 
d="M1866 690q0 -52 -13 -112q-31 -138 -149 -138h-645q8 -101 69.5 -158t180.5 -57q93 0 170 43q56 29 94 29q50 0 83.5 -33.5t33.5 -85.5q0 -65 -60 -104q-151 -99 -356 -99q-142 0 -249.5 53.5t-168.5 157.5q-200 -206 -491 -206q-166 0 -258.5 80t-92.5 214
q0 185 133.5 290.5t339.5 105.5q155 0 310 -49l4 14q12 50 12 82q0 129 -207 129q-95 0 -190 -25q-36 -8 -51 -8q-53 0 -88 35.5t-35 89.5q0 44 26.5 76t67.5 45q158 51 336 51q268 0 360 -162q170 170 395 170q201 0 320 -120.5t119 -307.5zM547 481q-98 0 -160.5 -47
t-62.5 -125q0 -53 42 -84.5t121 -31.5q75 0 163 37t153 102q-9 43 -12 94q-124 55 -244 55zM1085 635h478q10 33 10 72q0 72 -44.5 116.5t-135.5 44.5q-104 0 -186.5 -63.5t-121.5 -169.5z" />
    <glyph glyph-name="ccedilla" unicode="&#xe7;" horiz-adv-x="1146" 
d="M967 104q-155 -126 -361 -129l-168 -251q-43 -66 -106 -66q-45 0 -92 33t-47 71q0 33 30 66l174 180q-145 53 -228 174t-83 289q0 175 88 324.5t237 236t322 86.5q229 0 371 -137q57 -53 57 -121q0 -60 -43 -102.5t-106 -42.5q-64 0 -103 45q-76 92 -200 92t-220 -115
t-96 -266q0 -104 61 -167.5t154 -63.5q100 0 189 61q55 35 92 35q54 0 89.5 -37.5t35.5 -91.5q0 -62 -47 -103z" />
    <glyph glyph-name="egrave" unicode="&#xe8;" horiz-adv-x="1243" 
d="M627 225q93 0 170 43q56 29 94 29q50 0 83.5 -33.5t33.5 -85.5q0 -65 -60 -104q-151 -99 -356 -99q-236 0 -372 130.5t-136 357.5q0 95 29.5 189.5t87 178t135 148t181.5 102t218 37.5q209 0 329 -120t120 -308q0 -52 -13 -112q-31 -138 -149 -138h-645q8 -101 69.5 -158
t180.5 -57zM403 635h478q10 33 10 72q0 72 -44.5 116.5t-135.5 44.5q-104 0 -186.5 -63.5t-121.5 -169.5zM629 1274l-94 119q-29 42 -29 65q0 37 56.5 70t115.5 33q81 0 108 -76l62 -168q8 -24 8 -43q0 -31 -26.5 -49.5t-71.5 -18.5t-71 13.5t-58 54.5z" />
    <glyph glyph-name="eacute" unicode="&#xe9;" horiz-adv-x="1243" 
d="M627 225q93 0 170 43q56 29 94 29q50 0 83.5 -33.5t33.5 -85.5q0 -65 -60 -104q-151 -99 -356 -99q-236 0 -372 130.5t-136 357.5q0 95 29.5 189.5t87 178t135 148t181.5 102t218 37.5q209 0 329 -120t120 -308q0 -52 -13 -112q-31 -138 -149 -138h-645q8 -101 69.5 -158
t180.5 -57zM1161 1393l-160 -119q-91 -68 -182 -68q-39 0 -62.5 15.5t-23.5 42.5t27 57l155 172q22 23 35.5 35t35.5 22.5t46 10.5q60 0 117 -31.5t57 -69.5q0 -33 -45 -67zM403 635h478q10 33 10 72q0 72 -44.5 116.5t-135.5 44.5q-104 0 -186.5 -63.5t-121.5 -169.5z" />
    <glyph glyph-name="ecircumflex" unicode="&#xea;" horiz-adv-x="1243" 
d="M627 225q93 0 170 43q56 29 94 29q50 0 83.5 -33.5t33.5 -85.5q0 -65 -60 -104q-151 -99 -356 -99q-236 0 -372 130.5t-136 357.5q0 95 29.5 189.5t87 178t135 148t181.5 102t218 37.5q209 0 329 -120t120 -308q0 -52 -13 -112q-31 -138 -149 -138h-645q8 -101 69.5 -158
t180.5 -57zM1051 1473l77 -152q27 -49 27 -66q0 -24 -19.5 -36.5t-50.5 -12.5q-43 0 -66.5 3t-54.5 18.5t-59 46.5l-74 80l-116 -80q-54 -37 -98.5 -52.5t-96.5 -15.5q-65 0 -65 47q0 32 34 66l168 162q69 69 160 69h90q105 0 144 -77zM403 635h478q10 33 10 72
q0 72 -44.5 116.5t-135.5 44.5q-104 0 -186.5 -63.5t-121.5 -169.5z" />
    <glyph glyph-name="edieresis" unicode="&#xeb;" horiz-adv-x="1243" 
d="M627 225q93 0 170 43q56 29 94 29q50 0 83.5 -33.5t33.5 -85.5q0 -65 -60 -104q-151 -99 -356 -99q-236 0 -372 130.5t-136 357.5q0 95 29.5 189.5t87 178t135 148t181.5 102t218 37.5q209 0 329 -120t120 -308q0 -52 -13 -112q-31 -138 -149 -138h-645q8 -101 69.5 -158
t180.5 -57zM403 635h478q10 33 10 72q0 72 -44.5 116.5t-135.5 44.5q-104 0 -186.5 -63.5t-121.5 -169.5zM772 1354q-13 -68 -64.5 -108t-121.5 -40q-71 0 -110.5 42t-24.5 106l2 8q13 66 65 105.5t121 39.5q68 0 107.5 -42.5t27.5 -102.5zM1210 1354q-13 -68 -64.5 -108
t-121.5 -40q-71 0 -110.5 42t-24.5 106l2 8q13 66 65 105.5t121 39.5q68 0 107.5 -42.5t27.5 -102.5z" />
    <glyph glyph-name="igrave" unicode="&#xec;" horiz-adv-x="618" 
d="M561 905l-205 -760q-20 -75 -66 -116t-108 -41q-80 0 -115.5 55t-9.5 150l205 759q20 75 66 116.5t108 41.5q80 0 115.5 -55t9.5 -150zM324 1274l-95 119q-28 40 -28 65q0 37 56.5 70t115.5 33q81 0 108 -76l62 -168q8 -24 8 -43q0 -31 -26.5 -49.5t-71.5 -18.5t-71 13.5
t-58 54.5z" />
    <glyph glyph-name="iacute" unicode="&#xed;" horiz-adv-x="618" 
d="M561 905l-205 -760q-20 -75 -66 -116t-108 -41q-80 0 -115.5 55t-9.5 150l205 759q20 75 66 116.5t108 41.5q80 0 115.5 -55t9.5 -150zM856 1393l-160 -119q-91 -68 -182 -68q-39 0 -62.5 15.5t-23.5 42.5t27 57l155 172q22 23 35.5 35t35.5 22.5t46 10.5q60 0 117 -31.5
t57 -69.5q0 -33 -45 -67z" />
    <glyph glyph-name="icircumflex" unicode="&#xee;" horiz-adv-x="618" 
d="M561 905l-205 -760q-20 -75 -66 -116t-108 -41q-80 0 -115.5 55t-9.5 150l205 759q20 75 66 116.5t108 41.5q80 0 115.5 -55t9.5 -150zM745 1473l78 -152q27 -49 27 -66q0 -24 -19.5 -36.5t-50.5 -12.5q-43 0 -66.5 3t-54.5 18.5t-59 46.5l-74 80l-116 -80
q-54 -37 -98.5 -52.5t-96.5 -15.5q-65 0 -65 47q0 32 34 66l168 162q69 69 160 69h90q104 0 143 -77z" />
    <glyph glyph-name="idieresis" unicode="&#xef;" horiz-adv-x="618" 
d="M561 905l-205 -760q-20 -75 -66 -116t-108 -41q-80 0 -115.5 55t-9.5 150l205 759q20 75 66 116.5t108 41.5q80 0 115.5 -55t9.5 -150zM469 1354q-13 -68 -64.5 -108t-121.5 -40q-71 0 -111 42t-25 106l3 8q13 66 65 105.5t121 39.5q68 0 107.5 -42.5t27.5 -102.5z
M907 1354q-13 -68 -64.5 -108t-121.5 -40q-71 0 -110.5 42t-24.5 106l2 8q13 66 65 105.5t121 39.5q68 0 107.5 -42.5t27.5 -102.5z" />
    <glyph glyph-name="eth" unicode="&#xf0;" horiz-adv-x="1306" 
d="M520 1255l195 72q-6 21 -6 53q0 58 38 95.5t97 37.5q96 0 127 -71l8 -19l203 74q20 8 47 8q34 0 57 -22t23 -58q0 -62 -72 -88l-190 -69l77 -176q90 -206 90 -420q0 -194 -73 -351t-217.5 -251.5t-337.5 -94.5q-226 0 -367 133t-141 349q0 147 72.5 271t196 195.5
t267.5 71.5q180 0 310 -121l-138 297l-211 -75q-23 -9 -47 -9q-34 0 -56.5 22t-22.5 58q0 29 18.5 52.5t52.5 35.5zM604 238q127 0 211 92t84 211q0 104 -63.5 168.5t-167.5 64.5q-124 0 -208.5 -88.5t-84.5 -210.5q0 -110 64 -173.5t165 -63.5z" />
    <glyph glyph-name="ntilde" unicode="&#xf1;" horiz-adv-x="1267" 
d="M428 1110q65 0 102 -36t37 -91q150 135 299 135t236.5 -85.5t87.5 -233.5q0 -65 -37 -209l-119 -445q-20 -75 -66 -116t-108 -41q-80 0 -115.5 55t-9.5 150l111 409q14 54 14 98q0 66 -39.5 101t-111.5 35q-89 0 -150 -59t-88 -161l-127 -471q-20 -75 -66 -116t-108 -41
q-80 0 -115.5 55t-9.5 150l203 759q20 75 67 116.5t113 41.5zM494 1212q-37 0 -61.5 23.5t-24.5 58.5q0 31 16 60q53 93 124.5 149t153.5 56q50 0 85.5 -15t76.5 -45q42 -31 63.5 -42t45.5 -11q57 0 110 65q41 48 93 48q37 0 61.5 -23.5t24.5 -58.5q0 -29 -17 -60
q-53 -93 -124.5 -149t-153.5 -56q-49 0 -84 14.5t-78 45.5q-42 31 -63.5 42t-45.5 11q-57 0 -110 -65q-21 -25 -41 -36.5t-51 -11.5z" />
    <glyph glyph-name="ograve" unicode="&#xf2;" horiz-adv-x="1335" 
d="M614 -25q-241 0 -384.5 142.5t-143.5 365.5q0 121 50.5 237t134.5 203.5t202.5 141t247.5 53.5q241 0 384.5 -142.5t143.5 -365.5q0 -121 -50.5 -237t-134.5 -203.5t-202.5 -141t-247.5 -53.5zM629 242q90 0 164.5 58t112.5 140t38 162q0 118 -64.5 184t-172.5 66
q-68 0 -129 -34t-101 -87.5t-63 -116.5t-23 -122q0 -118 65 -184t173 -66zM674 1274l-94 119q-29 42 -29 65q0 37 56.5 70t115.5 33q81 0 108 -76l62 -168q8 -24 8 -43q0 -31 -26.5 -49.5t-71.5 -18.5t-71 13.5t-58 54.5z" />
    <glyph glyph-name="oacute" unicode="&#xf3;" horiz-adv-x="1335" 
d="M614 -25q-241 0 -384.5 142.5t-143.5 365.5q0 121 50.5 237t134.5 203.5t202.5 141t247.5 53.5q241 0 384.5 -142.5t143.5 -365.5q0 -121 -50.5 -237t-134.5 -203.5t-202.5 -141t-247.5 -53.5zM629 242q90 0 164.5 58t112.5 140t38 162q0 118 -64.5 184t-172.5 66
q-68 0 -129 -34t-101 -87.5t-63 -116.5t-23 -122q0 -118 65 -184t173 -66zM1206 1393l-159 -119q-91 -68 -183 -68q-39 0 -62.5 15.5t-23.5 42.5t27 57l156 172q22 24 35 35.5t35 22t46 10.5q60 0 117 -31.5t57 -69.5q0 -33 -45 -67z" />
    <glyph glyph-name="ocircumflex" unicode="&#xf4;" horiz-adv-x="1335" 
d="M614 -25q-241 0 -384.5 142.5t-143.5 365.5q0 121 50.5 237t134.5 203.5t202.5 141t247.5 53.5q241 0 384.5 -142.5t143.5 -365.5q0 -121 -50.5 -237t-134.5 -203.5t-202.5 -141t-247.5 -53.5zM629 242q90 0 164.5 58t112.5 140t38 162q0 118 -64.5 184t-172.5 66
q-68 0 -129 -34t-101 -87.5t-63 -116.5t-23 -122q0 -118 65 -184t173 -66zM1096 1473l78 -152q26 -47 26 -66q0 -24 -19.5 -36.5t-50.5 -12.5q-43 0 -66.5 3t-54.5 18.5t-59 46.5l-73 80l-117 -80q-54 -37 -98.5 -52.5t-96.5 -15.5q-65 0 -65 47q0 31 35 66l167 162
q69 69 160 69h90q105 0 144 -77z" />
    <glyph glyph-name="otilde" unicode="&#xf5;" horiz-adv-x="1335" 
d="M614 -25q-241 0 -384.5 142.5t-143.5 365.5q0 121 50.5 237t134.5 203.5t202.5 141t247.5 53.5q241 0 384.5 -142.5t143.5 -365.5q0 -121 -50.5 -237t-134.5 -203.5t-202.5 -141t-247.5 -53.5zM629 242q90 0 164.5 58t112.5 140t38 162q0 118 -64.5 184t-172.5 66
q-68 0 -129 -34t-101 -87.5t-63 -116.5t-23 -122q0 -118 65 -184t173 -66zM537 1212q-37 0 -61.5 23.5t-24.5 58.5q0 31 16 60q53 93 124.5 149t153.5 56q50 0 85.5 -15t76.5 -45q42 -31 63.5 -42t45.5 -11q57 0 110 65q41 48 93 48q37 0 61.5 -23.5t24.5 -58.5
q0 -29 -17 -60q-53 -93 -124.5 -149t-153.5 -56q-49 0 -84 14.5t-78 45.5q-42 31 -63.5 42t-45.5 11q-57 0 -110 -65q-21 -25 -41 -36.5t-51 -11.5z" />
    <glyph glyph-name="odieresis" unicode="&#xf6;" horiz-adv-x="1335" 
d="M614 -25q-241 0 -384.5 142.5t-143.5 365.5q0 121 50.5 237t134.5 203.5t202.5 141t247.5 53.5q241 0 384.5 -142.5t143.5 -365.5q0 -121 -50.5 -237t-134.5 -203.5t-202.5 -141t-247.5 -53.5zM629 242q90 0 164.5 58t112.5 140t38 162q0 118 -64.5 184t-172.5 66
q-68 0 -129 -34t-101 -87.5t-63 -116.5t-23 -122q0 -118 65 -184t173 -66zM817 1354q-13 -68 -64.5 -108t-121.5 -40q-71 0 -110.5 42t-24.5 106l2 8q13 66 65 105.5t121 39.5q68 0 107.5 -42.5t27.5 -102.5zM1255 1354q-13 -68 -64.5 -108t-121.5 -40q-71 0 -110.5 42
t-24.5 106l2 8q13 66 65 105.5t121 39.5q68 0 107.5 -42.5t27.5 -102.5z" />
    <glyph glyph-name="divide" unicode="&#xf7;" horiz-adv-x="1310" 
d="M301 590h795q54 0 92.5 38.5t38.5 92.5t-38.5 92.5t-92.5 38.5h-795q-54 0 -92.5 -38.5t-38.5 -92.5t38.5 -92.5t92.5 -38.5zM754 303q0 -73 -58 -127.5t-135 -54.5q-63 0 -105 38.5t-42 98.5q0 73 57.5 127.5t134.5 54.5q63 0 105.5 -38.5t42.5 -98.5zM987 1184
q0 -73 -57.5 -128t-134.5 -55q-63 0 -105.5 39t-42.5 99q0 73 58 127.5t135 54.5q63 0 105 -38.5t42 -98.5z" />
    <glyph glyph-name="oslash" unicode="&#xf8;" horiz-adv-x="1335" 
d="M629 231q91 0 167.5 58t117 143t40.5 170q0 42 -10 90l-450 -432q60 -29 135 -29zM381 492q0 -41 6 -78l442 424q-49 24 -122 24q-90 0 -167 -58.5t-118 -143t-41 -168.5zM291 66l-47 -46q-49 -43 -97 -43q-41 0 -66.5 24t-25.5 60q0 48 49 93l56 51q-74 118 -74 278
q0 121 50.5 237t134.5 203.5t202.5 141t247.5 53.5q179 0 309 -84l45 43q49 43 96 43q41 0 67 -24t26 -60q0 -46 -50 -92l-47 -43q82 -127 82 -291q0 -121 -50.5 -237t-134.5 -203.5t-202.5 -141t-247.5 -53.5q-186 0 -323 91z" />
    <glyph glyph-name="ugrave" unicode="&#xf9;" horiz-adv-x="1273" 
d="M846 -12q-65 0 -102 36t-37 91q-150 -135 -299 -135t-236.5 85.5t-87.5 233.5q0 65 37 209l119 444q20 75 66 116.5t108 41.5q80 0 115.5 -55t9.5 -150l-111 -409q-14 -54 -14 -99q0 -66 39.5 -100.5t111.5 -34.5q89 0 150 58.5t88 160.5l127 471q20 75 66 116.5
t108 41.5q80 0 115.5 -55t9.5 -150l-203 -760q-20 -75 -67 -116t-113 -41zM645 1274l-94 119q-29 42 -29 65q0 37 56.5 70t115.5 33q82 0 109 -76l61 -168q8 -24 8 -43q0 -31 -26.5 -49.5t-71.5 -18.5t-71 13.5t-58 54.5z" />
    <glyph glyph-name="uacute" unicode="&#xfa;" horiz-adv-x="1273" 
d="M846 -12q-65 0 -102 36t-37 91q-150 -135 -299 -135t-236.5 85.5t-87.5 233.5q0 65 37 209l119 444q20 75 66 116.5t108 41.5q80 0 115.5 -55t9.5 -150l-111 -409q-14 -54 -14 -99q0 -66 39.5 -100.5t111.5 -34.5q89 0 150 58.5t88 160.5l127 471q20 75 66 116.5
t108 41.5q80 0 115.5 -55t9.5 -150l-203 -760q-20 -75 -67 -116t-113 -41zM1178 1393l-160 -119q-91 -68 -182 -68q-39 0 -62.5 15.5t-23.5 42.5q0 28 26 57l156 172q22 23 35.5 35t35.5 22.5t46 10.5q60 0 117 -31.5t57 -69.5q0 -33 -45 -67z" />
    <glyph glyph-name="ucircumflex" unicode="&#xfb;" horiz-adv-x="1273" 
d="M846 -12q-65 0 -102 36t-37 91q-150 -135 -299 -135t-236.5 85.5t-87.5 233.5q0 65 37 209l119 444q20 75 66 116.5t108 41.5q80 0 115.5 -55t9.5 -150l-111 -409q-14 -54 -14 -99q0 -66 39.5 -100.5t111.5 -34.5q89 0 150 58.5t88 160.5l127 471q20 75 66 116.5
t108 41.5q80 0 115.5 -55t9.5 -150l-203 -760q-20 -75 -67 -116t-113 -41zM1065 1473l78 -152q26 -47 26 -66q0 -24 -19 -36.5t-50 -12.5q-43 0 -66.5 3t-54.5 18.5t-59 46.5l-74 80l-117 -80q-54 -37 -98 -52.5t-96 -15.5q-30 0 -48 12t-18 35q0 31 35 66l168 162
q69 69 159 69h91q104 0 143 -77z" />
    <glyph glyph-name="udieresis" unicode="&#xfc;" horiz-adv-x="1273" 
d="M846 -12q-65 0 -102 36t-37 91q-150 -135 -299 -135t-236.5 85.5t-87.5 233.5q0 65 37 209l119 444q20 75 66 116.5t108 41.5q80 0 115.5 -55t9.5 -150l-111 -409q-14 -54 -14 -99q0 -66 39.5 -100.5t111.5 -34.5q89 0 150 58.5t88 160.5l127 471q20 75 66 116.5
t108 41.5q80 0 115.5 -55t9.5 -150l-203 -760q-20 -75 -67 -116t-113 -41zM1225 1354q-13 -68 -65 -108t-122 -40q-71 0 -110.5 42t-24.5 106l2 8q13 66 65.5 105.5t121.5 39.5q68 0 107.5 -42.5t27.5 -102.5zM786 1354q-13 -68 -64.5 -108t-121.5 -40q-71 0 -110.5 42
t-24.5 106l2 8q13 66 65 105.5t121 39.5q68 0 107.5 -42.5t27.5 -102.5z" />
    <glyph glyph-name="yacute" unicode="&#xfd;" horiz-adv-x="1212" 
d="M127 -55q66 -17 92 -17q57 0 107 66l-131 897q-7 40 -7 74q0 61 45.5 103t110.5 42q64 0 106.5 -36t45.5 -97l63 -633l385 668q55 98 158 98q61 0 98 -32.5t37 -88.5q0 -41 -41 -106l-569 -910q-105 -167 -207.5 -237t-237.5 -70q-95 0 -147 23q-94 40 -94 135
q0 56 37 95.5t85 39.5q10 0 64 -14zM1128 1393l-159 -119q-91 -68 -183 -68q-39 0 -62.5 15.5t-23.5 42.5t27 57l156 172q22 24 35 35.5t35 22t46 10.5q60 0 117.5 -31.5t57.5 -69.5q0 -32 -46 -67z" />
    <glyph glyph-name="thorn" unicode="&#xfe;" horiz-adv-x="1380" 
d="M649 242q129 0 227.5 111.5t98.5 273.5q0 106 -62.5 167.5t-167.5 61.5q-131 0 -231 -113t-100 -268q0 -104 66 -168.5t169 -64.5zM-43 -135l397 1485q20 75 66 116t108 41q80 0 115.5 -54.5t9.5 -149.5l-88 -324q75 70 148 104.5t161 34.5q185 0 303.5 -126.5
t118.5 -344.5q0 -142 -51.5 -268t-135.5 -212.5t-194 -136.5t-225 -50q-123 0 -204.5 46t-139.5 134l-90 -342q-20 -75 -66 -116.5t-108 -41.5q-80 0 -115.5 55t-9.5 150z" />
    <glyph glyph-name="ydieresis" unicode="&#xff;" horiz-adv-x="1212" 
d="M127 -55q66 -17 92 -17q57 0 107 66l-131 897q-7 40 -7 74q0 61 45.5 103t110.5 42q64 0 106.5 -36t45.5 -97l63 -633l385 668q55 98 158 98q61 0 98 -32.5t37 -88.5q0 -41 -41 -106l-569 -910q-105 -167 -207.5 -237t-237.5 -70q-95 0 -147 23q-94 40 -94 135
q0 56 37 95.5t85 39.5q10 0 64 -14zM739 1354q-13 -68 -64.5 -108t-121.5 -40q-71 0 -110.5 42t-24.5 106l2 8q13 66 65 105.5t121 39.5q68 0 107.5 -42.5t27.5 -102.5zM1178 1354q-13 -68 -65 -108t-122 -40q-71 0 -110.5 42t-24.5 106l2 8q13 66 65 105.5t121 39.5
q68 0 108 -42.5t28 -102.5z" />
    <glyph glyph-name="Amacron" unicode="&#x100;" horiz-adv-x="1566" 
d="M621 600h397l-74 473zM1208 1307l193 -1086q10 -72 10 -82q0 -62 -46.5 -106.5t-115.5 -44.5q-64 0 -104.5 34.5t-48.5 90.5l-33 209h-635l-164 -236q-69 -98 -160 -98q-61 0 -95 33.5t-34 89.5q0 55 37 104l797 1118q85 123 221 123h6q146 0 172 -149zM1374 1577h-545
q-44 0 -76 31t-32 75t32 76.5t76 32.5h545q44 0 76.5 -32.5t32.5 -76.5t-32 -75t-77 -31z" />
    <glyph glyph-name="amacron" unicode="&#x101;" horiz-adv-x="1204" 
d="M795 -12q-142 0 -133 139q-138 -147 -328 -147q-142 0 -231 82.5t-89 211.5q0 185 133.5 290.5t339.5 105.5q155 0 310 -49l4 14q12 50 12 82q0 129 -207 129q-95 0 -190 -25q-36 -8 -51 -8q-53 0 -88 35.5t-35 89.5q0 44 26.5 76t67.5 45q158 51 336 51
q219 0 331.5 -87.5t112.5 -250.5q0 -72 -24 -166l-123 -461q-20 -75 -66 -116t-108 -41zM1069 1229h-545q-44 0 -76 31t-32 75t32 76.5t76 32.5h545q44 0 76.5 -32.5t32.5 -76.5t-32 -75t-77 -31zM467 193q94 0 171.5 64.5t104.5 156.5l9 28q-103 39 -205 39
q-98 0 -160.5 -47t-62.5 -125q0 -52 39 -84t104 -32z" />
    <glyph glyph-name="Abreve" unicode="&#x102;" horiz-adv-x="1566" 
d="M621 600h397l-74 473zM1208 1307l193 -1086q10 -72 10 -82q0 -62 -46.5 -106.5t-115.5 -44.5q-64 0 -104.5 34.5t-48.5 90.5l-33 209h-635l-164 -236q-69 -98 -160 -98q-61 0 -95 33.5t-34 89.5q0 55 37 104l797 1118q85 123 221 123h6q146 0 172 -149zM1106 1563
q-146 0 -239 76t-93 167q0 41 31 68t76 27q70 0 98 -54q47 -82 149 -82q83 0 158 82q51 54 107 54q43 0 67.5 -24t24.5 -65q0 -37 -29 -73q-143 -176 -350 -176z" />
    <glyph glyph-name="abreve" unicode="&#x103;" horiz-adv-x="1204" 
d="M795 -12q-142 0 -133 139q-138 -147 -328 -147q-142 0 -231 82.5t-89 211.5q0 185 133.5 290.5t339.5 105.5q155 0 310 -49l4 14q12 50 12 82q0 129 -207 129q-95 0 -190 -25q-36 -8 -51 -8q-53 0 -88 35.5t-35 89.5q0 44 26.5 76t67.5 45q158 51 336 51
q219 0 331.5 -87.5t112.5 -250.5q0 -72 -24 -166l-123 -461q-20 -75 -66 -116t-108 -41zM803 1214q-146 0 -239 76.5t-93 167.5q0 41 31 67.5t76 26.5q71 0 98 -53q47 -82 149 -82q83 0 158 82q50 53 107 53q43 0 67.5 -23.5t24.5 -64.5q0 -37 -29 -73q-144 -177 -350 -177z
M467 193q94 0 171.5 64.5t104.5 156.5l9 28q-103 39 -205 39q-98 0 -160.5 -47t-62.5 -125q0 -52 39 -84t104 -32z" />
    <glyph glyph-name="Aogonek" unicode="&#x104;" horiz-adv-x="1566" 
d="M1219 -344q-101 0 -159.5 36t-58.5 101q0 97 150 223q-49 36 -55 97l-33 209h-635l-164 -236q-69 -98 -160 -98q-61 0 -95 33.5t-34 89.5q0 55 37 104l797 1118q85 123 221 123h6q146 0 172 -149l193 -1086q10 -72 10 -82q0 -62 -57 -119q-62 -64 -86.5 -97.5
t-24.5 -63.5q0 -22 14 -33t48 -21q36 -11 51 -26.5t14 -44.5q-3 -78 -151 -78zM621 600h397l-74 473z" />
    <glyph glyph-name="aogonek" unicode="&#x105;" horiz-adv-x="1204" 
d="M895 20q-60 -60 -85.5 -95.5t-25.5 -65.5q0 -22 14 -33t48 -21q36 -11 51 -26.5t14 -44.5q-3 -78 -151 -78q-101 0 -159 36t-58 101q0 101 151 225q-36 34 -32 109q-138 -147 -328 -147q-142 0 -231 82.5t-89 211.5q0 185 133.5 290.5t339.5 105.5q155 0 310 -49l4 14
q12 50 12 82q0 129 -207 129q-95 0 -190 -25q-36 -8 -51 -8q-53 0 -88 35.5t-35 89.5q0 44 26.5 76t67.5 45q158 51 336 51q219 0 331.5 -87.5t112.5 -250.5q0 -72 -24 -166l-123 -461q-17 -68 -74 -125zM467 193q94 0 171.5 64.5t104.5 156.5l9 28q-103 39 -205 39
q-98 0 -160.5 -47t-62.5 -125q0 -52 39 -84t104 -32z" />
    <glyph glyph-name="Cacute" unicode="&#x106;" horiz-adv-x="1486" 
d="M1280 129q-83 -70 -208 -112t-259 -42q-297 0 -486.5 171t-189.5 454q0 113 31.5 222.5t87.5 203.5t136.5 174.5t176 137t209 88.5t232.5 32q282 0 473 -176q65 -61 65 -133q0 -68 -47 -116t-115 -48q-70 0 -110 45q-64 69 -131.5 103t-173.5 34q-97 0 -189.5 -44.5
t-162 -118.5t-112 -177t-42.5 -215q0 -154 97.5 -250t252.5 -96q83 0 135.5 20t134.5 72q60 37 107 37q61 0 102 -43.5t41 -105.5q0 -69 -55 -117zM1446 1741l-160 -119q-91 -68 -182 -68q-39 0 -62.5 15.5t-23.5 42.5q0 28 26 57l156 172q22 23 35.5 35t35.5 22.5t46 10.5
q60 0 117 -31.5t57 -69.5q0 -33 -45 -67z" />
    <glyph glyph-name="cacute" unicode="&#x107;" horiz-adv-x="1146" 
d="M967 104q-160 -129 -369 -129q-226 0 -369 136.5t-143 359.5q0 175 88 324.5t237 236t322 86.5q229 0 371 -137q57 -53 57 -121q0 -60 -43 -102.5t-106 -42.5q-64 0 -103 45q-76 92 -200 92t-220 -115t-96 -266q0 -104 61 -167.5t154 -63.5q100 0 189 61q55 35 92 35
q54 0 89.5 -37.5t35.5 -91.5q0 -62 -47 -103zM1149 1393l-160 -119q-91 -68 -182 -68q-39 0 -62.5 15.5t-23.5 42.5t27 57l155 172q22 23 35.5 35t35.5 22.5t46 10.5q60 0 117 -31.5t57 -69.5q0 -33 -45 -67z" />
    <glyph glyph-name="Cdotaccent" unicode="&#x10a;" horiz-adv-x="1486" 
d="M1280 129q-83 -70 -208 -112t-259 -42q-297 0 -486.5 171t-189.5 454q0 113 31.5 222.5t87.5 203.5t136.5 174.5t176 137t209 88.5t232.5 32q282 0 473 -176q65 -61 65 -133q0 -68 -47 -116t-115 -48q-70 0 -110 45q-64 69 -131.5 103t-173.5 34q-97 0 -189.5 -44.5
t-162 -118.5t-112 -177t-42.5 -215q0 -154 97.5 -250t252.5 -96q83 0 135.5 20t134.5 72q60 37 107 37q61 0 102 -43.5t41 -105.5q0 -69 -55 -117zM1278 1702q-13 -68 -66.5 -108t-124.5 -40q-72 0 -113 42t-26 106l2 8q13 66 67.5 105.5t123.5 39.5q68 0 109.5 -42.5
t29.5 -102.5z" />
    <glyph glyph-name="cdotaccent" unicode="&#x10b;" horiz-adv-x="1146" 
d="M967 104q-160 -129 -369 -129q-226 0 -369 136.5t-143 359.5q0 175 88 324.5t237 236t322 86.5q229 0 371 -137q57 -53 57 -121q0 -60 -43 -102.5t-106 -42.5q-64 0 -103 45q-76 92 -200 92t-220 -115t-96 -266q0 -104 61 -167.5t154 -63.5q100 0 189 61q55 35 92 35
q54 0 89.5 -37.5t35.5 -91.5q0 -62 -47 -103zM983 1354q-13 -68 -66.5 -108t-123.5 -40q-72 0 -113.5 42.5t-26.5 105.5l2 8q13 66 67.5 105.5t123.5 39.5q68 0 109.5 -42.5t29.5 -102.5z" />
    <glyph glyph-name="Ccaron" unicode="&#x10c;" horiz-adv-x="1486" 
d="M1280 129q-83 -70 -208 -112t-259 -42q-297 0 -486.5 171t-189.5 454q0 113 31.5 222.5t87.5 203.5t136.5 174.5t176 137t209 88.5t232.5 32q282 0 473 -176q65 -61 65 -133q0 -68 -47 -116t-115 -48q-70 0 -110 45q-64 69 -131.5 103t-173.5 34q-97 0 -189.5 -44.5
t-162 -118.5t-112 -177t-42.5 -215q0 -154 97.5 -250t252.5 -96q83 0 135.5 20t134.5 72q60 37 107 37q61 0 102 -43.5t41 -105.5q0 -69 -55 -117zM905 1634l-78 152q-26 47 -26 65q0 24 19.5 37t49.5 13q32 0 50.5 -1.5t43 -7.5t45.5 -20.5t42 -38.5l73 -80l117 80
q54 37 98.5 52.5t96.5 15.5q30 0 47.5 -12.5t17.5 -35.5q0 -30 -35 -65l-168 -162q-70 -70 -159 -70h-90q-104 0 -144 78z" />
    <glyph glyph-name="ccaron" unicode="&#x10d;" horiz-adv-x="1146" 
d="M967 104q-160 -129 -369 -129q-226 0 -369 136.5t-143 359.5q0 175 88 324.5t237 236t322 86.5q229 0 371 -137q57 -53 57 -121q0 -60 -43 -102.5t-106 -42.5q-64 0 -103 45q-76 92 -200 92t-220 -115t-96 -266q0 -104 61 -167.5t154 -63.5q100 0 189 61q55 35 92 35
q54 0 89.5 -37.5t35.5 -91.5q0 -62 -47 -103zM610 1286l-78 152q-26 47 -26 65q0 24 19 36.5t50 12.5q44 0 67 -2.5t54.5 -18t59.5 -46.5l73 -80l117 80q98 67 195 67q65 0 65 -47q0 -30 -35 -65l-167 -162q-70 -70 -160 -70h-90q-104 0 -144 78z" />
    <glyph glyph-name="Dcaron" unicode="&#x10e;" horiz-adv-x="1591" 
d="M416 285h178q145 0 269.5 44.5t209.5 129.5q144 144 144 358q0 143 -84 227q-105 105 -330 105h-154zM543 1434h284q377 0 562 -185q155 -155 155 -420q0 -330 -235 -565q-264 -264 -752 -264h-350q-80 0 -116.5 55t-10.5 150l287 1071q20 74 67 116t109 42zM817 1614
l-78 151q-26 47 -26 66q0 24 19 36.5t50 12.5q32 0 50.5 -1.5t43 -7.5t45.5 -20.5t42 -38.5l73 -79l117 79q54 37 98.5 52.5t96.5 15.5q65 0 65 -47q0 -31 -35 -66l-168 -161q-70 -70 -159 -70h-90q-104 0 -144 78z" />
    <glyph glyph-name="dcaron" unicode="&#x10f;" horiz-adv-x="1380" 
d="M950 -12q-66 0 -101.5 35.5t-35.5 95.5q-75 -70 -148 -104.5t-161 -34.5q-185 0 -303.5 126.5t-118.5 344.5q0 142 51.5 268t135.5 212.5t194 136.5t225 50q123 0 204.5 -46t139.5 -134l109 412q20 75 66 116t108 41q80 0 115.5 -54.5t9.5 -149.5l-310 -1158
q-20 -75 -67 -116t-113 -41zM633 242q131 0 231.5 113t100.5 268q0 104 -66.5 168.5t-169.5 64.5q-129 0 -227.5 -111.5t-98.5 -273.5q0 -106 62.5 -167.5t167.5 -61.5zM1507 1133l72 268q11 44 44 70t81 26h47q59 0 59 -47q0 -26 -24 -72l-148 -266q-30 -55 -82 -55
q-25 0 -39 13t-14 34q0 13 4 29z" />
    <glyph glyph-name="Dcroat" unicode="&#x110;" horiz-adv-x="1632" 
d="M584 1434h284q377 0 562 -185q155 -155 155 -420q0 -330 -235 -565q-264 -264 -752 -264h-350q-80 0 -116.5 55t-10.5 150l100 377h-6q-59 0 -99 40t-40 99t40 99t99 40h82l111 416q20 74 67 116t109 42zM457 285h178q145 0 269.5 44.5t209.5 129.5q143 143 143 358
q0 144 -83 227q-105 105 -330 105h-154l-78 -289h125q59 0 99.5 -40.5t40.5 -98.5t-40.5 -98.5t-99.5 -40.5h-200z" />
    <glyph glyph-name="dcroat" unicode="&#x111;" horiz-adv-x="1380" 
d="M950 -12q-66 0 -101.5 35.5t-35.5 95.5q-75 -70 -148 -104.5t-161 -34.5q-185 0 -303.5 126.5t-118.5 344.5q0 142 51.5 268t135.5 212.5t194 136.5t225 50q123 0 204.5 -46t139.5 -134l74 279h-221q-35 0 -60.5 25.5t-25.5 60.5t25.5 60.5t60.5 25.5h268
q23 57 65.5 87.5t96.5 30.5q59 0 95 -31t40 -87h55q35 0 60.5 -25.5t25.5 -60.5t-25.5 -60.5t-60.5 -25.5h-88l-287 -1072q-20 -75 -67 -116t-113 -41zM633 242q131 0 231.5 113t100.5 268q0 104 -66.5 168.5t-169.5 64.5q-129 0 -227.5 -111.5t-98.5 -273.5
q0 -106 62.5 -167.5t167.5 -61.5z" />
    <glyph glyph-name="Emacron" unicode="&#x112;" horiz-adv-x="1361" 
d="M1014 0h-807q-80 0 -116.5 55t-10.5 150l287 1071q20 74 67 116t109 42h770q58 0 99.5 -41.5t41.5 -100.5q0 -58 -41 -98.5t-100 -40.5h-666l-78 -293h498q59 0 100 -40.5t41 -98.5t-41 -97.5t-100 -39.5h-573l-82 -303h602q58 0 99.5 -41.5t41.5 -100.5q0 -58 -41 -98.5
t-100 -40.5zM1278 1556h-545q-44 0 -76 31.5t-32 75.5t32 76.5t76 32.5h545q44 0 76 -32.5t32 -76.5t-32 -75.5t-76 -31.5z" />
    <glyph glyph-name="emacron" unicode="&#x113;" horiz-adv-x="1243" 
d="M627 225q93 0 170 43q56 29 94 29q50 0 83.5 -33.5t33.5 -85.5q0 -65 -60 -104q-151 -99 -356 -99q-236 0 -372 130.5t-136 357.5q0 95 29.5 189.5t87 178t135 148t181.5 102t218 37.5q209 0 329 -120t120 -308q0 -52 -13 -112q-31 -138 -149 -138h-645q8 -101 69.5 -158
t180.5 -57zM1098 1229h-545q-45 0 -77 31t-32 75t32.5 76.5t76.5 32.5h545q44 0 76 -32.5t32 -76.5t-32 -75t-76 -31zM403 635h478q10 33 10 72q0 72 -44.5 116.5t-135.5 44.5q-104 0 -186.5 -63.5t-121.5 -169.5z" />
    <glyph glyph-name="Ebreve" unicode="&#x114;" horiz-adv-x="1361" 
d="M1014 0h-807q-80 0 -116.5 55t-10.5 150l287 1071q20 74 67 116t109 42h770q58 0 99.5 -41.5t41.5 -100.5q0 -58 -41 -98.5t-100 -40.5h-666l-78 -293h498q59 0 100 -40.5t41 -98.5t-41 -97.5t-100 -39.5h-573l-82 -303h602q58 0 99.5 -41.5t41.5 -100.5q0 -58 -41 -98.5
t-100 -40.5zM1010 1542q-146 0 -239 76.5t-93 167.5q0 41 30.5 67.5t75.5 26.5q72 0 99 -53q47 -82 149 -82q83 0 158 82q25 27 48.5 40t57.5 13q43 0 68 -23.5t25 -64.5q0 -38 -29 -74q-143 -176 -350 -176z" />
    <glyph glyph-name="ebreve" unicode="&#x115;" horiz-adv-x="1243" 
d="M627 225q93 0 170 43q56 29 94 29q50 0 83.5 -33.5t33.5 -85.5q0 -65 -60 -104q-151 -99 -356 -99q-236 0 -372 130.5t-136 357.5q0 95 29.5 189.5t87 178t135 148t181.5 102t218 37.5q209 0 329 -120t120 -308q0 -52 -13 -112q-31 -138 -149 -138h-645q8 -101 69.5 -158
t180.5 -57zM831 1214q-146 0 -238.5 76.5t-92.5 167.5q0 41 30.5 67.5t75.5 26.5q72 0 99 -53q47 -82 149 -82q83 0 158 82q25 27 48.5 40t57.5 13q43 0 67.5 -23.5t24.5 -64.5q0 -38 -28 -73q-62 -76 -150 -126.5t-201 -50.5zM403 635h478q10 33 10 72q0 72 -44.5 116.5
t-135.5 44.5q-104 0 -186.5 -63.5t-121.5 -169.5z" />
    <glyph glyph-name="Edotaccent" unicode="&#x116;" horiz-adv-x="1361" 
d="M1014 0h-807q-80 0 -116.5 55t-10.5 150l287 1071q20 74 67 116t109 42h770q58 0 99.5 -41.5t41.5 -100.5q0 -58 -41 -98.5t-100 -40.5h-666l-78 -293h498q59 0 100 -40.5t41 -98.5t-41 -97.5t-100 -39.5h-573l-82 -303h602q58 0 99.5 -41.5t41.5 -100.5q0 -58 -41 -98.5
t-100 -40.5zM1174 1681q-13 -67 -66.5 -107t-124.5 -40q-72 0 -113 42t-26 105l2 9q13 66 67 105.5t123 39.5q68 0 110 -42.5t30 -102.5z" />
    <glyph glyph-name="edotaccent" unicode="&#x117;" horiz-adv-x="1243" 
d="M627 225q93 0 170 43q56 29 94 29q50 0 83.5 -33.5t33.5 -85.5q0 -65 -60 -104q-151 -99 -356 -99q-236 0 -372 130.5t-136 357.5q0 95 29.5 189.5t87 178t135 148t181.5 102t218 37.5q209 0 329 -120t120 -308q0 -52 -13 -112q-31 -138 -149 -138h-645q8 -101 69.5 -158
t180.5 -57zM403 635h478q10 33 10 72q0 72 -44.5 116.5t-135.5 44.5q-104 0 -186.5 -63.5t-121.5 -169.5zM995 1354q-13 -68 -66.5 -108t-123.5 -40q-72 0 -113 42t-26 106l2 8q13 66 67 105.5t123 39.5q68 0 109.5 -42.5t29.5 -102.5z" />
    <glyph glyph-name="Eogonek" unicode="&#x118;" horiz-adv-x="1361" 
d="M1077 6q-66 -60 -87 -89t-21 -58q0 -22 14 -33t47 -21q36 -11 51.5 -26.5t14.5 -44.5q-3 -78 -152 -78q-101 0 -159 36t-58 101q0 91 137 207h-657q-80 0 -116.5 55t-10.5 150l287 1071q20 74 67 116t109 42h770q58 0 99.5 -41.5t41.5 -100.5q0 -58 -41 -98.5t-100 -40.5
h-666l-78 -293h498q59 0 100 -40.5t41 -98.5t-41 -97.5t-100 -39.5h-573l-82 -303h602q58 0 99.5 -41.5t41.5 -100.5q0 -37 -17 -65.5t-61 -67.5z" />
    <glyph glyph-name="eogonek" unicode="&#x119;" horiz-adv-x="1243" 
d="M854 -4q-84 -81 -84 -137q0 -22 14 -33t47 -21q36 -11 51.5 -26.5t14.5 -44.5q-3 -78 -152 -78q-101 0 -159 36t-58 101q0 84 103 184q-12 -2 -39 -2q-236 0 -372 130.5t-136 357.5q0 95 29.5 189.5t87 178t135 148t181.5 102t218 37.5q209 0 329 -120t120 -308
q0 -52 -13 -112q-31 -138 -149 -138h-645q8 -101 69.5 -158t180.5 -57q93 0 170 43q56 29 94 29q50 0 83.5 -33.5t33.5 -85.5q0 -58 -60 -104q-57 -43 -94 -78zM403 635h478q10 33 10 72q0 72 -44.5 116.5t-135.5 44.5q-104 0 -186.5 -63.5t-121.5 -169.5z" />
    <glyph glyph-name="Ecaron" unicode="&#x11a;" horiz-adv-x="1361" 
d="M1014 0h-807q-80 0 -116.5 55t-10.5 150l287 1071q20 74 67 116t109 42h770q58 0 99.5 -41.5t41.5 -100.5q0 -58 -41 -98.5t-100 -40.5h-666l-78 -293h498q59 0 100 -40.5t41 -98.5t-41 -97.5t-100 -39.5h-573l-82 -303h602q58 0 99.5 -41.5t41.5 -100.5q0 -58 -41 -98.5
t-100 -40.5zM801 1614l-78 151q-27 49 -27 66q0 24 19.5 36.5t50.5 12.5q43 0 66.5 -3t54.5 -18.5t59 -46.5l74 -79l117 79q54 37 98 52.5t96 15.5q30 0 48 -12t18 -35q0 -31 -35 -66l-168 -161q-70 -70 -160 -70h-90q-103 0 -143 78z" />
    <glyph glyph-name="ecaron" unicode="&#x11b;" horiz-adv-x="1243" 
d="M627 225q93 0 170 43q56 29 94 29q50 0 83.5 -33.5t33.5 -85.5q0 -65 -60 -104q-151 -99 -356 -99q-236 0 -372 130.5t-136 357.5q0 95 29.5 189.5t87 178t135 148t181.5 102t218 37.5q209 0 329 -120t120 -308q0 -52 -13 -112q-31 -138 -149 -138h-645q8 -101 69.5 -158
t180.5 -57zM623 1286l-78 152q-27 49 -27 65q0 24 19.5 36.5t50.5 12.5q44 0 66.5 -2.5t54 -18t59.5 -46.5l74 -80l116 80q98 67 195 67q30 0 48 -12t18 -35q0 -30 -35 -65l-168 -162q-70 -70 -160 -70h-90q-103 0 -143 78zM403 635h478q10 33 10 72q0 72 -44.5 116.5
t-135.5 44.5q-104 0 -186.5 -63.5t-121.5 -169.5z" />
    <glyph glyph-name="Gbreve" unicode="&#x11e;" horiz-adv-x="1597" 
d="M1475 623l-113 -396q-30 -112 -127 -164q-66 -35 -182 -61.5t-244 -26.5q-100 0 -196 23t-183 73.5t-152.5 122t-104 176t-38.5 228.5q0 166 68 322.5t185 275t285.5 190.5t356.5 72q167 0 297.5 -46.5t202.5 -113.5q63 -55 63 -127q0 -65 -45.5 -110t-109.5 -45
q-52 0 -99 33q-78 62 -151.5 91t-181.5 29q-150 0 -275.5 -77.5t-196.5 -206.5t-71 -277q0 -162 103.5 -253t262.5 -91q137 0 256 55l68 234h-176q-57 0 -97 39t-40 96t40 97t97 40h371q80 0 116.5 -55t10.5 -147zM1133 1563q-146 0 -239 76t-93 167q0 41 30.5 68t75.5 27
q71 0 99 -54q47 -82 149 -82q83 0 158 82q25 27 48.5 40.5t57.5 13.5q43 0 67.5 -24t24.5 -65q0 -38 -28 -73q-143 -176 -350 -176z" />
    <glyph glyph-name="gbreve" unicode="&#x11f;" horiz-adv-x="1374" 
d="M618 338q130 0 227 94.5t97 224.5q0 93 -59 147t-158 54q-129 0 -222 -98.5t-93 -227.5q0 -94 56.5 -144t151.5 -50zM1022 928l8 24q19 70 62.5 114t109.5 44q80 0 115.5 -55t9.5 -150l-184 -690q-43 -162 -84 -244.5t-109 -150.5q-152 -152 -438 -152q-260 0 -473 94
q-88 42 -88 119q0 56 37 95.5t92 39.5q40 0 90 -24q157 -78 322 -78q149 0 237 88q60 60 100 197l11 37q-88 -78 -166.5 -112t-177.5 -34q-108 0 -199.5 42.5t-150 131.5t-58.5 209q0 134 51.5 255t135 205.5t192 134.5t221.5 50q68 0 123 -15t94 -43t66.5 -59.5t50.5 -72.5
zM901 1214q-146 0 -239 76.5t-93 167.5q0 41 31 67.5t76 26.5q71 0 98 -53q47 -82 150 -82q82 0 157 82q50 53 107 53q43 0 67.5 -23.5t24.5 -64.5q0 -37 -29 -73q-144 -177 -350 -177z" />
    <glyph glyph-name="Gdotaccent" unicode="&#x120;" horiz-adv-x="1597" 
d="M1475 623l-113 -396q-30 -112 -127 -164q-66 -35 -182 -61.5t-244 -26.5q-100 0 -196 23t-183 73.5t-152.5 122t-104 176t-38.5 228.5q0 166 68 322.5t185 275t285.5 190.5t356.5 72q167 0 297.5 -46.5t202.5 -113.5q63 -55 63 -127q0 -65 -45.5 -110t-109.5 -45
q-52 0 -99 33q-78 62 -151.5 91t-181.5 29q-150 0 -275.5 -77.5t-196.5 -206.5t-71 -277q0 -162 103.5 -253t262.5 -91q137 0 256 55l68 234h-176q-57 0 -97 39t-40 96t40 97t97 40h371q80 0 116.5 -55t10.5 -147zM1296 1702q-13 -68 -66.5 -108t-123.5 -40q-72 0 -113 42
t-26 106l2 8q13 66 67 105.5t123 39.5q68 0 109.5 -42.5t29.5 -102.5z" />
    <glyph glyph-name="gdotaccent" unicode="&#x121;" horiz-adv-x="1374" 
d="M618 338q130 0 227 94.5t97 224.5q0 93 -59 147t-158 54q-129 0 -222 -98.5t-93 -227.5q0 -94 56.5 -144t151.5 -50zM1022 928l8 24q19 70 62.5 114t109.5 44q80 0 115.5 -55t9.5 -150l-184 -690q-43 -162 -84 -244.5t-109 -150.5q-152 -152 -438 -152q-260 0 -473 94
q-88 42 -88 119q0 56 37 95.5t92 39.5q40 0 90 -24q157 -78 322 -78q149 0 237 88q60 60 100 197l11 37q-88 -78 -166.5 -112t-177.5 -34q-108 0 -199.5 42.5t-150 131.5t-58.5 209q0 134 51.5 255t135 205.5t192 134.5t221.5 50q68 0 123 -15t94 -43t66.5 -59.5t50.5 -72.5
zM1065 1354q-13 -68 -66.5 -108t-124.5 -40q-72 0 -113 42t-26 106l2 8q13 66 67.5 105.5t123.5 39.5q68 0 109.5 -42.5t29.5 -102.5z" />
    <glyph glyph-name="Gcommaaccent" unicode="&#x122;" horiz-adv-x="1597" 
d="M1475 623l-113 -396q-30 -112 -127 -164q-66 -35 -182 -61.5t-244 -26.5q-100 0 -196 23t-183 73.5t-152.5 122t-104 176t-38.5 228.5q0 166 68 322.5t185 275t285.5 190.5t356.5 72q167 0 297.5 -46.5t202.5 -113.5q63 -55 63 -127q0 -65 -45.5 -110t-109.5 -45
q-52 0 -99 33q-78 62 -151.5 91t-181.5 29q-150 0 -275.5 -77.5t-196.5 -206.5t-71 -277q0 -162 103.5 -253t262.5 -91q137 0 256 55l68 234h-176q-57 0 -97 39t-40 96t40 97t97 40h371q80 0 116.5 -55t10.5 -147zM633 -367q-115 23 -115 107q0 59 46 100t114 41
q66 0 103.5 -38t37.5 -105q0 -59 -27 -119t-73 -106q-57 -57 -128 -89t-138 -32q-58 0 -58 45q0 43 64 55q155 27 174 141z" />
    <glyph glyph-name="gcommaaccent" unicode="&#x123;" horiz-adv-x="1374" 
d="M618 338q130 0 227 94.5t97 224.5q0 93 -59 147t-158 54q-129 0 -222 -98.5t-93 -227.5q0 -94 56.5 -144t151.5 -50zM1022 928l8 24q19 70 62.5 114t109.5 44q80 0 115.5 -55t9.5 -150l-184 -690q-43 -162 -84 -244.5t-109 -150.5q-152 -152 -438 -152q-260 0 -473 94
q-88 42 -88 119q0 56 37 95.5t92 39.5q40 0 90 -24q157 -78 322 -78q149 0 237 88q60 60 100 197l11 37q-88 -78 -166.5 -112t-177.5 -34q-108 0 -199.5 42.5t-150 131.5t-58.5 209q0 134 51.5 255t135 205.5t192 134.5t221.5 50q68 0 123 -15t94 -43t66.5 -59.5t50.5 -72.5
zM926 1454q114 -23 114 -106q0 -59 -45.5 -100.5t-113.5 -41.5q-66 0 -104 38.5t-38 105.5q0 59 27 118.5t74 106.5q57 57 128 89t138 32q57 0 57 -45q0 -44 -63 -56q-155 -27 -174 -141z" />
    <glyph glyph-name="Hbar" unicode="&#x126;" horiz-adv-x="1548" 
d="M1589 1049h-80l-241 -904q-20 -74 -67 -115.5t-109 -41.5q-80 0 -116.5 55t-10.5 150l104 382h-573l-117 -430q-20 -74 -67 -115.5t-109 -41.5q-80 0 -116.5 55t-10.5 150l229 856h-18q-45 0 -77 31t-32 75t32.5 76.5t76.5 32.5h78l6 24q20 74 67 116t109 42
q75 0 111.5 -48.5t19.5 -133.5h575l7 24q20 74 67 116t109 42q75 0 111.5 -48.5t19.5 -133.5h22q44 0 76.5 -32.5t32.5 -76.5t-32 -75t-77 -31zM573 866h574l49 183h-573z" />
    <glyph glyph-name="hbar" unicode="&#x127;" horiz-adv-x="1273" 
d="M1153 590l-119 -445q-20 -75 -66 -116t-108 -41q-80 0 -115.5 55t-9.5 150l111 409q14 54 14 98q0 66 -39.5 101t-111.5 35q-89 0 -150 -59t-88 -161l-127 -471q-20 -75 -66 -116t-108 -41q-80 0 -115.5 55t-9.5 150l270 1024h-41q-35 0 -60.5 25.5t-25.5 60.5t25.5 60.5
t60.5 25.5h91q23 57 65 87.5t96 30.5q59 0 95.5 -31t40.5 -87h233q35 0 60.5 -25.5t25.5 -60.5t-25.5 -60.5t-60.5 -25.5h-266l-62 -234q150 135 299 135t236.5 -85.5t87.5 -233.5q0 -65 -37 -209z" />
    <glyph glyph-name="Imacron" unicode="&#x12a;" horiz-adv-x="688" 
d="M688 1241l-295 -1096q-20 -74 -67 -115.5t-109 -41.5q-80 0 -116.5 55t-10.5 150l295 1095q20 74 67 116t109 42q80 0 116.5 -55t10.5 -150zM915 1556h-544q-44 0 -76.5 31.5t-32.5 75.5t32.5 76.5t76.5 32.5h544q44 0 76.5 -32.5t32.5 -76.5t-32.5 -75.5t-76.5 -31.5z
" />
    <glyph glyph-name="imacron" unicode="&#x12b;" horiz-adv-x="618" 
d="M561 905l-205 -760q-20 -75 -66 -116t-108 -41q-80 0 -115.5 55t-9.5 150l205 759q20 75 66 116.5t108 41.5q80 0 115.5 -55t9.5 -150zM793 1229h-545q-45 0 -77 31t-32 75t32.5 76.5t76.5 32.5h545q44 0 76 -32.5t32 -76.5t-32 -75t-76 -31z" />
    <glyph glyph-name="Ibreve" unicode="&#x12c;" horiz-adv-x="688" 
d="M688 1241l-295 -1096q-20 -74 -67 -115.5t-109 -41.5q-80 0 -116.5 55t-10.5 150l295 1095q20 74 67 116t109 42q80 0 116.5 -55t10.5 -150zM647 1542q-146 0 -239 76.5t-93 167.5q0 41 31 67.5t76 26.5q71 0 98 -53q47 -82 150 -82q82 0 157 82q50 53 107 53
q43 0 67.5 -23.5t24.5 -64.5q0 -38 -29 -74q-143 -176 -350 -176z" />
    <glyph glyph-name="ibreve" unicode="&#x12d;" horiz-adv-x="618" 
d="M561 905l-205 -760q-20 -75 -66 -116t-108 -41q-80 0 -115.5 55t-9.5 150l205 759q20 75 66 116.5t108 41.5q80 0 115.5 -55t9.5 -150zM524 1214q-146 0 -238.5 76.5t-92.5 167.5q0 41 30.5 67.5t75.5 26.5q71 0 98 -53q47 -82 150 -82q83 0 158 82q25 27 48.5 40
t57.5 13q43 0 67.5 -23.5t24.5 -64.5q0 -37 -29 -73q-144 -177 -350 -177z" />
    <glyph glyph-name="Iogonek" unicode="&#x12e;" horiz-adv-x="688" 
d="M182 -344q-101 0 -159 36t-58 101q0 97 154 227q-63 56 -29 173l295 1095q20 74 67 116t109 42q80 0 116.5 -55t10.5 -150l-295 -1096q-12 -42 -28 -68.5t-46 -56.5q-62 -60 -87 -95t-25 -66q0 -22 14 -33t47 -21q36 -11 51.5 -26.5t14.5 -44.5q-3 -78 -152 -78z" />
    <glyph glyph-name="iogonek" unicode="&#x12f;" horiz-adv-x="618" 
d="M700 1352q-13 -65 -69 -104.5t-131 -39.5q-74 0 -118 41.5t-32 102.5l2 10q13 65 69.5 104t131.5 39q74 0 117.5 -41t31.5 -102zM561 905l-205 -760q-18 -70 -73 -125q-60 -60 -85.5 -95.5t-25.5 -65.5q0 -22 14 -33t47 -21q36 -11 51.5 -26.5t14.5 -44.5
q-3 -78 -152 -78q-101 0 -159 36t-58 101q0 97 154 227q-37 40 -37 101q0 30 10 72l205 759q20 75 66 116.5t108 41.5q80 0 115.5 -55t9.5 -150z" />
    <glyph glyph-name="Idotaccent" unicode="&#x130;" horiz-adv-x="688" 
d="M688 1241l-295 -1096q-20 -74 -67 -115.5t-109 -41.5q-80 0 -116.5 55t-10.5 150l295 1095q20 74 67 116t109 42q80 0 116.5 -55t10.5 -150zM813 1681q-13 -68 -66 -107.5t-124 -39.5q-72 0 -113.5 42t-26.5 105l2 9q13 66 67.5 105.5t123.5 39.5q68 0 109.5 -42.5
t29.5 -102.5z" />
    <glyph glyph-name="dotlessi" unicode="&#x131;" horiz-adv-x="618" 
d="M561 905l-205 -760q-20 -75 -66 -116t-108 -41q-80 0 -115.5 55t-9.5 150l205 759q20 75 66 116.5t108 41.5q80 0 115.5 -55t9.5 -150z" />
    <glyph glyph-name="Kcommaaccent" unicode="&#x136;" horiz-adv-x="1472" 
d="M444 391l-65 -246q-20 -74 -67 -115.5t-109 -41.5q-80 0 -116.5 55t-10.5 150l295 1095q20 74 67 116t109 42q80 0 116.5 -55t10.5 -150l-119 -442l698 585q24 20 40 31.5t40.5 21t50.5 9.5q65 0 104.5 -40.5t39.5 -100.5q0 -71 -55 -117l-461 -377l254 -580
q24 -59 24 -102q0 -63 -47.5 -102t-109.5 -39q-115 0 -160 110l-219 537zM580 -346q-115 23 -115 106q0 59 46 100.5t114 41.5q66 0 103.5 -38.5t37.5 -105.5q0 -59 -27 -119t-73 -106q-56 -56 -128 -88.5t-139 -32.5q-57 0 -57 45q0 44 64 56q155 27 174 141z" />
    <glyph glyph-name="kcommaaccent" unicode="&#x137;" horiz-adv-x="1210" 
d="M655 1303l-163 -607l471 359q25 20 37.5 28.5t35 17.5t45.5 9q57 0 93 -36t36 -89q0 -65 -57 -106l-324 -236l170 -412q27 -66 27 -106q0 -62 -48.5 -99.5t-111.5 -37.5q-115 0 -161 112l-146 349l-168 -123l-47 -181q-20 -75 -66 -116t-108 -41q-80 0 -115.5 55
t-9.5 150l311 1157q20 75 66 116t108 41q80 0 115.5 -54.5t9.5 -149.5zM401 -356q-114 23 -114 106q0 59 45.5 100t113.5 41q66 0 104 -38t38 -105q0 -59 -27 -118.5t-74 -106.5q-57 -57 -128 -89t-138 -32q-57 0 -57 45q0 43 63 55q155 27 174 142z" />
    <glyph glyph-name="Lacute" unicode="&#x139;" horiz-adv-x="1282" 
d="M965 0h-758q-80 0 -116.5 55t-10.5 150l291 1083q20 74 67 116t109 42q80 0 116.5 -55t10.5 -150l-256 -954h547q59 0 100 -42t41 -102q0 -61 -41 -102t-100 -41zM1004 1720l-160 -118q-91 -68 -182 -68q-39 0 -63 15t-24 42q0 28 27 58l156 172q22 23 35 35t35 22t46 10
q60 0 117.5 -31t57.5 -69q0 -34 -45 -68z" />
    <glyph glyph-name="lacute" unicode="&#x13a;" horiz-adv-x="618" 
d="M668 1303l-312 -1158q-20 -75 -66 -116t-108 -41q-80 0 -115.5 55t-9.5 150l312 1157q20 75 66 116t108 41q80 0 115.5 -54.5t9.5 -149.5zM958 1751l-159 -119q-90 -67 -183 -67q-39 0 -62.5 15t-23.5 42t27 57l156 172q22 24 35 35.5t35 22t46 10.5q60 0 117.5 -31
t57.5 -69q0 -33 -46 -68z" />
    <glyph glyph-name="Lcommaaccent" unicode="&#x13b;" horiz-adv-x="1282" 
d="M965 0h-758q-80 0 -116.5 55t-10.5 150l291 1083q20 74 67 116t109 42q80 0 116.5 -55t10.5 -150l-256 -954h547q59 0 100 -42t41 -102q0 -61 -41 -102t-100 -41zM455 -356q-115 23 -115 106q0 59 46 100t114 41q66 0 103.5 -38t37.5 -105q0 -59 -27 -119t-73 -106
q-56 -56 -128 -88.5t-139 -32.5q-57 0 -57 45q0 43 64 55q155 27 174 142z" />
    <glyph glyph-name="lcommaaccent" unicode="&#x13c;" horiz-adv-x="618" 
d="M668 1303l-312 -1158q-20 -75 -66 -116t-108 -41q-80 0 -115.5 55t-9.5 150l312 1157q20 75 66 116t108 41q80 0 115.5 -54.5t9.5 -149.5zM94 -356q-114 23 -114 106q0 59 45.5 100t113.5 41q66 0 104 -38t38 -105q0 -59 -27 -118.5t-74 -106.5q-57 -57 -128 -89
t-138 -32q-57 0 -57 45q0 43 63 55q155 27 174 142z" />
    <glyph glyph-name="Lcaron" unicode="&#x13d;" horiz-adv-x="1282" 
d="M965 0h-758q-80 0 -116.5 55t-10.5 150l291 1083q20 74 67 116t109 42q80 0 116.5 -55t10.5 -150l-256 -954h547q59 0 100 -42t41 -102q0 -61 -41 -102t-100 -41zM741 1071l72 268q11 44 44 70.5t81 26.5h47q59 0 59 -47q0 -26 -24 -72l-148 -266q-30 -56 -81 -56
q-26 0 -40 13t-14 34q0 13 4 29z" />
    <glyph glyph-name="lcaron" unicode="&#x13e;" horiz-adv-x="618" 
d="M668 1303l-312 -1158q-20 -75 -66 -116t-108 -41q-80 0 -115.5 55t-9.5 150l312 1157q20 75 66 116t108 41q80 0 115.5 -54.5t9.5 -149.5zM735 1133l72 268q11 44 44 70t81 26h47q59 0 59 -47q0 -26 -24 -72l-148 -266q-30 -55 -82 -55q-25 0 -39 13t-14 34q0 13 4 29z
" />
    <glyph glyph-name="Ldot" unicode="&#x13f;" horiz-adv-x="1282" 
d="M1217 780q-13 -67 -66.5 -107t-124.5 -40q-72 0 -113 42t-26 105l2 8q13 66 67 106t123 40q68 0 110 -43t30 -103zM965 0h-758q-80 0 -116.5 55t-10.5 150l291 1083q20 74 67 116t109 42q80 0 116.5 -55t10.5 -150l-256 -954h547q59 0 100 -42t41 -102q0 -61 -41 -102
t-100 -41z" />
    <glyph glyph-name="ldot" unicode="&#x140;" horiz-adv-x="802" 
d="M901 768q-12 -63 -50 -97t-95 -34q-60 0 -93 40t-22 97l2 10q12 63 50 97t95 34q60 0 92 -39.5t23 -97.5zM668 1303l-312 -1158q-20 -75 -66 -116t-108 -41q-80 0 -115.5 55t-9.5 150l312 1157q20 75 66 116t108 41q80 0 115.5 -54.5t9.5 -149.5z" />
    <glyph glyph-name="Lslash" unicode="&#x141;" horiz-adv-x="1345" 
d="M186 795l125 34l123 459q20 75 66 116.5t106 41.5q77 0 112 -55.5t9 -149.5l-86 -319l207 57q32 8 51 8q59 0 96 -34.5t37 -92.5q0 -49 -27.5 -82.5t-72.5 -46.5l-371 -104l-90 -340h557q59 0 100 -42t41 -102q0 -61 -41 -102t-100 -41h-758q-80 0 -116.5 55t-10.5 150
l90 334h-14q-59 0 -96 34.5t-37 92.5q0 49 27.5 82.5t72.5 46.5z" />
    <glyph glyph-name="lslash" unicode="&#x142;" horiz-adv-x="735" 
d="M193 836l106 28l131 486q20 75 66 116t108 41q80 0 115.5 -54.5t9.5 -149.5l-94 -347q10 2 33 2q52 0 83 -34t31 -90q0 -112 -116 -140l-109 -30l-139 -519q-20 -75 -66 -116t-108 -41q-80 0 -115.5 55t-9.5 150l102 380q-10 -2 -31 -2q-52 0 -83 34.5t-31 90.5
q0 111 117 140z" />
    <glyph glyph-name="Nacute" unicode="&#x143;" horiz-adv-x="1609" 
d="M1118 522l207 766q20 75 66 116.5t108 41.5q80 0 115.5 -55t9.5 -150l-297 -1102q-40 -147 -170 -147h-6q-71 0 -110.5 28.5t-69.5 90.5l-383 829l-213 -795q-20 -75 -66 -116t-108 -41q-80 0 -115.5 55t-9.5 150l293 1091q20 76 68 117t118 41h14q129 0 185 -125z
M1440 1720l-160 -118q-91 -68 -182 -68q-39 0 -62.5 15t-23.5 42q0 29 26 58l156 172q32 34 57 50.5t60 16.5q60 0 117 -31t57 -69q0 -34 -45 -68z" />
    <glyph glyph-name="nacute" unicode="&#x144;" horiz-adv-x="1267" 
d="M428 1110q65 0 102 -36t37 -91q150 135 299 135t236.5 -85.5t87.5 -233.5q0 -65 -37 -209l-119 -445q-20 -75 -66 -116t-108 -41q-80 0 -115.5 55t-9.5 150l111 409q14 54 14 98q0 66 -39.5 101t-111.5 35q-89 0 -150 -59t-88 -161l-127 -471q-20 -75 -66 -116t-108 -41
q-80 0 -115.5 55t-9.5 150l203 759q20 75 67 116.5t113 41.5zM1165 1393l-159 -119q-91 -68 -183 -68q-39 0 -62.5 15.5t-23.5 42.5t27 57l156 172q22 24 35 35.5t35 22t46 10.5q60 0 117 -31.5t57 -69.5q0 -33 -45 -67z" />
    <glyph glyph-name="Ncommaaccent" unicode="&#x145;" horiz-adv-x="1609" 
d="M1118 522l207 766q20 75 66 116.5t108 41.5q80 0 115.5 -55t9.5 -150l-297 -1102q-40 -147 -170 -147h-6q-71 0 -110.5 28.5t-69.5 90.5l-383 829l-213 -795q-20 -75 -66 -116t-108 -41q-80 0 -115.5 55t-9.5 150l293 1091q20 76 68 117t118 41h14q129 0 185 -125z
M592 -346q-115 23 -115 106q0 59 46 100.5t114 41.5q66 0 103.5 -38.5t37.5 -105.5q0 -59 -27 -119t-73 -106q-57 -57 -128 -89t-138 -32q-58 0 -58 45q0 44 64 56q155 27 174 141z" />
    <glyph glyph-name="ncommaaccent" unicode="&#x146;" horiz-adv-x="1267" 
d="M428 1110q65 0 102 -36t37 -91q150 135 299 135t236.5 -85.5t87.5 -233.5q0 -65 -37 -209l-119 -445q-20 -75 -66 -116t-108 -41q-80 0 -115.5 55t-9.5 150l111 409q14 54 14 98q0 66 -39.5 101t-111.5 35q-89 0 -150 -59t-88 -161l-127 -471q-20 -75 -66 -116t-108 -41
q-80 0 -115.5 55t-9.5 150l203 759q20 75 67 116.5t113 41.5zM401 -356q-114 23 -114 106q0 59 45.5 100t113.5 41q66 0 104 -38t38 -105q0 -59 -27 -118.5t-74 -106.5q-57 -57 -128 -89t-138 -32q-57 0 -57 45q0 43 63 55q155 27 174 142z" />
    <glyph glyph-name="Ncaron" unicode="&#x147;" horiz-adv-x="1609" 
d="M1118 522l207 766q20 75 66 116.5t108 41.5q80 0 115.5 -55t9.5 -150l-297 -1102q-40 -147 -170 -147h-6q-71 0 -110.5 28.5t-69.5 90.5l-383 829l-213 -795q-20 -75 -66 -116t-108 -41q-80 0 -115.5 55t-9.5 150l293 1091q20 76 68 117t118 41h14q129 0 185 -125z
M899 1614l-78 151q-26 47 -26 66q0 24 19 36.5t50 12.5q43 0 66.5 -3t54.5 -18.5t59 -46.5l74 -79l117 79q54 37 98.5 52.5t96.5 15.5q65 0 65 -47q0 -31 -35 -66l-168 -161q-70 -70 -159 -70h-91q-103 0 -143 78z" />
    <glyph glyph-name="ncaron" unicode="&#x148;" horiz-adv-x="1267" 
d="M428 1110q65 0 102 -36t37 -91q150 135 299 135t236.5 -85.5t87.5 -233.5q0 -65 -37 -209l-119 -445q-20 -75 -66 -116t-108 -41q-80 0 -115.5 55t-9.5 150l111 409q14 54 14 98q0 66 -39.5 101t-111.5 35q-89 0 -150 -59t-88 -161l-127 -471q-20 -75 -66 -116t-108 -41
q-80 0 -115.5 55t-9.5 150l203 759q20 75 67 116.5t113 41.5zM625 1286l-78 152q-27 49 -27 65q0 24 19.5 36.5t50.5 12.5q44 0 66.5 -2.5t54 -18t59.5 -46.5l74 -80l117 80q54 37 98 52t96 15q30 0 48 -12t18 -35q0 -30 -35 -65l-168 -162q-70 -70 -160 -70h-90
q-103 0 -143 78z" />
    <glyph glyph-name="Omacron" unicode="&#x14c;" horiz-adv-x="1703" 
d="M793 -25q-145 0 -268.5 49t-208 133.5t-132 201.5t-47.5 251q0 160 63.5 313t174 271.5t274 191t350.5 72.5q145 0 268.5 -49t208 -133.5t132 -201.5t47.5 -251q0 -160 -63.5 -313t-174 -271.5t-274 -191t-350.5 -72.5zM829 266q87 0 167 32t139 86t103 123t66.5 145.5
t22.5 150.5q0 164 -95.5 264t-268.5 100q-109 0 -204.5 -49t-158.5 -126.5t-99 -172t-36 -188.5q0 -164 95.5 -264.5t268.5 -100.5zM1411 1577h-545q-44 0 -76 31t-32 75t32 76.5t76 32.5h545q44 0 76.5 -32.5t32.5 -76.5t-32 -75t-77 -31z" />
    <glyph glyph-name="omacron" unicode="&#x14d;" horiz-adv-x="1335" 
d="M614 -25q-241 0 -384.5 142.5t-143.5 365.5q0 121 50.5 237t134.5 203.5t202.5 141t247.5 53.5q241 0 384.5 -142.5t143.5 -365.5q0 -121 -50.5 -237t-134.5 -203.5t-202.5 -141t-247.5 -53.5zM629 242q90 0 164.5 58t112.5 140t38 162q0 118 -64.5 184t-172.5 66
q-68 0 -129 -34t-101 -87.5t-63 -116.5t-23 -122q0 -118 65 -184t173 -66zM1143 1229h-545q-45 0 -77 31t-32 75t32.5 76.5t76.5 32.5h545q44 0 76 -32.5t32 -76.5t-32 -75t-76 -31z" />
    <glyph glyph-name="Obreve" unicode="&#x14e;" horiz-adv-x="1703" 
d="M793 -25q-145 0 -268.5 49t-208 133.5t-132 201.5t-47.5 251q0 160 63.5 313t174 271.5t274 191t350.5 72.5q145 0 268.5 -49t208 -133.5t132 -201.5t47.5 -251q0 -160 -63.5 -313t-174 -271.5t-274 -191t-350.5 -72.5zM829 266q87 0 167 32t139 86t103 123t66.5 145.5
t22.5 150.5q0 164 -95.5 264t-268.5 100q-109 0 -204.5 -49t-158.5 -126.5t-99 -172t-36 -188.5q0 -164 95.5 -264.5t268.5 -100.5zM1145 1563q-146 0 -239 76t-93 167q0 41 31 68t76 27q70 0 98 -54q47 -82 149 -82q83 0 158 82q51 54 107 54q43 0 67.5 -24t24.5 -65
q0 -37 -29 -73q-143 -176 -350 -176z" />
    <glyph glyph-name="obreve" unicode="&#x14f;" horiz-adv-x="1335" 
d="M614 -25q-241 0 -384.5 142.5t-143.5 365.5q0 121 50.5 237t134.5 203.5t202.5 141t247.5 53.5q241 0 384.5 -142.5t143.5 -365.5q0 -121 -50.5 -237t-134.5 -203.5t-202.5 -141t-247.5 -53.5zM629 242q90 0 164.5 58t112.5 140t38 162q0 118 -64.5 184t-172.5 66
q-68 0 -129 -34t-101 -87.5t-63 -116.5t-23 -122q0 -118 65 -184t173 -66zM877 1214q-146 0 -239 76.5t-93 167.5q0 41 30.5 67.5t75.5 26.5q72 0 99 -53q47 -82 149 -82q83 0 158 82q25 27 48.5 40t57.5 13q43 0 67.5 -23.5t24.5 -64.5q0 -38 -28 -73q-144 -177 -350 -177z
" />
    <glyph glyph-name="Ohungarumlaut" unicode="&#x150;" horiz-adv-x="1703" 
d="M793 -25q-145 0 -268.5 49t-208 133.5t-132 201.5t-47.5 251q0 160 63.5 313t174 271.5t274 191t350.5 72.5q145 0 268.5 -49t208 -133.5t132 -201.5t47.5 -251q0 -160 -63.5 -313t-174 -271.5t-274 -191t-350.5 -72.5zM829 266q87 0 167 32t139 86t103 123t66.5 145.5
t22.5 150.5q0 164 -95.5 264t-268.5 100q-109 0 -204.5 -49t-158.5 -126.5t-99 -172t-36 -188.5q0 -164 95.5 -264.5t268.5 -100.5zM1112 1909q57 0 101 -30.5t44 -70.5q0 -33 -45 -67l-159 -119q-91 -68 -166 -68q-33 0 -53.5 15.5t-20.5 42.5t27 57l155 172q22 23 35.5 35
t35.5 22.5t46 10.5zM1513 1909q57 0 101.5 -30.5t44.5 -70.5q0 -33 -45 -67l-160 -119q-91 -68 -166 -68q-33 0 -53.5 15.5t-20.5 42.5t27 57l156 172q22 24 35 35.5t35 22t46 10.5z" />
    <glyph glyph-name="ohungarumlaut" unicode="&#x151;" horiz-adv-x="1335" 
d="M614 -25q-241 0 -384.5 142.5t-143.5 365.5q0 121 50.5 237t134.5 203.5t202.5 141t247.5 53.5q241 0 384.5 -142.5t143.5 -365.5q0 -121 -50.5 -237t-134.5 -203.5t-202.5 -141t-247.5 -53.5zM629 242q90 0 164.5 58t112.5 140t38 162q0 118 -64.5 184t-172.5 66
q-68 0 -129 -34t-101 -87.5t-63 -116.5t-23 -122q0 -118 65 -184t173 -66zM842 1561q57 0 101 -30.5t44 -70.5q0 -33 -45 -67l-160 -119q-91 -68 -166 -68q-33 0 -53 15.5t-20 42.5q0 28 26 57l156 172q22 23 35.5 35t35.5 22.5t46 10.5zM1243 1561q57 0 101.5 -30.5
t44.5 -70.5q0 -32 -46 -67l-159 -119q-91 -68 -166 -68q-33 0 -53.5 15.5t-20.5 42.5t27 57l155 172q22 23 35.5 35t35.5 22.5t46 10.5z" />
    <glyph glyph-name="OE" unicode="&#x152;" horiz-adv-x="2193" 
d="M879 285h92l233 864h-117q-145 0 -269.5 -44.5t-209.5 -129.5q-69 -69 -106 -162t-37 -197q0 -143 84 -227q104 -104 330 -104zM1845 0h-991q-202 0 -338 49t-233 146q-146 146 -146 409q0 329 236 565q265 265 751 265h1020q58 0 100 -42t42 -100t-41.5 -98.5
t-100.5 -40.5h-624l-78 -293h456q59 0 100.5 -40.5t41.5 -98.5t-41.5 -97.5t-100.5 -39.5h-532l-82 -303h561q59 0 100.5 -41.5t41.5 -100.5q0 -58 -41.5 -98.5t-100.5 -40.5z" />
    <glyph glyph-name="oe" unicode="&#x153;" horiz-adv-x="2105" 
d="M1489 225q93 0 170 43q56 29 94 29q50 0 83.5 -33.5t33.5 -85.5q0 -65 -60 -104q-151 -99 -356 -99q-292 0 -407 201q-79 -94 -190 -147.5t-241 -53.5q-241 0 -385.5 142.5t-144.5 365.5q0 165 83 310.5t230 235t320 89.5q151 0 259 -57t165 -160q82 101 197 159t257 58
q209 0 329 -120t120 -308q0 -56 -12 -112q-31 -138 -150 -138h-645q8 -101 69.5 -158t180.5 -57zM627 242q93 0 167.5 54.5t112 135.5t37.5 168q0 113 -64.5 182.5t-170.5 69.5q-93 0 -167.5 -54.5t-112.5 -135.5t-38 -168q0 -113 65 -182.5t171 -69.5zM1266 635h477
q10 33 10 72q0 72 -44.5 116.5t-135.5 44.5q-104 0 -186 -63.5t-121 -169.5z" />
    <glyph glyph-name="Racute" unicode="&#x154;" horiz-adv-x="1488" 
d="M463 459l-84 -314q-20 -74 -67 -115.5t-109 -41.5q-80 0 -116.5 55t-10.5 150l291 1083q20 74 67 116t109 42h389q310 0 454 -144q111 -111 111 -289q0 -208 -131 -339q-60 -60 -133.5 -99.5t-179.5 -68.5l176 -263q35 -51 35 -100q0 -67 -47 -105t-107 -38
q-121 0 -184 104l-228 367h-235zM539 737h280q197 0 289 92q59 59 59 146q0 70 -45 115q-59 59 -209 59h-264zM1319 1720l-160 -118q-91 -68 -182 -68q-39 0 -62.5 15t-23.5 42q0 28 27 58l155 172q32 34 57 50.5t60 16.5q60 0 117 -31t57 -69q0 -34 -45 -68z" />
    <glyph glyph-name="racute" unicode="&#x155;" horiz-adv-x="858" 
d="M549 924l-6 -25q111 211 252 211q61 0 97 -37t36 -102q0 -62 -32.5 -101t-102.5 -59q-149 -42 -241.5 -142t-141.5 -280l-68 -244q-20 -75 -66 -116t-108 -41q-80 0 -115.5 55t-9.5 150l205 759q20 75 66 116.5t108 41.5q77 0 112 -51.5t15 -134.5zM981 1393l-160 -119
q-91 -68 -182 -68q-39 0 -62.5 15.5t-23.5 42.5t27 57l155 172q22 23 35.5 35t35.5 22.5t46 10.5q60 0 117 -31.5t57 -69.5q0 -33 -45 -67z" />
    <glyph glyph-name="Rcommaaccent" unicode="&#x156;" horiz-adv-x="1488" 
d="M463 459l-84 -314q-20 -74 -67 -115.5t-109 -41.5q-80 0 -116.5 55t-10.5 150l291 1083q20 74 67 116t109 42h389q310 0 454 -144q111 -111 111 -289q0 -208 -131 -339q-60 -60 -133.5 -99.5t-179.5 -68.5l176 -263q35 -51 35 -100q0 -67 -47 -105t-107 -38
q-121 0 -184 104l-228 367h-235zM539 737h280q197 0 289 92q59 59 59 146q0 70 -45 115q-59 59 -209 59h-264zM504 -346q-115 23 -115 106q0 59 46 100.5t114 41.5q66 0 103.5 -38.5t37.5 -105.5q0 -59 -27 -119t-73 -106q-57 -57 -128 -89t-138 -32q-58 0 -58 45
q0 44 64 56q155 27 174 141z" />
    <glyph glyph-name="rcommaaccent" unicode="&#x157;" horiz-adv-x="858" 
d="M549 924l-6 -25q111 211 252 211q61 0 97 -37t36 -102q0 -62 -32.5 -101t-102.5 -59q-149 -42 -241.5 -142t-141.5 -280l-68 -244q-20 -75 -66 -116t-108 -41q-80 0 -115.5 55t-9.5 150l205 759q20 75 66 116.5t108 41.5q77 0 112 -51.5t15 -134.5zM66 -356
q-115 23 -115 106q0 59 46 100t114 41q66 0 103.5 -38t37.5 -105q0 -59 -27 -119t-73 -106q-56 -56 -128 -88.5t-139 -32.5q-57 0 -57 45q0 43 63 55q156 28 175 142z" />
    <glyph glyph-name="Rcaron" unicode="&#x158;" horiz-adv-x="1488" 
d="M463 459l-84 -314q-20 -74 -67 -115.5t-109 -41.5q-80 0 -116.5 55t-10.5 150l291 1083q20 74 67 116t109 42h389q310 0 454 -144q111 -111 111 -289q0 -208 -131 -339q-60 -60 -133.5 -99.5t-179.5 -68.5l176 -263q35 -51 35 -100q0 -67 -47 -105t-107 -38
q-121 0 -184 104l-228 367h-235zM539 737h280q197 0 289 92q59 59 59 146q0 70 -45 115q-59 59 -209 59h-264zM778 1614l-78 151q-26 47 -26 66q0 24 19 36.5t50 12.5q32 0 50.5 -1.5t43 -7.5t45.5 -20.5t42 -38.5l73 -79l117 79q54 37 98.5 52.5t96.5 15.5q65 0 65 -47
q0 -31 -35 -66l-168 -161q-70 -70 -159 -70h-90q-104 0 -144 78z" />
    <glyph glyph-name="rcaron" unicode="&#x159;" horiz-adv-x="858" 
d="M549 924l-6 -25q111 211 252 211q61 0 97 -37t36 -102q0 -62 -32.5 -101t-102.5 -59q-149 -42 -241.5 -142t-141.5 -280l-68 -244q-20 -75 -66 -116t-108 -41q-80 0 -115.5 55t-9.5 150l205 759q20 75 66 116.5t108 41.5q77 0 112 -51.5t15 -134.5zM440 1286l-78 152
q-26 47 -26 65q0 24 19.5 36.5t50.5 12.5q44 0 66.5 -2.5t54 -18t59.5 -46.5l73 -80l117 80q98 67 195 67q65 0 65 -47q0 -30 -35 -65l-167 -162q-70 -70 -160 -70h-90q-104 0 -144 78z" />
    <glyph glyph-name="Sacute" unicode="&#x15a;" horiz-adv-x="1302" 
d="M618 256q96 0 158 41.5t62 108.5q0 53 -50 91.5t-194 96.5q-62 25 -109 49t-95 59t-78.5 73.5t-50 91.5t-19.5 114q0 107 45.5 197t123.5 150t181.5 93t218.5 33q151 0 251 -34t185 -93q74 -53 74 -131q0 -65 -45.5 -109.5t-110.5 -44.5q-51 0 -86 27q-73 57 -140.5 83
t-152.5 26q-95 0 -151.5 -44t-56.5 -102q0 -55 49 -90t202 -98q64 -26 112 -51t94 -59.5t75 -73t46.5 -90.5t17.5 -113q0 -145 -80.5 -255.5t-208.5 -166t-281 -55.5q-147 0 -288 37.5t-242 125.5q-62 51 -62 131q0 68 44 114t110 46q51 0 100 -39q92 -76 170 -107.5
t182 -31.5zM1255 1741l-159 -119q-91 -68 -183 -68q-39 0 -62.5 15.5t-23.5 42.5t27 57l156 172q22 24 35 35.5t35 22t46 10.5q60 0 117 -31.5t57 -69.5q0 -33 -45 -67z" />
    <glyph glyph-name="sacute" unicode="&#x15b;" 
d="M467 213q62 0 96.5 25t34.5 71q0 29 -31.5 52t-95.5 51q-63 27 -100.5 45.5t-84.5 48.5t-72.5 60t-43.5 73t-18 94q0 168 120 276.5t320 108.5q185 0 350 -98q72 -42 72 -115q0 -56 -37.5 -94.5t-91.5 -38.5q-32 0 -82 31q-119 78 -234 78q-57 0 -88.5 -25t-31.5 -68
q0 -30 34 -55t111 -59q53 -23 87.5 -40.5t79 -47t70.5 -59t45 -72.5t19 -93q0 -177 -125.5 -282t-325.5 -105q-115 0 -224 37.5t-197 100.5q-56 41 -56 106q0 54 36.5 92.5t88.5 38.5q46 0 82 -28q138 -109 293 -109zM1032 1393l-160 -119q-91 -68 -182 -68
q-39 0 -62.5 15.5t-23.5 42.5t27 57l155 172q22 23 35.5 35t35.5 22.5t46 10.5q60 0 117 -31.5t57 -69.5q0 -33 -45 -67z" />
    <glyph glyph-name="Scedilla" unicode="&#x15e;" horiz-adv-x="1302" 
d="M618 256q96 0 158 41.5t62 108.5q0 53 -50 91.5t-194 96.5q-62 25 -109 49t-95 59t-78.5 73.5t-50 91.5t-19.5 114q0 107 45.5 197t123.5 150t181.5 93t218.5 33q151 0 251 -34t185 -93q74 -53 74 -131q0 -65 -45.5 -109.5t-110.5 -44.5q-51 0 -86 27q-73 57 -140.5 83
t-152.5 26q-95 0 -151.5 -44t-56.5 -102q0 -55 49 -90t202 -98q64 -26 112 -51t94 -59.5t75 -73t46.5 -90.5t17.5 -113q0 -144 -79.5 -254t-206 -165.5t-278.5 -57.5l-170 -256q-43 -66 -106 -66q-45 0 -92 33t-47 71q0 33 30 66l164 172q-199 41 -315 143q-62 51 -62 131
q0 68 44 114t110 46q51 0 100 -39q92 -76 170 -107.5t182 -31.5z" />
    <glyph glyph-name="scedilla" unicode="&#x15f;" 
d="M467 213q62 0 96.5 25t34.5 71q0 29 -31.5 52t-95.5 51q-63 27 -100.5 45.5t-84.5 48.5t-72.5 60t-43.5 73t-18 94q0 168 120 276.5t320 108.5q185 0 350 -98q72 -42 72 -115q0 -56 -37.5 -94.5t-91.5 -38.5q-32 0 -82 31q-119 78 -234 78q-57 0 -88.5 -25t-31.5 -68
q0 -30 34 -55t111 -59q53 -23 87.5 -40.5t79 -47t70.5 -59t45 -72.5t19 -93q0 -171 -116.5 -274t-305.5 -111l-168 -253q-43 -66 -106 -66q-45 0 -92.5 33t-47.5 71q0 32 31 66l166 174q-128 36 -233 111q-56 41 -56 106q0 54 36.5 92.5t88.5 38.5q46 0 82 -28
q138 -109 293 -109z" />
    <glyph glyph-name="Scaron" unicode="&#x160;" horiz-adv-x="1302" 
d="M618 256q96 0 158 41.5t62 108.5q0 53 -50 91.5t-194 96.5q-62 25 -109 49t-95 59t-78.5 73.5t-50 91.5t-19.5 114q0 107 45.5 197t123.5 150t181.5 93t218.5 33q151 0 251 -34t185 -93q74 -53 74 -131q0 -65 -45.5 -109.5t-110.5 -44.5q-51 0 -86 27q-73 57 -140.5 83
t-152.5 26q-95 0 -151.5 -44t-56.5 -102q0 -55 49 -90t202 -98q64 -26 112 -51t94 -59.5t75 -73t46.5 -90.5t17.5 -113q0 -145 -80.5 -255.5t-208.5 -166t-281 -55.5q-147 0 -288 37.5t-242 125.5q-62 51 -62 131q0 68 44 114t110 46q51 0 100 -39q92 -76 170 -107.5
t182 -31.5zM715 1634l-78 152q-27 49 -27 65q0 24 19.5 37t50.5 13q43 0 66.5 -3t54.5 -18.5t59 -46.5l74 -80l117 80q54 37 98 52.5t96 15.5q30 0 48 -12.5t18 -35.5q0 -30 -35 -65l-168 -162q-70 -70 -160 -70h-90q-103 0 -143 78z" />
    <glyph glyph-name="scaron" unicode="&#x161;" 
d="M467 213q62 0 96.5 25t34.5 71q0 29 -31.5 52t-95.5 51q-63 27 -100.5 45.5t-84.5 48.5t-72.5 60t-43.5 73t-18 94q0 168 120 276.5t320 108.5q185 0 350 -98q72 -42 72 -115q0 -56 -37.5 -94.5t-91.5 -38.5q-32 0 -82 31q-119 78 -234 78q-57 0 -88.5 -25t-31.5 -68
q0 -30 34 -55t111 -59q53 -23 87.5 -40.5t79 -47t70.5 -59t45 -72.5t19 -93q0 -177 -125.5 -282t-325.5 -105q-115 0 -224 37.5t-197 100.5q-56 41 -56 106q0 54 36.5 92.5t88.5 38.5q46 0 82 -28q138 -109 293 -109zM494 1286l-78 152q-27 49 -27 65q0 24 19.5 36.5
t50.5 12.5q44 0 66.5 -2.5t54 -18t59.5 -46.5l74 -80l116 80q98 67 195 67q30 0 48 -12t18 -35q0 -30 -35 -65l-168 -162q-70 -70 -160 -70h-90q-103 0 -143 78z" />
    <glyph glyph-name="Tcommaaccent" unicode="&#x162;" horiz-adv-x="1269" 
d="M948 1143l-268 -998q-20 -74 -67 -115.5t-109 -41.5q-80 0 -116.5 55t-10.5 150l256 950h-262q-60 0 -103 42.5t-43 102.5t43 103t103 43h919q60 0 103 -43t43 -103t-43 -102.5t-103 -42.5h-342zM416 -356q-115 23 -115 106q0 59 46 100t114 41q66 0 103.5 -38t37.5 -105
q0 -59 -27 -119t-73 -106q-57 -57 -128 -89t-138 -32q-58 0 -58 45q0 43 64 55q155 27 174 142z" />
    <glyph glyph-name="Tcommaaccent" unicode="&#x21a;" horiz-adv-x="1269" 
d="M948 1143l-268 -998q-20 -74 -67 -115.5t-109 -41.5q-80 0 -116.5 55t-10.5 150l256 950h-262q-60 0 -103 42.5t-43 102.5t43 103t103 43h919q60 0 103 -43t43 -103t-43 -102.5t-103 -42.5h-342zM416 -356q-115 23 -115 106q0 59 46 100t114 41q66 0 103.5 -38t37.5 -105
q0 -59 -27 -119t-73 -106q-57 -57 -128 -89t-138 -32q-58 0 -58 45q0 43 64 55q155 27 174 142z" />
    <glyph glyph-name="tcommaaccent" unicode="&#x163;" horiz-adv-x="849" 
d="M338 1098l37 135q20 75 66 116.5t108 41.5q80 0 115.5 -55t9.5 -150l-25 -88h105q54 0 91.5 -38t37.5 -95t-37.5 -95.5t-91.5 -38.5h-176l-123 -460q-9 -36 -9 -49q0 -31 20 -48.5t58 -17.5h25q48 0 79 -30.5t31 -86.5q0 -93 -79 -127q-68 -30 -183 -30
q-139 0 -211.5 59.5t-72.5 155.5q0 55 20 137l133 497q-45 7 -79.5 42t-34.5 92t37.5 95t91.5 38h57zM260 -356q-115 23 -115 106q0 59 46 100t114 41q66 0 103.5 -38t37.5 -105q0 -59 -27 -119t-73 -106q-57 -57 -128 -89t-138 -32q-57 0 -57 45q0 43 63 55q155 27 174 142
z" />
    <glyph glyph-name="tcommaaccent" unicode="&#x21b;" horiz-adv-x="849" 
d="M338 1098l37 135q20 75 66 116.5t108 41.5q80 0 115.5 -55t9.5 -150l-25 -88h105q54 0 91.5 -38t37.5 -95t-37.5 -95.5t-91.5 -38.5h-176l-123 -460q-9 -36 -9 -49q0 -31 20 -48.5t58 -17.5h25q48 0 79 -30.5t31 -86.5q0 -93 -79 -127q-68 -30 -183 -30
q-139 0 -211.5 59.5t-72.5 155.5q0 55 20 137l133 497q-45 7 -79.5 42t-34.5 92t37.5 95t91.5 38h57zM260 -356q-115 23 -115 106q0 59 46 100t114 41q66 0 103.5 -38t37.5 -105q0 -59 -27 -119t-73 -106q-57 -57 -128 -89t-138 -32q-57 0 -57 45q0 43 63 55q155 27 174 142
z" />
    <glyph glyph-name="Tcaron" unicode="&#x164;" horiz-adv-x="1269" 
d="M948 1143l-268 -998q-20 -74 -67 -115.5t-109 -41.5q-80 0 -116.5 55t-10.5 150l256 950h-262q-60 0 -103 42.5t-43 102.5t43 103t103 43h919q60 0 103 -43t43 -103t-43 -102.5t-103 -42.5h-342zM725 1614l-78 151q-26 47 -26 66q0 24 19 36.5t50 12.5q43 0 66.5 -3
t54.5 -18.5t59 -46.5l74 -79l117 79q54 37 98 52.5t96 15.5q30 0 48 -12t18 -35q0 -31 -35 -66l-168 -161q-70 -70 -160 -70h-90q-103 0 -143 78z" />
    <glyph glyph-name="tcaron" unicode="&#x165;" horiz-adv-x="849" 
d="M338 1098l37 135q20 75 66 116.5t108 41.5q80 0 115.5 -55t9.5 -150l-25 -88h105q54 0 91.5 -38t37.5 -95t-37.5 -95.5t-91.5 -38.5h-176l-123 -460q-9 -36 -9 -49q0 -31 20 -48.5t58 -17.5h25q48 0 79 -30.5t31 -86.5q0 -93 -79 -127q-68 -30 -183 -30
q-139 0 -211.5 59.5t-72.5 155.5q0 55 20 137l133 497q-45 7 -79.5 42t-34.5 92t37.5 95t91.5 38h57zM809 1276l72 268q11 44 44 70t81 26h47q59 0 59 -47q0 -23 -25 -71l-147 -267q-30 -55 -82 -55q-25 0 -39 13t-14 34q0 13 4 29z" />
    <glyph glyph-name="Umacron" unicode="&#x16a;" horiz-adv-x="1564" 
d="M1589 1241l-178 -661q-74 -279 -221 -426q-177 -177 -488 -177q-250 0 -393 128t-143 356q0 89 35 229l159 598q20 74 67.5 116t109.5 42q80 0 116.5 -55t10.5 -150l-156 -579q-23 -94 -23 -156q0 -108 65.5 -173t184.5 -65q141 0 234 90q93 93 139 267l178 663
q20 74 67 116t109 42q80 0 116.5 -55t10.5 -150zM1339 1556h-544q-44 0 -76.5 31.5t-32.5 75.5t32.5 76.5t76.5 32.5h544q44 0 76.5 -32.5t32.5 -76.5t-32.5 -75.5t-76.5 -31.5z" />
    <glyph glyph-name="umacron" unicode="&#x16b;" horiz-adv-x="1273" 
d="M846 -12q-65 0 -102 36t-37 91q-150 -135 -299 -135t-236.5 85.5t-87.5 233.5q0 65 37 209l119 444q20 75 66 116.5t108 41.5q80 0 115.5 -55t9.5 -150l-111 -409q-14 -54 -14 -99q0 -66 39.5 -100.5t111.5 -34.5q89 0 150 58.5t88 160.5l127 471q20 75 66 116.5
t108 41.5q80 0 115.5 -55t9.5 -150l-203 -760q-20 -75 -67 -116t-113 -41zM1112 1229h-545q-44 0 -76 31t-32 75t32 76.5t76 32.5h545q44 0 76.5 -32.5t32.5 -76.5t-32 -75t-77 -31z" />
    <glyph glyph-name="Ubreve" unicode="&#x16c;" horiz-adv-x="1564" 
d="M1589 1241l-178 -661q-74 -279 -221 -426q-177 -177 -488 -177q-250 0 -393 128t-143 356q0 89 35 229l159 598q20 74 67.5 116t109.5 42q80 0 116.5 -55t10.5 -150l-156 -579q-23 -94 -23 -156q0 -108 65.5 -173t184.5 -65q141 0 234 90q93 93 139 267l178 663
q20 74 67 116t109 42q80 0 116.5 -55t10.5 -150zM1073 1542q-146 0 -239 76.5t-93 167.5q0 41 31 67.5t76 26.5q71 0 98 -53q47 -82 150 -82q82 0 157 82q50 53 107 53q43 0 67.5 -23.5t24.5 -64.5q0 -38 -29 -74q-143 -176 -350 -176z" />
    <glyph glyph-name="ubreve" unicode="&#x16d;" horiz-adv-x="1273" 
d="M846 -12q-65 0 -102 36t-37 91q-150 -135 -299 -135t-236.5 85.5t-87.5 233.5q0 65 37 209l119 444q20 75 66 116.5t108 41.5q80 0 115.5 -55t9.5 -150l-111 -409q-14 -54 -14 -99q0 -66 39.5 -100.5t111.5 -34.5q89 0 150 58.5t88 160.5l127 471q20 75 66 116.5
t108 41.5q80 0 115.5 -55t9.5 -150l-203 -760q-20 -75 -67 -116t-113 -41zM846 1214q-146 0 -239 76.5t-93 167.5q0 41 31 67.5t76 26.5q71 0 98 -53q47 -82 149 -82q83 0 158 82q50 53 107 53q43 0 67.5 -23.5t24.5 -64.5q0 -37 -29 -73q-144 -177 -350 -177z" />
    <glyph glyph-name="Uring" unicode="&#x16e;" horiz-adv-x="1564" 
d="M1589 1241l-178 -661q-74 -279 -221 -426q-177 -177 -488 -177q-250 0 -393 128t-143 356q0 89 35 229l159 598q20 74 67.5 116t109.5 42q80 0 116.5 -55t10.5 -150l-156 -579q-23 -94 -23 -156q0 -108 65.5 -173t184.5 -65q141 0 234 90q93 93 139 267l178 663
q20 74 67 116t109 42q80 0 116.5 -55t10.5 -150zM1071 1532q-102 0 -163.5 60.5t-61.5 152.5q0 111 80 192.5t194 81.5q102 0 164 -61t62 -152q0 -111 -80.5 -192.5t-194.5 -81.5zM1075 1645q61 0 100 48t39 111q0 44 -26.5 73.5t-71.5 29.5q-61 0 -100 -48.5t-39 -111.5
q0 -44 26.5 -73t71.5 -29z" />
    <glyph glyph-name="uring" unicode="&#x16f;" horiz-adv-x="1273" 
d="M846 -12q-65 0 -102 36t-37 91q-150 -135 -299 -135t-236.5 85.5t-87.5 233.5q0 65 37 209l119 444q20 75 66 116.5t108 41.5q80 0 115.5 -55t9.5 -150l-111 -409q-14 -54 -14 -99q0 -66 39.5 -100.5t111.5 -34.5q89 0 150 58.5t88 160.5l127 471q20 75 66 116.5
t108 41.5q80 0 115.5 -55t9.5 -150l-203 -760q-20 -75 -67 -116t-113 -41zM848 1214q-102 0 -163.5 60.5t-61.5 152.5q0 112 80 193.5t194 81.5q102 0 163.5 -60.5t61.5 -152.5q0 -112 -80 -193.5t-194 -81.5zM852 1327q61 0 100 48.5t39 111.5q0 44 -26.5 73t-71.5 29
q-61 0 -100 -48t-39 -111q0 -44 26.5 -73.5t71.5 -29.5z" />
    <glyph glyph-name="Uhungarumlaut" unicode="&#x170;" horiz-adv-x="1564" 
d="M1589 1241l-178 -661q-74 -279 -221 -426q-177 -177 -488 -177q-250 0 -393 128t-143 356q0 89 35 229l159 598q20 74 67.5 116t109.5 42q80 0 116.5 -55t10.5 -150l-156 -579q-23 -94 -23 -156q0 -108 65.5 -173t184.5 -65q141 0 234 90q93 93 139 267l178 663
q20 74 67 116t109 42q80 0 116.5 -55t10.5 -150zM1040 1888q57 0 101.5 -30t44.5 -70q0 -34 -45 -68l-160 -118q-91 -68 -166 -68q-33 0 -53.5 15t-20.5 42q0 28 27 58l156 172q22 23 35 35t35 22t46 10zM1442 1888q57 0 101 -30t44 -70q0 -34 -45 -68l-160 -118
q-91 -68 -165 -68q-33 0 -53.5 15t-20.5 42q0 29 26 58l156 172q32 34 57 50.5t60 16.5z" />
    <glyph glyph-name="uhungarumlaut" unicode="&#x171;" horiz-adv-x="1273" 
d="M846 -12q-65 0 -102 36t-37 91q-150 -135 -299 -135t-236.5 85.5t-87.5 233.5q0 65 37 209l119 444q20 75 66 116.5t108 41.5q80 0 115.5 -55t9.5 -150l-111 -409q-14 -54 -14 -99q0 -66 39.5 -100.5t111.5 -34.5q89 0 150 58.5t88 160.5l127 471q20 75 66 116.5
t108 41.5q80 0 115.5 -55t9.5 -150l-203 -760q-20 -75 -67 -116t-113 -41zM1214 1561q57 0 101.5 -30.5t44.5 -70.5q0 -33 -45 -67l-160 -119q-91 -68 -166 -68q-33 0 -53.5 15.5t-20.5 42.5t27 57l156 172q22 24 35 35.5t35 22t46 10.5zM813 1561q57 0 101 -30.5t44 -70.5
q0 -33 -45 -67l-159 -119q-91 -68 -166 -68q-33 0 -53.5 15.5t-20.5 42.5t27 57l155 172q22 23 35.5 35t35.5 22.5t46 10.5z" />
    <glyph glyph-name="Uogonek" unicode="&#x172;" horiz-adv-x="1564" 
d="M643 -344q-101 0 -159 36t-58 101q0 90 121 201q-181 35 -281 156.5t-100 310.5q0 89 35 229l159 598q20 74 67.5 116t109.5 42q80 0 116.5 -55t10.5 -150l-156 -579q-23 -94 -23 -156q0 -108 65.5 -173t184.5 -65q141 0 234 90q93 93 139 267l178 663q20 74 67 116
t109 42q80 0 116.5 -55t10.5 -150l-178 -661q-74 -279 -221 -426q-168 -168 -455 -177q-67 -73 -67 -118q0 -22 14 -33t47 -21q36 -11 51.5 -26.5t14.5 -44.5q-3 -78 -152 -78z" />
    <glyph glyph-name="uogonek" unicode="&#x173;" horiz-adv-x="1273" 
d="M1229 905l-203 -760q-17 -68 -74 -125q-60 -60 -85 -95t-25 -66q0 -22 14 -33t47 -21q36 -11 51.5 -26.5t14.5 -44.5q-3 -78 -152 -78q-101 0 -159 36t-58 101q0 101 152 225q-45 33 -45 97q-150 -135 -299 -135t-236.5 85.5t-87.5 233.5q0 65 37 209l119 444
q20 75 66 116.5t108 41.5q80 0 115.5 -55t9.5 -150l-111 -409q-14 -54 -14 -99q0 -66 39.5 -100.5t111.5 -34.5q89 0 150 58.5t88 160.5l127 471q20 75 66 116.5t108 41.5q80 0 115.5 -55t9.5 -150z" />
    <glyph glyph-name="Wcircumflex" unicode="&#x174;" horiz-adv-x="2269" 
d="M2357 1233l-706 -1129q-78 -127 -211 -127h-15q-66 0 -104 35.5t-41 104.5l-61 792l-492 -805q-77 -127 -205 -127h-14q-65 0 -103.5 36t-44.5 104l-98 1110q-4 46 -4 73q0 62 46.5 104t117.5 42q69 0 111 -35t45 -96l53 -852l512 862q36 61 79 93t103 32h18
q66 0 102.5 -32.5t41.5 -92.5l57 -862l524 878q64 105 168 105q66 0 107 -35t41 -94q0 -39 -27 -84zM1632 1800l78 -151q27 -49 27 -66q0 -24 -19.5 -36.5t-50.5 -12.5q-43 0 -66.5 3t-54.5 18.5t-59 46.5l-74 79l-117 -79q-54 -37 -98 -52.5t-96 -15.5q-30 0 -48 12t-18 35
q0 31 35 66l168 161q70 70 160 70h90q103 0 143 -78z" />
    <glyph glyph-name="wcircumflex" unicode="&#x175;" horiz-adv-x="1755" 
d="M215 119l-45 772q-4 46 -4 74q0 60 49 102.5t111 42.5q68 0 111 -35t44 -96l15 -547l319 555q71 125 182 125h17q62 0 99 -33t40 -92l25 -557l335 588q24 42 62 67t84 25q59 0 92 -31t33 -86q0 -42 -25 -84l-481 -803q-74 -126 -203 -126h-10q-65 0 -101.5 35.5
t-39.5 103.5l-27 547l-328 -560q-73 -126 -202 -126h-11q-135 0 -141 139zM1300 1473l78 -152q27 -49 27 -66q0 -24 -19.5 -36.5t-50.5 -12.5q-43 0 -66.5 3t-54.5 18.5t-59 46.5l-74 80l-116 -80q-54 -37 -98.5 -52.5t-96.5 -15.5q-65 0 -65 47q0 32 34 66l168 162
q69 69 160 69h90q104 0 143 -77z" />
    <glyph glyph-name="Ycircumflex" unicode="&#x176;" horiz-adv-x="1331" 
d="M803 524l-103 -379q-20 -74 -67 -115.5t-109 -41.5q-80 0 -116.5 55t-10.5 150l97 360l-258 625q-31 78 -31 118q0 64 48 107t122 43q58 0 94 -30.5t59 -92.5l183 -492l479 527q84 90 170 90q61 0 96 -34.5t35 -94.5q0 -68 -53 -125zM1159 1800l78 -151q27 -49 27 -66
q0 -24 -19.5 -36.5t-50.5 -12.5q-43 0 -66.5 3t-54.5 18.5t-59 46.5l-74 79l-117 -79q-54 -37 -98 -52.5t-96 -15.5q-30 0 -48 12t-18 35q0 31 35 66l168 161q70 70 160 70h90q103 0 143 -78z" />
    <glyph glyph-name="ycircumflex" unicode="&#x177;" horiz-adv-x="1212" 
d="M127 -55q66 -17 92 -17q57 0 107 66l-131 897q-7 40 -7 74q0 61 45.5 103t110.5 42q64 0 106.5 -36t45.5 -97l63 -633l385 668q55 98 158 98q61 0 98 -32.5t37 -88.5q0 -41 -41 -106l-569 -910q-105 -167 -207.5 -237t-237.5 -70q-95 0 -147 23q-94 40 -94 135
q0 56 37 95.5t85 39.5q10 0 64 -14zM1016 1473l78 -152q26 -47 26 -66q0 -24 -19 -36.5t-50 -12.5q-32 0 -50.5 1.5t-43 7.5t-45.5 20.5t-42 38.5l-73 80l-117 -80q-54 -37 -98.5 -52.5t-96.5 -15.5q-65 0 -65 47q0 31 35 66l168 162q69 69 159 69h90q105 0 144 -77z" />
    <glyph glyph-name="Ydieresis" unicode="&#x178;" horiz-adv-x="1331" 
d="M803 524l-103 -379q-20 -74 -67 -115.5t-109 -41.5q-80 0 -116.5 55t-10.5 150l97 360l-258 625q-31 78 -31 118q0 64 48 107t122 43q58 0 94 -30.5t59 -92.5l183 -492l479 527q84 90 170 90q61 0 96 -34.5t35 -94.5q0 -68 -53 -125zM881 1681q-13 -68 -65 -107.5
t-122 -39.5q-71 0 -110.5 41.5t-24.5 105.5l2 9q13 66 65.5 105.5t121.5 39.5q68 0 107.5 -42.5t27.5 -102.5zM1319 1681q-13 -68 -64.5 -107.5t-121.5 -39.5q-71 0 -111 41.5t-25 105.5l2 9q13 66 65.5 105.5t121.5 39.5q68 0 107.5 -42.5t27.5 -102.5z" />
    <glyph glyph-name="Zacute" unicode="&#x179;" horiz-adv-x="1411" 
d="M72 283l960 874h-573q-57 0 -98.5 40t-41.5 97t41.5 98.5t98.5 41.5h911q63 0 100 -33t37 -90v-4q0 -73 -86 -156l-960 -875h606q57 0 98 -41t41 -98t-41 -97t-98 -40h-944q-63 0 -100 33t-37 90v4q0 73 86 156zM1317 1720l-160 -118q-91 -68 -182 -68q-39 0 -62.5 15
t-23.5 42q0 29 26 58l156 172q32 34 57 50.5t60 16.5q60 0 117 -31t57 -69q0 -34 -45 -68z" />
    <glyph glyph-name="zacute" unicode="&#x17a;" horiz-adv-x="1140" 
d="M338 1098h684q65 0 102 -30.5t37 -84.5v-2q0 -74 -76 -139l-677 -590h409q53 0 90 -37t37 -90q0 -52 -37 -88.5t-90 -36.5h-706q-65 0 -102.5 30.5t-37.5 84.5v2q0 74 76 139l676 590h-385q-53 0 -90 36.5t-37 88.5q0 53 37.5 90t89.5 37zM1085 1393l-159 -119
q-91 -68 -183 -68q-39 0 -62.5 15.5t-23.5 42.5t27 57l156 172q22 24 35 35.5t35 22t46 10.5q60 0 117 -31.5t57 -69.5q0 -33 -45 -67z" />
    <glyph glyph-name="Zdotaccent" unicode="&#x17b;" horiz-adv-x="1411" 
d="M72 283l960 874h-573q-57 0 -98.5 40t-41.5 97t41.5 98.5t98.5 41.5h911q63 0 100 -33t37 -90v-4q0 -73 -86 -156l-960 -875h606q57 0 98 -41t41 -98t-41 -97t-98 -40h-944q-63 0 -100 33t-37 90v4q0 73 86 156zM1149 1681q-13 -67 -66.5 -107t-124.5 -40q-72 0 -113 42
t-26 105l2 9q13 66 67.5 105.5t123.5 39.5q68 0 109.5 -42.5t29.5 -102.5z" />
    <glyph glyph-name="zdotaccent" unicode="&#x17c;" horiz-adv-x="1140" 
d="M338 1098h684q65 0 102 -30.5t37 -84.5v-2q0 -74 -76 -139l-677 -590h409q53 0 90 -37t37 -90q0 -52 -37 -88.5t-90 -36.5h-706q-65 0 -102.5 30.5t-37.5 84.5v2q0 74 76 139l676 590h-385q-53 0 -90 36.5t-37 88.5q0 53 37.5 90t89.5 37zM920 1354q-13 -68 -66.5 -108
t-124.5 -40q-72 0 -113 42t-26 106l2 8q13 66 67 105.5t123 39.5q68 0 110 -42.5t30 -102.5z" />
    <glyph glyph-name="Zcaron" unicode="&#x17d;" horiz-adv-x="1411" 
d="M72 283l960 874h-573q-57 0 -98.5 40t-41.5 97t41.5 98.5t98.5 41.5h911q63 0 100 -33t37 -90v-4q0 -73 -86 -156l-960 -875h606q57 0 98 -41t41 -98t-41 -97t-98 -40h-944q-63 0 -100 33t-37 90v4q0 73 86 156zM776 1614l-78 151q-26 47 -26 66q0 24 19 36.5t50 12.5
q32 0 50.5 -1.5t43 -7.5t45.5 -20.5t42 -38.5l73 -79l117 79q54 37 98.5 52.5t96.5 15.5q65 0 65 -47q0 -31 -35 -66l-168 -161q-70 -70 -159 -70h-90q-104 0 -144 78z" />
    <glyph glyph-name="zcaron" unicode="&#x17e;" horiz-adv-x="1140" 
d="M338 1098h684q65 0 102 -30.5t37 -84.5v-2q0 -74 -76 -139l-677 -590h409q53 0 90 -37t37 -90q0 -52 -37 -88.5t-90 -36.5h-706q-65 0 -102.5 30.5t-37.5 84.5v2q0 74 76 139l676 590h-385q-53 0 -90 36.5t-37 88.5q0 53 37.5 90t89.5 37zM547 1286l-78 152
q-27 49 -27 65q0 24 19.5 36.5t50.5 12.5q44 0 66.5 -2.5t54 -18t59.5 -46.5l74 -80l117 80q54 37 98 52t96 15q30 0 48 -12t18 -35q0 -30 -35 -65l-168 -162q-70 -70 -160 -70h-90q-103 0 -143 78z" />
    <glyph glyph-name="florin" unicode="&#x192;" horiz-adv-x="1112" 
d="M125 -25q-70 0 -118 34t-48 100q0 61 42 91.5t97 32.5q52 2 90 33t68 99l152 340h-5q-47 0 -82.5 36.5t-35.5 89.5q0 54 37.5 92t91.5 38h108l78 176q68 154 185.5 236.5t261.5 82.5q64 0 104 -10q104 -24 104 -123q0 -64 -43 -100t-94 -31q-16 2 -61 2q-61 0 -111.5 -39
t-81.5 -108l-39 -86h90q54 0 91.5 -38t37.5 -92t-37.5 -90t-91.5 -36h-204l-193 -435q-130 -295 -393 -295z" />
    <glyph glyph-name="Aringacute" unicode="&#x1fa;" horiz-adv-x="1566" 
d="M104 -12q-61 0 -95 33.5t-34 89.5q0 55 37 104l856 1200q-55 55 -55 148q0 111 80 192.5t194 81.5q102 0 164 -61t62 -152q0 -69 -32.5 -129.5t-88.5 -97.5l209 -1176q10 -72 10 -82q0 -62 -46.5 -106.5t-115.5 -44.5q-64 0 -104.5 34.5t-48.5 90.5l-33 209h-635
l-164 -236q-69 -98 -160 -98zM621 600h397l-74 473zM1042 1462q61 0 100.5 48.5t39.5 111.5q0 44 -27 73t-72 29q-61 0 -100 -48t-39 -111q0 -44 26.5 -73.5t71.5 -29.5zM1503 2058l-160 -119q-90 -67 -182 -67q-39 0 -62.5 15t-23.5 42q0 28 27 58l155 172q32 34 57 50.5
t60 16.5q60 0 117 -31t57 -69q0 -34 -45 -68z" />
    <glyph glyph-name="aringacute" unicode="&#x1fb;" horiz-adv-x="1204" 
d="M795 -12q-142 0 -133 139q-138 -147 -328 -147q-142 0 -231 82.5t-89 211.5q0 185 133.5 290.5t339.5 105.5q155 0 310 -49l4 14q12 50 12 82q0 129 -207 129q-95 0 -190 -25q-36 -8 -51 -8q-53 0 -88 35.5t-35 89.5q0 44 26.5 76t67.5 45q158 51 336 51
q219 0 331.5 -87.5t112.5 -250.5q0 -72 -24 -166l-123 -461q-20 -75 -66 -116t-108 -41zM807 1214q-102 0 -163.5 60.5t-61.5 152.5q0 112 80 193.5t194 81.5q102 0 163.5 -60.5t61.5 -152.5q0 -112 -80 -193.5t-194 -81.5zM1245 1937l-160 -118q-91 -68 -182 -68
q-39 0 -62.5 15t-23.5 42q0 28 27 58l155 172q32 34 57 50.5t60 16.5q60 0 117 -31t57 -69q0 -34 -45 -68zM467 193q94 0 171.5 64.5t104.5 156.5l9 28q-103 39 -205 39q-98 0 -160.5 -47t-62.5 -125q0 -52 39 -84t104 -32zM811 1327q61 0 100 48.5t39 111.5q0 44 -26.5 73
t-71.5 29q-61 0 -100 -48t-39 -111q0 -44 26.5 -73.5t71.5 -29.5z" />
    <glyph glyph-name="AEacute" unicode="&#x1fc;" horiz-adv-x="2166" 
d="M696 600h336l150 561h-39zM1149 1434h969q58 0 99.5 -41.5t41.5 -100.5q0 -58 -41 -98.5t-100 -40.5h-625l-78 -293h457q59 0 100 -40.5t41 -98.5t-41 -97.5t-100 -39.5h-533l-82 -303h562q58 0 99.5 -41.5t41.5 -100.5q0 -58 -41 -98.5t-100 -40.5h-768q-80 0 -117 55.5
t-10 149.5l32 117h-483l-194 -244q-38 -46 -72.5 -68t-79.5 -22q-57 0 -89 30.5t-32 81.5q0 63 47 121l887 1098q92 115 209 115zM1853 1720l-159 -118q-91 -68 -183 -68q-39 0 -62.5 15t-23.5 42q0 28 27 58l156 172q22 23 35 35t35 22t46 10q60 0 117 -31t57 -69
q0 -34 -45 -68z" />
    <glyph glyph-name="aeacute" unicode="&#x1fd;" horiz-adv-x="1925" 
d="M1866 690q0 -52 -13 -112q-31 -138 -149 -138h-645q8 -101 69.5 -158t180.5 -57q93 0 170 43q56 29 94 29q50 0 83.5 -33.5t33.5 -85.5q0 -65 -60 -104q-151 -99 -356 -99q-142 0 -249.5 53.5t-168.5 157.5q-200 -206 -491 -206q-166 0 -258.5 80t-92.5 214
q0 185 133.5 290.5t339.5 105.5q155 0 310 -49l4 14q12 50 12 82q0 129 -207 129q-95 0 -190 -25q-36 -8 -51 -8q-53 0 -88 35.5t-35 89.5q0 44 26.5 76t67.5 45q158 51 336 51q268 0 360 -162q170 170 395 170q201 0 320 -120.5t119 -307.5zM547 481q-98 0 -160.5 -47
t-62.5 -125q0 -53 42 -84.5t121 -31.5q75 0 163 37t153 102q-9 43 -12 94q-124 55 -244 55zM1487 1393l-160 -119q-91 -68 -182 -68q-39 0 -62.5 15.5t-23.5 42.5q0 28 26 57l156 172q22 23 35.5 35t35.5 22.5t46 10.5q60 0 117 -31.5t57 -69.5q0 -33 -45 -67zM1085 635h478
q10 33 10 72q0 72 -44.5 116.5t-135.5 44.5q-104 0 -186.5 -63.5t-121.5 -169.5z" />
    <glyph glyph-name="Oslashacute" unicode="&#x1fe;" horiz-adv-x="1703" 
d="M453 631q0 -90 26 -158l738 623q-99 86 -254 86q-108 0 -205.5 -51t-163 -131.5t-103.5 -178t-38 -190.5zM829 252q108 0 205.5 51t163 131.5t103.5 178t38 190.5q0 74 -20 133l-729 -614q92 -70 239 -70zM354 123l-121 -103q-54 -43 -96 -43q-43 0 -67.5 25.5
t-24.5 63.5q0 28 16.5 51t47.5 51l118 102q-90 146 -90 340q0 160 63.5 313t174 271.5t274 191t350.5 72.5q270 0 453 -162l139 117q54 43 97 43t67.5 -25t24.5 -63q0 -28 -16.5 -51t-47.5 -51l-141 -123q80 -144 80 -320q0 -160 -63.5 -313t-174 -271.5t-274 -191
t-350.5 -72.5q-257 0 -439 148zM1507 1741l-159 -119q-91 -68 -183 -68q-39 0 -62.5 15.5t-23.5 42.5t27 57l156 172q22 24 35 35.5t35 22t46 10.5q60 0 117 -31.5t57 -69.5q0 -33 -45 -67z" />
    <glyph glyph-name="oslashacute" unicode="&#x1ff;" horiz-adv-x="1335" 
d="M629 231q91 0 167.5 58t117 143t40.5 170q0 42 -10 90l-450 -432q60 -29 135 -29zM381 492q0 -41 6 -78l442 424q-49 24 -122 24q-90 0 -167 -58.5t-118 -143t-41 -168.5zM291 66l-47 -46q-49 -43 -97 -43q-41 0 -66.5 24t-25.5 60q0 48 49 93l56 51q-74 118 -74 278
q0 121 50.5 237t134.5 203.5t202.5 141t247.5 53.5q179 0 309 -84l45 43q49 43 96 43q41 0 67 -24t26 -60q0 -46 -50 -92l-47 -43q82 -127 82 -291q0 -121 -50.5 -237t-134.5 -203.5t-202.5 -141t-247.5 -53.5q-186 0 -323 91zM1206 1393l-159 -119q-91 -68 -183 -68
q-39 0 -62.5 15.5t-23.5 42.5t27 57l156 172q22 24 35 35.5t35 22t46 10.5q60 0 117 -31.5t57 -69.5q0 -33 -45 -67z" />
    <glyph glyph-name="Scommaaccent" unicode="&#x218;" horiz-adv-x="1302" 
d="M618 256q96 0 158 41.5t62 108.5q0 53 -50 91.5t-194 96.5q-62 25 -109 49t-95 59t-78.5 73.5t-50 91.5t-19.5 114q0 107 45.5 197t123.5 150t181.5 93t218.5 33q151 0 251 -34t185 -93q74 -53 74 -131q0 -65 -45.5 -109.5t-110.5 -44.5q-51 0 -86 27q-73 57 -140.5 83
t-152.5 26q-95 0 -151.5 -44t-56.5 -102q0 -55 49 -90t202 -98q64 -26 112 -51t94 -59.5t75 -73t46.5 -90.5t17.5 -113q0 -145 -80.5 -255.5t-208.5 -166t-281 -55.5q-147 0 -288 37.5t-242 125.5q-62 51 -62 131q0 68 44 114t110 46q51 0 100 -39q92 -76 170 -107.5
t182 -31.5zM408 -367q-115 23 -115 107q0 59 46 100t114 41q66 0 103.5 -38t37.5 -105q0 -59 -27 -119t-73 -106q-56 -56 -128 -88.5t-139 -32.5q-57 0 -57 45q0 43 63 55q156 28 175 141z" />
    <glyph glyph-name="scommaaccent" unicode="&#x219;" 
d="M467 213q62 0 96.5 25t34.5 71q0 29 -31.5 52t-95.5 51q-63 27 -100.5 45.5t-84.5 48.5t-72.5 60t-43.5 73t-18 94q0 168 120 276.5t320 108.5q185 0 350 -98q72 -42 72 -115q0 -56 -37.5 -94.5t-91.5 -38.5q-32 0 -82 31q-119 78 -234 78q-57 0 -88.5 -25t-31.5 -68
q0 -30 34 -55t111 -59q53 -23 87.5 -40.5t79 -47t70.5 -59t45 -72.5t19 -93q0 -177 -125.5 -282t-325.5 -105q-115 0 -224 37.5t-197 100.5q-56 41 -56 106q0 54 36.5 92.5t88.5 38.5q46 0 82 -28q138 -109 293 -109zM262 -356q-115 23 -115 106q0 59 46 100t114 41
q66 0 104 -38t38 -105q0 -59 -27 -118.5t-74 -106.5q-57 -57 -128 -89t-138 -32q-57 0 -57 45q0 43 63 55q155 27 174 142z" />
    <glyph glyph-name="schwa" unicode="&#x259;" horiz-adv-x="1243" 
d="M616 872q-93 0 -170 -43q-54 -28 -94 -28q-50 0 -83 33.5t-33 85.5q0 65 59 104q149 98 356 98q236 0 372 -130t136 -357q0 -95 -29.5 -189.5t-87 -178t-135 -148t-181.5 -102t-218 -37.5q-209 0 -329 120t-120 308q0 52 13 112q30 137 149 137h645q-8 101 -69.5 158
t-180.5 57zM840 463h-478q-10 -33 -10 -72q0 -72 44.5 -117t135.5 -45q104 0 186.5 64t121.5 170z" />
    <glyph glyph-name="circumflex" unicode="&#x2c6;" 
d="M961 1473l77 -152q27 -49 27 -66q0 -24 -19.5 -36.5t-50.5 -12.5q-43 0 -66.5 3t-54.5 18.5t-59 46.5l-74 80l-116 -80q-54 -37 -98.5 -52.5t-96.5 -15.5q-65 0 -65 47q0 32 34 66l168 162q69 69 160 69h90q105 0 144 -77z" />
    <glyph glyph-name="caron" unicode="&#x2c7;" 
d="M502 1286l-78 152q-27 49 -27 65q0 24 19.5 36.5t50.5 12.5q44 0 66.5 -2.5t54 -18t59.5 -46.5l74 -80l117 80q54 37 98 52t96 15q30 0 48 -12t18 -35q0 -30 -35 -65l-168 -162q-70 -70 -160 -70h-90q-103 0 -143 78z" />
    <glyph glyph-name="breve" unicode="&#x2d8;" 
d="M735 1214q-146 0 -239 76.5t-93 167.5q0 41 31 67.5t76 26.5q71 0 98 -53q47 -82 150 -82q82 0 157 82q50 53 107 53q43 0 67.5 -23.5t24.5 -64.5q0 -37 -29 -73q-144 -177 -350 -177z" />
    <glyph glyph-name="dotaccent" unicode="&#x2d9;" 
d="M895 1354q-13 -68 -66.5 -108t-123.5 -40q-72 0 -113.5 42.5t-26.5 105.5l2 8q13 66 67.5 105.5t123.5 39.5q68 0 109.5 -42.5t29.5 -102.5z" />
    <glyph glyph-name="ring" unicode="&#x2da;" 
d="M731 1214q-102 0 -163.5 60.5t-61.5 152.5q0 112 80 193.5t194 81.5q102 0 164 -61t62 -152q0 -111 -80.5 -193t-194.5 -82zM735 1327q61 0 100 48.5t39 111.5q0 44 -26.5 73t-71.5 29q-61 0 -100 -48t-39 -111q0 -44 26.5 -73.5t71.5 -29.5z" />
    <glyph glyph-name="ogonek" unicode="&#x2db;" 
d="M389 -344q-101 0 -159 36t-58 101q0 97 154 227h198q-60 -60 -85 -95t-25 -66q0 -22 14 -33t47 -21q36 -11 51.5 -26.5t14.5 -44.5q-3 -78 -152 -78z" />
    <glyph glyph-name="tilde" unicode="&#x2dc;" 
d="M391 1212q-37 0 -61.5 23.5t-24.5 58.5q0 29 17 60q53 93 124.5 149t153.5 56q50 0 85.5 -15t76.5 -45q43 -31 64 -42t44 -11q58 0 111 65q21 25 41 36.5t51 11.5q37 0 61.5 -23.5t24.5 -58.5q0 -31 -16 -60q-52 -93 -124.5 -149t-154.5 -56q-49 0 -84 14.5t-78 45.5
t-64 42t-44 11q-58 0 -111 -65q-21 -25 -41 -36.5t-51 -11.5z" />
    <glyph glyph-name="hungarumlaut" unicode="&#x2dd;" 
d="M614 1561q57 0 101.5 -30.5t44.5 -70.5q0 -33 -45 -67l-160 -119q-91 -68 -166 -68q-33 0 -53.5 15.5t-20.5 42.5t27 57l156 172q22 24 35 35.5t35 22t46 10.5zM1016 1561q57 0 101 -30.5t44 -70.5q0 -33 -45 -67l-160 -119q-91 -68 -165 -68q-33 0 -53.5 15.5
t-20.5 42.5q0 28 26 57l156 172q22 23 35.5 35t35.5 22.5t46 10.5z" />
    <glyph glyph-name="commaaccent" unicode="&#x326;" 
d="M266 -356q-114 23 -114 106q0 59 45.5 100t113.5 41q66 0 104 -38t38 -105q0 -59 -27 -118.5t-74 -106.5q-57 -57 -128 -89t-138 -32q-57 0 -57 45q0 43 63 55q155 27 174 142z" />
    <glyph glyph-name="Wgrave" unicode="&#x1e80;" horiz-adv-x="2269" 
d="M2357 1233l-706 -1129q-78 -127 -211 -127h-15q-66 0 -104 35.5t-41 104.5l-61 792l-492 -805q-77 -127 -205 -127h-14q-65 0 -103.5 36t-44.5 104l-98 1110q-4 46 -4 73q0 62 46.5 104t117.5 42q69 0 111 -35t45 -96l53 -852l512 862q36 61 79 93t103 32h18
q66 0 102.5 -32.5t41.5 -92.5l57 -862l524 878q64 105 168 105q66 0 107 -35t41 -94q0 -39 -27 -84zM1212 1602l-94 118q-28 40 -28 66q0 37 56.5 69.5t115.5 32.5q81 0 108 -76l62 -167q8 -24 8 -43q0 -31 -26.5 -49.5t-72.5 -18.5q-45 0 -71 13.5t-58 54.5z" />
    <glyph glyph-name="wgrave" unicode="&#x1e81;" horiz-adv-x="1755" 
d="M215 119l-45 772q-4 46 -4 74q0 60 49 102.5t111 42.5q68 0 111 -35t44 -96l15 -547l319 555q71 125 182 125h17q62 0 99 -33t40 -92l25 -557l335 588q24 42 62 67t84 25q59 0 92 -31t33 -86q0 -42 -25 -84l-481 -803q-74 -126 -203 -126h-10q-65 0 -101.5 35.5
t-39.5 103.5l-27 547l-328 -560q-73 -126 -202 -126h-11q-135 0 -141 139zM879 1274l-95 119q-28 40 -28 65q0 37 56.5 70t115.5 33q81 0 108 -76l62 -168q8 -24 8 -43q0 -31 -26.5 -49.5t-71.5 -18.5t-71 13.5t-58 54.5z" />
    <glyph glyph-name="Wacute" unicode="&#x1e82;" horiz-adv-x="2269" 
d="M2357 1233l-706 -1129q-78 -127 -211 -127h-15q-66 0 -104 35.5t-41 104.5l-61 792l-492 -805q-77 -127 -205 -127h-14q-65 0 -103.5 36t-44.5 104l-98 1110q-4 46 -4 73q0 62 46.5 104t117.5 42q69 0 111 -35t45 -96l53 -852l512 862q36 61 79 93t103 32h18
q66 0 102.5 -32.5t41.5 -92.5l57 -862l524 878q64 105 168 105q66 0 107 -35t41 -94q0 -39 -27 -84zM1745 1720l-160 -118q-91 -68 -182 -68q-39 0 -62.5 15t-23.5 42q0 29 26 58l156 172q32 34 57 50.5t60 16.5q60 0 117 -31t57 -69q0 -34 -45 -68z" />
    <glyph glyph-name="wacute" unicode="&#x1e83;" horiz-adv-x="1755" 
d="M215 119l-45 772q-4 46 -4 74q0 60 49 102.5t111 42.5q68 0 111 -35t44 -96l15 -547l319 555q71 125 182 125h17q62 0 99 -33t40 -92l25 -557l335 588q24 42 62 67t84 25q59 0 92 -31t33 -86q0 -42 -25 -84l-481 -803q-74 -126 -203 -126h-10q-65 0 -101.5 35.5
t-39.5 103.5l-27 547l-328 -560q-73 -126 -202 -126h-11q-135 0 -141 139zM1411 1393l-160 -119q-91 -68 -182 -68q-39 0 -62.5 15.5t-23.5 42.5t27 57l155 172q22 23 35.5 35t35.5 22.5t46 10.5q60 0 117 -31.5t57 -69.5q0 -33 -45 -67z" />
    <glyph glyph-name="Wdieresis" unicode="&#x1e84;" horiz-adv-x="2269" 
d="M2357 1233l-706 -1129q-78 -127 -211 -127h-15q-66 0 -104 35.5t-41 104.5l-61 792l-492 -805q-77 -127 -205 -127h-14q-65 0 -103.5 36t-44.5 104l-98 1110q-4 46 -4 73q0 62 46.5 104t117.5 42q69 0 111 -35t45 -96l53 -852l512 862q36 61 79 93t103 32h18
q66 0 102.5 -32.5t41.5 -92.5l57 -862l524 878q64 105 168 105q66 0 107 -35t41 -94q0 -39 -27 -84zM1354 1681q-13 -68 -65 -107.5t-122 -39.5q-71 0 -110.5 41.5t-24.5 105.5l2 9q13 66 65.5 105.5t121.5 39.5q68 0 107.5 -42.5t27.5 -102.5zM1792 1681
q-13 -68 -64.5 -107.5t-121.5 -39.5q-71 0 -111 41.5t-25 105.5l3 9q13 66 65 105.5t121 39.5q68 0 107.5 -42.5t27.5 -102.5z" />
    <glyph glyph-name="wdieresis" unicode="&#x1e85;" horiz-adv-x="1755" 
d="M215 119l-45 772q-4 46 -4 74q0 60 49 102.5t111 42.5q68 0 111 -35t44 -96l15 -547l319 555q71 125 182 125h17q62 0 99 -33t40 -92l25 -557l335 588q24 42 62 67t84 25q59 0 92 -31t33 -86q0 -42 -25 -84l-481 -803q-74 -126 -203 -126h-10q-65 0 -101.5 35.5
t-39.5 103.5l-27 547l-328 -560q-73 -126 -202 -126h-11q-135 0 -141 139zM1022 1354q-13 -68 -64.5 -108t-121.5 -40q-71 0 -111 42t-25 106l2 8q13 66 65.5 105.5t121.5 39.5q68 0 107.5 -42.5t27.5 -102.5zM1460 1354q-13 -68 -64.5 -108t-121.5 -40q-71 0 -110.5 42
t-24.5 106l2 8q13 66 65 105.5t121 39.5q68 0 107.5 -42.5t27.5 -102.5z" />
    <glyph glyph-name="Ygrave" unicode="&#x1ef2;" horiz-adv-x="1331" 
d="M803 524l-103 -379q-20 -74 -67 -115.5t-109 -41.5q-80 0 -116.5 55t-10.5 150l97 360l-258 625q-31 78 -31 118q0 64 48 107t122 43q58 0 94 -30.5t59 -92.5l183 -492l479 527q84 90 170 90q61 0 96 -34.5t35 -94.5q0 -68 -53 -125zM739 1602l-94 118q-29 42 -29 66
q0 37 56.5 69.5t115.5 32.5q82 0 109 -76l61 -167q9 -27 9 -43q0 -31 -26.5 -49.5t-72.5 -18.5q-45 0 -71 13.5t-58 54.5z" />
    <glyph glyph-name="ygrave" unicode="&#x1ef3;" horiz-adv-x="1212" 
d="M127 -55q66 -17 92 -17q57 0 107 66l-131 897q-7 40 -7 74q0 61 45.5 103t110.5 42q64 0 106.5 -36t45.5 -97l63 -633l385 668q55 98 158 98q61 0 98 -32.5t37 -88.5q0 -41 -41 -106l-569 -910q-105 -167 -207.5 -237t-237.5 -70q-95 0 -147 23q-94 40 -94 135
q0 56 37 95.5t85 39.5q10 0 64 -14zM596 1274l-94 119q-29 42 -29 65q0 37 56.5 70t115.5 33q82 0 109 -76l61 -168q8 -24 8 -43q0 -31 -26.5 -49.5t-71.5 -18.5t-71 13.5t-58 54.5z" />
    <glyph glyph-name="enspace" unicode="&#x2002;" 
 />
    <glyph glyph-name="emspace" unicode="&#x2003;" horiz-adv-x="2048" 
 />
    <glyph glyph-name="threeperemspace" unicode="&#x2004;" horiz-adv-x="681" 
 />
    <glyph glyph-name="fourperemspace" unicode="&#x2005;" horiz-adv-x="512" 
 />
    <glyph glyph-name="thinspace" unicode="&#x2009;" horiz-adv-x="272" 
 />
    <glyph glyph-name="hairspace" unicode="&#x200a;" horiz-adv-x="153" 
 />
    <glyph glyph-name="endash" unicode="&#x2013;" horiz-adv-x="1087" 
d="M268 489q-62 0 -105.5 42.5t-43.5 103.5t43.5 103t105.5 42h600q62 0 106 -42t44 -103t-44 -103.5t-106 -42.5h-600z" />
    <glyph glyph-name="emdash" unicode="&#x2014;" horiz-adv-x="1845" 
d="M268 489q-62 0 -105.5 42.5t-43.5 103.5t43.5 103t105.5 42h1358q62 0 106 -42t44 -103t-44 -103.5t-106 -42.5h-1358z" />
    <glyph glyph-name="quoteleft" unicode="&#x2018;" horiz-adv-x="653" 
d="M690 1307q-97 -20 -151.5 -69t-61.5 -124q55 -15 83 -55.5t15 -108.5l-2 -10q-15 -74 -67 -120t-123 -46q-90 0 -128.5 61t-16.5 169l2 10q41 203 194 329q55 46 126 74.5t128 28.5q38 0 56 -19.5t18 -48.5q0 -55 -72 -71z" />
    <glyph glyph-name="quoteright" unicode="&#x2019;" horiz-adv-x="653" 
d="M217 913q97 20 151.5 69t61.5 124q-55 15 -83 55.5t-15 108.5l2 10q15 74 67 120t123 46q91 0 129.5 -61t16.5 -168l-2 -11q-41 -202 -195 -329q-55 -46 -126 -74.5t-128 -28.5q-38 0 -56 19.5t-18 48.5q0 55 72 71z" />
    <glyph glyph-name="quotesinglbase" unicode="&#x201a;" horiz-adv-x="653" 
d="M-66 -193q97 20 151.5 69t61.5 124q-55 15 -83 55.5t-15 108.5l2 10q15 74 67.5 120t123.5 46q90 0 128.5 -60.5t16.5 -168.5l-2 -11q-41 -202 -195 -329q-56 -46 -126 -74.5t-127 -28.5q-38 0 -56 19.5t-18 48.5q0 55 71 71z" />
    <glyph glyph-name="quotedblleft" unicode="&#x201c;" horiz-adv-x="1173" 
d="M907 772q-90 0 -128.5 60.5t-16.5 168.5l2 11q41 203 194 329q55 46 126 74.5t128 28.5q38 0 56 -19.5t18 -48.5q0 -55 -72 -71q-97 -20 -151.5 -69t-61.5 -124q55 -15 83.5 -55.5t15.5 -108.5l-2 -10q-15 -74 -67.5 -120t-123.5 -46zM387 772q-90 0 -128.5 60.5
t-16.5 168.5l2 11q41 203 194 329q55 46 126 74.5t128 28.5q38 0 56 -19.5t18 -48.5q0 -55 -72 -71q-97 -20 -151.5 -69t-61.5 -124q55 -15 83.5 -55.5t15.5 -108.5l-2 -10q-15 -74 -67.5 -120t-123.5 -46z" />
    <glyph glyph-name="quotedblright" unicode="&#x201d;" horiz-adv-x="1173" 
d="M217 913q97 20 151.5 69t61.5 124q-55 15 -83 55.5t-15 108.5l2 10q15 74 67 120t123 46q91 0 129.5 -61t16.5 -168l-2 -11q-41 -202 -195 -329q-55 -46 -126 -74.5t-128 -28.5q-38 0 -56 19.5t-18 48.5q0 55 72 71zM737 913q97 20 151.5 69t61.5 124q-55 15 -83 55.5
t-15 108.5l2 10q15 74 67 120t123 46q91 0 129.5 -61t16.5 -168l-2 -11q-41 -202 -195 -329q-55 -46 -126 -74.5t-128 -28.5q-38 0 -55.5 19t-17.5 49q0 55 71 71z" />
    <glyph glyph-name="quotedblbase" unicode="&#x201e;" horiz-adv-x="1173" 
d="M-66 -193q97 20 151.5 69t61.5 124q-55 15 -83 55.5t-15 108.5l2 10q15 74 67.5 120t123.5 46q90 0 128.5 -60.5t16.5 -168.5l-2 -11q-41 -202 -195 -329q-56 -46 -126 -74.5t-127 -28.5q-38 0 -56 19.5t-18 48.5q0 55 71 71zM455 -193q97 20 151.5 69t61.5 124
q-55 15 -83.5 55.5t-15.5 108.5l2 10q15 74 67.5 120t123.5 46q90 0 128.5 -60.5t16.5 -168.5l-2 -11q-41 -203 -194 -329q-55 -46 -126 -74.5t-128 -28.5q-38 0 -56 19.5t-18 48.5q0 55 72 71z" />
    <glyph glyph-name="dagger" unicode="&#x2020;" horiz-adv-x="843" 
d="M713 1325l-58 -156l154 13q36 3 61 -20.5t25 -57.5q0 -36 -25 -59.5t-63 -20.5l-189 16l-110 -481q-21 -84 -92 -84q-43 0 -63 29t-5 78l139 458l-151 -12q-39 -3 -63.5 20.5t-24.5 59.5q0 35 24.5 58t61.5 20l186 -17l31 185q7 45 32.5 68.5t63.5 23.5q50 0 68.5 -32
t-2.5 -89z" />
    <glyph glyph-name="daggerdbl" unicode="&#x2021;" horiz-adv-x="843" 
d="M553 717l-107 -324l150 13q39 3 63.5 -20.5t24.5 -59.5q0 -35 -24.5 -58t-61.5 -20l-184 16l-33 -184q-7 -45 -32.5 -68.5t-63.5 -23.5q-50 0 -68.5 32t2.5 89l60 155l-156 -12q-36 -3 -61 20.5t-25 57.5q0 36 25 59.5t63 20.5l186 -17l70 324l104 323l-149 -12
q-39 -3 -63.5 20.5t-24.5 59.5q0 35 24.5 58t61.5 20l186 -17l31 185q7 45 32.5 68.5t63.5 23.5q50 0 68.5 -32t-2.5 -89l-58 -156l154 13q36 3 61 -20.5t25 -57.5q0 -36 -25 -59.5t-63 -20.5l-186 16z" />
    <glyph glyph-name="bullet" unicode="&#x2022;" 
d="M504 410q-111 0 -174.5 64.5t-63.5 172.5q0 94 42 182.5t123 147.5t179 59q111 0 174.5 -64.5t63.5 -172.5q0 -94 -42 -182.5t-123 -147.5t-179 -59z" />
    <glyph glyph-name="ellipsis" unicode="&#x2026;" horiz-adv-x="1785" 
d="M399 154q-12 -74 -68 -120t-134 -46q-79 0 -122.5 47t-31.5 119l2 12q13 75 69 120.5t134 45.5q79 0 122 -47t31 -119zM971 154q-12 -74 -68.5 -120t-134.5 -46q-79 0 -122.5 47t-31.5 119l2 12q13 75 69 120.5t134 45.5q79 0 122.5 -47t31.5 -119zM1542 154
q-12 -74 -68.5 -120t-134.5 -46q-79 0 -122 47t-31 119l2 12q13 75 69 120.5t134 45.5q79 0 122 -47t31 -119z" />
    <glyph glyph-name="perthousand" unicode="&#x2030;" horiz-adv-x="2637" 
d="M487 709q-142 0 -228.5 87.5t-86.5 227.5q0 107 48.5 203.5t141.5 159.5t207 63q142 0 229 -87.5t87 -227.5q0 -107 -49 -203.5t-142 -159.5t-207 -63zM1321 -16q-142 0 -228.5 87.5t-86.5 227.5q0 107 48.5 203.5t141.5 159.5t207 63q142 0 228.5 -87.5t86.5 -227.5
q0 -107 -48.5 -203.5t-141.5 -159.5t-207 -63zM500 887q80 0 132 75t52 164q0 67 -34 106.5t-93 39.5q-80 0 -132 -75.5t-52 -164.5q0 -67 34 -106t93 -39zM1333 162q80 0 132.5 75.5t52.5 163.5q0 67 -34 106.5t-93 39.5q-80 0 -132.5 -75.5t-52.5 -164.5q0 -67 34 -106
t93 -39zM2157 -16q-142 0 -229 87.5t-87 227.5q0 107 48.5 203.5t141.5 159.5t207 63q142 0 229 -87.5t87 -227.5q0 -107 -48.5 -203.5t-141.5 -159.5t-207 -63zM2169 162q80 0 132 75t52 164q0 67 -34 106.5t-93 39.5q-80 0 -132 -75.5t-52 -164.5q0 -67 34 -106t93 -39z
M1618 1278l-1202 -1251q-39 -39 -84 -39q-40 0 -67 25.5t-27 64.5q0 44 34 78l1203 1251q39 39 84 39q40 0 67 -25.5t27 -64.5q0 -43 -35 -78z" />
    <glyph glyph-name="guilsinglleft" unicode="&#x2039;" horiz-adv-x="763" 
d="M150 590l346 342q65 61 118 61t85 -30t32 -82q0 -60 -43 -97l-299 -282l123 -234q20 -41 20 -80q0 -53 -38 -89t-93 -36q-47 0 -73.5 18.5t-46.5 57.5l-140 277q-1 3 -10 20.5t-12 24t-6.5 20t-3.5 25.5q0 46 41 84z" />
    <glyph glyph-name="guilsinglright" unicode="&#x203a;" horiz-adv-x="763" 
d="M608 487l-346 -342q-65 -61 -119 -61q-53 0 -84.5 30.5t-31.5 82.5q0 59 43 96l299 282l-123 234q-21 43 -21 80q0 53 38 89t93 36q47 0 74 -18.5t47 -57.5l139 -276l10.5 -21l12 -24t7 -20.5t3.5 -25.5q0 -46 -41 -84z" />
    <glyph glyph-name="fraction" unicode="&#x2044;" horiz-adv-x="1064" 
d="M1253 1352l-1206 -1485q-32 -41 -60.5 -60.5t-64.5 -19.5q-41 0 -68.5 26t-27.5 74q0 51 53 113l1206 1485q32 41 60.5 60.5t64.5 19.5q41 0 69 -26.5t28 -74.5q0 -49 -54 -112z" />
    <glyph glyph-name="Euro" unicode="&#x20ac;" horiz-adv-x="1474" 
d="M698 997h277q43 0 73.5 -30.5t30.5 -73.5t-30.5 -72.5t-73.5 -29.5h-354q-21 -60 -35 -140h297q43 0 73.5 -30.5t30.5 -73.5t-30.5 -73t-73.5 -30h-299q20 -90 82 -137t151 -47q136 0 240 96q42 39 98 39q63 0 106.5 -38.5t43.5 -98.5q0 -65 -60 -117
q-193 -166 -434 -166q-232 0 -380.5 126.5t-176.5 342.5h-86q-43 0 -74 30t-31 73t31 73.5t74 30.5h90q9 72 27 140h-25q-43 0 -73.5 29.5t-30.5 72.5t30.5 73.5t73.5 30.5h86q93 209 267.5 335t402.5 126q171 0 279 -54.5t178 -154.5q43 -62 43 -112q0 -65 -45.5 -107.5
t-114.5 -42.5q-77 0 -119 60q-17 25 -29 40t-33 33.5t-43.5 29t-56.5 17.5t-76 7q-191 0 -301 -177z" />
    <glyph glyph-name="published" unicode="&#x2117;" horiz-adv-x="1699" 
d="M891 -25q-153 0 -290.5 59t-235.5 158.5t-155.5 235.5t-57.5 285v4q0 149 58 285.5t157 236.5t237 159.5t291 59.5t290.5 -59t235.5 -158t155.5 -235t57.5 -285v-4q0 -149 -58 -285.5t-157 -237t-237 -160t-291 -59.5zM891 57q138 0 260.5 52.5t209 141.5t137 210.5
t50.5 255.5v4q0 179 -84.5 329t-235 238t-333.5 88q-138 0 -260.5 -52.5t-209 -141t-137 -210t-50.5 -255.5v-4q0 -134 50 -255t136 -209t208 -140t259 -52zM621 412v624q0 37 25.5 62.5t62.5 25.5h235q140 0 221.5 -74.5t81.5 -197.5v-4q0 -130 -90.5 -202.5t-228.5 -72.5
h-131v-161q0 -37 -25.5 -62.5t-62.5 -25.5t-62.5 25.5t-25.5 62.5zM797 727h135q63 0 100 33.5t37 85.5v4q0 56 -38 87.5t-103 31.5h-131v-242z" />
    <glyph glyph-name="servicemark" unicode="&#x2120;" horiz-adv-x="1439" 
d="M1466 1442h13q34 0 48.5 -25t4.5 -67l-131 -486q-18 -69 -76 -69q-35 0 -50 24t-3 66l78 293l-160 -170q-32 -37 -74 -37q-43 0 -61 43l-64 166l-86 -316q-18 -69 -76 -69q-36 0 -50.5 24t-2.5 66l131 485q7 34 27.5 53t48.5 19h12q42 0 64 -53l100 -263l225 271
q39 45 82 45zM213 985q26 0 49 -20q75 -62 162 -62q47 0 76.5 20.5t29.5 55.5q0 27 -22.5 45t-91.5 45q-88 34 -125 72.5t-37 97.5q0 93 72 150t182 57q119 0 192 -57q33 -26 33 -58q0 -26 -17.5 -43.5t-43.5 -17.5t-45 16q-61 47 -133 47q-49 0 -77 -20t-28 -51
q0 -26 23.5 -46t97.5 -49q83 -32 118.5 -68.5t35.5 -97.5q0 -97 -72.5 -153.5t-181.5 -56.5q-137 0 -234 77q-26 23 -26 54q0 26 18.5 44.5t44.5 18.5z" />
    <glyph glyph-name="trademark" unicode="&#x2122;" horiz-adv-x="1433" 
d="M561 1307l-119 -447q-9 -33 -31 -51t-51 -18q-35 0 -51 24t-6 66l115 426h-117q-28 0 -46.5 17.5t-18.5 43.5q0 28 18.5 47t46.5 19h412q28 0 46.5 -19t18.5 -47q0 -26 -18.5 -43.5t-46.5 -17.5h-152zM1460 1442h13q34 0 48.5 -25t4.5 -67l-131 -486q-18 -69 -76 -69
q-35 0 -50 24t-3 66l77 293l-159 -170q-32 -37 -74 -37q-43 0 -61 43l-64 166l-86 -316q-18 -69 -76 -69q-36 0 -50.5 24t-2.5 66l131 485q7 34 27.5 53t48.5 19h12q42 0 64 -53l100 -263l225 271q39 45 82 45z" />
    <glyph glyph-name="minus" unicode="&#x2212;" horiz-adv-x="1310" 
d="M1081 575h-768q-60 0 -101.5 42t-41.5 102t41.5 102.5t101.5 42.5h768q60 0 103 -42.5t43 -102.5t-43 -102t-103 -42z" />
    <glyph glyph-name="Q.alt" horiz-adv-x="1703" 
d="M1139 641l92 -147q96 148 96 309q0 164 -95.5 264t-268.5 100q-109 0 -204.5 -49t-158.5 -126.5t-99 -172t-36 -188.5q0 -164 95.5 -264.5t268.5 -100.5q96 0 181 37l-88 119q-18 25 -26.5 38t-18 38.5t-9.5 50.5q0 64 45 110t109 46q77 0 117 -64zM1212 0l-41 61
q-174 -86 -378 -86q-145 0 -268.5 49t-208 133.5t-132 201.5t-47.5 251q0 160 63.5 313t174 271.5t274 191t350.5 72.5q145 0 268.5 -49t208 -133.5t132 -201.5t47.5 -251q0 -163 -63.5 -316.5t-180.5 -273.5l27 -32q49 -57 49 -121q0 -63 -43 -105.5t-107 -42.5
q-82 0 -125 68z" />
    <glyph glyph-name="a.alt" horiz-adv-x="1380" 
d="M1032 938l4 14q19 70 62.5 114t109.5 44q80 0 115.5 -55t9.5 -150l-203 -760q-20 -75 -67 -116t-113 -41t-101.5 35.5t-35.5 95.5q-75 -70 -148 -104.5t-161 -34.5q-185 0 -303.5 126.5t-118.5 344.5q0 142 51.5 268t135.5 212.5t194 136.5t225 50q123 0 204.5 -46
t139.5 -134zM633 242q131 0 231.5 113t100.5 268q0 104 -66.5 168.5t-169.5 64.5q-129 0 -227.5 -111.5t-98.5 -273.5q0 -106 62.5 -167.5t167.5 -61.5z" />
    <glyph glyph-name="aacute.alt" horiz-adv-x="1380" 
d="M1032 938l4 14q19 70 62.5 114t109.5 44q80 0 115.5 -55t9.5 -150l-203 -760q-20 -75 -67 -116t-113 -41t-101.5 35.5t-35.5 95.5q-75 -70 -148 -104.5t-161 -34.5q-185 0 -303.5 126.5t-118.5 344.5q0 142 51.5 268t135.5 212.5t194 136.5t225 50q123 0 204.5 -46
t139.5 -134zM633 242q131 0 231.5 113t100.5 268q0 104 -66.5 168.5t-169.5 64.5q-129 0 -227.5 -111.5t-98.5 -273.5q0 -106 62.5 -167.5t167.5 -61.5zM1241 1393l-160 -119q-91 -68 -182 -68q-39 0 -62.5 15.5t-23.5 42.5t27 57l155 172q22 23 35.5 35t35.5 22.5t46 10.5
q60 0 117 -31.5t57 -69.5q0 -33 -45 -67z" />
    <glyph glyph-name="abreve.alt" horiz-adv-x="1380" 
d="M1032 938l4 14q19 70 62.5 114t109.5 44q80 0 115.5 -55t9.5 -150l-203 -760q-20 -75 -67 -116t-113 -41t-101.5 35.5t-35.5 95.5q-75 -70 -148 -104.5t-161 -34.5q-185 0 -303.5 126.5t-118.5 344.5q0 142 51.5 268t135.5 212.5t194 136.5t225 50q123 0 204.5 -46
t139.5 -134zM633 242q131 0 231.5 113t100.5 268q0 104 -66.5 168.5t-169.5 64.5q-129 0 -227.5 -111.5t-98.5 -273.5q0 -106 62.5 -167.5t167.5 -61.5zM909 1214q-146 0 -238.5 76.5t-92.5 167.5q0 41 30.5 67.5t75.5 26.5q71 0 98 -53q47 -82 150 -82q83 0 158 82
q25 27 48.5 40t57.5 13q43 0 67.5 -23.5t24.5 -64.5q0 -38 -28 -73q-62 -76 -150 -126.5t-201 -50.5z" />
    <glyph glyph-name="acircumflex.alt" horiz-adv-x="1380" 
d="M1032 938l4 14q19 70 62.5 114t109.5 44q80 0 115.5 -55t9.5 -150l-203 -760q-20 -75 -67 -116t-113 -41t-101.5 35.5t-35.5 95.5q-75 -70 -148 -104.5t-161 -34.5q-185 0 -303.5 126.5t-118.5 344.5q0 142 51.5 268t135.5 212.5t194 136.5t225 50q123 0 204.5 -46
t139.5 -134zM633 242q131 0 231.5 113t100.5 268q0 104 -66.5 168.5t-169.5 64.5q-129 0 -227.5 -111.5t-98.5 -273.5q0 -106 62.5 -167.5t167.5 -61.5zM1130 1473l78 -152q27 -49 27 -66q0 -24 -19.5 -36.5t-50.5 -12.5q-43 0 -66.5 3t-54.5 18.5t-59 46.5l-74 80l-116 -80
q-54 -37 -98.5 -52.5t-96.5 -15.5q-65 0 -65 47q0 32 34 66l168 162q69 69 160 69h90q104 0 143 -77z" />
    <glyph glyph-name="adieresis.alt" horiz-adv-x="1380" 
d="M1032 938l4 14q19 70 62.5 114t109.5 44q80 0 115.5 -55t9.5 -150l-203 -760q-20 -75 -67 -116t-113 -41t-101.5 35.5t-35.5 95.5q-75 -70 -148 -104.5t-161 -34.5q-185 0 -303.5 126.5t-118.5 344.5q0 142 51.5 268t135.5 212.5t194 136.5t225 50q123 0 204.5 -46
t139.5 -134zM633 242q131 0 231.5 113t100.5 268q0 104 -66.5 168.5t-169.5 64.5q-129 0 -227.5 -111.5t-98.5 -273.5q0 -106 62.5 -167.5t167.5 -61.5zM852 1354q-13 -68 -64.5 -108t-121.5 -40q-71 0 -111 42t-25 106l2 8q13 66 65.5 105.5t121.5 39.5q68 0 107.5 -42.5
t27.5 -102.5zM1290 1354q-13 -68 -64.5 -108t-121.5 -40q-71 0 -110.5 42t-24.5 106l2 8q13 66 65 105.5t121 39.5q68 0 107.5 -42.5t27.5 -102.5z" />
    <glyph glyph-name="agrave.alt" horiz-adv-x="1380" 
d="M1032 938l4 14q19 70 62.5 114t109.5 44q80 0 115.5 -55t9.5 -150l-203 -760q-20 -75 -67 -116t-113 -41t-101.5 35.5t-35.5 95.5q-75 -70 -148 -104.5t-161 -34.5q-185 0 -303.5 126.5t-118.5 344.5q0 142 51.5 268t135.5 212.5t194 136.5t225 50q123 0 204.5 -46
t139.5 -134zM633 242q131 0 231.5 113t100.5 268q0 104 -66.5 168.5t-169.5 64.5q-129 0 -227.5 -111.5t-98.5 -273.5q0 -106 62.5 -167.5t167.5 -61.5zM709 1274l-95 119q-28 40 -28 65q0 37 56.5 70t115.5 33q81 0 108 -76l62 -168q8 -24 8 -43q0 -31 -26.5 -49.5
t-71.5 -18.5t-71 13.5t-58 54.5z" />
    <glyph glyph-name="amacron.alt" horiz-adv-x="1380" 
d="M1032 938l4 14q19 70 62.5 114t109.5 44q80 0 115.5 -55t9.5 -150l-203 -760q-20 -75 -67 -116t-113 -41t-101.5 35.5t-35.5 95.5q-75 -70 -148 -104.5t-161 -34.5q-185 0 -303.5 126.5t-118.5 344.5q0 142 51.5 268t135.5 212.5t194 136.5t225 50q123 0 204.5 -46
t139.5 -134zM633 242q131 0 231.5 113t100.5 268q0 104 -66.5 168.5t-169.5 64.5q-129 0 -227.5 -111.5t-98.5 -273.5q0 -106 62.5 -167.5t167.5 -61.5zM1178 1229h-545q-45 0 -77 31t-32 75t32.5 76.5t76.5 32.5h545q44 0 76 -32.5t32 -76.5t-32 -75t-76 -31z" />
    <glyph glyph-name="aogonek.alt" horiz-adv-x="1380" 
d="M1032 938l4 14q19 70 62.5 114t109.5 44q80 0 115.5 -55t9.5 -150l-203 -760q-18 -70 -73 -125q-60 -60 -85.5 -95.5t-25.5 -65.5q0 -22 14 -33t48 -21q36 -11 51 -26.5t14 -44.5q-3 -78 -151 -78q-101 0 -159 36t-58 101q0 101 151 225q-43 32 -43 101
q-75 -70 -148 -104.5t-161 -34.5q-185 0 -303.5 126.5t-118.5 344.5q0 142 51.5 268t135.5 212.5t194 136.5t225 50q123 0 204.5 -46t139.5 -134zM633 242q131 0 231.5 113t100.5 268q0 104 -66.5 168.5t-169.5 64.5q-129 0 -227.5 -111.5t-98.5 -273.5q0 -106 62.5 -167.5
t167.5 -61.5z" />
    <glyph glyph-name="aring.alt" horiz-adv-x="1380" 
d="M1032 938l4 14q19 70 62.5 114t109.5 44q80 0 115.5 -55t9.5 -150l-203 -760q-20 -75 -67 -116t-113 -41t-101.5 35.5t-35.5 95.5q-75 -70 -148 -104.5t-161 -34.5q-185 0 -303.5 126.5t-118.5 344.5q0 142 51.5 268t135.5 212.5t194 136.5t225 50q123 0 204.5 -46
t139.5 -134zM633 242q131 0 231.5 113t100.5 268q0 104 -66.5 168.5t-169.5 64.5q-129 0 -227.5 -111.5t-98.5 -273.5q0 -106 62.5 -167.5t167.5 -61.5zM913 1214q-102 0 -163.5 60.5t-61.5 152.5q0 111 80.5 193t194.5 82q102 0 163.5 -60.5t61.5 -152.5q0 -111 -80.5 -193
t-194.5 -82zM918 1327q61 0 100 48.5t39 111.5q0 44 -27 73t-72 29q-61 0 -100 -48t-39 -111q0 -44 27 -73.5t72 -29.5z" />
    <glyph glyph-name="aring.alt2" horiz-adv-x="1204" 
d="M795 -12q-142 0 -133 139q-138 -147 -328 -147q-142 0 -231 82.5t-89 211.5q0 185 133.5 290.5t339.5 105.5q155 0 310 -49l4 14q12 50 12 82q0 129 -207 129q-95 0 -190 -25q-36 -8 -51 -8q-53 0 -88 35.5t-35 89.5q0 44 26.5 76t67.5 45q99 33 223 45q-27 46 -27 102
q0 111 80.5 193t194.5 82q102 0 163.5 -60.5t61.5 -152.5q0 -125 -100 -205q184 -79 184 -291q0 -72 -24 -166l-123 -461q-20 -75 -66 -116t-108 -41zM467 193q94 0 171.5 64.5t104.5 156.5l9 28q-103 39 -205 39q-98 0 -160.5 -47t-62.5 -125q0 -52 39 -84t104 -32z
M762 1106q61 0 100 48.5t39 111.5q0 44 -26.5 73t-71.5 29q-61 0 -100 -48.5t-39 -111.5q0 -44 26.5 -73t71.5 -29z" />
    <glyph glyph-name="aringacute.alt" horiz-adv-x="1380" 
d="M1032 938l4 14q19 70 62.5 114t109.5 44q80 0 115.5 -55t9.5 -150l-203 -760q-20 -75 -67 -116t-113 -41t-101.5 35.5t-35.5 95.5q-75 -70 -148 -104.5t-161 -34.5q-185 0 -303.5 126.5t-118.5 344.5q0 142 51.5 268t135.5 212.5t194 136.5t225 50q123 0 204.5 -46
t139.5 -134zM633 242q131 0 231.5 113t100.5 268q0 104 -66.5 168.5t-169.5 64.5q-129 0 -227.5 -111.5t-98.5 -273.5q0 -106 62.5 -167.5t167.5 -61.5zM913 1214q-102 0 -163.5 60.5t-61.5 152.5q0 111 80.5 193t194.5 82q102 0 163.5 -60.5t61.5 -152.5q0 -111 -80.5 -193
t-194.5 -82zM1352 1937l-160 -118q-91 -68 -182 -68q-39 0 -62.5 15t-23.5 42q0 29 26 58l156 172q32 34 57 50.5t60 16.5q60 0 117 -31t57 -69q0 -34 -45 -68zM918 1327q61 0 100 48.5t39 111.5q0 44 -27 73t-72 29q-61 0 -100 -48t-39 -111q0 -44 27 -73.5t72 -29.5z" />
    <glyph glyph-name="aringacute.alt2" horiz-adv-x="1204" 
d="M795 -12q-142 0 -133 139q-138 -147 -328 -147q-142 0 -231 82.5t-89 211.5q0 185 133.5 290.5t339.5 105.5q155 0 310 -49l4 14q12 50 12 82q0 129 -207 129q-95 0 -190 -25q-36 -8 -51 -8q-53 0 -88 35.5t-35 89.5q0 44 26.5 76t67.5 45q99 33 223 45q-27 46 -27 102
q0 111 80.5 193t194.5 82q102 0 163.5 -60.5t61.5 -152.5q0 -125 -100 -205q184 -79 184 -291q0 -72 -24 -166l-123 -461q-20 -75 -66 -116t-108 -41zM1196 1716l-160 -119q-90 -67 -182 -67q-39 0 -62.5 15t-23.5 42q0 28 27 58l155 172q32 34 57 50.5t60 16.5
q60 0 117 -31t57 -69q0 -34 -45 -68zM467 193q94 0 171.5 64.5t104.5 156.5l9 28q-103 39 -205 39q-98 0 -160.5 -47t-62.5 -125q0 -52 39 -84t104 -32zM762 1106q61 0 100 48.5t39 111.5q0 44 -26.5 73t-71.5 29q-61 0 -100 -48.5t-39 -111.5q0 -44 26.5 -73t71.5 -29z" />
    <glyph glyph-name="atilde.alt" horiz-adv-x="1380" 
d="M1032 938l4 14q19 70 62.5 114t109.5 44q80 0 115.5 -55t9.5 -150l-203 -760q-20 -75 -67 -116t-113 -41t-101.5 35.5t-35.5 95.5q-75 -70 -148 -104.5t-161 -34.5q-185 0 -303.5 126.5t-118.5 344.5q0 142 51.5 268t135.5 212.5t194 136.5t225 50q123 0 204.5 -46
t139.5 -134zM633 242q131 0 231.5 113t100.5 268q0 104 -66.5 168.5t-169.5 64.5q-129 0 -227.5 -111.5t-98.5 -273.5q0 -106 62.5 -167.5t167.5 -61.5zM569 1212q-37 0 -61.5 23.5t-24.5 58.5q0 29 17 60q53 93 124.5 149t153.5 56q50 0 85.5 -15t76.5 -45q42 -31 63.5 -42
t45.5 -11q57 0 110 65q21 25 41 36.5t51 11.5q37 0 61.5 -23.5t24.5 -58.5q0 -31 -16 -60q-52 -93 -124.5 -149t-154.5 -56q-49 0 -83 14.5t-78 45.5q-42 31 -63.5 42t-45.5 11q-57 0 -110 -65q-41 -48 -93 -48z" />
    <glyph glyph-name="three.alt" horiz-adv-x="1271" 
d="M264 365q62 -56 129 -81.5t154 -25.5q121 0 190.5 56t69.5 130q0 150 -223 150h-2q-62 0 -101 37t-39 92q0 54 38.5 92.5t92.5 38.5h82q115 0 193 48t78 134q0 62 -54 101t-135 39q-72 0 -126.5 -21.5t-110.5 -62.5q-56 -37 -103 -37q-60 0 -98.5 36.5t-38.5 92.5
q0 28 13.5 56.5t33.5 43.5q113 94 206 130.5t261 43.5q109 4 200.5 -25t150.5 -81t91.5 -121t32.5 -146q0 -133 -81 -227t-238 -139q82 -34 138 -108t56 -175q0 -198 -166.5 -329.5t-433.5 -131.5q-290 0 -461 164q-55 55 -55 119q0 62 43.5 106t104.5 44q62 0 108 -43z" />
    <glyph glyph-name="registered.alt" horiz-adv-x="1699" 
d="M891 -25q-153 0 -290.5 59t-235.5 158.5t-155.5 235.5t-57.5 285v4q0 149 58 285.5t157 236.5t237 159.5t291 59.5t290.5 -59t235.5 -158t155.5 -235t57.5 -285v-4q0 -149 -58 -285.5t-157 -237t-237 -160t-291 -59.5zM891 57q138 0 260.5 52.5t209 141.5t137 210.5
t50.5 255.5v4q0 179 -84.5 329t-235 238t-333.5 88q-138 0 -260.5 -52.5t-209 -141t-137 -210t-50.5 -255.5v-4q0 -134 50 -255t136 -209t208 -140t259 -52zM588 418v629q0 35 25.5 60.5t60.5 25.5h264q158 0 244 -86q65 -65 65 -173v-4q0 -172 -160 -239l130 -156
q22 -28 22 -59q0 -35 -24.5 -59.5t-55.5 -24.5q-26 0 -41 8.5t-33 30.5l-182 227h-141v-180q0 -35 -26.5 -60.5t-61.5 -25.5t-60.5 25.5t-25.5 60.5zM762 748h174q65 0 100 30.5t35 81.5v4q0 56 -36.5 85.5t-102.5 29.5h-170v-231z" />
    <glyph glyph-name="NUL" horiz-adv-x="0" 
 />
    <glyph glyph-name="hcoslug" horiz-adv-x="1421" 
d="M559 37h-53q0 -25 20 -25q16 0 19 15h14q-7 -29 -37 -29q-20 0 -31.5 11t-11.5 30t12 31t29 12q42 0 39 -45zM520 72q-14 0 -14 -25h29q0 25 -15 25zM399 160q17 0 17 33q0 30 -17 30q-16 0 -16 -30q0 -33 16 -33zM430 8q16 0 16 33q0 31 -16 31t-16 -31q0 -33 16 -33z
M430 -2q-19 0 -31 11.5t-12 31.5q0 19 12 30t31 11t31 -11t12 -30t-12 -31t-31 -12zM1118 8q17 0 17 33q0 31 -17 31q-16 0 -16 -31q0 -33 16 -33zM1118 -2q-19 0 -31 11.5t-12 31.5q0 19 12 30t31 11t31 -11t12 -30t-12 -31t-31 -12zM256 152v14h14v84h-14v14h104v-41h-16
q-3 17 -7 22t-15 5h-25v-37h8q7 0 8.5 2.5t3.5 13.5h15v-47h-15q-7 16 -12 17h-8v-33h20v-14h-61zM399 150q-19 0 -31 11.5t-12 31.5q0 18 12 29t31 11t31 -11t12 -29q0 -19 -12 -31t-31 -12zM1319 -205v1639h-1217v-1639h1217zM1020 -2q-28 0 -43.5 15.5t-15.5 41.5
q0 27 16.5 44.5t38.5 17.5q18 0 33 -15l2 13h16v-45h-16q-6 19 -12.5 25.5t-18.5 6.5q-29 0 -29 -45t33 -45q25 0 29 33h16q-3 -47 -49 -47zM762 164q14 0 14 26q0 27 -14 27q-17 0 -17 -27q0 -26 17 -26zM565 0v14h13v52h-15v14h15v2q0 19 11 29t27 10q11 0 19 -4l20 4
v-107h13v-14h-47v14h10v52h-29v-52h10v-14h-47zM754 0v14h12v52h-12v14h37v-21q9 23 24 23q16 0 16 -16q0 -15 -14 -15q-12 0 -12 12v3q-6 0 -14 -19v-33h16v-14h-53zM721 150v106h-12v14h36v-55q6 18 27 18q14 0 22.5 -11t8.5 -29q0 -16 -8 -29.5t-25 -13.5q-19 0 -29 16
l-8 -16h-12zM819 154q10 0 12.5 -8t-2.5 -13q14 0 17 17l-33 67h-10v14h51v-14h-12l18 -41l17 41h-11v14h35v-14h-10l-27 -63q-13 -33 -37 -33q-22 0 -22 18q0 15 14 15zM506 877q0 26 15 42.5t40 16.5q26 0 43 -21.5t17 -56.5q0 -46 -37 -102q-30 29 -42.5 42.5t-24 35
t-11.5 43.5zM618 152v28h15q12 -18 24 -18q11 0 11 8q0 6 -25 13t-25 26q0 10 8 17t21 7q16 0 23 -10l4 10h12v-26h-14q-10 14 -21 14q-10 0 -10 -8q0 -6 24.5 -12t24.5 -25q0 -11 -7.5 -18.5t-20.5 -7.5q-12 0 -27 10l-2 -8h-15zM535 449q-46 0 -76.5 31.5t-30.5 78.5
q0 49 33 82q72 -68 151 -168q-31 -24 -77 -24zM561 250l25 4v-23h26v-14h-26v-41q0 -10 8 -10q7 0 10 14l10 -4q-6 -26 -28 -26q-25 0 -25 26v41h-14v14h14v19zM877 627q-53 -31 -95 -86q39 -45 68 -64.5t59 -19.5q54 0 88 59l15 -4q-3 -87 -49.5 -140t-114.5 -53
q-46 0 -84.5 20.5t-89.5 72.5q-84 -93 -213 -93q-93 0 -158 55t-65 136q0 129 168 186q-34 35 -49 67t-15 75q0 69 62 121.5t161 52.5q90 0 142.5 -46.5t52.5 -105.5q0 -37 -19 -69q43 2 70.5 -17t30.5 -59q53 78 123 78q43 0 72.5 -30t29.5 -77t-29.5 -79t-72.5 -32
q-58 0 -88 52zM449 152v14h12v51h-12v14h34v-20q9 22 29 22q25 0 25 -28v-39h12v-14h-45v14h8v37q0 14 -12 14q-15 0 -15 -20v-31h9v-14h-45zM913 68h37v-15h-10q-6 -12 -18 -28q7 -11 12 -11t8 11l10 -2q-7 -25 -26 -25q-15 0 -25 12q-12 -12 -31 -12q-36 0 -36 29
q0 23 26 30q-12 12 -12 25q0 11 10.5 20t24.5 9q13 0 20.5 -7.5t7.5 -17.5q0 -16 -22 -25q5 -5 12.5 -13.5t11.5 -12.5q11 11 13 18h-13v15zM879 12q7 0 16 6q-20 24 -29 33q-8 -8 -8 -18q0 -9 6 -15t15 -6zM602 86v-6h29v10q-13 0 -13 12l3 7q-3 2 -7 2q-12 0 -12 -25z
M870 88q0 -7 13 -20q10 7 10 18q0 12 -12 12q-11 0 -11 -10zM639 700q61 42 86 70q23 -23 29 -49t-2 -52.5t-29 -62.5q-68 78 -84 94zM750 37h-54q0 -25 21 -25q15 0 18 15h15q-7 -29 -37 -29q-20 0 -31.5 11t-11.5 30t12 31t29 12q42 0 39 -45zM711 72q-15 0 -15 -25h29
q0 25 -14 25zM254 0v14h16v84h-16v15h59v-15h-16v-32h45v32h-16v15h59v-15h-16v-84h16v-14h-59v14h16v37h-45v-37h16v-14h-59zM1180 27q14 0 14 -15q0 -14 -14 -14q-15 0 -15 14q0 6 4.5 10.5t10.5 4.5z" />
    <glyph glyph-name="i.dot" horiz-adv-x="618" 
d="M700 1352q-13 -65 -69 -104.5t-131 -39.5q-74 0 -118 41.5t-32 102.5l2 10q13 65 69.5 104t131.5 39q74 0 117.5 -41t31.5 -102zM561 905l-205 -760q-20 -75 -66 -116t-108 -41q-80 0 -115.5 55t-9.5 150l205 759q20 75 66 116.5t108 41.5q80 0 115.5 -55t9.5 -150z" />
    <glyph glyph-name="caron.alt" 
d="M575 1133l72 268q11 44 44 70t81 26h47q60 0 60 -47q0 -24 -25 -72l-147 -266q-30 -55 -82 -55q-26 0 -40 13t-14 34q0 13 4 29z" />
    </font>
</defs>
</svg>
