<?xml version="1.0" standalone="no"?>
<!DOCTYPE svg PUBLIC "-//W3C//DTD SVG 1.1//EN" "http://www.w3.org/Graphics/SVG/1.1/DTD/svg11.dtd" >
<svg xmlns="http://www.w3.org/2000/svg" xmlns:xlink="http://www.w3.org/1999/xlink" version="1.1">
<metadata>
Created by FontForge 20201107 at Wed Jan 22 23:47:45 2025
 By 
Copyright (c) 2006-2022 Hoefler &#38; Co. All rights reserved.
</metadata>
<defs>
<font id="GothamRounded-MediumItalic" horiz-adv-x="1368" >
  <font-face 
    font-family="Gotham Rounded Medium"
    font-weight="500"
    font-style="italic"
    font-stretch="normal"
    units-per-em="2048"
    panose-1="0 0 0 0 0 0 0 0 0 0"
    ascent="1638"
    descent="-410"
    x-height="1081"
    cap-height="1444"
    bbox="-305 -563 2501 2183"
    underline-thickness="102"
    underline-position="-204"
    slope="-15"
    unicode-range="U+0020-FB04"
  />
<missing-glyph horiz-adv-x="1024" 
d="M0 -410v2048h1024v-2048h-1024zM145 1536l367 -799l367 799h-734zM102 -156l353 770l-353 770v-1540zM922 1384l-353 -770l353 -770v1540zM512 492l-367 -799h734z" />
    <glyph glyph-name="f_f" unicode="ff" horiz-adv-x="1624" 
d="M549 868l-203 -755q-17 -59 -53.5 -91t-85.5 -32q-63 0 -92 43.5t-9 116.5l195 718h-29q-38 5 -66 33t-28 74q0 45 31 75.5t74 30.5h75l21 88q90 336 412 336q62 0 116 -14q38 -8 61 -33t23 -65q0 -57 -35 -88.5t-79 -22.5q-41 12 -80 12q-137 0 -179 -151l-16 -62h174
q44 0 74.5 -30.5t30.5 -75.5q0 -46 -30.5 -76.5t-74.5 -30.5h-227zM1360 868l-203 -755q-17 -59 -53.5 -91t-85.5 -32q-63 0 -91.5 43t-8.5 117l194 718h-29q-38 5 -66 33t-28 74q0 45 31 75.5t74 30.5h75l21 88q90 336 412 336q62 0 116 -14q38 -8 61 -33t23 -65
q0 -57 -35 -88.5t-79 -22.5q-41 12 -80 12q-136 0 -178 -151l-17 -62h174q45 0 75 -30.5t30 -75.5q0 -46 -30.5 -76.5t-74.5 -30.5h-227z" />
    <glyph glyph-name="fi" unicode="fi" horiz-adv-x="1398" 
d="M1464 1352q-12 -52 -56.5 -83.5t-104.5 -31.5q-61 0 -97 33.5t-24 83.5l6 24q12 53 56.5 84t105.5 31q60 0 95 -34t25 -83zM1333 932l-219 -819q-17 -59 -53.5 -91t-85.5 -32q-63 0 -92 43.5t-9 116.5l222 819q15 60 51 92.5t86 32.5q64 0 92 -44t8 -118zM549 868
l-203 -755q-17 -59 -53.5 -91t-85.5 -32q-63 0 -92 43.5t-9 116.5l195 718h-29q-38 5 -66 33t-28 74q0 45 31 75.5t74 30.5h75l21 88q90 336 412 336q62 0 116 -14q38 -8 61 -33t23 -65q0 -57 -35 -88.5t-79 -22.5q-41 12 -80 12q-137 0 -179 -151l-16 -62h174
q44 0 74.5 -30.5t30.5 -75.5q0 -46 -30.5 -76.5t-74.5 -30.5h-227z" />
    <glyph glyph-name="fl" unicode="fl" horiz-adv-x="1398" 
d="M1444 1346l-330 -1233q-17 -59 -53.5 -91t-85.5 -32q-63 0 -92 43.5t-9 116.5l332 1232q15 58 52 90.5t88 32.5q63 0 90.5 -42.5t7.5 -116.5zM549 868l-203 -755q-17 -59 -53.5 -91t-85.5 -32q-63 0 -92 43.5t-9 116.5l195 718h-29q-38 5 -66 33t-28 74q0 45 31 75.5
t74 30.5h75l21 88q90 336 412 336q62 0 116 -14q38 -8 61 -33t23 -65q0 -57 -35 -88.5t-79 -22.5q-41 12 -80 12q-137 0 -179 -151l-16 -62h174q44 0 74.5 -30.5t30.5 -75.5q0 -46 -30.5 -76.5t-74.5 -30.5h-227z" />
    <glyph glyph-name="f_f_i" unicode="ffi" horiz-adv-x="2209" 
d="M2275 1352q-12 -52 -56.5 -83.5t-104.5 -31.5q-61 0 -97 33.5t-24 83.5l6 24q12 53 56.5 84t105.5 31q60 0 95 -34t25 -83zM2144 932l-219 -819q-17 -59 -53.5 -91t-85.5 -32q-63 0 -91.5 43t-8.5 117l221 819q15 60 51 92.5t86 32.5q64 0 92 -44t8 -118zM549 868
l-203 -755q-17 -59 -53.5 -91t-85.5 -32q-63 0 -92 43.5t-9 116.5l195 718h-29q-38 5 -66 33t-28 74q0 45 31 75.5t74 30.5h75l21 88q90 336 412 336q62 0 116 -14q38 -8 61 -33t23 -65q0 -57 -35 -88.5t-79 -22.5q-41 12 -80 12q-137 0 -179 -151l-16 -62h174
q44 0 74.5 -30.5t30.5 -75.5q0 -46 -30.5 -76.5t-74.5 -30.5h-227zM1360 868l-203 -755q-17 -59 -53.5 -91t-85.5 -32q-63 0 -91.5 43t-8.5 117l194 718h-29q-38 5 -66 33t-28 74q0 45 31 75.5t74 30.5h75l21 88q90 336 412 336q62 0 116 -14q38 -8 61 -33t23 -65
q0 -57 -35 -88.5t-79 -22.5q-41 12 -80 12q-136 0 -178 -151l-17 -62h174q45 0 75 -30.5t30 -75.5q0 -46 -30.5 -76.5t-74.5 -30.5h-227z" />
    <glyph glyph-name="f_f_l" unicode="ffl" horiz-adv-x="2209" 
d="M2255 1346l-330 -1233q-17 -59 -53.5 -91t-85.5 -32q-63 0 -91.5 43t-8.5 117l331 1232q15 58 52 90.5t88 32.5q63 0 90.5 -42.5t7.5 -116.5zM549 868l-203 -755q-17 -59 -53.5 -91t-85.5 -32q-63 0 -92 43.5t-9 116.5l195 718h-29q-38 5 -66 33t-28 74q0 45 31 75.5
t74 30.5h75l21 88q90 336 412 336q62 0 116 -14q38 -8 61 -33t23 -65q0 -57 -35 -88.5t-79 -22.5q-41 12 -80 12q-137 0 -179 -151l-16 -62h174q44 0 74.5 -30.5t30.5 -75.5q0 -46 -30.5 -76.5t-74.5 -30.5h-227zM1360 868l-203 -755q-17 -59 -53.5 -91t-85.5 -32
q-63 0 -91.5 43t-8.5 117l194 718h-29q-38 5 -66 33t-28 74q0 45 31 75.5t74 30.5h75l21 88q90 336 412 336q62 0 116 -14q38 -8 61 -33t23 -65q0 -57 -35 -88.5t-79 -22.5q-41 12 -80 12q-136 0 -178 -151l-17 -62h174q45 0 75 -30.5t30 -75.5q0 -46 -30.5 -76.5
t-74.5 -30.5h-227z" />
    <glyph glyph-name=".notdef" horiz-adv-x="1024" 
d="M0 -410v2048h1024v-2048h-1024zM145 1536l367 -799l367 799h-734zM102 -156l353 770l-353 770v-1540zM922 1384l-353 -770l353 -770v1540zM512 492l-367 -799h734z" />
    <glyph glyph-name=".null" horiz-adv-x="0" 
 />
    <glyph glyph-name="nonmarkingreturn" horiz-adv-x="682" 
 />
    <glyph glyph-name="space" unicode=" " horiz-adv-x="614" 
 />
    <glyph glyph-name="exclam" unicode="!" horiz-adv-x="620" 
d="M668 1350l-293 -844q-24 -64 -82 -64q-34 0 -52 22.5t-12 61.5l156 828q8 38 33 62t59 24h137q35 0 51 -26.5t3 -63.5zM348 156l-8 -35q-14 -61 -57 -96t-105 -35q-64 0 -100.5 40.5t-24.5 96.5l8 35q14 60 57 95.5t105 35.5q64 0 100.5 -40.5t24.5 -96.5z" />
    <glyph glyph-name="quotedbl" unicode="&#x22;" horiz-adv-x="1009" 
d="M362 872q-32 -63 -88 -63q-32 0 -46 22.5t-5 55.5l129 442q15 49 48 80t83 31h68q55 0 67 -40.5t-16 -84.5zM819 872q-12 -27 -35.5 -45t-50.5 -18q-32 0 -47 23t-4 55l129 442q13 49 47 80t84 31h68q37 0 54.5 -19.5t15 -47t-18.5 -58.5z" />
    <glyph glyph-name="numbersign" unicode="#" horiz-adv-x="1406" 
d="M528 543h320l125 356h-322zM803 1329l-76 -217h320l86 244q13 39 47.5 63.5t74.5 24.5q51 0 77 -34.5t9 -80.5l-75 -217h75q43 0 75 -31t32 -75q0 -43 -32 -75t-75 -32h-149l-125 -356h98q44 0 75.5 -31.5t31.5 -75.5q0 -43 -31.5 -74.5t-75.5 -31.5h-172l-88 -252
q-12 -38 -45.5 -63t-73.5 -25q-52 0 -79.5 34.5t-10.5 79.5l78 226h-319l-88 -252q-13 -37 -45.5 -62.5t-75.5 -25.5q-51 0 -78.5 33t-9.5 81l78 226h-74q-44 0 -75.5 31t-31.5 75q0 43 31.5 75t75.5 32h147l125 356h-100q-43 0 -75 32t-32 75t32 74.5t75 31.5h174l86 244
q13 40 46 64t73 24q51 0 78 -34.5t12 -80.5z" />
    <glyph glyph-name="dollar" unicode="$" horiz-adv-x="1292" 
d="M379 -98l33 116q-213 43 -338 158q-54 43 -54 103q0 51 35 84.5t88 33.5q43 0 84 -32q106 -100 256 -134l115 400q-87 33 -145 64t-106.5 74.5t-71.5 101.5t-23 133q0 121 70.5 219.5t193 154.5t272.5 56q29 0 39 -2l13 43q29 88 100 88q45 0 66 -30t8 -83l-13 -41
q132 -28 244 -115q31 -22 46.5 -44t15.5 -56q0 -51 -36 -85t-89 -34q-36 0 -84 31q-76 61 -168 86l-109 -381q171 -63 254.5 -148t83.5 -227q0 -127 -73.5 -227t-201.5 -154.5t-286 -54.5h-12l-35 -123q-14 -42 -39.5 -66t-60.5 -24q-45 0 -66 31t-6 84zM672 868l98 346
q-119 3 -189.5 -50.5t-70.5 -133.5q0 -54 36 -89.5t126 -72.5zM643 219q118 3 187 54.5t69 138.5q0 53 -33.5 90t-117.5 73z" />
    <glyph glyph-name="percent" unicode="%" horiz-adv-x="1765" 
d="M483 709q-137 0 -221 86.5t-84 222.5q0 108 49.5 206.5t142 162t203.5 63.5q136 0 221 -86.5t85 -222.5q0 -108 -50 -206.5t-142.5 -162t-203.5 -63.5zM1286 -16q-135 0 -220 87t-85 222q0 109 49.5 207.5t141.5 161.5t204 63q137 0 221 -86t84 -221q0 -109 -49.5 -208
t-142 -162.5t-203.5 -63.5zM494 860q61 0 111 42t76 104t26 127q0 77 -38.5 121t-107.5 44q-60 0 -110 -42t-76.5 -104t-26.5 -126q0 -77 39.5 -121.5t106.5 -44.5zM1296 135q61 0 111.5 42.5t77 104.5t26.5 126q0 77 -39 122t-106 45q-91 0 -153 -86.5t-62 -187.5
q0 -76 39 -121t106 -45zM1608 1303l-1233 -1276q-37 -37 -76 -37q-33 0 -55.5 20.5t-22.5 52.5q0 37 31 68l1233 1278q37 37 76 37q33 0 55 -21.5t22 -54.5q0 -34 -30 -67z" />
    <glyph glyph-name="ampersand" unicode="&#x26;" horiz-adv-x="1421" 
d="M698 879q162 51 225.5 107t63.5 128q0 60 -43.5 103t-118.5 43q-84 0 -140 -56.5t-56 -134.5q0 -84 69 -190zM522 188q151 0 322 129l-254 351q-149 -47 -223 -125.5t-74 -169.5q0 -84 60.5 -134.5t168.5 -50.5zM1059 27l-96 133q-225 -180 -469 -180q-195 0 -319 100.5
t-124 275.5q0 73 26 139.5t78 126.5t136.5 109.5t195.5 83.5q-81 137 -81 256q0 161 121.5 274t310.5 113q168 0 272 -92t104 -238q0 -267 -407 -395l199 -274q83 96 145 186q43 60 92 60q39 0 66.5 -23.5t27.5 -60.5q0 -36 -20 -68q-94 -141 -191 -246l95 -133
q39 -49 39 -86q0 -47 -31 -77.5t-78 -30.5q-56 0 -92 47z" />
    <glyph glyph-name="quotesingle" unicode="'" horiz-adv-x="550" 
d="M362 872q-32 -63 -88 -63q-32 0 -46 22.5t-5 55.5l129 442q15 49 48 80t83 31h68q55 0 67 -40.5t-16 -84.5z" />
    <glyph glyph-name="parenleft" unicode="(" horiz-adv-x="903" 
d="M623 -86q30 -38 30 -84q0 -45 -29.5 -74.5t-78.5 -29.5q-56 0 -88 32q-314 297 -314 676q0 316 191.5 576t552.5 428q28 14 61 14q45 0 74 -28.5t29 -73.5q0 -64 -70 -101q-288 -148 -436 -357t-148 -450q0 -152 58.5 -276.5t167.5 -251.5z" />
    <glyph glyph-name="parenright" unicode=")" horiz-adv-x="903" 
d="M305 1264q-31 40 -31 84q0 45 30 74.5t79 29.5q55 0 88 -33q313 -296 313 -674q0 -317 -191 -577t-552 -428q-28 -14 -61 -14q-45 0 -74 28.5t-29 73.5q0 65 70 102q288 146 435.5 356t147.5 451q0 151 -58.5 276t-166.5 251z" />
    <glyph glyph-name="asterisk" unicode="*" horiz-adv-x="880" 
d="M602 1024l-29 -180q-3 -32 -21 -49t-46 -17q-35 0 -52.5 28.5t-2.5 63.5l67 177l-170 -66q-27 -10 -47 -10q-25 0 -43.5 17t-19.5 44q-2 28 15.5 47.5t47.5 22.5l195 31l-152 120q-35 27 -35 60q0 27 19 47t49 20q36 0 59 -30l121 -154l29 178q9 68 67 68q40 0 56.5 -27
t-0.5 -67l-68 -174l170 65q27 10 51 10q26 0 42 -17t18 -44q0 -62 -64 -72l-194 -29l149 -118q37 -27 37 -62q0 -27 -19.5 -47t-48.5 -20q-34 0 -59 32z" />
    <glyph glyph-name="plus" unicode="+" horiz-adv-x="1298" 
d="M784 608l-73 -276q-17 -59 -52.5 -92t-80.5 -33q-60 0 -87.5 40.5t-7.5 112.5l68 248h-260q-47 0 -81 33t-34 80q0 46 34 79.5t81 33.5h319l74 278q17 58 52.5 90.5t80.5 32.5q60 0 87 -41t7 -113l-65 -247h258q47 0 81 -33t34 -80q0 -46 -34 -79.5t-81 -33.5h-320z" />
    <glyph glyph-name="comma" unicode="," horiz-adv-x="600" 
d="M-63 -184q175 47 192 184q-101 26 -82 133l8 27q12 60 54 96.5t102 36.5q72 0 104 -48.5t15 -131.5l-8 -35q-39 -177 -162 -279q-46 -40 -105 -65.5t-112 -28.5q-32 -3 -48 12.5t-16 40.5q0 45 58 58z" />
    <glyph glyph-name="hyphen" unicode="-" horiz-adv-x="841" 
d="M637 506h-385q-50 0 -85.5 36t-35.5 85q0 51 35.5 87t85.5 36h385q51 0 87 -36t36 -87q0 -50 -36 -85.5t-87 -35.5z" />
    <glyph glyph-name="period" unicode="." horiz-adv-x="600" 
d="M340 156l-8 -35q-14 -61 -57 -96t-105 -35q-64 0 -100.5 40.5t-24.5 96.5l8 35q14 60 57 95.5t105 35.5q64 0 100.5 -40.5t24.5 -96.5z" />
    <glyph glyph-name="slash" unicode="/" horiz-adv-x="1067" 
d="M-147 -100l1255 1679q49 68 111 68q40 0 63 -23t23 -61q0 -6 -0.5 -11.5t-1.5 -10t-3 -10.5l-3 -9t-4.5 -9t-4.5 -8.5t-5.5 -8.5t-5.5 -7.5t-6 -8t-5 -7.5l-1256 -1680q-48 -67 -110 -67q-39 0 -61.5 22.5t-22.5 61.5t37 90z" />
    <glyph glyph-name="zero" unicode="0" horiz-adv-x="1482" 
d="M676 -25q-246 0 -391.5 159t-145.5 419q0 108 24 217.5t69 210t112.5 187.5t149.5 151.5t186.5 101.5t218.5 37q246 0 390.5 -158.5t144.5 -418.5q0 -130 -33.5 -260t-99.5 -246t-156 -205.5t-211.5 -142t-257.5 -52.5zM694 203q101 0 192.5 62t153.5 160t98 218.5
t36 237.5q0 162 -78 256t-217 94q-101 0 -192 -62t-153 -160t-98.5 -218.5t-36.5 -237.5q0 -162 78 -256t217 -94z" />
    <glyph glyph-name="one" unicode="1" horiz-adv-x="827" 
d="M797 1317l-324 -1204q-15 -58 -51.5 -90.5t-87.5 -32.5q-63 0 -92 43.5t-9 118.5l279 1030l-158 -43q-24 -4 -37 -4q-41 0 -70.5 28t-29.5 76q0 39 24.5 70t65.5 43l262 78q77 22 129 22h2q57 0 84.5 -38.5t12.5 -96.5z" />
    <glyph glyph-name="two" unicode="2" horiz-adv-x="1241" 
d="M928 0h-826q-61 0 -98 28.5t-37 82.5q0 68 66 116l731 527q114 82 167.5 151.5t53.5 145.5q0 82 -58 129t-159 47q-160 0 -303 -131q-43 -39 -88 -39q-47 0 -80 33.5t-33 80.5q0 51 43 91q212 192 471 192q210 0 338.5 -105.5t128.5 -273.5q0 -130 -74 -236.5
t-251 -232.5l-533 -385h541q46 0 78 -32t32 -78t-32 -78.5t-78 -32.5z" />
    <glyph glyph-name="three" unicode="3" horiz-adv-x="1239" 
d="M47 160q-41 47 -41 92q0 50 36 85.5t85 35.5q47 0 84 -37q64 -69 129.5 -101t171.5 -32q137 0 229.5 73t92.5 175q0 98 -84.5 149t-233.5 51h-12q-44 0 -70 25t-26 69q0 49 55 93l446 376h-481q-44 0 -76.5 32.5t-32.5 76.5q0 46 32.5 78.5t76.5 32.5h737q57 0 91 -26.5
t34 -74.5q0 -42 -20 -69t-64 -62l-456 -375q156 -26 248 -114t92 -240q0 -139 -78 -253.5t-213.5 -179.5t-298.5 -65q-297 0 -453 185z" />
    <glyph glyph-name="four" unicode="4" horiz-adv-x="1341" 
d="M362 528h457l154 572zM1004 322l-56 -209q-15 -58 -51 -90.5t-84 -32.5q-60 0 -87.5 44t-6.5 118l45 170h-606q-54 0 -89.5 28t-35.5 78q0 73 67 137l881 807q89 82 182 82q61 0 93.5 -36.5t15.5 -94.5l-213 -795h84q43 0 73.5 -30t30.5 -74q0 -43 -30.5 -72.5
t-73.5 -29.5h-139z" />
    <glyph glyph-name="five" unicode="5" horiz-adv-x="1243" 
d="M80 141q-51 47 -51 103q0 50 33.5 84t82.5 34q46 0 91 -36q121 -121 299 -121q149 0 245.5 81.5t96.5 194.5q0 98 -75.5 159.5t-205.5 61.5q-38 0 -74 -7t-77 -19.5t-58 -16.5q-57 -3 -111 39q-57 45 -34 119l172 518q34 99 123 99h614q46 0 79.5 -33.5t33.5 -79.5
t-33.5 -78.5t-79.5 -32.5h-541l-108 -329q91 32 184 32q203 0 327 -110.5t124 -296.5q0 -104 -45 -200t-124.5 -169t-197.5 -116.5t-256 -43.5q-122 0 -235 44t-199 120z" />
    <glyph glyph-name="six" unicode="6" horiz-adv-x="1314" 
d="M1274 1350q57 -34 57 -105q0 -49 -33.5 -83t-83.5 -34q-9 0 -18.5 1.5t-18.5 5t-14.5 6t-15.5 8t-12 6.5q-104 76 -236 76q-179 0 -305 -129q-63 -63 -111.5 -153.5t-66.5 -186.5q55 66 153.5 112t210.5 46q193 0 318 -112t125 -294q0 -104 -45 -202.5t-121.5 -172.5
t-185 -119t-228.5 -45q-110 0 -204.5 34t-157.5 97q-146 146 -146 402q0 214 75 410t208 329q214 211 502 211q200 0 354 -108zM645 190q138 0 230 88.5t92 206.5q0 98 -69 163t-187 65q-145 0 -237.5 -85t-92.5 -202q0 -100 65 -162q74 -74 199 -74z" />
    <glyph glyph-name="seven" unicode="7" horiz-adv-x="1228" 
d="M1253 1208l-852 -1138q-62 -80 -137 -80q-50 0 -78 25t-28 71q0 47 41 104l776 1022h-578q-46 0 -79 32.5t-33 78.5t33 78.5t79 32.5h799q56 0 85.5 -24.5t29.5 -68.5q0 -61 -58 -133z" />
    <glyph glyph-name="eight" unicode="8" horiz-adv-x="1343" 
d="M612 -20q-150 0 -273.5 50t-196 141.5t-72.5 205.5q0 158 107 257.5t282 137.5q-87 40 -138 116t-51 169q0 75 36.5 145.5t102.5 127t168 90.5t224 34q219 0 358 -106.5t139 -272.5q0 -137 -89.5 -233t-239.5 -129q102 -39 165.5 -120t63.5 -192q0 -173 -163.5 -297
t-422.5 -124zM772 829q127 0 207 64t80 154q2 86 -71 142t-197 56q-121 0 -201 -61t-82 -154q-2 -86 72 -143.5t192 -57.5zM625 186q141 0 232.5 63.5t92.5 164.5q0 91 -85 152t-222 61q-143 0 -233.5 -66.5t-90.5 -163.5q-2 -92 83.5 -151.5t222.5 -59.5z" />
    <glyph glyph-name="nine" unicode="9" horiz-adv-x="1314" 
d="M498 -25q-212 0 -367 119q-65 42 -65 109q0 49 33 82.5t83 33.5q33 0 80 -28q117 -90 250 -90q175 0 305 133q131 128 174 323q-57 -66 -153.5 -112.5t-210.5 -46.5q-194 0 -318.5 112t-124.5 299q1 149 77.5 275t210 200t294.5 74q106 0 203.5 -34t158.5 -97
q146 -143 146 -422q0 -206 -76.5 -395.5t-210.5 -323.5q-208 -211 -489 -211zM702 707q141 0 233.5 88t92.5 209q0 100 -65 165q-74 74 -199 74q-142 0 -233 -89.5t-91 -215.5q0 -102 70 -166.5t192 -64.5z" />
    <glyph glyph-name="colon" unicode=":" horiz-adv-x="606" 
d="M342 156l-8 -35q-14 -61 -57 -96t-105 -35q-64 0 -100.5 40.5t-24.5 96.5l8 35q14 60 57 95.5t105 35.5q64 0 100.5 -40.5t24.5 -96.5zM557 956l-8 -34q-14 -61 -57 -96t-105 -35q-64 0 -100.5 40.5t-24.5 96.5l8 35q14 60 57 95.5t105 35.5q64 0 100.5 -41t24.5 -97z
" />
    <glyph glyph-name="semicolon" unicode=";" horiz-adv-x="606" 
d="M-61 -184q174 46 192 184q-101 27 -80 133l6 27q14 60 56 96.5t100 36.5q72 0 105 -48.5t14 -131.5l-8 -35q-39 -176 -160 -279q-48 -40 -106.5 -65.5t-112.5 -28.5q-32 -3 -47 12t-15 41q0 45 56 58zM557 956l-8 -34q-14 -61 -57 -96t-105 -35q-64 0 -100.5 40.5
t-24.5 96.5l8 35q14 60 57 95.5t105 35.5q64 0 100.5 -41t24.5 -97z" />
    <glyph glyph-name="less" unicode="&#x3c;" horiz-adv-x="1298" 
d="M287 860l833 354q38 17 70 17q41 0 67.5 -24.5t26.5 -65.5q0 -75 -72 -105l-786 -325l569 -303q38 -20 53 -43.5t15 -59.5q0 -46 -31 -79t-78 -33q-28 0 -65 16l-608 336q-53 30 -81 64t-28 85v8q0 109 115 158z" />
    <glyph glyph-name="equal" unicode="=" horiz-adv-x="1298" 
d="M393 862q-47 0 -80.5 34t-33.5 81q0 46 33.5 80.5t80.5 34.5h750q47 0 80.5 -34.5t33.5 -80.5q0 -47 -33.5 -81t-80.5 -34h-750zM256 350q-47 0 -81 34t-34 81t34 81t81 34h750q47 0 80.5 -34t33.5 -81t-33.5 -81t-80.5 -34h-750z" />
    <glyph glyph-name="greater" unicode="&#x3e;" horiz-adv-x="1298" 
d="M1104 582l-834 -355q-40 -18 -69 -18q-40 0 -67.5 25.5t-27.5 66.5q0 74 70 105l787 325l-568 303q-37 20 -52 43.5t-15 59.5q0 47 30 79.5t78 32.5q27 0 64 -16l610 -338q52 -28 80.5 -62t28.5 -85v-11q0 -106 -115 -155z" />
    <glyph glyph-name="question" unicode="?" horiz-adv-x="1107" 
d="M399 1133q-56 -31 -88 -31q-43 0 -71.5 30t-28.5 70q0 62 53 103q186 147 430 147q202 0 322.5 -107t120.5 -262q0 -184 -139.5 -299.5t-391.5 -152.5l-39 -109q-14 -36 -41 -58t-61 -22h-12q-35 0 -54.5 24t-15.5 64l29 187q4 40 29 60t77 28q160 21 257 85t97 165
q0 80 -55 124t-155 44q-129 0 -263 -90zM522 156l-8 -35q-14 -61 -57 -96t-105 -35q-64 0 -100.5 40.5t-24.5 96.5l9 35q14 60 56.5 95.5t104.5 35.5q64 0 100.5 -40.5t24.5 -96.5z" />
    <glyph glyph-name="at" unicode="@" horiz-adv-x="2007" 
d="M934 309q122 0 224 107.5t102 247.5q0 89 -56.5 143.5t-148.5 54.5q-122 0 -216 -105t-94 -251q0 -91 51.5 -144t137.5 -53zM1407 -229q-201 -93 -432 -93q-251 0 -446 101t-302.5 282.5t-107.5 413.5q0 195 78.5 376.5t211.5 315.5t319.5 214.5t391.5 80.5
q187 0 343 -57t259 -154.5t160 -226t57 -272.5q0 -151 -40.5 -271.5t-107.5 -193.5t-148 -111.5t-168 -38.5q-104 0 -176 46.5t-99 125.5q-157 -174 -344 -174q-139 0 -233.5 92.5t-94.5 251.5q0 117 44.5 222.5t116 178.5t163.5 115.5t186 42.5q196 0 283 -166l16 54
q33 100 113 100q47 0 73.5 -37t8.5 -90l-137 -436q-33 -107 2.5 -171.5t124.5 -64.5q55 0 113 34.5t108.5 97.5t82.5 166t32 227q0 129 -51.5 244t-144.5 202t-233.5 137.5t-308.5 50.5q-188 0 -359.5 -74.5t-293.5 -198.5t-194 -291.5t-72 -346.5q0 -211 97 -375t273 -255
t404 -91q202 0 393 80q9 6 25 6q15 0 26 -11t11 -26q0 -21 -23 -32z" />
    <glyph glyph-name="A" unicode="A" horiz-adv-x="1552" 
d="M557 569h506l-98 580zM1176 1333l210 -1157q9 -52 9 -65q0 -50 -36.5 -85.5t-92.5 -35.5q-51 0 -84 28.5t-39 73.5l-43 254h-699l-194 -276q-59 -80 -129 -80q-47 0 -76 27t-29 73q0 43 31 82l848 1180q71 102 178 102h6q117 0 140 -121z" />
    <glyph glyph-name="B" unicode="B" horiz-adv-x="1468" 
d="M510 829h354q152 0 238 57.5t86 162.5q0 77 -60 119t-178 42h-340zM346 223h416q150 0 236.5 59.5t86.5 163.5q0 81 -66.5 125.5t-184.5 44.5h-383zM727 0h-543q-63 0 -92.5 44t-9.5 116l307 1147q17 60 54.5 93.5t88.5 33.5h441q228 0 348.5 -95t120.5 -249
q0 -143 -90 -238t-238 -127q223 -86 223 -293q0 -194 -162.5 -313t-447.5 -119z" />
    <glyph glyph-name="C" unicode="C" horiz-adv-x="1495" 
d="M1288 147q-91 -79 -216 -125.5t-271 -46.5q-185 0 -331 73t-231 213.5t-85 324.5q0 170 68.5 330t184 279t276.5 191t337 72q300 0 479 -201q51 -47 51 -106q0 -53 -37 -91t-92 -38q-59 0 -90 39q-66 81 -143 123.5t-197 42.5q-113 0 -219 -52t-184 -137.5t-125 -201.5
t-47 -240q0 -175 109 -281t282 -106q100 0 170 28t156 93q49 30 86 30q49 0 81.5 -34t32.5 -84q0 -59 -45 -95z" />
    <glyph glyph-name="D" unicode="D" horiz-adv-x="1587" 
d="M352 229h232q159 0 294 50t230 145q160 160 160 395q0 163 -101 264q-121 121 -372 121h-179zM532 1434h281q374 0 561 -187q156 -156 156 -418q0 -161 -59.5 -304.5t-172.5 -256.5q-268 -268 -745 -268h-369q-63 0 -92.5 44t-9.5 116l307 1147q17 60 54.5 93.5
t88.5 33.5z" />
    <glyph glyph-name="E" unicode="E" horiz-adv-x="1351" 
d="M1030 0h-846q-63 0 -92.5 44t-9.5 116l307 1147q17 60 54.5 93.5t88.5 33.5h811q46 0 79.5 -33.5t33.5 -79.5q0 -47 -33.5 -80t-79.5 -33h-729l-100 -374h576q47 0 80.5 -33t33.5 -80q0 -46 -33.5 -78.5t-80.5 -32.5h-635l-105 -385h680q46 0 79.5 -33t33.5 -79
q0 -47 -33.5 -80t-79.5 -33z" />
    <glyph glyph-name="F" unicode="F" horiz-adv-x="1353" 
d="M532 1434h824q47 0 80.5 -34t33.5 -81t-33.5 -81t-80.5 -34h-742l-104 -391h586q49 0 82.5 -33.5t33.5 -81.5t-33.5 -81t-82.5 -33h-647l-125 -469q-17 -59 -55 -92t-87 -33q-63 0 -93 42.5t-9 114.5l309 1160q17 60 54.5 93.5t88.5 33.5z" />
    <glyph glyph-name="G" unicode="G" horiz-adv-x="1601" 
d="M1475 641l-123 -430q-12 -47 -36.5 -79t-68.5 -56q-79 -44 -193 -72.5t-245 -28.5q-128 0 -244.5 39.5t-209.5 114.5t-148 194.5t-55 268.5q0 132 43 260.5t123.5 237t188 191.5t246 130t287.5 47q170 0 297 -49.5t201 -126.5q49 -45 49 -102q0 -51 -35.5 -87t-87.5 -36
q-50 0 -82 28q-74 69 -156 105.5t-204 36.5q-126 0 -240 -52.5t-193.5 -138.5t-126 -200.5t-46.5 -235.5q0 -184 114.5 -288.5t294.5 -104.5q169 0 303 74l89 301h-252q-46 0 -78.5 31.5t-32.5 76.5q0 46 32.5 78.5t78.5 32.5h407q64 0 93.5 -44.5t9.5 -115.5z" />
    <glyph glyph-name="H" unicode="H" horiz-adv-x="1548" 
d="M1563 1282l-314 -1169q-17 -58 -54 -90.5t-87 -32.5q-63 0 -92.5 43.5t-9.5 118.5l122 452h-673l-133 -491q-15 -58 -52.5 -90.5t-87.5 -32.5q-64 0 -93.5 44t-8.5 118l313 1169q17 58 54.5 90.5t87.5 32.5q63 0 92.5 -43.5t9.5 -118.5l-119 -444h674l129 483
q15 58 52 90.5t87 32.5q64 0 94 -44t9 -118z" />
    <glyph glyph-name="I" unicode="I" horiz-adv-x="649" 
d="M651 1282l-315 -1169q-15 -58 -52 -90.5t-87 -32.5q-64 0 -94 44t-9 118l314 1169q17 58 54 90.5t87 32.5q63 0 92.5 -43.5t9.5 -118.5z" />
    <glyph glyph-name="J" unicode="J" horiz-adv-x="1155" 
d="M1190 1282l-199 -739q-42 -158 -86.5 -250t-116.5 -166q-150 -147 -399 -147q-112 0 -209.5 44.5t-165.5 129.5q-43 43 -43 94t34.5 86t84.5 35q48 0 92 -41q78 -115 219 -115q129 0 217 88q41 41 71.5 106.5t64.5 192.5l192 721q17 58 54 90.5t87 32.5q63 0 93 -43.5
t10 -118.5z" />
    <glyph glyph-name="K" unicode="K" horiz-adv-x="1470" 
d="M393 381l-71 -268q-15 -58 -52.5 -90.5t-87.5 -32.5q-64 0 -93.5 44t-8.5 118l313 1169q17 58 54.5 90.5t87.5 32.5q63 0 92.5 -43.5t9.5 -118.5l-154 -571l830 686q54 47 104 47q53 0 84 -32t31 -81q0 -58 -45 -94l-533 -432l295 -619q21 -46 21 -84q0 -50 -37.5 -81
t-87.5 -31q-88 0 -129 88l-268 586z" />
    <glyph glyph-name="L" unicode="L" horiz-adv-x="1265" 
d="M973 0h-789q-63 0 -92.5 44t-9.5 116l311 1161q17 58 54.5 90.5t87.5 32.5q63 0 92.5 -43.5t9.5 -118.5l-283 -1053h619q47 0 80.5 -33.5t33.5 -80.5q0 -49 -33 -82t-81 -33z" />
    <glyph glyph-name="M" unicode="M" horiz-adv-x="1777" 
d="M1669 1442h21q64 0 93 -44.5t9 -119.5l-313 -1165q-15 -58 -53.5 -90.5t-90.5 -32.5q-62 0 -92 44t-10 118l219 819l-465 -496q-70 -76 -135 -76q-40 0 -65.5 21.5t-43.5 68.5l-192 482l-229 -856q-15 -59 -52.5 -92t-87.5 -33q-64 0 -93.5 44t-8.5 118l311 1159
q37 131 144 131h14q88 0 129 -103l252 -645l583 666q73 82 156 82z" />
    <glyph glyph-name="N" unicode="N" horiz-adv-x="1609" 
d="M1143 420l243 901q15 58 52 90.5t88 32.5q63 0 91.5 -43.5t8.5 -118.5l-317 -1173q-29 -117 -133 -117h-5q-56 0 -88 23.5t-55 72.5l-461 954l-250 -929q-15 -58 -51 -90.5t-86 -32.5q-63 0 -92 43.5t-8 118.5l311 1163q37 127 150 127h12q101 0 149 -105z" />
    <glyph glyph-name="O" unicode="O" horiz-adv-x="1712" 
d="M799 -25q-142 0 -262.5 48.5t-203.5 132.5t-130 200t-47 248q0 129 40 255t116.5 233.5t179 189.5t236 129t278.5 47q142 0 263.5 -48.5t204.5 -132.5t130 -200t47 -248q0 -162 -64 -316.5t-174.5 -273.5t-271.5 -191.5t-342 -72.5zM825 207q120 0 227.5 54t180 140.5
t114.5 195t42 218.5q0 181 -110 296.5t-298 115.5q-120 0 -227 -54t-179.5 -140.5t-114.5 -195.5t-42 -219q0 -182 109.5 -296.5t297.5 -114.5z" />
    <glyph glyph-name="P" unicode="P" horiz-adv-x="1380" 
d="M418 465l-96 -352q-15 -58 -52.5 -90.5t-87.5 -32.5q-64 0 -93.5 44t-8.5 118l309 1155q17 60 54.5 93.5t88.5 33.5h345q295 0 434 -142q106 -106 106 -282q0 -127 -52.5 -230.5t-145.5 -172t-221.5 -105.5t-280.5 -37h-299zM477 688h254q196 0 310 79.5t114 221.5
q0 86 -55 141q-74 74 -232 74h-254z" />
    <glyph glyph-name="Q" unicode="Q" horiz-adv-x="1712" 
d="M1118 598l127 -174q68 82 106 184.5t38 206.5q0 181 -110 296.5t-298 115.5q-120 0 -227 -54t-179.5 -140.5t-114.5 -195.5t-42 -219q0 -182 109.5 -296.5t297.5 -114.5q130 0 244 65l-123 150q-1 2 -8.5 12t-9.5 13.5t-8 13t-8 15.5t-5.5 14.5t-4.5 17.5t-1 18
q0 51 35.5 87t87.5 36q60 0 94 -51zM1266 -4l-66 84q-186 -105 -401 -105q-142 0 -262.5 48.5t-203.5 132.5t-130 200t-47 248q0 129 40 255t116.5 233.5t179 189.5t236 129t278.5 47q142 0 263.5 -48.5t204.5 -132.5t130 -200t47 -248q0 -170 -68.5 -330t-191.5 -280
l53 -61q41 -47 41 -99q0 -51 -33.5 -84.5t-85.5 -33.5q-69 0 -100 55z" />
    <glyph glyph-name="R" unicode="R" horiz-adv-x="1480" 
d="M426 500l-104 -387q-15 -58 -52.5 -90.5t-87.5 -32.5q-64 0 -93.5 44t-8.5 118l309 1155q17 60 54.5 93.5t88.5 33.5h412q297 0 434 -140q105 -105 105 -270q0 -200 -131 -328q-117 -120 -344 -170l202 -338q29 -42 29 -84q0 -53 -37 -83.5t-86 -30.5q-94 0 -143 82
l-248 428h-299zM487 723h324q233 0 338 108q72 72 72 173q0 76 -52 131q-72 69 -239 69h-314z" />
    <glyph glyph-name="S" unicode="S" horiz-adv-x="1304" 
d="M621 203q121 0 198.5 54.5t77.5 143.5q0 65 -55.5 111t-208.5 106q-71 28 -123.5 55t-100.5 61.5t-78.5 73t-48.5 88.5t-18 108q0 132 73.5 235.5t199 159t278.5 55.5q261 0 445 -141q57 -43 57 -107q0 -52 -36 -87.5t-87 -35.5q-47 0 -74 27q-74 62 -150.5 91.5
t-172.5 29.5q-121 0 -194 -56.5t-73 -132.5q0 -67 58.5 -111t220.5 -108q88 -34 149 -68.5t110 -80t73 -104t24 -132.5q0 -137 -77 -242.5t-203.5 -160.5t-278.5 -55t-291.5 44.5t-240.5 139.5q-49 42 -49 104q0 55 34 91t88 36q47 0 84 -33q91 -85 179.5 -122t210.5 -37z
" />
    <glyph glyph-name="T" unicode="T" horiz-adv-x="1267" 
d="M932 1200l-293 -1087q-15 -58 -52 -90.5t-87 -32.5q-64 0 -94 44t-9 118l283 1048h-318q-47 0 -81.5 35t-34.5 82t34.5 82t81.5 35h951q47 0 82 -35t35 -82t-35 -82t-82 -35h-381z" />
    <glyph glyph-name="U" unicode="U" horiz-adv-x="1560" 
d="M1589 1282l-190 -702q-73 -274 -223 -424q-179 -179 -469 -179q-250 0 -390.5 127t-140.5 347q0 98 33 227l170 643q17 58 54 90.5t87 32.5q63 0 93 -43.5t10 -118.5l-172 -639q-21 -99 -21 -158q0 -124 78 -199t223 -75q162 0 268 106q108 108 158 301l189 703
q15 58 53 90.5t88 32.5q63 0 92.5 -43.5t9.5 -118.5z" />
    <glyph glyph-name="V" unicode="V" horiz-adv-x="1476" 
d="M1575 1274l-819 -1190q-74 -104 -170 -104h-11q-53 0 -82 28t-38 86l-181 1174q-6 27 -6 61q0 50 37 82.5t96 32.5t93.5 -30.5t40.5 -86.5l131 -989l688 1024q51 82 133 82q50 0 81 -23.5t31 -68.5q0 -44 -24 -78z" />
    <glyph glyph-name="W" unicode="W" horiz-adv-x="2248" 
d="M2345 1272l-746 -1188q-62 -104 -167 -104h-11q-110 0 -116 112l-68 916l-561 -924q-65 -104 -164 -104h-12q-52 0 -82 29t-35 83l-104 1176q-5 40 -5 59q0 50 37.5 83.5t94.5 33.5q56 0 89.5 -28t34.5 -79l70 -966l582 979q28 49 61.5 73.5t81.5 24.5h14q52 0 81 -26
t32 -74l64 -977l598 989q51 84 137 84q52 0 84 -28t32 -75q0 -29 -22 -69z" />
    <glyph glyph-name="X" unicode="X" horiz-adv-x="1429" 
d="M922 713l272 -506q33 -57 33 -96q0 -51 -36.5 -86t-90.5 -35q-86 0 -131 88l-232 461l-483 -480q-34 -36 -62 -52.5t-67 -16.5q-45 0 -77 29t-32 81q0 54 50 101l548 542l-264 484q-31 60 -31 96q0 51 36.5 86t90.5 35q87 0 129 -88l228 -445l457 465q34 34 62.5 51
t66.5 17q45 0 76.5 -30t31.5 -79q0 -53 -45 -98z" />
    <glyph glyph-name="Y" unicode="Y" horiz-adv-x="1341" 
d="M782 535l-112 -422q-17 -58 -54.5 -90.5t-87.5 -32.5q-63 0 -92.5 43.5t-9.5 118.5l111 409l-283 670q-25 60 -25 94q0 51 38 85t98 34q86 0 122 -98l222 -566l553 594q69 72 137 72q50 0 78 -28t28 -77q0 -55 -45 -100z" />
    <glyph glyph-name="Z" unicode="Z" horiz-adv-x="1394" 
d="M53 225l1053 985h-662q-46 0 -79 32.5t-33 78.5t33 79.5t79 33.5h938q51 0 80 -26t29 -71v-4q0 -58 -70 -125l-1052 -985h698q46 0 79.5 -33t33.5 -79t-33.5 -78.5t-79.5 -32.5h-975q-50 0 -79 26t-29 70v4q0 56 69 125z" />
    <glyph glyph-name="bracketleft" unicode="[" horiz-adv-x="931" 
d="M971 1239h-334l-352 -1311h280q40 0 69.5 -28.5t29.5 -67.5q0 -40 -29.5 -69t-69.5 -29h-430q-57 0 -87.5 38t-16.5 91l387 1444q14 57 54 92t99 35h400q39 0 67.5 -29.5t28.5 -69.5t-28 -68t-68 -28z" />
    <glyph glyph-name="backslash" unicode="\" horiz-adv-x="1067" 
d="M487 1546l379 -1650q11 -63 11 -76q0 -40 -27 -66t-70 -26q-86 0 -106 98l-379 1651q-10 57 -10 75q0 40 27 66.5t69 26.5q43 0 70 -26.5t36 -72.5z" />
    <glyph glyph-name="bracketright" unicode="]" horiz-adv-x="931" 
d="M383 -266h-399q-40 0 -69.5 29t-29.5 69q0 39 29.5 67.5t69.5 28.5h331l353 1311h-281q-40 0 -69 28t-29 68t29 69.5t69 29.5h432q56 0 87 -38.5t16 -90.5l-387 -1444q-14 -56 -54 -91.5t-98 -35.5z" />
    <glyph glyph-name="asciicircum" unicode="^" horiz-adv-x="1024" 
d="M299 1110l258 258q74 74 141 74h17q43 0 70 -18.5t46 -59.5l121 -262q19 -44 19 -60q0 -20 -15.5 -31.5t-42.5 -11.5q-49 0 -74.5 15.5t-54.5 72.5l-98 193l-203 -197q-54 -48 -85.5 -66t-69.5 -18q-29 0 -44.5 15t-15.5 35q0 30 31 61z" />
    <glyph glyph-name="underscore" unicode="_" horiz-adv-x="1228" 
d="M-207 -328q-40 0 -69 28.5t-29 68.5t29 68t69 28h1237q40 0 68 -28t28 -68t-28 -68.5t-68 -28.5h-1237z" />
    <glyph glyph-name="grave" unicode="`" horiz-adv-x="1024" 
d="M688 1264l-104 131q-25 36 -25 55q0 32 47.5 59t98.5 27q71 0 92 -63l65 -175q8 -19 8 -36q0 -25 -20.5 -39.5t-56.5 -14.5q-37 0 -59 11.5t-46 44.5z" />
    <glyph glyph-name="a" unicode="a" horiz-adv-x="1193" 
d="M449 156q112 0 207 74.5t126 183.5l15 49q-125 41 -262 41q-116 0 -189.5 -55.5t-73.5 -147.5q0 -65 48 -105t129 -40zM801 -10q-64 0 -87 33t-18 81l11 39q-150 -166 -357 -166q-140 0 -232.5 81.5t-92.5 213.5q0 182 132.5 287t340.5 105q157 0 336 -54l6 19
q12 54 12 90q0 164 -240 164q-103 0 -213 -31q-21 -6 -43 -6q-43 0 -70.5 28.5t-27.5 71.5q0 36 21.5 61.5t56.5 36.5q158 52 326 52q210 0 321 -87t111 -247q0 -56 -23 -158l-131 -491q-17 -59 -53.5 -91t-85.5 -32z" />
    <glyph glyph-name="b" unicode="b" 
d="M676 -23q-249 0 -367 216l-20 -80q-14 -55 -49 -89t-88 -34q-63 0 -92 43.5t-9 116.5l328 1232q17 59 53.5 91t85.5 32q63 0 91.5 -43t8.5 -116l-110 -408q80 80 163 123t183 43q185 0 303.5 -126t118.5 -337q0 -140 -50.5 -265t-133.5 -211.5t-192 -137t-224 -50.5z
M645 190q153 0 263 127t110 308q0 122 -70 194t-186 72q-98 0 -188 -58.5t-145.5 -158t-55.5 -211.5q0 -119 76 -196t196 -77z" />
    <glyph glyph-name="c" unicode="c" horiz-adv-x="1148" 
d="M958 111q-164 -136 -372 -136q-214 0 -355 132.5t-141 349.5q0 130 52 250t138.5 206.5t204 138.5t244.5 52q234 0 375 -158q43 -47 43 -98q0 -48 -34 -81.5t-83 -33.5q-57 0 -86 39q-86 117 -235 117q-72 0 -140 -35.5t-118.5 -93.5t-81.5 -137.5t-31 -163.5
q0 -122 74 -196.5t182 -74.5q118 0 227 82q41 29 76 29q42 0 71 -30.5t29 -73.5q0 -48 -39 -84z" />
    <glyph glyph-name="d" unicode="d" 
d="M606 190q98 0 188 58.5t145.5 158t55.5 211.5q0 119 -76.5 196t-197.5 77q-152 0 -262.5 -127t-110.5 -307q0 -123 70.5 -195t187.5 -72zM954 -10q-53 0 -81.5 29t-26.5 79l12 45q-80 -80 -163 -123t-183 -43q-184 0 -303 126t-119 337q0 140 51 265t134 211.5t192.5 137
t224.5 50.5q248 0 365 -215l131 493q15 58 52 90.5t87 32.5q63 0 91 -43t7 -116l-327 -1233q-15 -58 -53 -90.5t-91 -32.5z" />
    <glyph glyph-name="e" unicode="e" horiz-adv-x="1228" 
d="M606 178q121 0 217 66q46 24 78 24q40 0 67 -27t27 -69q0 -55 -47 -84q-154 -113 -366 -113q-226 0 -359 128t-133 346q0 120 47.5 237t129 210t202.5 150.5t258 57.5q203 0 317.5 -118t114.5 -302q0 -49 -12 -119q-24 -110 -123 -110h-696v-21q5 -118 77 -187t201 -69z
M352 618h561q11 33 11 76q0 91 -54 149t-161 58q-123 0 -219.5 -79t-137.5 -204z" />
    <glyph glyph-name="f" unicode="f" horiz-adv-x="811" 
d="M549 868l-203 -755q-17 -59 -53.5 -91t-85.5 -32q-63 0 -92 43.5t-9 116.5l195 718h-29q-38 5 -66 33t-28 74q0 45 31 75.5t74 30.5h75l21 88q90 336 412 336q62 0 116 -14q38 -8 61 -33t23 -65q0 -57 -35 -88.5t-79 -22.5q-41 12 -80 12q-137 0 -179 -151l-16 -62h174
q44 0 74.5 -30.5t30.5 -75.5q0 -46 -30.5 -76.5t-74.5 -30.5h-227z" />
    <glyph glyph-name="g" unicode="g" horiz-adv-x="1363" 
d="M606 289q150 0 263.5 109t113.5 253q0 105 -72 173.5t-190 68.5q-147 0 -256 -110t-109 -263q0 -111 70.5 -171t179.5 -60zM1053 887l22 82q15 57 49 91t88 34q63 0 92 -44t9 -118l-199 -744q-39 -146 -79.5 -226t-104.5 -142q-152 -152 -426 -152q-260 0 -471 117
q-68 36 -68 96q0 45 30.5 77t74.5 32q34 0 75 -21q160 -100 344 -100q169 0 265 96q69 69 112 219l19 66q-90 -83 -176 -123.5t-195 -40.5t-202 44t-153.5 135t-60.5 212q0 131 51 249t134.5 200t192 130t220.5 48q74 0 133 -17.5t101 -50t70 -68t53 -81.5z" />
    <glyph glyph-name="h" unicode="h" horiz-adv-x="1265" 
d="M1135 590l-127 -477q-15 -58 -51.5 -90.5t-86.5 -32.5q-63 0 -91.5 43t-8.5 117l121 450q16 56 16 109q0 81 -49 125.5t-139 44.5q-103 0 -183.5 -75t-113.5 -196l-133 -495q-15 -58 -51 -90.5t-86 -32.5q-63 0 -92 43.5t-9 116.5l328 1232q17 59 53.5 91t85.5 32
q63 0 91.5 -43t8.5 -116l-108 -402q164 160 330 160q150 0 238.5 -87.5t88.5 -236.5q0 -64 -32 -190z" />
    <glyph glyph-name="i" unicode="i" horiz-adv-x="585" 
d="M653 1352q-12 -52 -56.5 -83.5t-104.5 -31.5q-61 0 -97 33.5t-24 83.5l6 24q12 53 56.5 84t105.5 31q60 0 95 -34t25 -83zM522 932l-219 -819q-17 -59 -53.5 -91t-85.5 -32q-63 0 -92 43.5t-9 116.5l222 819q15 60 51 92.5t86 32.5q64 0 92 -44t8 -118z" />
    <glyph glyph-name="j" unicode="j" horiz-adv-x="583" 
d="M522 932l-254 -946q-84 -320 -366 -320q-154 0 -154 105q0 45 29.5 75.5t72.5 26.5q30 -6 54 -6q45 0 73.5 33t49.5 106l258 963q15 60 51 92.5t86 32.5q64 0 92 -44t8 -118zM653 1352q-12 -52 -56.5 -83.5t-104.5 -31.5q-61 0 -97 33.5t-24 83.5l6 24q12 53 56.5 84
t105.5 31q60 0 95 -34t25 -83z" />
    <glyph glyph-name="k" unicode="k" horiz-adv-x="1191" 
d="M621 1346l-199 -742l569 445q19 15 30 22.5t29.5 15t36.5 7.5q45 0 74 -29t29 -72q0 -57 -47 -86l-373 -284l199 -437q24 -57 24 -86q0 -51 -39 -80.5t-90 -29.5q-91 0 -127 88l-182 391l-215 -164l-51 -192q-15 -58 -51 -90.5t-86 -32.5q-63 0 -92 43.5t-9 116.5
l332 1232q15 58 51 90.5t86 32.5q63 0 92 -43t9 -116z" />
    <glyph glyph-name="l" unicode="l" horiz-adv-x="585" 
d="M633 1346l-330 -1233q-17 -59 -53.5 -91t-85.5 -32q-63 0 -92 43.5t-9 116.5l332 1232q15 58 52 90.5t88 32.5q63 0 90.5 -42.5t7.5 -116.5z" />
    <glyph glyph-name="m" unicode="m" horiz-adv-x="1945" 
d="M752 150l120 450q15 66 15 109q0 82 -45.5 126t-130.5 44q-101 0 -178.5 -74.5t-110.5 -196.5l-133 -495q-15 -58 -51 -90.5t-86 -32.5q-63 0 -92 43.5t-9 116.5l219 819q15 60 52 92.5t90 32.5t82.5 -31t27.5 -76l-12 -43q76 76 149.5 118t167.5 42q115 0 190.5 -59.5
t104.5 -157.5q161 217 406 217q146 0 233.5 -88t87.5 -236q0 -56 -34 -190l-127 -477q-15 -58 -51.5 -90.5t-86.5 -32.5q-64 0 -92 43t-8 117l121 450q14 61 14 109q0 82 -45.5 126t-130.5 44q-100 0 -178 -75t-109 -196l-133 -495q-15 -58 -51.5 -90.5t-87.5 -32.5
q-63 0 -90.5 43t-7.5 117z" />
    <glyph glyph-name="n" unicode="n" horiz-adv-x="1263" 
d="M412 1094q53 0 82.5 -31t27.5 -76l-12 -43q164 160 330 160q150 0 238.5 -87.5t88.5 -236.5q0 -64 -32 -190l-127 -477q-15 -58 -51.5 -90.5t-86.5 -32.5q-63 0 -91.5 43t-8.5 117l121 450q16 56 16 109q0 81 -49 125.5t-139 44.5q-103 0 -183.5 -75t-113.5 -196
l-133 -495q-15 -58 -51 -90.5t-86 -32.5q-63 0 -92 43.5t-9 116.5l219 819q15 60 52 92.5t90 32.5z" />
    <glyph glyph-name="o" unicode="o" horiz-adv-x="1323" 
d="M600 -25q-229 0 -368.5 138.5t-139.5 355.5q0 122 50 238t134.5 203.5t202 140.5t244.5 53q229 0 368.5 -139t139.5 -357q0 -122 -50.5 -238t-135.5 -202.5t-202 -139.5t-243 -53zM614 190q100 0 187.5 62.5t135.5 157t48 192.5q0 134 -75.5 210.5t-200.5 76.5
q-102 0 -189 -63t-134.5 -157.5t-47.5 -191.5q0 -134 75.5 -210.5t200.5 -76.5z" />
    <glyph glyph-name="p" unicode="p" 
d="M762 891q-98 0 -188 -58.5t-145.5 -158t-55.5 -211.5q0 -119 76 -196t196 -77q153 0 263 127t110 308q0 122 -70 194t-186 72zM412 1094q54 0 82 -30t26 -81l-12 -45q80 80 163 123t183 43q185 0 303.5 -126t118.5 -337q0 -140 -50.5 -265t-133.5 -211.5t-192 -137
t-224 -50.5q-249 0 -367 216l-108 -408q-15 -58 -51.5 -90.5t-86.5 -32.5q-64 0 -92 43t-8 117l307 1147q15 60 52 92.5t90 32.5z" />
    <glyph glyph-name="q" unicode="q" 
d="M692 1104q249 0 365 -213l22 78q14 56 49 90.5t89 34.5q62 0 90 -44t8 -118l-303 -1147q-17 -59 -54 -91t-86 -32q-63 0 -91.5 43t-8.5 117l86 323q-161 -168 -346 -168q-184 0 -303 126t-119 337q0 140 51 265t134 211.5t192.5 137t224.5 50.5zM721 891
q-152 0 -262.5 -127t-110.5 -307q0 -123 70.5 -195t187.5 -72q98 0 188 59t145.5 159t55.5 213q0 119 -76.5 194.5t-197.5 75.5z" />
    <glyph glyph-name="r" unicode="r" horiz-adv-x="843" 
d="M510 946l-25 -92q67 116 151 179t169 63q51 0 79.5 -30t28.5 -83q0 -103 -116 -131q-328 -73 -430 -451l-78 -288q-17 -59 -53.5 -91t-85.5 -32q-63 0 -92 43.5t-9 116.5l221 819q15 60 51.5 92.5t86.5 32.5q61 0 89 -41.5t13 -106.5z" />
    <glyph glyph-name="s" unicode="s" horiz-adv-x="1021" 
d="M465 170q74 0 123 35t49 94q0 39 -37 69.5t-121 65.5q-62 25 -102.5 44.5t-84 48t-68 57.5t-40.5 69.5t-16 89.5q0 156 116.5 258.5t307.5 102.5q93 0 186 -30t162 -73q57 -33 57 -94q0 -45 -30 -76.5t-74 -31.5q-29 0 -68 24q-125 86 -252 86q-77 0 -121 -34.5
t-44 -88.5q0 -40 38.5 -71t133.5 -70q70 -30 117 -55.5t91.5 -62t66.5 -82.5t22 -103q0 -165 -122 -266t-311 -101q-227 0 -417 142q-45 33 -45 88q0 44 29.5 75t70.5 31q39 0 72 -26q142 -115 311 -115z" />
    <glyph glyph-name="t" unicode="t" horiz-adv-x="837" 
d="M352 1081l51 185q15 58 51.5 90.5t86.5 32.5q63 0 91.5 -43t8.5 -117l-41 -148h166q43 0 73.5 -30.5t30.5 -75.5t-30.5 -76t-73.5 -31h-223l-140 -522q-8 -40 -8 -61q0 -41 27.5 -62.5t77.5 -21.5q23 0 43 4q42 3 69 -21.5t27 -70.5q0 -76 -68 -103q-62 -28 -165 -28
q-131 0 -203 58t-72 155q0 59 19 124l145 549h-29q-38 5 -66 33t-28 74q0 45 30.5 75.5t73.5 30.5h76z" />
    <glyph glyph-name="u" unicode="u" horiz-adv-x="1265" 
d="M854 -10q-52 0 -82.5 30t-28.5 74l13 45q-162 -162 -328 -162q-151 0 -240.5 87.5t-89.5 236.5q0 61 33 191l127 477q15 60 51 92.5t86 32.5q64 0 92.5 -44t8.5 -118l-121 -451q-15 -62 -15 -108q0 -81 49.5 -125.5t137.5 -44.5q103 0 183.5 74.5t113.5 195.5l133 496
q15 60 51 92.5t86 32.5q64 0 92 -44t8 -118l-217 -819q-17 -59 -54 -91t-89 -32z" />
    <glyph glyph-name="v" unicode="v" horiz-adv-x="1191" 
d="M1196 926l-588 -842q-37 -53 -74.5 -77.5t-89.5 -24.5h-6q-110 0 -125 110l-133 821q-6 27 -6 64q0 49 38 83t87 34q55 0 88.5 -29t38.5 -80l84 -694l471 721q55 82 131 82q49 0 77 -26t28 -71q0 -36 -21 -71z" />
    <glyph glyph-name="w" unicode="w" horiz-adv-x="1746" 
d="M240 96l-58 817q-4 36 -4 62q0 49 38.5 84t88.5 35q55 0 89.5 -29.5t35.5 -79.5l31 -641l385 651q57 99 145 99h13q49 0 78 -27t32 -74l37 -651l399 674q43 78 119 78q47 0 73.5 -26t26.5 -69q0 -31 -22 -71l-516 -846q-59 -100 -160 -100h-8q-52 0 -82 29t-33 85
l-39 635l-387 -647q-60 -102 -160 -102h-8q-52 0 -81.5 29t-32.5 85z" />
    <glyph glyph-name="x" unicode="x" horiz-adv-x="1171" 
d="M473 1004l152 -285l319 311q47 45 69 55q23 11 52 11q42 0 71 -28t29 -71q0 -60 -57 -110l-379 -346l203 -342q31 -54 31 -97q0 -53 -33.5 -85.5t-87.5 -32.5q-42 0 -70 23t-53 71l-160 303l-342 -330q-5 -4 -16.5 -14.5t-16.5 -14t-15 -11.5t-16.5 -11t-16 -7
t-19.5 -5.5t-21 -1.5q-43 0 -71.5 28t-28.5 72q0 60 57 111l400 362l-193 324q-33 51 -33 96q0 50 32.5 83.5t84.5 33.5q47 0 74.5 -22t54.5 -70z" />
    <glyph glyph-name="y" unicode="y" horiz-adv-x="1198" 
d="M61 -98q66 -25 109 -25q89 0 174 121l-151 915q-5 45 -5 62q0 51 35 85t88 34q51 0 85 -30t38 -81l96 -709l451 738q49 82 129 82q48 0 78.5 -27t30.5 -72q0 -32 -33 -86l-606 -940q-107 -165 -209.5 -234t-231.5 -69q-96 0 -157 31q-76 31 -76 108q0 44 30 76.5t70 32.5
q15 0 55 -12z" />
    <glyph glyph-name="z" unicode="z" horiz-adv-x="1134" 
d="M328 1081h710q52 0 81.5 -24t29.5 -66v-2q0 -59 -59 -110l-758 -676h493q42 0 72.5 -30.5t30.5 -72.5q0 -41 -30.5 -70.5t-72.5 -29.5h-739q-51 0 -81 24.5t-30 67.5v2q0 57 60 109l758 676h-465q-43 0 -73 29.5t-30 70.5q0 43 30 72.5t73 29.5z" />
    <glyph glyph-name="braceleft" unicode="{" horiz-adv-x="997" 
d="M213 682h12q145 0 207 71t90 263q32 217 150 322t344 122q54 4 82 -18.5t28 -65.5q0 -37 -21 -59.5t-58 -28.5q-81 -12 -135.5 -35.5t-89 -65t-53.5 -94.5t-30 -132q-18 -141 -58.5 -223t-103 -119t-165.5 -50q81 -15 123.5 -61.5t42.5 -116.5q0 -52 -33 -145
q-37 -118 -37 -172q0 -69 32.5 -110t96.5 -68q59 -26 59 -86q0 -47 -33 -72.5t-83 -13.5q-159 38 -234.5 114t-75.5 195q0 71 43 196q27 86 27 138q0 57 -26.5 85t-94.5 37q-108 19 -108 99q0 41 28 67.5t74 26.5z" />
    <glyph glyph-name="bar" unicode="|" horiz-adv-x="677" 
d="M276 -174v1720q0 41 29.5 70t69.5 29q41 0 70.5 -29t29.5 -70v-1720q0 -41 -29.5 -69.5t-70.5 -28.5q-40 0 -69.5 28.5t-29.5 69.5z" />
    <glyph glyph-name="braceright" unicode="}" horiz-adv-x="997" 
d="M809 494h-12q-144 0 -206.5 -71t-90.5 -263q-32 -217 -150 -322.5t-344 -122.5q-54 -4 -82 18.5t-28 65.5q0 37 21 59.5t58 28.5q81 12 135.5 35.5t89 65.5t53.5 95t30 132q18 141 59 223.5t103.5 119t164.5 48.5q-80 15 -122 61.5t-42 116.5q0 59 31 146q37 118 37 172
q0 70 -32.5 110.5t-96.5 67.5q-59 26 -59 86q0 46 33.5 72t82.5 14q160 -38 236 -114t76 -195q0 -72 -43 -197q-29 -82 -29 -137q0 -57 27 -85.5t94 -37.5h2q106 -19 106 -98q0 -41 -28 -67.5t-74 -26.5z" />
    <glyph glyph-name="asciitilde" unicode="~" horiz-adv-x="1013" 
d="M221 469q-31 0 -52.5 20t-21.5 50q0 26 17 53q106 190 252 190q47 0 80.5 -15.5t72.5 -47.5q42 -32 63 -43.5t44 -11.5q56 0 108 75q33 41 78 41q31 0 51.5 -18.5t20.5 -48.5q0 -31 -14 -56q-108 -188 -252 -188q-48 0 -81 15t-75 48q-60 46 -78 52q-13 4 -26 4
q-30 0 -55.5 -18t-55.5 -58q-31 -43 -76 -43z" />
    <glyph glyph-name="uni00A0" unicode="&#xa0;" horiz-adv-x="614" 
 />
    <glyph glyph-name="exclamdown" unicode="&#xa1;" horiz-adv-x="620" 
d="M45 84l293 844q23 63 82 63q34 0 51.5 -22.5t11.5 -61.5l-155 -827q-8 -38 -33 -62t-59 -24h-138q-35 0 -51 26.5t-2 63.5zM365 1278l8 35q14 61 57 96t105 35q64 0 100 -40.5t24 -96.5l-8 -35q-14 -60 -57 -95.5t-105 -35.5q-64 0 -100 40.5t-24 96.5z" />
    <glyph glyph-name="cent" unicode="&#xa2;" horiz-adv-x="1183" 
d="M1034 274q-161 -112 -362 -112q-32 0 -94 8l-43 -107q-32 -86 -99 -86q-45 0 -67 33t-2 82l49 121q-129 59 -202 173.5t-73 266.5q0 175 84.5 321.5t232 231t324.5 84.5q36 0 54 -2l32 82q37 86 101 86q45 0 66 -32t1 -83l-35 -88q121 -46 183 -127q47 -47 47 -94
q0 -50 -34 -83.5t-85 -33.5q-52 0 -84 37q-48 63 -117 92l-260 -665q6 -2 21 -2q121 3 233 74q46 24 82 24q42 0 69 -30t27 -74q0 -63 -49 -97zM387 657q0 -77 31.5 -137t87.5 -94l254 649h-8q-155 -10 -260 -134t-105 -284z" />
    <glyph glyph-name="sterling" unicode="&#xa3;" horiz-adv-x="1306" 
d="M924 1221q-100 0 -172 -72q-64 -64 -101 -195l-49 -172h391q43 0 75 -31.5t32 -74.5q0 -44 -32 -75.5t-75 -31.5h-446l-92 -350h534q46 0 78.5 -32t32.5 -78t-32.5 -77.5t-78.5 -31.5h-897q-42 0 -70 25.5t-28 62.5q0 71 82 94l125 35l94 352h-37q-43 0 -74.5 31.5
t-31.5 75.5q0 43 31.5 74.5t74.5 31.5h94l58 215q54 203 163 312q143 143 369 143q217 0 340 -133q53 -49 53 -102q0 -55 -35 -92.5t-90 -37.5q-47 0 -86 39q-38 45 -83.5 70t-116.5 25z" />
    <glyph glyph-name="yen" unicode="&#xa5;" horiz-adv-x="1449" 
d="M786 831l512 543q34 36 61.5 54t61.5 18q49 0 77 -28t28 -77t-47 -100l-514 -518h217q38 0 65 -27t27 -65q0 -37 -27 -63.5t-65 -26.5h-340l-39 -150h291q38 0 65 -27t27 -65q0 -37 -27 -63.5t-65 -26.5h-340l-25 -96q-17 -58 -54 -90.5t-83 -32.5q-61 0 -90 39.5
t-8 111.5l16 68h-289q-37 0 -64.5 26.5t-27.5 63.5q0 38 27.5 65t64.5 27h338l39 150h-289q-38 0 -65 26.5t-27 63.5q0 38 27 65t65 27h266l-225 508q-26 63 -26 92q0 52 36.5 86.5t90.5 34.5q88 0 122 -84z" />
    <glyph glyph-name="section" unicode="&#xa7;" horiz-adv-x="1294" 
d="M813 563q75 0 128.5 36.5t53.5 88.5q0 46 -46.5 77t-157.5 66q-130 43 -216 43q-75 0 -128.5 -36t-53.5 -88q0 -46 47 -77.5t158 -66.5q130 -43 215 -43zM598 172q78 0 127 28t49 74q0 42 -51 72.5t-180 69.5q-76 23 -126.5 41.5t-104 45t-84.5 54.5t-50.5 67.5
t-19.5 86.5q0 106 83 176t232 90q-98 73 -98 178q0 133 124 217t314 84q108 0 210 -31.5t175 -81.5q51 -33 51 -92q0 -44 -31 -75t-75 -31q-35 0 -64 22q-146 99 -284 99q-81 0 -131 -28.5t-50 -74.5q0 -42 51 -72t181 -69q76 -22 127 -40.5t104 -44.5t84 -54t50.5 -67.5
t19.5 -86.5q0 -106 -83.5 -177t-232.5 -91q99 -74 99 -178q0 -132 -122.5 -216.5t-307.5 -84.5q-126 0 -236.5 37t-189.5 100q-43 31 -43 86q0 44 29.5 75t72.5 31q44 0 72 -24q144 -115 309 -115z" />
    <glyph glyph-name="dieresis" unicode="&#xa8;" horiz-adv-x="1024" 
d="M539 1475q57 0 90.5 -36t21.5 -85l-8 -33q-12 -50 -53.5 -82.5t-97.5 -32.5q-59 0 -93 36t-22 85l8 33q13 52 55.5 83.5t98.5 31.5zM946 1475q57 0 91 -36t22 -85l-8 -33q-12 -50 -54 -82.5t-98 -32.5q-59 0 -93 36t-22 85l9 33q13 52 55 83.5t98 31.5z" />
    <glyph glyph-name="copyright" unicode="&#xa9;" horiz-adv-x="1699" 
d="M893 -25q-153 0 -290.5 59t-235.5 158.5t-155.5 235.5t-57.5 285v4q0 149 58 285.5t157 236.5t237 159.5t291 59.5t290.5 -59t235.5 -158t155.5 -235t57.5 -285v-4q0 -149 -58 -285.5t-157 -237t-237 -160t-291 -59.5zM893 49q139 0 263.5 53t212.5 143t139 213t51 259v4
q0 181 -86 333t-238.5 241t-337.5 89q-186 0 -339 -90t-239 -242.5t-86 -334.5v-4q0 -136 50.5 -258.5t137.5 -211.5t210 -141.5t262 -52.5zM903 326q-168 0 -280.5 115t-112.5 282v4q0 167 113.5 284t285.5 117q155 0 265 -88q32 -22 32 -61q0 -32 -21 -54t-52 -22
q-22 0 -50 21q-83 65 -176 65q-103 0 -172 -76t-69 -184v-4q0 -107 69.5 -183.5t173.5 -76.5q100 0 187 74q18 18 45 18q29 0 50 -21.5t21 -50.5q0 -30 -24 -51q-60 -54 -126 -81t-159 -27z" />
    <glyph glyph-name="ordfeminine" unicode="&#xaa;" horiz-adv-x="798" 
d="M444 928q60 0 114 41.5t69 99.5l4 21q-77 22 -133 22q-63 0 -102.5 -31t-39.5 -80q0 -32 24 -52.5t64 -20.5zM535 1317q-58 0 -109 -14l-35 -7q-24 0 -38.5 14.5t-14.5 41.5q0 48 47 63q87 27 180 27q117 0 178.5 -48t61.5 -137q0 -30 -12 -88l-74 -268q-9 -34 -30.5 -53
t-49.5 -19q-34 0 -50 19.5t-11 48.5l6 21q-90 -93 -197 -93q-77 0 -126.5 45t-49.5 115q0 100 74.5 159.5t187.5 59.5q84 0 180 -30l4 14q9 32 9 41q0 88 -131 88zM164 578q-25 0 -42.5 17t-17.5 42t17.5 42t42.5 17h452q25 0 42.5 -17t17.5 -42t-17.5 -42t-42.5 -17h-452z
" />
    <glyph glyph-name="guillemotleft" unicode="&#xab;" horiz-adv-x="1239" 
d="M137 575l361 355q20 17 31 25.5t30.5 17t38.5 8.5q42 0 68 -25t26 -67q0 -48 -37 -78l-317 -307l133 -266q16 -40 16 -66q0 -43 -31 -71.5t-75 -28.5q-67 0 -98 63l-152 301q-2 5 -9 18t-9.5 19t-5.5 16.5t-3 20.5q0 35 33 65zM651 575l359 355q20 17 31 25.5t30.5 17
t38.5 8.5q43 0 68.5 -24.5t25.5 -67.5q0 -47 -35 -78l-319 -307l133 -266q16 -33 16 -66q0 -43 -31 -71.5t-75 -28.5q-67 0 -98 63l-152 301q-2 5 -9 18t-9.5 19t-5.5 16.5t-3 20.5q0 34 35 65z" />
    <glyph glyph-name="registered" unicode="&#xae;" horiz-adv-x="782" 
d="M545 737q-150 0 -253.5 105t-103.5 252v2q0 147 104.5 252.5t252.5 105.5q150 0 253 -104.5t103 -251.5v-2q0 -147 -104 -253t-252 -106zM545 776q132 0 223.5 94t91.5 226v2q0 132 -90.5 224.5t-224.5 92.5q-133 0 -224.5 -94t-91.5 -225v-2q0 -132 91 -225t225 -93z
M397 954v287q0 20 13 33.5t32 13.5h129q68 0 109 -31.5t41 -91.5q0 -82 -74 -112l55 -68q13 -13 13 -33q0 -19 -12.5 -31t-32.5 -12q-18 0 -37 19l-86 106h-60v-80q0 -19 -13 -32t-32 -13t-32 13t-13 32zM487 1108h78q30 0 47 13.5t17 37.5t-17 37.5t-47 13.5h-78v-102z" />
    <glyph glyph-name="macron" unicode="&#xaf;" horiz-adv-x="1024" 
d="M995 1241h-542q-37 0 -64 26.5t-27 63.5t27 63.5t64 26.5h542q38 0 65 -26.5t27 -63.5t-27 -63.5t-65 -26.5z" />
    <glyph glyph-name="degree" unicode="&#xb0;" horiz-adv-x="862" 
d="M489 772q-139 0 -224 84t-85 215q0 151 111 265t266 114q138 0 222.5 -84t84.5 -215q0 -150 -111 -264.5t-264 -114.5zM496 911q89 0 151 72t62 162q0 75 -44.5 121.5t-115.5 46.5q-89 0 -151 -72.5t-62 -161.5q0 -76 44.5 -122t115.5 -46z" />
    <glyph glyph-name="plusminus" unicode="&#xb1;" horiz-adv-x="1298" 
d="M821 764l-69 -262q-15 -56 -49 -87.5t-78 -31.5q-57 0 -82.5 39t-7.5 108l61 234h-252q-44 0 -75 32t-31 76q0 45 31 77t75 32h311l70 260q15 56 49 87.5t78 31.5q57 0 82.5 -39.5t7.5 -108.5l-61 -231h252q44 0 75 -32t31 -77q0 -44 -31 -76t-75 -32h-312zM928 0h-791
q-43 0 -73.5 30.5t-30.5 73.5q0 44 30.5 75.5t73.5 31.5h791q44 0 75 -31.5t31 -75.5q0 -43 -31 -73.5t-75 -30.5z" />
    <glyph glyph-name="acute" unicode="&#xb4;" horiz-adv-x="1024" 
d="M901 1395l-174 -131q-76 -56 -152 -56q-67 0 -67 47q0 25 20 45l164 181q21 21 31 30t29 18t39 9q51 0 100 -27.5t49 -58.5q0 -30 -39 -57z" />
    <glyph glyph-name="paragraph" unicode="&#xb6;" horiz-adv-x="1157" 
d="M1178 1305l-318 -1192q-17 -58 -54 -90.5t-87 -32.5q-64 0 -94 44t-9 118l82 313q-240 8 -375 111t-135 307q0 121 45 221t131.5 174t222 115t306.5 41h182q58 0 87.5 -37.5t15.5 -91.5z" />
    <glyph glyph-name="periodcentered" unicode="&#xb7;" horiz-adv-x="600" 
d="M463 641l-8 -35q-14 -61 -57 -96t-105 -35q-64 0 -100.5 40.5t-24.5 96.5l8 35q14 60 57 95.5t105 35.5q64 0 100.5 -40.5t24.5 -96.5z" />
    <glyph glyph-name="cedilla" unicode="&#xb8;" horiz-adv-x="1024" 
d="M547 20l-205 -294q-35 -54 -86 -54q-40 0 -77.5 27.5t-37.5 60.5q0 27 29 60l190 200h187z" />
    <glyph glyph-name="ordmasculine" unicode="&#xba;" horiz-adv-x="815" 
d="M504 821q-129 0 -207 77.5t-78 197.5q0 139 101.5 243.5t244.5 104.5q128 0 206.5 -77t78.5 -198q0 -139 -101 -243.5t-245 -104.5zM510 946q83 0 140 67.5t57 149.5q0 70 -41 113t-107 43q-83 0 -140 -67t-57 -150q0 -69 41 -112.5t107 -43.5zM166 578q-24 0 -42 17.5
t-18 41.5t18 41.5t42 17.5h483q25 0 42.5 -17t17.5 -42t-17.5 -42t-42.5 -17h-483z" />
    <glyph glyph-name="guillemotright" unicode="&#xbb;" horiz-adv-x="1239" 
d="M1096 492l-361 -355q-55 -51 -98 -51t-69.5 25t-26.5 67q0 45 37 78l317 307l-131 266q-19 40 -19 66q0 42 32 71t75 29q38 0 60 -15t38 -48l152 -301l7 -14t7.5 -15.5t5.5 -13.5t4.5 -15.5t1.5 -15.5q0 -36 -32 -65zM584 492l-361 -355q-55 -51 -100 -51q-42 0 -68 25
t-26 67q0 48 37 78l317 307l-133 266q-17 43 -17 66q0 42 32 71t75 29q67 0 98 -63l152 -301l7 -14t7.5 -15.5t5.5 -13.5t4.5 -15.5t1.5 -15.5q0 -36 -32 -65z" />
    <glyph glyph-name="questiondown" unicode="&#xbf;" horiz-adv-x="1107" 
d="M803 301q56 31 88 31q43 0 71.5 -30.5t28.5 -70.5q0 -61 -53 -102q-186 -147 -430 -147q-202 0 -322 106.5t-120 261.5q0 184 139 300t391 153l39 108q14 36 41 58t61 22h13q35 0 54 -24t15 -64l-28 -186q-4 -40 -29.5 -60t-77.5 -28q-160 -21 -257 -85t-97 -165
q0 -79 55.5 -123.5t155.5 -44.5q128 0 262 90zM680 1278l8 35q14 61 57 96t105 35q64 0 100.5 -40.5t24.5 -96.5l-8 -35q-14 -60 -57 -95.5t-105 -35.5q-64 0 -100.5 40.5t-24.5 96.5z" />
    <glyph glyph-name="Agrave" unicode="&#xc0;" horiz-adv-x="1552" 
d="M557 569h506l-98 580zM1176 1333l210 -1157q9 -52 9 -65q0 -50 -36.5 -85.5t-92.5 -35.5q-51 0 -84 28.5t-39 73.5l-43 254h-699l-194 -276q-59 -80 -129 -80q-47 0 -76 27t-29 73q0 43 31 82l848 1180q71 102 178 102h6q117 0 140 -121zM934 1618l-105 131
q-24 34 -24 55q0 32 47 59t98 27q71 0 92 -63l66 -174q8 -19 8 -37q0 -25 -20.5 -39t-57.5 -14t-58.5 11t-45.5 44z" />
    <glyph glyph-name="Aacute" unicode="&#xc1;" horiz-adv-x="1552" 
d="M557 569h506l-98 580zM1176 1333l210 -1157q9 -52 9 -65q0 -50 -36.5 -85.5t-92.5 -35.5q-51 0 -84 28.5t-39 73.5l-43 254h-699l-194 -276q-59 -80 -129 -80q-47 0 -76 27t-29 73q0 43 31 82l848 1180q71 102 178 102h6q117 0 140 -121zM1413 1749l-174 -131
q-75 -55 -152 -55q-67 0 -67 47q0 25 20 45l164 180q21 21 31 30t29 18t39 9q51 0 100 -27.5t49 -58.5q0 -30 -39 -57z" />
    <glyph glyph-name="Acircumflex" unicode="&#xc2;" horiz-adv-x="1552" 
d="M557 569h506l-98 580zM1176 1333l210 -1157q9 -52 9 -65q0 -50 -36.5 -85.5t-92.5 -35.5q-51 0 -84 28.5t-39 73.5l-43 254h-699l-194 -276q-59 -80 -129 -80q-47 0 -76 27t-29 73q0 43 31 82l848 1180q71 102 178 102h6q117 0 140 -121zM1286 1817l84 -160
q23 -37 23 -53q0 -20 -16 -30.5t-42 -10.5q-51 0 -82 9.5t-63 45.5l-80 92l-131 -92q-79 -55 -158 -55q-53 0 -53 39q0 23 29 55l176 166q59 59 131 59h67q83 0 115 -65z" />
    <glyph glyph-name="Atilde" unicode="&#xc3;" horiz-adv-x="1552" 
d="M557 569h506l-98 580zM1176 1333l210 -1157q9 -52 9 -65q0 -50 -36.5 -85.5t-92.5 -35.5q-51 0 -84 28.5t-39 73.5l-43 254h-699l-194 -276q-59 -80 -129 -80q-47 0 -76 27t-29 73q0 43 31 82l848 1180q71 102 178 102h6q117 0 140 -121zM786 1565q-31 0 -52 19.5
t-21 49.5q0 28 16 54q106 190 252 190q47 0 81 -15.5t73 -47.5q59 -45 78 -52q13 -4 28 -4q56 0 109 76q17 21 33.5 31t43.5 10q30 0 51 -19t21 -49t-14 -55q-108 -188 -252 -188q-48 0 -81 15t-75 48q-32 24 -44 32.5t-28 15.5t-32 7q-54 0 -111 -75q-31 -43 -76 -43z" />
    <glyph glyph-name="Adieresis" unicode="&#xc4;" horiz-adv-x="1552" 
d="M557 569h506l-98 580zM1176 1333l210 -1157q9 -52 9 -65q0 -50 -36.5 -85.5t-92.5 -35.5q-51 0 -84 28.5t-39 73.5l-43 254h-699l-194 -276q-59 -80 -129 -80q-47 0 -76 27t-29 73q0 43 31 82l848 1180q71 102 178 102h6q117 0 140 -121zM926 1829q57 0 90.5 -36
t21.5 -85l-8 -33q-12 -50 -53.5 -82t-97.5 -32q-59 0 -93 35.5t-22 84.5l8 33q13 52 55.5 83.5t98.5 31.5zM1333 1829q57 0 91 -36t22 -85l-8 -33q-12 -50 -54 -82t-98 -32q-59 0 -93 35.5t-22 84.5l9 33q13 52 55 83.5t98 31.5z" />
    <glyph glyph-name="Aring" unicode="&#xc5;" horiz-adv-x="1552" 
d="M78 -10q-47 0 -76 27t-29 73q0 43 31 82l889 1237q-68 55 -68 147q0 103 75.5 178.5t182.5 75.5q98 0 157.5 -56.5t59.5 -141.5q0 -70 -37 -130t-98 -91l221 -1215q9 -52 9 -65q0 -50 -36.5 -85.5t-92.5 -35.5q-51 0 -84 28.5t-39 73.5l-43 254h-699l-194 -276
q-59 -80 -129 -80zM557 569h506l-98 580zM1047 1454q60 0 99.5 47t39.5 109q0 44 -28.5 73t-76.5 29q-61 0 -101 -47t-40 -109q0 -44 28.5 -73t78.5 -29z" />
    <glyph glyph-name="AE" unicode="&#xc6;" horiz-adv-x="2172" 
d="M637 569h401l172 645h-43zM1171 1434h983q46 0 79.5 -33.5t33.5 -79.5q0 -47 -33.5 -80t-79.5 -33h-694l-100 -374h541q47 0 80.5 -33t33.5 -80q0 -46 -33.5 -78.5t-80.5 -32.5h-601l-104 -385h645q46 0 79.5 -33t33.5 -79q0 -47 -33.5 -80t-79.5 -33h-811q-63 0 -93 44
t-9 116l51 186h-524l-232 -283q-33 -38 -61.5 -55.5t-65.5 -17.5q-45 0 -70.5 24.5t-25.5 65.5q0 50 39 98l960 1159q82 97 172 97z" />
    <glyph glyph-name="Ccedilla" unicode="&#xc7;" horiz-adv-x="1495" 
d="M1288 147q-91 -79 -216 -125.5t-271 -46.5h-17l-172 -249q-35 -54 -86 -54q-39 0 -76.5 27.5t-37.5 60.5q0 28 28 60l168 178q-206 52 -330 207t-124 381q0 170 68.5 330t184 279t276.5 191t337 72q300 0 479 -201q51 -47 51 -106q0 -53 -37 -91t-92 -38q-59 0 -90 39
q-66 81 -143 123.5t-197 42.5q-113 0 -219 -52t-184 -137.5t-125 -201.5t-47 -240q0 -175 109 -281t282 -106q100 0 170 28t156 93q49 30 86 30q49 0 81.5 -34t32.5 -84q0 -59 -45 -95z" />
    <glyph glyph-name="Egrave" unicode="&#xc8;" horiz-adv-x="1351" 
d="M1030 0h-846q-63 0 -92.5 44t-9.5 116l307 1147q17 60 54.5 93.5t88.5 33.5h811q46 0 79.5 -33.5t33.5 -79.5q0 -47 -33.5 -80t-79.5 -33h-729l-100 -374h576q47 0 80.5 -33t33.5 -80q0 -46 -33.5 -78.5t-80.5 -32.5h-635l-105 -385h680q46 0 79.5 -33t33.5 -79
q0 -47 -33.5 -80t-79.5 -33zM840 1597l-105 132q-24 34 -24 55q0 32 47 59t98 27q71 0 92 -64l66 -174q8 -19 8 -37q0 -25 -20.5 -39t-57.5 -14t-58.5 11t-45.5 44z" />
    <glyph glyph-name="Eacute" unicode="&#xc9;" horiz-adv-x="1351" 
d="M1319 1729l-174 -132q-75 -55 -152 -55q-67 0 -67 47q0 25 20 45l164 181q22 22 31 30t28 17.5t39 9.5q51 0 100.5 -27.5t49.5 -58.5q0 -30 -39 -57zM1030 0h-846q-63 0 -92.5 44t-9.5 116l307 1147q17 60 54.5 93.5t88.5 33.5h811q46 0 79.5 -33.5t33.5 -79.5
q0 -47 -33.5 -80t-79.5 -33h-729l-100 -374h576q47 0 80.5 -33t33.5 -80q0 -46 -33.5 -78.5t-80.5 -32.5h-635l-105 -385h680q46 0 79.5 -33t33.5 -79q0 -47 -33.5 -80t-79.5 -33z" />
    <glyph glyph-name="Ecircumflex" unicode="&#xca;" horiz-adv-x="1351" 
d="M1190 1796l84 -160q22 -35 22 -53q0 -20 -15.5 -30.5t-41.5 -10.5q-51 0 -82 9.5t-63 45.5l-80 93l-131 -93q-79 -55 -158 -55q-53 0 -53 39q0 24 28 55l177 166q60 60 131 60h67q83 0 115 -66zM1030 0h-846q-63 0 -92.5 44t-9.5 116l307 1147q17 60 54.5 93.5t88.5 33.5
h811q46 0 79.5 -33.5t33.5 -79.5q0 -47 -33.5 -80t-79.5 -33h-729l-100 -374h576q47 0 80.5 -33t33.5 -80q0 -46 -33.5 -78.5t-80.5 -32.5h-635l-105 -385h680q46 0 79.5 -33t33.5 -79q0 -47 -33.5 -80t-79.5 -33z" />
    <glyph glyph-name="Edieresis" unicode="&#xcb;" horiz-adv-x="1351" 
d="M829 1808q57 0 91 -35.5t22 -84.5l-8 -33q-12 -50 -54 -82.5t-98 -32.5q-59 0 -92.5 36t-21.5 85l8 33q13 52 55 83t98 31zM1237 1808q57 0 91 -35.5t22 -84.5l-9 -33q-12 -50 -53.5 -82.5t-97.5 -32.5q-59 0 -93 36t-22 85l8 33q13 52 55.5 83t98.5 31zM1030 0h-846
q-63 0 -92.5 44t-9.5 116l307 1147q17 60 54.5 93.5t88.5 33.5h811q46 0 79.5 -33.5t33.5 -79.5q0 -47 -33.5 -80t-79.5 -33h-729l-100 -374h576q47 0 80.5 -33t33.5 -80q0 -46 -33.5 -78.5t-80.5 -32.5h-635l-105 -385h680q46 0 79.5 -33t33.5 -79q0 -47 -33.5 -80
t-79.5 -33z" />
    <glyph glyph-name="Igrave" unicode="&#xcc;" horiz-adv-x="649" 
d="M651 1282l-315 -1169q-15 -58 -52 -90.5t-87 -32.5q-64 0 -94 44t-9 118l314 1169q17 58 54 90.5t87 32.5q63 0 92.5 -43.5t9.5 -118.5zM461 1597l-105 132q-24 34 -24 55q0 32 47 59t98 27q71 0 92 -64l66 -174q8 -19 8 -37q0 -25 -20.5 -39t-57.5 -14t-58.5 11
t-45.5 44z" />
    <glyph glyph-name="Iacute" unicode="&#xcd;" horiz-adv-x="649" 
d="M651 1282l-315 -1169q-15 -58 -52 -90.5t-87 -32.5q-64 0 -94 44t-9 118l314 1169q17 58 54 90.5t87 32.5q63 0 92.5 -43.5t9.5 -118.5zM936 1729l-174 -132q-75 -55 -152 -55q-67 0 -67 47q0 25 20 45l164 181q22 22 31 30t28 17.5t39 9.5q51 0 100.5 -27.5t49.5 -58.5
q0 -30 -39 -57z" />
    <glyph glyph-name="Icircumflex" unicode="&#xce;" horiz-adv-x="649" 
d="M651 1282l-315 -1169q-15 -58 -52 -90.5t-87 -32.5q-64 0 -94 44t-9 118l314 1169q17 58 54 90.5t87 32.5q63 0 92.5 -43.5t9.5 -118.5zM811 1796l84 -160q23 -37 23 -53q0 -20 -16 -30.5t-42 -10.5q-51 0 -82 9.5t-63 45.5l-80 93l-131 -93q-79 -55 -158 -55
q-53 0 -53 39q0 23 29 55l176 166q60 60 131 60h67q83 0 115 -66z" />
    <glyph glyph-name="Idieresis" unicode="&#xcf;" horiz-adv-x="649" 
d="M651 1282l-315 -1169q-15 -58 -52 -90.5t-87 -32.5q-64 0 -94 44t-9 118l314 1169q17 58 54 90.5t87 32.5q63 0 92.5 -43.5t9.5 -118.5zM451 1808q57 0 90.5 -35.5t21.5 -84.5l-8 -33q-12 -50 -54 -82.5t-98 -32.5q-59 0 -92.5 36t-21.5 85l8 33q13 52 55.5 83t98.5 31z
M858 1808q57 0 91 -35.5t22 -84.5l-8 -33q-12 -50 -54 -82.5t-98 -32.5q-59 0 -93 36t-22 85l9 33q13 52 55 83t98 31z" />
    <glyph glyph-name="Eth" unicode="&#xd0;" horiz-adv-x="1634" 
d="M580 1434h280q374 0 561 -187q156 -156 156 -418q0 -161 -59 -304.5t-172 -256.5q-268 -268 -746 -268h-369q-63 0 -92.5 44t-9.5 116l119 448h-33q-46 0 -78.5 33.5t-32.5 79.5q0 47 32.5 80t78.5 33h94l127 473q17 60 55 93.5t89 33.5zM399 229h232q159 0 294 50
t230 145q160 160 160 395q0 163 -101 264q-121 121 -372 121h-178l-101 -370h213q47 0 80 -33t33 -80q0 -46 -33 -79.5t-80 -33.5h-274z" />
    <glyph glyph-name="Ntilde" unicode="&#xd1;" horiz-adv-x="1609" 
d="M1143 420l243 901q15 58 52 90.5t88 32.5q63 0 91.5 -43.5t8.5 -118.5l-317 -1173q-29 -117 -133 -117h-5q-56 0 -88 23.5t-55 72.5l-461 954l-250 -929q-15 -58 -51 -90.5t-86 -32.5q-63 0 -92 43.5t-8 118.5l311 1163q37 127 150 127h12q101 0 149 -105zM791 1544
q-31 0 -52.5 20t-21.5 50q0 27 16 53q106 191 252 191q47 0 81 -16t73 -48q32 -24 44 -32.5t28.5 -15.5t33.5 -7q56 0 109 76q32 40 78 40q30 0 50.5 -18.5t20.5 -48.5t-14 -55q-109 -189 -252 -189q-48 0 -80.5 15t-75.5 49q-32 24 -44 32.5t-28 15.5t-32 7
q-30 0 -55.5 -18t-55.5 -58q-31 -43 -75 -43z" />
    <glyph glyph-name="Ograve" unicode="&#xd2;" horiz-adv-x="1712" 
d="M799 -25q-142 0 -262.5 48.5t-203.5 132.5t-130 200t-47 248q0 129 40 255t116.5 233.5t179 189.5t236 129t278.5 47q142 0 263.5 -48.5t204.5 -132.5t130 -200t47 -248q0 -162 -64 -316.5t-174.5 -273.5t-271.5 -191.5t-342 -72.5zM825 207q120 0 227.5 54t180 140.5
t114.5 195t42 218.5q0 181 -110 296.5t-298 115.5q-120 0 -227 -54t-179.5 -140.5t-114.5 -195.5t-42 -219q0 -182 109.5 -296.5t297.5 -114.5zM977 1618l-105 131q-24 34 -24 55q0 32 47 59t98 27q71 0 92 -63l66 -174q8 -19 8 -37q0 -25 -20.5 -39t-57.5 -14t-58.5 11
t-45.5 44z" />
    <glyph glyph-name="Oacute" unicode="&#xd3;" horiz-adv-x="1712" 
d="M1454 1749l-174 -131q-75 -55 -152 -55q-67 0 -67 47q0 25 20 45l164 180q22 22 31 30t28 17.5t39 9.5q51 0 100.5 -27.5t49.5 -58.5q0 -30 -39 -57zM799 -25q-142 0 -262.5 48.5t-203.5 132.5t-130 200t-47 248q0 129 40 255t116.5 233.5t179 189.5t236 129t278.5 47
q142 0 263.5 -48.5t204.5 -132.5t130 -200t47 -248q0 -162 -64 -316.5t-174.5 -273.5t-271.5 -191.5t-342 -72.5zM825 207q120 0 227.5 54t180 140.5t114.5 195t42 218.5q0 181 -110 296.5t-298 115.5q-120 0 -227 -54t-179.5 -140.5t-114.5 -195.5t-42 -219
q0 -182 109.5 -296.5t297.5 -114.5z" />
    <glyph glyph-name="Ocircumflex" unicode="&#xd4;" horiz-adv-x="1712" 
d="M1325 1817l84 -160q23 -37 23 -53q0 -20 -16 -30.5t-42 -10.5q-51 0 -82 9.5t-63 45.5l-80 92l-131 -92q-79 -55 -158 -55q-53 0 -53 39q0 23 29 55l176 166q59 59 131 59h67q83 0 115 -65zM799 -25q-142 0 -262.5 48.5t-203.5 132.5t-130 200t-47 248q0 129 40 255
t116.5 233.5t179 189.5t236 129t278.5 47q142 0 263.5 -48.5t204.5 -132.5t130 -200t47 -248q0 -162 -64 -316.5t-174.5 -273.5t-271.5 -191.5t-342 -72.5zM825 207q120 0 227.5 54t180 140.5t114.5 195t42 218.5q0 181 -110 296.5t-298 115.5q-120 0 -227 -54
t-179.5 -140.5t-114.5 -195.5t-42 -219q0 -182 109.5 -296.5t297.5 -114.5z" />
    <glyph glyph-name="Otilde" unicode="&#xd5;" horiz-adv-x="1712" 
d="M799 -25q-142 0 -262.5 48.5t-203.5 132.5t-130 200t-47 248q0 129 40 255t116.5 233.5t179 189.5t236 129t278.5 47q142 0 263.5 -48.5t204.5 -132.5t130 -200t47 -248q0 -162 -64 -316.5t-174.5 -273.5t-271.5 -191.5t-342 -72.5zM825 207q120 0 227.5 54t180 140.5
t114.5 195t42 218.5q0 181 -110 296.5t-298 115.5q-120 0 -227 -54t-179.5 -140.5t-114.5 -195.5t-42 -219q0 -182 109.5 -296.5t297.5 -114.5zM827 1565q-31 0 -52 19.5t-21 49.5q0 28 16 54q106 190 252 190q47 0 81 -15.5t73 -47.5q59 -45 78 -52q13 -4 28 -4
q56 0 109 76q17 21 33.5 31t43.5 10q30 0 51 -19t21 -49t-14 -55q-108 -188 -252 -188q-48 0 -81 15t-75 48q-32 24 -44 32.5t-28 15.5t-32 7q-54 0 -111 -75q-31 -43 -76 -43z" />
    <glyph glyph-name="Odieresis" unicode="&#xd6;" horiz-adv-x="1712" 
d="M965 1829q57 0 90.5 -36t21.5 -85l-8 -33q-12 -50 -53.5 -82t-97.5 -32q-59 0 -93 35.5t-22 84.5l8 33q13 52 55.5 83.5t98.5 31.5zM1372 1829q57 0 91 -36t22 -85l-8 -33q-12 -50 -54 -82t-98 -32q-59 0 -93 35.5t-22 84.5l9 33q13 52 55 83.5t98 31.5zM799 -25
q-142 0 -262.5 48.5t-203.5 132.5t-130 200t-47 248q0 129 40 255t116.5 233.5t179 189.5t236 129t278.5 47q142 0 263.5 -48.5t204.5 -132.5t130 -200t47 -248q0 -162 -64 -316.5t-174.5 -273.5t-271.5 -191.5t-342 -72.5zM825 207q120 0 227.5 54t180 140.5t114.5 195
t42 218.5q0 181 -110 296.5t-298 115.5q-120 0 -227 -54t-179.5 -140.5t-114.5 -195.5t-42 -219q0 -182 109.5 -296.5t297.5 -114.5z" />
    <glyph glyph-name="multiply" unicode="&#xd7;" horiz-adv-x="1298" 
d="M854 707l184 -248q29 -42 29 -76q0 -47 -35 -82t-82 -35q-58 0 -96 51l-176 252l-344 -276q-36 -25 -72 -25q-43 0 -74.5 32.5t-31.5 76.5q0 50 45 88l350 270l-184 248q-29 42 -29 76q0 49 34.5 83t82.5 34q62 0 96 -52l178 -252l344 277q31 25 70 25q44 0 75 -31.5
t31 -77.5q0 -50 -45 -88z" />
    <glyph glyph-name="Oslash" unicode="&#xd8;" horiz-adv-x="1712" 
d="M410 618q0 -108 36 -190l828 696q-111 111 -293 111q-120 0 -228.5 -55t-182 -143.5t-117 -198.5t-43.5 -220zM825 197q120 0 228.5 55.5t182.5 143.5t117.5 198.5t43.5 220.5q0 95 -35 176l-823 -690q107 -104 286 -104zM350 141l-147 -123q-42 -38 -86 -38
q-35 0 -55.5 20t-20.5 51q0 39 51 86l154 129q-90 146 -90 338q0 129 40 255t116.5 233.5t179 189.5t236 129t278.5 47q273 0 456 -172l156 131q47 37 86 37q36 0 56 -20t20 -52q0 -39 -51 -86l-164 -139q86 -147 86 -328q0 -162 -64 -316.5t-174.5 -273.5t-271.5 -191.5
t-342 -72.5q-265 0 -449 166z" />
    <glyph glyph-name="Ugrave" unicode="&#xd9;" horiz-adv-x="1560" 
d="M1589 1282l-190 -702q-73 -274 -223 -424q-179 -179 -469 -179q-250 0 -390.5 127t-140.5 347q0 98 33 227l170 643q17 58 54 90.5t87 32.5q63 0 93 -43.5t10 -118.5l-172 -639q-21 -99 -21 -158q0 -124 78 -199t223 -75q162 0 268 106q108 108 158 301l189 703
q15 58 53 90.5t88 32.5q63 0 92.5 -43.5t9.5 -118.5zM899 1597l-104 132q-25 36 -25 55q0 32 47 59t98 27q72 0 93 -64l65 -174q8 -19 8 -37q0 -25 -20 -39t-57 -14q-38 0 -59.5 11t-45.5 44z" />
    <glyph glyph-name="Uacute" unicode="&#xda;" horiz-adv-x="1560" 
d="M1376 1729l-174 -132q-75 -55 -151 -55q-68 0 -68 47q0 24 21 45l163 181q21 21 31 30t29 18t39 9q51 0 100 -27.5t49 -58.5q0 -30 -39 -57zM1589 1282l-190 -702q-73 -274 -223 -424q-179 -179 -469 -179q-250 0 -390.5 127t-140.5 347q0 98 33 227l170 643
q17 58 54 90.5t87 32.5q63 0 93 -43.5t10 -118.5l-172 -639q-21 -99 -21 -158q0 -124 78 -199t223 -75q162 0 268 106q108 108 158 301l189 703q15 58 53 90.5t88 32.5q63 0 92.5 -43.5t9.5 -118.5z" />
    <glyph glyph-name="Ucircumflex" unicode="&#xdb;" horiz-adv-x="1560" 
d="M1247 1796l84 -160q23 -37 23 -53q0 -20 -16 -30.5t-42 -10.5q-51 0 -82 9.5t-63 45.5l-80 93l-131 -93q-79 -55 -158 -55q-53 0 -53 39q0 23 29 55l176 166q60 60 131 60h68q82 0 114 -66zM1589 1282l-190 -702q-73 -274 -223 -424q-179 -179 -469 -179
q-250 0 -390.5 127t-140.5 347q0 98 33 227l170 643q17 58 54 90.5t87 32.5q63 0 93 -43.5t10 -118.5l-172 -639q-21 -99 -21 -158q0 -124 78 -199t223 -75q162 0 268 106q108 108 158 301l189 703q15 58 53 90.5t88 32.5q63 0 92.5 -43.5t9.5 -118.5z" />
    <glyph glyph-name="Udieresis" unicode="&#xdc;" horiz-adv-x="1560" 
d="M887 1808q57 0 90.5 -35.5t21.5 -84.5l-8 -33q-12 -50 -53.5 -82.5t-97.5 -32.5q-59 0 -93 36t-22 85l8 33q13 52 55.5 83t98.5 31zM1294 1808q57 0 91 -35.5t22 -84.5l-8 -33q-12 -50 -54 -82.5t-98 -32.5q-59 0 -92.5 36t-21.5 85l8 33q13 52 55 83t98 31zM1589 1282
l-190 -702q-73 -274 -223 -424q-179 -179 -469 -179q-250 0 -390.5 127t-140.5 347q0 98 33 227l170 643q17 58 54 90.5t87 32.5q63 0 93 -43.5t10 -118.5l-172 -639q-21 -99 -21 -158q0 -124 78 -199t223 -75q162 0 268 106q108 108 158 301l189 703q15 58 53 90.5t88 32.5
q63 0 92.5 -43.5t9.5 -118.5z" />
    <glyph glyph-name="Yacute" unicode="&#xdd;" horiz-adv-x="1341" 
d="M782 535l-112 -422q-17 -58 -54.5 -90.5t-87.5 -32.5q-63 0 -92.5 43.5t-9.5 118.5l111 409l-283 670q-25 60 -25 94q0 51 38 85t98 34q86 0 122 -98l222 -566l553 594q69 72 137 72q50 0 78 -28t28 -77q0 -55 -45 -100zM1253 1729l-174 -132q-75 -55 -151 -55
q-68 0 -68 47q0 24 21 45l163 181q21 21 31 30t29 18t39 9q51 0 100 -27.5t49 -58.5q0 -30 -39 -57z" />
    <glyph glyph-name="Thorn" unicode="&#xde;" horiz-adv-x="1398" 
d="M418 463h252q198 0 312 79.5t114 223.5q0 83 -56 139q-73 76 -233 76h-252zM817 1210q293 0 434 -141q107 -110 107 -283q0 -170 -91 -294.5t-248.5 -187t-361.5 -62.5h-299l-36 -129q-15 -58 -52.5 -90.5t-87.5 -32.5q-64 0 -93.5 44t-8.5 118l313 1169q17 58 54.5 90.5
t87.5 32.5q63 0 92.5 -43.5t9.5 -118.5l-19 -72h199z" />
    <glyph glyph-name="germandbls" unicode="&#xdf;" horiz-adv-x="1286" 
d="M735 834q135 39 208 110t73 172q0 83 -55.5 132.5t-143.5 49.5q-105 0 -179.5 -75.5t-111.5 -214.5l-237 -895q-15 -58 -51 -90.5t-86 -32.5q-63 0 -92 43.5t-9 116.5l236 878q63 225 178 340q144 141 362 141q194 0 310 -104t116 -266q0 -152 -94 -253t-258 -151
q248 -86 248 -299q0 -189 -159 -315.5t-404 -126.5q-55 0 -82 27.5t-27 74.5q0 38 24 64.5t64 29.5q182 13 264 81t82 171q0 128 -178 187q-42 15 -63 36.5t-21 61.5q0 81 86 107z" />
    <glyph glyph-name="agrave" unicode="&#xe0;" horiz-adv-x="1193" 
d="M449 156q112 0 207 74.5t126 183.5l15 49q-125 41 -262 41q-116 0 -189.5 -55.5t-73.5 -147.5q0 -65 48 -105t129 -40zM801 -10q-64 0 -87 33t-18 81l11 39q-150 -166 -357 -166q-140 0 -232.5 81.5t-92.5 213.5q0 182 132.5 287t340.5 105q157 0 336 -54l6 19
q12 54 12 90q0 164 -240 164q-103 0 -213 -31q-21 -6 -43 -6q-43 0 -70.5 28.5t-27.5 71.5q0 36 21.5 61.5t56.5 36.5q158 52 326 52q210 0 321 -87t111 -247q0 -56 -23 -158l-131 -491q-17 -59 -53.5 -91t-85.5 -32zM621 1264l-105 131q-24 34 -24 55q0 32 47 59t98 27
q71 0 92 -63l66 -175q8 -19 8 -36q0 -25 -20.5 -39.5t-57.5 -14.5t-58 11.5t-46 44.5z" />
    <glyph glyph-name="aacute" unicode="&#xe1;" horiz-adv-x="1193" 
d="M449 156q112 0 207 74.5t126 183.5l15 49q-125 41 -262 41q-116 0 -189.5 -55.5t-73.5 -147.5q0 -65 48 -105t129 -40zM801 -10q-64 0 -87 33t-18 81l11 39q-150 -166 -357 -166q-140 0 -232.5 81.5t-92.5 213.5q0 182 132.5 287t340.5 105q157 0 336 -54l6 19
q12 54 12 90q0 164 -240 164q-103 0 -213 -31q-21 -6 -43 -6q-43 0 -70.5 28.5t-27.5 71.5q0 36 21.5 61.5t56.5 36.5q158 52 326 52q210 0 321 -87t111 -247q0 -56 -23 -158l-131 -491q-17 -59 -53.5 -91t-85.5 -32zM1096 1395l-174 -131q-76 -56 -152 -56q-68 0 -68 47
q0 24 21 45l164 181q22 22 31 30t28 17.5t39 9.5q51 0 100.5 -27.5t49.5 -58.5q0 -30 -39 -57z" />
    <glyph glyph-name="acircumflex" unicode="&#xe2;" horiz-adv-x="1193" 
d="M449 156q112 0 207 74.5t126 183.5l15 49q-125 41 -262 41q-116 0 -189.5 -55.5t-73.5 -147.5q0 -65 48 -105t129 -40zM801 -10q-64 0 -87 33t-18 81l11 39q-150 -166 -357 -166q-140 0 -232.5 81.5t-92.5 213.5q0 182 132.5 287t340.5 105q157 0 336 -54l6 19
q12 54 12 90q0 164 -240 164q-103 0 -213 -31q-21 -6 -43 -6q-43 0 -70.5 28.5t-27.5 71.5q0 36 21.5 61.5t56.5 36.5q158 52 326 52q210 0 321 -87t111 -247q0 -56 -23 -158l-131 -491q-17 -59 -53.5 -91t-85.5 -32zM969 1462l84 -159q22 -35 22 -54q0 -20 -15.5 -30.5
t-41.5 -10.5q-51 0 -82.5 10t-63.5 46l-79 92l-131 -92q-81 -56 -158 -56q-53 0 -53 39q0 25 28 56l176 165q60 60 131 60h68q83 0 115 -66z" />
    <glyph glyph-name="atilde" unicode="&#xe3;" horiz-adv-x="1193" 
d="M449 156q112 0 207 74.5t126 183.5l15 49q-125 41 -262 41q-116 0 -189.5 -55.5t-73.5 -147.5q0 -65 48 -105t129 -40zM801 -10q-64 0 -87 33t-18 81l11 39q-150 -166 -357 -166q-140 0 -232.5 81.5t-92.5 213.5q0 182 132.5 287t340.5 105q157 0 336 -54l6 19
q12 54 12 90q0 164 -240 164q-103 0 -213 -31q-21 -6 -43 -6q-43 0 -70.5 28.5t-27.5 71.5q0 36 21.5 61.5t56.5 36.5q158 52 326 52q210 0 321 -87t111 -247q0 -56 -23 -158l-131 -491q-17 -59 -53.5 -91t-85.5 -32zM469 1210q-31 0 -52.5 20t-21.5 50q0 26 17 53
q106 191 252 191q47 0 80 -15.5t73 -48.5q43 -33 63 -44t44 -11q55 0 108 76q33 41 78 41q30 0 51 -19t21 -49q0 -28 -15 -55q-109 -189 -252 -189q-48 0 -80 15t-75 49q-43 33 -62.5 44t-42.5 11q-30 0 -54.5 -18t-55.5 -58q-31 -43 -76 -43z" />
    <glyph glyph-name="adieresis" unicode="&#xe4;" horiz-adv-x="1193" 
d="M449 156q112 0 207 74.5t126 183.5l15 49q-125 41 -262 41q-116 0 -189.5 -55.5t-73.5 -147.5q0 -65 48 -105t129 -40zM801 -10q-64 0 -87 33t-18 81l11 39q-150 -166 -357 -166q-140 0 -232.5 81.5t-92.5 213.5q0 182 132.5 287t340.5 105q157 0 336 -54l6 19
q12 54 12 90q0 164 -240 164q-103 0 -213 -31q-21 -6 -43 -6q-43 0 -70.5 28.5t-27.5 71.5q0 36 21.5 61.5t56.5 36.5q158 52 326 52q210 0 321 -87t111 -247q0 -56 -23 -158l-131 -491q-17 -59 -53.5 -91t-85.5 -32zM606 1475q57 0 91 -36t22 -85l-8 -33q-12 -50 -54 -82.5
t-98 -32.5q-59 0 -93 36t-22 85l9 33q13 52 55 83.5t98 31.5zM1014 1475q57 0 90.5 -36t21.5 -85l-8 -33q-12 -50 -53.5 -82.5t-97.5 -32.5q-59 0 -93 36t-22 85l8 33q13 52 55.5 83.5t98.5 31.5z" />
    <glyph glyph-name="aring" unicode="&#xe5;" horiz-adv-x="1193" 
d="M449 156q112 0 207 74.5t126 183.5l15 49q-125 41 -262 41q-116 0 -189.5 -55.5t-73.5 -147.5q0 -65 48 -105t129 -40zM801 -10q-64 0 -87 33t-18 81l11 39q-150 -166 -357 -166q-140 0 -232.5 81.5t-92.5 213.5q0 182 132.5 287t340.5 105q157 0 336 -54l6 19
q12 54 12 90q0 164 -240 164q-103 0 -213 -31q-21 -6 -43 -6q-43 0 -70.5 28.5t-27.5 71.5q0 36 21.5 61.5t56.5 36.5q158 52 326 52q210 0 321 -87t111 -247q0 -56 -23 -158l-131 -491q-17 -59 -53.5 -91t-85.5 -32zM795 1217q-98 0 -156.5 56t-58.5 142q0 104 76 179
t182 75q98 0 156.5 -56t58.5 -143q0 -103 -76 -178t-182 -75zM797 1315q61 0 102 45.5t41 107.5q0 44 -28 73.5t-76 29.5q-61 0 -102.5 -46t-41.5 -108q0 -44 28.5 -73t76.5 -29z" />
    <glyph glyph-name="ae" unicode="&#xe6;" horiz-adv-x="1941" 
d="M537 504q-116 0 -190.5 -55.5t-74.5 -145.5q0 -67 51 -107t144 -40q92 0 190.5 46t176.5 128q-11 53 -11 94q0 19 2 27q-129 53 -288 53zM1872 684q0 -66 -12 -119q-24 -110 -123 -110h-695q-2 -6 -2 -21q6 -118 78 -187t201 -69q119 0 219 66q40 24 76 24q40 0 68 -27
t28 -69q0 -54 -49 -84q-154 -113 -365 -113q-146 0 -253 58.5t-164 167.5q-101 -106 -228.5 -165t-271.5 -59q-164 0 -259 80.5t-95 218.5q0 180 134 284t341 104q170 0 334 -54l6 19q12 54 12 90q0 164 -240 164q-108 0 -213 -31q-21 -6 -43 -6q-43 0 -70.5 28.5
t-27.5 71.5q0 36 21.5 61.5t56.5 36.5q154 52 326 52q142 0 237 -49t133 -140q80 91 187.5 144t228.5 53q197 0 310.5 -118.5t113.5 -301.5zM1065 618h563q8 36 8 76q0 91 -53.5 149t-161.5 58q-123 0 -218 -79t-138 -204z" />
    <glyph glyph-name="ccedilla" unicode="&#xe7;" horiz-adv-x="1148" 
d="M958 111q-160 -133 -370 -136l-172 -249q-35 -54 -86 -54q-40 0 -77.5 27.5t-37.5 60.5q0 27 29 60l172 180q-148 47 -237 167.5t-89 289.5q0 130 52 250t138.5 206.5t204 138.5t244.5 52q234 0 375 -158q43 -47 43 -98q0 -48 -34 -81.5t-83 -33.5q-57 0 -86 39
q-86 117 -235 117q-72 0 -140 -35.5t-118.5 -93.5t-81.5 -137.5t-31 -163.5q0 -122 74 -196.5t182 -74.5q118 0 227 82q41 29 76 29q42 0 71 -30.5t29 -73.5q0 -48 -39 -84z" />
    <glyph glyph-name="egrave" unicode="&#xe8;" horiz-adv-x="1228" 
d="M606 178q121 0 217 66q46 24 78 24q40 0 67 -27t27 -69q0 -55 -47 -84q-154 -113 -366 -113q-226 0 -359 128t-133 346q0 120 47.5 237t129 210t202.5 150.5t258 57.5q203 0 317.5 -118t114.5 -302q0 -49 -12 -119q-24 -110 -123 -110h-696v-21q5 -118 77 -187t201 -69z
M352 618h561q11 33 11 76q0 91 -54 149t-161 58q-123 0 -219.5 -79t-137.5 -204zM651 1264l-104 131q-25 36 -25 55q0 32 47.5 59t98.5 27q71 0 92 -63l65 -175q9 -21 9 -36q0 -25 -20.5 -39.5t-57.5 -14.5t-59 11.5t-46 44.5z" />
    <glyph glyph-name="eacute" unicode="&#xe9;" horiz-adv-x="1228" 
d="M606 178q121 0 217 66q46 24 78 24q40 0 67 -27t27 -69q0 -55 -47 -84q-154 -113 -366 -113q-226 0 -359 128t-133 346q0 120 47.5 237t129 210t202.5 150.5t258 57.5q203 0 317.5 -118t114.5 -302q0 -49 -12 -119q-24 -110 -123 -110h-696v-21q5 -118 77 -187t201 -69z
M352 618h561q11 33 11 76q0 91 -54 149t-161 58q-123 0 -219.5 -79t-137.5 -204zM1128 1395l-174 -131q-76 -56 -151 -56q-68 0 -68 47q0 24 21 45l164 181q22 22 31 30t28 17.5t39 9.5q51 0 100 -27.5t49 -58.5q0 -30 -39 -57z" />
    <glyph glyph-name="ecircumflex" unicode="&#xea;" horiz-adv-x="1228" 
d="M606 178q121 0 217 66q46 24 78 24q40 0 67 -27t27 -69q0 -55 -47 -84q-154 -113 -366 -113q-226 0 -359 128t-133 346q0 120 47.5 237t129 210t202.5 150.5t258 57.5q203 0 317.5 -118t114.5 -302q0 -49 -12 -119q-24 -110 -123 -110h-696v-21q5 -118 77 -187t201 -69z
M352 618h561q11 33 11 76q0 91 -54 149t-161 58q-123 0 -219.5 -79t-137.5 -204zM1001 1462l84 -159q23 -37 23 -54q0 -20 -15.5 -30.5t-41.5 -10.5q-51 0 -82.5 10t-63.5 46l-80 92l-131 -92q-44 -31 -79 -43.5t-78 -12.5q-54 0 -54 39q0 24 29 56l176 165q60 60 131 60h68
q82 0 114 -66z" />
    <glyph glyph-name="edieresis" unicode="&#xeb;" horiz-adv-x="1228" 
d="M606 178q121 0 217 66q46 24 78 24q40 0 67 -27t27 -69q0 -55 -47 -84q-154 -113 -366 -113q-226 0 -359 128t-133 346q0 120 47.5 237t129 210t202.5 150.5t258 57.5q203 0 317.5 -118t114.5 -302q0 -49 -12 -119q-24 -110 -123 -110h-696v-21q5 -118 77 -187t201 -69z
M352 618h561q11 33 11 76q0 91 -54 149t-161 58q-123 0 -219.5 -79t-137.5 -204zM641 1475q57 0 91 -36t22 -85l-9 -33q-12 -50 -53.5 -82.5t-97.5 -32.5q-59 0 -93 36t-22 85l8 33q13 52 55.5 83.5t98.5 31.5zM1049 1475q57 0 90.5 -36t21.5 -85l-8 -33q-12 -50 -54 -82.5
t-98 -32.5q-59 0 -92.5 36t-21.5 85l8 33q13 52 55.5 83.5t98.5 31.5z" />
    <glyph glyph-name="igrave" unicode="&#xec;" horiz-adv-x="585" 
d="M522 932l-219 -819q-17 -59 -53.5 -91t-85.5 -32q-63 0 -92 43.5t-9 116.5l222 819q15 60 51 92.5t86 32.5q64 0 92 -44t8 -118zM340 1264l-104 131q-25 36 -25 55q0 32 47 59t98 27q72 0 93 -63l65 -175q8 -19 8 -36q0 -25 -20.5 -39.5t-57.5 -14.5t-58 11.5t-46 44.5z
" />
    <glyph glyph-name="iacute" unicode="&#xed;" horiz-adv-x="585" 
d="M817 1395l-174 -131q-76 -56 -151 -56q-68 0 -68 47q0 25 20 45l164 181q21 21 31 30t29 18t39 9q51 0 100 -27.5t49 -58.5q0 -30 -39 -57zM522 932l-219 -819q-17 -59 -53.5 -91t-85.5 -32q-63 0 -92 43.5t-9 116.5l222 819q15 60 51 92.5t86 32.5q64 0 92 -44t8 -118z
" />
    <glyph glyph-name="icircumflex" unicode="&#xee;" horiz-adv-x="585" 
d="M690 1462l84 -159q23 -37 23 -54q0 -20 -16 -30.5t-42 -10.5q-51 0 -82 10t-63 46l-80 92l-131 -92q-81 -56 -158 -56q-53 0 -53 39q0 24 29 56l176 165q60 60 131 60h67q83 0 115 -66zM522 932l-219 -819q-17 -59 -53.5 -91t-85.5 -32q-63 0 -92 43.5t-9 116.5l222 819
q15 60 51 92.5t86 32.5q64 0 92 -44t8 -118z" />
    <glyph glyph-name="idieresis" unicode="&#xef;" horiz-adv-x="585" 
d="M332 1475q57 0 90.5 -36t21.5 -85l-8 -33q-12 -50 -53.5 -82.5t-97.5 -32.5q-59 0 -93 36t-22 85l8 33q13 52 55.5 83.5t98.5 31.5zM739 1475q57 0 91 -36t22 -85l-8 -33q-12 -50 -54 -82.5t-98 -32.5q-59 0 -92.5 36t-21.5 85l8 33q13 52 55 83.5t98 31.5zM522 932
l-219 -819q-17 -59 -53.5 -91t-85.5 -32q-63 0 -92 43.5t-9 116.5l222 819q15 60 51 92.5t86 32.5q64 0 92 -44t8 -118z" />
    <glyph glyph-name="eth" unicode="&#xf0;" horiz-adv-x="1292" 
d="M512 1251l225 86l-4 11q-12 24 -12 55q0 46 33 77t80 31q39 0 66 -17.5t38 -45.5l10 -29l201 78q20 8 43 8q30 0 49 -18.5t19 -50.5q0 -25 -16.5 -45.5t-45.5 -30.5l-192 -74l100 -237q92 -212 92 -410q0 -181 -73.5 -330.5t-216.5 -241.5t-330 -92q-218 0 -356 131
t-138 338q0 149 75 276.5t201 201t271 73.5q182 0 311 -116l-145 325l-236 -90q-20 -8 -41 -8q-30 0 -49.5 20t-19.5 50q0 52 61 75zM592 188q98 0 180.5 51t128 132.5t45.5 173.5q0 117 -75 192.5t-201 75.5q-145 0 -245.5 -105t-100.5 -249q0 -125 75 -198t193 -73z" />
    <glyph glyph-name="ntilde" unicode="&#xf1;" horiz-adv-x="1263" 
d="M412 1094q53 0 82.5 -31t27.5 -76l-12 -43q164 160 330 160q150 0 238.5 -87.5t88.5 -236.5q0 -64 -32 -190l-127 -477q-15 -58 -51.5 -90.5t-86.5 -32.5q-63 0 -91.5 43t-8.5 117l121 450q16 56 16 109q0 81 -49 125.5t-139 44.5q-103 0 -183.5 -75t-113.5 -196
l-133 -495q-15 -58 -51 -90.5t-86 -32.5q-63 0 -92 43.5t-9 116.5l219 819q15 60 52 92.5t90 32.5zM514 1210q-31 0 -52.5 20t-21.5 50q0 26 17 53q106 191 252 191q47 0 80 -15.5t73 -48.5q43 -33 63 -44t44 -11q55 0 108 76q33 41 78 41q30 0 51 -19t21 -49q0 -28 -15 -55
q-109 -189 -251 -189q-48 0 -80.5 15t-75.5 49q-43 33 -62.5 44t-42.5 11q-30 0 -54.5 -18t-55.5 -58q-31 -43 -76 -43z" />
    <glyph glyph-name="ograve" unicode="&#xf2;" horiz-adv-x="1323" 
d="M600 -25q-229 0 -368.5 138.5t-139.5 355.5q0 122 50 238t134.5 203.5t202 140.5t244.5 53q229 0 368.5 -139t139.5 -357q0 -122 -50.5 -238t-135.5 -202.5t-202 -139.5t-243 -53zM614 190q100 0 187.5 62.5t135.5 157t48 192.5q0 134 -75.5 210.5t-200.5 76.5
q-102 0 -189 -63t-134.5 -157.5t-47.5 -191.5q0 -134 75.5 -210.5t200.5 -76.5zM696 1264l-104 131q-25 36 -25 55q0 32 47.5 59t98.5 27q71 0 92 -63l65 -175q9 -21 9 -36q0 -25 -20.5 -39.5t-57.5 -14.5t-59 11.5t-46 44.5z" />
    <glyph glyph-name="oacute" unicode="&#xf3;" horiz-adv-x="1323" 
d="M1174 1395l-175 -131q-76 -56 -151 -56q-68 0 -68 47q0 24 21 45l164 181q22 22 31 30t28 17.5t39 9.5q51 0 100 -27.5t49 -58.5t-38 -57zM600 -25q-229 0 -368.5 138.5t-139.5 355.5q0 122 50 238t134.5 203.5t202 140.5t244.5 53q229 0 368.5 -139t139.5 -357
q0 -122 -50.5 -238t-135.5 -202.5t-202 -139.5t-243 -53zM614 190q100 0 187.5 62.5t135.5 157t48 192.5q0 134 -75.5 210.5t-200.5 76.5q-102 0 -189 -63t-134.5 -157.5t-47.5 -191.5q0 -134 75.5 -210.5t200.5 -76.5z" />
    <glyph glyph-name="ocircumflex" unicode="&#xf4;" horiz-adv-x="1323" 
d="M1047 1462l83 -159q23 -37 23 -54q0 -20 -15.5 -30.5t-41.5 -10.5q-51 0 -82.5 10t-63.5 46l-80 92l-131 -92q-44 -31 -79 -43.5t-78 -12.5q-54 0 -54 39q0 24 29 56l176 165q60 60 131 60h68q83 0 115 -66zM600 -25q-229 0 -368.5 138.5t-139.5 355.5q0 122 50 238
t134.5 203.5t202 140.5t244.5 53q229 0 368.5 -139t139.5 -357q0 -122 -50.5 -238t-135.5 -202.5t-202 -139.5t-243 -53zM614 190q100 0 187.5 62.5t135.5 157t48 192.5q0 134 -75.5 210.5t-200.5 76.5q-102 0 -189 -63t-134.5 -157.5t-47.5 -191.5q0 -134 75.5 -210.5
t200.5 -76.5z" />
    <glyph glyph-name="otilde" unicode="&#xf5;" horiz-adv-x="1323" 
d="M600 -25q-229 0 -368.5 138.5t-139.5 355.5q0 122 50 238t134.5 203.5t202 140.5t244.5 53q229 0 368.5 -139t139.5 -357q0 -122 -50.5 -238t-135.5 -202.5t-202 -139.5t-243 -53zM614 190q100 0 187.5 62.5t135.5 157t48 192.5q0 134 -75.5 210.5t-200.5 76.5
q-102 0 -189 -63t-134.5 -157.5t-47.5 -191.5q0 -134 75.5 -210.5t200.5 -76.5zM549 1210q-31 0 -52.5 20t-21.5 50q0 26 17 53q106 191 251 191q47 0 81 -16t73 -48q43 -33 63 -44t44 -11q55 0 108 76q33 41 78 41q30 0 51 -19t21 -49q0 -28 -15 -55q-109 -189 -252 -189
q-48 0 -80 15t-75 49q-43 33 -62.5 44t-42.5 11q-30 0 -54.5 -18t-55.5 -58q-31 -43 -76 -43z" />
    <glyph glyph-name="odieresis" unicode="&#xf6;" horiz-adv-x="1323" 
d="M686 1475q57 0 91 -36t22 -85l-8 -33q-12 -50 -54 -82.5t-98 -32.5q-59 0 -93 36t-22 85l8 33q13 52 55.5 83.5t98.5 31.5zM1094 1475q57 0 90.5 -36t21.5 -85l-8 -33q-12 -50 -53.5 -82.5t-97.5 -32.5q-59 0 -93 36t-22 85l8 33q13 52 55.5 83.5t98.5 31.5zM600 -25
q-229 0 -368.5 138.5t-139.5 355.5q0 122 50 238t134.5 203.5t202 140.5t244.5 53q229 0 368.5 -139t139.5 -357q0 -122 -50.5 -238t-135.5 -202.5t-202 -139.5t-243 -53zM614 190q100 0 187.5 62.5t135.5 157t48 192.5q0 134 -75.5 210.5t-200.5 76.5q-102 0 -189 -63
t-134.5 -157.5t-47.5 -191.5q0 -134 75.5 -210.5t200.5 -76.5z" />
    <glyph glyph-name="divide" unicode="&#xf7;" horiz-adv-x="1298" 
d="M1110 614h-829q-43 0 -75 32t-32 75t32 74.5t75 31.5h829q44 0 75.5 -31.5t31.5 -74.5t-31.5 -75t-75.5 -32zM831 1288q56 0 90.5 -34.5t30.5 -86.5l-2 -20q-6 -60 -52 -100.5t-110 -40.5q-55 0 -89.5 33.5t-30.5 86.5l2 21q6 60 51.5 100.5t109.5 40.5zM604 436
q56 0 90.5 -34.5t30.5 -86.5l-2 -20q-6 -60 -52 -100.5t-110 -40.5q-55 0 -90 33.5t-31 86.5l2 21q6 60 52 100.5t110 40.5z" />
    <glyph glyph-name="oslash" unicode="&#xf8;" horiz-adv-x="1323" 
d="M614 182q101 0 189.5 62t139 159t50.5 199q0 61 -20 119l-537 -485q70 -54 178 -54zM330 477q0 -57 16 -110l533 479q-63 51 -170 51q-102 0 -191 -63.5t-138.5 -160t-49.5 -196.5zM270 82l-75 -68q-38 -34 -82 -34q-34 0 -55 19t-21 50q0 37 41 78l86 72
q-72 112 -72 270q0 122 50 238t134.5 203.5t202 140.5t244.5 53q191 0 319 -103l76 68q44 35 82 35q34 0 55 -19.5t21 -50.5q0 -37 -41 -78l-80 -67q76 -124 76 -281q0 -122 -50.5 -238t-135.5 -202.5t-202 -139.5t-243 -53q-195 0 -330 107z" />
    <glyph glyph-name="ugrave" unicode="&#xf9;" horiz-adv-x="1265" 
d="M854 -10q-52 0 -82.5 30t-28.5 74l13 45q-162 -162 -328 -162q-151 0 -240.5 87.5t-89.5 236.5q0 61 33 191l127 477q15 60 51 92.5t86 32.5q64 0 92.5 -44t8.5 -118l-121 -451q-15 -62 -15 -108q0 -81 49.5 -125.5t137.5 -44.5q103 0 183.5 74.5t113.5 195.5l133 496
q15 60 51 92.5t86 32.5q64 0 92 -44t8 -118l-217 -819q-17 -59 -54 -91t-89 -32zM668 1264l-105 131q-24 34 -24 55q0 32 47 59t98 27q71 0 92 -63l66 -175q8 -19 8 -36q0 -25 -20.5 -39.5t-57.5 -14.5t-58 11.5t-46 44.5z" />
    <glyph glyph-name="uacute" unicode="&#xfa;" horiz-adv-x="1265" 
d="M1143 1395l-174 -131q-76 -56 -152 -56q-67 0 -67 47q0 25 20 45l164 181q22 22 31 30t28 17.5t39 9.5q51 0 100.5 -27.5t49.5 -58.5q0 -30 -39 -57zM854 -10q-52 0 -82.5 30t-28.5 74l13 45q-162 -162 -328 -162q-151 0 -240.5 87.5t-89.5 236.5q0 61 33 191l127 477
q15 60 51 92.5t86 32.5q64 0 92.5 -44t8.5 -118l-121 -451q-15 -62 -15 -108q0 -81 49.5 -125.5t137.5 -44.5q103 0 183.5 74.5t113.5 195.5l133 496q15 60 51 92.5t86 32.5q64 0 92 -44t8 -118l-217 -819q-17 -59 -54 -91t-89 -32z" />
    <glyph glyph-name="ucircumflex" unicode="&#xfb;" horiz-adv-x="1265" 
d="M1014 1462l84 -159q22 -35 22 -54q0 -20 -15.5 -30.5t-41.5 -10.5q-51 0 -82 10t-63 46l-80 92l-131 -92q-81 -56 -158 -56q-53 0 -53 39q0 25 28 56l176 165q60 60 131 60h68q83 0 115 -66zM854 -10q-52 0 -82.5 30t-28.5 74l13 45q-162 -162 -328 -162
q-151 0 -240.5 87.5t-89.5 236.5q0 61 33 191l127 477q15 60 51 92.5t86 32.5q64 0 92.5 -44t8.5 -118l-121 -451q-15 -62 -15 -108q0 -81 49.5 -125.5t137.5 -44.5q103 0 183.5 74.5t113.5 195.5l133 496q15 60 51 92.5t86 32.5q64 0 92 -44t8 -118l-217 -819
q-17 -59 -54 -91t-89 -32z" />
    <glyph glyph-name="udieresis" unicode="&#xfc;" horiz-adv-x="1265" 
d="M653 1475q57 0 91 -36t22 -85l-8 -33q-12 -50 -54 -82.5t-98 -32.5q-59 0 -92.5 36t-21.5 85l8 33q13 52 55 83.5t98 31.5zM1061 1475q57 0 91 -36t22 -85l-9 -33q-12 -50 -53.5 -82.5t-97.5 -32.5q-59 0 -93 36t-22 85l8 33q13 52 55.5 83.5t98.5 31.5zM854 -10
q-52 0 -82.5 30t-28.5 74l13 45q-162 -162 -328 -162q-151 0 -240.5 87.5t-89.5 236.5q0 61 33 191l127 477q15 60 51 92.5t86 32.5q64 0 92.5 -44t8.5 -118l-121 -451q-15 -62 -15 -108q0 -81 49.5 -125.5t137.5 -44.5q103 0 183.5 74.5t113.5 195.5l133 496q15 60 51 92.5
t86 32.5q64 0 92 -44t8 -118l-217 -819q-17 -59 -54 -91t-89 -32z" />
    <glyph glyph-name="yacute" unicode="&#xfd;" horiz-adv-x="1198" 
d="M61 -98q66 -25 109 -25q89 0 174 121l-151 915q-5 45 -5 62q0 51 35 85t88 34q51 0 85 -30t38 -81l96 -709l451 738q49 82 129 82q48 0 78.5 -27t30.5 -72q0 -32 -33 -86l-606 -940q-107 -165 -209.5 -234t-231.5 -69q-96 0 -157 31q-76 31 -76 108q0 44 30 76.5t70 32.5
q15 0 55 -12zM1085 1395l-174 -131q-76 -56 -151 -56q-68 0 -68 47q0 24 21 45l164 181q22 22 31 30t28 17.5t39 9.5q51 0 100 -27.5t49 -58.5q0 -30 -39 -57z" />
    <glyph glyph-name="thorn" unicode="&#xfe;" 
d="M645 190q153 0 263 127t110 308q0 122 -70 194t-186 72q-98 0 -188 -58.5t-145.5 -158t-55.5 -211.5q0 -119 76 -196t196 -77zM-37 -178l418 1560q15 58 51.5 90.5t87.5 32.5q63 0 90.5 -42.5t7.5 -116.5l-110 -408q80 80 163 123t183 43q185 0 303.5 -126t118.5 -337
q0 -140 -50.5 -265t-133.5 -211.5t-192 -137t-224 -50.5q-249 0 -367 216l-108 -408q-15 -58 -51.5 -90.5t-86.5 -32.5q-64 0 -92 43t-8 117z" />
    <glyph glyph-name="ydieresis" unicode="&#xff;" horiz-adv-x="1198" 
d="M61 -98q66 -25 109 -25q89 0 174 121l-151 915q-5 45 -5 62q0 51 35 85t88 34q51 0 85 -30t38 -81l96 -709l451 738q49 82 129 82q48 0 78.5 -27t30.5 -72q0 -32 -33 -86l-606 -940q-107 -165 -209.5 -234t-231.5 -69q-96 0 -157 31q-76 31 -76 108q0 44 30 76.5t70 32.5
q15 0 55 -12zM598 1475q57 0 91 -36t22 -85l-9 -33q-12 -50 -53.5 -82.5t-97.5 -32.5q-59 0 -93 36t-22 85l8 33q13 52 55.5 83.5t98.5 31.5zM1006 1475q57 0 90.5 -36t21.5 -85l-8 -33q-12 -50 -54 -82.5t-98 -32.5q-59 0 -92.5 36t-21.5 85l8 33q13 52 55.5 83.5
t98.5 31.5z" />
    <glyph glyph-name="Amacron" unicode="&#x100;" horiz-adv-x="1552" 
d="M557 569h506l-98 580zM1176 1333l210 -1157q9 -52 9 -65q0 -50 -36.5 -85.5t-92.5 -35.5q-51 0 -84 28.5t-39 73.5l-43 254h-699l-194 -276q-59 -80 -129 -80q-47 0 -76 27t-29 73q0 43 31 82l848 1180q71 102 178 102h6q117 0 140 -121zM1374 1595h-543q-37 0 -63.5 27
t-26.5 64t26.5 63.5t63.5 26.5h543q38 0 65 -26.5t27 -63.5t-27 -64t-65 -27z" />
    <glyph glyph-name="amacron" unicode="&#x101;" horiz-adv-x="1193" 
d="M449 156q112 0 207 74.5t126 183.5l15 49q-125 41 -262 41q-116 0 -189.5 -55.5t-73.5 -147.5q0 -65 48 -105t129 -40zM801 -10q-64 0 -87 33t-18 81l11 39q-150 -166 -357 -166q-140 0 -232.5 81.5t-92.5 213.5q0 182 132.5 287t340.5 105q157 0 336 -54l6 19
q12 54 12 90q0 164 -240 164q-103 0 -213 -31q-21 -6 -43 -6q-43 0 -70.5 28.5t-27.5 71.5q0 36 21.5 61.5t56.5 36.5q158 52 326 52q210 0 321 -87t111 -247q0 -56 -23 -158l-131 -491q-17 -59 -53.5 -91t-85.5 -32zM1055 1241h-543q-37 0 -63.5 26.5t-26.5 63.5t26.5 63.5
t63.5 26.5h543q38 0 65 -26.5t27 -63.5t-27 -63.5t-65 -26.5z" />
    <glyph glyph-name="Abreve" unicode="&#x102;" horiz-adv-x="1552" 
d="M557 569h506l-98 580zM1176 1333l210 -1157q9 -52 9 -65q0 -50 -36.5 -85.5t-92.5 -35.5q-51 0 -84 28.5t-39 73.5l-43 254h-699l-194 -276q-59 -80 -129 -80q-47 0 -76 27t-29 73q0 43 31 82l848 1180q71 102 178 102h6q117 0 140 -121zM1098 1569q-130 0 -213.5 68
t-83.5 159q0 39 26 63.5t64 24.5q58 0 82 -49q19 -45 52.5 -68.5t94.5 -23.5q98 0 172 92q42 49 90 49q35 0 56.5 -20t21.5 -54q0 -31 -22 -59q-55 -80 -143 -131t-197 -51z" />
    <glyph glyph-name="abreve" unicode="&#x103;" horiz-adv-x="1193" 
d="M449 156q112 0 207 74.5t126 183.5l15 49q-125 41 -262 41q-116 0 -189.5 -55.5t-73.5 -147.5q0 -65 48 -105t129 -40zM801 -10q-64 0 -87 33t-18 81l11 39q-150 -166 -357 -166q-140 0 -232.5 81.5t-92.5 213.5q0 182 132.5 287t340.5 105q157 0 336 -54l6 19
q12 54 12 90q0 164 -240 164q-103 0 -213 -31q-21 -6 -43 -6q-43 0 -70.5 28.5t-27.5 71.5q0 36 21.5 61.5t56.5 36.5q158 52 326 52q210 0 321 -87t111 -247q0 -56 -23 -158l-131 -491q-17 -59 -53.5 -91t-85.5 -32zM782 1214q-130 0 -213.5 68t-83.5 160q0 39 26 63.5
t64 24.5q58 0 82 -49q38 -92 148 -92q98 0 172 92q42 49 90 49q35 0 56.5 -20t21.5 -54q0 -30 -23 -59q-56 -80 -143.5 -131.5t-196.5 -51.5z" />
    <glyph glyph-name="Aogonek" unicode="&#x104;" horiz-adv-x="1552" 
d="M1233 -342q-100 0 -156.5 37.5t-56.5 99.5q0 56 42 109t120 114q-33 27 -39 68l-43 260h-699l-194 -276q-59 -80 -129 -80q-47 0 -76 27t-29 73q0 43 31 82l848 1180q71 102 178 102h6q117 0 140 -121l210 -1157q9 -52 9 -65q0 -53 -47 -97q-67 -59 -97 -97.5t-30 -70.5
q0 -24 17 -37t58 -22q59 -18 56 -61q-3 -68 -119 -68zM557 569h506l-98 580z" />
    <glyph glyph-name="aogonek" unicode="&#x105;" horiz-adv-x="1193" 
d="M879 12q-66 -59 -95.5 -96.5t-29.5 -69.5q0 -24 17 -37t58 -22q59 -19 56 -61q-3 -68 -119 -68q-100 0 -156.5 37.5t-56.5 99.5q0 56 43 110.5t121 114.5q0 5 2 9q-15 11 -15.5 53.5t3.5 60.5q-150 -166 -357 -166q-140 0 -232.5 81.5t-92.5 213.5q0 182 132.5 287
t340.5 105q157 0 336 -54l6 19q12 54 12 90q0 164 -240 164q-103 0 -213 -31q-21 -6 -43 -6q-43 0 -70.5 28.5t-27.5 71.5q0 36 21.5 61.5t56.5 36.5q158 52 326 52q210 0 321 -87t111 -247q0 -56 -23 -158l-131 -491q-15 -55 -61 -101zM449 156q112 0 207 74.5t126 183.5
l15 49q-125 41 -262 41q-116 0 -189.5 -55.5t-73.5 -147.5q0 -65 48 -105t129 -40z" />
    <glyph glyph-name="Cacute" unicode="&#x106;" horiz-adv-x="1495" 
d="M1419 1749l-174 -131q-75 -55 -151 -55q-68 0 -68 47q0 24 21 45l163 180q21 21 31 30t29 18t39 9q51 0 100 -27.5t49 -58.5q0 -30 -39 -57zM1288 147q-91 -79 -216 -125.5t-271 -46.5q-185 0 -331 73t-231 213.5t-85 324.5q0 170 68.5 330t184 279t276.5 191t337 72
q300 0 479 -201q51 -47 51 -106q0 -53 -37 -91t-92 -38q-59 0 -90 39q-66 81 -143 123.5t-197 42.5q-113 0 -219 -52t-184 -137.5t-125 -201.5t-47 -240q0 -175 109 -281t282 -106q100 0 170 28t156 93q49 30 86 30q49 0 81.5 -34t32.5 -84q0 -59 -45 -95z" />
    <glyph glyph-name="cacute" unicode="&#x107;" horiz-adv-x="1148" 
d="M1116 1395l-174 -131q-76 -56 -151 -56q-68 0 -68 47q0 25 20 45l164 181q21 21 31 30t29 18t39 9q51 0 100 -27.5t49 -58.5q0 -30 -39 -57zM958 111q-164 -136 -372 -136q-214 0 -355 132.5t-141 349.5q0 130 52 250t138.5 206.5t204 138.5t244.5 52q234 0 375 -158
q43 -47 43 -98q0 -48 -34 -81.5t-83 -33.5q-57 0 -86 39q-86 117 -235 117q-72 0 -140 -35.5t-118.5 -93.5t-81.5 -137.5t-31 -163.5q0 -122 74 -196.5t182 -74.5q118 0 227 82q41 29 76 29q42 0 71 -30.5t29 -73.5q0 -48 -39 -84z" />
    <glyph glyph-name="Cdotaccent" unicode="&#x10a;" horiz-adv-x="1495" 
d="M1288 147q-91 -79 -216 -125.5t-271 -46.5q-185 0 -331 73t-231 213.5t-85 324.5q0 170 68.5 330t184 279t276.5 191t337 72q300 0 479 -201q51 -47 51 -106q0 -53 -37 -91t-92 -38q-59 0 -90 39q-66 81 -143 123.5t-197 42.5q-113 0 -219 -52t-184 -137.5t-125 -201.5
t-47 -240q0 -175 109 -281t282 -106q100 0 170 28t156 93q49 30 86 30q49 0 81.5 -34t32.5 -84q0 -59 -45 -95zM1133 1829q57 0 91.5 -36t22.5 -85l-8 -33q-12 -50 -54.5 -82t-99.5 -32q-59 0 -93.5 35.5t-22.5 84.5l8 33q13 52 56.5 83.5t99.5 31.5z" />
    <glyph glyph-name="cdotaccent" unicode="&#x10b;" horiz-adv-x="1148" 
d="M958 111q-164 -136 -372 -136q-214 0 -355 132.5t-141 349.5q0 130 52 250t138.5 206.5t204 138.5t244.5 52q234 0 375 -158q43 -47 43 -98q0 -48 -34 -81.5t-83 -33.5q-57 0 -86 39q-86 117 -235 117q-72 0 -140 -35.5t-118.5 -93.5t-81.5 -137.5t-31 -163.5
q0 -122 74 -196.5t182 -74.5q118 0 227 82q41 29 76 29q42 0 71 -30.5t29 -73.5q0 -48 -39 -84zM834 1475q57 0 91.5 -36t22.5 -85l-8 -33q-12 -50 -55 -82.5t-99 -32.5q-59 0 -93.5 36t-22.5 85l8 33q13 52 56.5 83.5t99.5 31.5z" />
    <glyph glyph-name="Ccaron" unicode="&#x10c;" horiz-adv-x="1495" 
d="M940 1630l-84 160q-20 40 -20 53q0 20 15.5 30.5t41.5 10.5q51 0 82 -10t63 -47l78 -90l133 92q80 55 156 55q55 0 55 -39q0 -27 -28 -55l-177 -166q-59 -59 -131 -59h-67q-82 0 -117 65zM1288 147q-91 -79 -216 -125.5t-271 -46.5q-185 0 -331 73t-231 213.5t-85 324.5
q0 170 68.5 330t184 279t276.5 191t337 72q300 0 479 -201q51 -47 51 -106q0 -53 -37 -91t-92 -38q-59 0 -90 39q-66 81 -143 123.5t-197 42.5q-113 0 -219 -52t-184 -137.5t-125 -201.5t-47 -240q0 -175 109 -281t282 -106q100 0 170 28t156 93q49 30 86 30q49 0 81.5 -34
t32.5 -84q0 -59 -45 -95z" />
    <glyph glyph-name="ccaron" unicode="&#x10d;" horiz-adv-x="1148" 
d="M639 1276l-84 160q-20 40 -20 53q0 20 15.5 30.5t41.5 10.5q51 0 82 -10t63 -47l78 -91l133 93q80 55 156 55q55 0 55 -39q0 -26 -29 -55l-176 -166q-60 -60 -131 -60h-67q-82 0 -117 66zM958 111q-164 -136 -372 -136q-214 0 -355 132.5t-141 349.5q0 130 52 250
t138.5 206.5t204 138.5t244.5 52q234 0 375 -158q43 -47 43 -98q0 -48 -34 -81.5t-83 -33.5q-57 0 -86 39q-86 117 -235 117q-72 0 -140 -35.5t-118.5 -93.5t-81.5 -137.5t-31 -163.5q0 -122 74 -196.5t182 -74.5q118 0 227 82q41 29 76 29q42 0 71 -30.5t29 -73.5
q0 -48 -39 -84z" />
    <glyph glyph-name="Dcaron" unicode="&#x10e;" horiz-adv-x="1587" 
d="M852 1610l-84 159q-20 40 -20 54q0 20 15.5 30.5t41.5 10.5q51 0 82 -10t63 -48l78 -90l133 92q82 56 156 56q55 0 55 -39q0 -27 -29 -56l-176 -165q-60 -60 -131 -60h-67q-82 0 -117 66zM352 229h232q159 0 294 50t230 145q160 160 160 395q0 163 -101 264
q-121 121 -372 121h-179zM532 1434h281q374 0 561 -187q156 -156 156 -418q0 -161 -59.5 -304.5t-172.5 -256.5q-268 -268 -745 -268h-369q-63 0 -92.5 44t-9.5 116l307 1147q17 60 54.5 93.5t88.5 33.5z" />
    <glyph glyph-name="dcaron" unicode="&#x10f;" 
d="M1501 1159l76 256q11 39 39.5 61.5t69.5 22.5h40q50 0 50 -41q0 -19 -23 -63l-141 -252q-30 -49 -72 -49q-21 0 -33 10.5t-12 28.5q0 14 6 26zM606 190q98 0 188 58.5t145.5 158t55.5 211.5q0 119 -76.5 196t-197.5 77q-152 0 -262.5 -127t-110.5 -307q0 -123 70.5 -195
t187.5 -72zM954 -10q-53 0 -81.5 29t-26.5 79l12 45q-80 -80 -163 -123t-183 -43q-184 0 -303 126t-119 337q0 140 51 265t134 211.5t192.5 137t224.5 50.5q248 0 365 -215l131 493q15 58 52 90.5t87 32.5q63 0 91 -43t7 -116l-327 -1233q-15 -58 -53 -90.5t-91 -32.5z" />
    <glyph glyph-name="Dcroat" unicode="&#x110;" horiz-adv-x="1634" 
d="M580 1434h280q374 0 561 -187q156 -156 156 -418q0 -161 -59 -304.5t-172 -256.5q-268 -268 -746 -268h-369q-63 0 -92.5 44t-9.5 116l119 448h-33q-46 0 -78.5 33.5t-32.5 79.5q0 47 32.5 80t78.5 33h94l127 473q17 60 55 93.5t89 33.5zM399 229h232q159 0 294 50
t230 145q160 160 160 395q0 163 -101 264q-121 121 -372 121h-178l-101 -370h213q47 0 80 -33t33 -80q0 -46 -33 -79.5t-80 -33.5h-274z" />
    <glyph glyph-name="dcroat" unicode="&#x111;" 
d="M954 -10q-53 0 -81.5 29t-26.5 79l12 45q-80 -80 -163 -123t-183 -43q-184 0 -303 126t-119 337q0 140 51 265t134 211.5t192.5 137t224.5 50.5q248 0 365 -215l90 344h-252q-31 0 -52.5 21.5t-21.5 52.5q0 29 21.5 51t52.5 22h291l2 2q15 58 52 90.5t87 32.5
q55 0 83.5 -33.5t21.5 -91.5h61q31 0 52.5 -22t21.5 -51q0 -31 -21.5 -52.5t-52.5 -21.5h-98l-297 -1120q-15 -58 -53 -90.5t-91 -32.5zM606 190q98 0 188 58.5t145.5 158t55.5 211.5q0 119 -76.5 196t-197.5 77q-152 0 -262.5 -127t-110.5 -307q0 -123 70.5 -195t187.5 -72
z" />
    <glyph glyph-name="Emacron" unicode="&#x112;" horiz-adv-x="1351" 
d="M1030 0h-846q-63 0 -92.5 44t-9.5 116l307 1147q17 60 54.5 93.5t88.5 33.5h811q46 0 79.5 -33.5t33.5 -79.5q0 -47 -33.5 -80t-79.5 -33h-729l-100 -374h576q47 0 80.5 -33t33.5 -80q0 -46 -33.5 -78.5t-80.5 -32.5h-635l-105 -385h680q46 0 79.5 -33t33.5 -79
q0 -47 -33.5 -80t-79.5 -33zM1278 1575h-543q-37 0 -63.5 26.5t-26.5 63.5t26.5 63.5t63.5 26.5h543q38 0 65 -26.5t27 -63.5t-27 -63.5t-65 -26.5z" />
    <glyph glyph-name="emacron" unicode="&#x113;" horiz-adv-x="1228" 
d="M606 178q121 0 217 66q46 24 78 24q40 0 67 -27t27 -69q0 -55 -47 -84q-154 -113 -366 -113q-226 0 -359 128t-133 346q0 120 47.5 237t129 210t202.5 150.5t258 57.5q203 0 317.5 -118t114.5 -302q0 -49 -12 -119q-24 -110 -123 -110h-696v-21q5 -118 77 -187t201 -69z
M352 618h561q11 33 11 76q0 91 -54 149t-161 58q-123 0 -219.5 -79t-137.5 -204zM1090 1241h-543q-37 0 -63.5 26.5t-26.5 63.5t26.5 63.5t63.5 26.5h543q38 0 65 -26.5t27 -63.5t-27 -63.5t-65 -26.5z" />
    <glyph glyph-name="Ebreve" unicode="&#x114;" horiz-adv-x="1351" 
d="M1030 0h-846q-63 0 -92.5 44t-9.5 116l307 1147q17 60 54.5 93.5t88.5 33.5h811q46 0 79.5 -33.5t33.5 -79.5q0 -47 -33.5 -80t-79.5 -33h-729l-100 -374h576q47 0 80.5 -33t33.5 -80q0 -46 -33.5 -78.5t-80.5 -32.5h-635l-105 -385h680q46 0 79.5 -33t33.5 -79
q0 -47 -33.5 -80t-79.5 -33zM1004 1548q-130 0 -213.5 68t-83.5 160q0 39 26 63.5t64 24.5q58 0 82 -49q19 -45 52.5 -69t94.5 -24q97 0 172 93q42 49 90 49q35 0 56.5 -20t21.5 -54q0 -30 -23 -59q-56 -80 -143 -131.5t-196 -51.5z" />
    <glyph glyph-name="ebreve" unicode="&#x115;" horiz-adv-x="1228" 
d="M606 178q121 0 217 66q46 24 78 24q40 0 67 -27t27 -69q0 -55 -47 -84q-154 -113 -366 -113q-226 0 -359 128t-133 346q0 120 47.5 237t129 210t202.5 150.5t258 57.5q203 0 317.5 -118t114.5 -302q0 -49 -12 -119q-24 -110 -123 -110h-696v-21q5 -118 77 -187t201 -69z
M815 1214q-130 0 -213.5 68t-83.5 160q0 39 26 63.5t64 24.5q58 0 82 -49q38 -92 148 -92q98 0 172 92q42 49 90 49q35 0 56.5 -20t21.5 -54q0 -30 -23 -59q-56 -80 -143.5 -131.5t-196.5 -51.5zM352 618h561q11 33 11 76q0 91 -54 149t-161 58q-123 0 -219.5 -79
t-137.5 -204z" />
    <glyph glyph-name="Edotaccent" unicode="&#x116;" horiz-adv-x="1351" 
d="M1030 0h-846q-63 0 -92.5 44t-9.5 116l307 1147q17 60 54.5 93.5t88.5 33.5h811q46 0 79.5 -33.5t33.5 -79.5q0 -47 -33.5 -80t-79.5 -33h-729l-100 -374h576q47 0 80.5 -33t33.5 -80q0 -46 -33.5 -78.5t-80.5 -32.5h-635l-105 -385h680q46 0 79.5 -33t33.5 -79
q0 -47 -33.5 -80t-79.5 -33zM1032 1808q58 0 92.5 -35.5t22.5 -84.5l-8 -33q-12 -50 -55 -82.5t-99 -32.5q-59 0 -94 36t-23 85l9 33q13 52 56 83t99 31z" />
    <glyph glyph-name="edotaccent" unicode="&#x117;" horiz-adv-x="1228" 
d="M606 178q121 0 217 66q46 24 78 24q40 0 67 -27t27 -69q0 -55 -47 -84q-154 -113 -366 -113q-226 0 -359 128t-133 346q0 120 47.5 237t129 210t202.5 150.5t258 57.5q203 0 317.5 -118t114.5 -302q0 -49 -12 -119q-24 -110 -123 -110h-696v-21q5 -118 77 -187t201 -69z
M352 618h561q11 33 11 76q0 91 -54 149t-161 58q-123 0 -219.5 -79t-137.5 -204zM844 1475q57 0 91.5 -36t22.5 -85l-8 -33q-12 -50 -54.5 -82.5t-98.5 -32.5q-59 0 -94 36t-23 85l8 33q13 52 56.5 83.5t99.5 31.5z" />
    <glyph glyph-name="Eogonek" unicode="&#x118;" horiz-adv-x="1351" 
d="M1079 4q-73 -59 -100 -92.5t-27 -65.5q0 -24 17.5 -37t58.5 -22q30 -9 43 -23t12 -38q-3 -68 -118 -68q-100 0 -156.5 37.5t-56.5 99.5q0 93 143 205h-711q-63 0 -92.5 44t-9.5 116l307 1147q17 60 54.5 93.5t88.5 33.5h811q46 0 79.5 -33.5t33.5 -79.5q0 -47 -33.5 -80
t-79.5 -33h-729l-100 -374h576q47 0 80.5 -33t33.5 -80q0 -46 -33.5 -78.5t-80.5 -32.5h-635l-105 -385h678q48 0 81.5 -32.5t33.5 -79.5q0 -30 -14 -54t-50 -55z" />
    <glyph glyph-name="eogonek" unicode="&#x119;" horiz-adv-x="1228" 
d="M836 -2q-55 -48 -80 -83.5t-25 -68.5q0 -24 16.5 -37t57.5 -22q30 -9 43 -23t12 -38q0 -68 -119 -68q-99 0 -155 37.5t-56 99.5q0 89 111 185q-45 -5 -59 -5q-226 0 -359 128t-133 346q0 120 47.5 237t129 210t202.5 150.5t258 57.5q203 0 317.5 -118t114.5 -302
q0 -49 -12 -119q-24 -110 -123 -110h-696v-21q5 -118 77 -187t201 -69q121 0 217 66q46 24 78 24q40 0 67 -27t27 -69q0 -52 -47 -84q-95 -76 -112 -90zM352 618h561q11 33 11 76q0 91 -54 149t-161 58q-123 0 -219.5 -79t-137.5 -204z" />
    <glyph glyph-name="Ecaron" unicode="&#x11a;" horiz-adv-x="1351" 
d="M840 1610l-84 159q-21 42 -21 54q0 20 16 30.5t42 10.5q51 0 82 -10t63 -48l78 -90l133 92q82 56 156 56q55 0 55 -39q0 -27 -29 -56l-176 -165q-60 -60 -131 -60h-68q-81 0 -116 66zM1030 0h-846q-63 0 -92.5 44t-9.5 116l307 1147q17 60 54.5 93.5t88.5 33.5h811
q46 0 79.5 -33.5t33.5 -79.5q0 -47 -33.5 -80t-79.5 -33h-729l-100 -374h576q47 0 80.5 -33t33.5 -80q0 -46 -33.5 -78.5t-80.5 -32.5h-635l-105 -385h680q46 0 79.5 -33t33.5 -79q0 -47 -33.5 -80t-79.5 -33z" />
    <glyph glyph-name="ecaron" unicode="&#x11b;" horiz-adv-x="1228" 
d="M606 178q121 0 217 66q46 24 78 24q40 0 67 -27t27 -69q0 -55 -47 -84q-154 -113 -366 -113q-226 0 -359 128t-133 346q0 120 47.5 237t129 210t202.5 150.5t258 57.5q203 0 317.5 -118t114.5 -302q0 -49 -12 -119q-24 -110 -123 -110h-696v-21q5 -118 77 -187t201 -69z
M352 618h561q11 33 11 76q0 91 -54 149t-161 58q-123 0 -219.5 -79t-137.5 -204zM651 1276l-84 160q-20 40 -20 53q0 20 15.5 30.5t41.5 10.5q35 0 54 -2.5t44.5 -15.5t47.5 -39l77 -91l134 93q80 55 155 55q55 0 55 -39q0 -27 -28 -55l-176 -166q-60 -60 -131 -60h-68
q-82 0 -117 66z" />
    <glyph glyph-name="Gbreve" unicode="&#x11e;" horiz-adv-x="1601" 
d="M1475 641l-123 -430q-12 -47 -36.5 -79t-68.5 -56q-79 -44 -193 -72.5t-245 -28.5q-128 0 -244.5 39.5t-209.5 114.5t-148 194.5t-55 268.5q0 132 43 260.5t123.5 237t188 191.5t246 130t287.5 47q170 0 297 -49.5t201 -126.5q49 -45 49 -102q0 -51 -35.5 -87t-87.5 -36
q-50 0 -82 28q-74 69 -156 105.5t-204 36.5q-126 0 -240 -52.5t-193.5 -138.5t-126 -200.5t-46.5 -235.5q0 -184 114.5 -288.5t294.5 -104.5q169 0 303 74l89 301h-252q-46 0 -78.5 31.5t-32.5 76.5q0 46 32.5 78.5t78.5 32.5h407q64 0 93.5 -44.5t9.5 -115.5zM1124 1569
q-130 0 -213.5 68t-83.5 159q0 39 26.5 63.5t64.5 24.5q57 0 81 -49q38 -92 148 -92q98 0 172 92q42 49 90 49q35 0 56.5 -20t21.5 -54q0 -30 -23 -59q-55 -80 -143 -131t-197 -51z" />
    <glyph glyph-name="gbreve" unicode="&#x11f;" horiz-adv-x="1363" 
d="M606 289q150 0 263.5 109t113.5 253q0 105 -72 173.5t-190 68.5q-147 0 -256 -110t-109 -263q0 -111 70.5 -171t179.5 -60zM1053 887l22 82q15 57 49 91t88 34q63 0 92 -44t9 -118l-199 -744q-39 -146 -79.5 -226t-104.5 -142q-152 -152 -426 -152q-260 0 -471 117
q-68 36 -68 96q0 45 30.5 77t74.5 32q34 0 75 -21q160 -100 344 -100q169 0 265 96q69 69 112 219l19 66q-90 -83 -176 -123.5t-195 -40.5t-202 44t-153.5 135t-60.5 212q0 131 51 249t134.5 200t192 130t220.5 48q74 0 133 -17.5t101 -50t70 -68t53 -81.5zM887 1214
q-130 0 -213.5 68t-83.5 160q0 39 26 63.5t64 24.5q58 0 82 -49q19 -45 52.5 -68.5t94.5 -23.5q98 0 172 92q42 49 90 49q35 0 56.5 -20t21.5 -54q0 -32 -22 -59q-56 -80 -143.5 -131.5t-196.5 -51.5z" />
    <glyph glyph-name="Gdotaccent" unicode="&#x120;" horiz-adv-x="1601" 
d="M1475 641l-123 -430q-12 -47 -36.5 -79t-68.5 -56q-79 -44 -193 -72.5t-245 -28.5q-128 0 -244.5 39.5t-209.5 114.5t-148 194.5t-55 268.5q0 132 43 260.5t123.5 237t188 191.5t246 130t287.5 47q170 0 297 -49.5t201 -126.5q49 -45 49 -102q0 -51 -35.5 -87t-87.5 -36
q-50 0 -82 28q-74 69 -156 105.5t-204 36.5q-126 0 -240 -52.5t-193.5 -138.5t-126 -200.5t-46.5 -235.5q0 -184 114.5 -288.5t294.5 -104.5q169 0 303 74l89 301h-252q-46 0 -78.5 31.5t-32.5 76.5q0 46 32.5 78.5t78.5 32.5h407q64 0 93.5 -44.5t9.5 -115.5zM1153 1829
q57 0 92 -36t23 -85l-8 -33q-12 -50 -55 -82t-99 -32q-59 0 -94 35.5t-23 84.5l8 33q13 52 56.5 83.5t99.5 31.5z" />
    <glyph glyph-name="gdotaccent" unicode="&#x121;" horiz-adv-x="1363" 
d="M606 289q150 0 263.5 109t113.5 253q0 105 -72 173.5t-190 68.5q-147 0 -256 -110t-109 -263q0 -111 70.5 -171t179.5 -60zM1053 887l22 82q15 57 49 91t88 34q63 0 92 -44t9 -118l-199 -744q-39 -146 -79.5 -226t-104.5 -142q-152 -152 -426 -152q-260 0 -471 117
q-68 36 -68 96q0 45 30.5 77t74.5 32q34 0 75 -21q160 -100 344 -100q169 0 265 96q69 69 112 219l19 66q-90 -83 -176 -123.5t-195 -40.5t-202 44t-153.5 135t-60.5 212q0 131 51 249t134.5 200t192 130t220.5 48q74 0 133 -17.5t101 -50t70 -68t53 -81.5zM915 1475
q57 0 92 -36t23 -85l-8 -33q-12 -50 -55 -82.5t-99 -32.5q-59 0 -93.5 36t-22.5 85l8 33q13 52 56 83.5t99 31.5z" />
    <glyph glyph-name="Gcommaaccent" unicode="&#x122;" horiz-adv-x="1601" 
d="M627 -346q-97 20 -97 92q0 52 39.5 90.5t100.5 38.5q56 0 87 -31.5t31 -89.5q0 -54 -25.5 -112t-68.5 -99q-49 -50 -112 -78t-123 -28q-47 0 -47 39q0 36 55 47q73 15 111 47t49 84zM1475 641l-123 -430q-12 -47 -36.5 -79t-68.5 -56q-79 -44 -193 -72.5t-245 -28.5
q-128 0 -244.5 39.5t-209.5 114.5t-148 194.5t-55 268.5q0 132 43 260.5t123.5 237t188 191.5t246 130t287.5 47q170 0 297 -49.5t201 -126.5q49 -45 49 -102q0 -51 -35.5 -87t-87.5 -36q-50 0 -82 28q-74 69 -156 105.5t-204 36.5q-126 0 -240 -52.5t-193.5 -138.5
t-126 -200.5t-46.5 -235.5q0 -184 114.5 -288.5t294.5 -104.5q169 0 303 74l89 301h-252q-46 0 -78.5 31.5t-32.5 76.5q0 46 32.5 78.5t78.5 32.5h407q64 0 93.5 -44.5t9.5 -115.5z" />
    <glyph glyph-name="gcommaaccent" unicode="&#x123;" horiz-adv-x="1363" 
d="M913 1425q97 -20 97 -92q0 -52 -39.5 -90.5t-100.5 -38.5q-56 0 -87 31.5t-31 89.5q0 54 25.5 112t68.5 99q49 50 112 78t123 28q47 0 47 -38q0 -37 -55 -48q-73 -15 -111 -47t-49 -84zM606 289q150 0 263.5 109t113.5 253q0 105 -72 173.5t-190 68.5q-147 0 -256 -110
t-109 -263q0 -111 70.5 -171t179.5 -60zM1053 887l22 82q15 57 49 91t88 34q63 0 92 -44t9 -118l-199 -744q-39 -146 -79.5 -226t-104.5 -142q-152 -152 -426 -152q-260 0 -471 117q-68 36 -68 96q0 45 30.5 77t74.5 32q34 0 75 -21q160 -100 344 -100q169 0 265 96
q69 69 112 219l19 66q-90 -83 -176 -123.5t-195 -40.5t-202 44t-153.5 135t-60.5 212q0 131 51 249t134.5 200t192 130t220.5 48q74 0 133 -17.5t101 -50t70 -68t53 -81.5z" />
    <glyph glyph-name="Hbar" unicode="&#x126;" horiz-adv-x="1548" 
d="M1563 1282l-17 -57h45q37 0 64.5 -26.5t27.5 -63.5q0 -35 -27.5 -61.5t-64.5 -26.5h-92l-250 -934q-17 -58 -54 -90.5t-87 -32.5q-63 0 -92.5 43.5t-9.5 118.5l122 452h-673l-133 -491q-15 -58 -52.5 -90.5t-87.5 -32.5q-64 0 -93.5 44t-8.5 118l239 895h-40
q-38 0 -65.5 26.5t-27.5 61.5q0 37 27.5 63.5t65.5 26.5h88l26 96q17 58 54.5 90.5t87.5 32.5q63 0 92.5 -43.5t9.5 -118.5l-16 -57h673l27 96q15 58 52 90.5t87 32.5q64 0 94 -44t9 -118zM518 838h674l55 209h-674z" />
    <glyph glyph-name="hbar" unicode="&#x127;" horiz-adv-x="1265" 
d="M1135 590l-127 -477q-15 -58 -51.5 -90.5t-86.5 -32.5q-63 0 -91.5 43t-8.5 117l121 450q16 56 16 109q0 81 -49 125.5t-139 44.5q-103 0 -183.5 -75t-113.5 -196l-133 -495q-15 -58 -51 -90.5t-86 -32.5q-63 0 -92 43.5t-9 116.5l287 1083h-57q-31 0 -52.5 21.5
t-21.5 52.5q0 29 21.5 51t52.5 22h96l2 2q17 59 53.5 91t85.5 32q55 0 84 -33.5t23 -91.5h256q29 0 51 -22t22 -51q0 -31 -22 -52.5t-51 -21.5h-293l-78 -289q164 160 330 160q150 0 238.5 -87.5t88.5 -236.5q0 -64 -32 -190z" />
    <glyph glyph-name="Imacron" unicode="&#x12a;" horiz-adv-x="649" 
d="M651 1282l-315 -1169q-15 -58 -52 -90.5t-87 -32.5q-64 0 -94 44t-9 118l314 1169q17 58 54 90.5t87 32.5q63 0 92.5 -43.5t9.5 -118.5zM899 1575h-543q-37 0 -63.5 26.5t-26.5 63.5t26.5 63.5t63.5 26.5h543q38 0 65 -26.5t27 -63.5t-27 -63.5t-65 -26.5z" />
    <glyph glyph-name="imacron" unicode="&#x12b;" horiz-adv-x="585" 
d="M522 932l-219 -819q-17 -59 -53.5 -91t-85.5 -32q-63 0 -92 43.5t-9 116.5l222 819q15 60 51 92.5t86 32.5q64 0 92 -44t8 -118zM778 1241h-542q-37 0 -64 26.5t-27 63.5t27 63.5t64 26.5h542q38 0 65 -26.5t27 -63.5t-27 -63.5t-65 -26.5z" />
    <glyph glyph-name="Ibreve" unicode="&#x12c;" horiz-adv-x="649" 
d="M651 1282l-315 -1169q-15 -58 -52 -90.5t-87 -32.5q-64 0 -94 44t-9 118l314 1169q17 58 54 90.5t87 32.5q63 0 92.5 -43.5t9.5 -118.5zM623 1548q-130 0 -213.5 68t-83.5 160q0 39 26 63.5t64 24.5q58 0 82 -49q19 -45 52.5 -69t94.5 -24q97 0 172 93q42 49 90 49
q35 0 56.5 -20t21.5 -54q0 -31 -22 -59q-56 -80 -143.5 -131.5t-196.5 -51.5z" />
    <glyph glyph-name="ibreve" unicode="&#x12d;" horiz-adv-x="585" 
d="M522 932l-219 -819q-17 -59 -53.5 -91t-85.5 -32q-63 0 -92 43.5t-9 116.5l222 819q15 60 51 92.5t86 32.5q64 0 92 -44t8 -118zM502 1214q-130 0 -213.5 68t-83.5 160q0 39 26 63.5t64 24.5q58 0 82 -49q19 -45 52.5 -68.5t94.5 -23.5q98 0 172 92q42 49 90 49
q35 0 56.5 -20t21.5 -54q0 -32 -22 -59q-56 -80 -143.5 -131.5t-196.5 -51.5z" />
    <glyph glyph-name="Iogonek" unicode="&#x12e;" horiz-adv-x="649" 
d="M162 -342q-100 0 -156.5 37.5t-56.5 99.5q0 56 43 110.5t123 117.5q-45 41 -21 129l314 1169q17 58 54 90.5t87 32.5q63 0 92.5 -43.5t9.5 -118.5l-315 -1169q-14 -53 -62 -101q-67 -59 -95.5 -96t-28.5 -70q0 -24 16 -37t57 -22q30 -9 44 -23t14 -38q-3 -68 -119 -68z
" />
    <glyph glyph-name="iogonek" unicode="&#x12f;" horiz-adv-x="585" 
d="M522 932l-219 -819q-15 -55 -61 -101q-66 -59 -95.5 -96.5t-29.5 -69.5q0 -24 17.5 -37t58.5 -22q58 -19 55 -61q-3 -68 -119 -68q-100 0 -156.5 37.5t-56.5 99.5q0 56 43 110.5t123 117.5q-25 32 -25 77q0 26 6 50l222 819q15 60 51 92.5t86 32.5q64 0 92 -44t8 -118z
M653 1352q-12 -52 -56.5 -83.5t-104.5 -31.5q-61 0 -97 33.5t-24 83.5l6 24q12 53 56.5 84t105.5 31q60 0 95 -34t25 -83z" />
    <glyph glyph-name="Idotaccent" unicode="&#x130;" horiz-adv-x="649" 
d="M651 1282l-315 -1169q-15 -58 -52 -90.5t-87 -32.5q-64 0 -94 44t-9 118l314 1169q17 58 54 90.5t87 32.5q63 0 92.5 -43.5t9.5 -118.5zM655 1808q58 0 92.5 -35.5t22.5 -84.5l-8 -33q-12 -50 -55 -82.5t-99 -32.5q-59 0 -93.5 36t-22.5 85l8 33q13 52 56 83t99 31z" />
    <glyph glyph-name="dotlessi" unicode="&#x131;" horiz-adv-x="585" 
d="M522 932l-219 -819q-17 -59 -53.5 -91t-85.5 -32q-63 0 -92 43.5t-9 116.5l222 819q15 60 51 92.5t86 32.5q64 0 92 -44t8 -118z" />
    <glyph glyph-name="Kcommaaccent" unicode="&#x136;" horiz-adv-x="1480" 
d="M549 -330q-96 20 -96 92q0 52 39 90.5t100 38.5q56 0 87.5 -31t31.5 -89q0 -54 -26 -112t-69 -99q-49 -50 -112.5 -78.5t-122.5 -28.5q-47 0 -47 39q0 36 55 47q73 15 111 47t49 84zM393 381l-71 -268q-15 -58 -52.5 -90.5t-87.5 -32.5q-64 0 -93.5 44t-8.5 118l313 1169
q17 58 54.5 90.5t87.5 32.5q63 0 92.5 -43.5t9.5 -118.5l-154 -571l830 686q54 47 104 47q53 0 84 -32t31 -81q0 -58 -45 -94l-533 -432l295 -619q21 -46 21 -84q0 -50 -37.5 -81t-87.5 -31q-88 0 -129 88l-268 586z" />
    <glyph glyph-name="kcommaaccent" unicode="&#x137;" horiz-adv-x="1191" 
d="M373 -340q-97 20 -97 92q0 52 39.5 90.5t100.5 38.5q56 0 87.5 -31.5t31.5 -89.5q0 -54 -26 -112t-69 -99q-49 -50 -112 -78t-123 -28q-47 0 -47 39q0 36 55 47q73 15 111 47t49 84zM621 1346l-199 -742l569 445q19 15 30 22.5t29.5 15t36.5 7.5q45 0 74 -29t29 -72
q0 -57 -47 -86l-373 -284l199 -437q24 -57 24 -86q0 -51 -39 -80.5t-90 -29.5q-91 0 -127 88l-182 391l-215 -164l-51 -192q-15 -58 -51 -90.5t-86 -32.5q-63 0 -92 43.5t-9 116.5l332 1232q15 58 51 90.5t86 32.5q63 0 92 -43t9 -116z" />
    <glyph glyph-name="Lacute" unicode="&#x139;" horiz-adv-x="1265" 
d="M956 1729l-174 -132q-75 -55 -151 -55q-68 0 -68 47q0 24 21 45l164 181q22 22 31 30t28 17.5t39 9.5q51 0 100 -27.5t49 -58.5q0 -30 -39 -57zM973 0h-789q-63 0 -92.5 44t-9.5 116l311 1161q17 58 54.5 90.5t87.5 32.5q63 0 92.5 -43.5t9.5 -118.5l-283 -1053h619
q47 0 80.5 -33.5t33.5 -80.5q0 -49 -33 -82t-81 -33z" />
    <glyph glyph-name="lacute" unicode="&#x13a;" horiz-adv-x="585" 
d="M920 1763l-175 -131q-75 -55 -151 -55q-68 0 -68 47q0 24 21 45l164 180q41 41 61 50q17 8 37 8q51 0 100 -27.5t49 -58.5q0 -32 -38 -58zM633 1346l-330 -1233q-17 -59 -53.5 -91t-85.5 -32q-63 0 -92 43.5t-9 116.5l332 1232q15 58 52 90.5t88 32.5q63 0 90.5 -42.5
t7.5 -116.5z" />
    <glyph glyph-name="Lcommaaccent" unicode="&#x13b;" horiz-adv-x="1265" 
d="M428 -340q-96 20 -96 92q0 52 39 90.5t100 38.5q56 0 87.5 -31.5t31.5 -89.5q0 -54 -25.5 -112t-68.5 -99q-48 -50 -112 -78t-124 -28q-47 0 -47 39q0 36 55 47q73 15 111 47t49 84zM973 0h-789q-63 0 -92.5 44t-9.5 116l311 1161q17 58 54.5 90.5t87.5 32.5
q63 0 92.5 -43.5t9.5 -118.5l-283 -1053h619q47 0 80.5 -33.5t33.5 -80.5q0 -49 -33 -82t-81 -33z" />
    <glyph glyph-name="lcommaaccent" unicode="&#x13c;" horiz-adv-x="585" 
d="M61 -340q-96 20 -96 92q0 52 39 90.5t100 38.5q56 0 87.5 -31.5t31.5 -89.5q0 -54 -25.5 -112t-68.5 -99q-49 -50 -112 -78t-123 -28q-48 0 -48 39q0 36 56 47q73 15 110.5 47t48.5 84zM633 1346l-330 -1233q-17 -59 -53.5 -91t-85.5 -32q-63 0 -92 43.5t-9 116.5
l332 1232q15 58 52 90.5t88 32.5q63 0 90.5 -42.5t7.5 -116.5z" />
    <glyph glyph-name="Lcaron" unicode="&#x13d;" horiz-adv-x="1265" 
d="M719 1098l76 256q11 39 39 61.5t69 22.5h41q49 0 49 -41q0 -22 -22 -64l-142 -252q-30 -49 -71 -49q-21 0 -33 10.5t-12 28.5q0 15 6 27zM973 0h-789q-63 0 -92.5 44t-9.5 116l311 1161q17 58 54.5 90.5t87.5 32.5q63 0 92.5 -43.5t9.5 -118.5l-283 -1053h619
q47 0 80.5 -33.5t33.5 -80.5q0 -49 -33 -82t-81 -33z" />
    <glyph glyph-name="lcaron" unicode="&#x13e;" horiz-adv-x="585" 
d="M696 1159l76 256q11 39 39.5 61.5t69.5 22.5h41q49 0 49 -41q0 -19 -23 -63l-141 -252q-30 -49 -72 -49q-21 0 -33 10.5t-12 28.5q0 14 6 26zM633 1346l-330 -1233q-17 -59 -53.5 -91t-85.5 -32q-63 0 -92 43.5t-9 116.5l332 1232q15 58 52 90.5t88 32.5q63 0 90.5 -42.5
t7.5 -116.5z" />
    <glyph glyph-name="Ldot" unicode="&#x13f;" horiz-adv-x="1265" 
d="M1061 905q57 0 92 -36t23 -85l-9 -32q-12 -50 -54.5 -82.5t-98.5 -32.5q-59 0 -94 36t-23 85l8 33q13 52 56.5 83t99.5 31zM973 0h-789q-63 0 -92.5 44t-9.5 116l311 1161q17 58 54.5 90.5t87.5 32.5q63 0 92.5 -43.5t9.5 -118.5l-283 -1053h619q47 0 80.5 -33.5
t33.5 -80.5q0 -49 -33 -82t-81 -33z" />
    <glyph glyph-name="ldot" unicode="&#x140;" horiz-adv-x="751" 
d="M748 893q51 0 79 -36.5t19 -80.5l-6 -26q-11 -49 -44 -78t-81 -29q-52 0 -82 36t-19 81l7 26q12 51 45 79t82 28zM633 1346l-330 -1233q-17 -59 -53.5 -91t-85.5 -32q-63 0 -92 43.5t-9 116.5l332 1232q15 58 52 90.5t88 32.5q63 0 90.5 -42.5t7.5 -116.5z" />
    <glyph glyph-name="Lslash" unicode="&#x141;" horiz-adv-x="1341" 
d="M203 768l127 35l139 518q15 58 52 90.5t85 32.5q62 0 91 -44t8 -118l-109 -403l270 75q32 9 47 9q46 0 75.5 -28t29.5 -75q0 -39 -23.5 -66t-60.5 -38l-402 -113l-110 -414h627q46 0 79 -33.5t33 -80.5q0 -49 -33 -82t-79 -33h-789q-63 0 -92.5 44t-9.5 116l108 407h-2
q-36 -6 -41 -6q-46 0 -76 28t-30 75q0 40 23.5 66.5t62.5 37.5z" />
    <glyph glyph-name="lslash" unicode="&#x142;" horiz-adv-x="704" 
d="M694 1346l-114 -431l14 5q24 6 43 6q42 0 67 -28t25 -73q0 -87 -92 -110l-121 -33l-151 -569q-17 -59 -54 -91t-86 -32q-63 0 -91.5 43t-8.5 117l123 456l-12 -2q-24 -6 -43 -6q-42 0 -67.5 27.5t-25.5 72.5q0 87 93 111l118 33l146 540q15 58 51.5 90.5t87.5 32.5
q63 0 90.5 -42.5t7.5 -116.5z" />
    <glyph glyph-name="Nacute" unicode="&#x143;" horiz-adv-x="1609" 
d="M1417 1729l-174 -132q-75 -55 -151 -55q-68 0 -68 47q0 25 20 45l164 181q21 21 31 30t29 18t39 9q51 0 100 -27.5t49 -58.5q0 -30 -39 -57zM1143 420l243 901q15 58 52 90.5t88 32.5q63 0 91.5 -43.5t8.5 -118.5l-317 -1173q-29 -117 -133 -117h-5q-56 0 -88 23.5
t-55 72.5l-461 954l-250 -929q-15 -58 -51 -90.5t-86 -32.5q-63 0 -92 43.5t-8 118.5l311 1163q37 127 150 127h12q101 0 149 -105z" />
    <glyph glyph-name="nacute" unicode="&#x144;" horiz-adv-x="1263" 
d="M1141 1395l-174 -131q-76 -56 -152 -56q-67 0 -67 47q0 25 20 45l164 181q22 22 31 30t28 17.5t39 9.5q51 0 100.5 -27.5t49.5 -58.5q0 -30 -39 -57zM412 1094q53 0 82.5 -31t27.5 -76l-12 -43q164 160 330 160q150 0 238.5 -87.5t88.5 -236.5q0 -64 -32 -190l-127 -477
q-15 -58 -51.5 -90.5t-86.5 -32.5q-63 0 -91.5 43t-8.5 117l121 450q16 56 16 109q0 81 -49 125.5t-139 44.5q-103 0 -183.5 -75t-113.5 -196l-133 -495q-15 -58 -51 -90.5t-86 -32.5q-63 0 -92 43.5t-9 116.5l219 819q15 60 52 92.5t90 32.5z" />
    <glyph glyph-name="Ncommaaccent" unicode="&#x145;" horiz-adv-x="1609" 
d="M573 -330q-96 20 -96 92q0 52 39 90.5t100 38.5q56 0 87.5 -31t31.5 -89q0 -54 -25.5 -112t-68.5 -99q-49 -50 -112.5 -78.5t-122.5 -28.5q-48 0 -48 39q0 36 56 47q73 15 110.5 47t48.5 84zM1143 420l243 901q15 58 52 90.5t88 32.5q63 0 91.5 -43.5t8.5 -118.5
l-317 -1173q-29 -117 -133 -117h-5q-56 0 -88 23.5t-55 72.5l-461 954l-250 -929q-15 -58 -51 -90.5t-86 -32.5q-63 0 -92 43.5t-8 118.5l311 1163q37 127 150 127h12q101 0 149 -105z" />
    <glyph glyph-name="ncommaaccent" unicode="&#x146;" horiz-adv-x="1263" 
d="M387 -340q-96 20 -96 92q0 52 39 90.5t100 38.5q56 0 87.5 -31.5t31.5 -89.5q0 -54 -25.5 -112t-68.5 -99q-48 -50 -112 -78t-124 -28q-47 0 -47 39q0 36 55 47q73 15 111 47t49 84zM412 1094q53 0 82.5 -31t27.5 -76l-12 -43q164 160 330 160q150 0 238.5 -87.5
t88.5 -236.5q0 -64 -32 -190l-127 -477q-15 -58 -51.5 -90.5t-86.5 -32.5q-63 0 -91.5 43t-8.5 117l121 450q16 56 16 109q0 81 -49 125.5t-139 44.5q-103 0 -183.5 -75t-113.5 -196l-133 -495q-15 -58 -51 -90.5t-86 -32.5q-63 0 -92 43.5t-9 116.5l219 819q15 60 52 92.5
t90 32.5z" />
    <glyph glyph-name="Ncaron" unicode="&#x147;" horiz-adv-x="1609" 
d="M938 1610l-84 159q-20 40 -20 54q0 20 15.5 30.5t41.5 10.5q51 0 82 -10t63 -48l78 -90l133 92q82 56 156 56q55 0 55 -39q0 -28 -28 -56l-177 -165q-60 -60 -131 -60h-67q-82 0 -117 66zM1143 420l243 901q15 58 52 90.5t88 32.5q63 0 91.5 -43.5t8.5 -118.5l-317 -1173
q-29 -117 -133 -117h-5q-56 0 -88 23.5t-55 72.5l-461 954l-250 -929q-15 -58 -51 -90.5t-86 -32.5q-63 0 -92 43.5t-8 118.5l311 1163q37 127 150 127h12q101 0 149 -105z" />
    <glyph glyph-name="ncaron" unicode="&#x148;" horiz-adv-x="1263" 
d="M664 1276l-84 160q-21 42 -21 53q0 20 15.5 30.5t41.5 10.5q35 0 54 -2.5t44.5 -15.5t47.5 -39l78 -91l133 93q80 55 155 55q56 0 56 -39q0 -26 -29 -55l-176 -166q-60 -60 -131 -60h-68q-81 0 -116 66zM412 1094q53 0 82.5 -31t27.5 -76l-12 -43q164 160 330 160
q150 0 238.5 -87.5t88.5 -236.5q0 -64 -32 -190l-127 -477q-15 -58 -51.5 -90.5t-86.5 -32.5q-63 0 -91.5 43t-8.5 117l121 450q16 56 16 109q0 81 -49 125.5t-139 44.5q-103 0 -183.5 -75t-113.5 -196l-133 -495q-15 -58 -51 -90.5t-86 -32.5q-63 0 -92 43.5t-9 116.5
l219 819q15 60 52 92.5t90 32.5z" />
    <glyph glyph-name="Omacron" unicode="&#x14c;" horiz-adv-x="1712" 
d="M1413 1595h-543q-37 0 -63.5 27t-26.5 64t26.5 63.5t63.5 26.5h543q38 0 65 -26.5t27 -63.5t-27 -64t-65 -27zM799 -25q-142 0 -262.5 48.5t-203.5 132.5t-130 200t-47 248q0 129 40 255t116.5 233.5t179 189.5t236 129t278.5 47q142 0 263.5 -48.5t204.5 -132.5
t130 -200t47 -248q0 -162 -64 -316.5t-174.5 -273.5t-271.5 -191.5t-342 -72.5zM825 207q120 0 227.5 54t180 140.5t114.5 195t42 218.5q0 181 -110 296.5t-298 115.5q-120 0 -227 -54t-179.5 -140.5t-114.5 -195.5t-42 -219q0 -182 109.5 -296.5t297.5 -114.5z" />
    <glyph glyph-name="omacron" unicode="&#x14d;" horiz-adv-x="1323" 
d="M1135 1241h-543q-37 0 -63.5 26.5t-26.5 63.5t26.5 63.5t63.5 26.5h543q38 0 65 -26.5t27 -63.5t-27 -63.5t-65 -26.5zM600 -25q-229 0 -368.5 138.5t-139.5 355.5q0 122 50 238t134.5 203.5t202 140.5t244.5 53q229 0 368.5 -139t139.5 -357q0 -122 -50.5 -238
t-135.5 -202.5t-202 -139.5t-243 -53zM614 190q100 0 187.5 62.5t135.5 157t48 192.5q0 134 -75.5 210.5t-200.5 76.5q-102 0 -189 -63t-134.5 -157.5t-47.5 -191.5q0 -134 75.5 -210.5t200.5 -76.5z" />
    <glyph glyph-name="Obreve" unicode="&#x14e;" horiz-adv-x="1712" 
d="M799 -25q-142 0 -262.5 48.5t-203.5 132.5t-130 200t-47 248q0 129 40 255t116.5 233.5t179 189.5t236 129t278.5 47q142 0 263.5 -48.5t204.5 -132.5t130 -200t47 -248q0 -162 -64 -316.5t-174.5 -273.5t-271.5 -191.5t-342 -72.5zM825 207q120 0 227.5 54t180 140.5
t114.5 195t42 218.5q0 181 -110 296.5t-298 115.5q-120 0 -227 -54t-179.5 -140.5t-114.5 -195.5t-42 -219q0 -182 109.5 -296.5t297.5 -114.5zM1139 1569q-130 0 -213.5 68t-83.5 159q0 39 26 63.5t64 24.5q58 0 82 -49q19 -45 52.5 -68.5t94.5 -23.5q98 0 172 92
q42 49 90 49q35 0 56.5 -20t21.5 -54q0 -31 -22 -59q-55 -80 -143 -131t-197 -51z" />
    <glyph glyph-name="obreve" unicode="&#x14f;" horiz-adv-x="1323" 
d="M600 -25q-229 0 -368.5 138.5t-139.5 355.5q0 122 50 238t134.5 203.5t202 140.5t244.5 53q229 0 368.5 -139t139.5 -357q0 -122 -50.5 -238t-135.5 -202.5t-202 -139.5t-243 -53zM614 190q100 0 187.5 62.5t135.5 157t48 192.5q0 134 -75.5 210.5t-200.5 76.5
q-102 0 -189 -63t-134.5 -157.5t-47.5 -191.5q0 -134 75.5 -210.5t200.5 -76.5zM860 1214q-130 0 -213.5 68t-83.5 160q0 39 26 63.5t64 24.5q58 0 82 -49q38 -92 148 -92q98 0 172 92q42 49 90 49q35 0 56.5 -20t21.5 -54q0 -30 -23 -59q-56 -80 -143.5 -131.5
t-196.5 -51.5z" />
    <glyph glyph-name="Ohungarumlaut" unicode="&#x150;" horiz-adv-x="1712" 
d="M1110 1892q47 0 83 -26t36 -60q0 -30 -39 -59l-170 -129q-75 -55 -137 -55q-27 0 -42.5 12t-15.5 33q0 27 23 47l164 180q18 19 29.5 29.5t30 19t38.5 8.5zM1485 1892q47 0 83 -26t36 -60q0 -30 -39 -59l-170 -129q-75 -55 -138 -55q-57 0 -57 45q0 26 21 47l163 180
q20 20 31.5 29.5t30.5 18.5t39 9zM799 -25q-142 0 -262.5 48.5t-203.5 132.5t-130 200t-47 248q0 129 40 255t116.5 233.5t179 189.5t236 129t278.5 47q142 0 263.5 -48.5t204.5 -132.5t130 -200t47 -248q0 -162 -64 -316.5t-174.5 -273.5t-271.5 -191.5t-342 -72.5z
M825 207q120 0 227.5 54t180 140.5t114.5 195t42 218.5q0 181 -110 296.5t-298 115.5q-120 0 -227 -54t-179.5 -140.5t-114.5 -195.5t-42 -219q0 -182 109.5 -296.5t297.5 -114.5z" />
    <glyph glyph-name="ohungarumlaut" unicode="&#x151;" horiz-adv-x="1323" 
d="M829 1538q47 0 83 -26t36 -60q0 -30 -39 -59l-170 -129q-76 -56 -137 -56q-57 0 -57 45q0 28 22 47l164 181q18 19 29.5 29.5t30 19t38.5 8.5zM1204 1538q47 0 83 -26t36 -60q0 -30 -39 -59l-170 -129q-76 -56 -137 -56q-57 0 -57 45q0 27 20 47l164 181q20 20 31 29.5
t30 18.5t39 9zM600 -25q-229 0 -368.5 138.5t-139.5 355.5q0 122 50 238t134.5 203.5t202 140.5t244.5 53q229 0 368.5 -139t139.5 -357q0 -122 -50.5 -238t-135.5 -202.5t-202 -139.5t-243 -53zM614 190q100 0 187.5 62.5t135.5 157t48 192.5q0 134 -75.5 210.5
t-200.5 76.5q-102 0 -189 -63t-134.5 -157.5t-47.5 -191.5q0 -134 75.5 -210.5t200.5 -76.5z" />
    <glyph glyph-name="OE" unicode="&#x152;" horiz-adv-x="2244" 
d="M889 229h129l262 975h-180q-160 0 -296 -49.5t-231 -144.5q-157 -157 -157 -396q0 -166 98 -264q121 -121 375 -121zM1911 0h-1043q-372 0 -567 195q-147 147 -147 409q0 162 59 305.5t172 255.5q269 269 743 269h1098q46 0 79.5 -33.5t33.5 -79.5q0 -47 -33.5 -80
t-79.5 -33h-694l-98 -374h538q47 0 81 -33t34 -80q0 -46 -34 -78.5t-81 -32.5h-600l-104 -385h643q47 0 80.5 -33t33.5 -79q0 -47 -33.5 -80t-80.5 -33z" />
    <glyph glyph-name="oe" unicode="&#x153;" horiz-adv-x="2115" 
d="M1241 618h561q10 30 10 76q0 91 -54 149t-161 58q-123 0 -218 -79t-138 -204zM612 190q103 0 190 59.5t135 153t48 195.5q0 133 -75 212t-199 79q-104 0 -191 -60.5t-134.5 -154.5t-47.5 -195q0 -131 75 -210t199 -79zM1495 178q117 0 217 66q46 24 78 24q40 0 68 -27
t28 -69q0 -54 -49 -84q-155 -113 -364 -113q-150 0 -258 62t-158 174q-81 -108 -198 -172t-259 -64q-228 0 -368 139t-140 355q0 123 49.5 239t133 203t201 140t245.5 53q157 0 267 -68.5t159 -183.5q81 114 200 183t269 69q203 0 317.5 -118t114.5 -302q0 -66 -12 -121
q-25 -108 -121 -108h-696q-2 -6 -2 -21q5 -118 77 -187t201 -69z" />
    <glyph glyph-name="Racute" unicode="&#x154;" horiz-adv-x="1480" 
d="M1286 1729l-174 -132q-75 -55 -151 -55q-68 0 -68 47q0 25 20 45l164 181q21 21 31 30t29 18t39 9q51 0 100 -27.5t49 -58.5q0 -30 -39 -57zM426 500l-104 -387q-15 -58 -52.5 -90.5t-87.5 -32.5q-64 0 -93.5 44t-8.5 118l309 1155q17 60 54.5 93.5t88.5 33.5h412
q297 0 434 -140q105 -105 105 -270q0 -200 -131 -328q-117 -120 -344 -170l202 -338q29 -42 29 -84q0 -53 -37 -83.5t-86 -30.5q-94 0 -143 82l-248 428h-299zM487 723h324q233 0 338 108q72 72 72 173q0 76 -52 131q-72 69 -239 69h-314z" />
    <glyph glyph-name="racute" unicode="&#x155;" horiz-adv-x="843" 
d="M946 1395l-174 -131q-76 -56 -151 -56q-68 0 -68 47q0 25 20 45l164 181q21 21 31 30t29 18t39 9q51 0 100 -27.5t49 -58.5q0 -30 -39 -57zM510 946l-25 -92q67 116 151 179t169 63q51 0 79.5 -30t28.5 -83q0 -103 -116 -131q-328 -73 -430 -451l-78 -288
q-17 -59 -53.5 -91t-85.5 -32q-63 0 -92 43.5t-9 116.5l221 819q15 60 51.5 92.5t86.5 32.5q61 0 89 -41.5t13 -106.5z" />
    <glyph glyph-name="Rcommaaccent" unicode="&#x156;" horiz-adv-x="1480" 
d="M508 -330q-96 20 -96 92q0 52 39 90.5t100 38.5q56 0 87.5 -31t31.5 -89q0 -54 -26 -112t-69 -99q-49 -50 -112.5 -78.5t-122.5 -28.5q-47 0 -47 39q0 36 55 47q73 15 111 47t49 84zM426 500l-104 -387q-15 -58 -52.5 -90.5t-87.5 -32.5q-64 0 -93.5 44t-8.5 118
l309 1155q17 60 54.5 93.5t88.5 33.5h412q297 0 434 -140q105 -105 105 -270q0 -200 -131 -328q-117 -120 -344 -170l202 -338q29 -42 29 -84q0 -53 -37 -83.5t-86 -30.5q-94 0 -143 82l-248 428h-299zM487 723h324q233 0 338 108q72 72 72 173q0 76 -52 131q-72 69 -239 69
h-314z" />
    <glyph glyph-name="rcommaaccent" unicode="&#x157;" horiz-adv-x="843" 
d="M61 -340q-96 20 -96 92q0 52 39 90.5t100 38.5q56 0 87.5 -31.5t31.5 -89.5q0 -54 -25.5 -112t-68.5 -99q-49 -50 -112 -78t-123 -28q-48 0 -48 39q0 36 56 47q73 15 110.5 47t48.5 84zM510 946l-25 -92q67 116 151 179t169 63q51 0 79.5 -30t28.5 -83q0 -103 -116 -131
q-328 -73 -430 -451l-78 -288q-17 -59 -53.5 -91t-85.5 -32q-63 0 -92 43.5t-9 116.5l221 819q15 60 51.5 92.5t86.5 32.5q61 0 89 -41.5t13 -106.5z" />
    <glyph glyph-name="Rcaron" unicode="&#x158;" horiz-adv-x="1480" 
d="M809 1610l-84 159q-20 40 -20 54q0 20 15.5 30.5t41.5 10.5q51 0 82 -10t63 -48l78 -90l133 92q82 56 156 56q55 0 55 -39q0 -27 -29 -56l-176 -165q-60 -60 -131 -60h-67q-82 0 -117 66zM426 500l-104 -387q-15 -58 -52.5 -90.5t-87.5 -32.5q-64 0 -93.5 44t-8.5 118
l309 1155q17 60 54.5 93.5t88.5 33.5h412q297 0 434 -140q105 -105 105 -270q0 -200 -131 -328q-117 -120 -344 -170l202 -338q29 -42 29 -84q0 -53 -37 -83.5t-86 -30.5q-94 0 -143 82l-248 428h-299zM487 723h324q233 0 338 108q72 72 72 173q0 76 -52 131q-72 69 -239 69
h-314z" />
    <glyph glyph-name="rcaron" unicode="&#x159;" horiz-adv-x="843" 
d="M469 1276l-84 160q-20 40 -20 53q0 20 15.5 30.5t41.5 10.5q51 0 82 -10t63 -47l78 -91l133 93q80 55 156 55q55 0 55 -39q0 -27 -28 -55l-177 -166q-60 -60 -131 -60h-67q-82 0 -117 66zM510 946l-25 -92q67 116 151 179t169 63q51 0 79.5 -30t28.5 -83
q0 -103 -116 -131q-328 -73 -430 -451l-78 -288q-17 -59 -53.5 -91t-85.5 -32q-63 0 -92 43.5t-9 116.5l221 819q15 60 51.5 92.5t86.5 32.5q61 0 89 -41.5t13 -106.5z" />
    <glyph glyph-name="Sacute" unicode="&#x15a;" horiz-adv-x="1304" 
d="M1237 1749l-174 -131q-75 -55 -152 -55q-67 0 -67 47q0 25 20 45l164 180q22 22 31 30t28 17.5t39 9.5q51 0 100.5 -27.5t49.5 -58.5q0 -30 -39 -57zM621 203q121 0 198.5 54.5t77.5 143.5q0 65 -55.5 111t-208.5 106q-71 28 -123.5 55t-100.5 61.5t-78.5 73t-48.5 88.5
t-18 108q0 132 73.5 235.5t199 159t278.5 55.5q261 0 445 -141q57 -43 57 -107q0 -52 -36 -87.5t-87 -35.5q-47 0 -74 27q-74 62 -150.5 91.5t-172.5 29.5q-121 0 -194 -56.5t-73 -132.5q0 -67 58.5 -111t220.5 -108q88 -34 149 -68.5t110 -80t73 -104t24 -132.5
q0 -137 -77 -242.5t-203.5 -160.5t-278.5 -55t-291.5 44.5t-240.5 139.5q-49 42 -49 104q0 55 34 91t88 36q47 0 84 -33q91 -85 179.5 -122t210.5 -37z" />
    <glyph glyph-name="sacute" unicode="&#x15b;" horiz-adv-x="1021" 
d="M1008 1395l-174 -131q-76 -56 -152 -56q-68 0 -68 47q0 24 21 45l164 181q22 22 31 30t28 17.5t39 9.5q51 0 100.5 -27.5t49.5 -58.5q0 -30 -39 -57zM465 170q74 0 123 35t49 94q0 39 -37 69.5t-121 65.5q-62 25 -102.5 44.5t-84 48t-68 57.5t-40.5 69.5t-16 89.5
q0 156 116.5 258.5t307.5 102.5q93 0 186 -30t162 -73q57 -33 57 -94q0 -45 -30 -76.5t-74 -31.5q-29 0 -68 24q-125 86 -252 86q-77 0 -121 -34.5t-44 -88.5q0 -40 38.5 -71t133.5 -70q70 -30 117 -55.5t91.5 -62t66.5 -82.5t22 -103q0 -165 -122 -266t-311 -101
q-227 0 -417 142q-45 33 -45 88q0 44 29.5 75t70.5 31q39 0 72 -26q142 -115 311 -115z" />
    <glyph glyph-name="Scedilla" unicode="&#x15e;" horiz-adv-x="1304" 
d="M621 203q121 0 198.5 54.5t77.5 143.5q0 65 -55.5 111t-208.5 106q-71 28 -123.5 55t-100.5 61.5t-78.5 73t-48.5 88.5t-18 108q0 132 73.5 235.5t199 159t278.5 55.5q261 0 445 -141q57 -43 57 -107q0 -52 -36 -87.5t-87 -35.5q-47 0 -74 27q-74 62 -150.5 91.5
t-172.5 29.5q-121 0 -194 -56.5t-73 -132.5q0 -67 58.5 -111t220.5 -108q88 -34 149 -68.5t110 -80t73 -104t24 -132.5q0 -137 -77 -242.5t-203.5 -160.5t-278.5 -55h-4l-176 -254q-35 -54 -86 -54q-40 0 -77.5 27.5t-37.5 60.5q0 27 29 60l166 176q-215 42 -346 168
q-49 42 -49 104q0 55 34 91t88 36q47 0 84 -33q91 -85 179.5 -122t210.5 -37z" />
    <glyph glyph-name="scedilla" unicode="&#x15f;" horiz-adv-x="1021" 
d="M465 170q74 0 123 35t49 94q0 39 -37 69.5t-121 65.5q-62 25 -102.5 44.5t-84 48t-68 57.5t-40.5 69.5t-16 89.5q0 156 116.5 258.5t307.5 102.5q93 0 186 -30t162 -73q57 -33 57 -94q0 -45 -30 -76.5t-74 -31.5q-29 0 -68 24q-125 86 -252 86q-77 0 -121 -34.5
t-44 -88.5q0 -40 38.5 -71t133.5 -70q70 -30 117 -55.5t91.5 -62t66.5 -82.5t22 -103q0 -162 -118 -262t-302 -105l-172 -249q-35 -54 -86 -54q-40 0 -77.5 27.5t-37.5 60.5q0 27 29 60l166 176q-139 35 -252 121q-45 33 -45 88q0 44 29.5 75t70.5 31q39 0 72 -26
q142 -115 311 -115z" />
    <glyph glyph-name="Scaron" unicode="&#x160;" horiz-adv-x="1304" 
d="M758 1630l-84 160q-21 42 -21 53q0 20 16 30.5t42 10.5q51 0 82 -10t63 -47l78 -90l133 92q80 55 156 55q55 0 55 -39q0 -26 -29 -55l-176 -166q-59 -59 -131 -59h-68q-81 0 -116 65zM621 203q121 0 198.5 54.5t77.5 143.5q0 65 -55.5 111t-208.5 106q-71 28 -123.5 55
t-100.5 61.5t-78.5 73t-48.5 88.5t-18 108q0 132 73.5 235.5t199 159t278.5 55.5q261 0 445 -141q57 -43 57 -107q0 -52 -36 -87.5t-87 -35.5q-47 0 -74 27q-74 62 -150.5 91.5t-172.5 29.5q-121 0 -194 -56.5t-73 -132.5q0 -67 58.5 -111t220.5 -108q88 -34 149 -68.5
t110 -80t73 -104t24 -132.5q0 -137 -77 -242.5t-203.5 -160.5t-278.5 -55t-291.5 44.5t-240.5 139.5q-49 42 -49 104q0 55 34 91t88 36q47 0 84 -33q91 -85 179.5 -122t210.5 -37z" />
    <glyph glyph-name="scaron" unicode="&#x161;" horiz-adv-x="1021" 
d="M532 1276l-83 160q-21 42 -21 53q0 20 15.5 30.5t41.5 10.5q35 0 54 -2.5t44.5 -15.5t47.5 -39l78 -91l133 93q80 55 155 55q56 0 56 -39q0 -26 -29 -55l-176 -166q-60 -60 -131 -60h-68q-82 0 -117 66zM465 170q74 0 123 35t49 94q0 39 -37 69.5t-121 65.5
q-62 25 -102.5 44.5t-84 48t-68 57.5t-40.5 69.5t-16 89.5q0 156 116.5 258.5t307.5 102.5q93 0 186 -30t162 -73q57 -33 57 -94q0 -45 -30 -76.5t-74 -31.5q-29 0 -68 24q-125 86 -252 86q-77 0 -121 -34.5t-44 -88.5q0 -40 38.5 -71t133.5 -70q70 -30 117 -55.5t91.5 -62
t66.5 -82.5t22 -103q0 -165 -122 -266t-311 -101q-227 0 -417 142q-45 33 -45 88q0 44 29.5 75t70.5 31q39 0 72 -26q142 -115 311 -115z" />
    <glyph glyph-name="Tcommaaccent" unicode="&#x162;" horiz-adv-x="1267" 
d="M393 -340q-96 20 -96 92q0 52 39 90.5t100 38.5q56 0 87.5 -31.5t31.5 -89.5q0 -54 -25.5 -112t-68.5 -99q-48 -50 -112 -78t-124 -28q-47 0 -47 39q0 36 55 47q73 15 111 47t49 84zM932 1200l-293 -1087q-15 -58 -52 -90.5t-87 -32.5q-64 0 -94 44t-9 118l283 1048h-318
q-47 0 -81.5 35t-34.5 82t34.5 82t81.5 35h951q47 0 82 -35t35 -82t-35 -82t-82 -35h-381z" />
    <glyph glyph-name="Tcommaaccent" unicode="&#x21a;" horiz-adv-x="1267" 
d="M393 -340q-96 20 -96 92q0 52 39 90.5t100 38.5q56 0 87.5 -31.5t31.5 -89.5q0 -54 -25.5 -112t-68.5 -99q-48 -50 -112 -78t-124 -28q-47 0 -47 39q0 36 55 47q73 15 111 47t49 84zM932 1200l-293 -1087q-15 -58 -52 -90.5t-87 -32.5q-64 0 -94 44t-9 118l283 1048h-318
q-47 0 -81.5 35t-34.5 82t34.5 82t81.5 35h951q47 0 82 -35t35 -82t-35 -82t-82 -35h-381z" />
    <glyph glyph-name="tcommaaccent" unicode="&#x163;" horiz-adv-x="837" 
d="M242 -340q-97 20 -97 92q0 52 39.5 90.5t100.5 38.5q56 0 87 -31.5t31 -89.5q0 -54 -25.5 -112t-68.5 -99q-49 -50 -112 -78t-123 -28q-47 0 -47 39q0 36 55 47q73 15 111 47t49 84zM352 1081l51 185q15 58 51.5 90.5t86.5 32.5q63 0 91.5 -43t8.5 -117l-41 -148h166
q43 0 73.5 -30.5t30.5 -75.5t-30.5 -76t-73.5 -31h-223l-140 -522q-8 -40 -8 -61q0 -41 27.5 -62.5t77.5 -21.5q23 0 43 4q42 3 69 -21.5t27 -70.5q0 -76 -68 -103q-62 -28 -165 -28q-131 0 -203 58t-72 155q0 59 19 124l145 549h-29q-38 5 -66 33t-28 74q0 45 30.5 75.5
t73.5 30.5h76z" />
    <glyph glyph-name="tcommaaccent" unicode="&#x21b;" horiz-adv-x="837" 
d="M242 -340q-97 20 -97 92q0 52 39.5 90.5t100.5 38.5q56 0 87 -31.5t31 -89.5q0 -54 -25.5 -112t-68.5 -99q-49 -50 -112 -78t-123 -28q-47 0 -47 39q0 36 55 47q73 15 111 47t49 84zM352 1081l51 185q15 58 51.5 90.5t86.5 32.5q63 0 91.5 -43t8.5 -117l-41 -148h166
q43 0 73.5 -30.5t30.5 -75.5t-30.5 -76t-73.5 -31h-223l-140 -522q-8 -40 -8 -61q0 -41 27.5 -62.5t77.5 -21.5q23 0 43 4q42 3 69 -21.5t27 -70.5q0 -76 -68 -103q-62 -28 -165 -28q-131 0 -203 58t-72 155q0 59 19 124l145 549h-29q-38 5 -66 33t-28 74q0 45 30.5 75.5
t73.5 30.5h76z" />
    <glyph glyph-name="Tcaron" unicode="&#x164;" horiz-adv-x="1267" 
d="M762 1610l-84 159q-21 42 -21 54q0 20 16 30.5t42 10.5q51 0 82 -10t63 -48l78 -90l133 92q82 56 156 56q55 0 55 -39q0 -27 -29 -56l-176 -165q-60 -60 -131 -60h-67q-82 0 -117 66zM932 1200l-293 -1087q-15 -58 -52 -90.5t-87 -32.5q-64 0 -94 44t-9 118l283 1048
h-318q-47 0 -81.5 35t-34.5 82t34.5 82t81.5 35h951q47 0 82 -35t35 -82t-35 -82t-82 -35h-381z" />
    <glyph glyph-name="tcaron" unicode="&#x165;" horiz-adv-x="837" 
d="M784 1262l76 256q11 39 39.5 61.5t69.5 22.5h41q49 0 49 -41q0 -20 -23 -64l-141 -252q-30 -49 -72 -49q-21 0 -33 10.5t-12 28.5q0 15 6 27zM352 1081l51 185q15 58 51.5 90.5t86.5 32.5q63 0 91.5 -43t8.5 -117l-41 -148h166q43 0 73.5 -30.5t30.5 -75.5t-30.5 -76
t-73.5 -31h-223l-140 -522q-8 -40 -8 -61q0 -41 27.5 -62.5t77.5 -21.5q23 0 43 4q42 3 69 -21.5t27 -70.5q0 -76 -68 -103q-62 -28 -165 -28q-131 0 -203 58t-72 155q0 59 19 124l145 549h-29q-38 5 -66 33t-28 74q0 45 30.5 75.5t73.5 30.5h76z" />
    <glyph glyph-name="Umacron" unicode="&#x16a;" horiz-adv-x="1560" 
d="M1589 1282l-190 -702q-73 -274 -223 -424q-179 -179 -469 -179q-250 0 -390.5 127t-140.5 347q0 98 33 227l170 643q17 58 54 90.5t87 32.5q63 0 93 -43.5t10 -118.5l-172 -639q-21 -99 -21 -158q0 -124 78 -199t223 -75q162 0 268 106q108 108 158 301l189 703
q15 58 53 90.5t88 32.5q63 0 92.5 -43.5t9.5 -118.5zM1335 1575h-542q-37 0 -64 26.5t-27 63.5t27 63.5t64 26.5h542q38 0 65 -26.5t27 -63.5t-27 -63.5t-65 -26.5z" />
    <glyph glyph-name="umacron" unicode="&#x16b;" horiz-adv-x="1265" 
d="M854 -10q-52 0 -82.5 30t-28.5 74l13 45q-162 -162 -328 -162q-151 0 -240.5 87.5t-89.5 236.5q0 61 33 191l127 477q15 60 51 92.5t86 32.5q64 0 92.5 -44t8.5 -118l-121 -451q-15 -62 -15 -108q0 -81 49.5 -125.5t137.5 -44.5q103 0 183.5 74.5t113.5 195.5l133 496
q15 60 51 92.5t86 32.5q64 0 92 -44t8 -118l-217 -819q-17 -59 -54 -91t-89 -32zM1102 1241h-543q-37 0 -63.5 26.5t-26.5 63.5t26.5 63.5t63.5 26.5h543q38 0 65 -26.5t27 -63.5t-27 -63.5t-65 -26.5z" />
    <glyph glyph-name="Ubreve" unicode="&#x16c;" horiz-adv-x="1560" 
d="M1589 1282l-190 -702q-73 -274 -223 -424q-179 -179 -469 -179q-250 0 -390.5 127t-140.5 347q0 98 33 227l170 643q17 58 54 90.5t87 32.5q63 0 93 -43.5t10 -118.5l-172 -639q-21 -99 -21 -158q0 -124 78 -199t223 -75q162 0 268 106q108 108 158 301l189 703
q15 58 53 90.5t88 32.5q63 0 92.5 -43.5t9.5 -118.5zM1061 1548q-130 0 -213.5 68t-83.5 160q0 39 26 63.5t64 24.5q58 0 82 -49q19 -45 52.5 -69t94.5 -24q97 0 172 93q42 49 91 49q35 0 56 -20t21 -54q0 -31 -22 -59q-56 -80 -143.5 -131.5t-196.5 -51.5z" />
    <glyph glyph-name="ubreve" unicode="&#x16d;" horiz-adv-x="1265" 
d="M854 -10q-52 0 -82.5 30t-28.5 74l13 45q-162 -162 -328 -162q-151 0 -240.5 87.5t-89.5 236.5q0 61 33 191l127 477q15 60 51 92.5t86 32.5q64 0 92.5 -44t8.5 -118l-121 -451q-15 -62 -15 -108q0 -81 49.5 -125.5t137.5 -44.5q103 0 183.5 74.5t113.5 195.5l133 496
q15 60 51 92.5t86 32.5q64 0 92 -44t8 -118l-217 -819q-17 -59 -54 -91t-89 -32zM827 1214q-130 0 -213.5 68t-83.5 160q0 39 26.5 63.5t64.5 24.5q57 0 81 -49q38 -92 148 -92q98 0 172 92q42 49 90 49q35 0 56.5 -20t21.5 -54q0 -30 -23 -59q-56 -80 -143.5 -131.5
t-196.5 -51.5z" />
    <glyph glyph-name="Uring" unicode="&#x16e;" horiz-adv-x="1560" 
d="M1067 1536q-98 0 -156.5 56t-58.5 143q0 104 76 179t182 75q98 0 156.5 -56t58.5 -143q0 -103 -76.5 -178.5t-181.5 -75.5zM1069 1634q61 0 102 46t41 108q0 44 -28 73t-76 29q-61 0 -102 -45.5t-41 -107.5q0 -44 28 -73.5t76 -29.5zM1589 1282l-190 -702
q-73 -274 -223 -424q-179 -179 -469 -179q-250 0 -390.5 127t-140.5 347q0 98 33 227l170 643q17 58 54 90.5t87 32.5q63 0 93 -43.5t10 -118.5l-172 -639q-21 -99 -21 -158q0 -124 78 -199t223 -75q162 0 268 106q108 108 158 301l189 703q15 58 53 90.5t88 32.5
q63 0 92.5 -43.5t9.5 -118.5z" />
    <glyph glyph-name="uring" unicode="&#x16f;" horiz-adv-x="1265" 
d="M838 1214q-98 0 -156.5 56t-58.5 143q0 104 76 179t182 75q98 0 156.5 -56t58.5 -143q0 -103 -76.5 -178.5t-181.5 -75.5zM840 1313q61 0 102 45.5t41 107.5q0 44 -28 73.5t-76 29.5q-61 0 -102.5 -46t-41.5 -108q0 -44 28.5 -73t76.5 -29zM854 -10q-52 0 -82.5 30
t-28.5 74l13 45q-162 -162 -328 -162q-151 0 -240.5 87.5t-89.5 236.5q0 61 33 191l127 477q15 60 51 92.5t86 32.5q64 0 92.5 -44t8.5 -118l-121 -451q-15 -62 -15 -108q0 -81 49.5 -125.5t137.5 -44.5q103 0 183.5 74.5t113.5 195.5l133 496q15 60 51 92.5t86 32.5
q64 0 92 -44t8 -118l-217 -819q-17 -59 -54 -91t-89 -32z" />
    <glyph glyph-name="Uhungarumlaut" unicode="&#x170;" horiz-adv-x="1560" 
d="M1589 1282l-190 -702q-73 -274 -223 -424q-179 -179 -469 -179q-250 0 -390.5 127t-140.5 347q0 98 33 227l170 643q17 58 54 90.5t87 32.5q63 0 93 -43.5t10 -118.5l-172 -639q-21 -99 -21 -158q0 -124 78 -199t223 -75q162 0 268 106q108 108 158 301l189 703
q15 58 53 90.5t88 32.5q63 0 92.5 -43.5t9.5 -118.5zM1032 1872q47 0 83 -26t36 -60q0 -31 -39 -60l-170 -129q-75 -55 -137 -55q-57 0 -57 45q0 28 22 47l164 181q18 19 29.5 29.5t30 19t38.5 8.5zM1407 1872q47 0 83 -26t36 -60q0 -31 -39 -60l-170 -129q-75 -55 -137 -55
q-27 0 -42.5 12t-15.5 33q0 26 21 47l164 181q20 20 31 29.5t30 18.5t39 9z" />
    <glyph glyph-name="uhungarumlaut" unicode="&#x171;" horiz-adv-x="1265" 
d="M854 -10q-52 0 -82.5 30t-28.5 74l13 45q-162 -162 -328 -162q-151 0 -240.5 87.5t-89.5 236.5q0 61 33 191l127 477q15 60 51 92.5t86 32.5q64 0 92.5 -44t8.5 -118l-121 -451q-15 -62 -15 -108q0 -81 49.5 -125.5t137.5 -44.5q103 0 183.5 74.5t113.5 195.5l133 496
q15 60 51 92.5t86 32.5q64 0 92 -44t8 -118l-217 -819q-17 -59 -54 -91t-89 -32zM799 1538q47 0 83 -26t36 -60q0 -30 -39 -59l-170 -129q-76 -56 -138 -56q-57 0 -57 45q0 27 23 47l163 181q18 19 29.5 29.5t30.5 19t39 8.5zM1174 1538q47 0 82.5 -26t35.5 -60
q0 -30 -39 -59l-170 -129q-76 -56 -137 -56q-57 0 -57 45q0 27 20 47l164 181q20 20 31.5 29.5t30.5 18.5t39 9z" />
    <glyph glyph-name="Uogonek" unicode="&#x172;" horiz-adv-x="1560" 
d="M1589 1282l-190 -702q-73 -274 -223 -424q-173 -173 -455 -179q-86 -80 -86 -131q0 -24 17.5 -37t58.5 -22q30 -9 43 -23t12 -38q-3 -68 -119 -68q-100 0 -156.5 37.5t-56.5 99.5q0 92 127 197q-184 34 -284.5 154t-100.5 305q0 98 33 227l170 643q17 58 54 90.5t87 32.5
q63 0 93 -43.5t10 -118.5l-172 -639q-21 -99 -21 -158q0 -124 78 -199t223 -75q162 0 268 106q108 108 158 301l189 703q15 58 53 90.5t88 32.5q63 0 92.5 -43.5t9.5 -118.5z" />
    <glyph glyph-name="uogonek" unicode="&#x173;" horiz-adv-x="1265" 
d="M1214 932l-217 -819q-15 -55 -61 -101q-66 -59 -95.5 -96.5t-29.5 -69.5q0 -24 17.5 -37t58.5 -22q58 -19 55 -61q-3 -68 -119 -68q-100 0 -156.5 37.5t-56.5 99.5q0 56 43 110.5t121 114.5q-31 28 -31 74l13 45q-162 -162 -328 -162q-151 0 -240.5 87.5t-89.5 236.5
q0 61 33 191l127 477q15 60 51 92.5t86 32.5q64 0 92.5 -44t8.5 -118l-121 -451q-15 -62 -15 -108q0 -81 49.5 -125.5t137.5 -44.5q103 0 183.5 74.5t113.5 195.5l133 496q15 60 51 92.5t86 32.5q64 0 92 -44t8 -118z" />
    <glyph glyph-name="Wcircumflex" unicode="&#x174;" horiz-adv-x="2248" 
d="M1583 1796l84 -160q23 -37 23 -53q0 -20 -16 -30.5t-42 -10.5q-51 0 -82 9.5t-63 45.5l-80 93l-131 -93q-79 -55 -158 -55q-53 0 -53 39q0 23 29 55l176 166q60 60 131 60h67q83 0 115 -66zM2345 1272l-746 -1188q-62 -104 -167 -104h-11q-110 0 -116 112l-68 916
l-561 -924q-65 -104 -164 -104h-12q-52 0 -82 29t-35 83l-104 1176q-5 40 -5 59q0 50 37.5 83.5t94.5 33.5q56 0 89.5 -28t34.5 -79l70 -966l582 979q28 49 61.5 73.5t81.5 24.5h14q52 0 81 -26t32 -74l64 -977l598 989q51 84 137 84q52 0 84 -28t32 -75q0 -29 -22 -69z" />
    <glyph glyph-name="wcircumflex" unicode="&#x175;" horiz-adv-x="1746" 
d="M1253 1462l84 -159q23 -37 23 -54q0 -20 -15.5 -30.5t-41.5 -10.5q-51 0 -82.5 10t-63.5 46l-80 92l-131 -92q-81 -56 -158 -56q-53 0 -53 39q0 24 29 56l176 165q60 60 131 60h68q82 0 114 -66zM240 96l-58 817q-4 36 -4 62q0 49 38.5 84t88.5 35q55 0 89.5 -29.5
t35.5 -79.5l31 -641l385 651q57 99 145 99h13q49 0 78 -27t32 -74l37 -651l399 674q43 78 119 78q47 0 73.5 -26t26.5 -69q0 -31 -22 -71l-516 -846q-59 -100 -160 -100h-8q-52 0 -82 29t-33 85l-39 635l-387 -647q-60 -102 -160 -102h-8q-52 0 -81.5 29t-32.5 85z" />
    <glyph glyph-name="Ycircumflex" unicode="&#x176;" horiz-adv-x="1341" 
d="M782 535l-112 -422q-17 -58 -54.5 -90.5t-87.5 -32.5q-63 0 -92.5 43.5t-9.5 118.5l111 409l-283 670q-25 60 -25 94q0 51 38 85t98 34q86 0 122 -98l222 -566l553 594q69 72 137 72q50 0 78 -28t28 -77q0 -55 -45 -100zM1124 1796l84 -160q23 -37 23 -53
q0 -20 -15.5 -30.5t-41.5 -10.5q-35 0 -54 2.5t-44.5 15t-47.5 37.5l-80 93l-131 -93q-79 -55 -158 -55q-53 0 -53 39q0 23 29 55l176 166q60 60 131 60h68q82 0 114 -66z" />
    <glyph glyph-name="ycircumflex" unicode="&#x177;" horiz-adv-x="1198" 
d="M61 -98q66 -25 109 -25q89 0 174 121l-151 915q-5 45 -5 62q0 51 35 85t88 34q51 0 85 -30t38 -81l96 -709l451 738q49 82 129 82q48 0 78.5 -27t30.5 -72q0 -32 -33 -86l-606 -940q-107 -165 -209.5 -234t-231.5 -69q-96 0 -157 31q-76 31 -76 108q0 44 30 76.5t70 32.5
q15 0 55 -12zM956 1462l84 -159q23 -37 23 -54q0 -20 -15.5 -30.5t-41.5 -10.5q-51 0 -82.5 10t-63.5 46l-80 92l-131 -92q-44 -31 -79 -43.5t-78 -12.5q-54 0 -54 39q0 24 29 56l176 165q60 60 131 60h68q82 0 114 -66z" />
    <glyph glyph-name="Ydieresis" unicode="&#x178;" horiz-adv-x="1341" 
d="M782 535l-112 -422q-17 -58 -54.5 -90.5t-87.5 -32.5q-63 0 -92.5 43.5t-9.5 118.5l111 409l-283 670q-25 60 -25 94q0 51 38 85t98 34q86 0 122 -98l222 -566l553 594q69 72 137 72q50 0 78 -28t28 -77q0 -55 -45 -100zM764 1808q57 0 91 -35.5t22 -84.5l-9 -33
q-12 -50 -53.5 -82.5t-97.5 -32.5q-59 0 -93 36t-22 85l8 33q13 52 55.5 83t98.5 31zM1171 1808q57 0 91 -35.5t22 -84.5l-8 -33q-12 -50 -54 -82.5t-98 -32.5q-59 0 -92.5 36t-21.5 85l8 33q13 52 55 83t98 31z" />
    <glyph glyph-name="Zacute" unicode="&#x179;" horiz-adv-x="1394" 
d="M1278 1729l-174 -132q-75 -55 -152 -55q-67 0 -67 47q0 25 20 45l164 181q22 22 31 30t28 17.5t39 9.5q51 0 100.5 -27.5t49.5 -58.5q0 -30 -39 -57zM53 225l1053 985h-662q-46 0 -79 32.5t-33 78.5t33 79.5t79 33.5h938q51 0 80 -26t29 -71v-4q0 -58 -70 -125
l-1052 -985h698q46 0 79.5 -33t33.5 -79t-33.5 -78.5t-79.5 -32.5h-975q-50 0 -79 26t-29 70v4q0 56 69 125z" />
    <glyph glyph-name="zacute" unicode="&#x17a;" horiz-adv-x="1134" 
d="M1055 1395l-174 -131q-76 -56 -152 -56q-67 0 -67 47q0 25 20 45l164 181q22 22 31 30t28 17.5t39 9.5q51 0 100.5 -27.5t49.5 -58.5q0 -30 -39 -57zM328 1081h710q52 0 81.5 -24t29.5 -66v-2q0 -59 -59 -110l-758 -676h493q42 0 72.5 -30.5t30.5 -72.5
q0 -41 -30.5 -70.5t-72.5 -29.5h-739q-51 0 -81 24.5t-30 67.5v2q0 57 60 109l758 676h-465q-43 0 -73 29.5t-30 70.5q0 43 30 72.5t73 29.5z" />
    <glyph glyph-name="Zdotaccent" unicode="&#x17b;" horiz-adv-x="1394" 
d="M53 225l1053 985h-662q-46 0 -79 32.5t-33 78.5t33 79.5t79 33.5h938q51 0 80 -26t29 -71v-4q0 -58 -70 -125l-1052 -985h698q46 0 79.5 -33t33.5 -79t-33.5 -78.5t-79.5 -32.5h-975q-50 0 -79 26t-29 70v4q0 56 69 125zM991 1808q58 0 92.5 -35.5t22.5 -84.5l-8 -33
q-12 -50 -55 -82.5t-99 -32.5q-59 0 -94 36t-23 85l9 33q13 52 56 83t99 31z" />
    <glyph glyph-name="zdotaccent" unicode="&#x17c;" horiz-adv-x="1134" 
d="M328 1081h710q52 0 81.5 -24t29.5 -66v-2q0 -59 -59 -110l-758 -676h493q42 0 72.5 -30.5t30.5 -72.5q0 -41 -30.5 -70.5t-72.5 -29.5h-739q-51 0 -81 24.5t-30 67.5v2q0 57 60 109l758 676h-465q-43 0 -73 29.5t-30 70.5q0 43 30 72.5t73 29.5zM770 1475q57 0 92 -36
t23 -85l-8 -33q-12 -50 -55 -82.5t-99 -32.5q-59 0 -94 36t-23 85l8 33q13 52 56.5 83.5t99.5 31.5z" />
    <glyph glyph-name="Zcaron" unicode="&#x17d;" horiz-adv-x="1394" 
d="M799 1610l-84 159q-21 42 -21 54q0 20 16 30.5t42 10.5q51 0 82 -10t63 -48l78 -90l133 92q82 56 156 56q55 0 55 -39q0 -27 -29 -56l-176 -165q-60 -60 -131 -60h-68q-81 0 -116 66zM53 225l1053 985h-662q-46 0 -79 32.5t-33 78.5t33 79.5t79 33.5h938q51 0 80 -26
t29 -71v-4q0 -58 -70 -125l-1052 -985h698q46 0 79.5 -33t33.5 -79t-33.5 -78.5t-79.5 -32.5h-975q-50 0 -79 26t-29 70v4q0 56 69 125z" />
    <glyph glyph-name="zcaron" unicode="&#x17e;" horiz-adv-x="1134" 
d="M578 1276l-84 160q-21 42 -21 53q0 20 15.5 30.5t41.5 10.5q35 0 54 -2.5t44.5 -15.5t47.5 -39l78 -91l133 93q80 55 155 55q56 0 56 -39q0 -26 -29 -55l-176 -166q-60 -60 -131 -60h-68q-81 0 -116 66zM328 1081h710q52 0 81.5 -24t29.5 -66v-2q0 -59 -59 -110
l-758 -676h493q42 0 72.5 -30.5t30.5 -72.5q0 -41 -30.5 -70.5t-72.5 -29.5h-739q-51 0 -81 24.5t-30 67.5v2q0 57 60 109l758 676h-465q-43 0 -73 29.5t-30 70.5q0 43 30 72.5t73 29.5z" />
    <glyph glyph-name="florin" unicode="&#x192;" horiz-adv-x="1101" 
d="M111 -23q-62 0 -102 27t-40 80q0 49 35.5 73.5t83.5 26.5q60 2 103.5 38t80.5 120l170 387h-53q-38 0 -67 30t-29 72q0 43 30.5 74t73.5 31h138l92 205q67 154 176 234.5t246 80.5q68 0 108 -12q86 -22 86 -101q0 -50 -33.5 -79.5t-74.5 -24.5q-6 0 -34.5 3t-45.5 3
q-138 0 -217 -174l-60 -135h148q43 0 73.5 -31t30.5 -74t-30.5 -72.5t-73.5 -29.5h-240l-203 -461q-128 -291 -372 -291z" />
    <glyph glyph-name="Aringacute" unicode="&#x1fa;" horiz-adv-x="1552" 
d="M1473 2040l-175 -131q-76 -56 -151 -56q-31 0 -49.5 12.5t-18.5 35.5q0 24 21 45l164 180q22 22 31 30t28 17.5t39 9.5q51 0 100 -27.5t49 -58.5t-38 -57zM78 -10q-47 0 -76 27t-29 73q0 43 31 82l889 1237q-68 55 -68 147q0 103 75.5 178.5t182.5 75.5q98 0 157.5 -56.5
t59.5 -141.5q0 -70 -37 -130t-98 -91l221 -1215q9 -52 9 -65q0 -50 -36.5 -85.5t-92.5 -35.5q-51 0 -84 28.5t-39 73.5l-43 254h-699l-194 -276q-59 -80 -129 -80zM557 569h506l-98 580zM1047 1454q60 0 99.5 47t39.5 109q0 44 -28.5 73t-76.5 29q-61 0 -101 -47t-40 -109
q0 -44 28.5 -73t78.5 -29z" />
    <glyph glyph-name="aringacute" unicode="&#x1fb;" horiz-adv-x="1193" 
d="M449 156q112 0 207 74.5t126 183.5l15 49q-125 41 -262 41q-116 0 -189.5 -55.5t-73.5 -147.5q0 -65 48 -105t129 -40zM801 -10q-64 0 -87 33t-18 81l11 39q-150 -166 -357 -166q-140 0 -232.5 81.5t-92.5 213.5q0 182 132.5 287t340.5 105q157 0 336 -54l6 19
q12 54 12 90q0 164 -240 164q-103 0 -213 -31q-21 -6 -43 -6q-43 0 -70.5 28.5t-27.5 71.5q0 36 21.5 61.5t56.5 36.5q158 52 326 52q210 0 321 -87t111 -247q0 -56 -23 -158l-131 -491q-17 -59 -53.5 -91t-85.5 -32zM1202 1913l-174 -131q-76 -56 -151 -56
q-31 0 -49.5 12.5t-18.5 35.5q0 25 20 45l164 180q21 21 31 30t29 18t39 9q51 0 100 -27.5t49 -58.5q0 -30 -39 -57zM795 1217q-98 0 -156.5 56t-58.5 142q0 104 76 179t182 75q98 0 156.5 -56t58.5 -143q0 -103 -76 -178t-182 -75zM797 1315q61 0 102 45.5t41 107.5
q0 44 -28 73.5t-76 29.5q-61 0 -102.5 -46t-41.5 -108q0 -44 28.5 -73t76.5 -29z" />
    <glyph glyph-name="AEacute" unicode="&#x1fc;" horiz-adv-x="2172" 
d="M1845 1729l-174 -132q-75 -55 -151 -55q-68 0 -68 47q0 24 21 45l163 181q21 21 31 30t29 18t39 9q51 0 100 -27.5t49 -58.5q0 -30 -39 -57zM637 569h401l172 645h-43zM1171 1434h983q46 0 79.5 -33.5t33.5 -79.5q0 -47 -33.5 -80t-79.5 -33h-694l-100 -374h541
q47 0 80.5 -33t33.5 -80q0 -46 -33.5 -78.5t-80.5 -32.5h-601l-104 -385h645q46 0 79.5 -33t33.5 -79q0 -47 -33.5 -80t-79.5 -33h-811q-63 0 -93 44t-9 116l51 186h-524l-232 -283q-33 -38 -61.5 -55.5t-65.5 -17.5q-45 0 -70.5 24.5t-25.5 65.5q0 50 39 98l960 1159
q82 97 172 97z" />
    <glyph glyph-name="aeacute" unicode="&#x1fd;" horiz-adv-x="1941" 
d="M1446 1395l-174 -131q-76 -56 -152 -56q-67 0 -67 47q0 25 20 45l164 181q22 22 31 30t28 17.5t39 9.5q51 0 100.5 -27.5t49.5 -58.5q0 -30 -39 -57zM537 504q-116 0 -190.5 -55.5t-74.5 -145.5q0 -67 51 -107t144 -40q92 0 190.5 46t176.5 128q-11 53 -11 94q0 19 2 27
q-129 53 -288 53zM1872 684q0 -66 -12 -119q-24 -110 -123 -110h-695q-2 -6 -2 -21q6 -118 78 -187t201 -69q119 0 219 66q40 24 76 24q40 0 68 -27t28 -69q0 -54 -49 -84q-154 -113 -365 -113q-146 0 -253 58.5t-164 167.5q-101 -106 -228.5 -165t-271.5 -59
q-164 0 -259 80.5t-95 218.5q0 180 134 284t341 104q170 0 334 -54l6 19q12 54 12 90q0 164 -240 164q-108 0 -213 -31q-21 -6 -43 -6q-43 0 -70.5 28.5t-27.5 71.5q0 36 21.5 61.5t56.5 36.5q154 52 326 52q142 0 237 -49t133 -140q80 91 187.5 144t228.5 53
q197 0 310.5 -118.5t113.5 -301.5zM1065 618h563q8 36 8 76q0 91 -53.5 149t-161.5 58q-123 0 -218 -79t-138 -204z" />
    <glyph glyph-name="Oslashacute" unicode="&#x1fe;" horiz-adv-x="1712" 
d="M410 618q0 -108 36 -190l828 696q-111 111 -293 111q-120 0 -228.5 -55t-182 -143.5t-117 -198.5t-43.5 -220zM825 197q120 0 228.5 55.5t182.5 143.5t117.5 198.5t43.5 220.5q0 95 -35 176l-823 -690q107 -104 286 -104zM350 141l-147 -123q-42 -38 -86 -38
q-35 0 -55.5 20t-20.5 51q0 39 51 86l154 129q-90 146 -90 338q0 129 40 255t116.5 233.5t179 189.5t236 129t278.5 47q273 0 456 -172l156 131q47 37 86 37q36 0 56 -20t20 -52q0 -39 -51 -86l-164 -139q86 -147 86 -328q0 -162 -64 -316.5t-174.5 -273.5t-271.5 -191.5
t-342 -72.5q-265 0 -449 166zM1475 1749l-175 -131q-75 -55 -151 -55q-68 0 -68 47q0 24 21 45l164 180q22 22 31 30t28 17.5t39 9.5q51 0 100 -27.5t49 -58.5t-38 -57z" />
    <glyph glyph-name="oslashacute" unicode="&#x1ff;" horiz-adv-x="1323" 
d="M614 182q101 0 189.5 62t139 159t50.5 199q0 61 -20 119l-537 -485q70 -54 178 -54zM330 477q0 -57 16 -110l533 479q-63 51 -170 51q-102 0 -191 -63.5t-138.5 -160t-49.5 -196.5zM270 82l-75 -68q-38 -34 -82 -34q-34 0 -55 19t-21 50q0 37 41 78l86 72
q-72 112 -72 270q0 122 50 238t134.5 203.5t202 140.5t244.5 53q191 0 319 -103l76 68q44 35 82 35q34 0 55 -19.5t21 -50.5q0 -37 -41 -78l-80 -67q76 -124 76 -281q0 -122 -50.5 -238t-135.5 -202.5t-202 -139.5t-243 -53q-195 0 -330 107zM1178 1395l-174 -131
q-76 -56 -152 -56q-68 0 -68 47q0 24 21 45l164 181q22 22 31 30t28 17.5t39 9.5q51 0 100.5 -27.5t49.5 -58.5q0 -30 -39 -57z" />
    <glyph glyph-name="Scommaaccent" unicode="&#x218;" horiz-adv-x="1304" 
d="M412 -346q-97 20 -97 92q0 52 39.5 90.5t100.5 38.5q56 0 87 -31.5t31 -89.5q0 -54 -25.5 -112t-68.5 -99q-49 -50 -112 -78t-123 -28q-47 0 -47 39q0 36 55 47q73 15 111 47t49 84zM621 203q121 0 198.5 54.5t77.5 143.5q0 65 -55.5 111t-208.5 106q-71 28 -123.5 55
t-100.5 61.5t-78.5 73t-48.5 88.5t-18 108q0 132 73.5 235.5t199 159t278.5 55.5q261 0 445 -141q57 -43 57 -107q0 -52 -36 -87.5t-87 -35.5q-47 0 -74 27q-74 62 -150.5 91.5t-172.5 29.5q-121 0 -194 -56.5t-73 -132.5q0 -67 58.5 -111t220.5 -108q88 -34 149 -68.5
t110 -80t73 -104t24 -132.5q0 -137 -77 -242.5t-203.5 -160.5t-278.5 -55t-291.5 44.5t-240.5 139.5q-49 42 -49 104q0 55 34 91t88 36q47 0 84 -33q91 -85 179.5 -122t210.5 -37z" />
    <glyph glyph-name="scommaaccent" unicode="&#x219;" horiz-adv-x="1021" 
d="M268 -340q-96 20 -96 92q0 52 39 90.5t100 38.5q56 0 87.5 -31.5t31.5 -89.5q0 -54 -25.5 -112t-68.5 -99q-48 -50 -112 -78t-124 -28q-47 0 -47 39q0 36 56 47q73 15 110.5 47t48.5 84zM465 170q74 0 123 35t49 94q0 39 -37 69.5t-121 65.5q-62 25 -102.5 44.5t-84 48
t-68 57.5t-40.5 69.5t-16 89.5q0 156 116.5 258.5t307.5 102.5q93 0 186 -30t162 -73q57 -33 57 -94q0 -45 -30 -76.5t-74 -31.5q-29 0 -68 24q-125 86 -252 86q-77 0 -121 -34.5t-44 -88.5q0 -40 38.5 -71t133.5 -70q70 -30 117 -55.5t91.5 -62t66.5 -82.5t22 -103
q0 -165 -122 -266t-311 -101q-227 0 -417 142q-45 33 -45 88q0 44 29.5 75t70.5 31q39 0 72 -26q142 -115 311 -115z" />
    <glyph glyph-name="schwa" unicode="&#x259;" horiz-adv-x="1228" 
d="M621 903q-123 0 -218 -65q-48 -25 -77 -25q-40 0 -67.5 27t-27.5 69q0 54 48 84q154 113 366 113q226 0 359 -127.5t133 -345.5q0 -95 -29.5 -190.5t-86.5 -178.5t-133.5 -147.5t-177 -102t-210.5 -37.5q-203 0 -317.5 118t-114.5 302q0 49 12 119q25 111 123 111h696v20
q-5 118 -77 187t-201 69zM874 463h-561q-10 -30 -10 -76q0 -91 54 -149t161 -58q123 0 219 79t137 204z" />
    <glyph glyph-name="circumflex" unicode="&#x2c6;" horiz-adv-x="1024" 
d="M920 1462l84 -159q22 -35 22 -54q0 -20 -15.5 -30.5t-41.5 -10.5q-51 0 -82.5 10t-63.5 46l-80 92l-131 -92q-44 -31 -79 -43.5t-78 -12.5q-54 0 -54 39q0 24 29 56l176 165q60 60 131 60h68q83 0 115 -66z" />
    <glyph glyph-name="caron" unicode="&#x2c7;" horiz-adv-x="1024" 
d="M543 1276l-84 160q-21 42 -21 53q0 20 16 30.5t42 10.5q51 0 82 -10t63 -47l78 -91l133 93q80 55 156 55q55 0 55 -39q0 -26 -29 -55l-176 -166q-60 -60 -131 -60h-68q-81 0 -116 66z" />
    <glyph glyph-name="breve" unicode="&#x2d8;" horiz-adv-x="1024" 
d="M723 1214q-130 0 -213.5 68t-83.5 160q0 39 26 63.5t64 24.5q58 0 82 -49q19 -45 52.5 -68.5t94.5 -23.5q99 0 173 92q42 49 90 49q35 0 56 -20t21 -54q0 -32 -22 -59q-56 -80 -143.5 -131.5t-196.5 -51.5z" />
    <glyph glyph-name="dotaccent" unicode="&#x2d9;" horiz-adv-x="1024" 
d="M752 1475q57 0 91.5 -36t22.5 -85l-8 -33q-12 -50 -54.5 -82.5t-98.5 -32.5q-59 0 -94 36t-23 85l8 33q13 52 56.5 83.5t99.5 31.5z" />
    <glyph glyph-name="ring" unicode="&#x2da;" horiz-adv-x="1024" 
d="M731 1217q-98 0 -156.5 56t-58.5 142q0 104 76 179t182 75q98 0 156.5 -56t58.5 -143q0 -103 -76 -178t-182 -75zM733 1315q62 0 103 45.5t41 107.5q0 44 -28.5 73.5t-76.5 29.5q-61 0 -102 -46t-41 -108q0 -44 28 -73t76 -29z" />
    <glyph glyph-name="ogonek" unicode="&#x2db;" horiz-adv-x="1024" 
d="M395 -342q-100 0 -156.5 37.5t-56.5 99.5q0 57 44.5 112.5t127.5 117.5l158 -11q-68 -58 -98.5 -97t-30.5 -71q0 -24 17.5 -37t58.5 -22q30 -9 43 -23t12 -38q-3 -68 -119 -68z" />
    <glyph glyph-name="tilde" unicode="&#x2dc;" horiz-adv-x="1024" 
d="M410 1210q-31 0 -52.5 20t-21.5 50q0 27 16 53q106 191 252 191q47 0 81 -16t73 -48q32 -24 44 -32.5t28.5 -15.5t33.5 -7q56 0 109 76q33 41 78 41q30 0 50.5 -19t20.5 -49t-14 -55q-109 -189 -252 -189q-48 0 -80.5 15t-75.5 49q-32 24 -44 32.5t-28 15.5t-32 7
q-30 0 -55.5 -18t-55.5 -58q-31 -43 -75 -43z" />
    <glyph glyph-name="hungarumlaut" unicode="&#x2dd;" horiz-adv-x="1024" 
d="M631 1538q47 0 83 -26t36 -60q0 -30 -39 -59l-170 -129q-76 -56 -138 -56q-57 0 -57 45q0 27 23 47l163 181q18 19 29.5 29.5t30.5 19t39 8.5zM1006 1538q47 0 82.5 -26t35.5 -60q0 -30 -39 -59l-170 -129q-76 -56 -137 -56q-57 0 -57 45q0 27 20 47l164 181
q20 20 31.5 29.5t30.5 18.5t39 9z" />
    <glyph glyph-name="commaaccent" unicode="&#x326;" horiz-adv-x="1024" 
d="M272 -340q-96 20 -96 92q0 52 39 90.5t100 38.5q56 0 87.5 -31.5t31.5 -89.5q0 -54 -25.5 -112t-68.5 -99q-48 -50 -112 -78t-124 -28q-47 0 -47 39q0 36 56 47q73 15 110.5 47t48.5 84z" />
    <glyph glyph-name="Wgrave" unicode="&#x1e80;" horiz-adv-x="2248" 
d="M2345 1272l-746 -1188q-62 -104 -167 -104h-11q-110 0 -116 112l-68 916l-561 -924q-65 -104 -164 -104h-12q-52 0 -82 29t-35 83l-104 1176q-5 40 -5 59q0 50 37.5 83.5t94.5 33.5q56 0 89.5 -28t34.5 -79l70 -966l582 979q28 49 61.5 73.5t81.5 24.5h14q52 0 81 -26
t32 -74l64 -977l598 989q51 84 137 84q52 0 84 -28t32 -75q0 -29 -22 -69zM1235 1597l-105 132q-24 34 -24 55q0 32 47 59t98 27q71 0 92 -64l66 -174q8 -19 8 -37q0 -25 -20.5 -39t-57.5 -14t-58.5 11t-45.5 44z" />
    <glyph glyph-name="wgrave" unicode="&#x1e81;" horiz-adv-x="1746" 
d="M240 96l-58 817q-4 36 -4 62q0 49 38.5 84t88.5 35q55 0 89.5 -29.5t35.5 -79.5l31 -641l385 651q57 99 145 99h13q49 0 78 -27t32 -74l37 -651l399 674q43 78 119 78q47 0 73.5 -26t26.5 -69q0 -31 -22 -71l-516 -846q-59 -100 -160 -100h-8q-52 0 -82 29t-33 85
l-39 635l-387 -647q-60 -102 -160 -102h-8q-52 0 -81.5 29t-32.5 85zM901 1264l-104 131q-25 36 -25 55q0 32 47.5 59t98.5 27q71 0 92 -63l65 -175q8 -19 8 -36q0 -25 -20.5 -39.5t-56.5 -14.5q-37 0 -59 11.5t-46 44.5z" />
    <glyph glyph-name="Wacute" unicode="&#x1e82;" horiz-adv-x="2248" 
d="M1712 1729l-174 -132q-75 -55 -152 -55q-67 0 -67 47q0 25 20 45l164 181q21 21 31 30t29 18t39 9q51 0 100 -27.5t49 -58.5q0 -30 -39 -57zM2345 1272l-746 -1188q-62 -104 -167 -104h-11q-110 0 -116 112l-68 916l-561 -924q-65 -104 -164 -104h-12q-52 0 -82 29
t-35 83l-104 1176q-5 40 -5 59q0 50 37.5 83.5t94.5 33.5q56 0 89.5 -28t34.5 -79l70 -966l582 979q28 49 61.5 73.5t81.5 24.5h14q52 0 81 -26t32 -74l64 -977l598 989q51 84 137 84q52 0 84 -28t32 -75q0 -29 -22 -69z" />
    <glyph glyph-name="wacute" unicode="&#x1e83;" horiz-adv-x="1746" 
d="M1378 1395l-174 -131q-76 -56 -151 -56q-68 0 -68 47q0 24 21 45l163 181q21 21 31 30t29 18t39 9q51 0 100 -27.5t49 -58.5q0 -30 -39 -57zM240 96l-58 817q-4 36 -4 62q0 49 38.5 84t88.5 35q55 0 89.5 -29.5t35.5 -79.5l31 -641l385 651q57 99 145 99h13q49 0 78 -27
t32 -74l37 -651l399 674q43 78 119 78q47 0 73.5 -26t26.5 -69q0 -31 -22 -71l-516 -846q-59 -100 -160 -100h-8q-52 0 -82 29t-33 85l-39 635l-387 -647q-60 -102 -160 -102h-8q-52 0 -81.5 29t-32.5 85z" />
    <glyph glyph-name="Wdieresis" unicode="&#x1e84;" horiz-adv-x="2248" 
d="M1223 1808q57 0 90.5 -35.5t21.5 -84.5l-8 -33q-12 -50 -53.5 -82.5t-97.5 -32.5q-59 0 -93 36t-22 85l8 33q13 52 55.5 83t98.5 31zM1630 1808q57 0 91 -35.5t22 -84.5l-8 -33q-12 -50 -54 -82.5t-98 -32.5q-59 0 -93 36t-22 85l9 33q13 52 55 83t98 31zM2345 1272
l-746 -1188q-62 -104 -167 -104h-11q-110 0 -116 112l-68 916l-561 -924q-65 -104 -164 -104h-12q-52 0 -82 29t-35 83l-104 1176q-5 40 -5 59q0 50 37.5 83.5t94.5 33.5q56 0 89.5 -28t34.5 -79l70 -966l582 979q28 49 61.5 73.5t81.5 24.5h14q52 0 81 -26t32 -74l64 -977
l598 989q51 84 137 84q52 0 84 -28t32 -75q0 -29 -22 -69z" />
    <glyph glyph-name="wdieresis" unicode="&#x1e85;" horiz-adv-x="1746" 
d="M891 1475q57 0 91 -36t22 -85l-9 -33q-12 -50 -53.5 -82.5t-97.5 -32.5q-59 0 -93 36t-22 85l8 33q13 52 55.5 83.5t98.5 31.5zM1298 1475q57 0 91 -36t22 -85l-8 -33q-12 -50 -54 -82.5t-98 -32.5q-59 0 -92.5 36t-21.5 85l8 33q13 52 55 83.5t98 31.5zM240 96l-58 817
q-4 36 -4 62q0 49 38.5 84t88.5 35q55 0 89.5 -29.5t35.5 -79.5l31 -641l385 651q57 99 145 99h13q49 0 78 -27t32 -74l37 -651l399 674q43 78 119 78q47 0 73.5 -26t26.5 -69q0 -31 -22 -71l-516 -846q-59 -100 -160 -100h-8q-52 0 -82 29t-33 85l-39 635l-387 -647
q-60 -102 -160 -102h-8q-52 0 -81.5 29t-32.5 85z" />
    <glyph glyph-name="Ygrave" unicode="&#x1ef2;" horiz-adv-x="1341" 
d="M782 535l-112 -422q-17 -58 -54.5 -90.5t-87.5 -32.5q-63 0 -92.5 43.5t-9.5 118.5l111 409l-283 670q-25 60 -25 94q0 51 38 85t98 34q86 0 122 -98l222 -566l553 594q69 72 137 72q50 0 78 -28t28 -77q0 -55 -45 -100zM776 1597l-104 132q-25 36 -25 55q0 32 47.5 59
t98.5 27q71 0 92 -64l65 -174q8 -19 8 -37q0 -25 -20 -39t-57 -14q-38 0 -59.5 11t-45.5 44z" />
    <glyph glyph-name="ygrave" unicode="&#x1ef3;" horiz-adv-x="1198" 
d="M61 -98q66 -25 109 -25q89 0 174 121l-151 915q-5 45 -5 62q0 51 35 85t88 34q51 0 85 -30t38 -81l96 -709l451 738q49 82 129 82q48 0 78.5 -27t30.5 -72q0 -32 -33 -86l-606 -940q-107 -165 -209.5 -234t-231.5 -69q-96 0 -157 31q-76 31 -76 108q0 44 30 76.5t70 32.5
q15 0 55 -12zM610 1264l-104 131q-25 36 -25 55q0 32 47.5 59t98.5 27q71 0 92 -63l65 -175q9 -21 9 -36q0 -25 -20.5 -39.5t-57.5 -14.5t-59 11.5t-46 44.5z" />
    <glyph glyph-name="enspace" unicode="&#x2002;" horiz-adv-x="1024" 
 />
    <glyph glyph-name="emspace" unicode="&#x2003;" horiz-adv-x="2048" 
 />
    <glyph glyph-name="threeperemspace" unicode="&#x2004;" horiz-adv-x="681" 
 />
    <glyph glyph-name="fourperemspace" unicode="&#x2005;" horiz-adv-x="512" 
 />
    <glyph glyph-name="thinspace" unicode="&#x2009;" horiz-adv-x="272" 
 />
    <glyph glyph-name="hairspace" unicode="&#x200a;" horiz-adv-x="153" 
 />
    <glyph glyph-name="endash" unicode="&#x2013;" horiz-adv-x="1085" 
d="M252 510q-51 0 -86 34t-35 83q0 50 35 84t86 34h631q50 0 85.5 -34.5t35.5 -83.5t-35.5 -83t-85.5 -34h-631z" />
    <glyph glyph-name="emdash" unicode="&#x2014;" horiz-adv-x="1843" 
d="M252 510q-51 0 -86 34t-35 83q0 50 35 84t86 34h1388q50 0 85.5 -34.5t35.5 -83.5t-35.5 -83t-85.5 -34h-1388z" />
    <glyph glyph-name="quoteleft" unicode="&#x2018;" horiz-adv-x="600" 
d="M383 854q-72 0 -104 49t-15 131l8 35q44 181 162 279q45 39 104 64t113 30q32 1 48 -15t16 -41q0 -44 -58 -57q-174 -43 -192 -182q44 -12 67.5 -45t12.5 -88l-6 -29q-14 -59 -56 -95t-100 -36z" />
    <glyph glyph-name="quoteright" unicode="&#x2019;" horiz-adv-x="600" 
d="M506 1444q72 0 104 -49t15 -131l-9 -35q-45 -182 -161 -279q-45 -39 -104 -64t-113 -30q-32 -1 -48 14.5t-16 40.5q0 46 57 58q175 43 193 182q-44 12 -67.5 45t-12.5 88l6 29q14 59 56 95t100 36z" />
    <glyph glyph-name="quotesinglbase" unicode="&#x201a;" horiz-adv-x="600" 
d="M211 293q72 0 104 -49t15 -131l-8 -35q-44 -181 -162 -279q-45 -39 -104 -64t-113 -30q-32 -1 -48 14.5t-16 40.5q0 45 58 58q174 43 192 182q-44 12 -67.5 45t-12.5 88l6 29q14 59 56 95t100 36z" />
    <glyph glyph-name="quotedblleft" unicode="&#x201c;" horiz-adv-x="1073" 
d="M383 854q-72 0 -104 49t-15 131l8 35q44 181 162 279q45 39 104 64t113 30q32 1 48 -15t16 -41q0 -44 -58 -57q-174 -43 -192 -182q44 -12 67.5 -45t12.5 -88l-6 -29q-14 -59 -56 -95t-100 -36zM858 854q-72 0 -104 49t-15 131l9 35q45 182 161 279q45 39 104 64t113 30
q32 1 48 -15t16 -41q0 -45 -57 -57q-175 -43 -193 -182q44 -12 67.5 -45t12.5 -88l-6 -29q-14 -59 -56 -95t-100 -36z" />
    <glyph glyph-name="quotedblright" unicode="&#x201d;" horiz-adv-x="1073" 
d="M981 1444q72 0 104 -49t15 -131l-8 -35q-44 -181 -162 -279q-45 -39 -104 -64t-113 -30q-32 -1 -48 14.5t-16 40.5q0 45 58 58q174 43 192 182q-44 12 -67.5 45t-12.5 88l6 29q14 59 56 95t100 36zM506 1444q72 0 104 -49t15 -131l-9 -35q-45 -182 -161 -279
q-45 -39 -104 -64t-113 -30q-32 -1 -48 14.5t-16 40.5q0 46 57 58q175 43 193 182q-44 12 -67.5 45t-12.5 88l6 29q14 59 56 95t100 36z" />
    <glyph glyph-name="quotedblbase" unicode="&#x201e;" horiz-adv-x="1075" 
d="M686 293q72 0 104 -49t15 -131l-8 -35q-44 -181 -162 -279q-45 -39 -104 -64t-113 -30q-32 -1 -48 14.5t-16 40.5q0 45 58 58q174 43 192 182q-44 12 -67.5 45t-12.5 88l6 29q14 59 56 95t100 36zM211 293q72 0 104 -49t15 -131l-8 -35q-44 -181 -162 -279
q-45 -39 -104 -64t-113 -30q-32 -1 -48 14.5t-16 40.5q0 45 58 58q174 43 192 182q-44 12 -67.5 45t-12.5 88l6 29q14 59 56 95t100 36z" />
    <glyph glyph-name="dagger" unicode="&#x2020;" horiz-adv-x="841" 
d="M698 1341l-63 -182l168 12q32 3 54 -17t22 -50q0 -31 -22 -51t-54 -19l-201 17l-119 -502q-18 -72 -80 -72q-35 0 -52 24.5t-5 65.5l143 484l-167 -13q-33 -3 -54.5 17.5t-21.5 50.5t20.5 50.5t52.5 19.5l199 -17l37 207q7 38 29 58t55 20q42 0 59 -28.5t0 -74.5z" />
    <glyph glyph-name="daggerdbl" unicode="&#x2021;" horiz-adv-x="854" 
d="M537 717l-107 -334l168 12q33 3 54.5 -17t21.5 -50t-21 -50.5t-53 -19.5l-197 16l-41 -206q-6 -38 -27 -58t-54 -20q-43 0 -60 27.5t0 74.5l66 182l-172 -12q-30 -3 -52 17.5t-22 50.5q0 31 22 50.5t54 18.5l198 -16l74 334l105 334l-166 -13q-33 -3 -54.5 17.5
t-21.5 50.5t21 50.5t53 19.5l198 -17l37 207q7 38 29 58t55 20q42 0 59.5 -28.5t0.5 -74.5l-64 -182l168 12q32 3 54 -17t22 -50q0 -31 -22 -51t-54 -19l-199 17z" />
    <glyph glyph-name="bullet" unicode="&#x2022;" horiz-adv-x="1005" 
d="M496 424q-107 0 -169.5 63t-62.5 170q0 90 42 173.5t119 137.5t169 54q105 0 167 -64t62 -170q0 -90 -41.5 -173.5t-117.5 -137t-168 -53.5z" />
    <glyph glyph-name="ellipsis" unicode="&#x2026;" horiz-adv-x="1669" 
d="M332 121q-10 -60 -55.5 -95.5t-108.5 -35.5q-65 0 -100 37.5t-25 95.5l8 33q12 60 56.5 95.5t107.5 35.5q65 0 100 -38.5t25 -96.5zM870 121q-10 -60 -55 -95.5t-108 -35.5q-65 0 -100 37.5t-25 95.5l8 33q12 60 56.5 95.5t107.5 35.5q65 0 100 -38.5t25 -96.5zM1409 121
q-10 -60 -55.5 -95.5t-108.5 -35.5q-65 0 -100 37.5t-25 95.5l8 33q12 60 56.5 95.5t107.5 35.5q65 0 100 -38.5t25 -96.5z" />
    <glyph glyph-name="perthousand" unicode="&#x2030;" horiz-adv-x="2586" 
d="M483 709q-137 0 -221 86.5t-84 222.5q0 108 49.5 206.5t142 162t203.5 63.5q136 0 221 -86.5t85 -222.5q0 -108 -50 -206.5t-142.5 -162t-203.5 -63.5zM1286 -16q-135 0 -220 87t-85 222q0 109 49.5 207.5t141.5 161.5t204 63q137 0 221 -86t84 -221q0 -109 -49.5 -208
t-142 -162.5t-203.5 -63.5zM494 860q61 0 111 42t76 104t26 127q0 77 -38.5 121t-107.5 44q-60 0 -110 -42t-76.5 -104t-26.5 -126q0 -77 39.5 -121.5t106.5 -44.5zM1296 135q61 0 111.5 42.5t77 104.5t26.5 126q0 77 -39 122t-106 45q-91 0 -153 -86.5t-62 -187.5
q0 -76 39 -121t106 -45zM2105 -16q-135 0 -220 87t-85 222q0 109 49.5 207.5t141.5 161.5t204 63q137 0 221.5 -86t84.5 -221q0 -109 -50 -208t-142.5 -162.5t-203.5 -63.5zM2118 135q89 0 151 86.5t62 186.5q0 77 -39.5 122t-106.5 45q-61 0 -111 -42.5t-76 -104.5
t-26 -127q0 -76 39 -121t107 -45zM1608 1303l-1233 -1276q-37 -37 -76 -37q-33 0 -55.5 20.5t-22.5 52.5q0 37 31 68l1233 1278q37 37 76 37q33 0 55 -21.5t22 -54.5q0 -34 -30 -67z" />
    <glyph glyph-name="guilsinglleft" unicode="&#x2039;" horiz-adv-x="724" 
d="M137 575l361 355q20 17 31 25.5t30.5 17t38.5 8.5q42 0 68 -25t26 -67q0 -48 -37 -78l-317 -307l133 -266q16 -40 16 -66q0 -43 -31 -71.5t-75 -28.5q-67 0 -98 63l-152 301q-2 5 -9 18t-9.5 19t-5.5 16.5t-3 20.5q0 35 33 65z" />
    <glyph glyph-name="guilsinglright" unicode="&#x203a;" horiz-adv-x="724" 
d="M584 492l-361 -355q-55 -51 -100 -51q-42 0 -68 25t-26 67q0 48 37 78l317 307l-133 266q-17 43 -17 66q0 42 32 71t75 29q67 0 98 -63l152 -301l7 -14t7.5 -15.5t5.5 -13.5t4.5 -15.5t1.5 -15.5q0 -36 -32 -65z" />
    <glyph glyph-name="fraction" unicode="&#x2044;" horiz-adv-x="1083" 
d="M1272 1389l-1247 -1534q-53 -66 -105 -66q-34 0 -57 21.5t-23 60.5q0 38 43 92l1247 1534q53 66 105 66q34 0 57 -21.5t23 -60.5q0 -38 -43 -92z" />
    <glyph glyph-name="Euro" unicode="&#x20ac;" horiz-adv-x="1452" 
d="M627 983h360q37 0 62.5 -25.5t25.5 -62.5q0 -35 -25.5 -60.5t-62.5 -25.5h-426q-24 -67 -39 -172h373q36 0 62 -26t26 -62q0 -37 -25.5 -62.5t-62.5 -25.5h-375q17 -120 92 -189t189 -69q83 0 150.5 29t133.5 92q39 34 84 34q48 0 82.5 -31t34.5 -77q0 -54 -49 -96
q-198 -179 -440 -179q-226 0 -371.5 131t-167.5 355h-100q-37 0 -62.5 25.5t-25.5 62.5q0 36 26 62t62 26h102q9 90 33 172h-43q-37 0 -62.5 25.5t-25.5 60.5q0 37 25.5 62.5t62.5 25.5h96q91 214 266.5 344.5t401.5 130.5q309 0 448 -229q33 -54 33 -92q0 -51 -36 -85
t-91 -34q-62 0 -96 51q-44 78 -103.5 120t-171.5 42q-119 0 -213.5 -65.5t-156.5 -182.5z" />
    <glyph glyph-name="published" unicode="&#x2117;" horiz-adv-x="1699" 
d="M893 -25q-153 0 -290.5 59t-235.5 158.5t-155.5 235.5t-57.5 285v4q0 149 58 285.5t157 236.5t237 159.5t291 59.5t290.5 -59t235.5 -158t155.5 -235t57.5 -285v-4q0 -149 -58 -285.5t-157 -237t-237 -160t-291 -59.5zM893 49q139 0 263.5 53t212.5 143t139 213t51 259v4
q0 181 -86 333t-238.5 241t-337.5 89q-186 0 -339 -90t-239 -242.5t-86 -334.5v-4q0 -136 50.5 -258.5t137.5 -211.5t210 -141.5t262 -52.5zM631 408v636q0 31 22.5 53.5t53.5 22.5h237q139 0 220 -71t81 -191v-4q0 -127 -89.5 -196.5t-225.5 -69.5h-148v-180
q0 -32 -21.5 -54t-53.5 -22q-31 0 -53.5 22t-22.5 54zM782 721h150q74 0 117 36t43 95v4q0 62 -42.5 95.5t-117.5 33.5h-150v-264z" />
    <glyph glyph-name="servicemark" unicode="&#x2120;" horiz-adv-x="1443" 
d="M1491 1440h10q29 0 41.5 -21.5t3.5 -58.5l-139 -508q-15 -57 -66 -57q-29 0 -42 20.5t-3 54.5l95 342l-201 -215q-29 -32 -64 -32q-39 0 -53 36l-84 213l-100 -362q-15 -57 -64 -57q-30 0 -43.5 20.5t-3.5 54.5l140 508q16 62 65 62h10q39 0 56 -47l112 -291l258 299
q31 39 72 39zM209 977q20 0 43 -19q79 -69 172 -69q55 0 89 24.5t34 65.5q0 30 -24 49.5t-95 46.5q-89 37 -127.5 74.5t-38.5 95.5q0 89 70 145t178 56q123 0 197 -66q26 -20 26 -47q0 -23 -14.5 -38t-36.5 -15q-27 0 -43 16q-66 52 -141 52q-54 0 -86.5 -24.5t-32.5 -59.5
q0 -30 26 -51t101 -50q83 -32 119.5 -69t36.5 -97q0 -93 -70.5 -149.5t-177.5 -56.5q-143 0 -238 88q-22 19 -22 45q0 22 16 37.5t39 15.5z" />
    <glyph glyph-name="trademark" unicode="&#x2122;" horiz-adv-x="1427" 
d="M557 1323l-129 -473q-7 -27 -26 -42t-44 -15q-29 0 -43.5 20t-5.5 55l125 455h-131q-25 0 -41 16t-16 39q0 24 16 40t41 16h418q23 0 39 -16.5t16 -39.5t-16 -39t-39 -16h-164zM1477 1440h8q30 0 43 -22t4 -58l-139 -508q-18 -57 -66 -57q-29 0 -42 20.5t-3 54.5l92 342
l-200 -215q-26 -32 -64 -32q-39 0 -53 36l-82 213l-101 -362q-15 -57 -65 -57q-30 0 -42.5 20t-2.5 55l139 508q6 29 23.5 45.5t42.5 16.5h8q38 0 55 -47l113 -291l258 299q36 39 74 39z" />
    <glyph glyph-name="minus" unicode="&#x2212;" horiz-adv-x="1298" 
d="M1100 604h-809q-49 0 -83 33.5t-34 81.5q0 49 34 83t83 34h809q48 0 82.5 -34t34.5 -83q0 -47 -35 -81t-82 -34z" />
    <glyph glyph-name="Q.alt" horiz-adv-x="1712" 
d="M1118 598l127 -174q68 82 106 184.5t38 206.5q0 181 -110 296.5t-298 115.5q-120 0 -227 -54t-179.5 -140.5t-114.5 -195.5t-42 -219q0 -182 109.5 -296.5t297.5 -114.5q130 0 244 65l-123 150q-1 2 -8.5 12t-9.5 13.5t-8 13t-8 15.5t-5.5 14.5t-4.5 17.5t-1 18
q0 51 35.5 87t87.5 36q60 0 94 -51zM1266 -4l-66 84q-186 -105 -401 -105q-142 0 -262.5 48.5t-203.5 132.5t-130 200t-47 248q0 129 40 255t116.5 233.5t179 189.5t236 129t278.5 47q142 0 263.5 -48.5t204.5 -132.5t130 -200t47 -248q0 -170 -68.5 -330t-191.5 -280
l53 -61q41 -47 41 -99q0 -51 -33.5 -84.5t-85.5 -33.5q-69 0 -100 55z" />
    <glyph glyph-name="a.alt" 
d="M606 190q98 0 188 58.5t145.5 158t55.5 211.5q0 119 -76.5 196t-197.5 77q-152 0 -262.5 -127t-110.5 -307q0 -123 70.5 -195t187.5 -72zM1057 889l22 80q14 56 49 90.5t89 34.5q62 0 90 -44t8 -118l-217 -819q-15 -58 -53 -90.5t-91 -32.5t-81.5 29t-26.5 79l12 45
q-80 -80 -163 -123t-183 -43q-184 0 -303 126t-119 337q0 140 51 265t134 211.5t192.5 137t224.5 50.5q248 0 365 -215z" />
    <glyph glyph-name="aacute.alt" 
d="M1198 1395l-174 -131q-76 -56 -152 -56q-67 0 -67 47q0 25 20 45l164 181q22 22 31 30t28 17.5t39 9.5q51 0 100.5 -27.5t49.5 -58.5q0 -30 -39 -57zM606 190q98 0 188 58.5t145.5 158t55.5 211.5q0 119 -76.5 196t-197.5 77q-152 0 -262.5 -127t-110.5 -307
q0 -123 70.5 -195t187.5 -72zM1057 889l22 80q14 56 49 90.5t89 34.5q62 0 90 -44t8 -118l-217 -819q-15 -58 -53 -90.5t-91 -32.5t-81.5 29t-26.5 79l12 45q-80 -80 -163 -123t-183 -43q-184 0 -303 126t-119 337q0 140 51 265t134 211.5t192.5 137t224.5 50.5
q248 0 365 -215z" />
    <glyph glyph-name="abreve.alt" 
d="M606 190q98 0 188 58.5t145.5 158t55.5 211.5q0 119 -76.5 196t-197.5 77q-152 0 -262.5 -127t-110.5 -307q0 -123 70.5 -195t187.5 -72zM1057 889l22 80q14 56 49 90.5t89 34.5q62 0 90 -44t8 -118l-217 -819q-15 -58 -53 -90.5t-91 -32.5t-81.5 29t-26.5 79l12 45
q-80 -80 -163 -123t-183 -43q-184 0 -303 126t-119 337q0 140 51 265t134 211.5t192.5 137t224.5 50.5q248 0 365 -215zM883 1214q-130 0 -213.5 68t-83.5 160q0 39 26 63.5t64 24.5q58 0 82 -49q19 -45 52.5 -68.5t94.5 -23.5q98 0 172 92q42 49 90 49q35 0 56.5 -20
t21.5 -54q0 -32 -22 -59q-56 -80 -143.5 -131.5t-196.5 -51.5z" />
    <glyph glyph-name="acircumflex.alt" 
d="M1071 1462l84 -159q23 -37 23 -54q0 -20 -16 -30.5t-42 -10.5q-51 0 -82 10t-63 46l-80 92l-131 -92q-81 -56 -158 -56q-53 0 -53 39q0 24 29 56l176 165q60 60 131 60h67q83 0 115 -66zM606 190q98 0 188 58.5t145.5 158t55.5 211.5q0 119 -76.5 196t-197.5 77
q-152 0 -262.5 -127t-110.5 -307q0 -123 70.5 -195t187.5 -72zM1057 889l22 80q14 56 49 90.5t89 34.5q62 0 90 -44t8 -118l-217 -819q-15 -58 -53 -90.5t-91 -32.5t-81.5 29t-26.5 79l12 45q-80 -80 -163 -123t-183 -43q-184 0 -303 126t-119 337q0 140 51 265t134 211.5
t192.5 137t224.5 50.5q248 0 365 -215z" />
    <glyph glyph-name="adieresis.alt" 
d="M711 1475q57 0 90.5 -36t21.5 -85l-8 -33q-12 -50 -53.5 -82.5t-97.5 -32.5q-59 0 -93 36t-22 85l8 33q13 52 55.5 83.5t98.5 31.5zM1118 1475q57 0 91 -36t22 -85l-8 -33q-12 -50 -54 -82.5t-98 -32.5q-59 0 -93 36t-22 85l9 33q13 52 55 83.5t98 31.5zM606 190
q98 0 188 58.5t145.5 158t55.5 211.5q0 119 -76.5 196t-197.5 77q-152 0 -262.5 -127t-110.5 -307q0 -123 70.5 -195t187.5 -72zM1057 889l22 80q14 56 49 90.5t89 34.5q62 0 90 -44t8 -118l-217 -819q-15 -58 -53 -90.5t-91 -32.5t-81.5 29t-26.5 79l12 45
q-80 -80 -163 -123t-183 -43q-184 0 -303 126t-119 337q0 140 51 265t134 211.5t192.5 137t224.5 50.5q248 0 365 -215z" />
    <glyph glyph-name="agrave.alt" 
d="M606 190q98 0 188 58.5t145.5 158t55.5 211.5q0 119 -76.5 196t-197.5 77q-152 0 -262.5 -127t-110.5 -307q0 -123 70.5 -195t187.5 -72zM1057 889l22 80q14 56 49 90.5t89 34.5q62 0 90 -44t8 -118l-217 -819q-15 -58 -53 -90.5t-91 -32.5t-81.5 29t-26.5 79l12 45
q-80 -80 -163 -123t-183 -43q-184 0 -303 126t-119 337q0 140 51 265t134 211.5t192.5 137t224.5 50.5q248 0 365 -215zM719 1264l-105 131q-24 34 -24 55q0 32 47 59t98 27q71 0 92 -63l66 -175q8 -19 8 -36q0 -25 -20.5 -39.5t-57.5 -14.5t-58 11.5t-46 44.5z" />
    <glyph glyph-name="amacron.alt" 
d="M606 190q98 0 188 58.5t145.5 158t55.5 211.5q0 119 -76.5 196t-197.5 77q-152 0 -262.5 -127t-110.5 -307q0 -123 70.5 -195t187.5 -72zM1057 889l22 80q14 56 49 90.5t89 34.5q62 0 90 -44t8 -118l-217 -819q-15 -58 -53 -90.5t-91 -32.5t-81.5 29t-26.5 79l12 45
q-80 -80 -163 -123t-183 -43q-184 0 -303 126t-119 337q0 140 51 265t134 211.5t192.5 137t224.5 50.5q248 0 365 -215zM1159 1241h-543q-37 0 -63.5 26.5t-26.5 63.5t26.5 63.5t63.5 26.5h543q38 0 65 -26.5t27 -63.5t-27 -63.5t-65 -26.5z" />
    <glyph glyph-name="aogonek.alt" 
d="M606 190q98 0 188 58.5t145.5 158t55.5 211.5q0 119 -76.5 196t-197.5 77q-152 0 -262.5 -127t-110.5 -307q0 -123 70.5 -195t187.5 -72zM1057 889l22 80q14 56 49 90.5t89 34.5q62 0 90 -44t8 -118l-217 -819q-15 -54 -62 -101q-66 -59 -95.5 -96.5t-29.5 -69.5
q0 -24 17.5 -37t58.5 -22q30 -9 43 -23t12 -38q-3 -68 -118 -68q-100 0 -156.5 37.5t-56.5 99.5q0 56 43 110.5t123 114.5q-31 28 -31 78l12 45q-80 -80 -163 -123t-183 -43q-184 0 -303 126t-119 337q0 140 51 265t134 211.5t192.5 137t224.5 50.5q248 0 365 -215z" />
    <glyph glyph-name="aring.alt" 
d="M895 1217q-98 0 -156.5 56t-58.5 142q0 104 76 179t182 75q98 0 156.5 -56t58.5 -143q0 -103 -76 -178t-182 -75zM897 1315q61 0 102 45.5t41 107.5q0 44 -28 73.5t-76 29.5q-61 0 -102 -46t-41 -108q0 -44 28 -73t76 -29zM606 190q98 0 188 58.5t145.5 158t55.5 211.5
q0 119 -76.5 196t-197.5 77q-152 0 -262.5 -127t-110.5 -307q0 -123 70.5 -195t187.5 -72zM1057 889l22 80q14 56 49 90.5t89 34.5q62 0 90 -44t8 -118l-217 -819q-15 -58 -53 -90.5t-91 -32.5t-81.5 29t-26.5 79l12 45q-80 -80 -163 -123t-183 -43q-184 0 -303 126
t-119 337q0 140 51 265t134 211.5t192.5 137t224.5 50.5q248 0 365 -215z" />
    <glyph glyph-name="aring.alt2" horiz-adv-x="1193" 
d="M801 -10q-64 0 -87 33t-18 81l11 39q-150 -166 -357 -166q-140 0 -232.5 81.5t-92.5 213.5q0 182 132.5 287t340.5 105q157 0 336 -54l6 19q12 54 12 90q0 164 -240 164q-103 0 -213 -31q-21 -6 -43 -6q-43 0 -70.5 28.5t-27.5 71.5q0 36 21.5 61.5t56.5 36.5
q120 38 223 46q-29 45 -29 102q0 104 76 180t182 76q98 0 157 -57t59 -144q0 -118 -103 -194q95 -38 144 -113t49 -178q0 -56 -23 -158l-131 -491q-17 -59 -53.5 -91t-85.5 -32zM449 156q112 0 207 74.5t126 183.5l15 49q-125 41 -262 41q-116 0 -189.5 -55.5t-73.5 -147.5
q0 -65 48 -105t129 -40zM748 1092q61 0 102 45.5t41 107.5q0 44 -28.5 73.5t-76.5 29.5q-61 0 -102 -46t-41 -108q0 -44 28.5 -73t76.5 -29z" />
    <glyph glyph-name="aringacute.alt" 
d="M1305 1913l-175 -131q-76 -56 -151 -56q-31 0 -49.5 12.5t-18.5 35.5q0 24 21 45l164 180q22 22 31 30t28 17.5t39 9.5q51 0 100 -27.5t49 -58.5t-38 -57zM895 1217q-98 0 -156.5 56t-58.5 142q0 104 76 179t182 75q98 0 156.5 -56t58.5 -143q0 -103 -76 -178t-182 -75z
M897 1315q61 0 102 45.5t41 107.5q0 44 -28 73.5t-76 29.5q-61 0 -102 -46t-41 -108q0 -44 28 -73t76 -29zM606 190q98 0 188 58.5t145.5 158t55.5 211.5q0 119 -76.5 196t-197.5 77q-152 0 -262.5 -127t-110.5 -307q0 -123 70.5 -195t187.5 -72zM1057 889l22 80
q14 56 49 90.5t89 34.5q62 0 90 -44t8 -118l-217 -819q-15 -58 -53 -90.5t-91 -32.5t-81.5 29t-26.5 79l12 45q-80 -80 -163 -123t-183 -43q-184 0 -303 126t-119 337q0 140 51 265t134 211.5t192.5 137t224.5 50.5q248 0 365 -215z" />
    <glyph glyph-name="aringacute.alt2" horiz-adv-x="1193" 
d="M801 -10q-64 0 -87 33t-18 81l11 39q-150 -166 -357 -166q-140 0 -232.5 81.5t-92.5 213.5q0 182 132.5 287t340.5 105q157 0 336 -54l6 19q12 54 12 90q0 164 -240 164q-103 0 -213 -31q-21 -6 -43 -6q-43 0 -70.5 28.5t-27.5 71.5q0 36 21.5 61.5t56.5 36.5
q120 38 223 46q-29 45 -29 102q0 104 76 180t182 76q98 0 157 -57t59 -144q0 -118 -103 -194q95 -38 144 -113t49 -178q0 -56 -23 -158l-131 -491q-17 -59 -53.5 -91t-85.5 -32zM449 156q112 0 207 74.5t126 183.5l15 49q-125 41 -262 41q-116 0 -189.5 -55.5t-73.5 -147.5
q0 -65 48 -105t129 -40zM748 1092q61 0 102 45.5t41 107.5q0 44 -28.5 73.5t-76.5 29.5q-61 0 -102 -46t-41 -108q0 -44 28.5 -73t76.5 -29zM1153 1690l-174 -131q-76 -56 -152 -56q-67 0 -67 47q0 25 20 45l164 181q22 22 31 30t28 17.5t39 9.5q51 0 100.5 -27.5
t49.5 -58.5q0 -30 -39 -57z" />
    <glyph glyph-name="atilde.alt" 
d="M606 190q98 0 188 58.5t145.5 158t55.5 211.5q0 119 -76.5 196t-197.5 77q-152 0 -262.5 -127t-110.5 -307q0 -123 70.5 -195t187.5 -72zM1057 889l22 80q14 56 49 90.5t89 34.5q62 0 90 -44t8 -118l-217 -819q-15 -58 -53 -90.5t-91 -32.5t-81.5 29t-26.5 79l12 45
q-80 -80 -163 -123t-183 -43q-184 0 -303 126t-119 337q0 140 51 265t134 211.5t192.5 137t224.5 50.5q248 0 365 -215zM571 1210q-31 0 -52 20t-21 50q0 27 16 53q106 191 252 191q47 0 81 -16t73 -48q32 -24 44 -32.5t28.5 -15.5t33.5 -7q56 0 109 76q17 21 33.5 31
t43.5 10q30 0 51 -19t21 -49t-14 -55q-109 -189 -252 -189q-48 0 -80.5 15t-75.5 49q-32 24 -44 32.5t-28 15.5t-32 7q-30 0 -55.5 -18t-55.5 -58q-31 -43 -76 -43z" />
    <glyph glyph-name="three.alt" horiz-adv-x="1259" 
d="M223 334q65 -67 141.5 -99t180.5 -32q140 0 222.5 66t82.5 159q0 94 -76 142t-213 48h-4q-50 0 -80.5 30.5t-30.5 74.5q0 43 31 74.5t74 31.5h74q157 0 254.5 59.5t97.5 164.5q0 80 -66 129t-166 49q-85 0 -148.5 -24.5t-125.5 -69.5q-47 -33 -86 -33q-47 0 -78 30
t-31 74q0 53 41 86q106 84 201.5 121t251.5 41q208 7 337.5 -98.5t129.5 -267.5q0 -140 -91 -235t-261 -138q96 -34 158.5 -109.5t62.5 -185.5q0 -191 -162.5 -319t-417.5 -128q-298 0 -471 181q-43 46 -43 96t35 85.5t84 35.5q50 0 92 -39z" />
    <glyph glyph-name="registered.alt" horiz-adv-x="1699" 
d="M893 -25q-153 0 -290.5 59t-235.5 158.5t-155.5 235.5t-57.5 285v4q0 149 58 285.5t157 236.5t237 159.5t291 59.5t290.5 -59t235.5 -158t155.5 -235t57.5 -285v-4q0 -149 -58 -285.5t-157 -237t-237 -160t-291 -59.5zM893 49q139 0 263.5 53t212.5 143t139 213t51 259v4
q0 181 -86 333t-238.5 241t-337.5 89q-186 0 -339 -90t-239 -242.5t-86 -334.5v-4q0 -136 50.5 -258.5t137.5 -211.5t210 -141.5t262 -52.5zM596 412v641q0 31 21.5 52t52.5 21h272q153 0 238 -82q61 -64 61 -163v-4q0 -87 -45.5 -146t-126.5 -86l150 -184q18 -21 18 -51
q0 -29 -21 -50.5t-49 -21.5q-21 0 -34 7.5t-29 27.5l-195 245h-164v-206q0 -31 -22 -52.5t-53 -21.5t-52.5 21.5t-21.5 52.5zM745 748h191q72 0 114 32.5t42 89.5v2q0 58 -41.5 89.5t-114.5 31.5h-191v-245z" />
    <glyph glyph-name="NUL" horiz-adv-x="0" 
 />
    <glyph glyph-name="hcoslug" horiz-adv-x="1421" 
d="M559 37h-53q0 -25 20 -25q16 0 19 15h14q-7 -29 -37 -29q-20 0 -31.5 11t-11.5 30t12 31t29 12q42 0 39 -45zM520 72q-14 0 -14 -25h29q0 25 -15 25zM399 160q17 0 17 33q0 30 -17 30q-16 0 -16 -30q0 -33 16 -33zM430 8q16 0 16 33q0 31 -16 31t-16 -31q0 -33 16 -33z
M430 -2q-19 0 -31 11.5t-12 31.5q0 19 12 30t31 11t31 -11t12 -30t-12 -31t-31 -12zM1118 8q17 0 17 33q0 31 -17 31q-16 0 -16 -31q0 -33 16 -33zM1118 -2q-19 0 -31 11.5t-12 31.5q0 19 12 30t31 11t31 -11t12 -30t-12 -31t-31 -12zM256 152v14h14v84h-14v14h104v-41h-16
q-3 17 -7 22t-15 5h-25v-37h8q7 0 8.5 2.5t3.5 13.5h15v-47h-15q-7 16 -12 17h-8v-33h20v-14h-61zM399 150q-19 0 -31 11.5t-12 31.5q0 18 12 29t31 11t31 -11t12 -29q0 -19 -12 -31t-31 -12zM1319 -205v1639h-1217v-1639h1217zM1020 -2q-28 0 -43.5 15.5t-15.5 41.5
q0 27 16.5 44.5t38.5 17.5q18 0 33 -15l2 13h16v-45h-16q-6 19 -12.5 25.5t-18.5 6.5q-29 0 -29 -45t33 -45q25 0 29 33h16q-3 -47 -49 -47zM762 164q14 0 14 26q0 27 -14 27q-17 0 -17 -27q0 -26 17 -26zM565 0v14h13v52h-15v14h15v2q0 19 11 29t27 10q11 0 19 -4l20 4
v-107h13v-14h-47v14h10v52h-29v-52h10v-14h-47zM754 0v14h12v52h-12v14h37v-21q9 23 24 23q16 0 16 -16q0 -15 -14 -15q-12 0 -12 12v3q-6 0 -14 -19v-33h16v-14h-53zM721 150v106h-12v14h36v-55q6 18 27 18q14 0 22.5 -11t8.5 -29q0 -16 -8 -29.5t-25 -13.5q-19 0 -29 16
l-8 -16h-12zM819 154q10 0 12.5 -8t-2.5 -13q14 0 17 17l-33 67h-10v14h51v-14h-12l18 -41l17 41h-11v14h35v-14h-10l-27 -63q-13 -33 -37 -33q-22 0 -22 18q0 15 14 15zM506 877q0 26 15 42.5t40 16.5q26 0 43 -21.5t17 -56.5q0 -46 -37 -102q-30 29 -42.5 42.5t-24 35
t-11.5 43.5zM618 152v28h15q12 -18 24 -18q11 0 11 8q0 6 -25 13t-25 26q0 10 8 17t21 7q16 0 23 -10l4 10h12v-26h-14q-10 14 -21 14q-10 0 -10 -8q0 -6 24.5 -12t24.5 -25q0 -11 -7.5 -18.5t-20.5 -7.5q-12 0 -27 10l-2 -8h-15zM535 449q-46 0 -76.5 31.5t-30.5 78.5
q0 49 33 82q72 -68 151 -168q-31 -24 -77 -24zM561 250l25 4v-23h26v-14h-26v-41q0 -10 8 -10q7 0 10 14l10 -4q-6 -26 -28 -26q-25 0 -25 26v41h-14v14h14v19zM877 627q-53 -31 -95 -86q39 -45 68 -64.5t59 -19.5q54 0 88 59l15 -4q-3 -87 -49.5 -140t-114.5 -53
q-46 0 -84.5 20.5t-89.5 72.5q-84 -93 -213 -93q-93 0 -158 55t-65 136q0 129 168 186q-34 35 -49 67t-15 75q0 69 62 121.5t161 52.5q90 0 142.5 -46.5t52.5 -105.5q0 -37 -19 -69q43 2 70.5 -17t30.5 -59q53 78 123 78q43 0 72.5 -30t29.5 -77t-29.5 -79t-72.5 -32
q-58 0 -88 52zM449 152v14h12v51h-12v14h34v-20q9 22 29 22q25 0 25 -28v-39h12v-14h-45v14h8v37q0 14 -12 14q-15 0 -15 -20v-31h9v-14h-45zM913 68h37v-15h-10q-6 -12 -18 -28q7 -11 12 -11t8 11l10 -2q-7 -25 -26 -25q-15 0 -25 12q-12 -12 -31 -12q-36 0 -36 29
q0 23 26 30q-12 12 -12 25q0 11 10.5 20t24.5 9q13 0 20.5 -7.5t7.5 -17.5q0 -16 -22 -25q5 -5 12.5 -13.5t11.5 -12.5q11 11 13 18h-13v15zM879 12q7 0 16 6q-20 24 -29 33q-8 -8 -8 -18q0 -9 6 -15t15 -6zM602 86v-6h29v10q-13 0 -13 12l3 7q-3 2 -7 2q-12 0 -12 -25z
M870 88q0 -7 13 -20q10 7 10 18q0 12 -12 12q-11 0 -11 -10zM639 700q61 42 86 70q23 -23 29 -49t-2 -52.5t-29 -62.5q-68 78 -84 94zM750 37h-54q0 -25 21 -25q15 0 18 15h15q-7 -29 -37 -29q-20 0 -31.5 11t-11.5 30t12 31t29 12q42 0 39 -45zM711 72q-15 0 -15 -25h29
q0 25 -14 25zM254 0v14h16v84h-16v15h59v-15h-16v-32h45v32h-16v15h59v-15h-16v-84h16v-14h-59v14h16v37h-45v-37h16v-14h-59zM1180 27q14 0 14 -15q0 -14 -14 -14q-15 0 -15 14q0 6 4.5 10.5t10.5 4.5z" />
    <glyph glyph-name="i.dot" horiz-adv-x="585" 
d="M653 1352q-12 -52 -56.5 -83.5t-104.5 -31.5q-61 0 -97 33.5t-24 83.5l6 24q12 53 56.5 84t105.5 31q60 0 95 -34t25 -83zM522 932l-219 -819q-17 -59 -53.5 -91t-85.5 -32q-63 0 -92 43.5t-9 116.5l222 819q15 60 51 92.5t86 32.5q64 0 92 -44t8 -118z" />
    <glyph glyph-name="caron.alt" horiz-adv-x="1024" 
d="M592 1159l76 256q11 39 39 61.5t69 22.5h41q49 0 49 -41q0 -21 -22 -63l-142 -252q-30 -49 -71 -49q-21 0 -33 10.5t-12 28.5q0 14 6 26z" />
    </font>
</defs>
</svg>
