<?xml version="1.0" standalone="no"?>
<!DOCTYPE svg PUBLIC "-//W3C//DTD SVG 1.1//EN" "http://www.w3.org/Graphics/SVG/1.1/DTD/svg11.dtd" >
<svg xmlns="http://www.w3.org/2000/svg" xmlns:xlink="http://www.w3.org/1999/xlink" version="1.1">
<metadata>
Created by FontForge 20201107 at Fri Jul 25 10:20:04 2025
 By 
Copyright (c) 2018 Commercial Type, Inc.. All rights reserved.
</metadata>
<defs>
<font id="GraphikWide-Regular" horiz-adv-x="522" >
  <font-face 
    font-family="Graphik Wide Regular Trial"
    font-weight="400"
    font-stretch="expanded"
    units-per-em="2048"
    panose-1="0 0 0 0 0 0 0 0 0 0"
    ascent="1638"
    descent="-410"
    x-height="1071"
    cap-height="1464"
    bbox="-68 -391 2408 1528"
    underline-thickness="135"
    underline-position="-187"
    unicode-range="U+0020-201D"
  />
<missing-glyph horiz-adv-x="1392" 
 />
    <glyph glyph-name=".notdef" horiz-adv-x="1392" 
 />
    <glyph glyph-name=".null" horiz-adv-x="0" 
 />
    <glyph glyph-name="nonmarkingreturn" horiz-adv-x="682" 
 />
    <glyph glyph-name="space" unicode=" " horiz-adv-x="575" 
 />
    <glyph glyph-name="exclam" unicode="!" horiz-adv-x="636" 
d="M248 406l-31 1058h203l-31 -1058h-141zM317 -10q-57 0 -96 36t-39 89q0 54 39 90.5t96 36.5q56 0 97 -37t41 -90q0 -52 -41 -88.5t-97 -36.5z" />
    <glyph glyph-name="quotedbl" unicode="&#x22;" horiz-adv-x="755" 
d="M131 983l-33 481h199l-33 -481h-133zM492 983l-33 481h198l-32 -481h-133z" />
    <glyph glyph-name="quotesingle" unicode="'" horiz-adv-x="395" 
d="M131 983l-33 481h199l-33 -481h-133z" />
    <glyph glyph-name="comma" unicode="," horiz-adv-x="536" 
d="M162 -252l-115 55l197 428l168 -73z" />
    <glyph glyph-name="hyphen" unicode="-" horiz-adv-x="796" 
d="M104 483v162h588v-162h-588z" />
    <glyph glyph-name="period" unicode="." horiz-adv-x="536" 
d="M268 -10q-57 0 -96 36t-39 89q0 54 39 90.5t96 36.5q56 0 97 -37t41 -90q0 -52 -41 -88.5t-97 -36.5z" />
    <glyph glyph-name="zero" unicode="0" horiz-adv-x="1726" 
d="M872 -18q-180 0 -327.5 51.5t-245.5 143t-151.5 218t-53.5 275.5v123q0 152 51.5 279t148 218.5t242.5 142t328 50.5t328.5 -52t242 -144.5t146.5 -217.5t51 -272v-123q0 -151 -49 -277t-142.5 -218.5t-239 -144.5t-329.5 -52zM872 131q281 0 424.5 138.5t143.5 385.5
v144q0 117 -38 215.5t-109.5 170t-181.5 112t-247 40.5q-276 0 -424.5 -144.5t-148.5 -397.5v-123q0 -257 152.5 -399t428.5 -142z" />
    <glyph glyph-name="one" unicode="1" horiz-adv-x="927" 
d="M467 0v1268l-430 -295v184l450 307h170v-1464h-190z" />
    <glyph glyph-name="two" unicode="2" horiz-adv-x="1382" 
d="M29 0v57l776 594q145 112 210.5 206.5t65.5 207.5q0 128 -104.5 200t-288.5 72q-192 0 -307.5 -83.5t-142.5 -252.5h-181q25 220 193 351t438 131q267 0 426.5 -114t159.5 -308q0 -135 -94.5 -263.5t-276.5 -262.5l-528 -388h909v-147h-1255z" />
    <glyph glyph-name="three" unicode="3" horiz-adv-x="1488" 
d="M739 -18q-316 0 -493.5 125t-188.5 325h179q44 -305 507 -305q459 0 459 301q0 125 -103.5 193.5t-289.5 68.5h-195v152h183q168 0 259 66t91 186q0 109 -102.5 175t-305.5 66q-192 0 -311 -73.5t-143 -200.5h-170q15 179 188 300.5t436 121.5q143 0 258 -31.5t188 -85
t111.5 -122.5t38.5 -146q0 -120 -67.5 -200t-188.5 -120q149 -36 234.5 -126.5t85.5 -223.5q0 -212 -178.5 -329t-481.5 -117z" />
    <glyph glyph-name="four" unicode="4" horiz-adv-x="1550" 
d="M1047 0v307h-1014v70l940 1087h262v-1009h274v-148h-274v-307h-188zM293 455h754v872z" />
    <glyph glyph-name="five" unicode="5" horiz-adv-x="1454" 
d="M705 -18q-151 0 -269.5 31.5t-195 88.5t-120 130.5t-54.5 162.5h182q12 -48 32 -86t55 -73t83 -58t120.5 -37t163.5 -14q222 0 344.5 95t122.5 261q0 159 -121.5 247.5t-338.5 88.5q-317 0 -488 -164h-80v809h1129v-155h-969v-467q67 54 182 88.5t260 34.5
q286 0 453.5 -125t167.5 -357q0 -152 -85 -266.5t-234 -174.5t-340 -60z" />
    <glyph glyph-name="six" unicode="6" horiz-adv-x="1560" 
d="M805 -18q-157 0 -279.5 34.5t-201.5 92.5t-130 141.5t-72.5 176t-21.5 200.5v110q0 178 57 320.5t159 235t241.5 141.5t306.5 49q230 0 383.5 -91.5t192.5 -265.5h-183q-73 209 -403 209q-125 0 -227 -35t-178 -105.5t-118 -184t-42 -262.5v-21q70 112 212 167.5
t328 55.5q305 0 478.5 -135.5t173.5 -343.5q0 -222 -180.5 -355.5t-495.5 -133.5zM805 123q221 0 350 92.5t129 247.5q0 161 -125 253.5t-358 92.5q-217 0 -355.5 -87t-138.5 -235q0 -178 127.5 -271t370.5 -93z" />
    <glyph glyph-name="seven" unicode="7" horiz-adv-x="1294" 
d="M344 0l715 1319h-1043v145h1289v-51l-764 -1413h-197z" />
    <glyph glyph-name="eight" unicode="8" horiz-adv-x="1517" 
d="M762 -18q-140 0 -261 27.5t-215 80t-148 136.5t-54 190q0 149 103.5 244.5t275.5 134.5q-130 33 -214.5 113t-84.5 194q0 116 79.5 203.5t214.5 132.5t304 45q167 0 301 -46t212.5 -132.5t78.5 -198.5q0 -116 -83 -194t-214 -115q177 -43 277 -137.5t100 -239.5
q0 -142 -91 -242.5t-240 -148t-341 -47.5zM768 858q186 0 289.5 64.5t103.5 181.5q0 106 -108.5 171.5t-290.5 65.5q-189 0 -297.5 -64.5t-108.5 -176.5t116.5 -177t295.5 -65zM762 129q225 0 351 77t126 220q0 141 -127.5 215t-345.5 74q-221 0 -354 -75.5t-133 -217.5
q0 -139 132 -216t351 -77z" />
    <glyph glyph-name="nine" unicode="9" horiz-adv-x="1558" 
d="M756 1483q157 0 279 -34.5t201 -92.5t130.5 -141.5t72.5 -176t21 -200.5v-111q0 -359 -195.5 -552t-539.5 -193q-164 0 -291 38t-214 124.5t-111 215.5h182q32 -121 141 -176t303 -55q259 0 398 145t139 443v20q-69 -111 -213.5 -167t-331.5 -56q-309 0 -478 132
t-169 341q0 222 183.5 359t492.5 137zM756 1341q-221 0 -350.5 -95.5t-129.5 -250.5q0 -161 121.5 -250.5t358.5 -89.5q142 0 254 38t177.5 112t65.5 172q0 178 -127 271t-370 93z" />
    <glyph glyph-name="question" unicode="?" horiz-adv-x="1208" 
d="M442 406v90q0 111 63.5 187t217.5 157q113 60 171 124t58 154q0 105 -84 163t-252 58q-173 0 -279.5 -74t-125.5 -212h-174q19 199 175.5 314.5t405.5 115.5q255 0 388 -102.5t133 -254.5q0 -56 -14.5 -104.5t-37 -84t-62 -71t-76 -60.5t-91.5 -58q-137 -82 -169 -107
q-70 -55 -80 -125q-3 -16 -3 -35v-75h-164zM520 -10q-57 0 -96 36t-39 89q0 54 39 90.5t96 36.5q56 0 96.5 -37t40.5 -90q0 -52 -40.5 -88.5t-96.5 -36.5z" />
    <glyph glyph-name="A" unicode="A" horiz-adv-x="1718" 
d="M31 0l704 1464h254l699 -1464h-197l-199 420h-882l-203 -420h-176zM856 1341l-377 -778h746z" />
    <glyph glyph-name="B" unicode="B" horiz-adv-x="1595" 
d="M180 0v1464h670q571 0 571 -379v-8q0 -103 -68 -188t-192 -121q175 -34 268 -122t93 -228v-8q0 -135 -76 -228.5t-206.5 -137.5t-305.5 -44h-754zM367 825h485q195 0 289 62t94 196v9q0 231 -389 231h-479v-498zM367 141h563q196 0 299.5 69.5t103.5 201.5v8
q0 266 -448 266h-518v-545z" />
    <glyph glyph-name="C" unicode="C" horiz-adv-x="1898" 
d="M1004 -18q-274 0 -483 90.5t-324 259t-115 391.5v16q0 212 125 383.5t337 266t466 94.5q228 0 401.5 -52t283 -160t134.5 -265h-189q-43 162 -194.5 246.5t-433.5 84.5q-324 0 -527.5 -165.5t-203.5 -430.5v-16q0 -272 195.5 -433t531.5 -161q284 0 453.5 89t211.5 265
h178q-53 -250 -271 -376.5t-576 -126.5z" />
    <glyph glyph-name="D" unicode="D" horiz-adv-x="1863" 
d="M180 0v1464h666q230 0 410 -54.5t293.5 -152t172 -227.5t58.5 -285v-18q0 -155 -57 -285.5t-169.5 -230t-295 -155.5t-418.5 -56h-660zM371 147h463q370 0 559.5 154t189.5 428v16q0 129 -43.5 232.5t-133 181t-235.5 119t-340 41.5h-460v-1172z" />
    <glyph glyph-name="E" unicode="E" horiz-adv-x="1515" 
d="M180 0v1464h1233v-147h-1042v-494h878v-147h-878v-529h1091v-147h-1282z" />
    <glyph glyph-name="F" unicode="F" horiz-adv-x="1472" 
d="M180 0v1464h1247v-147h-1056v-516h891v-148h-891v-653h-191z" />
    <glyph glyph-name="G" unicode="G" horiz-adv-x="1986" 
d="M1022 -18q-221 0 -399.5 55.5t-296.5 154.5t-181 234.5t-63 296.5v16q0 159 69.5 297.5t192 237.5t298 156t378.5 57q158 0 294.5 -27t249.5 -81.5t189 -146t102 -212.5h-192q-91 323 -639 323q-341 0 -542 -166t-201 -436v-16q0 -276 192.5 -437t548.5 -161
q175 0 308.5 36t215.5 100t123 147t43 182h-598v147h787v-108q0 -314 -233 -481.5t-646 -167.5z" />
    <glyph glyph-name="H" unicode="H" horiz-adv-x="1863" 
d="M180 0v1464h191v-661h1122v661h190v-1464h-190v649h-1122v-649h-191z" />
    <glyph glyph-name="I" unicode="I" horiz-adv-x="567" 
d="M188 0v1464h191v-1464h-191z" />
    <glyph glyph-name="J" unicode="J" horiz-adv-x="991" 
d="M315 -18q-177 0 -278 38v150q128 -41 268 -41q346 0 346 322v1013h191v-1022q0 -121 -40 -211.5t-112.5 -143.5t-166 -79t-208.5 -26z" />
    <glyph glyph-name="K" unicode="K" horiz-adv-x="1570" 
d="M180 0v1464h191v-702l925 702h244l-952 -710l997 -754h-260l-954 713v-713h-191z" />
    <glyph glyph-name="L" unicode="L" horiz-adv-x="1368" 
d="M180 0v1464h191v-1317h944v-147h-1135z" />
    <glyph glyph-name="M" unicode="M" horiz-adv-x="2236" 
d="M180 0v1464h269l675 -1196l666 1196h266v-1464h-188v1290l-721 -1290h-62l-729 1290v-1290h-176z" />
    <glyph glyph-name="N" unicode="N" horiz-adv-x="1851" 
d="M180 0v1464h252l1057 -1245v1245h182v-1464h-221l-1088 1292v-1292h-182z" />
    <glyph glyph-name="O" unicode="O" horiz-adv-x="2088" 
d="M1051 -18q-216 0 -399.5 58t-307 158.5t-193 236t-69.5 288.5v16q0 155 69 291.5t192.5 236.5t305 158t395.5 58t396 -58t305.5 -157.5t192.5 -235t69 -289.5v-16q0 -154 -69 -290.5t-191.5 -237t-303 -159t-392.5 -58.5zM1051 131q346 0 551.5 165.5t205.5 432.5v16
q0 123 -52 230.5t-148 188t-241.5 127t-322.5 46.5q-357 0 -560 -165t-203 -431v-16q0 -174 97 -309.5t272.5 -210t400.5 -74.5z" />
    <glyph glyph-name="P" unicode="P" horiz-adv-x="1486" 
d="M188 0v1464h621q109 0 202 -14.5t173 -48t136 -83.5t88 -125t32 -169v-8q0 -96 -32 -174t-88 -131t-135.5 -89t-172.5 -52.5t-201 -16.5h-432v-553h-191zM379 696h446q199 0 311.5 81t112.5 233v8q0 301 -426 301h-444v-623z" />
    <glyph glyph-name="Q" unicode="Q" horiz-adv-x="2088" 
d="M1051 -18q-216 0 -399.5 58t-307 158.5t-193 236t-69.5 288.5v16q0 155 69 291.5t192.5 236.5t305 158t395.5 58t396 -58t305.5 -157.5t192.5 -235t69 -289.5v-16q0 -172 -83.5 -321t-237.5 -250l172 -168l-113 -109l-203 197q-221 -94 -491 -94zM1051 131q205 0 370 64
l-209 200l115 111l242 -236q116 80 177.5 197.5t61.5 261.5v16q0 123 -52 230.5t-148 188t-241.5 127t-322.5 46.5q-357 0 -560 -165t-203 -431v-16q0 -174 97 -309.5t272.5 -210t400.5 -74.5z" />
    <glyph glyph-name="R" unicode="R" horiz-adv-x="1634" 
d="M188 0v1464h697q100 0 187.5 -15t164 -48t131 -82t86 -122t31.5 -163v-8q0 -74 -24 -137.5t-64.5 -109t-95.5 -81t-113.5 -57t-122.5 -33.5l537 -608h-230l-524 594h-469v-594h-191zM379 737h518q185 0 291 74.5t106 212.5v8q0 149 -106 218t-291 69h-518v-582z" />
    <glyph glyph-name="S" unicode="S" horiz-adv-x="1576" 
d="M811 -18q-179 0 -317.5 35.5t-226.5 100t-137.5 146.5t-63.5 182h186q12 -71 46 -126.5t97.5 -100t168.5 -68.5t247 -24q233 0 361 75.5t128 209.5q0 127 -111.5 182.5t-418.5 91.5q-126 15 -221 35.5t-174 52.5t-129 75.5t-77.5 104t-27.5 138.5q0 172 168.5 281.5
t452.5 109.5q289 0 461.5 -102.5t201.5 -301.5h-174q-33 139 -151 198.5t-338 59.5q-225 0 -334 -63.5t-109 -177.5q0 -69 40 -114.5t152.5 -81t313.5 -58.5q137 -16 235 -35.5t182.5 -51.5t135 -77t79 -109.5t28.5 -150.5q0 -194 -181 -315t-493 -121z" />
    <glyph glyph-name="T" unicode="T" horiz-adv-x="1468" 
d="M639 0v1317h-602v147h1395v-147h-603v-1317h-190z" />
    <glyph glyph-name="U" unicode="U" horiz-adv-x="1781" 
d="M883 -18q-347 0 -533 158.5t-186 473.5v850h190v-837q0 -265 135.5 -380.5t399.5 -115.5q102 0 180.5 14t147.5 49.5t114 94t70.5 150t25.5 214.5v811h191v-827q0 -323 -182.5 -489t-552.5 -166z" />
    <glyph glyph-name="V" unicode="V" horiz-adv-x="1673" 
d="M721 0l-703 1464h197l631 -1321l629 1321h180l-699 -1464h-235z" />
    <glyph glyph-name="W" unicode="W" horiz-adv-x="2430" 
d="M545 0l-522 1464h194l432 -1237l504 1237h135l494 -1241l448 1241h178l-536 -1464h-180l-473 1204l-496 -1204h-178z" />
    <glyph glyph-name="X" unicode="X" horiz-adv-x="1679" 
d="M1419 0l-594 653l-594 -653h-196l690 762l-639 702h223l551 -602l537 602h198l-632 -716l682 -748h-226z" />
    <glyph glyph-name="Y" unicode="Y" horiz-adv-x="1499" 
d="M674 0v618l-678 846h215l567 -708l533 708h192l-639 -848v-616h-190z" />
    <glyph glyph-name="Z" unicode="Z" horiz-adv-x="1509" 
d="M23 0v63l1144 1254h-1063v147h1360v-61l-1142 -1249h1126v-154h-1425z" />
    <glyph glyph-name="a" unicode="a" horiz-adv-x="1398" 
d="M582 -18q-110 0 -201.5 19t-162.5 57.5t-110.5 102t-39.5 146.5q0 87 43 151.5t123 102.5t184.5 56t236.5 18h412v51q0 138 -91.5 199t-277.5 61q-343 0 -387 -190h-180q12 88 64.5 154.5t133.5 104.5t175.5 56.5t202.5 18.5q542 0 542 -404v-686h-182v156
q-144 -174 -485 -174zM596 119q130 0 235 30t170.5 93.5t65.5 152.5v103h-405q-217 0 -313.5 -42t-96.5 -149q0 -90 87 -139t257 -49z" />
    <glyph glyph-name="b" unicode="b" horiz-adv-x="1605" 
d="M879 -18q-194 0 -331 60.5t-202 160.5v-203h-182v1522h182v-658q65 97 211 161.5t322 64.5q193 0 344 -64.5t238 -187.5t87 -287v-16q0 -246 -185 -399.5t-484 -153.5zM862 125q236 0 367 104.5t131 296.5v17q0 130 -68.5 222.5t-179.5 136.5t-252 44q-108 0 -201 -25
t-165 -74t-113 -127t-41 -177v-17q0 -132 69 -224t184.5 -134.5t268.5 -42.5z" />
    <glyph glyph-name="c" unicode="c" horiz-adv-x="1441" 
d="M752 -18q-198 0 -354 65.5t-245.5 189.5t-89.5 287v17q0 161 91.5 287t247.5 194t348 68q262 0 426.5 -93.5t197.5 -281.5h-180q-32 114 -145 172.5t-299 58.5q-219 0 -358.5 -110t-139.5 -295v-17q0 -191 137 -295t365 -104q407 0 463 260h169q-16 -87 -61.5 -158.5
t-121.5 -127t-191 -86.5t-260 -31z" />
    <glyph glyph-name="d" unicode="d" horiz-adv-x="1615" 
d="M737 -18q-193 0 -344 64t-238 187t-87 287v17q0 246 185 399.5t484 153.5q194 0 331 -61t202 -161v654h182v-1522h-182v207q-65 -97 -211 -161t-322 -64zM756 125q108 0 201 25t165 74t113 127t41 177v17q0 132 -69 224t-184.5 134.5t-268.5 42.5q-236 0 -367 -104.5
t-131 -296.5v-17q0 -130 68.5 -222.5t179.5 -136.5t252 -44z" />
    <glyph glyph-name="e" unicode="e" horiz-adv-x="1431" 
d="M1362 309q-40 -158 -201.5 -242.5t-404.5 -84.5q-314 0 -503.5 147.5t-189.5 394.5v17q0 243 186 396t482 153q106 0 199.5 -18.5t176 -59.5t141 -102t92.5 -151t34 -202v-55h-1122q7 -188 137 -282.5t369 -94.5q361 0 422 184h182zM731 946q-189 0 -314.5 -75
t-156.5 -232h928q-25 307 -457 307z" />
    <glyph glyph-name="f" unicode="f" horiz-adv-x="841" 
d="M236 0v926h-218v145h218v92q0 176 110.5 270.5t308.5 94.5q81 0 148 -17v-143q-78 16 -141 16q-117 0 -180.5 -56.5t-63.5 -160.5v-96h385v-145h-385v-926h-182z" />
    <glyph glyph-name="g" unicode="g" horiz-adv-x="1589" 
d="M766 -391q-315 0 -477.5 92.5t-188.5 255.5h187q25 -104 141 -153.5t336 -49.5q115 0 205.5 21t159 64.5t105 116.5t36.5 171v121q-65 -97 -210 -161t-321 -64q-192 0 -342.5 63.5t-236.5 182t-86 272.5v16q0 233 184.5 383t480.5 150q194 0 330 -60.5t201 -161.5v203
h182v-954q-1 -129 -52 -227.5t-143.5 -159t-215.5 -91t-275 -30.5zM758 166q144 0 259.5 42t187 130.5t71.5 210.5v16q0 183 -143.5 282t-376.5 99q-234 0 -364 -101t-130 -280v-16q0 -120 67 -208.5t178 -131.5t251 -43z" />
    <glyph glyph-name="h" unicode="h" horiz-adv-x="1505" 
d="M164 0v1522h182v-664q49 101 182 166.5t314 65.5q514 0 514 -482v-608h-182v621q0 167 -93 243t-284 76q-120 0 -219.5 -35.5t-165.5 -114.5t-66 -190v-600h-182z" />
    <glyph glyph-name="i" unicode="i" 
d="M258 1262q-52 0 -88.5 33.5t-36.5 80.5q0 46 36.5 79.5t88.5 33.5q51 0 87 -33.5t36 -79.5q0 -47 -36 -80.5t-87 -33.5zM170 0v1071h182v-1071h-182z" />
    <glyph glyph-name="j" unicode="j" 
d="M258 1262q-52 0 -88.5 33.5t-36.5 80.5q0 46 36.5 79.5t88.5 33.5q51 0 87 -33.5t36 -79.5q0 -47 -36 -80.5t-87 -33.5zM-68 -391v145q133 7 185.5 60t52.5 163v1094h182v-1085q0 -190 -96.5 -280.5t-323.5 -96.5z" />
    <glyph glyph-name="k" unicode="k" horiz-adv-x="1290" 
d="M164 0v1522h182v-938l666 487h243l-690 -498l742 -573h-254l-707 549v-549h-182z" />
    <glyph glyph-name="l" unicode="l" 
d="M170 0v1522h182v-1522h-182z" />
    <glyph glyph-name="m" unicode="m" horiz-adv-x="2387" 
d="M164 0v1071h182v-213q52 107 172.5 169.5t286.5 62.5q344 0 436 -250q45 86 129 144t179 82t202 24t192.5 -25.5t153 -80t104.5 -148.5t37 -222v-614h-182v627q0 166 -85.5 239.5t-256.5 73.5q-64 0 -124 -12.5t-114.5 -39t-95 -65t-64.5 -94.5t-24 -123v-606h-182v627
q0 166 -85 239.5t-255 73.5q-81 0 -155 -20.5t-135 -59.5t-97.5 -105t-36.5 -149v-606h-182z" />
    <glyph glyph-name="n" unicode="n" horiz-adv-x="1507" 
d="M164 0v1071h182v-213q49 101 182 166.5t314 65.5q118 0 210 -26.5t162 -82t107 -150t37 -223.5v-608h-182v621q0 167 -94 243t-285 76q-120 0 -219.5 -35.5t-165.5 -114.5t-66 -190v-600h-182z" />
    <glyph glyph-name="o" unicode="o" horiz-adv-x="1544" 
d="M768 -18q-198 0 -359.5 70t-253.5 195t-92 279v17q0 158 94.5 283.5t256.5 194.5t360 69t359 -68.5t254.5 -193.5t93.5 -283v-17q0 -159 -94 -284.5t-256.5 -193.5t-362.5 -68zM772 125q230 0 375 110.5t145 290.5v15q0 122 -67 214.5t-184.5 141.5t-266.5 49
q-231 0 -376.5 -110t-145.5 -293v-17q0 -182 144 -291.5t376 -109.5z" />
    <glyph glyph-name="p" unicode="p" horiz-adv-x="1605" 
d="M164 -352v1423h182v-207q65 97 211 161.5t322 64.5q193 0 344 -64.5t238 -187.5t87 -287v-16q0 -246 -185 -399.5t-484 -153.5q-194 0 -331 60.5t-202 160.5v-555h-182zM862 125q236 0 367 104.5t131 296.5v17q0 130 -68.5 222.5t-179.5 136.5t-252 44q-108 0 -201 -25
t-165 -74t-113 -127t-41 -177v-17q0 -132 69 -224t184.5 -134.5t268.5 -42.5z" />
    <glyph glyph-name="q" unicode="q" horiz-adv-x="1615" 
d="M1270 -352v559q-65 -97 -211 -161t-322 -64q-193 0 -344 64t-238 187t-87 287v17q0 246 185 399.5t484 153.5q194 0 331 -61t202 -161v203h182v-1423h-182zM756 125q108 0 201 25t165 74t113 127t41 177v17q0 132 -69 224t-184.5 134.5t-268.5 42.5q-236 0 -367 -104.5
t-131 -296.5v-17q0 -130 68.5 -222.5t179.5 -136.5t252 -44z" />
    <glyph glyph-name="r" unicode="r" horiz-adv-x="901" 
d="M164 0v1071h182v-227q63 124 187.5 182.5t320.5 56.5v-149q-106 4 -193.5 -13.5t-160 -59.5t-113.5 -121t-41 -189v-551h-182z" />
    <glyph glyph-name="s" unicode="s" horiz-adv-x="1234" 
d="M635 -18q-272 0 -427 91.5t-167 256.5h176q37 -205 416 -205q196 0 287.5 41t91.5 127q0 82 -90.5 119t-325.5 63q-277 31 -393.5 102t-116.5 211q0 95 75 165.5t188.5 103.5t246.5 33q493 0 545 -310h-174q-28 87 -117 126.5t-258 39.5q-155 0 -246.5 -41t-91.5 -110
q0 -71 81.5 -106t299.5 -60q116 -13 194.5 -27t151 -38t114.5 -57t66.5 -83t24.5 -117q0 -150 -141 -237.5t-410 -87.5z" />
    <glyph glyph-name="t" unicode="t" horiz-adv-x="839" 
d="M604 -14q-185 0 -280 88.5t-95 255.5v596h-213v145h213v256h183v-256h364v-145h-364v-588q0 -116 51 -161.5t155 -45.5q88 0 168 23v-146q-86 -22 -182 -22z" />
    <glyph glyph-name="u" unicode="u" horiz-adv-x="1492" 
d="M655 -18q-239 0 -372 116t-133 359v614h182v-627q0 -164 89.5 -238.5t278.5 -74.5q89 0 168 21t142 62t100 107t37 150v600h182v-1071h-182v213q-49 -101 -180 -166t-312 -65z" />
    <glyph glyph-name="v" unicode="v" horiz-adv-x="1333" 
d="M549 0l-545 1071h201l467 -938l467 938h190l-545 -1071h-235z" />
    <glyph glyph-name="w" unicode="w" horiz-adv-x="2039" 
d="M461 0l-453 1071h199l368 -903l377 903h162l359 -903l372 903h187l-457 -1071h-207l-338 854l-366 -854h-203z" />
    <glyph glyph-name="x" unicode="x" horiz-adv-x="1308" 
d="M12 0l527 561l-492 510h221l394 -409l382 409h201l-485 -516l536 -555h-221l-436 453l-426 -453h-201z" />
    <glyph glyph-name="y" unicode="y" horiz-adv-x="1306" 
d="M305 -352l270 475l-571 948h201l467 -778l440 778h191l-807 -1423h-191z" />
    <glyph glyph-name="z" unicode="z" horiz-adv-x="1226" 
d="M18 0v49l871 877h-787v145h1090v-55l-864 -871h850v-145h-1160z" />
    <glyph glyph-name="quoteleft" unicode="&#x2018;" horiz-adv-x="520" 
d="M236 997l-175 74l267 416l114 -53z" />
    <glyph glyph-name="quoteright" unicode="&#x2019;" horiz-adv-x="520" 
d="M190 997l-112 54l207 436l174 -74z" />
    <glyph glyph-name="quotedblleft" unicode="&#x201c;" horiz-adv-x="899" 
d="M236 997l-175 74l267 416l114 -53zM612 997l-172 74l267 416l114 -53z" />
    <glyph glyph-name="quotedblright" unicode="&#x201d;" horiz-adv-x="899" 
d="M664 1487l174 -74l-269 -416l-112 54zM285 1487l174 -74l-269 -416l-112 54z" />
    </font>
</defs>
</svg>
