<?xml version="1.0" standalone="no"?>
<!DOCTYPE svg PUBLIC "-//W3C//DTD SVG 1.1//EN" "http://www.w3.org/Graphics/SVG/1.1/DTD/svg11.dtd" >
<svg xmlns="http://www.w3.org/2000/svg" xmlns:xlink="http://www.w3.org/1999/xlink" version="1.1">
<metadata>
Created by FontForge 20201107 at Fri Nov 20 14:14:23 2020
 By 
Copyright 2019 BlackFoundry
</metadata>
<defs>
<font id="GrtskGiga-Bold" horiz-adv-x="798" >
  <font-face 
    font-family="Grtsk Giga"
    font-weight="700"
    font-stretch="normal"
    units-per-em="2048"
    panose-1="0 0 0 0 0 0 0 0 0 0"
    ascent="1536"
    descent="-512"
    x-height="1126"
    cap-height="1434"
    bbox="-338 -451 3867 2028"
    underline-thickness="225"
    underline-position="-530"
    unicode-range="U+000D-F6C3"
  />
<missing-glyph horiz-adv-x="2519" 
d="M217 0v1434h2085v-1434h-2085zM670 348h1179v737h-1179v-737z" />
    <glyph glyph-name=".notdef" horiz-adv-x="2519" 
d="M217 0v1434h2085v-1434h-2085zM670 348h1179v737h-1179v-737z" />
    <glyph glyph-name=".null" horiz-adv-x="0" 
 />
    <glyph glyph-name=".null" horiz-adv-x="0" 
 />
    <glyph glyph-name="nonmarkingreturn" horiz-adv-x="682" 
 />
    <glyph glyph-name="CR" unicode="&#xd;" horiz-adv-x="0" 
 />
    <glyph glyph-name="space" unicode=" " horiz-adv-x="634" 
 />
    <glyph glyph-name="exclam" unicode="!" horiz-adv-x="894" 
d="M649 451h-403l-33 983h467zM217 0v336h459v-336h-459z" />
    <glyph glyph-name="quotedbl" unicode="&#x22;" horiz-adv-x="1351" 
d="M184 678l-20 756h409l-20 -756h-369zM799 678l-21 756h412l-21 -756h-370z" />
    <glyph glyph-name="numbersign" unicode="#" horiz-adv-x="2525" 
d="M279 0l110 285h-342v303h461l98 258h-399v303h518l111 285h444l-111 -285h521l110 285h443l-111 -285h346v-303h-465l-100 -258h407v-303h-526l-111 -285h-442l111 285h-521l-110 -285h-442zM950 588h520l101 258h-520z" />
    <glyph glyph-name="dollar" unicode="$" horiz-adv-x="2258" 
d="M86 418l475 71q36 -91 149 -138t324 -54v256l-282 10q-625 36 -625 418q0 222 227.5 344.5t679.5 132.5v139h187v-139q778 -21 901 -418l-475 -71q-33 79 -133.5 120t-292.5 48v-246l317 -12q623 -39 623 -416q0 -468 -940 -488v-139h-187v139q-820 18 -948 443zM870 903
l164 -6v242q-167 -3 -266 -18t-138.5 -40t-39.5 -65q0 -55 58.5 -79.5t221.5 -33.5zM1393 539l-172 6v-250q263 4 371 34t108 91q0 41 -23 63t-88.5 35.5t-195.5 20.5z" />
    <glyph glyph-name="percent" unicode="%" horiz-adv-x="2871" 
d="M688 1454q284 0 438 -101.5t154 -271.5q0 -169 -154.5 -270.5t-437.5 -101.5q-285 0 -438.5 101t-153.5 271q0 169 154 271t438 102zM2097 1434h551l-1874 -1434h-553zM688 956q114 0 172 32.5t58 92.5t-58 92.5t-172 32.5q-229 0 -229 -125q0 -60 58 -92.5t171 -32.5z
M2183 725q285 0 438.5 -101.5t153.5 -271.5q0 -169 -153.5 -270.5t-438.5 -101.5q-284 0 -438 101t-154 271q0 169 154.5 271t437.5 102zM2183 227q115 0 172.5 32.5t57.5 92.5t-57.5 92.5t-172.5 32.5q-227 0 -227 -125q0 -60 57 -92.5t170 -32.5z" />
    <glyph glyph-name="ampersand" unicode="&#x26;" horiz-adv-x="2480" 
d="M928 -27q-856 0 -856 435q0 134 95 225.5t318 154.5q-99 71 -136.5 134.5t-37.5 148.5q0 174 182 281.5t517 107.5q321 0 496 -103.5t175 -275.5q0 -119 -92 -202.5t-317 -143.5l389 -223q120 108 174 256l428 -68q-55 -215 -256 -385l555 -315h-680l-207 115
q-339 -142 -747 -142zM756 1057q0 -39 38 -68t150 -84q95 16 159 34t95 38t43 38.5t12 41.5q0 53 -60.5 83.5t-184.5 30.5q-252 0 -252 -114zM547 451q0 -158 395 -158q192 0 346 37l-508 280q-130 -24 -181.5 -62t-51.5 -97z" />
    <glyph glyph-name="quotesingle" unicode="'" horiz-adv-x="737" 
d="M184 678l-20 756h409l-20 -756h-369z" />
    <glyph glyph-name="parenleft" unicode="(" horiz-adv-x="997" 
d="M547 -307q-387 408 -387 870q0 457 387 871h409q-208 -259 -293 -454t-85 -417t85 -416.5t293 -453.5h-409z" />
    <glyph glyph-name="parenright" unicode=")" horiz-adv-x="997" 
d="M451 1434q387 -408 387 -871q0 -456 -387 -870h-410q208 260 293.5 454.5t85.5 415.5t-85.5 416t-293.5 455h410z" />
    <glyph glyph-name="asterisk" unicode="*" horiz-adv-x="1173" 
d="M1010 725l-240 -190l-184 272l-183 -272l-239 190l205 205l-293 49l90 295l295 -117l-35 291h322l-35 -291l295 117l90 -295l-295 -49z" />
    <glyph glyph-name="plus" unicode="+" horiz-adv-x="1568" 
d="M971 1188v-307h465v-306h-465v-307h-373v307h-465v306h465v307h373z" />
    <glyph glyph-name="comma" unicode="," horiz-adv-x="825" 
d="M184 373h459v-291q0 -245 -104.5 -350.5t-358.5 -112.5l-18 231q127 0 170 29t47 121h-195v373z" />
    <glyph glyph-name="hyphen" unicode="-" horiz-adv-x="1263" 
d="M92 436v350h1079v-350h-1079z" />
    <glyph glyph-name="period" unicode="." horiz-adv-x="825" 
d="M184 0v373h459v-373h-459z" />
    <glyph glyph-name="slash" unicode="/" horiz-adv-x="1142" 
d="M-47 -307l719 1741h444l-719 -1741h-444z" />
    <glyph glyph-name="zero" unicode="0" horiz-adv-x="2359" 
d="M1180 -27q-517 0 -801.5 195t-284.5 549t284 548.5t802 194.5t801.5 -194.5t283.5 -548.5t-283.5 -549t-801.5 -195zM1180 322q315 0 468.5 98t153.5 297t-153.5 297t-468.5 98t-469 -98t-154 -297t154 -297t469 -98z" />
    <glyph glyph-name="one" unicode="1" horiz-adv-x="2023" 
d="M117 0v348h766v717l-699 -109v359l766 119h385v-1086h647v-348h-1865z" />
    <glyph glyph-name="two" unicode="2" horiz-adv-x="2078" 
d="M117 342l905 342q209 77 308.5 123t138 83t38.5 85q0 78 -99.5 113.5t-332.5 35.5q-193 0 -308.5 -24.5t-169 -72t-67.5 -128.5l-454 82q62 244 302.5 361.5t696.5 117.5q447 0 680.5 -117t233.5 -335q0 -73 -18.5 -128.5t-66.5 -112t-135.5 -108.5t-221.5 -108.5
t-328 -120.5l-226 -82h1006v-348h-1882v342z" />
    <glyph glyph-name="three" unicode="3" horiz-adv-x="2156" 
d="M2068 422q0 -220 -251.5 -334.5t-755.5 -114.5q-463 0 -706 108.5t-302 336.5l471 90q19 -113 149.5 -165t395.5 -52q490 0 490 155q0 60 -61 88.5t-202 28.5h-606v318h606q145 0 205 29.5t60 93.5q0 71 -120.5 105t-371.5 34q-259 0 -393 -50.5t-154 -154.5l-442 90
q57 213 304.5 322.5t680.5 109.5q485 0 733 -101t248 -300q0 -115 -77.5 -193t-242.5 -123q172 -36 257 -114t85 -207z" />
    <glyph glyph-name="four" unicode="4" horiz-adv-x="2213" 
d="M1845 0h-446v240h-1356v323l1356 871h446v-869h324v-325h-324v-240zM616 565h783v496z" />
    <glyph glyph-name="five" unicode="5" horiz-adv-x="2119" 
d="M1073 -27q-436 0 -667 81.5t-316 285.5l471 102q31 -76 149 -104.5t367 -28.5q269 0 382.5 40.5t113.5 133.5q0 87 -115 127.5t-381 40.5q-242 0 -359.5 -19t-164.5 -75l-412 35l113 842h1659v-308h-1274l-41 -297q237 117 612 117q822 0 822 -465q2 -249 -234.5 -378.5
t-724.5 -129.5z" />
    <glyph glyph-name="six" unicode="6" horiz-adv-x="2213" 
d="M96 711q0 355 277 552t784 197q407 0 645.5 -89.5t319.5 -276.5l-469 -95q-29 68 -149 98.5t-347 30.5q-294 0 -444 -98t-162 -311q103 90 291 138t436 48q850 0 850 -448q0 -484 -991 -484q-514 0 -777.5 188.5t-263.5 549.5zM1137 305q270 0 395 35.5t125 112.5
q0 78 -125 114.5t-395 36.5q-267 0 -391.5 -36.5t-124.5 -114.5q0 -77 124.5 -112.5t391.5 -35.5z" />
    <glyph glyph-name="seven" unicode="7" horiz-adv-x="1890" 
d="M1843 1100l-934 -1100h-557l957 1085h-1260v349h1794v-334z" />
    <glyph glyph-name="eight" unicode="8" horiz-adv-x="2252" 
d="M1126 -27q-511 0 -776.5 113t-265.5 330q0 225 387 321q-156 52 -240 133t-84 185q0 130 118 221t337.5 137.5t523.5 46.5t523 -46.5t337.5 -138.5t118.5 -222q0 -104 -82 -184t-237 -132q186 -47 285.5 -128t99.5 -193q0 -217 -267 -330t-778 -113zM1624 1014
q0 67 -114 97t-384 30q-271 0 -385 -29.5t-114 -95.5q0 -67 113.5 -96t385.5 -29q271 0 384.5 29t113.5 94zM1126 293q302 0 429.5 31.5t127.5 101.5q0 72 -128.5 104.5t-428.5 32.5t-427.5 -32.5t-127.5 -104.5q0 -70 127 -101.5t428 -31.5z" />
    <glyph glyph-name="nine" unicode="9" horiz-adv-x="2217" 
d="M2124 723q0 -355 -278 -552.5t-785 -197.5q-407 0 -645.5 90t-319.5 277l469 94q29 -68 149.5 -98.5t348.5 -30.5q294 0 444 97.5t162 310.5q-104 -89 -292 -137t-437 -48q-848 0 -848 449q0 243 246.5 363t744.5 120q514 0 777.5 -188t263.5 -549zM1081 1128
q-270 0 -395 -35.5t-125 -111.5q0 -78 125.5 -115t394.5 -37q268 0 392 37t124 115q0 76 -123.5 111.5t-392.5 35.5z" />
    <glyph glyph-name="colon" unicode=":" horiz-adv-x="825" 
d="M184 754v372h459v-372h-459zM184 0v373h459v-373h-459z" />
    <glyph glyph-name="semicolon" unicode=";" horiz-adv-x="825" 
d="M184 754v372h459v-372h-459zM184 373h459v-291q0 -245 -104.5 -350.5t-358.5 -112.5l-18 231q127 0 170 29t47 121h-195v373z" />
    <glyph glyph-name="less" unicode="&#x3c;" horiz-adv-x="1568" 
d="M125 555v326l1305 458v-342l-863 -268l863 -268v-365z" />
    <glyph glyph-name="equal" unicode="=" horiz-adv-x="1568" 
d="M1436 821h-1303v305h1303v-305zM1436 330h-1303v305h1303v-305z" />
    <glyph glyph-name="greater" unicode="&#x3e;" horiz-adv-x="1568" 
d="M1444 881v-326l-1305 -459v355l862 268l-862 266v354z" />
    <glyph glyph-name="question" unicode="?" horiz-adv-x="1982" 
d="M985 1120q-439 0 -481 -225l-457 74q42 230 286 360.5t652 130.5q232 0 410.5 -34.5t287.5 -96.5t163.5 -142t54.5 -177q0 -94 -40 -162.5t-103.5 -106.5t-140.5 -65t-154 -45.5t-140.5 -39t-103 -55.5t-39.5 -85h-459q2 90 34 160.5t83 113t115 74.5t131 48.5
t130.5 32.5t113 28.5t80 34.5t30.5 52q0 26 -19 46.5t-65.5 39t-140 29t-228.5 10.5zM721 0v336h459v-336h-459z" />
    <glyph glyph-name="at" unicode="@" horiz-adv-x="2940" 
d="M2253 -20q-171 0 -290.5 50.5t-168.5 143.5q-184 -203 -549 -203q-239 0 -362 83t-123 222q0 93 47 154.5t167 103.5t322 58l461 33q-1 84 -62 122.5t-188 38.5q-134 0 -201.5 -33.5t-86.5 -111.5l-410 43q54 172 230.5 260t469.5 88q354 0 507 -100t153 -305v-303
q0 -84 39 -123t123 -39q133 0 214 108.5t81 302.5q0 154 -66.5 279t-200.5 219t-352.5 145.5t-505.5 51.5q-297 0 -525.5 -59t-372 -166t-216 -251.5t-72.5 -322.5q0 -352 277.5 -544.5t845.5 -192.5q346 0 676 96l51 -154q-332 -110 -727 -110q-330 0 -582.5 63t-414 181.5
t-243 284.5t-81.5 376q0 216 90.5 393t262.5 304.5t435.5 197.5t595.5 70q317 0 568.5 -63t416.5 -177t251.5 -272t86.5 -349q0 -128 -34.5 -234t-102.5 -187t-179 -126.5t-255 -45.5zM1171 307q0 -92 160 -92q185 0 300.5 62t129.5 159l-452 -39q-138 -11 -138 -90z" />
    <glyph glyph-name="A" unicode="A" horiz-adv-x="2383" 
d="M1864 0l-166 258h-1030l-166 -258h-502l958 1434h467l959 -1434h-520zM877 582h612l-305 477z" />
    <glyph glyph-name="B" unicode="B" horiz-adv-x="2367" 
d="M217 0v1434h1423q248 0 392.5 -98t144.5 -271q0 -107 -65.5 -191.5t-196.5 -134.5q160 -39 241.5 -129t81.5 -217q0 -186 -144.5 -289.5t-405.5 -103.5h-1471zM1548 1133h-886v-261h886q172 0 172 129q0 132 -172 132zM1585 569h-923v-268h921q95 0 140.5 32.5
t45.5 100.5q0 69 -45 102t-139 33z" />
    <glyph glyph-name="C" unicode="C" horiz-adv-x="2344" 
d="M96 717q0 351 294.5 547t826.5 196q439 0 703.5 -126t336.5 -371l-479 -95q-40 124 -176.5 184t-384.5 60q-337 0 -497.5 -97.5t-160.5 -297.5q0 -202 159.5 -298.5t498.5 -96.5q254 0 391.5 61.5t171.5 189.5l473 -90q-72 -253 -334 -381.5t-702 -128.5
q-537 0 -829 196.5t-292 547.5z" />
    <glyph glyph-name="D" unicode="D" horiz-adv-x="2428" 
d="M217 0v1434h1169q444 0 680 -185.5t236 -533.5q0 -346 -236 -530.5t-680 -184.5h-1169zM1419 348q215 0 317.5 90t102.5 277q0 188 -102.5 279t-317.5 91h-749v-737h749z" />
    <glyph glyph-name="E" unicode="E" horiz-adv-x="2148" 
d="M217 0v1434h1806v-322h-1366v-221h1223v-320h-1223v-249h1381v-322h-1821z" />
    <glyph glyph-name="F" unicode="F" horiz-adv-x="2111" 
d="M217 0v1434h1806v-349h-1353v-274h1210v-346h-1210v-465h-453z" />
    <glyph glyph-name="G" unicode="G" horiz-adv-x="2476" 
d="M96 715q0 356 296.5 550.5t844.5 194.5q887 0 1042 -452l-473 -97q-46 103 -182 152t-387 49q-348 0 -513 -97.5t-165 -299.5q0 -200 164.5 -296.5t513.5 -96.5q254 0 401.5 46.5t198.5 141.5h-641v299h1118v-809h-350l-39 229q-211 -256 -762 -256q-508 0 -787.5 194.5
t-279.5 547.5z" />
    <glyph glyph-name="H" unicode="H" horiz-adv-x="2523" 
d="M217 0v1434h453v-527h1181v527h455v-1434h-455v559h-1181v-559h-453z" />
    <glyph glyph-name="I" unicode="I" horiz-adv-x="888" 
d="M217 0v1434h453v-1434h-453z" />
    <glyph glyph-name="J" unicode="J" horiz-adv-x="1449" 
d="M1255 633q0 -234 -76 -376.5t-247.5 -213t-456.5 -70.5q-205 0 -383 33l-14 346q177 -22 348 -22q213 0 295 65t82 223v816h452v-801z" />
    <glyph glyph-name="K" unicode="K" horiz-adv-x="2314" 
d="M217 0v1434h451v-617l936 617h665l-1022 -662l1096 -772h-723l-750 528l-202 -131v-397h-451z" />
    <glyph glyph-name="L" unicode="L" horiz-adv-x="1898" 
d="M217 0v1434h453v-1086h1140v-348h-1593z" />
    <glyph glyph-name="M" unicode="M" horiz-adv-x="2902" 
d="M217 0v1434h467l770 -881l766 881h463v-1434h-438v903l-600 -713h-388l-600 697v-887h-440z" />
    <glyph glyph-name="N" unicode="N" horiz-adv-x="2463" 
d="M217 0v1434h438l1166 -975v975h426v-1434h-439l-1165 975v-975h-426z" />
    <glyph glyph-name="O" unicode="O" horiz-adv-x="2465" 
d="M1233 -27q-545 0 -841 194.5t-296 547.5q0 356 296 550.5t841 194.5t841 -194.5t296 -550.5q0 -353 -296 -547.5t-841 -194.5zM1233 322q346 0 510 96.5t164 296.5q0 202 -164 299.5t-510 97.5t-510 -97.5t-164 -299.5q0 -200 164 -296.5t510 -96.5z" />
    <glyph glyph-name="P" unicode="P" horiz-adv-x="2226" 
d="M217 0v1434h1276q296 0 467.5 -144t171.5 -393t-173 -392t-474 -143h-815v-362h-453zM1413 1090h-743v-383h743q130 0 193 46.5t63 141.5q0 99 -63 147t-193 48z" />
    <glyph glyph-name="Q" unicode="Q" horiz-adv-x="2519" 
d="M1233 -27q-545 0 -841 194.5t-296 547.5q0 356 296 550.5t841 194.5t841 -194.5t296 -550.5q0 -380 -340 -574l284 -305h-524l-160 170q-171 -33 -397 -33zM1233 322q51 0 137 4l-231 249h487l135 -145q146 98 146 285q0 202 -164 299.5t-510 97.5t-510 -97.5
t-164 -299.5q0 -200 164 -296.5t510 -96.5z" />
    <glyph glyph-name="R" unicode="R" horiz-adv-x="2254" 
d="M217 0v1434h1301q285 0 437 -126.5t152 -346.5q0 -190 -126 -315.5t-355 -149.5l553 -496h-592l-489 451h-428v-451h-453zM1436 1104h-766v-322h766q215 0 215 160q0 82 -52.5 122t-162.5 40z" />
    <glyph glyph-name="S" unicode="S" horiz-adv-x="2254" 
d="M86 418l475 71q39 -99 174 -146.5t393 -47.5q214 0 341 14t179 41t52 70q0 41 -23 63t-88.5 35.5t-195.5 20.5l-641 24q-625 36 -625 418q0 233 249.5 356t747.5 123q439 0 686 -104.5t312 -315.5l-475 -71q-36 89 -159 129.5t-368 40.5q-202 0 -319.5 -14t-164 -40
t-46.5 -69q0 -55 58.5 -79.5t221.5 -33.5l668 -24q623 -39 623 -416q0 -490 -1037 -490q-904 0 -1038 445z" />
    <glyph glyph-name="T" unicode="T" horiz-adv-x="2101" 
d="M823 0v1085h-766v349h1985v-349h-766v-1085h-453z" />
    <glyph glyph-name="U" unicode="U" horiz-adv-x="2351" 
d="M2177 739q0 -369 -259.5 -567.5t-743.5 -198.5q-483 0 -742.5 198.5t-259.5 567.5v695h455v-680q0 -223 132 -327.5t415 -104.5q284 0 417 104.5t133 327.5v680h453v-695z" />
    <glyph glyph-name="V" unicode="V" horiz-adv-x="2277" 
d="M530 1434l617 -1008l625 1008h501l-903 -1434h-465l-901 1434h526z" />
    <glyph glyph-name="W" unicode="W" horiz-adv-x="3086" 
d="M637 0l-633 1434h485l400 -961l436 961h436l453 -947l391 947h479l-630 -1434h-435l-479 999l-473 -999h-430z" />
    <glyph glyph-name="X" unicode="X" horiz-adv-x="2091" 
d="M582 0h-584l754 725l-736 709h600l449 -447l432 447h574l-734 -705l756 -729h-598l-465 465z" />
    <glyph glyph-name="Y" unicode="Y" horiz-adv-x="2091" 
d="M823 0v543l-850 891h592l494 -533l502 533h557l-842 -889v-545h-453z" />
    <glyph glyph-name="Z" unicode="Z" horiz-adv-x="2125" 
d="M100 0v309l1203 791h-1184v334h1906v-293l-1232 -809h1232v-332h-1925z" />
    <glyph glyph-name="bracketleft" unicode="[" horiz-adv-x="1093" 
d="M217 -307v1741h834v-287h-422v-1167h422v-287h-834z" />
    <glyph glyph-name="backslash" unicode="\" horiz-adv-x="1142" 
d="M1190 -307h-445l-718 1741h444z" />
    <glyph glyph-name="bracketright" unicode="]" horiz-adv-x="1093" 
d="M877 -307h-834v287h424v1167h-424v287h834v-1741z" />
    <glyph glyph-name="asciicircum" unicode="^" horiz-adv-x="1595" 
d="M578 1434h440l487 -861h-420l-294 574l-293 -574h-408z" />
    <glyph glyph-name="underscore" unicode="_" horiz-adv-x="1441" 
d="M51 -350v350h1340v-350h-1340z" />
    <glyph glyph-name="grave" unicode="`" horiz-adv-x="1024" 
d="M702 1245h-385l-542 332h569z" />
    <glyph glyph-name="a" unicode="a" horiz-adv-x="1918" 
d="M94 805q71 182 267 265t565 83q436 0 622.5 -101.5t186.5 -334.5v-359q0 -40 16 -57.5t53 -17.5q30 0 60 6l-9 -285q-112 -31 -215 -31q-252 0 -303 213q-114 -101 -296.5 -157t-407.5 -56q-271 0 -419 90.5t-148 253.5q0 160 143.5 242.5t460.5 104.5l651 36
q-9 88 -99 125t-298 37q-196 0 -284.5 -30t-109.5 -99zM496 340q0 -52 55.5 -75t181.5 -23q169 0 305 30.5t212.5 84t76.5 120.5v2l-692 -47q-72 -6 -105.5 -28.5t-33.5 -63.5z" />
    <glyph glyph-name="b" unicode="b" horiz-adv-x="2121" 
d="M573 0h-389v1536h432v-600q108 104 277 160.5t379 56.5q357 0 559.5 -157t202.5 -433q0 -279 -201 -434.5t-561 -155.5q-219 0 -392 61t-280 173zM1118 291q243 0 358 66.5t115 205.5t-115 206t-358 67q-246 0 -374 -70t-128 -203t127.5 -202.5t374.5 -69.5z" />
    <glyph glyph-name="c" unicode="c" horiz-adv-x="1947" 
d="M1894 737l-440 -88q-32 98 -138.5 143.5t-307.5 45.5q-248 0 -363 -66.5t-115 -208.5q0 -141 115 -207.5t363 -66.5q211 0 317.5 47t132.5 151l438 -86q-59 -207 -287 -317.5t-601 -110.5q-436 0 -678 155.5t-242 434.5t242 434.5t678 155.5q365 0 592 -106t294 -310z
" />
    <glyph glyph-name="d" unicode="d" horiz-adv-x="2121" 
d="M850 -27q-360 0 -561 155.5t-201 434.5q0 276 202.5 433t559.5 157q209 0 377.5 -57.5t277.5 -161.5v602h432v-1536h-395l-22 205q-107 -110 -279.5 -171t-390.5 -61zM1004 291q246 0 373.5 69.5t127.5 202.5t-127.5 203t-373.5 70q-243 0 -358.5 -67t-115.5 -206
t115.5 -205.5t358.5 -66.5z" />
    <glyph glyph-name="e" unicode="e" horiz-adv-x="1996" 
d="M1020 -27q-441 0 -686.5 155t-245.5 435q0 273 244.5 431.5t673.5 158.5q278 0 482 -67t313.5 -195t109.5 -303q0 -74 -10 -123h-1375q35 -100 155.5 -147.5t338.5 -47.5q208 0 316.5 29t136.5 90l434 -76q-73 -178 -279.5 -259t-607.5 -81zM1008 868q-210 0 -324 -42
t-152 -134h934q-38 94 -146.5 135t-311.5 41z" />
    <glyph glyph-name="f" unicode="f" horiz-adv-x="1394" 
d="M31 1126h282q11 224 174.5 330.5t497.5 106.5q186 0 387 -35l-14 -291q-164 25 -326 25q-153 0 -214.5 -29.5t-69.5 -106.5h618v-309h-621v-817h-432v817h-282v309z" />
    <glyph glyph-name="g" unicode="g" horiz-adv-x="1970" 
d="M930 1153q426 0 633 -115q59 91 157.5 131t218.5 21l-18 -332q-101 23 -209 14q14 -38 14 -84q0 -175 -204.5 -268.5t-591.5 -93.5q-187 0 -318 20q-92 -15 -92 -71q0 -77 152 -80l676 -8q550 -9 550 -314q0 -210 -236.5 -309.5t-737.5 -99.5q-453 0 -669 68.5
t-216 209.5q0 88 70.5 140.5t216.5 72.5q-103 26 -161.5 85.5t-58.5 138.5q0 181 250 233q-221 93 -221 276q0 175 205 270t590 95zM1290 788q0 123 -360 123q-359 0 -359 -123q0 -62 87.5 -91t271.5 -29q186 0 273 29t87 91zM625 0q-133 0 -133 -84q0 -57 100.5 -80.5
t337.5 -23.5q206 0 326 14.5t164 40t44 65.5q0 68 -129 68h-710z" />
    <glyph glyph-name="h" unicode="h" horiz-adv-x="2052" 
d="M184 0v1536h432v-641q109 121 275.5 189.5t363.5 68.5q308 0 467.5 -136t159.5 -396v-621h-432v535q0 138 -84.5 210t-249.5 72q-235 0 -367.5 -103t-132.5 -286v-428h-432z" />
    <glyph glyph-name="i" unicode="i" 
d="M184 1245v318h432v-318h-432zM184 0v1126h432v-1126h-432z" />
    <glyph glyph-name="j" unicode="j" 
d="M184 1245v318h432v-318h-432zM184 76v1050h432v-1024q0 -289 -128 -413.5t-416 -124.5q-129 0 -252 18l-15 314q99 -13 160 -13q123 0 171 42.5t48 150.5z" />
    <glyph glyph-name="k" unicode="k" horiz-adv-x="1898" 
d="M184 0v1536h430v-831l639 421h613l-781 -489l818 -637h-623l-530 422l-136 -90v-332h-430z" />
    <glyph glyph-name="l" unicode="l" 
d="M616 0h-432v1536h432v-1536z" />
    <glyph glyph-name="m" unicode="m" horiz-adv-x="3059" 
d="M184 0v1126h396l24 -233q100 122 249.5 191t324.5 69q193 0 327 -71.5t197 -207.5q98 131 256 205t352 74q274 0 427 -141t153 -396v-616h-432v537q0 137 -76 207.5t-225 70.5q-189 0 -296.5 -103t-107.5 -284v-428h-432v537q0 137 -76 207.5t-225 70.5
q-189 0 -296.5 -103t-107.5 -284v-428h-432z" />
    <glyph glyph-name="n" unicode="n" horiz-adv-x="2052" 
d="M184 0v1126h389l31 -243q108 127 278.5 198.5t372.5 71.5q308 0 467.5 -136t159.5 -396v-621h-432v535q0 138 -84.5 210t-249.5 72q-235 0 -367.5 -103t-132.5 -286v-428h-432z" />
    <glyph glyph-name="o" unicode="o" horiz-adv-x="2029" 
d="M1016 -27q-444 0 -686 154t-242 436t242 436t686 154q445 0 685.5 -154t240.5 -436q0 -285 -239 -437.5t-687 -152.5zM1016 289q253 0 368 65.5t115 208.5t-115 209t-368 66t-369.5 -66t-116.5 -209t116.5 -208.5t369.5 -65.5z" />
    <glyph glyph-name="p" unicode="p" horiz-adv-x="2121" 
d="M580 1126l22 -204q107 110 280 170.5t390 60.5q357 0 559.5 -157t202.5 -433q0 -279 -201 -434.5t-561 -155.5q-210 0 -378.5 56t-277.5 159v-598h-432v1536h396zM1118 291q243 0 358 66.5t115 205.5t-115 206t-358 67q-246 0 -374 -70t-128 -203t127.5 -202.5
t374.5 -69.5z" />
    <glyph glyph-name="q" unicode="q" horiz-adv-x="2121" 
d="M850 -27q-360 0 -561 155.5t-201 434.5q0 276 202.5 433t559.5 157q218 0 390.5 -61t279.5 -172l22 206h395v-1536h-432v600q-107 -104 -275.5 -160.5t-379.5 -56.5zM1004 291q246 0 373.5 69.5t127.5 202.5t-127.5 203t-373.5 70q-243 0 -358.5 -67t-115.5 -206
t115.5 -205.5t358.5 -66.5z" />
    <glyph glyph-name="r" unicode="r" horiz-adv-x="1398" 
d="M184 0v1126h396l30 -276q109 142 282.5 222.5t379.5 80.5q44 0 90 -8l-14 -402q-92 25 -213 25q-246 0 -382.5 -99t-136.5 -278v-391h-432z" />
    <glyph glyph-name="s" unicode="s" horiz-adv-x="1857" 
d="M920 887q-211 0 -304.5 -22t-93.5 -70q0 -38 51 -54t191 -22l422 -14q319 -15 459.5 -92t140.5 -232q0 -408 -885 -408q-383 0 -577 79.5t-265 262.5l428 68q25 -73 123 -106t287 -33q252 0 356.5 20.5t104.5 67.5q0 39 -42 56.5t-155 21.5l-424 16q-329 12 -481 97.5
t-152 248.5q0 182 210 281.5t604 99.5q381 0 577.5 -76t261.5 -246l-414 -67q-25 67 -118 95t-305 28z" />
    <glyph glyph-name="t" unicode="t" horiz-adv-x="1513" 
d="M281 492v325h-261v309h156q39 0 64 3t46.5 15.5t33.5 30.5t23.5 54t18.5 79.5t15 114.5h336v-297h700v-309h-700v-295q0 -133 63 -178t244 -45q213 0 407 43l-12 -322q-100 -21 -239 -34t-256 -13q-170 0 -287.5 26.5t-197.5 88t-117 160.5t-37 244z" />
    <glyph glyph-name="u" unicode="u" horiz-adv-x="1990" 
d="M1374 698v428h432v-1126h-389l-31 242q-104 -126 -266.5 -197.5t-355.5 -71.5q-291 0 -442.5 137t-151.5 398v618h432v-540q0 -135 74 -205t217 -70q226 0 353.5 102t127.5 285z" />
    <glyph glyph-name="v" unicode="v" horiz-adv-x="1808" 
d="M727 0l-723 1126h498l422 -706l407 706h475l-706 -1126h-373z" />
    <glyph glyph-name="w" unicode="w" horiz-adv-x="2678" 
d="M586 0l-582 1126h469l332 -696l348 696h395l369 -686l313 686h447l-563 -1126h-377l-385 731l-387 -731h-379z" />
    <glyph glyph-name="x" unicode="x" horiz-adv-x="1931" 
d="M571 0h-555l654 584l-623 542h563l365 -327l371 327h540l-639 -546l668 -580h-584l-383 356z" />
    <glyph glyph-name="y" unicode="y" horiz-adv-x="1777" 
d="M1305 1126h469l-650 -1106q-108 -181 -202 -276.5t-211.5 -137.5t-294.5 -42q-149 0 -273 37l-16 309q133 -19 219 -19q138 0 209.5 30t132.5 122l-684 1083h496l420 -708z" />
    <glyph glyph-name="z" unicode="z" horiz-adv-x="1812" 
d="M111 0v297l948 532h-940v297h1583v-297l-948 -532h952v-297h-1595z" />
    <glyph glyph-name="braceleft" unicode="{" horiz-adv-x="1144" 
d="M455 563q142 -34 204 -112.5t62 -227.5v-94q0 -77 34 -106t128 -29q84 0 207 10l12 -295q-119 -16 -254 -16q-260 0 -389 96t-129 303v125q0 38 -2.5 60t-12.5 45t-27.5 35.5t-51 25t-79.5 20.5t-116 15v291q70 7 116 15t79.5 20.5t51 24.5t27.5 35t12.5 45t2.5 60v125
q0 207 129 303.5t389 96.5q107 0 254 -17l-12 -295q-136 11 -207 11q-92 0 -127 -30.5t-35 -105.5v-102q0 -144 -62 -221t-204 -111z" />
    <glyph glyph-name="bar" unicode="|" horiz-adv-x="860" 
d="M643 -348h-426v1904h426v-1904z" />
    <glyph glyph-name="braceright" unicode="}" horiz-adv-x="1144" 
d="M1104 709v-291q-70 -7 -116 -15t-79.5 -20.5t-51 -25t-27.5 -35.5t-12.5 -45t-2.5 -60v-125q0 -207 -129.5 -303t-388.5 -96q-135 0 -254 16l12 295q120 -10 207 -10q94 0 128 29t34 106v94q0 149 62 227.5t204 112.5q-142 34 -204 111t-62 221v102q0 75 -35 105.5
t-127 30.5q-75 0 -207 -11l-12 295q147 17 254 17q258 0 388 -96.5t130 -303.5v-125q0 -38 2.5 -60t12.5 -45t27.5 -35t51 -24.5t79.5 -20.5t116 -15z" />
    <glyph glyph-name="asciitilde" unicode="~" horiz-adv-x="1568" 
d="M471 659q-147 0 -338 -79v307q214 78 369 78q86 0 174.5 -20.5t149.5 -45t135.5 -45t136.5 -20.5q147 0 338 79v-307q-217 -78 -369 -78q-84 0 -170 20.5t-146.5 45t-137 45t-142.5 20.5z" />
    <glyph glyph-name="uni00A0" unicode="&#xa0;" horiz-adv-x="634" 
 />
    <glyph glyph-name="exclamdown" unicode="&#xa1;" horiz-adv-x="894" 
d="M676 1126v-335h-459v335h459zM246 676h403l31 -983h-467z" />
    <glyph glyph-name="cent" unicode="&#xa2;" horiz-adv-x="1943" 
d="M498 -164l100 182q-247 62 -378.5 202t-131.5 343q0 279 242 434.5t678 155.5q101 0 211 -10l69 127h199l-86 -156q196 -44 321 -139.5t172 -237.5l-440 -88q-44 129 -217 168l-291 -526q20 -2 62 -2q211 0 317.5 47t132.5 151l438 -86q-59 -207 -287 -317.5t-601 -110.5
q-113 0 -230 13l-82 -150h-198zM530 563q0 -100 56 -162t174 -90l291 527h-43q-248 0 -363 -66.5t-115 -208.5z" />
    <glyph glyph-name="sterling" unicode="&#xa3;" horiz-adv-x="2070" 
d="M106 588v170h267q-33 42 -52 73t-36 82t-17 107q0 202 213.5 321t591.5 119q217 0 371 -25t257 -79t163.5 -128.5t97.5 -183.5l-518 -65q-15 87 -99 127.5t-264 40.5q-93 0 -157.5 -11.5t-98.5 -33.5t-48.5 -48.5t-14.5 -62.5q0 -32 13.5 -64.5t29 -54t45 -58.5t43.5 -56
h756v-170h-686v-23q0 -75 -49 -138.5t-138 -104.5h1180v-322h-1850v322h58q163 0 244 51.5t81 148.5q0 33 -10 66h-373z" />
    <glyph glyph-name="currency" unicode="&#xa4;" horiz-adv-x="1316" 
d="M659 313q-119 0 -206 37l-183 -182l-202 205l170 170q-37 75 -37 174q0 100 39 174l-172 170l202 205l185 -185q90 35 204 35q113 0 203 -35l185 185l202 -205l-172 -170q39 -74 39 -174q0 -99 -37 -174l170 -170l-202 -205l-183 182q-87 -37 -205 -37zM659 573
q77 0 120.5 38.5t43.5 105.5t-44 103t-120 36t-120.5 -36.5t-44.5 -102.5t44.5 -105t120.5 -39z" />
    <glyph glyph-name="yen" unicode="&#xa5;" horiz-adv-x="2095" 
d="M131 408v163h670l-125 131h-545v164h387l-541 568h592l492 -533l502 533h559l-537 -568h404v-164h-559l-123 -131h682v-163h-709v-408h-453v408h-696z" />
    <glyph glyph-name="brokenbar" unicode="&#xa6;" horiz-adv-x="860" 
d="M643 727h-426v829h426v-829zM643 -348h-426v870h426v-870z" />
    <glyph glyph-name="section" unicode="&#xa7;" horiz-adv-x="2125" 
d="M1067 -436q-459 0 -695 103.5t-286 326.5l508 47q24 -91 136 -133.5t353 -42.5q168 0 264.5 13.5t130 36t33.5 58.5q0 58 -73 81t-385 63l-244 33q-245 31 -382 80t-191 118t-54 178q0 194 250 291q-128 47 -186 121t-58 192q0 201 226.5 317t668.5 116q425 0 652 -101.5
t270 -308.5l-508 -47q-17 59 -60.5 92t-128 48.5t-229.5 15.5q-118 0 -200.5 -8t-126 -22.5t-62 -32t-18.5 -40.5q0 -29 23 -46t112.5 -38t269.5 -45l232 -33q369 -52 517 -137.5t148 -259.5q0 -93 -54.5 -168.5t-150.5 -122.5q130 -51 178 -121.5t48 -179.5
q0 -214 -233.5 -329t-694.5 -115zM1288 416q68 -9 131 -21q88 58 88 129t-88.5 106t-341.5 68l-246 33q-59 9 -75 10q-109 -55 -109 -129q0 -64 85 -97t321 -66z" />
    <glyph glyph-name="dieresis" unicode="&#xa8;" horiz-adv-x="1024" 
d="M608 1245v332h469v-332h-469zM-53 1245v332h469v-332h-469z" />
    <glyph glyph-name="copyright" unicode="&#xa9;" horiz-adv-x="2392" 
d="M1196 -109q-264 0 -475 63.5t-346.5 175.5t-207 261.5t-71.5 325.5t71.5 326t207 261.5t346.5 174.5t475 63t475 -63t346.5 -174.5t207 -261.5t71.5 -326t-71.5 -325.5t-207 -261.5t-346.5 -175.5t-475 -63.5zM1196 59q225 0 398.5 48t283 136t165.5 207.5t56 266.5
t-56 266.5t-165.5 207t-283 135.5t-398.5 48t-399 -48t-284 -136t-166 -207.5t-56 -265.5t56 -265.5t166 -207.5t284 -136.5t399 -48.5zM1722 813l-268 -35q-34 117 -237 117q-124 0 -189 -44.5t-65 -129.5t65 -129.5t189 -44.5q216 0 239 123l266 -33q-34 -130 -166.5 -200
t-338.5 -70q-243 0 -385 95t-142 259t142 259t385 95q210 0 338.5 -66.5t166.5 -195.5z" />
    <glyph glyph-name="ordfeminine" unicode="&#xaa;" horiz-adv-x="1302" 
d="M143 1227q73 227 516 227q235 0 357.5 -67t122.5 -201v-205q0 -49 51 -49q21 0 45 4l-6 -166q-69 -16 -154 -16q-194 0 -244 106q-117 -106 -362 -106q-182 0 -271 55t-89 149q0 44 16 75.5t55.5 58.5t113.5 43.5t183 23.5l330 23v4q0 88 -160 88q-153 0 -172 -76z
M446 977q0 -51 105 -51q102 0 177.5 35t84.5 88l-309 -27q-58 -3 -58 -45z" />
    <glyph glyph-name="guillemotleft" unicode="&#xab;" horiz-adv-x="2000" 
d="M926 416v-396l-813 332v422l813 332v-385l-496 -158zM1872 416v-396l-813 332v422l813 332v-385l-496 -158z" />
    <glyph glyph-name="logicalnot" unicode="&#xac;" horiz-adv-x="1568" 
d="M133 881h1303v-613h-371v307h-932v306z" />
    <glyph glyph-name="uni00AD" unicode="&#xad;" horiz-adv-x="0" 
 />
    <glyph glyph-name="registered" unicode="&#xae;" horiz-adv-x="2349" 
d="M1176 -27q-259 0 -466.5 58t-340.5 159.5t-203 236t-70 290.5q0 157 70 291t203 235.5t340.5 159t466.5 57.5t466.5 -57.5t340 -159t202.5 -235.5t70 -291q0 -156 -70 -290.5t-202.5 -236t-340 -159.5t-466.5 -58zM1176 141q434 0 658 156.5t224 419.5t-224 419t-658 156
q-436 0 -660.5 -156t-224.5 -419q0 -128 54.5 -232.5t162 -182t278 -119.5t390.5 -42zM743 377v688h639q135 0 212 -60.5t77 -164.5q0 -79 -46.5 -134.5t-131.5 -80.5l233 -248h-290l-189 205h-272v-205h-232zM1352 891h-377v-135h377q88 0 88 67q0 68 -88 68z" />
    <glyph glyph-name="macron" unicode="&#xaf;" horiz-adv-x="1024" 
d="M-18 1247v275h1060v-275h-1060z" />
    <glyph glyph-name="degree" unicode="&#xb0;" horiz-adv-x="1488" 
d="M745 1454q284 0 438 -101.5t154 -271.5q0 -169 -154.5 -270.5t-437.5 -101.5q-285 0 -439 101t-154 271q0 169 154 271t439 102zM745 956q113 0 170.5 32.5t57.5 92.5t-57.5 92.5t-170.5 32.5q-229 0 -229 -125q0 -60 58 -92.5t171 -32.5z" />
    <glyph glyph-name="plusminus" unicode="&#xb1;" horiz-adv-x="1568" 
d="M1436 745h-465v-307h-373v307h-465v306h465v307h373v-307h465v-306zM1436 0h-1303v305h1303v-305z" />
    <glyph glyph-name="twosuperior" unicode="&#xb2;" horiz-adv-x="1142" 
d="M78 1145l594 186q56 21 74 36.5t18 37.5q0 18 -13 30t-56 20.5t-117 8.5q-115 0 -166.5 -21.5t-63.5 -70.5l-289 51q61 244 510 244q253 0 376.5 -61t123.5 -174q0 -91 -82 -155t-297 -118l-65 -16h440v-205h-987v207z" />
    <glyph glyph-name="threesuperior" unicode="&#xb3;" horiz-adv-x="1165" 
d="M1100 1151q0 -108 -132 -166.5t-397 -58.5q-240 0 -367 55t-153 168l293 49q9 -44 64.5 -64t169.5 -20q116 0 162 16t46 46q0 34 -67 34h-320v176h322q65 0 65 39q0 54 -206 54q-112 0 -169.5 -19t-66.5 -61l-281 51q27 105 155.5 161t354.5 56q517 0 517 -203
q0 -113 -152 -155q84 -19 123 -57.5t39 -100.5z" />
    <glyph glyph-name="acute" unicode="&#xb4;" horiz-adv-x="1024" 
d="M322 1245l358 332h569l-542 -332h-385z" />
    <glyph glyph-name="paragraph" unicode="&#xb6;" horiz-adv-x="2349" 
d="M1239 -307h-446v934h-242q-209 0 -327 107.5t-118 289.5q0 188 118 299t327 111h688v-1741zM2132 -307h-446v1741h446v-1741z" />
    <glyph glyph-name="periodcentered" unicode="&#xb7;" horiz-adv-x="1024" 
d="M279 580v381h466v-381h-466z" />
    <glyph glyph-name="cedilla" unicode="&#xb8;" horiz-adv-x="1024" 
d="M1145 -242q0 -104 -120 -156.5t-392 -52.5q-205 0 -393 45l10 166q212 -41 340 -41q77 0 118.5 6t54.5 15.5t13 26.5q0 36 -74 36q-57 0 -92 -22l-245 22l38 217h302l-19 -102q77 12 156 12q303 0 303 -172z" />
    <glyph glyph-name="onesuperior" unicode="&#xb9;" horiz-adv-x="1069" 
d="M70 938v217h352v277l-320 -46v211l381 58h238v-500h297v-217h-948z" />
    <glyph glyph-name="ordmasculine" unicode="&#xba;" horiz-adv-x="1351" 
d="M676 754q-282 0 -422.5 92.5t-140.5 257.5t140.5 257.5t422.5 92.5t421.5 -92.5t139.5 -257.5t-139.5 -257.5t-421.5 -92.5zM676 952q215 0 215 152q0 151 -215 151t-215 -151q0 -152 215 -152z" />
    <glyph glyph-name="guillemotright" unicode="&#xbb;" horiz-adv-x="2000" 
d="M942 352l-813 -332v386l496 157l-496 148v395l813 -332v-422zM1888 352l-813 -332v386l496 157l-496 148v395l813 -332v-422z" />
    <glyph glyph-name="onequarter" unicode="&#xbc;" horiz-adv-x="2904" 
d="M70 717v217h352v276l-320 -45v211l381 58h238v-500h297v-217h-948zM891 0h-404l1629 1434h403zM2691 0h-274v111h-662v174l701 432h235v-420h162v-186h-162v-111zM2099 297h318v201z" />
    <glyph glyph-name="onehalf" unicode="&#xbd;" horiz-adv-x="2930" 
d="M70 717v217h352v276l-320 -45v211l381 58h238v-500h297v-217h-948zM891 0h-404l1629 1434h403zM1866 207l594 186q56 21 74 36.5t18 37.5q0 18 -13.5 30t-56.5 20.5t-117 8.5q-115 0 -166 -21.5t-63 -70.5l-289 51q61 244 510 244q253 0 376.5 -61t123.5 -174
q0 -91 -82 -155t-297 -118l-65 -16h440v-205h-987v207z" />
    <glyph glyph-name="threequarters" unicode="&#xbe;" horiz-adv-x="2879" 
d="M1100 930q0 -108 -132 -166.5t-397 -58.5q-240 0 -367 55t-153 168l293 49q9 -44 64.5 -64t169.5 -20q116 0 162 15.5t46 45.5q0 35 -67 35h-320v176h322q65 0 65 39q0 53 -206 53q-112 0 -169.5 -18.5t-66.5 -60.5l-281 51q27 105 155.5 161t354.5 56q517 0 517 -203
q0 -114 -152 -156q84 -19 123 -57t39 -100zM866 0h-403l1628 1434h403zM2666 0h-274v111h-661v174l700 432h235v-420h162v-186h-162v-111zM2075 297h317v201z" />
    <glyph glyph-name="questiondown" unicode="&#xbf;" horiz-adv-x="1982" 
d="M1262 1126v-335h-459v335h459zM997 6q440 0 482 225l456 -73q-42 -230 -286 -361t-652 -131q-232 0 -410.5 34.5t-287 96.5t-163 142.5t-54.5 177.5q0 94 40 162.5t103.5 106.5t140.5 65t154 45.5t140.5 39t103 55.5t39.5 85h459q-2 -81 -27.5 -145.5t-67.5 -107
t-96 -74.5t-113 -51.5t-118 -34.5t-112 -26.5t-94 -25t-65 -33.5t-24 -47q0 -26 18.5 -46.5t65 -39t140 -29t228.5 -10.5z" />
    <glyph glyph-name="Agrave" unicode="&#xc0;" horiz-adv-x="2383" 
d="M1382 1552h-385l-542 332h569zM1864 0l-166 258h-1030l-166 -258h-502l958 1434h467l959 -1434h-520zM877 582h612l-305 477z" />
    <glyph glyph-name="Aacute" unicode="&#xc1;" horiz-adv-x="2383" 
d="M1001 1552l359 332h569l-543 -332h-385zM1864 0l-166 258h-1030l-166 -258h-502l958 1434h467l959 -1434h-520zM877 582h612l-305 477z" />
    <glyph glyph-name="Acircumflex" unicode="&#xc2;" horiz-adv-x="2383" 
d="M1466 1552l-282 148l-269 -148h-335l360 332h518l346 -332h-338zM1864 0l-166 258h-1030l-166 -258h-502l958 1434h467l959 -1434h-520zM877 582h612l-305 477z" />
    <glyph glyph-name="Atilde" unicode="&#xc3;" horiz-adv-x="2383" 
d="M1712 1898q14 -187 -61 -277.5t-221 -90.5q-84 0 -170.5 31t-154.5 61.5t-106 30.5q-33 0 -48.5 -26.5t-10.5 -74.5h-272q-15 189 63 281t230 92q57 0 124 -20t116 -43.5t100 -43.5t79 -20q34 0 49.5 26t10.5 74h272zM1864 0l-166 258h-1030l-166 -258h-502l958 1434h467
l959 -1434h-520zM877 582h612l-305 477z" />
    <glyph glyph-name="Adieresis" unicode="&#xc4;" horiz-adv-x="2383" 
d="M1288 1552v332h469v-332h-469zM627 1552v332h469v-332h-469zM1864 0l-166 258h-1030l-166 -258h-502l958 1434h467l959 -1434h-520zM877 582h612l-305 477z" />
    <glyph glyph-name="Aring" unicode="&#xc5;" horiz-adv-x="2383" 
d="M1194 1524q-180 0 -278.5 66.5t-98.5 187.5q0 120 98.5 185t278.5 65q179 0 276 -65t97 -185q0 -122 -97.5 -188t-275.5 -66zM1194 1677q170 0 170 101q0 96 -170 96q-174 0 -174 -96q0 -101 174 -101zM1864 0l-166 258h-1030l-166 -258h-502l958 1434h467l959 -1434
h-520zM877 582h612l-305 477z" />
    <glyph glyph-name="AE" unicode="&#xc6;" horiz-adv-x="3635" 
d="M1790 0v285h-1016l-252 -285h-522l1264 1434h2244v-322h-1278v-221h1135v-320h-1135v-249h1293v-322h-1733zM1061 608h729v504h-285z" />
    <glyph glyph-name="Ccedilla" unicode="&#xc7;" horiz-adv-x="2344" 
d="M96 717q0 351 294.5 547t826.5 196q439 0 703.5 -126t336.5 -371l-479 -95q-40 124 -176.5 184t-384.5 60q-337 0 -497.5 -97.5t-160.5 -297.5q0 -202 159.5 -298.5t498.5 -96.5q254 0 391.5 61.5t171.5 189.5l473 -90q-69 -241 -308.5 -368.5t-641.5 -139.5l-11 -57
q76 12 156 12q303 0 303 -172q0 -104 -120 -156.5t-392 -52.5q-205 0 -393 45l10 166q212 -41 340 -41q77 0 118.5 6t54.5 15.5t13 26.5q0 36 -73 36q-57 0 -92 -22l-246 22l33 179q-438 38 -673 230t-235 505z" />
    <glyph glyph-name="Egrave" unicode="&#xc8;" horiz-adv-x="2148" 
d="M1325 1552h-385l-543 332h570zM217 0v1434h1806v-322h-1366v-221h1223v-320h-1223v-249h1381v-322h-1821z" />
    <glyph glyph-name="Eacute" unicode="&#xc9;" horiz-adv-x="2148" 
d="M891 1552l358 332h570l-543 -332h-385zM217 0v1434h1806v-322h-1366v-221h1223v-320h-1223v-249h1381v-322h-1821z" />
    <glyph glyph-name="Ecircumflex" unicode="&#xca;" horiz-adv-x="2148" 
d="M1397 1552l-283 148l-268 -148h-336l360 332h519l346 -332h-338zM217 0v1434h1806v-322h-1366v-221h1223v-320h-1223v-249h1381v-322h-1821z" />
    <glyph glyph-name="Edieresis" unicode="&#xcb;" horiz-adv-x="2148" 
d="M1219 1552v332h469v-332h-469zM557 1552v332h469v-332h-469zM217 0v1434h1806v-322h-1366v-221h1223v-320h-1223v-249h1381v-322h-1821z" />
    <glyph glyph-name="Igrave" unicode="&#xcc;" horiz-adv-x="888" 
d="M635 1552h-385l-543 332h569zM217 0v1434h453v-1434h-453z" />
    <glyph glyph-name="Iacute" unicode="&#xcd;" horiz-adv-x="888" 
d="M254 1552l358 332h570l-543 -332h-385zM217 0v1434h453v-1434h-453z" />
    <glyph glyph-name="Icircumflex" unicode="&#xce;" horiz-adv-x="888" 
d="M719 1552l-283 148l-268 -148h-336l361 332h518l346 -332h-338zM217 0v1434h453v-1434h-453z" />
    <glyph glyph-name="Idieresis" unicode="&#xcf;" horiz-adv-x="888" 
d="M541 1552v332h469v-332h-469zM-121 1552v332h469v-332h-469zM217 0v1434h453v-1434h-453z" />
    <glyph glyph-name="Eth" unicode="&#xd0;" horiz-adv-x="2461" 
d="M252 0v621h-246v196h246v617h1169q442 0 679 -186t237 -533q0 -346 -236.5 -530.5t-679.5 -184.5h-1169zM1452 348q215 0 318.5 90.5t103.5 276.5q0 188 -103.5 279t-318.5 91h-747v-268h434v-196h-434v-273h747z" />
    <glyph glyph-name="Ntilde" unicode="&#xd1;" horiz-adv-x="2463" 
d="M1759 1898q14 -187 -61 -277.5t-221 -90.5q-84 0 -170.5 31t-154 61.5t-105.5 30.5q-33 0 -49 -26.5t-11 -74.5h-272q-15 189 63 281t230 92q57 0 124 -20t116 -43.5t99.5 -43.5t79.5 -20q34 0 49.5 26t10.5 74h272zM217 0v1434h438l1166 -975v975h426v-1434h-439
l-1165 975v-975h-426z" />
    <glyph glyph-name="Ograve" unicode="&#xd2;" horiz-adv-x="2465" 
d="M1423 1552h-385l-542 332h569zM1233 -27q-545 0 -841 194.5t-296 547.5q0 356 296 550.5t841 194.5t841 -194.5t296 -550.5q0 -353 -296 -547.5t-841 -194.5zM1233 322q346 0 510 96.5t164 296.5q0 202 -164 299.5t-510 97.5t-510 -97.5t-164 -299.5q0 -200 164 -296.5
t510 -96.5z" />
    <glyph glyph-name="Oacute" unicode="&#xd3;" horiz-adv-x="2465" 
d="M1042 1552l359 332h569l-543 -332h-385zM1233 -27q-545 0 -841 194.5t-296 547.5q0 356 296 550.5t841 194.5t841 -194.5t296 -550.5q0 -353 -296 -547.5t-841 -194.5zM1233 322q346 0 510 96.5t164 296.5q0 202 -164 299.5t-510 97.5t-510 -97.5t-164 -299.5
q0 -200 164 -296.5t510 -96.5z" />
    <glyph glyph-name="Ocircumflex" unicode="&#xd4;" horiz-adv-x="2465" 
d="M1507 1552l-282 148l-269 -148h-335l360 332h518l346 -332h-338zM1233 -27q-545 0 -841 194.5t-296 547.5q0 356 296 550.5t841 194.5t841 -194.5t296 -550.5q0 -353 -296 -547.5t-841 -194.5zM1233 322q346 0 510 96.5t164 296.5q0 202 -164 299.5t-510 97.5t-510 -97.5
t-164 -299.5q0 -200 164 -296.5t510 -96.5z" />
    <glyph glyph-name="Otilde" unicode="&#xd5;" horiz-adv-x="2465" 
d="M1753 1898q14 -187 -61.5 -277.5t-221.5 -90.5q-84 0 -170.5 31t-154 61.5t-105.5 30.5q-33 0 -48.5 -26.5t-10.5 -74.5h-272q-15 189 62.5 281t229.5 92q57 0 124 -20t116.5 -43.5t100.5 -43.5t79 -20q34 0 49.5 26t10.5 74h272zM1233 -27q-545 0 -841 194.5t-296 547.5
q0 356 296 550.5t841 194.5t841 -194.5t296 -550.5q0 -353 -296 -547.5t-841 -194.5zM1233 322q346 0 510 96.5t164 296.5q0 202 -164 299.5t-510 97.5t-510 -97.5t-164 -299.5q0 -200 164 -296.5t510 -96.5z" />
    <glyph glyph-name="Odieresis" unicode="&#xd6;" horiz-adv-x="2465" 
d="M1329 1552v332h469v-332h-469zM668 1552v332h469v-332h-469zM1233 -27q-545 0 -841 194.5t-296 547.5q0 356 296 550.5t841 194.5t841 -194.5t296 -550.5q0 -353 -296 -547.5t-841 -194.5zM1233 322q346 0 510 96.5t164 296.5q0 202 -164 299.5t-510 97.5t-510 -97.5
t-164 -299.5q0 -200 164 -296.5t510 -96.5z" />
    <glyph glyph-name="multiply" unicode="&#xd7;" horiz-adv-x="1568" 
d="M1204 225l-418 322l-419 -322l-203 232l371 284l-371 285l203 229l419 -321l418 321l203 -231l-369 -283l369 -284z" />
    <glyph glyph-name="Oslash" unicode="&#xd8;" horiz-adv-x="2465" 
d="M160 0l221 176q-285 192 -285 539q0 356 296 550.5t841 194.5q381 0 643 -96l88 70h342l-221 -177q285 -195 285 -542q0 -353 -296 -547.5t-841 -194.5q-378 0 -643 97l-88 -70h-342zM559 715q0 -187 143 -285l828 657q-131 25 -297 25q-346 0 -510 -97.5t-164 -299.5z
M1233 322q346 0 510 96.5t164 296.5q0 187 -144 286l-827 -657q132 -22 297 -22z" />
    <glyph glyph-name="Ugrave" unicode="&#xd9;" horiz-adv-x="2351" 
d="M1366 1552h-385l-543 332h570zM2177 739q0 -369 -259.5 -567.5t-743.5 -198.5q-483 0 -742.5 198.5t-259.5 567.5v695h455v-680q0 -223 132 -327.5t415 -104.5q284 0 417 104.5t133 327.5v680h453v-695z" />
    <glyph glyph-name="Uacute" unicode="&#xda;" horiz-adv-x="2351" 
d="M985 1552l358 332h570l-543 -332h-385zM2177 739q0 -369 -259.5 -567.5t-743.5 -198.5q-483 0 -742.5 198.5t-259.5 567.5v695h455v-680q0 -223 132 -327.5t415 -104.5q284 0 417 104.5t133 327.5v680h453v-695z" />
    <glyph glyph-name="Ucircumflex" unicode="&#xdb;" horiz-adv-x="2351" 
d="M1450 1552l-283 148l-268 -148h-336l361 332h518l346 -332h-338zM2177 739q0 -369 -259.5 -567.5t-743.5 -198.5q-483 0 -742.5 198.5t-259.5 567.5v695h455v-680q0 -223 132 -327.5t415 -104.5q284 0 417 104.5t133 327.5v680h453v-695z" />
    <glyph glyph-name="Udieresis" unicode="&#xdc;" horiz-adv-x="2351" 
d="M1272 1552v332h469v-332h-469zM610 1552v332h469v-332h-469zM2177 739q0 -369 -259.5 -567.5t-743.5 -198.5q-483 0 -742.5 198.5t-259.5 567.5v695h455v-680q0 -223 132 -327.5t415 -104.5q284 0 417 104.5t133 327.5v680h453v-695z" />
    <glyph glyph-name="Yacute" unicode="&#xdd;" horiz-adv-x="2091" 
d="M856 1552l358 332h570l-543 -332h-385zM823 0v543l-850 891h592l494 -533l502 533h557l-842 -889v-545h-453z" />
    <glyph glyph-name="Thorn" unicode="&#xde;" horiz-adv-x="2226" 
d="M217 0v1434h453v-179h825q295 0 466 -143.5t171 -392.5t-173 -392t-474 -143h-815v-184h-453zM1415 911h-745v-381h745q129 0 191.5 46t62.5 141q0 98 -62.5 146t-191.5 48z" />
    <glyph glyph-name="germandbls" unicode="&#xdf;" horiz-adv-x="2291" 
d="M143 0v954q0 282 264.5 445.5t735.5 163.5q397 0 603 -107.5t206 -310.5q0 -98 -58.5 -175t-169.5 -124q496 -45 496 -383q0 -237 -229.5 -363.5t-657.5 -126.5q-389 0 -631 99l107 303q208 -99 481 -99q181 0 287.5 20t150.5 59t44 102q0 58 -26.5 92t-94 51.5
t-187.5 17.5h-604v302h309q192 0 282.5 43t90.5 129q0 62 -37 99.5t-126 57t-240 19.5q-282 0 -423 -78t-141 -225v-965h-432z" />
    <glyph glyph-name="agrave" unicode="&#xe0;" horiz-adv-x="1918" 
d="M1161 1245h-385l-543 332h570zM94 805q71 182 267 265t565 83q436 0 622.5 -101.5t186.5 -334.5v-359q0 -40 16 -57.5t53 -17.5q30 0 60 6l-9 -285q-112 -31 -215 -31q-252 0 -303 213q-114 -101 -296.5 -157t-407.5 -56q-271 0 -419 90.5t-148 253.5q0 160 143.5 242.5
t460.5 104.5l651 36q-9 88 -99 125t-298 37q-196 0 -284.5 -30t-109.5 -99zM496 340q0 -52 55.5 -75t181.5 -23q169 0 305 30.5t212.5 84t76.5 120.5v2l-692 -47q-72 -6 -105.5 -28.5t-33.5 -63.5z" />
    <glyph glyph-name="aacute" unicode="&#xe1;" horiz-adv-x="1918" 
d="M780 1245l359 332h569l-543 -332h-385zM94 805q71 182 267 265t565 83q436 0 622.5 -101.5t186.5 -334.5v-359q0 -40 16 -57.5t53 -17.5q30 0 60 6l-9 -285q-112 -31 -215 -31q-252 0 -303 213q-114 -101 -296.5 -157t-407.5 -56q-271 0 -419 90.5t-148 253.5
q0 160 143.5 242.5t460.5 104.5l651 36q-9 88 -99 125t-298 37q-196 0 -284.5 -30t-109.5 -99zM496 340q0 -52 55.5 -75t181.5 -23q169 0 305 30.5t212.5 84t76.5 120.5v2l-692 -47q-72 -6 -105.5 -28.5t-33.5 -63.5z" />
    <glyph glyph-name="acircumflex" unicode="&#xe2;" horiz-adv-x="1918" 
d="M1245 1245l-282 148l-269 -148h-336l361 332h518l346 -332h-338zM94 805q71 182 267 265t565 83q436 0 622.5 -101.5t186.5 -334.5v-359q0 -40 16 -57.5t53 -17.5q30 0 60 6l-9 -285q-112 -31 -215 -31q-252 0 -303 213q-114 -101 -296.5 -157t-407.5 -56
q-271 0 -419 90.5t-148 253.5q0 160 143.5 242.5t460.5 104.5l651 36q-9 88 -99 125t-298 37q-196 0 -284.5 -30t-109.5 -99zM496 340q0 -52 55.5 -75t181.5 -23q169 0 305 30.5t212.5 84t76.5 120.5v2l-692 -47q-72 -6 -105.5 -28.5t-33.5 -63.5z" />
    <glyph glyph-name="atilde" unicode="&#xe3;" horiz-adv-x="1918" 
d="M1491 1591q14 -187 -61.5 -277.5t-221.5 -90.5q-66 0 -135.5 19t-116.5 42.5t-96.5 42.5t-81.5 19q-33 0 -48.5 -26.5t-10.5 -74.5h-273q-15 189 63 281t230 92q72 0 158 -32t157 -63.5t105 -31.5t49.5 26t10.5 74h272zM94 805q71 182 267 265t565 83q436 0 622.5 -101.5
t186.5 -334.5v-359q0 -40 16 -57.5t53 -17.5q30 0 60 6l-9 -285q-112 -31 -215 -31q-252 0 -303 213q-114 -101 -296.5 -157t-407.5 -56q-271 0 -419 90.5t-148 253.5q0 160 143.5 242.5t460.5 104.5l651 36q-9 88 -99 125t-298 37q-196 0 -284.5 -30t-109.5 -99zM496 340
q0 -52 55.5 -75t181.5 -23q169 0 305 30.5t212.5 84t76.5 120.5v2l-692 -47q-72 -6 -105.5 -28.5t-33.5 -63.5z" />
    <glyph glyph-name="adieresis" unicode="&#xe4;" horiz-adv-x="1918" 
d="M1067 1245v332h469v-332h-469zM406 1245v332h468v-332h-468zM94 805q71 182 267 265t565 83q436 0 622.5 -101.5t186.5 -334.5v-359q0 -40 16 -57.5t53 -17.5q30 0 60 6l-9 -285q-112 -31 -215 -31q-252 0 -303 213q-114 -101 -296.5 -157t-407.5 -56q-271 0 -419 90.5
t-148 253.5q0 160 143.5 242.5t460.5 104.5l651 36q-9 88 -99 125t-298 37q-196 0 -284.5 -30t-109.5 -99zM496 340q0 -52 55.5 -75t181.5 -23q169 0 305 30.5t212.5 84t76.5 120.5v2l-692 -47q-72 -6 -105.5 -28.5t-33.5 -63.5z" />
    <glyph glyph-name="aring" unicode="&#xe5;" horiz-adv-x="1918" 
d="M973 1217q-180 0 -278.5 66t-98.5 187q0 120 98.5 185t278.5 65q179 0 276 -65t97 -185q0 -121 -97 -187t-276 -66zM973 1370q170 0 170 100q0 97 -170 97q-174 0 -174 -97q0 -100 174 -100zM94 805q71 182 267 265t565 83q436 0 622.5 -101.5t186.5 -334.5v-359
q0 -40 16 -57.5t53 -17.5q30 0 60 6l-9 -285q-112 -31 -215 -31q-252 0 -303 213q-114 -101 -296.5 -157t-407.5 -56q-271 0 -419 90.5t-148 253.5q0 160 143.5 242.5t460.5 104.5l651 36q-9 88 -99 125t-298 37q-196 0 -284.5 -30t-109.5 -99zM496 340q0 -52 55.5 -75
t181.5 -23q169 0 305 30.5t212.5 84t76.5 120.5v2l-692 -47q-72 -6 -105.5 -28.5t-33.5 -63.5z" />
    <glyph glyph-name="ae" unicode="&#xe6;" horiz-adv-x="3205" 
d="M784 -27q-204 0 -347 25.5t-222.5 73.5t-114 108t-34.5 139q0 160 143 241.5t461 103.5l649 36q-9 88 -93 125t-282 37q-196 0 -284.5 -30t-110.5 -99l-434 72q70 181 270 264.5t561 83.5q218 0 367.5 -38t251.5 -122q257 160 661 160q414 0 653.5 -151t239.5 -414
q0 -76 -12 -123h-1358q35 -100 154.5 -147.5t334.5 -47.5q202 0 308.5 29t134.5 90l434 -76q-73 -177 -278.5 -258.5t-598.5 -81.5q-237 0 -414 47.5t-313 157.5q-257 -205 -727 -205zM2224 868q-202 0 -313.5 -40.5t-151.5 -129.5h912q-43 96 -152.5 133t-294.5 37z
M496 340q0 -54 65 -77t213 -23q268 0 412 66t141 173l-692 -47q-72 -6 -105.5 -28.5t-33.5 -63.5z" />
    <glyph glyph-name="ccedilla" unicode="&#xe7;" horiz-adv-x="1947" 
d="M1894 737l-440 -88q-32 98 -138.5 143.5t-307.5 45.5q-248 0 -363 -66.5t-115 -208.5q0 -141 115 -207.5t363 -66.5q211 0 317.5 47t132.5 151l438 -86q-56 -198 -266 -307.5t-553 -118.5l-10 -57q77 12 156 12q303 0 303 -172q0 -104 -120 -156.5t-392 -52.5
q-205 0 -393 45l10 166q212 -41 340 -41q77 0 118.5 6t54.5 15.5t13 26.5q0 36 -74 36q-57 0 -92 -22l-246 22l33 183q-331 38 -510.5 188t-179.5 389q0 279 242 434.5t678 155.5q365 0 592 -106t294 -310z" />
    <glyph glyph-name="egrave" unicode="&#xe8;" horiz-adv-x="1996" 
d="M1188 1245h-385l-543 332h569zM1020 -27q-441 0 -686.5 155t-245.5 435q0 273 244.5 431.5t673.5 158.5q278 0 482 -67t313.5 -195t109.5 -303q0 -74 -10 -123h-1375q35 -100 155.5 -147.5t338.5 -47.5q208 0 316.5 29t136.5 90l434 -76q-73 -178 -279.5 -259t-607.5 -81
zM1008 868q-210 0 -324 -42t-152 -134h934q-38 94 -146.5 135t-311.5 41z" />
    <glyph glyph-name="eacute" unicode="&#xe9;" horiz-adv-x="1996" 
d="M807 1245l358 332h570l-543 -332h-385zM1020 -27q-441 0 -686.5 155t-245.5 435q0 273 244.5 431.5t673.5 158.5q278 0 482 -67t313.5 -195t109.5 -303q0 -74 -10 -123h-1375q35 -100 155.5 -147.5t338.5 -47.5q208 0 316.5 29t136.5 90l434 -76q-73 -178 -279.5 -259
t-607.5 -81zM1008 868q-210 0 -324 -42t-152 -134h934q-38 94 -146.5 135t-311.5 41z" />
    <glyph glyph-name="ecircumflex" unicode="&#xea;" horiz-adv-x="1996" 
d="M1272 1245l-283 148l-268 -148h-336l360 332h519l346 -332h-338zM1020 -27q-441 0 -686.5 155t-245.5 435q0 273 244.5 431.5t673.5 158.5q278 0 482 -67t313.5 -195t109.5 -303q0 -74 -10 -123h-1375q35 -100 155.5 -147.5t338.5 -47.5q208 0 316.5 29t136.5 90l434 -76
q-73 -178 -279.5 -259t-607.5 -81zM1008 868q-210 0 -324 -42t-152 -134h934q-38 94 -146.5 135t-311.5 41z" />
    <glyph glyph-name="edieresis" unicode="&#xeb;" horiz-adv-x="1996" 
d="M1094 1245v332h469v-332h-469zM432 1245v332h469v-332h-469zM1020 -27q-441 0 -686.5 155t-245.5 435q0 273 244.5 431.5t673.5 158.5q278 0 482 -67t313.5 -195t109.5 -303q0 -74 -10 -123h-1375q35 -100 155.5 -147.5t338.5 -47.5q208 0 316.5 29t136.5 90l434 -76
q-73 -178 -279.5 -259t-607.5 -81zM1008 868q-210 0 -324 -42t-152 -134h934q-38 94 -146.5 135t-311.5 41z" />
    <glyph glyph-name="igrave" unicode="&#xec;" 
d="M590 1245h-385l-543 332h569zM184 0v1126h432v-1126h-432z" />
    <glyph glyph-name="iacute" unicode="&#xed;" 
d="M209 1245l358 332h570l-543 -332h-385zM184 0v1126h432v-1126h-432z" />
    <glyph glyph-name="icircumflex" unicode="&#xee;" 
d="M674 1245l-283 148l-268 -148h-336l360 332h519l346 -332h-338zM184 0v1126h432v-1126h-432z" />
    <glyph glyph-name="idieresis" unicode="&#xef;" 
d="M496 1245v332h469v-332h-469zM-166 1245v332h469v-332h-469zM184 0v1126h432v-1126h-432z" />
    <glyph glyph-name="eth" unicode="&#xf0;" horiz-adv-x="2029" 
d="M1004 -27q-449 0 -680.5 130.5t-231.5 369.5q0 231 213 357t625 126q351 0 557 -141q-30 84 -107.5 169.5t-228.5 195.5l-455 -117v186l256 66q-96 63 -293 180l519 61q92 -56 200 -131l396 101v-189l-211 -53q209 -180 290.5 -346.5t81.5 -349.5q0 -141 -54.5 -252.5
t-166 -193t-291.5 -125.5t-419 -44zM1010 289q177 0 281.5 20t149 59t44.5 103t-44.5 103t-149 59t-281.5 20q-262 0 -370 -43t-108 -139t108 -139t370 -43z" />
    <glyph glyph-name="ntilde" unicode="&#xf1;" horiz-adv-x="2052" 
d="M1546 1591q14 -187 -61 -277.5t-221 -90.5q-66 0 -135.5 19t-116.5 42.5t-96.5 42.5t-81.5 19q-33 0 -49 -26.5t-11 -74.5h-272q-15 189 63 281t230 92q72 0 158 -32t156.5 -63.5t104.5 -31.5t49.5 26t10.5 74h272zM184 0v1126h389l31 -243q108 127 278.5 198.5
t372.5 71.5q308 0 467.5 -136t159.5 -396v-621h-432v535q0 138 -84.5 210t-249.5 72q-235 0 -367.5 -103t-132.5 -286v-428h-432z" />
    <glyph glyph-name="ograve" unicode="&#xf2;" horiz-adv-x="2029" 
d="M1206 1245h-385l-542 332h569zM1016 -27q-444 0 -686 154t-242 436t242 436t686 154q445 0 685.5 -154t240.5 -436q0 -285 -239 -437.5t-687 -152.5zM1016 289q253 0 368 65.5t115 208.5t-115 209t-368 66t-369.5 -66t-116.5 -209t116.5 -208.5t369.5 -65.5z" />
    <glyph glyph-name="oacute" unicode="&#xf3;" horiz-adv-x="2029" 
d="M825 1245l359 332h569l-543 -332h-385zM1016 -27q-444 0 -686 154t-242 436t242 436t686 154q445 0 685.5 -154t240.5 -436q0 -285 -239 -437.5t-687 -152.5zM1016 289q253 0 368 65.5t115 208.5t-115 209t-368 66t-369.5 -66t-116.5 -209t116.5 -208.5t369.5 -65.5z" />
    <glyph glyph-name="ocircumflex" unicode="&#xf4;" horiz-adv-x="2029" 
d="M1290 1245l-282 148l-269 -148h-336l361 332h518l346 -332h-338zM1016 -27q-444 0 -686 154t-242 436t242 436t686 154q445 0 685.5 -154t240.5 -436q0 -285 -239 -437.5t-687 -152.5zM1016 289q253 0 368 65.5t115 208.5t-115 209t-368 66t-369.5 -66t-116.5 -209
t116.5 -208.5t369.5 -65.5z" />
    <glyph glyph-name="otilde" unicode="&#xf5;" horiz-adv-x="2029" 
d="M1536 1591q14 -187 -61.5 -277.5t-221.5 -90.5q-66 0 -135.5 19t-116.5 42.5t-96.5 42.5t-81.5 19q-33 0 -48.5 -26.5t-10.5 -74.5h-272q-15 189 62.5 281t229.5 92q72 0 158 -32t157 -63.5t105 -31.5t49.5 26t10.5 74h272zM1016 -27q-444 0 -686 154t-242 436t242 436
t686 154q445 0 685.5 -154t240.5 -436q0 -285 -239 -437.5t-687 -152.5zM1016 289q253 0 368 65.5t115 208.5t-115 209t-368 66t-369.5 -66t-116.5 -209t116.5 -208.5t369.5 -65.5z" />
    <glyph glyph-name="odieresis" unicode="&#xf6;" horiz-adv-x="2029" 
d="M1112 1245v332h469v-332h-469zM451 1245v332h469v-332h-469zM1016 -27q-444 0 -686 154t-242 436t242 436t686 154q445 0 685.5 -154t240.5 -436q0 -285 -239 -437.5t-687 -152.5zM1016 289q253 0 368 65.5t115 208.5t-115 209t-368 66t-369.5 -66t-116.5 -209
t116.5 -208.5t369.5 -65.5z" />
    <glyph glyph-name="divide" unicode="&#xf7;" horiz-adv-x="1568" 
d="M584 1022v311h403v-311h-403zM1436 575h-1303v306h1303v-306zM584 123v311h403v-311h-403z" />
    <glyph glyph-name="oslash" unicode="&#xf8;" horiz-adv-x="2029" 
d="M104 0l197 147q-213 153 -213 416q0 282 242 436t686 154q304 0 520 -76l66 49h323l-194 -147q211 -151 211 -416q0 -285 -239 -437.5t-687 -152.5q-303 0 -522 76l-66 -49h-324zM526 563q0 -118 80 -186l602 452q-93 13 -192 13q-255 0 -372.5 -67t-117.5 -212z
M1016 285q255 0 371 66.5t116 211.5q0 122 -80 187l-600 -453q82 -12 193 -12z" />
    <glyph glyph-name="ugrave" unicode="&#xf9;" horiz-adv-x="1990" 
d="M1186 1245h-385l-543 332h569zM1374 698v428h432v-1126h-389l-31 242q-104 -126 -266.5 -197.5t-355.5 -71.5q-291 0 -442.5 137t-151.5 398v618h432v-540q0 -135 74 -205t217 -70q226 0 353.5 102t127.5 285z" />
    <glyph glyph-name="uacute" unicode="&#xfa;" horiz-adv-x="1990" 
d="M805 1245l358 332h570l-543 -332h-385zM1374 698v428h432v-1126h-389l-31 242q-104 -126 -266.5 -197.5t-355.5 -71.5q-291 0 -442.5 137t-151.5 398v618h432v-540q0 -135 74 -205t217 -70q226 0 353.5 102t127.5 285z" />
    <glyph glyph-name="ucircumflex" unicode="&#xfb;" horiz-adv-x="1990" 
d="M1270 1245l-283 148l-268 -148h-336l360 332h519l346 -332h-338zM1374 698v428h432v-1126h-389l-31 242q-104 -126 -266.5 -197.5t-355.5 -71.5q-291 0 -442.5 137t-151.5 398v618h432v-540q0 -135 74 -205t217 -70q226 0 353.5 102t127.5 285z" />
    <glyph glyph-name="udieresis" unicode="&#xfc;" horiz-adv-x="1990" 
d="M1092 1245v332h469v-332h-469zM430 1245v332h469v-332h-469zM1374 698v428h432v-1126h-389l-31 242q-104 -126 -266.5 -197.5t-355.5 -71.5q-291 0 -442.5 137t-151.5 398v618h432v-540q0 -135 74 -205t217 -70q226 0 353.5 102t127.5 285z" />
    <glyph glyph-name="yacute" unicode="&#xfd;" horiz-adv-x="1777" 
d="M698 1245l359 332h569l-543 -332h-385zM1305 1126h469l-650 -1106q-108 -181 -202 -276.5t-211.5 -137.5t-294.5 -42q-149 0 -273 37l-16 309q133 -19 219 -19q138 0 209.5 30t132.5 122l-684 1083h496l420 -708z" />
    <glyph glyph-name="thorn" unicode="&#xfe;" horiz-adv-x="2121" 
d="M1272 -27q-210 0 -378.5 56t-277.5 159v-598h-432v1946h432v-600q108 104 277 160.5t379 56.5q357 0 559.5 -157t202.5 -433q0 -279 -201 -434.5t-561 -155.5zM1118 291q243 0 358 66.5t115 205.5t-115 206t-358 67q-246 0 -374 -70t-128 -203t127.5 -202.5t374.5 -69.5z
" />
    <glyph glyph-name="ydieresis" unicode="&#xff;" horiz-adv-x="1777" 
d="M985 1245v332h469v-332h-469zM324 1245v332h469v-332h-469zM1305 1126h469l-650 -1106q-108 -181 -202 -276.5t-211.5 -137.5t-294.5 -42q-149 0 -273 37l-16 309q133 -19 219 -19q138 0 209.5 30t132.5 122l-684 1083h496l420 -708z" />
    <glyph glyph-name="Amacron" unicode="&#x100;" horiz-adv-x="2383" 
d="M662 1554v275h1060v-275h-1060zM1864 0l-166 258h-1030l-166 -258h-502l958 1434h467l959 -1434h-520zM877 582h612l-305 477z" />
    <glyph glyph-name="amacron" unicode="&#x101;" horiz-adv-x="1918" 
d="M440 1247v275h1061v-275h-1061zM94 805q71 182 267 265t565 83q436 0 622.5 -101.5t186.5 -334.5v-359q0 -40 16 -57.5t53 -17.5q30 0 60 6l-9 -285q-112 -31 -215 -31q-252 0 -303 213q-114 -101 -296.5 -157t-407.5 -56q-271 0 -419 90.5t-148 253.5q0 160 143.5 242.5
t460.5 104.5l651 36q-9 88 -99 125t-298 37q-196 0 -284.5 -30t-109.5 -99zM496 340q0 -52 55.5 -75t181.5 -23q169 0 305 30.5t212.5 84t76.5 120.5v2l-692 -47q-72 -6 -105.5 -28.5t-33.5 -63.5z" />
    <glyph glyph-name="Abreve" unicode="&#x102;" horiz-adv-x="2383" 
d="M1389 1884h344q0 -352 -537 -352q-545 0 -545 352h344q0 -131 201 -131q193 0 193 131zM1864 0l-166 258h-1030l-166 -258h-502l958 1434h467l959 -1434h-520zM877 582h612l-305 477z" />
    <glyph glyph-name="abreve" unicode="&#x103;" horiz-adv-x="1918" 
d="M1167 1577h344q0 -352 -536 -352q-545 0 -545 352h344q0 -131 201 -131q192 0 192 131zM94 805q71 182 267 265t565 83q436 0 622.5 -101.5t186.5 -334.5v-359q0 -40 16 -57.5t53 -17.5q30 0 60 6l-9 -285q-112 -31 -215 -31q-252 0 -303 213q-114 -101 -296.5 -157
t-407.5 -56q-271 0 -419 90.5t-148 253.5q0 160 143.5 242.5t460.5 104.5l651 36q-9 88 -99 125t-298 37q-196 0 -284.5 -30t-109.5 -99zM496 340q0 -52 55.5 -75t181.5 -23q169 0 305 30.5t212.5 84t76.5 120.5v2l-692 -47q-72 -6 -105.5 -28.5t-33.5 -63.5z" />
    <glyph glyph-name="Aogonek" unicode="&#x104;" horiz-adv-x="2383" 
d="M1681 -209q0 144 170 227l-153 240h-1030l-166 -258h-502l958 1434h467l959 -1434q-80 -5 -142.5 -14.5t-100 -21t-61.5 -25t-33 -25.5t-9 -25q0 -47 106 -47q103 0 240 41l-8 -286q-146 -48 -320 -48q-182 0 -278.5 61t-96.5 181zM877 582h612l-305 475z" />
    <glyph glyph-name="aogonek" unicode="&#x105;" horiz-adv-x="1918" 
d="M1849 -403q-142 -48 -311 -48q-185 0 -283 62.5t-98 187.5q0 87 58 148.5t194 105.5q-50 47 -72 133q-114 -101 -296.5 -157t-407.5 -56q-271 0 -419 90.5t-148 253.5q0 160 143 241t461 101l651 39q-8 88 -93.5 126t-283.5 38q-213 0 -303 -29.5t-111 -99.5l-436 72
q71 184 268 266t584 82q425 0 607 -101.5t182 -334.5v-359q0 -40 16 -57.5t53 -17.5q30 0 60 6l-9 -285q-35 -10 -87.5 -20t-93.5 -17t-80.5 -16.5t-61 -24.5t-21.5 -37q0 -47 107 -47q103 0 240 41zM496 338q0 -51 55.5 -73.5t181.5 -22.5q169 0 305 30.5t212.5 84
t76.5 120.5l-692 -47q-72 -6 -105.5 -28.5t-33.5 -63.5z" />
    <glyph glyph-name="Cacute" unicode="&#x106;" horiz-adv-x="2344" 
d="M989 1552l359 332h569l-543 -332h-385zM96 717q0 351 294.5 547t826.5 196q439 0 703.5 -126t336.5 -371l-479 -95q-40 124 -176.5 184t-384.5 60q-337 0 -497.5 -97.5t-160.5 -297.5q0 -202 159.5 -298.5t498.5 -96.5q254 0 391.5 61.5t171.5 189.5l473 -90
q-72 -253 -334 -381.5t-702 -128.5q-537 0 -829 196.5t-292 547.5z" />
    <glyph glyph-name="cacute" unicode="&#x107;" horiz-adv-x="1947" 
d="M784 1245l359 332h569l-543 -332h-385zM1894 737l-440 -88q-32 98 -138.5 143.5t-307.5 45.5q-248 0 -363 -66.5t-115 -208.5q0 -141 115 -207.5t363 -66.5q211 0 317.5 47t132.5 151l438 -86q-59 -207 -287 -317.5t-601 -110.5q-436 0 -678 155.5t-242 434.5t242 434.5
t678 155.5q365 0 592 -106t294 -310z" />
    <glyph glyph-name="Ccircumflex" unicode="&#x108;" horiz-adv-x="2344" 
d="M1454 1552l-283 148l-268 -148h-336l361 332h518l346 -332h-338zM96 717q0 351 294.5 547t826.5 196q439 0 703.5 -126t336.5 -371l-479 -95q-40 124 -176.5 184t-384.5 60q-337 0 -497.5 -97.5t-160.5 -297.5q0 -202 159.5 -298.5t498.5 -96.5q254 0 391.5 61.5
t171.5 189.5l473 -90q-72 -253 -334 -381.5t-702 -128.5q-537 0 -829 196.5t-292 547.5z" />
    <glyph glyph-name="ccircumflex" unicode="&#x109;" horiz-adv-x="1947" 
d="M1249 1245l-282 148l-269 -148h-336l361 332h518l346 -332h-338zM1894 737l-440 -88q-32 98 -138.5 143.5t-307.5 45.5q-248 0 -363 -66.5t-115 -208.5q0 -141 115 -207.5t363 -66.5q211 0 317.5 47t132.5 151l438 -86q-59 -207 -287 -317.5t-601 -110.5
q-436 0 -678 155.5t-242 434.5t242 434.5t678 155.5q365 0 592 -106t294 -310z" />
    <glyph glyph-name="Cdotaccent" unicode="&#x10a;" horiz-adv-x="2344" 
d="M954 1552v373h451v-373h-451zM96 717q0 351 294.5 547t826.5 196q439 0 703.5 -126t336.5 -371l-479 -95q-40 124 -176.5 184t-384.5 60q-337 0 -497.5 -97.5t-160.5 -297.5q0 -202 159.5 -298.5t498.5 -96.5q254 0 391.5 61.5t171.5 189.5l473 -90q-72 -253 -334 -381.5
t-702 -128.5q-537 0 -829 196.5t-292 547.5z" />
    <glyph glyph-name="cdotaccent" unicode="&#x10b;" horiz-adv-x="1947" 
d="M750 1245v373h450v-373h-450zM1894 737l-440 -88q-32 98 -138.5 143.5t-307.5 45.5q-248 0 -363 -66.5t-115 -208.5q0 -141 115 -207.5t363 -66.5q211 0 317.5 47t132.5 151l438 -86q-59 -207 -287 -317.5t-601 -110.5q-436 0 -678 155.5t-242 434.5t242 434.5t678 155.5
q365 0 592 -106t294 -310z" />
    <glyph glyph-name="Ccaron" unicode="&#x10c;" horiz-adv-x="2344" 
d="M1792 1884l-360 -332h-519l-346 332h338l283 -147l270 147h334zM96 717q0 351 294.5 547t826.5 196q439 0 703.5 -126t336.5 -371l-479 -95q-40 124 -176.5 184t-384.5 60q-337 0 -497.5 -97.5t-160.5 -297.5q0 -202 159.5 -298.5t498.5 -96.5q254 0 391.5 61.5
t171.5 189.5l473 -90q-72 -253 -334 -381.5t-702 -128.5q-537 0 -829 196.5t-292 547.5z" />
    <glyph glyph-name="ccaron" unicode="&#x10d;" horiz-adv-x="1947" 
d="M1587 1577l-360 -332h-518l-347 332h338l283 -147l270 147h334zM1894 737l-440 -88q-32 98 -138.5 143.5t-307.5 45.5q-248 0 -363 -66.5t-115 -208.5q0 -141 115 -207.5t363 -66.5q211 0 317.5 47t132.5 151l438 -86q-59 -207 -287 -317.5t-601 -110.5
q-436 0 -678 155.5t-242 434.5t242 434.5t678 155.5q365 0 592 -106t294 -310z" />
    <glyph glyph-name="Dcaron" unicode="&#x10e;" horiz-adv-x="2428" 
d="M1827 1884l-361 -332h-518l-346 332h338l283 -147l270 147h334zM217 0v1434h1169q444 0 680 -185.5t236 -533.5q0 -346 -236 -530.5t-680 -184.5h-1169zM1419 348q215 0 317.5 90t102.5 277q0 188 -102.5 279t-317.5 91h-749v-737h749z" />
    <glyph glyph-name="dcaron" unicode="&#x10f;" horiz-adv-x="2398" 
d="M850 -27q-360 0 -561 155.5t-201 434.5q0 276 202.5 433t559.5 157q209 0 377.5 -57.5t277.5 -161.5v602h432v-1536h-395l-22 205q-107 -110 -279.5 -171t-390.5 -61zM2122 1081v455h395l-123 -455h-272zM1004 291q246 0 373.5 69.5t127.5 202.5t-127.5 203t-373.5 70
q-243 0 -358.5 -67t-115.5 -206t115.5 -205.5t358.5 -66.5z" />
    <glyph glyph-name="Dcroat" unicode="&#x110;" horiz-adv-x="2461" 
d="M252 0v621h-246v196h246v617h1169q442 0 679 -186t237 -533q0 -346 -236.5 -530.5t-679.5 -184.5h-1169zM1452 348q215 0 318.5 90.5t103.5 276.5q0 188 -103.5 279t-318.5 91h-747v-268h434v-196h-434v-273h747z" />
    <glyph glyph-name="dcroat" unicode="&#x111;" horiz-adv-x="2121" 
d="M850 -27q-360 0 -561 150.5t-201 419.5q0 266 202.5 417.5t559.5 151.5q210 0 378 -55t277 -156v332h-475v164h475v139h432v-139h185v-164h-185v-1233h-395l-22 199q-106 -107 -279 -166.5t-391 -59.5zM1004 291q247 0 374 64.5t127 187.5t-127 187.5t-374 64.5
q-243 0 -358.5 -62t-115.5 -190t115.5 -190t358.5 -62z" />
    <glyph glyph-name="Emacron" unicode="&#x112;" horiz-adv-x="2148" 
d="M592 1554v275h1061v-275h-1061zM217 0v1434h1806v-322h-1366v-221h1223v-320h-1223v-249h1381v-322h-1821z" />
    <glyph glyph-name="emacron" unicode="&#x113;" horiz-adv-x="1996" 
d="M467 1247v275h1061v-275h-1061zM1020 -27q-441 0 -686.5 155t-245.5 435q0 273 244.5 431.5t673.5 158.5q278 0 482 -67t313.5 -195t109.5 -303q0 -74 -10 -123h-1375q35 -100 155.5 -147.5t338.5 -47.5q208 0 316.5 29t136.5 90l434 -76q-73 -178 -279.5 -259
t-607.5 -81zM1008 868q-210 0 -324 -42t-152 -134h934q-38 94 -146.5 135t-311.5 41z" />
    <glyph glyph-name="Ebreve" unicode="&#x114;" horiz-adv-x="2148" 
d="M1319 1884h344q0 -352 -537 -352q-544 0 -544 352h344q0 -131 200 -131q193 0 193 131zM217 0v1434h1806v-322h-1366v-221h1223v-320h-1223v-249h1381v-322h-1821z" />
    <glyph glyph-name="ebreve" unicode="&#x115;" horiz-adv-x="1996" 
d="M1194 1577h344q0 -352 -537 -352q-544 0 -544 352h344q0 -131 200 -131q193 0 193 131zM1020 -27q-441 0 -686.5 155t-245.5 435q0 273 244.5 431.5t673.5 158.5q278 0 482 -67t313.5 -195t109.5 -303q0 -74 -10 -123h-1375q35 -100 155.5 -147.5t338.5 -47.5
q208 0 316.5 29t136.5 90l434 -76q-73 -178 -279.5 -259t-607.5 -81zM1008 868q-210 0 -324 -42t-152 -134h934q-38 94 -146.5 135t-311.5 41z" />
    <glyph glyph-name="Edotaccent" unicode="&#x116;" horiz-adv-x="2148" 
d="M897 1552v373h451v-373h-451zM217 0v1434h1806v-322h-1366v-221h1223v-320h-1223v-249h1381v-322h-1821z" />
    <glyph glyph-name="edotaccent" unicode="&#x117;" horiz-adv-x="1996" 
d="M772 1245v373h451v-373h-451zM1020 -27q-441 0 -686.5 155t-245.5 435q0 273 244.5 431.5t673.5 158.5q278 0 482 -67t313.5 -195t109.5 -303q0 -74 -10 -123h-1375q35 -100 155.5 -147.5t338.5 -47.5q208 0 316.5 29t136.5 90l434 -76q-73 -178 -279.5 -259t-607.5 -81z
M1008 868q-210 0 -324 -42t-152 -134h934q-38 94 -146.5 135t-311.5 41z" />
    <glyph glyph-name="Eogonek" unicode="&#x118;" horiz-adv-x="2148" 
d="M217 0v1434h1806v-322h-1366v-221h1223v-320h-1223v-249h1381v-322q-101 -7 -171.5 -17.5t-108 -25t-53 -29.5t-15.5 -34q0 -52 106 -52q102 0 242 41l-8 -286q-150 -48 -293 -48q-204 0 -303 57.5t-99 176.5q0 136 140 217h-1258z" />
    <glyph glyph-name="eogonek" unicode="&#x119;" horiz-adv-x="1996" 
d="M1896 -403q-154 -48 -309 -48q-187 0 -286 58.5t-99 175.5q0 130 139 205q-138 -15 -321 -15q-441 0 -686.5 155t-245.5 435q0 273 244.5 431.5t673.5 158.5q278 0 482 -67t313.5 -195t109.5 -303q0 -74 -10 -123h-1375q35 -100 155.5 -147.5t338.5 -47.5q208 0 316.5 29
t136.5 90l434 -76q-36 -77 -85.5 -141.5t-94 -103.5t-84.5 -70.5t-63.5 -57.5t-23.5 -49q0 -49 107 -49q105 0 242 41zM1008 868q-210 0 -324 -42t-152 -134h936q-38 94 -146.5 135t-313.5 41z" />
    <glyph glyph-name="Ecaron" unicode="&#x11a;" horiz-adv-x="2148" 
d="M1735 1884l-361 -332h-518l-346 332h338l282 -147l271 147h334zM217 0v1434h1806v-322h-1366v-221h1223v-320h-1223v-249h1381v-322h-1821z" />
    <glyph glyph-name="ecaron" unicode="&#x11b;" horiz-adv-x="1996" 
d="M1610 1577l-361 -332h-518l-346 332h338l283 -147l270 147h334zM1020 -27q-441 0 -686.5 155t-245.5 435q0 273 244.5 431.5t673.5 158.5q278 0 482 -67t313.5 -195t109.5 -303q0 -74 -10 -123h-1375q35 -100 155.5 -147.5t338.5 -47.5q208 0 316.5 29t136.5 90l434 -76
q-73 -178 -279.5 -259t-607.5 -81zM1008 868q-210 0 -324 -42t-152 -134h934q-38 94 -146.5 135t-311.5 41z" />
    <glyph glyph-name="Gcircumflex" unicode="&#x11c;" horiz-adv-x="2476" 
d="M1487 1552l-283 148l-268 -148h-336l361 332h518l346 -332h-338zM96 715q0 356 296.5 550.5t844.5 194.5q887 0 1042 -452l-473 -97q-46 103 -182 152t-387 49q-348 0 -513 -97.5t-165 -299.5q0 -200 164.5 -296.5t513.5 -96.5q254 0 401.5 46.5t198.5 141.5h-641v299
h1118v-809h-350l-39 229q-211 -256 -762 -256q-508 0 -787.5 194.5t-279.5 547.5z" />
    <glyph glyph-name="gcircumflex" unicode="&#x11d;" horiz-adv-x="1970" 
d="M1212 1245l-282 148l-268 -148h-336l360 332h518l346 -332h-338zM930 1153q426 0 633 -115q59 91 157.5 131t218.5 21l-18 -332q-101 23 -209 14q14 -38 14 -84q0 -175 -204.5 -268.5t-591.5 -93.5q-187 0 -318 20q-92 -15 -92 -71q0 -77 152 -80l676 -8q550 -9 550 -314
q0 -210 -236.5 -309.5t-737.5 -99.5q-453 0 -669 68.5t-216 209.5q0 88 70.5 140.5t216.5 72.5q-103 26 -161.5 85.5t-58.5 138.5q0 181 250 233q-221 93 -221 276q0 175 205 270t590 95zM1290 788q0 123 -360 123q-359 0 -359 -123q0 -62 87.5 -91t271.5 -29q186 0 273 29
t87 91zM625 0q-133 0 -133 -84q0 -57 100.5 -80.5t337.5 -23.5q206 0 326 14.5t164 40t44 65.5q0 68 -129 68h-710z" />
    <glyph glyph-name="Gbreve" unicode="&#x11e;" horiz-adv-x="2476" 
d="M1409 1884h344q0 -352 -536 -352q-545 0 -545 352h344q0 -131 201 -131q192 0 192 131zM96 715q0 356 296.5 550.5t844.5 194.5q887 0 1042 -452l-473 -97q-46 103 -182 152t-387 49q-348 0 -513 -97.5t-165 -299.5q0 -200 164.5 -296.5t513.5 -96.5q254 0 401.5 46.5
t198.5 141.5h-641v299h1118v-809h-350l-39 229q-211 -256 -762 -256q-508 0 -787.5 194.5t-279.5 547.5z" />
    <glyph glyph-name="gbreve" unicode="&#x11f;" horiz-adv-x="1970" 
d="M1135 1577h344q0 -352 -537 -352q-545 0 -545 352h344q0 -131 201 -131q193 0 193 131zM930 1153q426 0 633 -115q59 91 157.5 131t218.5 21l-18 -332q-101 23 -209 14q14 -38 14 -84q0 -175 -204.5 -268.5t-591.5 -93.5q-187 0 -318 20q-92 -15 -92 -71q0 -77 152 -80
l676 -8q550 -9 550 -314q0 -210 -236.5 -309.5t-737.5 -99.5q-453 0 -669 68.5t-216 209.5q0 88 70.5 140.5t216.5 72.5q-103 26 -161.5 85.5t-58.5 138.5q0 181 250 233q-221 93 -221 276q0 175 205 270t590 95zM1290 788q0 123 -360 123q-359 0 -359 -123q0 -62 87.5 -91
t271.5 -29q186 0 273 29t87 91zM625 0q-133 0 -133 -84q0 -57 100.5 -80.5t337.5 -23.5q206 0 326 14.5t164 40t44 65.5q0 68 -129 68h-710z" />
    <glyph glyph-name="Gdotaccent" unicode="&#x120;" horiz-adv-x="2476" 
d="M987 1552v373h451v-373h-451zM96 715q0 356 296.5 550.5t844.5 194.5q887 0 1042 -452l-473 -97q-46 103 -182 152t-387 49q-348 0 -513 -97.5t-165 -299.5q0 -200 164.5 -296.5t513.5 -96.5q254 0 401.5 46.5t198.5 141.5h-641v299h1118v-809h-350l-39 229
q-211 -256 -762 -256q-508 0 -787.5 194.5t-279.5 547.5z" />
    <glyph glyph-name="gdotaccent" unicode="&#x121;" horiz-adv-x="1970" 
d="M709 1245v373h450v-373h-450zM930 1153q426 0 633 -115q59 91 157.5 131t218.5 21l-18 -332q-101 23 -209 14q14 -38 14 -84q0 -175 -204.5 -268.5t-591.5 -93.5q-187 0 -318 20q-92 -15 -92 -71q0 -77 152 -80l676 -8q550 -9 550 -314q0 -210 -236.5 -309.5
t-737.5 -99.5q-453 0 -669 68.5t-216 209.5q0 88 70.5 140.5t216.5 72.5q-103 26 -161.5 85.5t-58.5 138.5q0 181 250 233q-221 93 -221 276q0 175 205 270t590 95zM1290 788q0 123 -360 123q-359 0 -359 -123q0 -62 87.5 -91t271.5 -29q186 0 273 29t87 91zM625 0
q-133 0 -133 -84q0 -57 100.5 -80.5t337.5 -23.5q206 0 326 14.5t164 40t44 65.5q0 68 -129 68h-710z" />
    <glyph glyph-name="Gcommaaccent" unicode="&#x122;" horiz-adv-x="2476" 
d="M96 715q0 356 296.5 550.5t844.5 194.5q887 0 1042 -452l-473 -97q-46 103 -182 152t-387 49q-348 0 -513 -97.5t-165 -299.5q0 -200 164.5 -296.5t513.5 -96.5q254 0 401.5 46.5t198.5 141.5h-641v299h1118v-809h-350l-39 229q-211 -256 -762 -256q-508 0 -787.5 194.5
t-279.5 547.5zM774 -410l164 293h498l-322 -293h-340z" />
    <glyph glyph-name="gcommaaccent" unicode="&#x123;" horiz-adv-x="1970" 
d="M1405 1552l-231 -307h-508l399 307h340zM930 1153q426 0 633 -115q59 91 157.5 131t218.5 21l-18 -332q-101 23 -209 14q14 -38 14 -84q0 -175 -204.5 -268.5t-591.5 -93.5q-187 0 -318 20q-92 -15 -92 -71q0 -77 152 -80l676 -8q550 -9 550 -314q0 -210 -236.5 -309.5
t-737.5 -99.5q-453 0 -669 68.5t-216 209.5q0 88 70.5 140.5t216.5 72.5q-103 26 -161.5 85.5t-58.5 138.5q0 181 250 233q-221 93 -221 276q0 175 205 270t590 95zM1290 788q0 123 -360 123q-359 0 -359 -123q0 -62 87.5 -91t271.5 -29q186 0 273 29t87 91zM625 0
q-133 0 -133 -84q0 -57 100.5 -80.5t337.5 -23.5q206 0 326 14.5t164 40t44 65.5q0 68 -129 68h-710z" />
    <glyph glyph-name="Hcircumflex" unicode="&#x124;" horiz-adv-x="2523" 
d="M1542 1552l-282 148l-269 -148h-336l361 332h518l346 -332h-338zM217 0v1434h453v-527h1181v527h455v-1434h-455v559h-1181v-559h-453z" />
    <glyph glyph-name="hcircumflex" unicode="&#x125;" horiz-adv-x="2052" 
d="M1071 1655l-283 147l-268 -147h-336l361 332h518l346 -332h-338zM184 0v1536h432v-641q109 121 275.5 189.5t363.5 68.5q308 0 467.5 -136t159.5 -396v-621h-432v535q0 138 -84.5 210t-249.5 72q-235 0 -367.5 -103t-132.5 -286v-428h-432z" />
    <glyph glyph-name="Hbar" unicode="&#x126;" horiz-adv-x="2523" 
d="M217 0v1083h-203v164h203v187h453v-187h1181v187h455v-187h203v-164h-203v-1083h-455v559h-1181v-559h-453zM670 907h1181v176h-1181v-176z" />
    <glyph glyph-name="hbar" unicode="&#x127;" horiz-adv-x="2052" 
d="M184 0v1233h-184v164h184v139h432v-139h474v-164h-474v-379q109 121 275.5 189.5t363.5 68.5q308 0 467.5 -136t159.5 -396v-580h-432v494q0 138 -84.5 210t-249.5 72q-235 0 -367.5 -103t-132.5 -286v-387h-432z" />
    <glyph glyph-name="Itilde" unicode="&#x128;" horiz-adv-x="888" 
d="M965 1898q14 -187 -61.5 -277.5t-221.5 -90.5q-84 0 -170.5 31t-154 61.5t-105.5 30.5q-33 0 -48.5 -26.5t-10.5 -74.5h-273q-15 189 63 281t230 92q57 0 124 -20t116.5 -43.5t100 -43.5t79.5 -20q33 0 48.5 26t10.5 74h273zM217 0v1434h453v-1434h-453z" />
    <glyph glyph-name="itilde" unicode="&#x129;" 
d="M920 1591q14 -187 -61.5 -277.5t-221.5 -90.5q-66 0 -135.5 19t-116.5 42.5t-96.5 42.5t-81.5 19q-33 0 -49 -26.5t-11 -74.5h-272q-15 189 63 281t230 92q72 0 158 -32t157 -63.5t105 -31.5q33 0 48.5 26t10.5 74h273zM184 0v1126h432v-1126h-432z" />
    <glyph glyph-name="Imacron" unicode="&#x12a;" horiz-adv-x="888" 
d="M-86 1554v275h1061v-275h-1061zM217 0v1434h453v-1434h-453z" />
    <glyph glyph-name="imacron" unicode="&#x12b;" 
d="M-131 1247v275h1061v-275h-1061zM184 0v1126h432v-1126h-432z" />
    <glyph glyph-name="Ibreve" unicode="&#x12c;" horiz-adv-x="888" 
d="M641 1884h344q0 -352 -536 -352q-545 0 -545 352h344q0 -131 201 -131q192 0 192 131zM217 0v1434h453v-1434h-453z" />
    <glyph glyph-name="ibreve" unicode="&#x12d;" 
d="M596 1577h344q0 -352 -537 -352q-544 0 -544 352h344q0 -131 200 -131q193 0 193 131zM184 0v1126h432v-1126h-432z" />
    <glyph glyph-name="Iogonek" unicode="&#x12e;" horiz-adv-x="888" 
d="M23 -201q0 174 194 250v1385h453v-1434q-113 -8 -179 -22t-90 -32t-24 -44q0 -60 133 -60q107 0 229 41l-8 -286q-149 -48 -317 -48q-189 0 -290 63.5t-101 186.5z" />
    <glyph glyph-name="iogonek" unicode="&#x12f;" 
d="M184 1245v318h432v-318h-432zM-33 -209q0 174 217 258v1077h432v-1126q-84 -6 -144.5 -18.5t-91 -29t-43.5 -32t-13 -31.5q0 -47 112 -47q108 0 248 41l-8 -286q-153 -48 -326 -48q-185 0 -284 61t-99 181z" />
    <glyph glyph-name="Idotaccent" unicode="&#x130;" horiz-adv-x="888" 
d="M219 1552v373h451v-373h-451zM217 0v1434h453v-1434h-453z" />
    <glyph glyph-name="dotlessi" unicode="&#x131;" 
d="M184 0v1126h432v-1126h-432z" />
    <glyph glyph-name="IJ" unicode="&#x132;" horiz-adv-x="2336" 
d="M217 0v1434h453v-1434h-453zM2144 633q0 -234 -76 -376.5t-247.5 -213t-456.5 -70.5q-205 0 -383 33l-14 346q177 -22 348 -22q213 0 295 65t82 223v816h452v-801z" />
    <glyph glyph-name="ij" unicode="&#x133;" horiz-adv-x="1597" 
d="M184 1245v318h432v-318h-432zM983 1245v318h432v-318h-432zM184 0v1126h432v-1126h-432zM983 76v1050h432v-1024q0 -289 -128.5 -413.5t-416.5 -124.5q-129 0 -252 18l-14 314q99 -13 160 -13q123 0 171 42.5t48 150.5z" />
    <glyph glyph-name="Jcircumflex" unicode="&#x134;" horiz-adv-x="1449" 
d="M1303 1552l-283 148l-268 -148h-336l360 332h518l346 -332h-337zM1255 633q0 -234 -76 -376.5t-247.5 -213t-456.5 -70.5q-205 0 -383 33l-14 346q177 -22 348 -22q213 0 295 65t82 223v816h452v-801z" />
    <glyph glyph-name="jcircumflex" unicode="&#x135;" 
d="M674 1245l-283 148l-268 -148h-336l360 332h519l346 -332h-338zM184 76v1050h432v-1024q0 -289 -128 -413.5t-416 -124.5q-129 0 -252 18l-15 314q99 -13 160 -13q123 0 171 42.5t48 150.5z" />
    <glyph glyph-name="Kcommaaccent" unicode="&#x136;" horiz-adv-x="2314" 
d="M217 0v1434h451v-617l936 617h665l-1022 -662l1096 -772h-723l-750 528l-202 -131v-397h-451zM741 -410l164 293h498l-322 -293h-340z" />
    <glyph glyph-name="kcommaaccent" unicode="&#x137;" horiz-adv-x="1898" 
d="M184 0v1536h430v-831l639 421h613l-781 -489l818 -637h-623l-530 422l-136 -90v-332h-430zM575 -410l164 293h498l-322 -293h-340z" />
    <glyph glyph-name="kgreenlandic" unicode="&#x138;" horiz-adv-x="1898" 
d="M184 0v1126h430v-421l639 421h613l-781 -489l818 -637h-623l-530 422l-136 -90v-332h-430z" />
    <glyph glyph-name="Lacute" unicode="&#x139;" horiz-adv-x="1898" 
d="M254 1552l358 332h570l-543 -332h-385zM217 0v1434h453v-1086h1140v-348h-1593z" />
    <glyph glyph-name="lacute" unicode="&#x13a;" 
d="M209 1655l358 332h570l-543 -332h-385zM616 0h-432v1536h432v-1536z" />
    <glyph glyph-name="Lcommaaccent" unicode="&#x13b;" horiz-adv-x="1898" 
d="M217 0v1434h453v-1086h1140v-348h-1593zM606 -410l164 293h498l-322 -293h-340z" />
    <glyph glyph-name="lcommaaccent" unicode="&#x13c;" 
d="M616 0h-432v1536h432v-1536zM-16 -410l163 293h498l-321 -293h-340z" />
    <glyph glyph-name="Lcaron" unicode="&#x13d;" horiz-adv-x="1898" 
d="M217 0v1434h453v-1086h1140v-348h-1593zM991 979v455h395l-122 -455h-273z" />
    <glyph glyph-name="lcaron" unicode="&#x13e;" horiz-adv-x="1075" 
d="M616 0h-432v1536h432v-1536zM799 1081v455h395l-123 -455h-272z" />
    <glyph glyph-name="Ldot" unicode="&#x13f;" horiz-adv-x="1898" 
d="M217 0v1434h453v-1086h1140v-348h-1593zM1159 641v381h467v-381h-467z" />
    <glyph glyph-name="ldot" unicode="&#x140;" horiz-adv-x="1277" 
d="M616 0h-432v1536h432v-1536zM805 594v381h467v-381h-467z" />
    <glyph glyph-name="Lslash" unicode="&#x141;" horiz-adv-x="1933" 
d="M252 0v590l-246 -74v199l246 73v646h453v-512l434 129v-197l-434 -129v-377h1140v-348h-1593z" />
    <glyph glyph-name="lslash" unicode="&#x142;" horiz-adv-x="921" 
d="M14 524v199l230 65v748h432v-623l231 68v-199l-231 -67v-715h-432v590z" />
    <glyph glyph-name="Nacute" unicode="&#x143;" horiz-adv-x="2463" 
d="M1049 1552l358 332h569l-542 -332h-385zM217 0v1434h438l1166 -975v975h426v-1434h-439l-1165 975v-975h-426z" />
    <glyph glyph-name="nacute" unicode="&#x144;" horiz-adv-x="2052" 
d="M836 1245l358 332h569l-542 -332h-385zM184 0v1126h389l31 -243q108 127 278.5 198.5t372.5 71.5q308 0 467.5 -136t159.5 -396v-621h-432v535q0 138 -84.5 210t-249.5 72q-235 0 -367.5 -103t-132.5 -286v-428h-432z" />
    <glyph glyph-name="Ncommaaccent" unicode="&#x145;" horiz-adv-x="2463" 
d="M217 0v1434h438l1166 -975v975h426v-1434h-439l-1165 975v-975h-426zM823 -410l164 293h498l-322 -293h-340z" />
    <glyph glyph-name="ncommaaccent" unicode="&#x146;" horiz-adv-x="2052" 
d="M184 0v1126h389l31 -243q108 127 278.5 198.5t372.5 71.5q308 0 467.5 -136t159.5 -396v-621h-432v535q0 138 -84.5 210t-249.5 72q-235 0 -367.5 -103t-132.5 -286v-428h-432zM637 -410l164 293h497l-321 -293h-340z" />
    <glyph glyph-name="Ncaron" unicode="&#x147;" horiz-adv-x="2463" 
d="M1851 1884l-360 -332h-518l-346 332h338l282 -147l271 147h333zM217 0v1434h438l1166 -975v975h426v-1434h-439l-1165 975v-975h-426z" />
    <glyph glyph-name="ncaron" unicode="&#x148;" horiz-adv-x="2052" 
d="M1638 1577l-360 -332h-518l-346 332h338l282 -147l271 147h333zM184 0v1126h389l31 -243q108 127 278.5 198.5t372.5 71.5q308 0 467.5 -136t159.5 -396v-621h-432v535q0 138 -84.5 210t-249.5 72q-235 0 -367.5 -103t-132.5 -286v-428h-432z" />
    <glyph glyph-name="napostrophe" unicode="&#x149;" horiz-adv-x="2052" 
d="M184 1245l164 293h498l-322 -293h-340zM184 0v1126h389l31 -243q108 127 278.5 198.5t372.5 71.5q308 0 467.5 -136t159.5 -396v-621h-432v535q0 138 -84.5 210t-249.5 72q-235 0 -367.5 -103t-132.5 -286v-428h-432z" />
    <glyph glyph-name="Eng" unicode="&#x14a;" horiz-adv-x="2463" 
d="M217 0v1434h438l1166 -967v967h426v-1233q0 -233 -74.5 -370.5t-241 -202t-450.5 -64.5q-204 0 -367 30l-14 334q200 -24 340 -24q148 0 230.5 29t117.5 94l-1145 950v-977h-426z" />
    <glyph glyph-name="eng" unicode="&#x14b;" horiz-adv-x="2052" 
d="M184 0v1126h389l31 -243q108 127 278.5 198.5t372.5 71.5q308 0 467.5 -136t159.5 -396v-519q0 -290 -127.5 -414t-415.5 -124q-131 0 -254 18l-12 314q99 -13 160 -13q121 0 169 43t48 150v459q0 138 -84.5 210t-249.5 72q-235 0 -367.5 -103t-132.5 -286v-428h-432z
" />
    <glyph glyph-name="Omacron" unicode="&#x14c;" horiz-adv-x="2465" 
d="M702 1554v275h1061v-275h-1061zM1233 -27q-545 0 -841 194.5t-296 547.5q0 356 296 550.5t841 194.5t841 -194.5t296 -550.5q0 -353 -296 -547.5t-841 -194.5zM1233 322q346 0 510 96.5t164 296.5q0 202 -164 299.5t-510 97.5t-510 -97.5t-164 -299.5q0 -200 164 -296.5
t510 -96.5z" />
    <glyph glyph-name="omacron" unicode="&#x14d;" horiz-adv-x="2029" 
d="M485 1247v275h1061v-275h-1061zM1016 -27q-444 0 -686 154t-242 436t242 436t686 154q445 0 685.5 -154t240.5 -436q0 -285 -239 -437.5t-687 -152.5zM1016 289q253 0 368 65.5t115 208.5t-115 209t-368 66t-369.5 -66t-116.5 -209t116.5 -208.5t369.5 -65.5z" />
    <glyph glyph-name="Obreve" unicode="&#x14e;" horiz-adv-x="2465" 
d="M1430 1884h344q0 -352 -537 -352q-545 0 -545 352h344q0 -131 201 -131q193 0 193 131zM1233 -27q-545 0 -841 194.5t-296 547.5q0 356 296 550.5t841 194.5t841 -194.5t296 -550.5q0 -353 -296 -547.5t-841 -194.5zM1233 322q346 0 510 96.5t164 296.5q0 202 -164 299.5
t-510 97.5t-510 -97.5t-164 -299.5q0 -200 164 -296.5t510 -96.5z" />
    <glyph glyph-name="obreve" unicode="&#x14f;" horiz-adv-x="2029" 
d="M1212 1577h344q0 -352 -536 -352q-545 0 -545 352h344q0 -131 201 -131q192 0 192 131zM1016 -27q-444 0 -686 154t-242 436t242 436t686 154q445 0 685.5 -154t240.5 -436q0 -285 -239 -437.5t-687 -152.5zM1016 289q253 0 368 65.5t115 208.5t-115 209t-368 66
t-369.5 -66t-116.5 -209t116.5 -208.5t369.5 -65.5z" />
    <glyph glyph-name="Ohungarumlaut" unicode="&#x150;" horiz-adv-x="2465" 
d="M764 1552l231 332h484l-371 -332h-344zM1331 1552l232 332h483l-371 -332h-344zM1233 -27q-545 0 -841 194.5t-296 547.5q0 356 296 550.5t841 194.5t841 -194.5t296 -550.5q0 -353 -296 -547.5t-841 -194.5zM1233 322q346 0 510 96.5t164 296.5q0 202 -164 299.5
t-510 97.5t-510 -97.5t-164 -299.5q0 -200 164 -296.5t510 -96.5z" />
    <glyph glyph-name="ohungarumlaut" unicode="&#x151;" horiz-adv-x="2029" 
d="M547 1245l231 332h484l-371 -332h-344zM1114 1245l232 332h483l-371 -332h-344zM1016 -27q-444 0 -686 154t-242 436t242 436t686 154q445 0 685.5 -154t240.5 -436q0 -285 -239 -437.5t-687 -152.5zM1016 289q253 0 368 65.5t115 208.5t-115 209t-368 66t-369.5 -66
t-116.5 -209t116.5 -208.5t369.5 -65.5z" />
    <glyph glyph-name="OE" unicode="&#x152;" horiz-adv-x="3608" 
d="M96 715q0 344 299 531.5t852 187.5h2235v-322h-1278v-221h1134v-320h-1134v-249h1292v-322h-2249q-552 0 -851.5 187t-299.5 528zM1247 322h516v790h-516q-354 0 -521 -97t-167 -300q0 -200 167.5 -296.5t520.5 -96.5z" />
    <glyph glyph-name="oe" unicode="&#x153;" horiz-adv-x="3411" 
d="M1012 -27q-442 0 -683 154t-241 436t241 436t683 154q476 0 719 -186q256 186 700 186q415 0 655 -150.5t240 -414.5q0 -76 -12 -123h-1358q35 -100 154.5 -147.5t334.5 -47.5q388 0 443 119l434 -76q-72 -179 -277.5 -259.5t-599.5 -80.5q-464 0 -714 183
q-251 -183 -719 -183zM2431 868q-202 0 -313.5 -40.5t-151.5 -129.5h911q-45 97 -153 133.5t-293 36.5zM1012 289q252 0 366.5 65.5t114.5 208.5t-115 209t-366 66t-366.5 -66t-115.5 -209t115 -208.5t367 -65.5z" />
    <glyph glyph-name="Racute" unicode="&#x154;" horiz-adv-x="2254" 
d="M938 1552l358 332h570l-543 -332h-385zM217 0v1434h1301q285 0 437 -126.5t152 -346.5q0 -190 -126 -315.5t-355 -149.5l553 -496h-592l-489 451h-428v-451h-453zM1436 1104h-766v-322h766q215 0 215 160q0 82 -52.5 122t-162.5 40z" />
    <glyph glyph-name="racute" unicode="&#x155;" horiz-adv-x="1398" 
d="M516 1245l358 332h570l-543 -332h-385zM184 0v1126h396l30 -276q109 142 282.5 222.5t379.5 80.5q44 0 90 -8l-14 -402q-92 25 -213 25q-246 0 -382.5 -99t-136.5 -278v-391h-432z" />
    <glyph glyph-name="Rcommaaccent" unicode="&#x156;" horiz-adv-x="2254" 
d="M217 0v1434h1301q285 0 437 -126.5t152 -346.5q0 -190 -126 -315.5t-355 -149.5l553 -496h-592l-489 451h-428v-451h-453zM1436 1104h-766v-322h766q215 0 215 160q0 82 -52.5 122t-162.5 40zM713 -410l164 293h497l-321 -293h-340z" />
    <glyph glyph-name="rcommaaccent" unicode="&#x157;" horiz-adv-x="1398" 
d="M184 0v1126h396l30 -276q109 142 282.5 222.5t379.5 80.5q44 0 90 -8l-14 -402q-92 25 -213 25q-246 0 -382.5 -99t-136.5 -278v-391h-432zM-16 -410l163 293h498l-321 -293h-340z" />
    <glyph glyph-name="Rcaron" unicode="&#x158;" horiz-adv-x="2254" 
d="M1741 1884l-361 -332h-518l-346 332h338l283 -147l270 147h334zM217 0v1434h1301q285 0 437 -126.5t152 -346.5q0 -190 -126 -315.5t-355 -149.5l553 -496h-592l-489 451h-428v-451h-453zM1436 1104h-766v-322h766q215 0 215 160q0 82 -52.5 122t-162.5 40z" />
    <glyph glyph-name="rcaron" unicode="&#x159;" horiz-adv-x="1398" 
d="M1339 1577l-360 -332h-518l-346 332h338l282 -147l271 147h333zM184 0v1126h396l30 -276q109 142 282.5 222.5t379.5 80.5q44 0 90 -8l-14 -402q-92 25 -213 25q-246 0 -382.5 -99t-136.5 -278v-391h-432z" />
    <glyph glyph-name="Sacute" unicode="&#x15a;" horiz-adv-x="2254" 
d="M924 1552l358 332h569l-542 -332h-385zM86 418l475 71q39 -99 174 -146.5t393 -47.5q214 0 341 14t179 41t52 70q0 41 -23 63t-88.5 35.5t-195.5 20.5l-641 24q-625 36 -625 418q0 233 249.5 356t747.5 123q439 0 686 -104.5t312 -315.5l-475 -71q-36 89 -159 129.5
t-368 40.5q-202 0 -319.5 -14t-164 -40t-46.5 -69q0 -55 58.5 -79.5t221.5 -33.5l668 -24q623 -39 623 -416q0 -490 -1037 -490q-904 0 -1038 445z" />
    <glyph glyph-name="sacute" unicode="&#x15b;" horiz-adv-x="1857" 
d="M731 1245l359 332h569l-543 -332h-385zM920 887q-211 0 -304.5 -22t-93.5 -70q0 -38 51 -54t191 -22l422 -14q319 -15 459.5 -92t140.5 -232q0 -408 -885 -408q-383 0 -577 79.5t-265 262.5l428 68q25 -73 123 -106t287 -33q252 0 356.5 20.5t104.5 67.5q0 39 -42 56.5
t-155 21.5l-424 16q-329 12 -481 97.5t-152 248.5q0 182 210 281.5t604 99.5q381 0 577.5 -76t261.5 -246l-414 -67q-25 67 -118 95t-305 28z" />
    <glyph glyph-name="Scircumflex" unicode="&#x15c;" horiz-adv-x="2254" 
d="M1389 1552l-283 148l-268 -148h-336l360 332h518l346 -332h-337zM86 418l475 71q39 -99 174 -146.5t393 -47.5q214 0 341 14t179 41t52 70q0 41 -23 63t-88.5 35.5t-195.5 20.5l-641 24q-625 36 -625 418q0 233 249.5 356t747.5 123q439 0 686 -104.5t312 -315.5
l-475 -71q-36 89 -159 129.5t-368 40.5q-202 0 -319.5 -14t-164 -40t-46.5 -69q0 -55 58.5 -79.5t221.5 -33.5l668 -24q623 -39 623 -416q0 -490 -1037 -490q-904 0 -1038 445z" />
    <glyph glyph-name="scircumflex" unicode="&#x15d;" horiz-adv-x="1857" 
d="M1204 1245l-282 148l-269 -148h-336l361 332h518l346 -332h-338zM920 887q-211 0 -304.5 -22t-93.5 -70q0 -38 51 -54t191 -22l422 -14q319 -15 459.5 -92t140.5 -232q0 -408 -885 -408q-383 0 -577 79.5t-265 262.5l428 68q25 -73 123 -106t287 -33q252 0 356.5 20.5
t104.5 67.5q0 39 -42 56.5t-155 21.5l-424 16q-329 12 -481 97.5t-152 248.5q0 182 210 281.5t604 99.5q381 0 577.5 -76t261.5 -246l-414 -67q-25 67 -118 95t-305 28z" />
    <glyph glyph-name="Scedilla" unicode="&#x15e;" horiz-adv-x="2254" 
d="M86 418l475 71q39 -99 174 -146.5t393 -47.5q214 0 341 14t179 41t52 70q0 41 -23 63t-88.5 35.5t-195.5 20.5l-641 24q-625 36 -625 418q0 233 249.5 356t747.5 123q439 0 686 -104.5t312 -315.5l-475 -71q-36 89 -159 129.5t-368 40.5q-202 0 -319.5 -14t-164 -40
t-46.5 -69q0 -55 58.5 -79.5t221.5 -33.5l668 -24q623 -39 623 -416q0 -451 -875 -486l-10 -59q76 12 156 12q303 0 303 -172q0 -104 -120 -156.5t-392 -52.5q-206 0 -394 45l11 166q212 -41 340 -41q77 0 118.5 6t54.5 15.5t13 26.5q0 36 -74 36q-57 0 -92 -22l-246 22
l31 172q-774 34 -899 443z" />
    <glyph glyph-name="scedilla" unicode="&#x15f;" horiz-adv-x="1857" 
d="M920 887q-211 0 -304.5 -22t-93.5 -70q0 -38 51 -54t191 -22l422 -14q319 -15 459.5 -92t140.5 -232q0 -370 -733 -404l-11 -59q76 12 156 12q303 0 303 -172q0 -104 -120 -156.5t-392 -52.5q-205 0 -393 45l10 166q212 -41 340 -41q77 0 118.5 6t55 15.5t13.5 26.5
q0 36 -74 36q-57 0 -92 -22l-246 22l31 174q-306 13 -467.5 93.5t-225.5 244.5l428 68q25 -73 123 -106t287 -33q252 0 356.5 20.5t104.5 67.5q0 39 -42 56.5t-155 21.5l-424 16q-329 12 -481 97.5t-152 248.5q0 182 210 281.5t604 99.5q381 0 577.5 -76t261.5 -246
l-414 -67q-25 67 -118 95t-305 28z" />
    <glyph glyph-name="Scaron" unicode="&#x160;" horiz-adv-x="2254" 
d="M1726 1884l-360 -332h-518l-346 332h338l282 -147l271 147h333zM86 418l475 71q39 -99 174 -146.5t393 -47.5q214 0 341 14t179 41t52 70q0 41 -23 63t-88.5 35.5t-195.5 20.5l-641 24q-625 36 -625 418q0 233 249.5 356t747.5 123q439 0 686 -104.5t312 -315.5l-475 -71
q-36 89 -159 129.5t-368 40.5q-202 0 -319.5 -14t-164 -40t-46.5 -69q0 -55 58.5 -79.5t221.5 -33.5l668 -24q623 -39 623 -416q0 -490 -1037 -490q-904 0 -1038 445z" />
    <glyph glyph-name="scaron" unicode="&#x161;" horiz-adv-x="1857" 
d="M1542 1577l-360 -332h-518l-347 332h338l283 -147l270 147h334zM920 887q-211 0 -304.5 -22t-93.5 -70q0 -38 51 -54t191 -22l422 -14q319 -15 459.5 -92t140.5 -232q0 -408 -885 -408q-383 0 -577 79.5t-265 262.5l428 68q25 -73 123 -106t287 -33q252 0 356.5 20.5
t104.5 67.5q0 39 -42 56.5t-155 21.5l-424 16q-329 12 -481 97.5t-152 248.5q0 182 210 281.5t604 99.5q381 0 577.5 -76t261.5 -246l-414 -67q-25 67 -118 95t-305 28z" />
    <glyph glyph-name="uni0162" unicode="&#x162;" horiz-adv-x="2101" 
d="M823 0v1085h-766v349h1985v-349h-766v-1085h-453zM635 -410l164 293h497l-321 -293h-340z" />
    <glyph glyph-name="uni0163" unicode="&#x163;" horiz-adv-x="1513" 
d="M281 492v325h-261v309h156q39 0 64 3t46.5 15.5t33.5 30.5t23.5 54t18.5 79.5t15 114.5h336v-297h700v-309h-700v-295q0 -133 63 -178t244 -45q213 0 407 43l-12 -322q-100 -21 -239 -34t-256 -13q-170 0 -287.5 26.5t-197.5 88t-117 160.5t-37 244zM406 -410l163 293
h498l-322 -293h-339z" />
    <glyph glyph-name="Tcaron" unicode="&#x164;" horiz-adv-x="2101" 
d="M1663 1884l-360 -332h-519l-346 332h338l283 -147l270 147h334zM823 0v1085h-766v349h1985v-349h-766v-1085h-453z" />
    <glyph glyph-name="tcaron" unicode="&#x165;" horiz-adv-x="1513" 
d="M825 1225v454h396l-123 -454h-273zM281 492v325h-261v309h156q39 0 64 3t46.5 15.5t33.5 30.5t23.5 54t18.5 79.5t15 114.5h336v-297h700v-309h-700v-295q0 -133 63 -178t244 -45q213 0 407 43l-12 -322q-100 -21 -239 -34t-256 -13q-170 0 -287.5 26.5t-197.5 88
t-117 160.5t-37 244z" />
    <glyph glyph-name="Tbar" unicode="&#x166;" horiz-adv-x="2101" 
d="M428 569v164h395v352h-766v349h1985v-349h-766v-352h393v-164h-393v-569h-453v569h-395z" />
    <glyph glyph-name="tbar" unicode="&#x167;" horiz-adv-x="1513" 
d="M41 479v164h240v174h-261v309h156q39 0 64 3t46.5 15.5t33.5 30.5t23.5 54t18.5 79.5t15 114.5h336v-297h700v-309h-700v-174h514v-164h-512q7 -106 72.5 -143t232.5 -37q213 0 407 43l-12 -322q-100 -21 -239 -34t-256 -13q-339 0 -489 114.5t-150 391.5h-240z" />
    <glyph glyph-name="Utilde" unicode="&#x168;" horiz-adv-x="2351" 
d="M1696 1898q14 -187 -61.5 -277.5t-221.5 -90.5q-84 0 -170.5 31t-154 61.5t-105.5 30.5q-33 0 -48.5 -26.5t-10.5 -74.5h-273q-15 189 63 281t230 92q57 0 124 -20t116.5 -43.5t100 -43.5t79.5 -20q33 0 48.5 26t10.5 74h273zM2177 739q0 -369 -259.5 -567.5
t-743.5 -198.5q-483 0 -742.5 198.5t-259.5 567.5v695h455v-680q0 -223 132 -327.5t415 -104.5q284 0 417 104.5t133 327.5v680h453v-695z" />
    <glyph glyph-name="utilde" unicode="&#x169;" horiz-adv-x="1990" 
d="M1516 1591q14 -187 -61.5 -277.5t-221.5 -90.5q-66 0 -135.5 19t-116.5 42.5t-96.5 42.5t-81.5 19q-33 0 -49 -26.5t-11 -74.5h-272q-15 189 63 281t230 92q72 0 158 -32t157 -63.5t105 -31.5q33 0 48.5 26t10.5 74h273zM1374 698v428h432v-1126h-389l-31 242
q-104 -126 -266.5 -197.5t-355.5 -71.5q-291 0 -442.5 137t-151.5 398v618h432v-540q0 -135 74 -205t217 -70q226 0 353.5 102t127.5 285z" />
    <glyph glyph-name="Umacron" unicode="&#x16a;" horiz-adv-x="2351" 
d="M645 1554v275h1061v-275h-1061zM2177 739q0 -369 -259.5 -567.5t-743.5 -198.5q-483 0 -742.5 198.5t-259.5 567.5v695h455v-680q0 -223 132 -327.5t415 -104.5q284 0 417 104.5t133 327.5v680h453v-695z" />
    <glyph glyph-name="umacron" unicode="&#x16b;" horiz-adv-x="1990" 
d="M465 1247v275h1061v-275h-1061zM1374 698v428h432v-1126h-389l-31 242q-104 -126 -266.5 -197.5t-355.5 -71.5q-291 0 -442.5 137t-151.5 398v618h432v-540q0 -135 74 -205t217 -70q226 0 353.5 102t127.5 285z" />
    <glyph glyph-name="Ubreve" unicode="&#x16c;" horiz-adv-x="2351" 
d="M1372 1884h344q0 -352 -536 -352q-545 0 -545 352h344q0 -131 201 -131q192 0 192 131zM2177 739q0 -369 -259.5 -567.5t-743.5 -198.5q-483 0 -742.5 198.5t-259.5 567.5v695h455v-680q0 -223 132 -327.5t415 -104.5q284 0 417 104.5t133 327.5v680h453v-695z" />
    <glyph glyph-name="ubreve" unicode="&#x16d;" horiz-adv-x="1990" 
d="M1192 1577h344q0 -352 -537 -352q-544 0 -544 352h344q0 -131 200 -131q193 0 193 131zM1374 698v428h432v-1126h-389l-31 242q-104 -126 -266.5 -197.5t-355.5 -71.5q-291 0 -442.5 137t-151.5 398v618h432v-540q0 -135 74 -205t217 -70q226 0 353.5 102t127.5 285z" />
    <glyph glyph-name="Uring" unicode="&#x16e;" horiz-adv-x="2351" 
d="M1178 1524q-180 0 -278.5 66.5t-98.5 187.5q0 120 98.5 185t278.5 65q179 0 275.5 -65t96.5 -185q0 -122 -97 -188t-275 -66zM1178 1677q170 0 170 101q0 96 -170 96q-174 0 -174 -96q0 -101 174 -101zM2177 739q0 -369 -259.5 -567.5t-743.5 -198.5q-483 0 -742.5 198.5
t-259.5 567.5v695h455v-680q0 -223 132 -327.5t415 -104.5q284 0 417 104.5t133 327.5v680h453v-695z" />
    <glyph glyph-name="uring" unicode="&#x16f;" horiz-adv-x="1990" 
d="M997 1217q-180 0 -278 66t-98 187q0 120 98 185t278 65q179 0 276 -65t97 -185q0 -121 -97 -187t-276 -66zM997 1370q170 0 170 100q0 97 -170 97q-174 0 -174 -97q0 -100 174 -100zM1374 698v428h432v-1126h-389l-31 242q-104 -126 -266.5 -197.5t-355.5 -71.5
q-291 0 -442.5 137t-151.5 398v618h432v-540q0 -135 74 -205t217 -70q226 0 353.5 102t127.5 285z" />
    <glyph glyph-name="Uhungarumlaut" unicode="&#x170;" horiz-adv-x="2351" 
d="M707 1552l231 332h483l-370 -332h-344zM1274 1552l231 332h484l-371 -332h-344zM2177 739q0 -369 -259.5 -567.5t-743.5 -198.5q-483 0 -742.5 198.5t-259.5 567.5v695h455v-680q0 -223 132 -327.5t415 -104.5q284 0 417 104.5t133 327.5v680h453v-695z" />
    <glyph glyph-name="uhungarumlaut" unicode="&#x171;" horiz-adv-x="1990" 
d="M526 1245l232 332h483l-371 -332h-344zM1094 1245l231 332h483l-370 -332h-344zM1374 698v428h432v-1126h-389l-31 242q-104 -126 -266.5 -197.5t-355.5 -71.5q-291 0 -442.5 137t-151.5 398v618h432v-540q0 -135 74 -205t217 -70q226 0 353.5 102t127.5 285z" />
    <glyph glyph-name="Uogonek" unicode="&#x172;" horiz-adv-x="2351" 
d="M1315 -451q-184 0 -281.5 58.5t-97.5 173.5q0 121 115 196q-425 25 -652 221.5t-227 540.5v695h455v-680q0 -223 132 -327.5t415 -104.5q284 0 417 104.5t133 327.5v680h453v-695q0 -236 -108.5 -404t-319.5 -257q-57 -26 -146 -50.5t-153 -39t-112 -39t-48 -55.5
q0 -28 24 -40t77 -12q105 0 245 41l-8 -286q-142 -48 -313 -48z" />
    <glyph glyph-name="uogonek" unicode="&#x173;" horiz-adv-x="1990" 
d="M1106 -217q0 96 69.5 166t233.5 117l-23 176q-104 -126 -266.5 -197.5t-355.5 -71.5q-291 0 -442.5 137t-151.5 398v618h432v-540q0 -135 74 -205t217 -70q226 0 353.5 102t127.5 285v428h432v-1124l2 -2q-101 -7 -171.5 -17.5t-108 -25t-53 -29.5t-15.5 -34
q0 -52 107 -52q101 0 241 41l-8 -286q-150 -48 -293 -48q-204 0 -302.5 57.5t-98.5 176.5z" />
    <glyph glyph-name="Wcircumflex" unicode="&#x174;" horiz-adv-x="3086" 
d="M1819 1552l-283 148l-268 -148h-336l360 332h518l347 -332h-338zM637 0l-633 1434h485l400 -961l436 961h436l453 -947l391 947h479l-630 -1434h-435l-479 999l-473 -999h-430z" />
    <glyph glyph-name="wcircumflex" unicode="&#x175;" horiz-adv-x="2678" 
d="M1614 1245l-283 148l-268 -148h-336l360 332h519l346 -332h-338zM586 0l-582 1126h469l332 -696l348 696h395l369 -686l313 686h447l-563 -1126h-377l-385 731l-387 -731h-379z" />
    <glyph glyph-name="Ycircumflex" unicode="&#x176;" horiz-adv-x="2091" 
d="M1321 1552l-283 148l-268 -148h-336l361 332h518l346 -332h-338zM823 0v543l-850 891h592l494 -533l502 533h557l-842 -889v-545h-453z" />
    <glyph glyph-name="ycircumflex" unicode="&#x177;" horiz-adv-x="1777" 
d="M1163 1245l-282 148l-269 -148h-336l361 332h518l346 -332h-338zM1305 1126h469l-650 -1106q-108 -181 -202 -276.5t-211.5 -137.5t-294.5 -42q-149 0 -273 37l-16 309q133 -19 219 -19q138 0 209.5 30t132.5 122l-684 1083h496l420 -708z" />
    <glyph glyph-name="Ydieresis" unicode="&#x178;" horiz-adv-x="2091" 
d="M1143 1552v332h469v-332h-469zM481 1552v332h469v-332h-469zM823 0v543l-850 891h592l494 -533l502 533h557l-842 -889v-545h-453z" />
    <glyph glyph-name="Zacute" unicode="&#x179;" horiz-adv-x="2125" 
d="M866 1552l359 332h569l-543 -332h-385zM100 0v309l1203 791h-1184v334h1906v-293l-1232 -809h1232v-332h-1925z" />
    <glyph glyph-name="zacute" unicode="&#x17a;" horiz-adv-x="1812" 
d="M715 1245l358 332h569l-542 -332h-385zM111 0v297l948 532h-940v297h1583v-297l-948 -532h952v-297h-1595z" />
    <glyph glyph-name="Zdotaccent" unicode="&#x17b;" horiz-adv-x="2125" 
d="M838 1552v373h450v-373h-450zM100 0v309l1203 791h-1184v334h1906v-293l-1232 -809h1232v-332h-1925z" />
    <glyph glyph-name="zdotaccent" unicode="&#x17c;" horiz-adv-x="1812" 
d="M680 1245v373h450v-373h-450zM111 0v297l948 532h-940v297h1583v-297l-948 -532h952v-297h-1595z" />
    <glyph glyph-name="Zcaron" unicode="&#x17d;" horiz-adv-x="2125" 
d="M1675 1884l-360 -332h-518l-346 332h337l283 -147l270 147h334zM100 0v309l1203 791h-1184v334h1906v-293l-1232 -809h1232v-332h-1925z" />
    <glyph glyph-name="zcaron" unicode="&#x17e;" horiz-adv-x="1812" 
d="M1518 1577l-361 -332h-518l-346 332h338l282 -147l271 147h334zM111 0v297l948 532h-940v297h1583v-297l-948 -532h952v-297h-1595z" />
    <glyph glyph-name="uni0191" unicode="&#x191;" horiz-adv-x="2111" 
d="M217 1434h1806v-349h-1353v-274h1210v-346h-1210v-256q0 -321 -165.5 -483t-506.5 -162q-120 0 -289 33l-14 346q142 -23 227 -23q161 0 228 63.5t67 225.5v1225z" />
    <glyph glyph-name="uni0192" unicode="&#x192;" horiz-adv-x="1394" 
d="M313 76v741h-282v309h282q11 224 174.5 330.5t497.5 106.5q186 0 387 -35l-14 -291q-164 25 -326 25q-153 0 -214.5 -29.5t-69.5 -106.5h618v-309h-621v-715q0 -290 -127 -414t-415 -124q-128 0 -254 18l-12 314q99 -13 159 -13q122 0 169.5 42.5t47.5 150.5z" />
    <glyph glyph-name="uni0218" unicode="&#x218;" horiz-adv-x="2254" 
d="M86 418l475 71q39 -99 174 -146.5t393 -47.5q214 0 341 14t179 41t52 70q0 41 -23 63t-88.5 35.5t-195.5 20.5l-641 24q-625 36 -625 418q0 233 249.5 356t747.5 123q439 0 686 -104.5t312 -315.5l-475 -71q-36 89 -159 129.5t-368 40.5q-202 0 -319.5 -14t-164 -40
t-46.5 -69q0 -55 58.5 -79.5t221.5 -33.5l668 -24q623 -39 623 -416q0 -490 -1037 -490q-904 0 -1038 445zM725 -410l164 293h497l-321 -293h-340z" />
    <glyph glyph-name="uni0219" unicode="&#x219;" horiz-adv-x="1857" 
d="M920 887q-211 0 -304.5 -22t-93.5 -70q0 -38 51 -54t191 -22l422 -14q319 -15 459.5 -92t140.5 -232q0 -408 -885 -408q-383 0 -577 79.5t-265 262.5l428 68q25 -73 123 -106t287 -33q252 0 356.5 20.5t104.5 67.5q0 39 -42 56.5t-155 21.5l-424 16q-329 12 -481 97.5
t-152 248.5q0 182 210 281.5t604 99.5q381 0 577.5 -76t261.5 -246l-414 -67q-25 67 -118 95t-305 28zM520 -410l164 293h498l-322 -293h-340z" />
    <glyph glyph-name="uni021A" unicode="&#x21a;" horiz-adv-x="2101" 
d="M823 0v1085h-766v349h1985v-349h-766v-1085h-453zM635 -410l164 293h497l-321 -293h-340z" />
    <glyph glyph-name="uni021B" unicode="&#x21b;" horiz-adv-x="1513" 
d="M281 492v325h-261v309h156q39 0 64 3t46.5 15.5t33.5 30.5t23.5 54t18.5 79.5t15 114.5h336v-297h700v-309h-700v-295q0 -133 63 -178t244 -45q213 0 407 43l-12 -322q-100 -21 -239 -34t-256 -13q-170 0 -287.5 26.5t-197.5 88t-117 160.5t-37 244zM406 -410l163 293
h498l-322 -293h-339z" />
    <glyph glyph-name="dotlessj" unicode="&#x237;" 
d="M184 76v1050h432v-1024q0 -289 -128 -413.5t-416 -124.5q-129 0 -252 18l-15 314q99 -13 160 -13q123 0 171 42.5t48 150.5z" />
    <glyph glyph-name="uni02BC" unicode="&#x2bc;" horiz-adv-x="825" 
d="M184 1434h459v-291q0 -245 -104.5 -350.5t-358.5 -112.5l-18 231q127 0 170 29t47 121h-195v373z" />
    <glyph glyph-name="circumflex" unicode="&#x2c6;" horiz-adv-x="1024" 
d="M786 1245l-282 148l-268 -148h-336l360 332h518l346 -332h-338z" />
    <glyph glyph-name="caron" unicode="&#x2c7;" horiz-adv-x="1024" 
d="M1124 1577l-360 -332h-518l-346 332h338l282 -147l271 147h333z" />
    <glyph glyph-name="breve" unicode="&#x2d8;" horiz-adv-x="1024" 
d="M709 1577h344q0 -352 -537 -352q-545 0 -545 352h344q0 -131 201 -131q193 0 193 131z" />
    <glyph glyph-name="dotaccent" unicode="&#x2d9;" horiz-adv-x="1024" 
d="M287 1245v373h450v-373h-450z" />
    <glyph glyph-name="ring" unicode="&#x2da;" horiz-adv-x="1024" 
d="M514 1217q-180 0 -278.5 66t-98.5 187q0 120 98.5 185t278.5 65q179 0 276 -65t97 -185q0 -121 -97 -187t-276 -66zM514 1370q170 0 170 100q0 97 -170 97q-174 0 -174 -97q0 -100 174 -100z" />
    <glyph glyph-name="ogonek" unicode="&#x2db;" horiz-adv-x="1024" 
d="M279 -217q0 62 27 111t90 92.5t174.5 76t271.5 54.5l139 -117q-101 -7 -171.5 -17.5t-108 -25t-53 -29.5t-15.5 -34q0 -52 106 -52q102 0 242 41l-8 -286q-150 -48 -293 -48q-204 0 -302.5 57.5t-98.5 176.5z" />
    <glyph glyph-name="tilde" unicode="&#x2dc;" horiz-adv-x="1024" 
d="M1032 1591q14 -187 -61 -277.5t-221 -90.5q-66 0 -135.5 19t-116.5 42.5t-97 42.5t-82 19q-33 0 -48.5 -26.5t-10.5 -74.5h-272q-15 189 63 281t230 92q72 0 158 -32t156.5 -63.5t104.5 -31.5t49.5 26t10.5 74h272z" />
    <glyph glyph-name="hungarumlaut" unicode="&#x2dd;" horiz-adv-x="1024" 
d="M43 1245l231 332h484l-371 -332h-344zM610 1245l232 332h483l-371 -332h-344z" />
    <glyph glyph-name="pi" unicode="&#x3c0;" horiz-adv-x="2168" 
d="M47 829v297h2075v-297h-240v-829h-446v829h-711v-829h-444v829h-234z" />
    <glyph glyph-name="uni0400" unicode="&#x400;" horiz-adv-x="2148" 
d="M1333 1556h-385l-542 332h569zM217 0v1434h1806v-322h-1366v-221h1223v-320h-1223v-249h1381v-322h-1821z" />
    <glyph glyph-name="afii10023" unicode="&#x401;" horiz-adv-x="2148" 
d="M1221 1556v332h469v-332h-469zM559 1556v332h469v-332h-469zM217 0v1434h1806v-322h-1366v-221h1223v-320h-1223v-249h1381v-322h-1821z" />
    <glyph glyph-name="afii10051" unicode="&#x402;" horiz-adv-x="2799" 
d="M823 0v1085h-766v349h1985v-349h-766v-430q121 129 313 199t434 70q296 0 461.5 -121t165.5 -338v-37q0 -455 -616 -455q-173 0 -318 33l-14 301q129 -22 264 -22q234 0 234 143v16q0 168 -308 168q-161 0 -303 -48.5t-227.5 -131t-85.5 -176.5v-256h-453z" />
    <glyph glyph-name="afii10052" unicode="&#x403;" horiz-adv-x="1945" 
d="M809 1563l358 331h570l-543 -331h-385zM217 0v1434h1657v-349h-1204v-1085h-453z" />
    <glyph glyph-name="afii10053" unicode="&#x404;" horiz-adv-x="2344" 
d="M96 717q0 351 294.5 547t826.5 196q439 0 703.5 -126t336.5 -371l-479 -95q-40 124 -176.5 184t-384.5 60q-510 0 -623 -229h932v-303h-944q47 -131 203.5 -194.5t431.5 -63.5q254 0 391.5 61.5t171.5 189.5l473 -90q-72 -253 -334 -381.5t-702 -128.5q-537 0 -829 196.5
t-292 547.5z" />
    <glyph glyph-name="afii10054" unicode="&#x405;" horiz-adv-x="2254" 
d="M86 418l475 71q39 -99 174 -146.5t393 -47.5q214 0 341 14t179 41t52 70q0 41 -23 63t-88.5 35.5t-195.5 20.5l-641 24q-625 36 -625 418q0 233 249.5 356t747.5 123q439 0 686 -104.5t312 -315.5l-475 -71q-36 89 -159 129.5t-368 40.5q-202 0 -319.5 -14t-164 -40
t-46.5 -69q0 -55 58.5 -79.5t221.5 -33.5l668 -24q623 -39 623 -416q0 -490 -1037 -490q-904 0 -1038 445z" />
    <glyph glyph-name="afii10055" unicode="&#x406;" horiz-adv-x="888" 
d="M217 0v1434h453v-1434h-453z" />
    <glyph glyph-name="afii10056" unicode="&#x407;" horiz-adv-x="888" 
d="M541 1552v332h469v-332h-469zM-121 1552v332h469v-332h-469zM217 0v1434h453v-1434h-453z" />
    <glyph glyph-name="afii10057" unicode="&#x408;" horiz-adv-x="1449" 
d="M1255 633q0 -234 -76 -376.5t-247.5 -213t-456.5 -70.5q-205 0 -383 33l-14 346q177 -22 348 -22q213 0 295 65t82 223v816h452v-801z" />
    <glyph glyph-name="afii10058" unicode="&#x409;" horiz-adv-x="3713" 
d="M0 348q106 3 177 30t114 91q58 84 75 221t29 502l8 242h1772v-418h879q267 0 425 -138t158 -370t-158 -370t-425 -138h-1332v1085h-876q-7 -193 -17.5 -314.5t-32 -234.5t-58 -191.5t-93.5 -145.5q-102 -121 -243.5 -172t-368.5 -45zM2978 682h-803v-348h803
q205 0 205 174t-205 174z" />
    <glyph glyph-name="afii10059" unicode="&#x40a;" horiz-adv-x="3942" 
d="M217 0v1434h453v-502h1194v502h452v-500h973q263 0 420.5 -127t157.5 -340t-157.5 -340t-420.5 -127h-1425v586h-1194v-586h-453zM3219 604h-903v-274h903q99 0 145 34t46 103t-46 103t-145 34z" />
    <glyph glyph-name="afii10060" unicode="&#x40b;" horiz-adv-x="2760" 
d="M823 0v1085h-766v349h1985v-349h-766v-434q112 119 281.5 185.5t371.5 66.5q327 0 495.5 -138.5t168.5 -397.5v-367h-453v270q0 297 -350 297q-242 0 -378 -104t-136 -287v-176h-453z" />
    <glyph glyph-name="afii10061" unicode="&#x40c;" horiz-adv-x="2289" 
d="M881 1563l358 331h569l-542 -331h-385zM217 0v1434h451v-598l944 598h676l-1094 -672l1124 -762h-723l-927 629v-629h-451z" />
    <glyph glyph-name="uni040D" unicode="&#x40d;" horiz-adv-x="2482" 
d="M1479 1563h-385l-543 331h569zM217 0v1434h447v-947l1155 947h446v-1434h-446v946l-1155 -946h-447z" />
    <glyph glyph-name="afii10062" unicode="&#x40e;" horiz-adv-x="2115" 
d="M1282 1915h408q0 -203 -164.5 -317.5t-458.5 -114.5q-293 0 -458 114.5t-165 317.5h410q0 -77 57 -121.5t156 -44.5q100 0 157.5 44.5t57.5 121.5zM516 0l322 418l-852 1016h534l574 -680l518 680h518l-1086 -1434h-528z" />
    <glyph glyph-name="afii10145" unicode="&#x40f;" horiz-adv-x="2349" 
d="M217 0v1434h453v-1086h1007v1086h455v-1434h-741v-354h-433v354h-741z" />
    <glyph glyph-name="afii10017" unicode="&#x410;" horiz-adv-x="2383" 
d="M1864 0l-166 258h-1030l-166 -258h-502l958 1434h467l959 -1434h-520zM877 582h612l-305 477z" />
    <glyph glyph-name="afii10018" unicode="&#x411;" horiz-adv-x="2275" 
d="M217 0v1434h1815v-334h-1379v-201h975q243 0 382.5 -120.5t139.5 -327.5q0 -210 -140 -330.5t-384 -120.5h-1409zM1554 575h-901v-251h901q152 0 152 125q0 126 -152 126z" />
    <glyph glyph-name="afii10019" unicode="&#x412;" horiz-adv-x="2367" 
d="M217 0v1434h1423q248 0 392.5 -98t144.5 -271q0 -107 -65.5 -191.5t-196.5 -134.5q160 -39 241.5 -129t81.5 -217q0 -186 -144.5 -289.5t-405.5 -103.5h-1471zM1548 1133h-886v-261h886q172 0 172 129q0 132 -172 132zM1585 569h-923v-268h921q95 0 140.5 32.5
t45.5 100.5q0 69 -45 102t-139 33z" />
    <glyph glyph-name="afii10020" unicode="&#x413;" horiz-adv-x="1945" 
d="M217 0v1434h1657v-349h-1204v-1085h-453z" />
    <glyph glyph-name="afii10021" unicode="&#x414;" horiz-adv-x="2516" 
d="M33 -354v702h160q84 56 130 148t70 262t31 467l6 209h1749v-1086h238v-702h-432v354h-1520v-354h-432zM768 506q-39 -92 -96 -158h1059v737h-875q-6 -208 -26 -341.5t-62 -237.5z" />
    <glyph glyph-name="afii10022" unicode="&#x415;" horiz-adv-x="2148" 
d="M217 0v1434h1806v-322h-1366v-221h1223v-320h-1223v-249h1381v-322h-1821z" />
    <glyph glyph-name="afii10024" unicode="&#x416;" horiz-adv-x="3133" 
d="M1341 0v662l-747 -662h-621l906 788l-875 646h604l733 -582v582h449v-576l733 576h606l-874 -639l905 -795h-620l-750 666v-666h-449z" />
    <glyph glyph-name="afii10025" unicode="&#x417;" horiz-adv-x="2359" 
d="M2232 422q0 -228 -271.5 -338.5t-827.5 -110.5q-467 0 -713 115t-307 352l475 90q29 -125 158.5 -182t386.5 -57q303 0 443 37.5t140 115.5q0 64 -56.5 93.5t-191.5 29.5h-677v314h643q146 0 207 30t61 95q0 139 -567 139q-250 0 -382 -54t-167 -171l-445 94
q128 446 992 446q1060 0 1060 -409q0 -115 -71.5 -188t-233.5 -120q174 -34 259 -113t85 -208z" />
    <glyph glyph-name="afii10026" unicode="&#x418;" horiz-adv-x="2482" 
d="M217 0v1434h447v-947l1155 947h446v-1434h-446v946l-1155 -946h-447z" />
    <glyph glyph-name="afii10027" unicode="&#x419;" horiz-adv-x="2482" 
d="M1485 1913h407q0 -203 -164 -317.5t-458 -114.5q-293 0 -458 114.5t-165 317.5h410q0 -77 57 -121.5t156 -44.5q100 0 157.5 44.5t57.5 121.5zM217 0v1434h447v-947l1155 947h446v-1434h-446v946l-1155 -946h-447z" />
    <glyph glyph-name="afii10028" unicode="&#x41a;" horiz-adv-x="2289" 
d="M217 0v1434h451v-598l944 598h676l-1094 -672l1124 -762h-723l-927 629v-629h-451z" />
    <glyph glyph-name="afii10029" unicode="&#x41b;" horiz-adv-x="2394" 
d="M0 348q106 3 177 30t114 91q58 84 75 221t29 502l8 242h1772v-1434h-453v1085h-876q-7 -193 -17.5 -314.5t-32 -234.5t-58 -191.5t-93.5 -145.5q-102 -121 -243.5 -172t-368.5 -45z" />
    <glyph glyph-name="afii10030" unicode="&#x41c;" horiz-adv-x="2902" 
d="M217 0v1434h467l770 -881l766 881h463v-1434h-438v903l-600 -713h-388l-600 697v-887h-440z" />
    <glyph glyph-name="afii10031" unicode="&#x41d;" horiz-adv-x="2523" 
d="M217 0v1434h453v-527h1181v527h455v-1434h-455v559h-1181v-559h-453z" />
    <glyph glyph-name="afii10032" unicode="&#x41e;" horiz-adv-x="2465" 
d="M1233 -27q-545 0 -841 194.5t-296 547.5q0 356 296 550.5t841 194.5t841 -194.5t296 -550.5q0 -353 -296 -547.5t-841 -194.5zM1233 322q346 0 510 96.5t164 296.5q0 202 -164 299.5t-510 97.5t-510 -97.5t-164 -299.5q0 -200 164 -296.5t510 -96.5z" />
    <glyph glyph-name="afii10033" unicode="&#x41f;" horiz-adv-x="2461" 
d="M217 0v1434h2028v-1434h-453v1085h-1122v-1085h-453z" />
    <glyph glyph-name="afii10034" unicode="&#x420;" horiz-adv-x="2226" 
d="M217 0v1434h1276q296 0 467.5 -144t171.5 -393t-173 -392t-474 -143h-815v-362h-453zM1413 1090h-743v-383h743q130 0 193 46.5t63 141.5q0 99 -63 147t-193 48z" />
    <glyph glyph-name="afii10035" unicode="&#x421;" horiz-adv-x="2344" 
d="M96 717q0 351 294.5 547t826.5 196q439 0 703.5 -126t336.5 -371l-479 -95q-40 124 -176.5 184t-384.5 60q-337 0 -497.5 -97.5t-160.5 -297.5q0 -202 159.5 -298.5t498.5 -96.5q254 0 391.5 61.5t171.5 189.5l473 -90q-72 -253 -334 -381.5t-702 -128.5
q-537 0 -829 196.5t-292 547.5z" />
    <glyph glyph-name="afii10036" unicode="&#x422;" horiz-adv-x="2101" 
d="M823 0v1085h-766v349h1985v-349h-766v-1085h-453z" />
    <glyph glyph-name="afii10037" unicode="&#x423;" horiz-adv-x="2115" 
d="M516 0l322 418l-852 1016h534l574 -680l518 680h518l-1086 -1434h-528z" />
    <glyph glyph-name="afii10038" unicode="&#x424;" horiz-adv-x="2703" 
d="M1118 -68v199h-157q-430 0 -657.5 156.5t-227.5 435.5t228.5 436.5t656.5 157.5h157v184h453v-184h172q428 0 656.5 -157.5t228.5 -436.5t-227.5 -435.5t-657.5 -156.5h-172v-199h-453zM2191 723q0 135 -97.5 200.5t-332.5 65.5h-194v-530h194q159 0 255.5 31.5t135.5 88
t39 144.5zM512 723q0 -88 39 -144.5t135.5 -88t255.5 -31.5h180v530h-180q-235 0 -332.5 -65.5t-97.5 -200.5z" />
    <glyph glyph-name="afii10039" unicode="&#x425;" horiz-adv-x="2091" 
d="M582 0h-584l754 725l-736 709h600l449 -447l432 447h574l-734 -705l756 -729h-598l-465 465z" />
    <glyph glyph-name="afii10040" unicode="&#x426;" horiz-adv-x="2424" 
d="M217 0v1434h453v-1086h1054v1086h453v-1086h197v-702h-432v354h-1725z" />
    <glyph glyph-name="afii10041" unicode="&#x427;" horiz-adv-x="2299" 
d="M182 987v447h453v-336q0 -170 97.5 -240t334.5 -70q138 0 260.5 15.5t300.5 56.5v574h453v-1434h-453v535q-380 -105 -682 -105q-399 0 -581.5 133.5t-182.5 423.5z" />
    <glyph glyph-name="afii10042" unicode="&#x428;" horiz-adv-x="3340" 
d="M217 0v1434h453v-1086h774v1086h452v-1086h773v1086h454v-1434h-2906z" />
    <glyph glyph-name="afii10043" unicode="&#x429;" horiz-adv-x="3371" 
d="M217 0v1434h453v-1086h774v1086h452v-1086h773v1086h454v-1086h197v-702h-432v354h-2671z" />
    <glyph glyph-name="afii10044" unicode="&#x42a;" horiz-adv-x="2480" 
d="M567 0v1100h-530v334h971v-418h813q267 0 425 -138t158 -370t-158 -370t-425 -138h-1254zM1745 682h-737v-348h737q205 0 205 174t-205 174z" />
    <glyph glyph-name="afii10045" unicode="&#x42b;" horiz-adv-x="3000" 
d="M2329 0v1434h452v-1434h-452zM217 0v1434h453v-418h878q267 0 425.5 -138t158.5 -370t-158.5 -370t-425.5 -138h-1331zM1473 682h-803v-348h803q104 0 154 43t50 131t-50 131t-154 43z" />
    <glyph glyph-name="afii10046" unicode="&#x42c;" horiz-adv-x="2207" 
d="M217 0v1434h453v-418h878q267 0 425.5 -138t158.5 -370t-158.5 -370t-425.5 -138h-1331zM1473 682h-803v-348h803q104 0 154 43t50 131t-50 131t-154 43z" />
    <glyph glyph-name="afii10047" unicode="&#x42d;" horiz-adv-x="2334" 
d="M557 889l-442 94q73 235 338 356t702 121q334 0 576.5 -85t374.5 -253.5t132 -404.5q0 -353 -286.5 -548.5t-800.5 -195.5q-455 0 -724 124.5t-339 371.5l467 90q35 -131 180 -193.5t416 -62.5q268 0 420 67.5t198 207.5h-940v303h932q-52 128 -201 188.5t-405 60.5
q-267 0 -412.5 -59t-185.5 -182z" />
    <glyph glyph-name="afii10048" unicode="&#x42e;" horiz-adv-x="3246" 
d="M217 0v1434h453v-525h231q75 266 360.5 408.5t751.5 142.5q545 0 841 -194.5t296 -550.5q0 -353 -296.5 -547.5t-840.5 -194.5q-487 0 -778 156.5t-348 445.5h-217v-575h-453zM2013 322q345 0 509.5 96.5t164.5 296.5q0 202 -164.5 299.5t-509.5 97.5q-346 0 -511 -97.5
t-165 -299.5q0 -200 165 -296.5t511 -96.5z" />
    <glyph glyph-name="afii10049" unicode="&#x42f;" horiz-adv-x="2293" 
d="M2077 0h-453v444h-428l-508 -444h-565l545 471q-242 26 -379 149.5t-137 319.5q0 227 165.5 360.5t448.5 133.5h1311v-1434zM842 762h782v354h-782q-228 0 -228 -176q0 -178 228 -178z" />
    <glyph glyph-name="afii10065" unicode="&#x430;" horiz-adv-x="1918" 
d="M94 805q71 182 267 265t565 83q436 0 622.5 -101.5t186.5 -334.5v-359q0 -40 16 -57.5t53 -17.5q30 0 60 6l-9 -285q-112 -31 -215 -31q-252 0 -303 213q-114 -101 -296.5 -157t-407.5 -56q-271 0 -419 90.5t-148 253.5q0 160 143.5 242.5t460.5 104.5l651 36
q-9 88 -99 125t-298 37q-196 0 -284.5 -30t-109.5 -99zM496 340q0 -52 55.5 -75t181.5 -23q169 0 305 30.5t212.5 84t76.5 120.5v2l-692 -47q-72 -6 -105.5 -28.5t-33.5 -63.5z" />
    <glyph glyph-name="afii10066" unicode="&#x431;" horiz-adv-x="2058" 
d="M1032 -27q-474 0 -704 175.5t-230 535.5v35q0 399 219 592.5t699 208.5l473 12q189 5 328 35l30 -305q-146 -42 -346 -45l-481 -11q-143 -4 -238 -24t-161.5 -65t-98.5 -117t-41 -181q95 112 283 174t424 62q778 0 778 -525q0 -262 -246.5 -409.5t-687.5 -147.5z
M1038 289q263 0 374.5 59t111.5 184q0 124 -111 183t-371 59q-261 0 -379 -60t-118 -182q0 -124 117.5 -183.5t375.5 -59.5z" />
    <glyph glyph-name="afii10067" unicode="&#x432;" horiz-adv-x="2019" 
d="M184 0v1126h1284q188 0 292 -73.5t104 -206.5q0 -99 -64 -163.5t-201 -104.5q328 -48 328 -285q0 -138 -115.5 -215.5t-324.5 -77.5h-1303zM1300 874h-702v-186h702q123 0 123 94q0 44 -31.5 68t-91.5 24zM1333 442h-735v-190h735q125 0 125 96q0 49 -30 71.5t-95 22.5z
" />
    <glyph glyph-name="afii10068" unicode="&#x433;" horiz-adv-x="1599" 
d="M184 0v1126h1385v-327h-953v-799h-432z" />
    <glyph glyph-name="afii10069" unicode="&#x434;" horiz-adv-x="2086" 
d="M37 -334v639h170q102 71 139 227t39 506l2 88h1450v-821h199v-639h-408v334h-1184v-334h-407zM731 449q-29 -79 -84 -144h780v524h-643q-6 -245 -53 -380z" />
    <glyph glyph-name="afii10070" unicode="&#x435;" horiz-adv-x="1996" 
d="M1020 -27q-441 0 -686.5 155t-245.5 435q0 273 244.5 431.5t673.5 158.5q278 0 482 -67t313.5 -195t109.5 -303q0 -74 -10 -123h-1375q35 -100 155.5 -147.5t338.5 -47.5q208 0 316.5 29t136.5 90l434 -76q-73 -178 -279.5 -259t-607.5 -81zM1008 868q-210 0 -324 -42
t-152 -134h934q-38 94 -146.5 135t-311.5 41z" />
    <glyph glyph-name="afii10072" unicode="&#x436;" horiz-adv-x="2646" 
d="M1104 0v487l-531 -487h-577l721 635l-701 491h576l512 -397v397h426v-407l526 407h576l-703 -491l723 -635h-579l-543 498v-498h-426z" />
    <glyph glyph-name="afii10073" unicode="&#x437;" horiz-adv-x="1939" 
d="M1851 328q0 -183 -225 -269t-690 -86q-398 0 -620.5 87.5t-258.5 281.5l437 84q14 -98 111 -140t331 -42q228 0 330 27t102 85q0 48 -48.5 69t-164.5 21h-457v256h453q209 0 209 86q0 52 -92 73.5t-330 21.5q-231 0 -330.5 -39.5t-118.5 -130.5l-411 84q83 356 860 356
q453 0 669 -76.5t216 -232.5q0 -101 -72.5 -163t-232.5 -97q172 -26 252.5 -88t80.5 -168z" />
    <glyph glyph-name="afii10074" unicode="&#x438;" horiz-adv-x="2070" 
d="M184 0v1126h428v-692l846 692h430v-1126h-430v692l-846 -692h-428z" />
    <glyph glyph-name="afii10075" unicode="&#x439;" horiz-adv-x="2070" 
d="M1255 1616h394q0 -128 -77.5 -216.5t-209.5 -130.5t-307 -42t-307 42t-209.5 130.5t-77.5 216.5h393q0 -70 52 -110t149 -40t148.5 40t51.5 110zM184 0v1126h428v-692l846 692h430v-1126h-430v692l-846 -692h-428z" />
    <glyph glyph-name="afii10076" unicode="&#x43a;" horiz-adv-x="1955" 
d="M184 0v1126h432v-432l707 432h612l-848 -501l875 -625h-639l-707 512v-512h-432z" />
    <glyph glyph-name="afii10077" unicode="&#x43b;" horiz-adv-x="1980" 
d="M31 291q147 6 213 86q46 55 62.5 158t19.5 323l2 268h1468v-1126h-432v799h-629q-2 -272 -43 -431.5t-133 -250.5q-76 -78 -199.5 -112.5t-308.5 -29.5z" />
    <glyph glyph-name="afii10078" unicode="&#x43c;" horiz-adv-x="2488" 
d="M602 0h-418v1126h471l592 -684l586 684h471v-1126h-418v692l-452 -542h-375l-457 538v-688z" />
    <glyph glyph-name="afii10079" unicode="&#x43d;" horiz-adv-x="2056" 
d="M184 0v1126h432v-358h826v358h432v-1126h-432v440h-826v-440h-432z" />
    <glyph glyph-name="afii10080" unicode="&#x43e;" horiz-adv-x="2029" 
d="M1016 -27q-444 0 -686 154t-242 436t242 436t686 154q445 0 685.5 -154t240.5 -436q0 -285 -239 -437.5t-687 -152.5zM1016 289q253 0 368 65.5t115 208.5t-115 209t-368 66t-369.5 -66t-116.5 -209t116.5 -208.5t369.5 -65.5z" />
    <glyph glyph-name="afii10081" unicode="&#x43f;" horiz-adv-x="2013" 
d="M184 0v1126h1645v-1126h-432v799h-781v-799h-432z" />
    <glyph glyph-name="afii10082" unicode="&#x440;" horiz-adv-x="2121" 
d="M580 1126l22 -204q107 110 280 170.5t390 60.5q357 0 559.5 -157t202.5 -433q0 -279 -201 -434.5t-561 -155.5q-210 0 -378.5 56t-277.5 159v-598h-432v1536h396zM1118 291q243 0 358 66.5t115 205.5t-115 206t-358 67q-246 0 -374 -70t-128 -203t127.5 -202.5
t374.5 -69.5z" />
    <glyph glyph-name="afii10083" unicode="&#x441;" horiz-adv-x="1947" 
d="M1894 737l-440 -88q-32 98 -138.5 143.5t-307.5 45.5q-248 0 -363 -66.5t-115 -208.5q0 -141 115 -207.5t363 -66.5q211 0 317.5 47t132.5 151l438 -86q-59 -207 -287 -317.5t-601 -110.5q-436 0 -678 155.5t-242 434.5t242 434.5t678 155.5q365 0 592 -106t294 -310z
" />
    <glyph glyph-name="afii10084" unicode="&#x442;" horiz-adv-x="1769" 
d="M668 0v799h-631v327h1696v-327h-633v-799h-432z" />
    <glyph glyph-name="afii10085" unicode="&#x443;" horiz-adv-x="1777" 
d="M1305 1126h469l-650 -1106q-108 -181 -202 -276.5t-211.5 -137.5t-294.5 -42q-149 0 -273 37l-16 309q133 -19 219 -19q138 0 209.5 30t132.5 122l-684 1083h496l420 -708z" />
    <glyph glyph-name="afii10086" unicode="&#x444;" horiz-adv-x="2424" 
d="M999 -410v383q-453 10 -683 161.5t-230 426.5q0 277 230 429.5t683 162.5v383h426v-383q453 -10 684.5 -162.5t231.5 -429.5q0 -274 -232 -426t-684 -162v-383h-426zM1919 561q0 149 -114 219.5t-380 77.5v-590q268 7 381 75.5t113 217.5zM506 561q0 -148 113 -217
t380 -76v590q-264 -7 -378.5 -78t-114.5 -219z" />
    <glyph glyph-name="afii10087" unicode="&#x445;" horiz-adv-x="1931" 
d="M571 0h-555l654 584l-623 542h563l365 -327l371 327h540l-639 -546l668 -580h-584l-383 356z" />
    <glyph glyph-name="afii10088" unicode="&#x446;" horiz-adv-x="2052" 
d="M184 0v1126h432v-798h768v798h433v-798h204v-662h-409v334h-1428z" />
    <glyph glyph-name="afii10089" unicode="&#x447;" horiz-adv-x="1888" 
d="M549 903q0 -139 73 -197.5t248 -58.5q207 0 404 72v407h430v-1126h-430v436q-270 -98 -539 -98q-618 0 -618 510v278h432v-223z" />
    <glyph glyph-name="afii10090" unicode="&#x448;" horiz-adv-x="2746" 
d="M184 0v1126h422v-798h557v798h422v-798h557v798h422v-1126h-2380z" />
    <glyph glyph-name="afii10091" unicode="&#x449;" horiz-adv-x="2797" 
d="M184 0v1126h422v-798h557v798h422v-798h557v798h422v-798h203v-662h-408v334h-2175z" />
    <glyph glyph-name="afii10092" unicode="&#x44a;" horiz-adv-x="2136" 
d="M465 0v813h-440v313h862v-292h643q253 0 391.5 -109.5t138.5 -306.5q0 -200 -138.5 -309t-391.5 -109h-1065zM1477 555h-590v-276h590q89 0 129.5 33t40.5 104q0 72 -40.5 105.5t-129.5 33.5z" />
    <glyph glyph-name="afii10093" unicode="&#x44b;" horiz-adv-x="2615" 
d="M1999 0v1126h432v-1126h-432zM184 0v1126h432v-292h717q253 0 392 -109.5t139 -306.5q0 -200 -139 -309t-392 -109h-1149zM1280 555h-664v-276h664q89 0 130.5 33t41.5 104q0 72 -41.5 105.5t-130.5 33.5z" />
    <glyph glyph-name="afii10094" unicode="&#x44c;" horiz-adv-x="1939" 
d="M184 0v1126h432v-292h717q253 0 392 -109.5t139 -306.5q0 -200 -139 -309t-392 -109h-1149zM1280 555h-664v-276h664q89 0 130.5 33t41.5 104q0 72 -41.5 105.5t-130.5 33.5z" />
    <glyph glyph-name="afii10095" unicode="&#x44d;" horiz-adv-x="1955" 
d="M475 684l-414 88q124 381 881 381q438 0 682 -156t244 -434t-244.5 -434t-681.5 -156q-407 0 -621 96.5t-270 295.5l420 86q29 -107 136.5 -149t334.5 -42q215 0 334 42.5t158 139.5h-729v258h720q-43 89 -160 127.5t-323 38.5q-220 0 -331 -40.5t-136 -141.5z" />
    <glyph glyph-name="afii10096" unicode="&#x44e;" horiz-adv-x="2729" 
d="M184 0v1126h432v-381h203q71 197 301 302.5t594 105.5q445 0 686.5 -154t241.5 -436q0 -284 -240 -437t-688 -153q-383 0 -616.5 115.5t-290.5 331.5h-191v-420h-432zM1714 289q253 0 369.5 65.5t116.5 208.5t-116.5 209t-369.5 66t-368 -66t-115 -209t115 -208.5
t368 -65.5z" />
    <glyph glyph-name="afii10097" unicode="&#x44f;" horiz-adv-x="1976" 
d="M96 741q0 184 144.5 284.5t408.5 100.5h1143v-1126h-426v352h-326l-432 -354l-530 2l477 393q-234 22 -346.5 107.5t-112.5 240.5zM684 625h682v231h-682q-89 0 -130.5 -28t-41.5 -87q0 -60 41 -88t131 -28z" />
    <glyph glyph-name="uni0450" unicode="&#x450;" horiz-adv-x="1996" 
d="M1194 1245h-385l-543 332h570zM1020 -27q-441 0 -686.5 155t-245.5 435q0 273 244.5 431.5t673.5 158.5q278 0 482 -67t313.5 -195t109.5 -303q0 -74 -10 -123h-1375q35 -100 155.5 -147.5t338.5 -47.5q208 0 316.5 29t136.5 90l434 -76q-73 -178 -279.5 -259t-607.5 -81
zM1008 868q-210 0 -324 -42t-152 -134h934q-38 94 -146.5 135t-311.5 41z" />
    <glyph glyph-name="afii10071" unicode="&#x451;" horiz-adv-x="1996" 
d="M1096 1245v332h469v-332h-469zM434 1245v332h469v-332h-469zM1020 -27q-441 0 -686.5 155t-245.5 435q0 273 244.5 431.5t673.5 158.5q278 0 482 -67t313.5 -195t109.5 -303q0 -74 -10 -123h-1375q35 -100 155.5 -147.5t338.5 -47.5q208 0 316.5 29t136.5 90l434 -76
q-73 -178 -279.5 -259t-607.5 -81zM1008 868q-210 0 -324 -42t-152 -134h934q-38 94 -146.5 135t-311.5 41z" />
    <glyph glyph-name="afii10099" unicode="&#x452;" horiz-adv-x="2078" 
d="M223 0v1040h-207v287h207v209h432v-209h504v-287h-504v-352q109 123 274.5 191.5t362.5 68.5q307 0 465 -136t158 -396v-310q0 -293 -125 -417.5t-418 -124.5q-131 0 -254 18l-12 314q89 -13 160 -13q123 0 171 42.5t48 150.5v254q0 138 -84.5 210t-247.5 72
q-233 0 -365.5 -103t-132.5 -286v-223h-432z" />
    <glyph glyph-name="afii10100" unicode="&#x453;" horiz-adv-x="1599" 
d="M621 1245l358 332h569l-542 -332h-385zM184 0v1126h1385v-327h-953v-799h-432z" />
    <glyph glyph-name="afii10101" unicode="&#x454;" horiz-adv-x="1959" 
d="M1266 692v-246h-740q79 -186 475 -186q216 0 328 44t141 142l439 -86q-60 -189 -292.5 -288t-615.5 -99q-431 0 -672 156.5t-241 433.5t241 433.5t672 156.5q380 0 610.5 -95.5t293.5 -279.5l-439 -88q-35 91 -148 133.5t-317 42.5q-388 0 -471 -174h736z" />
    <glyph glyph-name="afii10102" unicode="&#x455;" horiz-adv-x="1857" 
d="M920 887q-211 0 -304.5 -22t-93.5 -70q0 -38 51 -54t191 -22l422 -14q319 -15 459.5 -92t140.5 -232q0 -408 -885 -408q-383 0 -577 79.5t-265 262.5l428 68q25 -73 123 -106t287 -33q252 0 356.5 20.5t104.5 67.5q0 39 -42 56.5t-155 21.5l-424 16q-329 12 -481 97.5
t-152 248.5q0 182 210 281.5t604 99.5q381 0 577.5 -76t261.5 -246l-414 -67q-25 67 -118 95t-305 28z" />
    <glyph glyph-name="afii10103" unicode="&#x456;" 
d="M184 1245v318h432v-318h-432zM184 0v1126h432v-1126h-432z" />
    <glyph glyph-name="afii10104" unicode="&#x457;" 
d="M-10 1245v332h352v-332h-352zM457 1245v332h352v-332h-352zM184 0v1126h432v-1126h-432z" />
    <glyph glyph-name="afii10105" unicode="&#x458;" 
d="M184 1245v318h432v-318h-432zM184 76v1050h432v-1024q0 -289 -128 -413.5t-416 -124.5q-129 0 -252 18l-15 314q99 -13 160 -13q123 0 171 42.5t48 150.5z" />
    <glyph glyph-name="afii10106" unicode="&#x459;" horiz-adv-x="3119" 
d="M31 291q147 6 213 86q46 55 62.5 158t19.5 323l2 268h1468v-295h717q253 0 391.5 -109t138.5 -306q0 -200 -138.5 -309t-391.5 -109h-1149v801h-629q-2 -272 -43 -431.5t-133 -250.5q-76 -78 -199.5 -112.5t-308.5 -29.5zM2460 553h-664v-277h664q89 0 130.5 33.5
t41.5 104.5q0 72 -41.5 105.5t-130.5 33.5z" />
    <glyph glyph-name="afii10107" unicode="&#x45a;" horiz-adv-x="3229" 
d="M184 0v1126h432v-356h826v356h432v-354h782q238 0 369 -100.5t131 -282.5q0 -186 -131 -287.5t-369 -101.5h-1214v444h-826v-444h-432zM2595 494h-721v-215h721q77 0 112 26t35 84q0 54 -35.5 79.5t-111.5 25.5z" />
    <glyph glyph-name="afii10108" unicode="&#x45b;" horiz-adv-x="2082" 
d="M223 0v1040h-207v287h207v209h432v-209h504v-287h-504v-352q107 123 273 191.5t364 68.5q305 0 464 -136t159 -396v-416h-430v330q0 138 -84.5 210t-247.5 72q-233 0 -365.5 -103t-132.5 -286v-223h-432z" />
    <glyph glyph-name="afii10109" unicode="&#x45c;" horiz-adv-x="1955" 
d="M713 1245l358 332h569l-542 -332h-385zM184 0v1126h432v-432l707 432h612l-848 -501l875 -625h-639l-707 512v-512h-432z" />
    <glyph glyph-name="uni045D" unicode="&#x45d;" horiz-adv-x="2070" 
d="M1270 1245h-385l-543 332h569zM184 0v1126h428v-692l846 692h430v-1126h-430v692l-846 -692h-428z" />
    <glyph glyph-name="afii10110" unicode="&#x45e;" horiz-adv-x="1777" 
d="M1112 1616h393q0 -183 -156.5 -286t-437.5 -103t-437.5 103t-156.5 286h394q0 -71 52.5 -110.5t147.5 -39.5t148 39.5t53 110.5zM1305 1126h469l-650 -1106q-108 -181 -202 -276.5t-211.5 -137.5t-294.5 -42q-149 0 -273 37l-16 309q133 -19 219 -19q138 0 209.5 30
t132.5 122l-684 1083h496l420 -708z" />
    <glyph glyph-name="afii10193" unicode="&#x45f;" horiz-adv-x="2031" 
d="M184 0v1126h432v-798h799v798h432v-1126h-626v-334h-410v334h-627z" />
    <glyph glyph-name="afii10146" unicode="&#x462;" horiz-adv-x="2283" 
d="M315 0v1022h-284v274h284v138h435v-138h677v-274h-677v-160h927q249 0 392 -115t143 -313q0 -201 -143 -317.5t-392 -116.5h-1362zM1612 555h-862v-248h862q155 0 155 123q0 125 -155 125z" />
    <glyph glyph-name="afii10194" unicode="&#x463;" horiz-adv-x="1910" 
d="M244 0v1004h-221v272h221v260h424v-260h483v-272h-483v-211h637q254 0 393 -105t139 -293q0 -189 -139 -292t-393 -103h-1061zM1257 520h-589v-248h589q86 0 126 30t40 93q0 65 -40 95t-126 30z" />
    <glyph glyph-name="afii10147" unicode="&#x472;" horiz-adv-x="2519" 
d="M1233 -27q-545 0 -841 194.5t-296 547.5q0 356 296 550.5t841 194.5t841 -194.5t296 -550.5q0 -353 -296 -547.5t-841 -194.5zM1233 1124q-279 0 -442.5 -59t-223.5 -182h1331q-60 123 -223 182t-442 59zM1233 309q288 0 454 63.5t220 194.5h-1348q54 -131 220 -194.5
t454 -63.5z" />
    <glyph glyph-name="afii10195" unicode="&#x473;" horiz-adv-x="2029" 
d="M1016 -27q-444 0 -686 154t-242 436t242 436t686 154q445 0 685.5 -154t240.5 -436q0 -285 -239 -437.5t-687 -152.5zM1016 852q-209 0 -326 -44t-155 -138h960q-37 93 -154 137.5t-325 44.5zM1016 274q204 0 320.5 43t156.5 134h-956q40 -91 156.5 -134t322.5 -43z" />
    <glyph glyph-name="afii10148" unicode="&#x474;" horiz-adv-x="2203" 
d="M854 0l-862 1434h522l580 -1004l379 641q131 224 247.5 306.5t307.5 82.5q57 0 131 -12l16 -379q-118 12 -184 -21t-129 -133l-543 -915h-465z" />
    <glyph glyph-name="afii10196" unicode="&#x475;" horiz-adv-x="1822" 
d="M727 0l-723 1126h498l424 -723l254 451q100 170 195.5 234.5t238.5 64.5q79 0 145 -16l13 -338q-97 9 -143 -13t-99 -102l-428 -684h-375z" />
    <glyph glyph-name="afii10050" unicode="&#x490;" horiz-adv-x="1945" 
d="M217 0v1434h1225v313h432v-662h-1204v-1085h-453z" />
    <glyph glyph-name="afii10098" unicode="&#x491;" horiz-adv-x="1599" 
d="M184 0v1126h975v295h410v-622h-953v-799h-432z" />
    <glyph glyph-name="Wgrave" unicode="&#x1e80;" horiz-adv-x="3086" 
d="M1735 1552h-385l-543 332h569zM637 0l-633 1434h485l400 -961l436 961h436l453 -947l391 947h479l-630 -1434h-435l-479 999l-473 -999h-430z" />
    <glyph glyph-name="wgrave" unicode="&#x1e81;" horiz-adv-x="2678" 
d="M1530 1245h-385l-543 332h569zM586 0l-582 1126h469l332 -696l348 696h395l369 -686l313 686h447l-563 -1126h-377l-385 731l-387 -731h-379z" />
    <glyph glyph-name="Wacute" unicode="&#x1e82;" horiz-adv-x="3086" 
d="M1354 1552l358 332h569l-542 -332h-385zM637 0l-633 1434h485l400 -961l436 961h436l453 -947l391 947h479l-630 -1434h-435l-479 999l-473 -999h-430z" />
    <glyph glyph-name="wacute" unicode="&#x1e83;" horiz-adv-x="2678" 
d="M1149 1245l358 332h570l-543 -332h-385zM586 0l-582 1126h469l332 -696l348 696h395l369 -686l313 686h447l-563 -1126h-377l-385 731l-387 -731h-379z" />
    <glyph glyph-name="Wdieresis" unicode="&#x1e84;" horiz-adv-x="3086" 
d="M1640 1552v332h469v-332h-469zM979 1552v332h469v-332h-469zM637 0l-633 1434h485l400 -961l436 961h436l453 -947l391 947h479l-630 -1434h-435l-479 999l-473 -999h-430z" />
    <glyph glyph-name="wdieresis" unicode="&#x1e85;" horiz-adv-x="2678" 
d="M1436 1245v332h469v-332h-469zM774 1245v332h469v-332h-469zM586 0l-582 1126h469l332 -696l348 696h395l369 -686l313 686h447l-563 -1126h-377l-385 731l-387 -731h-379z" />
    <glyph glyph-name="uni1E9E" unicode="&#x1e9e;" horiz-adv-x="2658" 
d="M197 0v772q0 343 243.5 515.5t747.5 172.5q405 0 817 -47v-313l-307 -232l344 -18q158 -12 267 -44t171.5 -84.5t89.5 -117.5t27 -151q0 -480 -965 -480q-475 0 -794 111l114 322q260 -105 635 -105q169 0 282 10t170.5 29.5t80 42.5t22.5 55q0 49 -37 70t-129 27
l-766 36v267l363 276q-175 8 -387 8q-289 0 -413 -83t-124 -271v-768h-452z" />
    <glyph glyph-name="Ygrave" unicode="&#x1ef2;" horiz-adv-x="2091" 
d="M1237 1552h-385l-543 332h570zM823 0v543l-850 891h592l494 -533l502 533h557l-842 -889v-545h-453z" />
    <glyph glyph-name="ygrave" unicode="&#x1ef3;" horiz-adv-x="1777" 
d="M1079 1245h-385l-542 332h569zM1305 1126h469l-650 -1106q-108 -181 -202 -276.5t-211.5 -137.5t-294.5 -42q-149 0 -273 37l-16 309q133 -19 219 -19q138 0 209.5 30t132.5 122l-684 1083h496l420 -708z" />
    <glyph glyph-name="endash" unicode="&#x2013;" horiz-adv-x="1697" 
d="M92 436v350h1514v-350h-1514z" />
    <glyph glyph-name="emdash" unicode="&#x2014;" horiz-adv-x="3393" 
d="M92 436v350h3209v-350h-3209z" />
    <glyph glyph-name="quoteleft" unicode="&#x2018;" horiz-adv-x="825" 
d="M631 678h-459v293q0 244 104.5 350t358.5 113l18 -234q-127 0 -170 -28.5t-47 -118.5h195v-375z" />
    <glyph glyph-name="quoteright" unicode="&#x2019;" horiz-adv-x="825" 
d="M195 1434h458v-291q0 -246 -104.5 -352t-358.5 -113l-18 233q128 0 171.5 29t47.5 121h-196v373z" />
    <glyph glyph-name="quotesinglbase" unicode="&#x201a;" horiz-adv-x="825" 
d="M184 373h459v-291q0 -245 -104.5 -350.5t-358.5 -112.5l-18 231q127 0 170 29t47 121h-195v373z" />
    <glyph glyph-name="quotedblleft" unicode="&#x201c;" horiz-adv-x="1468" 
d="M172 678v293q0 244 104.5 350t358.5 113l18 -234q-127 0 -170 -28.5t-47 -118.5h195v-375h-459zM815 678v293q0 244 104.5 350t358.5 113l18 -234q-127 0 -171 -28.5t-48 -118.5h197v-375h-459z" />
    <glyph glyph-name="quotedblright" unicode="&#x201d;" horiz-adv-x="1468" 
d="M195 1434h458v-291q0 -246 -104.5 -352t-358.5 -113l-18 233q128 0 171.5 29t47.5 121h-196v373zM838 1434h458v-291q0 -246 -104 -352t-358 -113l-19 233q127 0 170 29t47 121h-194v373z" />
    <glyph glyph-name="quotedblbase" unicode="&#x201e;" horiz-adv-x="1468" 
d="M184 373h459v-291q0 -245 -104.5 -350.5t-358.5 -112.5l-18 231q127 0 170 29t47 121h-195v373zM825 373h459v-291q0 -246 -104 -351t-359 -112l-16 231q127 0 170 29t47 121h-197v373z" />
    <glyph glyph-name="dagger" unicode="&#x2020;" horiz-adv-x="1617" 
d="M1509 768h-495v-1075h-410v1075h-495v358h495v410h410v-410h495v-358z" />
    <glyph glyph-name="daggerdbl" unicode="&#x2021;" horiz-adv-x="1693" 
d="M145 461h496v307h-496v358h496v410h412v-410h495v-358h-495v-307h495v-359h-495v-409h-412v409h-496v359z" />
    <glyph glyph-name="bullet" unicode="&#x2022;" horiz-adv-x="860" 
d="M170 432v526h520v-526h-520z" />
    <glyph glyph-name="ellipsis" unicode="&#x2026;" horiz-adv-x="2418" 
d="M184 0v373h459v-373h-459zM981 0v373h459v-373h-459zM1778 0v373h458v-373h-458z" />
    <glyph glyph-name="perthousand" unicode="&#x2030;" horiz-adv-x="3704" 
d="M688 709q-285 0 -438.5 101t-153.5 271q0 169 154 271t438 102t438 -101.5t154 -271.5q0 -169 -154.5 -270.5t-437.5 -101.5zM774 0h-551l1874 1434h551zM688 956q114 0 172 32.5t58 92.5t-58 92.5t-172 32.5q-229 0 -229 -125q0 -60 58 -92.5t171 -32.5zM2183 -20
q-284 0 -438 101t-154 271q0 169 154.5 271t437.5 102q270 0 418 -104q148 104 418 104q284 0 438 -101.5t154 -271.5q0 -169 -154.5 -270.5t-437.5 -101.5q-274 0 -418 104q-148 -104 -418 -104zM2183 227q115 0 172.5 32.5t57.5 92.5t-57.5 92.5t-172.5 32.5
q-227 0 -227 -125q0 -60 57 -92.5t170 -32.5zM3019 227q113 0 170 32.5t57 92.5t-57 92.5t-170 32.5q-230 0 -230 -125q0 -60 58 -92.5t172 -32.5z" />
    <glyph glyph-name="guilsinglleft" unicode="&#x2039;" horiz-adv-x="1054" 
d="M926 416v-396l-813 332v422l813 332v-385l-496 -158z" />
    <glyph glyph-name="guilsinglright" unicode="&#x203a;" horiz-adv-x="1054" 
d="M942 352l-813 -332v386l496 157l-496 148v395l813 -332v-422z" />
    <glyph glyph-name="fraction" unicode="&#x2044;" horiz-adv-x="2031" 
d="M403 0h-403l1628 1434h404z" />
    <glyph glyph-name="zerosuperior" unicode="&#x2070;" horiz-adv-x="1255" 
d="M629 926q-272 0 -419 97.5t-147 272.5q0 176 147 273.5t419 97.5q270 0 416.5 -97.5t146.5 -273.5q0 -175 -146.5 -272.5t-416.5 -97.5zM629 1141q128 0 189 38t61 117q0 80 -61.5 118t-188.5 38q-252 0 -252 -156q0 -79 62 -117t190 -38z" />
    <glyph glyph-name="foursuperior" unicode="&#x2074;" horiz-adv-x="1200" 
d="M987 938h-274v111h-662v174l701 432h235v-420h162v-186h-162v-111zM395 1235h318v201z" />
    <glyph glyph-name="fivesuperior" unicode="&#x2075;" horiz-adv-x="1124" 
d="M565 926q-225 0 -346 41.5t-164 144.5l291 62q19 -36 64 -49t153 -13q118 0 161.5 16.5t43.5 53.5q0 34 -43.5 49.5t-161.5 15.5q-101 0 -145 -8.5t-88 -30.5l-244 31l53 416h865v-180h-629l-10 -103q99 41 282 41q209 -2 313 -58t105 -173q0 -256 -500 -256z" />
    <glyph glyph-name="sixsuperior" unicode="&#x2076;" horiz-adv-x="1175" 
d="M63 1290q0 181 145 279t406 98q401 0 500 -170l-289 -72q-37 30 -83.5 45t-129.5 15q-124 0 -185 -36.5t-75 -113.5q117 60 324 60q234 0 338 -56.5t104 -162.5q0 -117 -126.5 -183.5t-387.5 -66.5q-541 0 -541 364zM598 1114q114 0 165.5 15t51.5 47q0 31 -51.5 45
t-165.5 14q-217 0 -217 -59q0 -62 217 -62z" />
    <glyph glyph-name="sevensuperior" unicode="&#x2077;" horiz-adv-x="1015" 
d="M965 1485l-435 -547h-337l444 516h-588v201h916v-170z" />
    <glyph glyph-name="eightsuperior" unicode="&#x2078;" horiz-adv-x="1210" 
d="M606 926q-547 0 -547 223q0 112 189 160q-156 55 -156 153q0 99 134.5 152t379.5 53t379.5 -53t134.5 -152q0 -101 -155 -153q186 -52 186 -160q0 -223 -545 -223zM606 1497q-113 0 -158 -12t-45 -43q0 -30 46 -43t157 -13q109 0 155 13t46 43q0 31 -45 43t-156 12z
M606 1096q129 0 179.5 13.5t50.5 47.5q0 32 -52.5 47t-177.5 15q-126 0 -177.5 -14.5t-51.5 -47.5q0 -32 51.5 -46.5t177.5 -14.5z" />
    <glyph glyph-name="ninesuperior" unicode="&#x2079;" horiz-adv-x="1175" 
d="M1112 1303q0 -181 -145 -279t-406 -98q-402 0 -498 170l287 71q36 -29 83 -44t130 -15q123 0 183.5 36t74.5 111q-117 -57 -321 -57q-235 0 -339 56.5t-104 162.5q0 117 126.5 183.5t387.5 66.5q541 0 541 -364zM578 1479q-114 0 -166 -15t-52 -47q0 -31 52 -45t166 -14
q217 0 217 59q0 62 -217 62z" />
    <glyph glyph-name="zeroinferior" unicode="&#x2080;" horiz-adv-x="1255" 
d="M629 -233q-272 0 -419 97.5t-147 272.5q0 176 147 273.5t419 97.5q270 0 416.5 -97.5t146.5 -273.5q0 -175 -146.5 -272.5t-416.5 -97.5zM629 -18q128 0 189 38t61 117q0 80 -61.5 118t-188.5 38q-252 0 -252 -156q0 -79 62 -117t190 -38z" />
    <glyph glyph-name="oneinferior" unicode="&#x2081;" horiz-adv-x="1069" 
d="M70 -221v217h352v276l-320 -45v211l381 58h238v-500h297v-217h-948z" />
    <glyph glyph-name="twoinferior" unicode="&#x2082;" horiz-adv-x="1142" 
d="M78 -14l594 186q56 21 74 36.5t18 37.5q0 18 -13 30t-56 20.5t-117 8.5q-115 0 -166.5 -21.5t-63.5 -70.5l-289 51q61 244 510 244q253 0 376.5 -61.5t123.5 -174.5q0 -60 -31 -104.5t-116 -87.5t-232 -80l-65 -16h440v-205h-987v207z" />
    <glyph glyph-name="threeinferior" unicode="&#x2083;" horiz-adv-x="1165" 
d="M1100 -8q0 -108 -132 -166.5t-397 -58.5q-240 0 -367 55t-153 168l293 49q9 -44 64.5 -64t169.5 -20q116 0 162 15.5t46 45.5q0 35 -67 35h-320v176h322q65 0 65 39q0 53 -206 53q-112 0 -169.5 -18.5t-66.5 -60.5l-281 51q27 105 155.5 161t354.5 56q517 0 517 -203
q0 -113 -152 -155q84 -19 123 -57.5t39 -100.5z" />
    <glyph glyph-name="fourinferior" unicode="&#x2084;" horiz-adv-x="1200" 
d="M987 -221h-274v110h-662v174l701 433h235v-420h162v-187h-162v-110zM395 76h318v200z" />
    <glyph glyph-name="fiveinferior" unicode="&#x2085;" horiz-adv-x="1124" 
d="M565 -233q-225 0 -346 41.5t-164 144.5l291 61q19 -35 64 -48t153 -13q118 0 161.5 16.5t43.5 53.5q0 34 -43.5 49.5t-161.5 15.5q-101 0 -145 -8.5t-88 -30.5l-244 31l53 416h865v-181h-629l-10 -102q99 41 282 41q209 -2 313 -58t105 -173q0 -256 -500 -256z" />
    <glyph glyph-name="sixinferior" unicode="&#x2086;" horiz-adv-x="1175" 
d="M63 131q0 181 145 279t406 98q401 0 500 -170l-289 -72q-37 30 -83.5 45t-129.5 15q-124 0 -185 -36.5t-75 -113.5q117 60 324 60q158 0 258 -27.5t142 -75t42 -117.5q0 -117 -126.5 -183t-387.5 -66q-541 0 -541 364zM598 -45q114 0 165.5 14.5t51.5 46.5q0 60 -217 60
t-217 -60q0 -32 52 -46.5t165 -14.5z" />
    <glyph glyph-name="seveninferior" unicode="&#x2087;" horiz-adv-x="1015" 
d="M965 326l-435 -547h-337l444 516h-588v201h916v-170z" />
    <glyph glyph-name="eightinferior" unicode="&#x2088;" horiz-adv-x="1210" 
d="M606 -233q-547 0 -547 223q0 112 189 160q-156 55 -156 153q0 99 134.5 152t379.5 53t379.5 -53t134.5 -152q0 -101 -155 -153q186 -52 186 -160q0 -223 -545 -223zM606 338q-113 0 -158 -12t-45 -43q0 -30 46 -43t157 -13q109 0 155 13t46 43q0 31 -45 43t-156 12z
M606 -63q129 0 179.5 13.5t50.5 47.5q0 32 -52 46.5t-178 14.5q-127 0 -178 -14t-51 -47q0 -32 51.5 -46.5t177.5 -14.5z" />
    <glyph glyph-name="nineinferior" unicode="&#x2089;" horiz-adv-x="1175" 
d="M1112 143q0 -180 -145 -278t-406 -98q-402 0 -498 170l287 71q36 -29 83 -44t130 -15q123 0 183.5 36t74.5 111q-117 -57 -321 -57q-235 0 -339 56.5t-104 162.5q0 117 126.5 183.5t387.5 66.5q541 0 541 -365zM578 319q-114 0 -166 -14.5t-52 -46.5q0 -31 52 -45
t166 -14q217 0 217 59q0 61 -217 61z" />
    <glyph glyph-name="colonmonetary" unicode="&#x20a1;" horiz-adv-x="2344" 
d="M664 -164l59 193q-306 76 -466.5 253t-160.5 435q0 342 279.5 537.5t785.5 205.5l43 137h187l-43 -139q20 -2 62 -5t63 -5l47 149h184l-53 -176q501 -103 606 -458l-479 -95q-50 148 -236 205l-229 -749q208 10 322 71.5t145 177.5l473 -90q-72 -253 -334 -381.5
t-702 -128.5h-11l-43 -137h-186l45 146q-67 3 -125 12l-49 -158h-184zM1001 334q41 -6 125 -10l242 782q-58 6 -127 6zM559 717q0 -262 268 -346l226 735q-252 -22 -373 -117.5t-121 -271.5z" />
    <glyph glyph-name="uni20A9" unicode="&#x20a9;" horiz-adv-x="3094" 
d="M639 0l-281 635h-290v164h219l-60 133h-180v164h109l-150 338h486l141 -338h543l153 338h436l162 -338h541l139 338h479l-147 -338h108v-164h-180l-59 -133h217v-164h-289l-278 -635h-437l-479 997l-473 -997h-430zM2071 799h276l53 133h-395zM758 799h282l62 133h-402z
M2148 635l70 -148l61 148h-131zM825 635l68 -162l74 162h-142z" />
    <glyph glyph-name="uni20AA" unicode="&#x20aa;" horiz-adv-x="2621" 
d="M1479 756q0 184 -203 184h-631v-940h-444v1290h1018q231 0 339.5 -102t108.5 -316v-399h-188v283zM2437 602q0 -322 -169.5 -462t-559.5 -140h-735v797h188v-447h533q159 0 229 59t70 193v668h444v-668z" />
    <glyph glyph-name="dong" unicode="&#x20ab;" horiz-adv-x="2127" 
d="M850 -27q-360 0 -561 150.5t-201 419.5q0 266 202.5 417.5t559.5 151.5q210 0 378 -55t277 -156v332h-475v164h475v139h432v-139h185v-164h-185v-1233h-395l-22 199q-106 -107 -279 -166.5t-391 -59.5zM1004 291q247 0 374 64.5t127 187.5t-127 187.5t-374 64.5
q-243 0 -358.5 -62t-115.5 -190t115.5 -190t358.5 -62zM160 -322v164h1769v-164h-1769z" />
    <glyph glyph-name="Euro" unicode="&#x20ac;" horiz-adv-x="2539" 
d="M78 492v163h213q-2 20 -2 62q0 25 4 71h-215v164h252q90 244 368 376t711 132q441 0 705.5 -126t334.5 -371l-479 -95q-38 124 -175.5 184t-385.5 60q-425 0 -573 -160h720l-22 -164h-776q-6 -35 -6 -71q0 -26 4 -62h762l-23 -163h-670q139 -170 584 -170q255 0 392 61.5
t171 189.5l473 -90q-72 -253 -333.5 -381.5t-702.5 -128.5q-443 0 -720 135t-363 384h-248z" />
    <glyph glyph-name="uni20AD" unicode="&#x20ad;" horiz-adv-x="2340" 
d="M231 0v690h-217v170h217v574h451v-617l936 617h666l-887 -574h555v-170h-572l977 -690h-723l-749 528l-203 -131v-397h-451z" />
    <glyph glyph-name="uni20AE" unicode="&#x20ae;" horiz-adv-x="2066" 
d="M307 309v164l516 43v133l-516 -43v164l516 43v272h-766v349h1985v-349h-766v-233l481 41v-164l-481 -41v-133l481 41v-164l-481 -41v-391h-453v352z" />
    <glyph glyph-name="uni20B1" unicode="&#x20b1;" horiz-adv-x="2355" 
d="M231 0v573h-217v164h217v119h-217v164h217v414h1229q253 0 423.5 -109t230.5 -305h241v-164h-211q2 -18 2 -57q0 -42 -2 -62h211v-164h-241q-63 -193 -236 -299t-428 -106h-766v-168h-453zM1378 1116h-694v-96h942q-74 96 -248 96zM1683 797q0 41 -2 59h-997v-119h997
q2 18 2 60zM1378 485q167 0 240 88h-934v-88h694z" />
    <glyph glyph-name="uni20B4" unicode="&#x20b4;" horiz-adv-x="2377" 
d="M18 500v164h258q107 98 379 133h-637v164h1717q2 8 2 28q0 52 -47 84t-163.5 49t-314.5 17q-243 0 -365 -34t-159 -108l-467 72q67 198 312 294.5t679 96.5q979 0 979 -479v-20h168v-164h-274q-89 -95 -301 -133h575v-164h-1728q-4 -24 -4 -39q0 -57 53.5 -92.5
t180 -54.5t337.5 -19q256 0 386.5 39.5t170.5 126.5l469 -72q-70 -212 -322.5 -314t-703.5 -102q-223 0 -395.5 22t-291 63t-195 102t-110.5 135.5t-34 167.5q0 25 2 37h-156z" />
    <glyph glyph-name="uni20B5" unicode="&#x20b5;" horiz-adv-x="2344" 
d="M96 717q0 328 260.5 522t735.5 219v139h192v-137q410 -11 657 -136.5t316 -360.5l-479 -95q-37 115 -158 175t-336 67v-786q222 7 343.5 68.5t152.5 180.5l473 -90q-69 -243 -313.5 -371t-655.5 -139v-137h-192v139q-479 23 -737.5 217.5t-258.5 524.5zM559 717
q0 -182 130 -278t403 -113v782q-272 -17 -402.5 -113.5t-130.5 -277.5z" />
    <glyph glyph-name="uni20B8" unicode="&#x20b8;" horiz-adv-x="2140" 
d="M78 1270v164h1984v-164h-1984zM78 786v349h1984v-349h-766v-786h-454v786h-764z" />
    <glyph glyph-name="uni20B9" unicode="&#x20b9;" horiz-adv-x="2142" 
d="M188 444v304h879q171 0 215 108h-1094v164h1094q-40 110 -215 110h-879v304h1868v-164h-442q112 -100 133 -250h309v-164h-311q-32 -185 -190.5 -293t-428.5 -108l-227 -4l905 -451h-747z" />
    <glyph glyph-name="uni20BA" unicode="&#x20ba;" horiz-adv-x="2129" 
d="M231 0v539l-231 -35v164l231 34v160l-231 -35v164l231 35v408h453v-338l479 71v-163l-479 -72v-160l479 72v-164l-479 -72v-260h664q82 0 136 14t96 51t67 98.5t43 160.5l413 -88q-55 -319 -230.5 -451.5t-524.5 -132.5h-1117z" />
    <glyph glyph-name="uni20BC" unicode="&#x20bc;" horiz-adv-x="2334" 
d="M1378 205h-424v586q-181 -25 -261.5 -102t-80.5 -206v-483h-452v479q0 287 198.5 458.5t595.5 207.5v289h424v-289q398 -36 597.5 -207.5t199.5 -458.5v-479h-453v483q0 129 -80.5 206t-263.5 104v-588z" />
    <glyph glyph-name="uni20BD" unicode="&#x20bd;" horiz-adv-x="2299" 
d="M35 145v164h258v121h-258v346h258v658h1302q285 0 449 -135t164 -369q0 -232 -165.5 -366t-455.5 -134h-842v-121h697v-164h-697v-145h-452v145h-258zM1530 1090h-785v-314h785q215 0 215 152q0 162 -215 162z" />
    <glyph glyph-name="uni2113" unicode="&#x2113;" horiz-adv-x="1880" 
d="M27 565l231 58v297q0 252 208.5 396t573.5 144q185 0 328.5 -34t232 -93.5t134 -138t45.5 -170.5q0 -61 -10 -107.5t-37.5 -95t-77 -88t-129 -81.5t-193.5 -80.5t-268.5 -79.5t-357.5 -84q15 -72 96 -100.5t278 -28.5q217 0 475 63l-6 -309q-315 -60 -565 -60
q-321 0 -495 85t-218 266l-245 -60v301zM700 934v-223q200 45 327.5 83t193.5 75.5t89 71t23 77.5q0 70 -66 107.5t-223 37.5q-175 0 -259.5 -55t-84.5 -174z" />
    <glyph glyph-name="uni2116" unicode="&#x2116;" horiz-adv-x="3493" 
d="M2959 852q-222 0 -340 82t-118 221q0 137 118 218t340 81t340.5 -82t118.5 -221q0 -137 -118.5 -218t-340.5 -81zM197 0v1434h438l1177 -977v977h426v-1434h-438l-1179 979v-979h-424zM2959 1251q-153 0 -153 -96q0 -47 39 -73.5t114 -26.5t114.5 25.5t39.5 70.5
q0 48 -39 74t-115 26zM2533 530v211h848v-211h-848z" />
    <glyph glyph-name="trademark" unicode="&#x2122;" horiz-adv-x="2105" 
d="M309 717v518h-268v199h780v-199h-268v-518h-244zM956 717v717h277l233 -353l236 353h268v-717h-227v436l-199 -305h-164l-198 303v-434h-226z" />
    <glyph glyph-name="estimated" unicode="&#x212e;" horiz-adv-x="1617" 
d="M1546 625h-1194q-10 0 -10 -9v-360q0 -25 16 -41q88 -93 205 -145t248 -52q139 0 262 58.5t213 161.5h107q-102 -119 -255.5 -188.5t-328.5 -69.5q-150 0 -286.5 52.5t-235.5 141t-157 211.5t-58 258q0 181 98.5 333.5t268 241.5t370.5 89t370.5 -89t268 -241.5
t98.5 -333.5v-18zM1276 672v364q0 24 -19 43q-89 89 -204 139t-242 50q-129 0 -246 -52t-205 -143q-18 -18 -18 -45v-356q0 -10 10 -10h916q8 0 8 10z" />
    <glyph glyph-name="oneseventh" unicode="&#x2150;" horiz-adv-x="2959" 
d="M70 717v217h352v276l-320 -45v211l381 58h238v-500h297v-217h-948zM891 0h-404l1629 1434h403zM2908 547l-434 -547h-338l444 516h-587v201h915v-170z" />
    <glyph glyph-name="oneninth" unicode="&#x2151;" horiz-adv-x="2971" 
d="M70 717v217h352v276l-320 -45v211l381 58h238v-500h297v-217h-948zM891 0h-404l1629 1434h403zM2910 365q0 -181 -145 -279t-406 -98q-401 0 -497 170l286 71q36 -29 83 -44t130 -15q123 0 183.5 36t74.5 111q-117 -57 -321 -57q-235 0 -339 56.5t-104 162.5
q0 117 127 183.5t388 66.5q540 0 540 -364zM2376 541q-114 0 -165.5 -15t-51.5 -47q0 -31 51.5 -45t165.5 -14q217 0 217 59q0 62 -217 62z" />
    <glyph glyph-name="onethird" unicode="&#x2153;" horiz-adv-x="2953" 
d="M70 717v217h352v276l-320 -45v211l381 58h238v-500h297v-217h-948zM891 0h-404l1629 1434h403zM2888 213q0 -108 -132 -166.5t-397 -58.5q-240 0 -367 55t-153 168l293 49q9 -44 64 -64t169 -20q116 0 162.5 16t46.5 46q0 34 -67 34h-320v177h322q65 0 65 38
q0 54 -207 54q-112 0 -169 -19t-66 -61l-281 51q27 105 155.5 161t354.5 56q516 0 516 -203q0 -114 -151 -155q84 -19 123 -57.5t39 -100.5z" />
    <glyph glyph-name="twothirds" unicode="&#x2154;" horiz-adv-x="3008" 
d="M78 924l594 186q56 21 74 36.5t18 37.5q0 18 -13 30t-56 20.5t-117 8.5q-115 0 -166.5 -21.5t-63.5 -70.5l-289 51q61 244 510 244q253 0 376.5 -61.5t123.5 -174.5q0 -60 -31 -104.5t-116 -87.5t-232 -80l-65 -16h440v-205h-987v207zM946 0h-403l1628 1434h403z
M2941 213q0 -108 -131.5 -166.5t-396.5 -58.5q-240 0 -367.5 55t-153.5 168l293 49q9 -44 64.5 -64t169.5 -20q116 0 162.5 16t46.5 46q0 34 -68 34h-319v177h321q66 0 66 38q0 54 -207 54q-112 0 -169.5 -19t-66.5 -61l-280 51q27 105 155.5 161t354.5 56q516 0 516 -203
q0 -113 -152 -155q84 -19 123 -57.5t39 -100.5z" />
    <glyph glyph-name="onefifth" unicode="&#x2155;" horiz-adv-x="2965" 
d="M70 717v217h352v276l-320 -45v211l381 58h238v-500h297v-217h-948zM891 0h-404l1629 1434h403zM2406 -12q-225 0 -346 41.5t-164 144.5l291 62q19 -36 64 -49t153 -13q118 0 161.5 16.5t43.5 53.5q0 34 -43.5 49.5t-161.5 15.5q-101 0 -145 -8.5t-88 -30.5l-244 31
l53 416h865v-180h-629l-10 -103q99 41 282 41q209 -2 313 -58t105 -173q0 -256 -500 -256z" />
    <glyph glyph-name="twofifths" unicode="&#x2156;" horiz-adv-x="3020" 
d="M78 924l594 186q56 21 74 36.5t18 37.5q0 18 -13 30t-56 20.5t-117 8.5q-115 0 -166.5 -21.5t-63.5 -70.5l-289 51q61 244 510 244q253 0 376.5 -61.5t123.5 -174.5q0 -60 -31 -104.5t-116 -87.5t-232 -80l-65 -16h440v-205h-987v207zM946 0h-403l1628 1434h403z
M2462 -12q-225 0 -346 41.5t-164 144.5l291 62q19 -36 64 -49t153 -13q118 0 161 16.5t43 53.5q0 34 -43 49.5t-161 15.5q-101 0 -145.5 -8.5t-88.5 -30.5l-244 31l54 416h864v-180h-629l-10 -103q99 41 283 41q209 -2 312.5 -58t104.5 -173q0 -256 -499 -256z" />
    <glyph glyph-name="threefifths" unicode="&#x2157;" horiz-adv-x="2940" 
d="M1100 930q0 -108 -132 -166.5t-397 -58.5q-240 0 -367 55t-153 168l293 49q9 -44 64.5 -64t169.5 -20q116 0 162 15.5t46 45.5q0 35 -67 35h-320v176h322q65 0 65 39q0 53 -206 53q-112 0 -169.5 -18.5t-66.5 -60.5l-281 51q27 105 155.5 161t354.5 56q517 0 517 -203
q0 -114 -152 -156q84 -19 123 -57t39 -100zM866 0h-403l1628 1434h403zM2382 -12q-225 0 -346 41.5t-164 144.5l291 62q19 -36 64 -49t153 -13q118 0 161.5 16.5t43.5 53.5q0 34 -43.5 49.5t-161.5 15.5q-101 0 -145.5 -8.5t-88.5 -30.5l-243 31l53 416h864v-180h-629
l-10 -103q99 41 283 41q209 -2 313 -58t105 -173q0 -256 -500 -256z" />
    <glyph glyph-name="fourfifths" unicode="&#x2158;" horiz-adv-x="2975" 
d="M987 717h-274v110h-662v174l701 433h235v-420h162v-187h-162v-110zM899 0h-403l1628 1434h403zM395 1014h318v200zM2417 -12q-225 0 -346 41.5t-164 144.5l291 62q19 -36 64 -49t153 -13q118 0 161 16.5t43 53.5q0 34 -43 49.5t-161 15.5q-101 0 -145.5 -8.5t-88.5 -30.5
l-244 31l54 416h864v-180h-629l-10 -103q99 41 283 41q209 -2 312.5 -58t104.5 -173q0 -256 -499 -256z" />
    <glyph glyph-name="onesixth" unicode="&#x2159;" horiz-adv-x="2951" 
d="M70 717v217h352v276l-320 -45v211l381 58h238v-500h297v-217h-948zM891 0h-404l1629 1434h403zM1839 352q0 181 145 279t406 98q401 0 500 -170l-289 -72q-37 30 -83.5 45t-129.5 15q-124 0 -185 -36.5t-75 -113.5q117 60 323 60q234 0 338.5 -56.5t104.5 -162.5
q0 -117 -126.5 -183.5t-387.5 -66.5q-541 0 -541 364zM2374 176q114 0 165.5 15t51.5 47q0 31 -51.5 45t-165.5 14q-217 0 -217 -59q0 -62 217 -62z" />
    <glyph glyph-name="fivesixths" unicode="&#x215a;" horiz-adv-x="2877" 
d="M565 705q-225 0 -346 41.5t-164 144.5l291 61q19 -35 64 -48t153 -13q118 0 161.5 16.5t43.5 53.5q0 34 -43.5 49.5t-161.5 15.5q-101 0 -145 -8.5t-88 -30.5l-244 31l53 416h865v-181h-629l-10 -102q99 41 282 41q209 -2 313 -58t105 -173q0 -256 -500 -256zM817 0h-403
l1628 1434h403zM1765 352q0 181 145 279t406 98q401 0 500 -170l-289 -72q-37 30 -83.5 45t-129.5 15q-124 0 -185 -36.5t-75 -113.5q117 60 324 60q234 0 338 -56.5t104 -162.5q0 -117 -126.5 -183.5t-387.5 -66.5q-541 0 -541 364zM2300 176q114 0 165.5 15t51.5 47
q0 31 -51.5 45t-165.5 14q-217 0 -217 -59q0 -62 217 -62z" />
    <glyph glyph-name="oneeighth" unicode="&#x215b;" horiz-adv-x="3008" 
d="M70 717v217h352v276l-320 -45v211l381 58h238v-500h297v-217h-948zM891 0h-404l1629 1434h403zM2404 -12q-546 0 -546 223q0 112 188 160q-156 55 -156 153q0 99 134.5 152t379.5 53t379.5 -53t134.5 -152q0 -101 -155 -153q186 -52 186 -160q0 -223 -545 -223zM2404 559
q-113 0 -157.5 -12t-44.5 -43q0 -30 45.5 -42.5t156.5 -12.5q109 0 155 13t46 42q0 31 -45 43t-156 12zM2404 158q129 0 179.5 13.5t50.5 47.5q0 32 -52.5 47t-177.5 15q-126 0 -177.5 -14.5t-51.5 -47.5q0 -32 51.5 -46.5t177.5 -14.5z" />
    <glyph glyph-name="threeeighths" unicode="&#x215c;" horiz-adv-x="2983" 
d="M1100 930q0 -108 -132 -166.5t-397 -58.5q-240 0 -367 55t-153 168l293 49q9 -44 64.5 -64t169.5 -20q116 0 162 15.5t46 45.5q0 35 -67 35h-320v176h322q65 0 65 39q0 53 -206 53q-112 0 -169.5 -18.5t-66.5 -60.5l-281 51q27 105 155.5 161t354.5 56q517 0 517 -203
q0 -114 -152 -156q84 -19 123 -57t39 -100zM866 0h-403l1628 1434h403zM2378 -12q-547 0 -547 223q0 112 188 160q-155 54 -155 153t134.5 152t379.5 53t379.5 -53t134.5 -152q0 -100 -156 -153q186 -52 186 -160q0 -223 -544 -223zM2378 559q-113 0 -158 -12t-45 -43
q0 -30 46 -42.5t157 -12.5q109 0 154.5 12.5t45.5 42.5q0 31 -44.5 43t-155.5 12zM2378 158q128 0 178.5 13.5t50.5 47.5q0 32 -52 47t-177 15q-127 0 -178.5 -14.5t-51.5 -47.5q0 -32 52 -46.5t178 -14.5z" />
    <glyph glyph-name="fiveeighths" unicode="&#x215d;" horiz-adv-x="2934" 
d="M565 705q-225 0 -346 41.5t-164 144.5l291 61q19 -35 64 -48t153 -13q118 0 161.5 16.5t43.5 53.5q0 34 -43.5 49.5t-161.5 15.5q-101 0 -145 -8.5t-88 -30.5l-244 31l53 416h865v-181h-629l-10 -102q99 41 282 41q209 -2 313 -58t105 -173q0 -256 -500 -256zM817 0h-403
l1628 1434h403zM2331 -12q-547 0 -547 223q0 112 188 160q-155 54 -155 153t134.5 152t379.5 53t379.5 -53t134.5 -152q0 -100 -156 -153q186 -52 186 -160q0 -223 -544 -223zM2331 559q-113 0 -158 -12t-45 -43q0 -30 46 -42.5t157 -12.5q109 0 154.5 12.5t45.5 42.5
q0 31 -44.5 43t-155.5 12zM2331 158q128 0 178.5 13.5t50.5 47.5q0 32 -52 47t-177 15q-127 0 -178.5 -14.5t-51.5 -47.5q0 -32 52 -46.5t178 -14.5z" />
    <glyph glyph-name="seveneighths" unicode="&#x215e;" horiz-adv-x="2754" 
d="M965 1264l-435 -547h-337l444 516h-588v201h916v-170zM637 0h-404l1629 1434h403zM2148 -12q-546 0 -546 223q0 112 188 160q-156 55 -156 153q0 99 134.5 152t379.5 53t379.5 -53t134.5 -152q0 -101 -155 -153q186 -52 186 -160q0 -223 -545 -223zM2148 559
q-113 0 -157.5 -12t-44.5 -43q0 -30 45.5 -42.5t156.5 -12.5q109 0 155 13t46 42q0 31 -45 43t-156 12zM2148 158q129 0 179.5 13.5t50.5 47.5q0 32 -52.5 47t-177.5 15q-126 0 -177.5 -14.5t-51.5 -47.5q0 -32 51.5 -46.5t177.5 -14.5z" />
    <glyph glyph-name="arrowleft" unicode="&#x2190;" horiz-adv-x="1726" 
d="M856 932l-221 -213h936v-328h-934l221 -213l-203 -213l-592 590l590 590z" />
    <glyph glyph-name="arrowup" unicode="&#x2191;" horiz-adv-x="1718" 
d="M1235 721l-211 219v-934h-328v936l-213 -223l-215 203l592 591l588 -589z" />
    <glyph glyph-name="arrowright" unicode="&#x2192;" horiz-adv-x="1718" 
d="M862 932l203 213l590 -590l-592 -590l-203 213l221 213h-931v328h935z" />
    <glyph glyph-name="arrowdown" unicode="&#x2193;" horiz-adv-x="1718" 
d="M483 782l213 -221v932h328v-932l211 219l213 -202l-588 -590l-592 592z" />
    <glyph glyph-name="uni2194" unicode="&#x2194;" horiz-adv-x="2068" 
d="M856 932l-221 -213h801l-224 213l203 213l590 -590l-592 -590l-203 213l222 213h-795l221 -213l-203 -213l-592 590l590 590z" />
    <glyph glyph-name="uni2195" unicode="&#x2195;" horiz-adv-x="1718" 
d="M483 635l213 -223v667l-213 -223l-215 203l592 592l588 -590l-213 -203l-211 219v-665l211 221l213 -203l-588 -590l-592 592z" />
    <glyph glyph-name="uni2196" unicode="&#x2196;" horiz-adv-x="1718" 
d="M1141 899h-322l668 -668l-232 -231l-665 666v-320h-283v836h834v-283z" />
    <glyph glyph-name="uni2197" unicode="&#x2197;" horiz-adv-x="1718" 
d="M580 899v283h833v-836h-283v322l-665 -668l-234 231l670 668h-321z" />
    <glyph glyph-name="uni2198" unicode="&#x2198;" horiz-adv-x="1718" 
d="M580 283h319l-668 665l234 234l665 -668v322h283v-836h-833v283z" />
    <glyph glyph-name="uni2199" unicode="&#x2199;" horiz-adv-x="1718" 
d="M1141 283v-283h-834v836h283v-320l665 666l232 -234l-666 -665h320z" />
    <glyph glyph-name="partialdiff" unicode="&#x2202;" horiz-adv-x="2160" 
d="M1049 -27q-961 0 -961 482q0 217 216 333.5t640 116.5q453 0 670 -162q-20 201 -162 293t-414 92q-213 0 -326.5 -31t-142.5 -98l-471 95q81 187 312.5 276.5t625.5 89.5q491 0 760.5 -197.5t269.5 -551.5q0 -361 -257.5 -549.5t-759.5 -188.5zM1051 305q253 0 371 35.5
t118 112.5q0 78 -118 114.5t-371 36.5q-256 0 -374 -36.5t-118 -114.5q0 -77 118 -112.5t374 -35.5z" />
    <glyph glyph-name="product" unicode="&#x220f;" horiz-adv-x="2519" 
d="M217 -250v1684h2085v-1684h-453v1335h-1179v-1335h-453z" />
    <glyph glyph-name="summation" unicode="&#x2211;" horiz-adv-x="2017" 
d="M143 -307v307l650 569l-650 557v308h1743v-349h-1102l580 -505l-576 -539h1133v-348h-1778z" />
    <glyph glyph-name="minus" unicode="&#x2212;" horiz-adv-x="1568" 
d="M1436 575h-1303v306h1303v-306z" />
    <glyph glyph-name="uni2215" unicode="&#x2215;" horiz-adv-x="2031" 
d="M403 0h-403l1628 1434h404z" />
    <glyph glyph-name="radical" unicode="&#x221a;" horiz-adv-x="2121" 
d="M827 0l-454 692l-250 -127l-121 242l600 287l445 -705l608 1045h467l-867 -1434h-428z" />
    <glyph glyph-name="infinity" unicode="&#x221e;" horiz-adv-x="2396" 
d="M1749 215q-162 0 -294.5 49.5t-264.5 173.5q-106 -104 -232 -163.5t-303 -59.5q-256 0 -396 117.5t-140 322.5q0 201 145 325t391 124q164 0 288.5 -47t256.5 -172q107 102 236 160.5t307 58.5q256 0 395 -117.5t139 -322.5q0 -201 -142.5 -325t-385.5 -124zM485 662
q0 -74 53 -114t146 -40q90 0 161 39.5t144 114.5q-76 84 -145.5 116.5t-159.5 32.5q-93 0 -146 -39t-53 -110zM1714 811q-93 0 -167 -39t-148 -113q72 -82 148 -116.5t167 -34.5q92 0 145.5 41t53.5 115q0 71 -53.5 109t-145.5 38z" />
    <glyph glyph-name="integral" unicode="&#x222b;" horiz-adv-x="1513" 
d="M506 987q0 294 156 435t475 141q146 0 348 -35l-15 -291q-150 25 -286 25q-131 0 -188.5 -52t-57.5 -182v-868q0 -311 -157.5 -453.5t-483.5 -142.5q-114 0 -283 33l-14 292q141 -24 236 -24q146 0 208 56t62 198v868z" />
    <glyph glyph-name="approxequal" unicode="&#x2248;" horiz-adv-x="1568" 
d="M471 891q-145 0 -338 -80v307q214 78 369 78q86 0 174.5 -20.5t149.5 -45t135.5 -45t136.5 -20.5q145 0 338 80v-307q-217 -78 -369 -78q-84 0 -170 20.5t-146.5 45t-137 45t-142.5 20.5zM471 389q-145 0 -338 -80v307q214 78 369 78q86 0 174.5 -20.5t149.5 -45
t135.5 -45t136.5 -20.5q145 0 338 80v-307q-217 -78 -369 -78q-84 0 -170 20.5t-146.5 45t-137 45t-142.5 20.5z" />
    <glyph glyph-name="notequal" unicode="&#x2260;" horiz-adv-x="1568" 
d="M643 170h-371l97 160h-236v305h422l113 186h-535v305h721l96 160h373l-98 -160h211v-305h-396l-114 -186h510v-305h-695z" />
    <glyph glyph-name="lessequal" unicode="&#x2264;" horiz-adv-x="1568" 
d="M125 688v326l1305 459v-343l-863 -268l863 -268v-600h-1303v305h1104z" />
    <glyph glyph-name="greaterequal" unicode="&#x2265;" horiz-adv-x="1568" 
d="M1442 -6h-1303v590l862 268l-862 266v355l1305 -459v-326l-1106 -389h1104v-305z" />
    <glyph glyph-name="wave" unicode="&#x2307;" horiz-adv-x="2523" 
d="M2523 0q-142 0 -259 39t-198.5 104.5t-148 151t-115.5 179.5t-93.5 188.5t-88.5 180t-93 151t-116 104.5t-149 39t-149.5 -39t-116.5 -104.5t-93.5 -151t-89 -180t-93.5 -188.5t-115.5 -179.5t-148 -151t-198.5 -104.5t-258 -39v291q88 0 159.5 40t123.5 107.5t98 155.5
t90 185t92.5 193.5t113 184.5t143 155.5t192 107.5t250.5 40q325 0 530 -235q105 -120 217 -357q14 -29 41 -88q96 -207 152 -290q111 -167 257 -193q31 -6 64 -6q10 0 10 -146q0 -145 -10 -145z" />
    <glyph glyph-name="lozenge" unicode="&#x25ca;" horiz-adv-x="2131" 
d="M1333 0h-536l-715 717l715 717h536l717 -717zM625 723l456 -447l426 449l-456 424z" />
    <glyph glyph-name="commaaccent" unicode="&#xf6c3;" horiz-adv-x="1024" 
d="M96 -410l164 293h498l-322 -293h-340z" />
    <glyph glyph-name="kgreenlandic.case" horiz-adv-x="2818" 
d="M217 0v1434h451v-617l936 617h665l-1022 -662l1096 -772h-723l-750 528l-202 -131v-397h-451zM2830 1434l-231 -308h-508l399 308h340z" />
    <glyph glyph-name="napostrophe.case" horiz-adv-x="3061" 
d="M817 0v1434h438l1166 -975v975h426v-1434h-439l-1165 975v-975h-426zM0 1141l164 293h498l-322 -293h-340z" />
    <glyph glyph-name="i.dot" 
d="M184 1245v318h432v-318h-432zM184 0v1126h432v-1126h-432z" />
    <glyph glyph-name="caron.alt" horiz-adv-x="1024" 
d="M477 1081v455h395l-122 -455h-273z" />
    <glyph glyph-name="revcommaaccent" horiz-adv-x="1024" 
d="M983 1552l-231 -307h-508l399 307h340z" />
    <glyph glyph-name="zero.tlf" horiz-adv-x="2340" 
d="M1169 -27q-512 0 -791.5 193.5t-279.5 550.5q0 358 278.5 550.5t792.5 192.5q515 0 794.5 -192.5t279.5 -550.5q0 -357 -280 -550.5t-794 -193.5zM1169 322q312 0 460.5 96t148.5 299t-148.5 299t-460.5 96q-310 0 -459 -96t-149 -299t149 -299t459 -96z" />
    <glyph glyph-name="one.tlf" horiz-adv-x="2340" 
d="M262 0v348h766v717l-698 -109v359l766 119h385v-1086h688v-348h-1907z" />
    <glyph glyph-name="two.tlf" horiz-adv-x="2340" 
d="M238 342l905 342q209 77 308.5 123t138 83t38.5 85q0 78 -99.5 113.5t-332.5 35.5q-193 0 -308.5 -24.5t-169 -72t-67.5 -128.5l-454 82q62 244 302.5 361.5t696.5 117.5q447 0 680 -117t233 -335q0 -73 -18.5 -128.5t-66.5 -112t-135.5 -108.5t-221.5 -108.5
t-328 -120.5l-225 -82h1006v-348h-1882v342z" />
    <glyph glyph-name="three.tlf" horiz-adv-x="2340" 
d="M2161 422q0 -220 -252 -334.5t-756 -114.5q-463 0 -706 108.5t-302 336.5l471 90q19 -113 149.5 -165t395.5 -52q490 0 490 155q0 60 -60.5 88.5t-201.5 28.5h-607v318h607q145 0 204.5 29.5t59.5 93.5q0 71 -120.5 105t-371.5 34q-259 0 -393 -50.5t-154 -154.5l-442 90
q57 213 304.5 322.5t680.5 109.5q485 0 733 -101t248 -300q0 -116 -77 -193.5t-242 -122.5q172 -36 257 -114t85 -207z" />
    <glyph glyph-name="four.tlf" horiz-adv-x="2340" 
d="M1919 0h-446v240h-1356v323l1356 871h446v-869h324v-325h-324v-240zM690 565h783v496z" />
    <glyph glyph-name="five.tlf" horiz-adv-x="2340" 
d="M1167 -27q-436 0 -667 81.5t-316 285.5l471 102q31 -76 149 -104.5t367 -28.5q269 0 382.5 40.5t113.5 133.5q0 87 -115 127.5t-381 40.5q-242 0 -359.5 -19t-164.5 -75l-411 35l112 842h1659v-308h-1274l-41 -297q237 117 613 117q821 0 821 -465q2 -249 -234.5 -378.5
t-724.5 -129.5z" />
    <glyph glyph-name="six.tlf" horiz-adv-x="2340" 
d="M158 711q0 355 277 552t784 197q407 0 645 -89.5t319 -276.5l-469 -95q-29 68 -148.5 98.5t-346.5 30.5q-294 0 -444.5 -98t-162.5 -311q103 90 291 138t436 48q850 0 850 -448q0 -484 -991 -484q-514 0 -777 188.5t-263 549.5zM1198 305q270 0 395 35.5t125 112.5
q0 78 -125 114.5t-395 36.5q-267 0 -391.5 -36.5t-124.5 -114.5q0 -77 124.5 -112.5t391.5 -35.5z" />
    <glyph glyph-name="seven.tlf" horiz-adv-x="2340" 
d="M2073 1100l-934 -1100h-557l956 1085h-1259v349h1794v-334z" />
    <glyph glyph-name="eight.tlf" horiz-adv-x="2340" 
d="M1169 -27q-511 0 -776.5 113t-265.5 330q0 225 387 321q-156 52 -240 133t-84 185q0 130 118 221t337.5 137.5t523.5 46.5t523 -46.5t337.5 -138.5t118.5 -222q0 -104 -82 -184t-237 -132q186 -47 285.5 -128t99.5 -193q0 -217 -267 -330t-778 -113zM1667 1014
q0 67 -114 97t-384 30q-271 0 -385 -29.5t-114 -95.5q0 -67 113.5 -96t385.5 -29q271 0 384.5 29t113.5 94zM1169 293q302 0 429.5 31.5t127.5 101.5q0 72 -128.5 104.5t-428.5 32.5t-427.5 -32.5t-127.5 -104.5q0 -70 127 -101.5t428 -31.5z" />
    <glyph glyph-name="nine.tlf" horiz-adv-x="2340" 
d="M2185 723q0 -355 -278 -552.5t-785 -197.5q-407 0 -645 90t-319 277l469 94q29 -68 148.5 -98.5t348.5 -30.5q297 0 448 99.5t161 316.5q-105 -93 -294 -143t-438 -50q-847 0 -847 449q0 243 246 363t745 120q514 0 777 -188t263 -549zM1143 1128q-270 0 -395 -35.5
t-125 -111.5q0 -78 125.5 -115t394.5 -37q268 0 392 37t124 115q0 76 -123.5 111.5t-392.5 35.5z" />
    <glyph glyph-name="zero.posf" horiz-adv-x="2332" 
d="M1167 -27q-514 0 -794.5 168t-280.5 473q0 306 280 473.5t795 167.5q514 0 794 -167.5t280 -473.5q0 -305 -281 -473t-793 -168zM1167 322q310 0 460.5 72t150.5 220t-150.5 220.5t-460.5 72.5q-311 0 -461.5 -72.5t-150.5 -220.5t150.5 -220t461.5 -72z" />
    <glyph glyph-name="one.posf" horiz-adv-x="2023" 
d="M117 0v348h766v512l-699 -108v358l766 119h385v-881h647v-348h-1865z" />
    <glyph glyph-name="two.posf" horiz-adv-x="2076" 
d="M113 340l1040 285q152 44 229 77.5t97 57.5t20 59q0 37 -34.5 60t-138 38t-284.5 15q-184 0 -293.5 -26t-159.5 -76.5t-65 -135.5l-454 82q62 244 295.5 361.5t678.5 117.5q473 0 704.5 -109.5t231.5 -318.5q0 -67 -18 -118.5t-66 -102.5t-131.5 -92.5t-216 -82
t-317.5 -77.5l-168 -32h928v-322h-1878v340z" />
    <glyph glyph-name="three.posf" horiz-adv-x="2156" 
d="M2068 188q0 -225 -251.5 -340.5t-755.5 -115.5q-464 0 -706.5 109.5t-301.5 340.5l471 88q19 -115 149 -168t396 -53q250 0 370 40.5t120 123.5q0 65 -60.5 95t-202.5 30h-606v317h606q144 0 204.5 34t60.5 104q0 145 -492 145q-259 0 -393 -50.5t-154 -154.5l-442 90
q57 213 304.5 322.5t680.5 109.5q485 0 733 -102t248 -303q0 -120 -78 -201.5t-244 -130.5q173 -34 258.5 -115t85.5 -215z" />
    <glyph glyph-name="four.posf" horiz-adv-x="2213" 
d="M1845 -246h-446v246h-1356v324l1356 905h446v-903h324v-326h-324v-246zM606 326h793v522z" />
    <glyph glyph-name="five.posf" horiz-adv-x="2119" 
d="M1073 -268q-436 0 -667 81.5t-316 284.5l471 103q31 -76 149.5 -105.5t366.5 -29.5q267 0 381.5 43.5t114.5 138.5q0 93 -114.5 135.5t-381.5 42.5q-242 0 -359.5 -18.5t-164.5 -73.5l-412 33l113 862h1659v-307h-1274l-43 -324q240 123 635 123q801 0 801 -473
q2 -252 -234.5 -384t-724.5 -132z" />
    <glyph glyph-name="six.posf" horiz-adv-x="2213" 
d="M96 711q0 355 277 552t784 197q407 0 645.5 -89.5t319.5 -276.5l-469 -95q-29 68 -149 98.5t-347 30.5q-294 0 -444 -98t-162 -311q103 90 291 138t436 48q850 0 850 -448q0 -484 -991 -484q-514 0 -777.5 188.5t-263.5 549.5zM1137 305q270 0 395 35.5t125 112.5
q0 78 -125 114.5t-395 36.5q-267 0 -391.5 -36.5t-124.5 -114.5q0 -77 124.5 -112.5t391.5 -35.5z" />
    <glyph glyph-name="seven.posf" horiz-adv-x="1884" 
d="M1839 895l-969 -1141h-559l994 1127h-1260v348h1794v-334z" />
    <glyph glyph-name="eight.posf" horiz-adv-x="2246" 
d="M1124 -27q-511 0 -776.5 113t-265.5 330q0 225 387 321q-156 52 -240 133t-84 185q0 130 118 221t337.5 137.5t523.5 46.5t523 -46.5t337.5 -138.5t118.5 -222q0 -104 -82 -184t-237 -132q186 -47 285.5 -128t99.5 -193q0 -217 -267 -330t-778 -113zM1622 1014
q0 67 -114 97t-384 30q-271 0 -385 -29.5t-114 -95.5q0 -67 113.5 -96t385.5 -29q271 0 384.5 29t113.5 94zM1124 293q302 0 429.5 31.5t127.5 101.5q0 72 -128.5 104.5t-428.5 32.5t-427.5 -32.5t-127.5 -104.5q0 -70 127 -101.5t428 -31.5z" />
    <glyph glyph-name="nine.posf" horiz-adv-x="2217" 
d="M2124 498q0 -362 -278 -564t-785 -202q-407 0 -645.5 89.5t-319.5 276.5l469 95q29 -68 150 -99t348 -31q296 0 446 103.5t162 329.5q-104 -92 -292.5 -141.5t-438.5 -49.5q-421 0 -634.5 111t-213.5 342q0 497 991 497q514 0 777.5 -192.5t263.5 -564.5zM1081 924
q-271 0 -395.5 -38.5t-124.5 -123.5q0 -80 125.5 -118t394.5 -38q267 0 391.5 38t124.5 118q0 85 -123.5 123.5t-392.5 38.5z" />
    <glyph glyph-name="zero.numerator" horiz-adv-x="1255" 
d="M629 705q-272 0 -419 97.5t-147 272.5q0 176 147 273.5t419 97.5q270 0 416.5 -97.5t146.5 -273.5q0 -175 -146.5 -272.5t-416.5 -97.5zM629 920q128 0 189 38t61 117q0 80 -61.5 118t-188.5 38q-252 0 -252 -156q0 -79 62 -117t190 -38z" />
    <glyph glyph-name="one.numerator" horiz-adv-x="1069" 
d="M70 717v217h352v276l-320 -45v211l381 58h238v-500h297v-217h-948z" />
    <glyph glyph-name="two.numerator" horiz-adv-x="1142" 
d="M78 924l594 186q56 21 74 36.5t18 37.5q0 18 -13 30t-56 20.5t-117 8.5q-115 0 -166.5 -21.5t-63.5 -70.5l-289 51q61 244 510 244q253 0 376.5 -61.5t123.5 -174.5q0 -60 -31 -104.5t-116 -87.5t-232 -80l-65 -16h440v-205h-987v207z" />
    <glyph glyph-name="three.numerator" horiz-adv-x="1165" 
d="M1100 930q0 -108 -132 -166.5t-397 -58.5q-240 0 -367 55t-153 168l293 49q9 -44 64.5 -64t169.5 -20q116 0 162 15.5t46 45.5q0 35 -67 35h-320v176h322q65 0 65 39q0 53 -206 53q-112 0 -169.5 -18.5t-66.5 -60.5l-281 51q27 105 155.5 161t354.5 56q517 0 517 -203
q0 -114 -152 -156q84 -19 123 -57t39 -100z" />
    <glyph glyph-name="four.numerator" horiz-adv-x="1200" 
d="M987 717h-274v110h-662v174l701 433h235v-420h162v-187h-162v-110zM395 1014h318v200z" />
    <glyph glyph-name="five.numerator" horiz-adv-x="1124" 
d="M565 705q-225 0 -346 41.5t-164 144.5l291 61q19 -35 64 -48t153 -13q118 0 161.5 16.5t43.5 53.5q0 34 -43.5 49.5t-161.5 15.5q-101 0 -145 -8.5t-88 -30.5l-244 31l53 416h865v-181h-629l-10 -102q99 41 282 41q209 -2 313 -58t105 -173q0 -256 -500 -256z" />
    <glyph glyph-name="six.numerator" horiz-adv-x="1175" 
d="M63 1069q0 181 145 279t406 98q401 0 500 -170l-289 -72q-37 30 -83.5 45t-129.5 15q-124 0 -185 -36.5t-75 -113.5q117 60 324 60q158 0 258 -27.5t142 -75t42 -117.5q0 -117 -126.5 -183t-387.5 -66q-541 0 -541 364zM598 893q114 0 165.5 14.5t51.5 46.5q0 60 -217 60
t-217 -60q0 -32 52 -46.5t165 -14.5z" />
    <glyph glyph-name="seven.numerator" horiz-adv-x="1015" 
d="M965 1264l-435 -547h-337l444 516h-588v201h916v-170z" />
    <glyph glyph-name="eight.numerator" horiz-adv-x="1210" 
d="M606 705q-547 0 -547 223q0 111 189 159q-156 55 -156 154t134.5 152t379.5 53t379.5 -53t134.5 -152q0 -50 -40 -89.5t-115 -64.5q186 -52 186 -159q0 -223 -545 -223zM606 1276q-113 0 -158 -12t-45 -43q0 -30 46 -43t157 -13q109 0 155 13t46 43q0 31 -45 43t-156 12z
M606 874q128 0 179 14t51 48q0 32 -52 46.5t-178 14.5q-127 0 -178 -14t-51 -47q0 -32 52 -47t177 -15z" />
    <glyph glyph-name="nine.numerator" horiz-adv-x="1175" 
d="M1112 1081q0 -180 -145 -278t-406 -98q-403 0 -498 169l287 72q36 -29 83 -44t130 -15q123 0 183.5 36t74.5 111q-117 -57 -321 -57q-235 0 -339 56.5t-104 162.5q0 117 126.5 183.5t387.5 66.5q541 0 541 -365zM578 1257q-114 0 -166 -14.5t-52 -46.5q0 -31 52 -45
t166 -14q217 0 217 59q0 61 -217 61z" />
    <glyph glyph-name="zero.denominator" horiz-adv-x="1255" 
d="M629 -12q-272 0 -419 97.5t-147 272.5q0 176 147 273.5t419 97.5q270 0 416.5 -97.5t146.5 -273.5q0 -175 -146.5 -272.5t-416.5 -97.5zM629 203q128 0 189 38t61 117q0 80 -61.5 118t-188.5 38q-252 0 -252 -156q0 -79 62 -117t190 -38z" />
    <glyph glyph-name="one.denominator" horiz-adv-x="1069" 
d="M70 0v217h352v277l-320 -45v210l381 58h238v-500h297v-217h-948z" />
    <glyph glyph-name="two.denominator" horiz-adv-x="1142" 
d="M78 207l594 186q56 21 74 36.5t18 37.5q0 18 -13 30t-56 20.5t-117 8.5q-115 0 -166.5 -21.5t-63.5 -70.5l-289 51q61 244 510 244q253 0 376.5 -61t123.5 -174q0 -91 -82 -155t-297 -118l-65 -16h440v-205h-987v207z" />
    <glyph glyph-name="three.denominator" horiz-adv-x="1165" 
d="M1100 213q0 -108 -132 -166.5t-397 -58.5q-240 0 -367 55t-153 168l293 49q9 -44 64.5 -64t169.5 -20q116 0 162 16t46 46q0 34 -67 34h-320v177h322q65 0 65 38q0 54 -206 54q-112 0 -169.5 -19t-66.5 -61l-281 51q27 105 155.5 161t354.5 56q517 0 517 -203
q0 -113 -152 -155q84 -19 123 -57.5t39 -100.5z" />
    <glyph glyph-name="four.denominator" horiz-adv-x="1200" 
d="M987 0h-274v111h-662v174l701 432h235v-420h162v-186h-162v-111zM395 297h318v201z" />
    <glyph glyph-name="five.denominator" horiz-adv-x="1124" 
d="M565 -12q-225 0 -346 41.5t-164 144.5l291 62q19 -36 64 -49t153 -13q118 0 161.5 16.5t43.5 53.5q0 34 -43.5 49.5t-161.5 15.5q-101 0 -145 -8.5t-88 -30.5l-244 31l53 416h865v-180h-629l-10 -103q99 41 282 41q209 -2 313 -58t105 -173q0 -256 -500 -256z" />
    <glyph glyph-name="six.denominator" horiz-adv-x="1175" 
d="M63 352q0 181 145 279t406 98q401 0 500 -170l-289 -72q-37 30 -83.5 45t-129.5 15q-124 0 -185 -36.5t-75 -113.5q117 60 324 60q234 0 338 -56.5t104 -162.5q0 -117 -126.5 -183.5t-387.5 -66.5q-541 0 -541 364zM598 176q114 0 165.5 15t51.5 47q0 31 -51.5 45
t-165.5 14q-217 0 -217 -59q0 -62 217 -62z" />
    <glyph glyph-name="seven.denominator" horiz-adv-x="1015" 
d="M965 547l-435 -547h-337l444 516h-588v201h916v-170z" />
    <glyph glyph-name="eight.denominator" horiz-adv-x="1210" 
d="M606 -12q-547 0 -547 223q0 112 189 160q-156 55 -156 153q0 99 134.5 152t379.5 53t379.5 -53t134.5 -152q0 -101 -155 -153q186 -52 186 -160q0 -223 -545 -223zM606 559q-113 0 -158 -12t-45 -43q0 -30 46 -42.5t157 -12.5q109 0 155 13t46 42q0 31 -45 43t-156 12z
M606 158q129 0 179.5 13.5t50.5 47.5q0 32 -52.5 47t-177.5 15q-126 0 -177.5 -14.5t-51.5 -47.5q0 -32 51.5 -46.5t177.5 -14.5z" />
    <glyph glyph-name="nine.denominator" horiz-adv-x="1175" 
d="M1112 365q0 -181 -145 -279t-406 -98q-402 0 -498 170l287 71q36 -29 83 -44t130 -15q123 0 183.5 36t74.5 111q-117 -57 -321 -57q-235 0 -339 56.5t-104 162.5q0 117 126.5 183.5t387.5 66.5q541 0 541 -364zM578 541q-114 0 -166 -15t-52 -47q0 -31 52 -45t166 -14
q217 0 217 59q0 62 -217 62z" />
    <glyph glyph-name="twosevenths" horiz-adv-x="3014" 
d="M78 924l594 186q56 21 74 36.5t18 37.5q0 18 -13 30t-56 20.5t-117 8.5q-115 0 -166.5 -21.5t-63.5 -70.5l-289 51q61 244 510 244q253 0 376.5 -61.5t123.5 -174.5q0 -60 -31 -104.5t-116 -87.5t-232 -80l-65 -16h440v-205h-987v207zM946 0h-403l1628 1434h403z
M2963 547l-434 -547h-338l445 516h-588v201h915v-170z" />
    <glyph glyph-name="twoninths" horiz-adv-x="3026" 
d="M78 924l594 186q56 21 74 36.5t18 37.5q0 18 -13 30t-56 20.5t-117 8.5q-115 0 -166.5 -21.5t-63.5 -70.5l-289 51q61 244 510 244q253 0 376.5 -61.5t123.5 -174.5q0 -60 -31 -104.5t-116 -87.5t-232 -80l-65 -16h440v-205h-987v207zM946 0h-403l1628 1434h403z
M2963 365q0 -181 -144.5 -279t-405.5 -98q-402 0 -498 170l287 71q36 -29 83 -44t130 -15q123 0 183.5 36t74.5 111q-117 -57 -322 -57q-235 0 -338.5 56t-103.5 163q0 117 126.5 183.5t387.5 66.5q540 0 540 -364zM2429 541q-114 0 -165.5 -15t-51.5 -47q0 -31 51.5 -45
t165.5 -14q217 0 217 59q0 62 -217 62z" />
    <glyph glyph-name="threesevenths" horiz-adv-x="2934" 
d="M1100 930q0 -108 -132 -166.5t-397 -58.5q-240 0 -367 55t-153 168l293 49q9 -44 64.5 -64t169.5 -20q116 0 162 15.5t46 45.5q0 35 -67 35h-320v176h322q65 0 65 39q0 53 -206 53q-112 0 -169.5 -18.5t-66.5 -60.5l-281 51q27 105 155.5 161t354.5 56q517 0 517 -203
q0 -114 -152 -156q84 -19 123 -57t39 -100zM866 0h-403l1628 1434h403zM2884 547l-435 -547h-338l445 516h-588v201h916v-170z" />
    <glyph glyph-name="foursevenths" horiz-adv-x="2967" 
d="M987 717h-274v110h-662v174l701 433h235v-420h162v-187h-162v-110zM899 0h-403l1628 1434h403zM395 1014h318v200zM2916 547l-434 -547h-338l445 516h-588v201h915v-170z" />
    <glyph glyph-name="fourninths" horiz-adv-x="2981" 
d="M987 717h-274v110h-662v174l701 433h235v-420h162v-187h-162v-110zM899 0h-403l1628 1434h403zM395 1014h318v200zM2918 365q0 -181 -145 -279t-406 -98q-401 0 -497 170l287 71q36 -29 83 -44t130 -15q123 0 183.5 36t74.5 111q-117 -57 -322 -57q-235 0 -338.5 56
t-103.5 163q0 117 126.5 183.5t387.5 66.5q540 0 540 -364zM2384 541q-114 0 -165.5 -15t-51.5 -47q0 -31 51.5 -45t165.5 -14q217 0 217 59q0 62 -217 62z" />
    <glyph glyph-name="fivesevenths" horiz-adv-x="2885" 
d="M565 705q-225 0 -346 41.5t-164 144.5l291 61q19 -35 64 -48t153 -13q118 0 161.5 16.5t43.5 53.5q0 34 -43.5 49.5t-161.5 15.5q-101 0 -145 -8.5t-88 -30.5l-244 31l53 416h865v-181h-629l-10 -102q99 41 282 41q209 -2 313 -58t105 -173q0 -256 -500 -256zM817 0h-403
l1628 1434h403zM2834 547l-434 -547h-338l445 516h-588v201h915v-170z" />
    <glyph glyph-name="fiveninths" horiz-adv-x="2897" 
d="M565 705q-225 0 -346 41.5t-164 144.5l291 61q19 -35 64 -48t153 -13q118 0 161.5 16.5t43.5 53.5q0 34 -43.5 49.5t-161.5 15.5q-101 0 -145 -8.5t-88 -30.5l-244 31l53 416h865v-181h-629l-10 -102q99 41 282 41q209 -2 313 -58t105 -173q0 -256 -500 -256zM817 0h-403
l1628 1434h403zM2836 365q0 -181 -144.5 -279t-405.5 -98q-402 0 -498 170l287 71q36 -29 83 -44t130 -15q123 0 183.5 36t74.5 111q-117 -57 -322 -57q-235 0 -338.5 56t-103.5 163q0 117 126.5 183.5t387.5 66.5q540 0 540 -364zM2302 541q-114 0 -165.5 -15t-51.5 -47
q0 -31 51.5 -45t165.5 -14q217 0 217 59q0 62 -217 62z" />
    <glyph glyph-name="sixsevenths" horiz-adv-x="2932" 
d="M63 1069q0 181 145 279t406 98q401 0 500 -170l-289 -72q-37 30 -83.5 45t-129.5 15q-124 0 -185 -36.5t-75 -113.5q117 60 324 60q158 0 258 -27.5t142 -75t42 -117.5q0 -117 -126.5 -183t-387.5 -66q-541 0 -541 364zM864 0h-403l1628 1434h403zM598 893
q114 0 165.5 14.5t51.5 46.5q0 60 -217 60t-217 -60q0 -32 52 -46.5t165 -14.5zM2882 547l-435 -547h-338l445 516h-588v201h916v-170z" />
    <glyph glyph-name="sevenninths" horiz-adv-x="2717" 
d="M965 1264l-435 -547h-337l444 516h-588v201h916v-170zM637 0h-404l1629 1434h403zM2654 365q0 -181 -145 -279t-406 -98q-401 0 -497 170l286 71q36 -29 83 -44t130 -15q123 0 183.5 36t74.5 111q-117 -57 -321 -57q-235 0 -339 56.5t-104 162.5q0 117 127 183.5
t388 66.5q540 0 540 -364zM2120 541q-114 0 -165.5 -15t-51.5 -47q0 -31 51.5 -45t165.5 -14q217 0 217 59q0 62 -217 62z" />
    <glyph glyph-name="eightninths" horiz-adv-x="2990" 
d="M606 705q-547 0 -547 223q0 111 189 159q-156 55 -156 154t134.5 152t379.5 53t379.5 -53t134.5 -152q0 -50 -40 -89.5t-115 -64.5q186 -52 186 -159q0 -223 -545 -223zM907 0h-403l1628 1434h403zM606 1276q-113 0 -158 -12t-45 -43q0 -30 46 -43t157 -13q109 0 155 13
t46 43q0 31 -45 43t-156 12zM606 874q128 0 179 14t51 48q0 32 -52 46.5t-178 14.5q-127 0 -178 -14t-51 -47q0 -32 52 -47t177 -15zM2927 365q0 -181 -145 -279t-406 -98q-402 0 -498 170l287 71q36 -29 83 -44t130 -15q123 0 183.5 36t74.5 111q-117 -57 -322 -57
q-235 0 -338.5 56t-103.5 163q0 117 126.5 183.5t387.5 66.5q541 0 541 -364zM2392 541q-114 0 -165.5 -15t-51.5 -47q0 -31 51.5 -45t165.5 -14q217 0 217 59q0 62 -217 62z" />
    <glyph glyph-name="mu" horiz-adv-x="2004" 
d="M1821 1126v-1126h-389l-31 242q-104 -126 -267 -197.5t-356 -71.5q-90 0 -166 15v-398h-428v1536h432v-540q0 -135 74 -205t217 -70q226 0 354 102t128 285v428h432z" />
    <glyph glyph-name="Omega" horiz-adv-x="2445" 
d="M1790 340v-53h422v-287h-821v530q243 54 346.5 126.5t103.5 185.5q0 134 -164.5 209t-453.5 75q-293 0 -457 -74.5t-164 -209.5q0 -114 102.5 -186.5t350.5 -125.5v-530h-822v287h422v53q-277 87 -399.5 209t-122.5 303q0 182 131.5 319.5t379 213t579.5 75.5
q333 0 580 -75.5t378 -212.5t131 -320q0 -180 -124.5 -305t-397.5 -207z" />
    <glyph glyph-name="Delta" horiz-adv-x="2383" 
d="M1425 1434l959 -1434h-2384l958 1434h467zM715 330h938l-469 729z" />
    <glyph glyph-name="at.case" horiz-adv-x="2940" 
d="M2253 123q-171 0 -290.5 50.5t-168.5 143.5q-183 -202 -549 -202q-239 0 -362 83t-123 222q0 69 26 120t87 91.5t165.5 66t257.5 37.5l461 33q-1 84 -62 123t-188 39q-134 0 -201.5 -34t-86.5 -112l-410 43q54 172 230.5 260.5t469.5 88.5q239 0 386.5 -47.5t210.5 -135
t63 -223.5v-303q0 -84 39 -123t123 -39q133 0 214 109t81 303q0 154 -66.5 279t-200.5 218.5t-352.5 145t-505.5 51.5q-297 0 -525.5 -59t-372 -166t-216 -251.5t-72.5 -322.5q0 -352 277.5 -544.5t845.5 -192.5q346 0 676 96l51 -153q-335 -111 -727 -111q-330 0 -582.5 63
t-414 181.5t-243 284.5t-81.5 376q0 216 90.5 393t262.5 304.5t435.5 197.5t595.5 70q317 0 568.5 -63t416.5 -177t251.5 -271.5t86.5 -348.5q0 -128 -34.5 -234.5t-102.5 -187.5t-179 -126.5t-255 -45.5zM1171 451q0 -93 160 -93q185 0 300.5 62.5t129.5 159.5l-452 -39
q-138 -11 -138 -90z" />
    <glyph glyph-name="questiondown.case" horiz-adv-x="1982" 
d="M1262 1434v-336h-459v336h459zM997 313q439 0 482 226l456 -74q-42 -230 -286 -361t-652 -131q-232 0 -410.5 34.5t-287 96.5t-163 142.5t-54.5 177.5q0 94 40 162.5t103.5 106.5t140.5 65t154 45.5t140.5 39t103 55.5t39.5 85h459q-2 -81 -27.5 -145.5t-67.5 -107
t-96 -74.5t-113 -51.5t-118 -34.5t-112 -26.5t-94 -25t-65 -33.5t-24 -47q0 -26 18.5 -46.5t65 -39t140 -29t228.5 -10.5z" />
    <glyph glyph-name="exclamdown.case" horiz-adv-x="894" 
d="M676 1434v-336h-459v336h459zM246 983h403l31 -983h-467z" />
    <glyph glyph-name="parenleft.case" horiz-adv-x="997" 
d="M547 -164q-387 408 -387 871q0 456 387 870h409q-208 -259 -293 -453.5t-85 -416.5t85 -417t293 -454h-409z" />
    <glyph glyph-name="parenright.case" horiz-adv-x="997" 
d="M451 1577q387 -408 387 -870q0 -457 -387 -871h-410q208 260 293.5 455t85.5 416t-85.5 415.5t-293.5 454.5h410z" />
    <glyph glyph-name="braceleft.case" horiz-adv-x="1144" 
d="M455 707q142 -34 204 -112.5t62 -227.5v-95q0 -77 34 -106t128 -29q84 0 207 10l12 -294q-126 -17 -254 -17q-260 0 -389 96.5t-129 303.5v124q0 38 -2.5 60t-12.5 45t-27.5 35.5t-51 25t-79.5 20.5t-116 15v291q70 7 116 15t79.5 20.5t51 25t27.5 35.5t12.5 45t2.5 60
v125q0 207 129 303t389 96q115 0 254 -16l-12 -295q-123 10 -207 10q-92 0 -127 -30t-35 -105v-103q0 -144 -62 -220.5t-204 -110.5z" />
    <glyph glyph-name="braceright.case" horiz-adv-x="1144" 
d="M1104 852v-291q-70 -7 -116 -15t-79.5 -20.5t-51 -25t-27.5 -35.5t-12.5 -45t-2.5 -60v-124q0 -207 -130 -303.5t-388 -96.5q-128 0 -254 17l12 294q120 -10 207 -10q94 0 128 29t34 106v95q0 149 62 227.5t204 112.5q-142 34 -204 110.5t-62 220.5v103q0 75 -35 105
t-127 30q-87 0 -207 -10l-12 295q139 16 254 16q259 0 388.5 -96t129.5 -303v-125q0 -38 2.5 -60t12.5 -45t27.5 -35.5t51 -25t79.5 -20.5t116 -15z" />
    <glyph glyph-name="bracketleft.case" horiz-adv-x="1093" 
d="M217 -164v1741h834v-287h-422v-1167h422v-287h-834z" />
    <glyph glyph-name="bracketright.case" horiz-adv-x="1093" 
d="M877 -164h-834v287h424v1167h-424v287h834v-1741z" />
    <glyph glyph-name="hyphen.case" horiz-adv-x="1263" 
d="M92 580v350h1079v-350h-1079z" />
    <glyph glyph-name="endash.case" horiz-adv-x="1697" 
d="M92 580v350h1514v-350h-1514z" />
    <glyph glyph-name="emdash.case" horiz-adv-x="3393" 
d="M92 580v350h3209v-350h-3209z" />
    <glyph glyph-name="brokenbar.case" horiz-adv-x="860" 
d="M643 829h-426v830h426v-830zM643 -246h-426v871h426v-871z" />
    <glyph glyph-name="bar.case" horiz-adv-x="860" 
d="M643 -246h-426v1905h426v-1905z" />
    <glyph glyph-name="guillemotleft.case" horiz-adv-x="2000" 
d="M926 559v-395l-813 332v422l813 331v-385l-496 -157zM1872 559v-395l-813 332v422l813 331v-385l-496 -157z" />
    <glyph glyph-name="guillemotright.case" horiz-adv-x="2000" 
d="M942 496l-813 -332v385l496 158l-496 147v395l813 -331v-422zM1888 496l-813 -332v385l496 158l-496 147v395l813 -331v-422z" />
    <glyph glyph-name="guilsinglleft.case" horiz-adv-x="1054" 
d="M926 559v-395l-813 332v422l813 331v-385l-496 -157z" />
    <glyph glyph-name="guilsinglright.case" horiz-adv-x="1054" 
d="M942 496l-813 -332v385l496 158l-496 147v395l813 -331v-422z" />
    <glyph glyph-name="afii10021.bg" horiz-adv-x="2469" 
d="M33 -354v702h225l739 1086h476l737 -1086h227v-702h-432v354h-1540v-354h-432zM741 348h965l-479 713z" />
    <glyph glyph-name="afii10029.bg" horiz-adv-x="2383" 
d="M1860 0l-676 1030l-688 -1030h-496l954 1434h476l954 -1434h-524z" />
    <glyph glyph-name="afii10038.bg" horiz-adv-x="2717" 
d="M1126 -199v199h-96q-451 0 -702.5 191t-251.5 526q0 333 252.5 525t701.5 192h96v184h453v-184h109q448 0 701 -192t253 -525q0 -335 -251.5 -526t-702.5 -191h-109v-199h-453zM2204 717q0 194 -124.5 290.5t-391.5 96.5h-115v-774h115q267 0 391.5 97t124.5 290z
M514 717q0 -193 124.5 -290t391.5 -97h100v774h-100q-267 0 -391.5 -96.5t-124.5 -290.5z" />
    <glyph glyph-name="afii10066.sb" horiz-adv-x="2037" 
d="M1012 -27q-467 0 -695.5 129t-228.5 371q0 286 340 399q91 26 240 39l-168 25q-171 33 -260.5 101.5t-89.5 189.5q0 151 118 227.5t367 77.5l866 4q186 3 318 27l30 -293q-134 -30 -350 -33l-840 -2q-32 0 -46.5 -9t-14.5 -32q0 -24 26.5 -37.5t112.5 -34.5l475 -57
q203 -28 346 -76.5t227.5 -118.5t122.5 -154t38 -192q0 -259 -240.5 -405t-693.5 -146zM1012 285q257 0 374 57t117 182q0 123 -117 181.5t-372 58.5q-251 0 -367.5 -58.5t-116.5 -181.5q0 -125 114.5 -182t367.5 -57z" />
    <glyph glyph-name="afii10067.bg" horiz-adv-x="1986" 
d="M113 942q0 297 225 459t657 162q865 0 865 -437q0 -124 -75.5 -209t-246.5 -129q183 -32 269.5 -115t86.5 -222q0 -110 -52 -196t-158.5 -150t-280.5 -98t-408 -34q-434 0 -658 160.5t-224 460.5v348zM530 963v-39h684q112 0 164 37t52 112q0 64 -35.5 101t-132.5 57
t-271 20q-461 0 -461 -288zM530 580q0 -295 465 -295q179 0 277.5 22t132 60.5t33.5 105.5q0 156 -224 156h-684v-49z" />
    <glyph glyph-name="afii10068.bg" horiz-adv-x="1880" 
d="M946 887q-216 0 -310.5 -28.5t-119.5 -98.5l-416 67q65 172 264.5 249t585.5 77q393 0 602 -97t209 -276q0 -159 -148.5 -240.5t-477.5 -103.5l-424 -24q-114 -7 -155.5 -25t-41.5 -57q0 -46 101.5 -66t349.5 -20q194 0 293.5 33.5t125.5 109.5l431 -68
q-71 -185 -272 -265.5t-591 -80.5q-870 0 -870 394q0 153 139 227t463 96l422 23q133 6 182 23.5t49 58.5q0 48 -91.5 70t-299.5 22z" />
    <glyph glyph-name="afii10069.bg" horiz-adv-x="2121" 
d="M850 55q-360 0 -561 145.5t-201 403.5q0 257 202.5 403t559.5 146q217 0 391 -57.5t281 -161.5l20 192h395v-940q0 -313 -229.5 -467.5t-695.5 -154.5q-187 0 -339.5 23t-272.5 70t-196 124t-100 180l459 45q49 -145 441 -145q267 0 384 72.5t117 226.5v96
q-107 -96 -275 -148.5t-380 -52.5zM1004 373q247 0 374 58.5t127 172.5q0 113 -127.5 172.5t-373.5 59.5q-243 0 -358.5 -57t-115.5 -175t115.5 -174.5t358.5 -56.5z" />
    <glyph glyph-name="afii10072.bg" horiz-adv-x="2646" 
d="M1104 0v487l-531 -487h-577l721 635l-701 491h576l512 -397v807h426v-817l526 407h576l-703 -491l723 -635h-579l-543 498v-498h-426z" />
    <glyph glyph-name="afii10073.bg" horiz-adv-x="1943" 
d="M477 635l-395 92q56 209 276 317.5t603 108.5q431 0 651.5 -107t220.5 -317q0 -121 -80.5 -202t-253.5 -128q359 -70 359 -352q0 -237 -226.5 -360t-677.5 -123q-408 0 -625 110t-276 336l422 86q19 -113 135.5 -165t358.5 -52q222 0 326 46t104 143q0 81 -50.5 118
t-168.5 37h-484v318h484q118 0 167.5 34.5t49.5 102.5q0 84 -103.5 122t-322.5 38q-232 0 -352 -49.5t-142 -153.5z" />
    <glyph glyph-name="afii10074.bg" horiz-adv-x="1990" 
d="M1374 698v428h432v-1126h-389l-31 242q-104 -126 -266.5 -197.5t-355.5 -71.5q-291 0 -442.5 137t-151.5 398v618h432v-540q0 -135 74 -205t217 -70q226 0 353.5 102t127.5 285z" />
    <glyph glyph-name="afii10075.bg" horiz-adv-x="1990" 
d="M1192 1616h391q0 -128 -77.5 -216.5t-209.5 -130.5t-307 -42q-174 0 -305.5 42t-209 131t-77.5 216h391q0 -70 52 -110t149 -40t150 40t53 110zM1374 698v428h432v-1126h-389l-31 242q-104 -126 -266.5 -197.5t-355.5 -71.5q-291 0 -442.5 137t-151.5 398v618h432v-540
q0 -135 74 -205t217 -70q226 0 353.5 102t127.5 285z" />
    <glyph glyph-name="afii10076.bg" horiz-adv-x="1955" 
d="M184 0v1536h432v-842l707 432h612l-848 -501l875 -625h-639l-707 512v-512h-432z" />
    <glyph glyph-name="afii10077.bg" horiz-adv-x="1916" 
d="M1155 1126l766 -1126h-485l-492 731l-489 -731h-463l749 1126h414z" />
    <glyph glyph-name="afii10081.bg" horiz-adv-x="2052" 
d="M184 0v1126h389l31 -243q108 127 278.5 198.5t372.5 71.5q308 0 467.5 -136t159.5 -396v-621h-432v535q0 138 -84.5 210t-249.5 72q-235 0 -367.5 -103t-132.5 -286v-428h-432z" />
    <glyph glyph-name="afii10084.bg" horiz-adv-x="3059" 
d="M184 0v1126h396l24 -233q100 122 249.5 191t324.5 69q193 0 327 -71.5t197 -207.5q98 131 256 205t352 74q274 0 427 -141t153 -396v-616h-432v537q0 137 -76 207.5t-225 70.5q-189 0 -296.5 -103t-107.5 -284v-428h-432v537q0 137 -76 207.5t-225 70.5
q-189 0 -296.5 -103t-107.5 -284v-428h-432z" />
    <glyph glyph-name="afii10088.bg" horiz-adv-x="2048" 
d="M1374 698v428h432v-798h211v-662h-407v334h-193l-31 242q-104 -126 -266.5 -197.5t-355.5 -71.5q-291 0 -442.5 137t-151.5 398v618h432v-540q0 -135 74 -205t217 -70q226 0 353.5 102t127.5 285z" />
    <glyph glyph-name="afii10090.bg" horiz-adv-x="2889" 
d="M1223 698v428h430v-536q0 -137 69.5 -208t202.5 -71q164 0 256 102.5t92 284.5v428h432v-1126h-395l-24 221q-92 -117 -226.5 -182.5t-292.5 -65.5q-181 0 -305.5 69.5t-185.5 199.5q-92 -127 -236.5 -198t-318.5 -71q-261 0 -406 141t-145 396v616h432v-536
q0 -137 68.5 -208t203.5 -71q164 0 256.5 102.5t92.5 284.5z" />
    <glyph glyph-name="afii10091.bg" horiz-adv-x="2942" 
d="M1223 698v428h430v-536q0 -137 69.5 -208t202.5 -71q164 0 256 102.5t92 284.5v428h432v-798h211v-662h-407v334h-193l-26 227q-92 -119 -229 -186.5t-294 -67.5q-180 0 -305 69.5t-186 199.5q-92 -127 -236.5 -198t-318.5 -71q-261 0 -406 141t-145 396v616h432v-536
q0 -137 68.5 -208t203.5 -71q163 0 256 103t93 284z" />
    <glyph glyph-name="afii10092.bg" horiz-adv-x="2217" 
d="M25 811v315h864v-292h684q284 0 430.5 -107.5t146.5 -298.5q0 -105 -50.5 -187.5t-153.5 -143t-269.5 -92.5t-388.5 -32q-823 0 -823 473v365h-440zM889 432q0 -63 29.5 -98t118.5 -54.5t255 -19.5q181 0 281 20.5t132 53.5t32 88q0 65 -47 99t-160 34h-641v-123z" />
    <glyph glyph-name="afii10094.bg" horiz-adv-x="1918" 
d="M1851 428q0 -105 -50 -187.5t-152.5 -143t-269 -92.5t-388.5 -32q-825 0 -825 473v680h426v-292h682q285 0 431 -107.5t146 -298.5zM592 432q0 -63 29.5 -98t118.5 -54.5t255 -19.5q180 0 280 20.5t132.5 53.5t32.5 88q0 65 -48 99t-161 34h-639v-123z" />
    <glyph glyph-name="afii10096.bg" horiz-adv-x="2729" 
d="M184 0v1536h432v-791h203q71 197 301 302.5t594 105.5q445 0 686.5 -154t241.5 -436q0 -284 -240 -437t-688 -153q-383 0 -616.5 115.5t-290.5 331.5h-191v-420h-432zM1714 289q253 0 369.5 65.5t116.5 208.5t-116.5 209t-369.5 66t-368 -66t-115 -209t115 -208.5
t368 -65.5z" />
    <glyph glyph-name="uni045D.bg" horiz-adv-x="1990" 
d="M1233 1245h-385l-543 332h569zM1374 698v428h432v-1126h-389l-31 242q-104 -126 -266.5 -197.5t-355.5 -71.5q-291 0 -442.5 137t-151.5 398v618h432v-540q0 -135 74 -205t217 -70q226 0 353.5 102t127.5 285z" />
    <glyph glyph-name="breve_cyr" horiz-adv-x="1423" 
d="M926 1915h407q0 -203 -164 -317.5t-458 -114.5q-293 0 -458 114.5t-165 317.5h410q0 -77 57 -121.5t156 -44.5q100 0 157.5 44.5t57.5 121.5z" />
    </font>
</defs>
</svg>
