<?xml version="1.0" standalone="no"?>
<!DOCTYPE svg PUBLIC "-//W3C//DTD SVG 1.1//EN" "http://www.w3.org/Graphics/SVG/1.1/DTD/svg11.dtd" >
<svg xmlns="http://www.w3.org/2000/svg" xmlns:xlink="http://www.w3.org/1999/xlink" version="1.1">
<metadata>
Created by FontForge 20201107 at Fri Nov 20 14:14:24 2020
 By 
Copyright 2019 BlackFoundry
</metadata>
<defs>
<font id="GrtskGiga-Light" horiz-adv-x="1024" >
  <font-face 
    font-family="Grtsk Giga Light"
    font-weight="300"
    font-stretch="normal"
    units-per-em="2048"
    panose-1="0 0 0 0 0 0 0 0 0 0"
    ascent="1536"
    descent="-512"
    x-height="1110"
    cap-height="1434"
    bbox="-397 -446 3772 1993"
    underline-thickness="102"
    underline-position="-460"
    unicode-range="U+000D-F6C3"
  />
<missing-glyph horiz-adv-x="2508" 
d="M315 0v1434h1878v-1434h-1878zM473 125h1563v1182h-1563v-1182z" />
    <glyph glyph-name=".notdef" horiz-adv-x="2508" 
d="M315 0v1434h1878v-1434h-1878zM473 125h1563v1182h-1563v-1182z" />
    <glyph glyph-name=".null" horiz-adv-x="0" 
 />
    <glyph glyph-name=".null" horiz-adv-x="0" 
 />
    <glyph glyph-name="nonmarkingreturn" horiz-adv-x="682" 
 />
    <glyph glyph-name="CR" unicode="&#xd;" horiz-adv-x="0" 
 />
    <glyph glyph-name="space" unicode=" " horiz-adv-x="788" 
 />
    <glyph glyph-name="exclam" unicode="!" horiz-adv-x="788" 
d="M467 369h-143l-11 1065h162zM305 0v174h178v-174h-178z" />
    <glyph glyph-name="quotedbl" unicode="&#x22;" horiz-adv-x="1128" 
d="M256 872l-6 562h145l-4 -562h-135zM737 872l-6 562h146l-7 -562h-133z" />
    <glyph glyph-name="numbersign" unicode="#" horiz-adv-x="2312" 
d="M356 0l115 377h-391v112h426l137 455h-444v113h479l115 377h151l-115 -377h861l114 377h152l-115 -377h391v-113h-426l-139 -455h447v-112h-482l-114 -377h-152l115 377h-858l-115 -377h-152zM657 489h859l139 455h-860z" />
    <glyph glyph-name="dollar" unicode="$" horiz-adv-x="2215" 
d="M145 434l164 29q33 -167 227.5 -258.5t518.5 -100.5v568l-236 12q-320 21 -470 104t-150 252q0 196 220.5 305t635.5 109v143h106v-145q760 -23 860 -428l-163 -29q-79 313 -697 334v-532l260 -13q343 -22 492 -105.5t149 -260.5q0 -214 -228.5 -324.5t-672.5 -113.5
v-144h-106v144q-394 11 -630.5 124.5t-279.5 329.5zM858 813l197 -10v528q-344 -1 -520.5 -74t-176.5 -206q0 -115 116 -167.5t384 -70.5zM1376 655l-215 11v-564q372 3 556 81t184 223q0 124 -117 177.5t-408 71.5z" />
    <glyph glyph-name="percent" unicode="%" horiz-adv-x="2050" 
d="M506 1454q179 0 283 -83.5t104 -217.5q0 -135 -104.5 -220t-282.5 -85t-282.5 85t-104.5 220q0 134 104 217.5t283 83.5zM1688 1434h178l-1506 -1434h-178zM506 948q120 0 187 55.5t67 149.5q0 92 -67.5 146.5t-186.5 54.5t-186.5 -54.5t-67.5 -146.5q0 -94 67 -149.5
t187 -55.5zM1542 584q178 0 282.5 -85t104.5 -218q0 -134 -104 -217.5t-283 -83.5t-283 83.5t-104 217.5q0 133 104.5 218t282.5 85zM1542 78q119 0 187.5 55t68.5 148q0 92 -68 147t-188 55t-187 -54.5t-67 -147.5t67.5 -148t186.5 -55z" />
    <glyph glyph-name="ampersand" unicode="&#x26;" horiz-adv-x="2242" 
d="M879 -20q-199 0 -348 29t-238 81.5t-132.5 120.5t-43.5 151q0 88 37 151.5t131 120t256 103.5l174 41q-173 104 -233 177t-60 161q0 154 144.5 246t418.5 92q254 0 398.5 -92.5t144.5 -237.5q0 -118 -95.5 -196t-338.5 -152l-88 -24l647 -371q112 132 151 336l150 -21
q-38 -228 -176 -387l538 -309h-243l-385 221q-287 -241 -809 -241zM858 838l25 -15l121 35q149 46 230 87t110.5 81t29.5 96q0 96 -103 155.5t-286 59.5q-197 0 -301 -60.5t-104 -158.5q0 -69 54 -124t224 -156zM281 373q0 -124 148 -200.5t454 -76.5q439 0 680 197
l-723 414l-201 -54q-144 -44 -222.5 -86t-107 -86t-28.5 -108z" />
    <glyph glyph-name="quotesingle" unicode="'" horiz-adv-x="647" 
d="M256 872l-6 562h145l-4 -562h-135z" />
    <glyph glyph-name="parenleft" unicode="(" horiz-adv-x="858" 
d="M575 -307q-177 221 -258 432t-81 438q0 226 81 437.5t258 433.5h150q-182 -233 -262 -438.5t-80 -432.5q0 -226 80 -431.5t262 -438.5h-150z" />
    <glyph glyph-name="parenright" unicode=")" horiz-adv-x="858" 
d="M281 1434q178 -222 260 -433.5t82 -437.5q0 -227 -82 -437.5t-260 -432.5h-150q182 232 263 437.5t81 432.5q0 224 -81 430t-263 441h150z" />
    <glyph glyph-name="asterisk" unicode="*" horiz-adv-x="1067" 
d="M874 713l-92 -74l-247 313l-250 -313l-90 74l262 280l-379 90l35 111l376 -119l-16 363h121l-16 -363l376 119l35 -111l-379 -88z" />
    <glyph glyph-name="plus" unicode="+" horiz-adv-x="1320" 
d="M1190 664h-463v-390h-133v390h-461v114h461v389h133v-389h463v-114z" />
    <glyph glyph-name="comma" unicode="," horiz-adv-x="610" 
d="M217 184h178v-237q0 -172 -66.5 -241.5t-232.5 -72.5l-8 95q124 0 164.5 42t40.5 162v68h-76v184z" />
    <glyph glyph-name="hyphen" unicode="-" horiz-adv-x="1263" 
d="M125 524v125h1012v-125h-1012z" />
    <glyph glyph-name="period" unicode="." horiz-adv-x="610" 
d="M217 0v184h178v-184h-178z" />
    <glyph glyph-name="slash" unicode="/" horiz-adv-x="1105" 
d="M102 -307l721 1741h158l-719 -1741h-160z" />
    <glyph glyph-name="zero" unicode="0" horiz-adv-x="2306" 
d="M1153 -20q-462 0 -723.5 195.5t-261.5 541.5t261.5 541.5t723.5 195.5q463 0 724 -195.5t261 -541.5t-261.5 -541.5t-723.5 -195.5zM1153 102q391 0 607 162t216 453q0 289 -216 450.5t-607 161.5t-607 -161.5t-216 -450.5q0 -291 216 -453t607 -162z" />
    <glyph glyph-name="one" unicode="1" horiz-adv-x="1916" 
d="M133 0v125h828v1175l-807 -122v129l825 127h139v-1309h746v-125h-1731z" />
    <glyph glyph-name="two" unicode="2" horiz-adv-x="1964" 
d="M145 121l1039 481q194 89 295.5 157t136.5 125.5t35 135.5q0 147 -172 230t-494 83q-309 0 -484 -90.5t-200 -257.5l-160 31q40 211 257.5 324.5t586.5 113.5q401 0 616.5 -113.5t215.5 -314.5q0 -80 -22.5 -139.5t-86 -122.5t-177 -126.5t-294.5 -141.5l-801 -371h1434
v-125h-1725v121z" />
    <glyph glyph-name="three" unicode="3" horiz-adv-x="2095" 
d="M1933 387q0 -206 -214 -306.5t-679 -100.5q-290 0 -479 43.5t-289 126t-139 212.5l164 33q28 -101 108.5 -165.5t238.5 -100t398 -35.5q379 0 548 73.5t169 227.5q0 132 -125 202.5t-366 70.5h-637v116h635q223 0 343 70t120 197q0 137 -174.5 211.5t-514.5 74.5
q-227 0 -379.5 -35.5t-233 -99.5t-110.5 -162l-155 35q60 189 269.5 284t606.5 95q424 0 641 -99.5t217 -287.5q0 -129 -91.5 -214.5t-264.5 -119.5q193 -31 293 -118.5t100 -227.5z" />
    <glyph glyph-name="four" unicode="4" horiz-adv-x="2179" 
d="M1741 0h-154v328h-1493v118l1489 988h158v-988h403v-118h-403v-328zM303 446h1284v848z" />
    <glyph glyph-name="five" unicode="5" horiz-adv-x="2095" 
d="M1055 -20q-385 0 -608.5 87.5t-290.5 270.5l163 35q49 -135 236.5 -204t501.5 -69q723 0 723 355q0 173 -182 264.5t-535 91.5q-232 0 -408.5 -39.5t-273.5 -112.5l-143 15l100 760h1503v-115h-1368l-74 -543q130 69 310 107.5t383 38.5q412 0 630.5 -120t219.5 -349
q0 -231 -224 -352t-663 -121z" />
    <glyph glyph-name="six" unicode="6" horiz-adv-x="2164" 
d="M168 682q0 372 246 572t706 200q359 0 581.5 -90.5t293.5 -263.5l-162 -33q-56 131 -237 198.5t-476 67.5q-388 0 -590 -167.5t-202 -493.5v-31q84 117 301 182.5t534 65.5q417 0 635.5 -113t218.5 -330q0 -221 -229 -343.5t-664 -122.5q-470 0 -713 178.5t-243 523.5z
M1124 98q354 0 541.5 93t187.5 255q0 158 -188 244t-541 86q-350 0 -550.5 -78.5t-200.5 -208.5q0 -175 205.5 -283t545.5 -108z" />
    <glyph glyph-name="seven" unicode="7" horiz-adv-x="1859" 
d="M1800 1311l-1116 -1311h-199l1127 1307h-1542v127h1730v-123z" />
    <glyph glyph-name="eight" unicode="8" horiz-adv-x="2197" 
d="M1098 -20q-465 0 -704.5 105.5t-239.5 305.5q0 135 124 225.5t367 131.5q-202 41 -305.5 125.5t-103.5 207.5q0 180 220.5 276.5t641.5 96.5t641.5 -96.5t220.5 -276.5q0 -123 -103 -207.5t-305 -125.5q243 -41 366.5 -131.5t123.5 -225.5q0 -200 -239 -305.5
t-705 -105.5zM1794 1069q0 268 -696 268q-697 0 -697 -268q0 -264 697 -264q696 0 696 264zM1098 96q389 0 582.5 76t193.5 221q0 142 -193 216.5t-583 74.5t-582 -74.5t-192 -216.5q0 -145 193 -221t581 -76z" />
    <glyph glyph-name="nine" unicode="9" horiz-adv-x="2166" 
d="M1997 752q0 -372 -246.5 -572t-706.5 -200q-359 0 -581 90.5t-291 263.5l162 33q56 -131 236.5 -199t473.5 -68q390 0 592.5 168t202.5 494v31q-83 -117 -300 -182.5t-535 -65.5q-417 0 -637 113t-220 329q0 221 229.5 344t663.5 123q470 0 713.5 -179t243.5 -523z
M1040 1335q-354 0 -541.5 -93t-187.5 -255q0 -158 188 -244t541 -86q350 0 552 78.5t202 208.5q0 175 -206.5 283t-547.5 108z" />
    <glyph glyph-name="colon" unicode=":" horiz-adv-x="610" 
d="M217 926v184h178v-184h-178zM217 0v184h178v-184h-178z" />
    <glyph glyph-name="semicolon" unicode=";" horiz-adv-x="610" 
d="M217 926v184h178v-184h-178zM217 184h178v-237q0 -172 -66.5 -241.5t-232.5 -72.5l-8 95q124 0 164.5 42t40.5 162v68h-76v184z" />
    <glyph glyph-name="less" unicode="&#x3c;" horiz-adv-x="1320" 
d="M121 657v119l1057 436v-135l-897 -356l897 -356v-142z" />
    <glyph glyph-name="equal" unicode="=" horiz-adv-x="1320" 
d="M1190 899h-1057v113h1057v-113zM1190 428h-1057v113h1057v-113z" />
    <glyph glyph-name="greater" unicode="&#x3e;" horiz-adv-x="1320" 
d="M1200 776v-119l-1057 -434v133l897 357l-897 356v143z" />
    <glyph glyph-name="question" unicode="?" horiz-adv-x="1941" 
d="M973 1331q-317 0 -505 -90.5t-208 -271.5l-158 26q26 221 257 340t614 119q404 0 621.5 -114t217.5 -296q0 -69 -27.5 -125.5t-73.5 -94.5t-106.5 -69.5t-127.5 -55t-134 -46.5t-129 -49.5t-110 -57.5t-78.5 -76t-34.5 -101h-160q5 72 36 130.5t79.5 98t110.5 71.5
t129 56t133.5 46t126.5 47t106.5 54.5t73.5 72t27 95.5q0 130 -172 210.5t-508 80.5zM823 0v174h178v-174h-178z" />
    <glyph glyph-name="at" unicode="@" horiz-adv-x="2658" 
d="M2042 -12q-129 0 -204 61.5t-75 165.5v29q-85 -125 -245.5 -196t-356.5 -71q-193 0 -300 76.5t-107 206.5q0 128 96 200t309 87l602 35v34q0 151 -104.5 218t-296.5 67q-179 0 -291 -57.5t-129 -169.5l-145 16q29 152 179.5 231.5t385.5 79.5q271 0 409 -90.5t138 -289.5
v-400q0 -155 159 -155q155 0 260 130t105 361q0 175 -74.5 322t-212.5 253.5t-345 166t-462 59.5q-258 0 -468.5 -66.5t-351 -184.5t-216.5 -281.5t-76 -356.5q0 -184 67.5 -334t199 -260t338 -170.5t473.5 -60.5q368 0 669 131l29 -66q-308 -139 -698 -139
q-285 0 -507.5 65.5t-365.5 185t-217 283.5t-74 365q0 210 84 388t236.5 305.5t378.5 199.5t499 72q270 0 492.5 -65t373.5 -180.5t233.5 -277.5t82.5 -354q0 -263 -131.5 -416t-345.5 -153zM901 268q0 -88 72 -138t203 -50q156 0 291 50.5t215.5 139t80.5 193.5v24
l-598 -38q-264 -17 -264 -181z" />
    <glyph glyph-name="A" unicode="A" horiz-adv-x="2185" 
d="M1974 0l-282 414h-1207l-280 -414h-176l979 1434h159l990 -1434h-183zM567 535h1043l-525 765z" />
    <glyph glyph-name="B" unicode="B" horiz-adv-x="2330" 
d="M315 0v1434h1280q225 0 351.5 -93.5t126.5 -263.5q0 -119 -70.5 -210.5t-208.5 -125.5q179 -29 271 -121.5t92 -236.5q0 -184 -133 -283.5t-392 -99.5h-1317zM1569 1317h-1100v-526h1114q146 0 238 71.5t92 198.5q0 124 -88.5 190t-255.5 66zM1595 672h-1126v-555h1135
q391 0 391 276q0 135 -103 207t-297 72z" />
    <glyph glyph-name="C" unicode="C" horiz-adv-x="2324" 
d="M168 717q0 343 276 540t762 197q409 0 662 -122.5t319 -354.5l-166 -35q-57 190 -265.5 288.5t-549.5 98.5q-417 0 -646.5 -162t-229.5 -450q0 -289 229 -451t647 -162q354 0 565.5 100.5t260.5 299.5l163 -35q-64 -243 -315.5 -366t-673.5 -123q-491 0 -764.5 195.5
t-273.5 541.5z" />
    <glyph glyph-name="D" unicode="D" horiz-adv-x="2398" 
d="M315 0v1434h1022q424 0 653.5 -190t229.5 -525q0 -340 -229 -529.5t-654 -189.5h-1022zM1348 127q345 0 527.5 155.5t182.5 436.5q0 279 -182.5 433.5t-527.5 154.5h-875v-1180h875z" />
    <glyph glyph-name="E" unicode="E" horiz-adv-x="2131" 
d="M315 0v1434h1639v-123h-1485v-514h1358v-123h-1358v-551h1503v-123h-1657z" />
    <glyph glyph-name="F" unicode="F" horiz-adv-x="2072" 
d="M315 0v1434h1637v-127h-1479v-562h1354v-127h-1354v-618h-158z" />
    <glyph glyph-name="G" unicode="G" horiz-adv-x="2471" 
d="M168 715q0 347 283 543t790 196q415 0 674 -117t328 -333l-164 -35q-61 172 -277 266t-563 94q-434 0 -671.5 -162t-237.5 -452t231.5 -450.5t669.5 -160.5q378 0 593.5 122.5t268.5 344.5h-909v121h1079v-692h-123l-18 371v14q-106 -196 -333 -300.5t-568 -104.5
q-504 0 -778.5 194t-274.5 541z" />
    <glyph glyph-name="H" unicode="H" horiz-adv-x="2506" 
d="M315 0v1434h158v-629h1561v629h157v-1434h-157v680h-1561v-680h-158z" />
    <glyph glyph-name="I" unicode="I" horiz-adv-x="788" 
d="M315 0v1434h158v-1434h-158z" />
    <glyph glyph-name="J" unicode="J" horiz-adv-x="1376" 
d="M1098 553q0 -298 -154.5 -435.5t-494.5 -137.5q-194 0 -367 30l-8 129q188 -33 362 -33q265 0 384.5 105t119.5 336v887h158v-881z" />
    <glyph glyph-name="K" unicode="K" horiz-adv-x="2144" 
d="M315 0v1434h156v-758l1331 758h246l-1167 -670l1235 -764h-263l-1114 680l-268 -154v-526h-156z" />
    <glyph glyph-name="L" unicode="L" horiz-adv-x="1863" 
d="M315 0v1434h158v-1307h1307v-127h-1465z" />
    <glyph glyph-name="M" unicode="M" horiz-adv-x="2889" 
d="M315 0v1434h164l969 -1055l962 1055h164v-1434h-153v1247l-905 -1001h-138l-911 997v-1243h-152z" />
    <glyph glyph-name="N" unicode="N" horiz-adv-x="2467" 
d="M315 0v1434h156l1532 -1268v1268h149v-1434h-155l-1532 1266v-1266h-150z" />
    <glyph glyph-name="O" unicode="O" horiz-adv-x="2445" 
d="M1223 -20q-501 0 -778 195t-277 538q0 347 277 544t778 197q500 0 777 -197t277 -542q0 -344 -277 -539.5t-777 -195.5zM1223 104q429 0 661 162t232 449q0 289 -232 451.5t-661 162.5t-661 -163t-232 -453q0 -286 232 -447.5t661 -161.5z" />
    <glyph glyph-name="P" unicode="P" horiz-adv-x="2191" 
d="M315 0v1434h1164q281 0 435 -129t154 -357q0 -227 -155 -355t-436 -128h-1004v-465h-158zM1456 1307h-983v-715h983q219 0 335 93t116 263q0 172 -116 265.5t-335 93.5z" />
    <glyph glyph-name="Q" unicode="Q" horiz-adv-x="2461" 
d="M1223 -20q-501 0 -778 195t-277 538q0 347 277 544t778 197q500 0 777 -197t277 -542q0 -194 -92.5 -345t-267.5 -245l303 -303h-186l-246 246q-238 -88 -565 -88zM1223 104q275 0 467 68l-377 373h182l322 -320q147 78 223 202.5t76 287.5q0 289 -232 451.5t-661 162.5
t-661 -163t-232 -453q0 -287 232 -448t661 -161z" />
    <glyph glyph-name="R" unicode="R" horiz-adv-x="2242" 
d="M315 0v1434h1201q265 0 403.5 -114t138.5 -325q0 -208 -140.5 -322t-401.5 -114h-68l608 -559h-213l-604 557h-766v-557h-158zM1493 1311h-1020v-631h1020q196 0 300.5 80.5t104.5 234.5q0 156 -102.5 236t-302.5 80z" />
    <glyph glyph-name="S" unicode="S" horiz-adv-x="2215" 
d="M145 434l164 29q35 -176 250 -267.5t574 -91.5q387 0 577.5 77.5t190.5 224.5q0 124 -116.5 177t-408.5 72l-557 29q-321 22 -470.5 105t-149.5 251q0 197 221.5 305.5t642.5 108.5q850 0 958 -430l-163 -29q-85 334 -795 334q-348 0 -526.5 -72.5t-178.5 -205.5
q0 -115 115.5 -167t384.5 -71l563 -29q344 -24 492.5 -107t148.5 -261q0 -216 -236.5 -326t-695.5 -110q-281 0 -488.5 48.5t-337 151t-159.5 254.5z" />
    <glyph glyph-name="T" unicode="T" horiz-adv-x="2052" 
d="M946 0v1307h-889v127h1936v-127h-889v-1307h-158z" />
    <glyph glyph-name="U" unicode="U" horiz-adv-x="2336" 
d="M2087 688q0 -338 -242.5 -523t-677.5 -185t-676 184.5t-241 523.5v746h158v-742q0 -283 198 -435.5t561 -152.5q365 0 563.5 152.5t198.5 435.5v742h158v-746z" />
    <glyph glyph-name="V" unicode="V" horiz-adv-x="2097" 
d="M233 1434l818 -1287l819 1287h176l-918 -1434h-163l-914 1434h182z" />
    <glyph glyph-name="W" unicode="W" horiz-adv-x="3022" 
d="M715 0l-666 1434h172l586 -1274l625 1274h161l623 -1268l590 1268h166l-672 -1434h-164l-627 1284l-630 -1284h-164z" />
    <glyph glyph-name="X" unicode="X" horiz-adv-x="1996" 
d="M272 0h-209l822 727l-801 707h213l704 -619l709 619h207l-813 -709l821 -725h-213l-723 637z" />
    <glyph glyph-name="Y" unicode="Y" horiz-adv-x="1961" 
d="M899 0v584l-860 850h207l735 -727l745 727h197l-866 -852v-582h-158z" />
    <glyph glyph-name="Z" unicode="Z" horiz-adv-x="2029" 
d="M145 0v115l1493 1192h-1488v127h1744v-109l-1505 -1198h1505v-127h-1749z" />
    <glyph glyph-name="bracketleft" unicode="[" horiz-adv-x="985" 
d="M315 -307v1741h609v-109h-463v-1524h463v-108h-609z" />
    <glyph glyph-name="backslash" unicode="\" horiz-adv-x="1105" 
d="M1004 -307h-160l-719 1741h158z" />
    <glyph glyph-name="bracketright" unicode="]" horiz-adv-x="985" 
d="M670 -307h-609v108h463v1524h-463v109h609v-1741z" />
    <glyph glyph-name="asciicircum" unicode="^" horiz-adv-x="1378" 
d="M604 1434h168l485 -861h-165l-406 748l-403 -748h-162z" />
    <glyph glyph-name="underscore" unicode="_" horiz-adv-x="1421" 
d="M100 -125v125h1223v-125h-1223z" />
    <glyph glyph-name="grave" unicode="`" 
d="M586 1249h-148l-467 320h211z" />
    <glyph glyph-name="a" unicode="a" horiz-adv-x="1880" 
d="M162 786q83 347 739 347q269 0 432.5 -49t234 -144t70.5 -246v-467q0 -66 24 -99.5t93 -33.5q17 0 53 4l-6 -106q-52 -10 -94 -10q-113 0 -163 56t-50 167v94q-107 -148 -340.5 -233.5t-509.5 -85.5q-266 0 -405.5 81.5t-139.5 239.5q0 150 122 229.5t392 92.5l879 36v23
q0 116 -55 188t-186.5 110t-350.5 38q-537 0 -586 -256zM252 307q0 -213 412 -213q215 0 403.5 52.5t308 153t119.5 226.5v31l-883 -41q-185 -9 -272.5 -59t-87.5 -150z" />
    <glyph glyph-name="b" unicode="b" horiz-adv-x="2099" 
d="M397 0h-135v1536h150v-707q98 143 295 223.5t460 80.5q367 0 574 -156.5t207 -421.5t-207 -420t-574 -155q-264 0 -462 80t-295 223zM1122 94q320 0 496 123.5t176 337.5q0 212 -176.5 336.5t-495.5 124.5q-322 0 -516 -126.5t-194 -336.5q0 -207 194.5 -333t515.5 -126z
" />
    <glyph glyph-name="c" unicode="c" horiz-adv-x="1929" 
d="M1802 731l-153 -29q-32 154 -203.5 234t-452.5 80q-332 0 -510 -121t-178 -340q0 -217 179 -339t509 -122q289 0 459 79t203 235l153 -31q-45 -195 -257 -296t-558 -101q-399 0 -621 153t-222 422q0 270 222 424t621 154q339 0 552 -103.5t257 -298.5z" />
    <glyph glyph-name="d" unicode="d" horiz-adv-x="2099" 
d="M932 -20q-368 0 -575 155t-207 420t207.5 421.5t574.5 156.5q262 0 458.5 -80t295.5 -222v705h151v-1536h-139l-10 279q-99 -142 -296 -220.5t-460 -78.5zM975 94q322 0 516.5 126t194.5 333q0 139 -87.5 244t-249 162t-374.5 57q-320 0 -495 -123.5t-175 -337.5
t175 -337.5t495 -123.5z" />
    <glyph glyph-name="e" unicode="e" horiz-adv-x="1968" 
d="M995 -20q-402 0 -623.5 155.5t-221.5 427.5q0 265 220.5 417.5t618.5 152.5q393 0 617.5 -151t224.5 -407q0 -21 -4 -57h-1526q19 -202 196 -313t498 -111q302 0 464 61.5t210 186.5l154 -29q-47 -116 -146 -188.5t-266.5 -108.5t-415.5 -36zM989 1020
q-311 0 -485 -101.5t-201 -289.5h1374q-24 185 -201 288t-487 103z" />
    <glyph glyph-name="f" unicode="f" horiz-adv-x="1298" 
d="M16 1110h328v35q0 209 137.5 310t421.5 101q191 0 375 -30l-8 -111q-188 31 -352 31q-222 0 -322 -72.5t-100 -230.5v-33h774v-115h-774v-995h-152v995h-328v115z" />
    <glyph glyph-name="g" unicode="g" horiz-adv-x="1900" 
d="M938 1133q400 0 580 -113q114 154 335 127l-8 -123q-161 17 -256 -59q70 -76 70 -179q0 -164 -184.5 -249.5t-536.5 -85.5q-240 0 -393 36q-106 -13 -154.5 -45t-48.5 -88q0 -128 305 -131l717 -14q241 -4 356 -73t115 -202q0 -189 -219.5 -276.5t-689.5 -87.5
q-432 0 -634 74.5t-202 238.5q0 101 80 165t236 89q-209 44 -209 193q0 152 219 198q-203 87 -203 258q0 168 186.5 257.5t538.5 89.5zM1505 786q0 119 -143.5 180.5t-423.5 61.5q-281 0 -425 -61.5t-144 -180.5q0 -233 569 -233q567 0 567 233zM666 109q-416 -9 -416 -205
q0 -123 161 -176.5t517 -53.5q395 0 574 60t179 188q0 85 -76 128t-243 46z" />
    <glyph glyph-name="h" unicode="h" horiz-adv-x="2035" 
d="M262 0v1536h150v-758q99 163 298.5 259t450.5 96q303 0 469 -149.5t166 -412.5v-571h-149v545q0 218 -136 341.5t-387 123.5q-204 0 -366 -67.5t-254 -191.5t-92 -282v-469h-150z" />
    <glyph glyph-name="i" unicode="i" horiz-adv-x="675" 
d="M252 1300v170h172v-170h-172zM262 0v1110h152v-1110h-152z" />
    <glyph glyph-name="j" unicode="j" horiz-adv-x="675" 
d="M252 1300v170h170v-170h-170zM262 -35v1145h150v-1137q0 -213 -102.5 -308t-313.5 -95q-94 0 -182 12l-7 119q77 -14 162 -14q150 0 221.5 64.5t71.5 213.5z" />
    <glyph glyph-name="k" unicode="k" horiz-adv-x="1767" 
d="M262 0v1536h150v-985l1040 559h236l-920 -496l969 -614h-240l-860 545l-225 -125v-420h-150z" />
    <glyph glyph-name="l" unicode="l" horiz-adv-x="673" 
d="M412 0h-150v1536h150v-1536z" />
    <glyph glyph-name="m" unicode="m" horiz-adv-x="3016" 
d="M262 0v1110h137l9 -311q86 154 251.5 244t374.5 90q214 0 354.5 -92t186.5 -257q83 161 253 255t388 94q262 0 412.5 -141.5t150.5 -387.5v-604h-151v580q0 201 -119 315.5t-334 114.5q-255 0 -417.5 -146.5t-162.5 -378.5v-485h-151v600q0 192 -119 301t-334 109
q-254 0 -416.5 -147t-162.5 -378v-485h-150z" />
    <glyph glyph-name="n" unicode="n" horiz-adv-x="2035" 
d="M262 0v1110h135l11 -338q97 167 296 264t451 97q306 0 473.5 -149.5t167.5 -412.5v-571h-149v545q0 218 -137.5 341.5t-391.5 123.5q-202 0 -363 -67.5t-252 -191.5t-91 -282v-469h-150z" />
    <glyph glyph-name="o" unicode="o" horiz-adv-x="2013" 
d="M1006 -20q-405 0 -630.5 153t-225.5 422t226 423.5t630 154.5q406 0 632 -154t226 -424t-225 -422.5t-633 -152.5zM1006 94q338 0 520 122t182 339q0 219 -181.5 340t-520.5 121q-338 0 -519.5 -121t-181.5 -340q0 -218 181.5 -339.5t519.5 -121.5z" />
    <glyph glyph-name="p" unicode="p" horiz-adv-x="2099" 
d="M1167 -20q-263 0 -460 79t-295 220v-689h-150v1520h137l9 -287q98 146 296 228t463 82q366 0 573.5 -156.5t207.5 -421.5t-207 -420t-574 -155zM1122 94q321 0 496.5 123.5t175.5 337.5t-175.5 337.5t-496.5 123.5q-322 0 -516 -126.5t-194 -336.5q0 -207 194.5 -333
t515.5 -126z" />
    <glyph glyph-name="q" unicode="q" horiz-adv-x="2099" 
d="M932 -20q-368 0 -575 155t-207 420t207.5 421.5t574.5 156.5q263 0 461 -81t297 -225l8 283h139v-1520h-151v686q-99 -140 -295.5 -218t-458.5 -78zM975 94q322 0 516.5 126t194.5 333q0 139 -87.5 244t-249 162t-374.5 57q-320 0 -495 -123.5t-175 -337.5t175 -337.5
t495 -123.5z" />
    <glyph glyph-name="r" unicode="r" horiz-adv-x="1331" 
d="M262 0v1110h137l11 -393q95 190 304.5 301.5t483.5 111.5q40 0 72 -4l-8 -143q-42 10 -97 10q-110 0 -213.5 -21t-200.5 -67t-170 -113.5t-118.5 -168t-50.5 -222.5v-401h-150z" />
    <glyph glyph-name="s" unicode="s" horiz-adv-x="1832" 
d="M891 1022q-288 0 -434 -51t-146 -148q0 -90 89.5 -129.5t324.5 -54.5l440 -18q199 -13 314.5 -46.5t166 -93t50.5 -155.5q0 -346 -772 -346q-366 0 -565 90t-240 276l149 25q53 -281 656 -281q622 0 622 221q0 92 -84.5 134t-304.5 55l-444 20q-300 17 -424.5 83.5
t-124.5 209.5q0 156 186 238t541 82q354 0 546 -84.5t232 -257.5l-145 -27q-28 131 -184 194.5t-449 63.5z" />
    <glyph glyph-name="t" unicode="t" horiz-adv-x="1378" 
d="M344 418v577h-326v115h263q59 0 73.5 41t24.5 250h117v-291h770v-115h-770v-569q0 -181 93 -255.5t304 -74.5q191 0 389 43l-6 -119q-194 -40 -414 -40q-133 0 -226.5 21.5t-160.5 72t-99 135.5t-32 209z" />
    <glyph glyph-name="u" unicode="u" horiz-adv-x="1980" 
d="M1720 1110v-1110h-135l-12 328q-97 -164 -290.5 -256t-426.5 -92q-136 0 -249.5 32.5t-200 97t-135 168t-48.5 236.5v596h152v-575q0 -109 39.5 -193.5t110 -136.5t162.5 -78.5t202 -26.5q99 0 194.5 20t183 62t154 101.5t106.5 145.5t42 187v494h151z" />
    <glyph glyph-name="v" unicode="v" horiz-adv-x="1720" 
d="M788 0l-759 1110h178l651 -967l664 967h168l-770 -1110h-132z" />
    <glyph glyph-name="w" unicode="w" horiz-adv-x="2543" 
d="M616 0l-571 1110h164l485 -960l512 960h137l504 -960l494 960h158l-582 -1110h-133l-508 983l-526 -983h-134z" />
    <glyph glyph-name="x" unicode="x" horiz-adv-x="1724" 
d="M250 0h-199l703 565l-680 545h207l585 -465l592 465h197l-688 -545l706 -565h-207l-610 483z" />
    <glyph glyph-name="y" unicode="y" horiz-adv-x="1710" 
d="M1503 1110h168l-792 -1225q-116 -177 -228 -246t-286 -69q-110 0 -183 18l-8 119q78 -18 172 -18q138 0 228 56.5t188 199.5l43 67l-766 1098h176l670 -971z" />
    <glyph glyph-name="z" unicode="z" horiz-adv-x="1685" 
d="M129 0v113l1221 882h-1198v115h1419v-113l-1225 -882h1231v-115h-1448z" />
    <glyph glyph-name="braceleft" unicode="{" horiz-adv-x="1034" 
d="M233 563q159 -20 232.5 -98.5t73.5 -231.5v-178q0 -143 59.5 -203.5t200.5 -60.5q72 0 164 10l8 -110q-102 -13 -183 -13q-200 0 -294.5 87.5t-94.5 279.5v186q0 72 -14.5 117.5t-52.5 78.5t-101 51t-165 28v112q102 10 164.5 28t101 51.5t53 79.5t14.5 118v186
q0 192 94.5 279.5t294.5 87.5q84 0 183 -12l-8 -111q-92 10 -164 10q-140 0 -200 -61t-60 -203v-180q0 -152 -73.5 -230.5t-232.5 -97.5z" />
    <glyph glyph-name="bar" unicode="|" horiz-adv-x="780" 
d="M465 -348h-150v1904h150v-1904z" />
    <glyph glyph-name="braceright" unicode="}" horiz-adv-x="1034" 
d="M967 618v-112q-134 -14 -205 -43.5t-100 -83t-29 -148.5v-186q0 -192 -94 -279.5t-295 -87.5q-82 0 -181 13l7 110q95 -10 163 -10q141 0 201 60.5t60 203.5v178q0 153 73.5 231.5t233.5 98.5q-160 19 -233.5 97.5t-73.5 230.5v180q0 142 -59.5 203t-201.5 61
q-68 0 -163 -10l-7 111q95 12 181 12q201 0 295 -87.5t94 -279.5v-186q0 -96 28.5 -149.5t99.5 -83.5t206 -44z" />
    <glyph glyph-name="asciitilde" unicode="~" horiz-adv-x="1320" 
d="M403 733q-130 0 -270 -94v119q144 90 279 90q67 0 140 -20.5t126.5 -45t120 -45t121.5 -20.5q128 0 270 94v-119q-147 -90 -279 -90q-66 0 -137.5 20.5t-124 45t-120.5 45t-126 20.5z" />
    <glyph glyph-name="uni00A0" unicode="&#xa0;" horiz-adv-x="788" 
 />
    <glyph glyph-name="exclamdown" unicode="&#xa1;" horiz-adv-x="788" 
d="M483 1110v-172h-178v172h178zM324 743h143l8 -1065h-162z" />
    <glyph glyph-name="cent" unicode="&#xa2;" horiz-adv-x="1929" 
d="M639 -164l66 168q-266 51 -410.5 193.5t-144.5 357.5q0 270 222 424t621 154q68 0 154 -7l55 144h113l-62 -156q231 -34 372.5 -131t176.5 -252l-153 -29q-26 121 -139.5 196.5t-301.5 102.5l-354 -901q65 -6 139 -6q289 0 459 79t203 235l153 -31q-45 -195 -257 -296
t-558 -101q-86 0 -184 10l-59 -154h-111zM305 555q0 -172 114.5 -285.5t330.5 -154.5l352 897q-70 4 -109 4q-332 0 -510 -121t-178 -340z" />
    <glyph glyph-name="sterling" unicode="&#xa3;" horiz-adv-x="2004" 
d="M84 616v103h297q-88 154 -88 285q0 206 205.5 328t558.5 122q706 0 807 -389l-174 -27q-72 299 -631 299q-287 0 -442.5 -88.5t-155.5 -244.5q0 -51 16 -105t33.5 -89t50.5 -91h1096v-103h-1036q63 -126 63 -227q0 -86 -46 -157.5t-128 -112.5h1378v-119h-1804v119h121
q143 0 230 72t87 182q0 105 -82 243h-356z" />
    <glyph glyph-name="currency" unicode="&#xa4;" horiz-adv-x="1224" 
d="M612 389q-149 0 -252 64l-188 -191l-80 82l182 182q-65 77 -65 191q0 111 65 188l-182 185l80 79l188 -190q103 59 252 59q150 0 250 -59l191 190l80 -79l-183 -183q66 -82 66 -190q0 -112 -66 -193l183 -180l-80 -82l-189 189q-108 -62 -252 -62zM612 492
q135 0 212 60.5t77 164.5q0 102 -77.5 160.5t-211.5 58.5t-212 -58.5t-78 -160.5q0 -104 77.5 -164.5t212.5 -60.5z" />
    <glyph glyph-name="yen" unicode="&#xa5;" horiz-adv-x="1988" 
d="M203 489v101h702l-260 256h-463v100h363l-494 488h209l735 -727l746 727h196l-495 -488h362v-100h-465l-260 -256h705v-101h-713v-489h-158v489h-710z" />
    <glyph glyph-name="brokenbar" unicode="&#xa6;" horiz-adv-x="780" 
d="M465 727h-150v829h150v-829zM465 -348h-150v870h150v-870z" />
    <glyph glyph-name="section" unicode="&#xa7;" horiz-adv-x="2056" 
d="M1057 -430q-830 0 -914 450l172 21q32 -180 224.5 -270t523.5 -90q227 0 379.5 37t220.5 99t68 146q0 46 -18 80t-61 63.5t-120.5 49.5t-192.5 32l-647 54q-256 28 -366.5 109t-110.5 220q0 190 236 306q-250 76 -250 280q0 186 204 292.5t605 106.5q819 0 888 -417
l-172 -21q-30 168 -208.5 248t-509.5 80q-321 0 -481 -75t-160 -204q0 -86 77 -136.5t267 -72.5l712 -63q236 -27 344.5 -108t108.5 -216q0 -191 -221 -313q132 -42 186.5 -112t54.5 -171q0 -189 -210 -297t-629 -108zM1415 305q48 -5 109 -16q190 109 190 254q0 98 -87 156
t-279 79l-719 64q-27 3 -51 6q-203 -98 -203 -248q0 -102 91.5 -160t307.5 -82z" />
    <glyph glyph-name="dieresis" unicode="&#xa8;" 
d="M684 1300v173h182v-173h-182zM156 1300v173h182v-173h-182z" />
    <glyph glyph-name="copyright" unicode="&#xa9;" horiz-adv-x="2263" 
d="M1133 -102q-238 0 -432 61t-322.5 170t-198 259t-69.5 327t69.5 327.5t198 260t322.5 171.5t432 62q237 0 430.5 -61.5t321.5 -170.5t197.5 -259.5t69.5 -327.5q0 -178 -69.5 -328.5t-197.5 -259.5t-321.5 -170t-430.5 -61zM1133 -29q220 0 397.5 55.5t294 155t179 236
t62.5 299.5t-62.5 299.5t-179 235.5t-294 154.5t-397.5 55.5q-222 0 -399.5 -55.5t-294.5 -154.5t-179.5 -236t-62.5 -301q0 -163 62.5 -299.5t179.5 -235.5t295 -154t399 -55zM1636 850l-106 -14q-81 188 -389 188q-187 0 -296.5 -84t-109.5 -223q0 -140 108 -222.5
t298 -82.5q160 0 261.5 49.5t133.5 144.5l104 -10q-39 -128 -170 -196t-329 -68q-236 0 -374 105t-138 280q0 174 139.5 280.5t372.5 106.5q392 0 495 -254z" />
    <glyph glyph-name="ordfeminine" unicode="&#xaa;" horiz-adv-x="1148" 
d="M158 1239q20 99 131 152t282 53q402 0 402 -252v-305q0 -24 12 -34.5t39 -10.5q21 0 29 2l-6 -84q-32 -4 -58 -4q-137 0 -137 114v52q-60 -82 -173.5 -125t-256.5 -43q-144 0 -219.5 52t-75.5 142q0 174 279 191l444 24v27q0 172 -283 172q-122 0 -199 -34t-87 -101z
M252 954q0 -56 49 -87t148 -31q108 0 199.5 29t147.5 84.5t56 125.5v15l-436 -25q-164 -9 -164 -111z" />
    <glyph glyph-name="guillemotleft" unicode="&#xab;" horiz-adv-x="1855" 
d="M868 227v-147l-764 407v150l764 410v-146l-663 -338zM1708 227v-147l-764 407v150l764 410v-146l-664 -338z" />
    <glyph glyph-name="logicalnot" unicode="&#xac;" horiz-adv-x="1320" 
d="M133 778h1057v-514h-135v400h-922v114z" />
    <glyph glyph-name="uni00AD" unicode="&#xad;" horiz-adv-x="0" 
 />
    <glyph glyph-name="registered" unicode="&#xae;" horiz-adv-x="2222" 
d="M1110 -20q-234 0 -423.5 55t-315 153.5t-193 233t-67.5 293.5q0 160 67.5 295.5t193 234t315.5 154t423 55.5q234 0 424.5 -55.5t316 -154t193 -233.5t67.5 -294q0 -160 -67.5 -295t-193.5 -233.5t-316 -153.5t-424 -55zM1110 53q217 0 391 49.5t288.5 137.5t175 210
t60.5 267t-60.5 266t-175 209.5t-288.5 138t-391 49.5t-391 -49.5t-287.5 -138t-174 -210t-60.5 -267.5q0 -145 60.5 -266.5t174.5 -209.5t288 -137t390 -49zM713 342v752h610q132 0 200 -57.5t68 -164.5q0 -100 -64 -158.5t-179 -64.5l284 -307h-121l-276 299h-428v-299
h-94zM1315 1016h-508v-297h508q88 0 135 37.5t47 109.5q0 73 -46 111.5t-136 38.5z" />
    <glyph glyph-name="macron" unicode="&#xaf;" 
d="M72 1331v105h878v-105h-878z" />
    <glyph glyph-name="degree" unicode="&#xb0;" horiz-adv-x="1120" 
d="M561 1454q178 0 282.5 -83.5t104.5 -217.5t-105 -219.5t-282 -85.5q-178 0 -283.5 85.5t-105.5 219.5t105 217.5t284 83.5zM561 946q120 0 188 56.5t68 150.5q0 92 -68.5 147.5t-187.5 55.5q-120 0 -188 -55.5t-68 -147.5q0 -94 67.5 -150.5t188.5 -56.5z" />
    <glyph glyph-name="plusminus" unicode="&#xb1;" horiz-adv-x="1320" 
d="M1190 750h-463v-390h-133v390h-461v114h461v389h133v-389h463v-114zM1190 20h-1057v115h1057v-115z" />
    <glyph glyph-name="twosuperior" unicode="&#xb2;" horiz-adv-x="1026" 
d="M66 1022l540 221q130 58 169.5 97t39.5 94q0 68 -80 107.5t-235 39.5q-146 0 -230.5 -42t-95.5 -118l-111 19q20 108 132.5 166.5t302.5 58.5q209 0 320.5 -59.5t111.5 -165.5q0 -56 -20.5 -94t-85.5 -81.5t-191 -95.5l-365 -147h682v-84h-884v84z" />
    <glyph glyph-name="threesuperior" unicode="&#xb3;" horiz-adv-x="1038" 
d="M973 1135q0 -102 -111 -154.5t-350 -52.5q-217 0 -325.5 47t-135.5 143l111 19q19 -66 101 -97.5t251 -31.5q183 0 261.5 32.5t78.5 100.5q0 58 -56.5 89.5t-160.5 31.5h-330v77h328q97 0 151 31t54 86q0 62 -81.5 95.5t-244.5 33.5q-159 0 -240 -32t-102 -97l-109 19
q30 95 138.5 142.5t312.5 47.5q218 0 329 -51.5t111 -147.5q0 -60 -40.5 -101t-114.5 -58q84 -17 129 -61t45 -111z" />
    <glyph glyph-name="acute" unicode="&#xb4;" 
d="M436 1249l406 320h211l-469 -320h-148z" />
    <glyph glyph-name="paragraph" unicode="&#xb6;" horiz-adv-x="2068" 
d="M1016 -307h-156v934h-299q-193 0 -308.5 108.5t-115.5 288.5q0 186 115.5 298t308.5 112h455v-1741zM1755 -307h-156v1741h156v-1741z" />
    <glyph glyph-name="periodcentered" unicode="&#xb7;" 
d="M420 606v187h182v-187h-182z" />
    <glyph glyph-name="cedilla" unicode="&#xb8;" 
d="M932 -266q0 -83 -81.5 -126.5t-270.5 -43.5q-141 0 -310 35l9 73q150 -32 286 -32q124 0 177 23t53 69q0 78 -138 78q-80 0 -151 -31l-88 14l37 211h106l-26 -149q77 24 165 24q113 0 172.5 -37.5t59.5 -107.5z" />
    <glyph glyph-name="onesuperior" unicode="&#xb9;" horiz-adv-x="999" 
d="M70 938v88h401v537l-393 -58v86l422 64h84v-629h364v-88h-878z" />
    <glyph glyph-name="ordmasculine" unicode="&#xba;" horiz-adv-x="1210" 
d="M604 754q-232 0 -355.5 94t-123.5 252q0 156 124 250t355 94t356 -94t125 -250q0 -157 -124.5 -251.5t-356.5 -94.5zM604 838q173 0 263.5 71t90.5 191q0 119 -91 189.5t-263 70.5q-170 0 -261 -71t-91 -189q0 -120 90.5 -191t261.5 -71z" />
    <glyph glyph-name="guillemotright" unicode="&#xbb;" horiz-adv-x="1855" 
d="M909 487l-764 -407v143l664 338l-664 336v150l764 -410v-150zM1749 487l-764 -407v143l664 338l-664 336v150l764 -410v-150z" />
    <glyph glyph-name="onequarter" unicode="&#xbc;" horiz-adv-x="2670" 
d="M70 717v88h401v536l-393 -57v86l422 64h84v-629h364v-88h-878zM719 0h-154l1417 1434h154zM2417 0h-107v160h-737v71l749 492h95v-485h202v-78h-202v-160zM1716 238h594v391z" />
    <glyph glyph-name="onehalf" unicode="&#xbd;" horiz-adv-x="2641" 
d="M70 717v88h401v536l-393 -57v86l422 64h84v-629h364v-88h-878zM719 0h-154l1417 1434h154zM1681 84l541 221q130 58 169.5 97t39.5 94q0 68 -80 107.5t-235 39.5q-146 0 -230.5 -42t-95.5 -118l-111 19q20 108 132.5 166.5t302.5 58.5q209 0 320.5 -59.5t111.5 -165.5
q0 -56 -20.5 -94t-85.5 -81.5t-191 -95.5l-365 -147h682v-84h-885v84z" />
    <glyph glyph-name="threequarters" unicode="&#xbe;" horiz-adv-x="2664" 
d="M973 913q0 -102 -111 -154t-350 -52q-217 0 -325.5 47t-135.5 143l111 18q19 -66 101 -97.5t251 -31.5q183 0 261.5 33t78.5 101q0 58 -56 89t-161 31h-330v78h328q97 0 151 31t54 86q0 62 -81.5 95.5t-244.5 33.5q-159 0 -240 -32t-102 -97l-109 18q30 95 138.5 143
t312.5 48q218 0 329 -51.5t111 -147.5q0 -60 -40.5 -101.5t-114.5 -58.5q84 -17 129 -61t45 -111zM713 0h-154l1417 1434h154zM2410 0h-106v160h-737v71l749 492h94v-485h203v-78h-203v-160zM1710 238h594v391z" />
    <glyph glyph-name="questiondown" unicode="&#xbf;" horiz-adv-x="1941" 
d="M1118 1110v-172h-180v172h180zM967 -219q209 0 362 38t245.5 119.5t104.5 202.5l158 -26q-24 -220 -255 -339.5t-615 -119.5q-404 0 -621 114t-217 296q0 70 27.5 126t74 94.5t106.5 70t127 55t134 46.5t128.5 49.5t110 57.5t78.5 76.5t33 101.5h160q-4 -72 -35 -131
t-79.5 -98.5t-110 -71.5t-128.5 -56t-133.5 -46.5t-126.5 -47.5t-106 -54.5t-73 -72t-27 -95.5q0 -128 172 -208.5t506 -80.5z" />
    <glyph glyph-name="Agrave" unicode="&#xc0;" horiz-adv-x="2185" 
d="M1165 1571h-147l-467 319h211zM1974 0l-282 414h-1207l-280 -414h-176l979 1434h159l990 -1434h-183zM567 535h1043l-525 765z" />
    <glyph glyph-name="Aacute" unicode="&#xc1;" horiz-adv-x="2185" 
d="M1016 1571l405 319h211l-469 -319h-147zM1974 0l-282 414h-1207l-280 -414h-176l979 1434h159l990 -1434h-183zM567 535h1043l-525 765z" />
    <glyph glyph-name="Acircumflex" unicode="&#xc2;" horiz-adv-x="2185" 
d="M1432 1571l-342 241l-342 -241h-132l383 319h187l379 -319h-133zM1974 0l-282 414h-1207l-280 -414h-176l979 1434h159l990 -1434h-183zM567 535h1043l-525 765z" />
    <glyph glyph-name="Atilde" unicode="&#xc3;" horiz-adv-x="2185" 
d="M1495 1876q22 -161 -31.5 -237t-158.5 -76q-50 0 -98.5 23.5t-87 56.5t-75 66.5t-76.5 57t-77 23.5q-130 0 -98 -207h-107q-21 159 34 235t161 76q42 0 83 -16.5t73 -41.5t66.5 -54.5t62.5 -54.5t61.5 -41.5t64.5 -16.5q131 0 97 207h106zM1974 0l-282 414h-1207
l-280 -414h-176l979 1434h159l990 -1434h-183zM567 535h1043l-525 765z" />
    <glyph glyph-name="Adieresis" unicode="&#xc4;" horiz-adv-x="2185" 
d="M1264 1622v172h182v-172h-182zM735 1622v172h183v-172h-183zM1974 0l-282 414h-1207l-280 -414h-176l979 1434h159l990 -1434h-183zM567 535h1043l-525 765z" />
    <glyph glyph-name="Aring" unicode="&#xc5;" horiz-adv-x="2185" 
d="M1094 1538q-142 0 -221.5 54.5t-79.5 150.5q0 94 79.5 148.5t221.5 54.5q139 0 217 -54.5t78 -148.5q0 -96 -78 -150.5t-217 -54.5zM1094 1608q100 0 154.5 35.5t54.5 99.5q0 62 -54.5 96.5t-154.5 34.5q-102 0 -157.5 -34.5t-55.5 -96.5q0 -64 55.5 -99.5t157.5 -35.5z
M1974 0l-282 414h-1207l-280 -414h-176l979 1434h159l990 -1434h-183zM567 535h1043l-525 765z" />
    <glyph glyph-name="AE" unicode="&#xc6;" horiz-adv-x="3610" 
d="M1876 0v422h-1251l-435 -422h-190l1473 1434h1959v-123h-1402v-516h1275v-121h-1275v-551h1421v-123h-1575zM748 541h1128v770h-334z" />
    <glyph glyph-name="Ccedilla" unicode="&#xc7;" horiz-adv-x="2324" 
d="M168 717q0 343 276 540t762 197q409 0 662 -122.5t319 -354.5l-166 -35q-57 190 -265.5 288.5t-549.5 98.5q-417 0 -646.5 -162t-229.5 -450q0 -289 229 -451t647 -162q354 0 565.5 100.5t260.5 299.5l163 -35q-64 -243 -315.5 -366t-673.5 -123h-4l-22 -125
q77 24 166 24q112 0 171.5 -37t59.5 -108q0 -83 -81.5 -126.5t-270.5 -43.5q-141 0 -310 35l9 73q150 -32 286 -32q124 0 177 23t53 69q0 78 -137 78q-81 0 -152 -31l-88 14l33 189q-441 23 -684.5 216.5t-243.5 518.5z" />
    <glyph glyph-name="Egrave" unicode="&#xc8;" horiz-adv-x="2131" 
d="M1212 1571h-147l-467 319h211zM315 0v1434h1639v-123h-1485v-514h1358v-123h-1358v-551h1503v-123h-1657z" />
    <glyph glyph-name="Eacute" unicode="&#xc9;" horiz-adv-x="2131" 
d="M1008 1571l405 319h211l-469 -319h-147zM315 0v1434h1639v-123h-1485v-514h1358v-123h-1358v-551h1503v-123h-1657z" />
    <glyph glyph-name="Ecircumflex" unicode="&#xca;" horiz-adv-x="2131" 
d="M1470 1571l-342 241l-342 -241h-131l383 319h187l379 -319h-134zM315 0v1434h1639v-123h-1485v-514h1358v-123h-1358v-551h1503v-123h-1657z" />
    <glyph glyph-name="Edieresis" unicode="&#xcb;" horiz-adv-x="2131" 
d="M1307 1622v172h182v-172h-182zM778 1622v172h183v-172h-183zM315 0v1434h1639v-123h-1485v-514h1358v-123h-1358v-551h1503v-123h-1657z" />
    <glyph glyph-name="Igrave" unicode="&#xcc;" horiz-adv-x="788" 
d="M469 1571h-147l-467 319h211zM315 0v1434h158v-1434h-158z" />
    <glyph glyph-name="Iacute" unicode="&#xcd;" horiz-adv-x="788" 
d="M319 1571l406 319h211l-469 -319h-148zM315 0v1434h158v-1434h-158z" />
    <glyph glyph-name="Icircumflex" unicode="&#xce;" horiz-adv-x="788" 
d="M735 1571l-342 241l-342 -241h-131l383 319h186l379 -319h-133zM315 0v1434h158v-1434h-158z" />
    <glyph glyph-name="Idieresis" unicode="&#xcf;" horiz-adv-x="788" 
d="M567 1622v172h183v-172h-183zM39 1622v172h182v-172h-182zM315 0v1434h158v-1434h-158z" />
    <glyph glyph-name="Eth" unicode="&#xd0;" horiz-adv-x="2426" 
d="M344 0v657h-317v115h317v662h1022q424 0 653.5 -190t229.5 -525q0 -340 -229 -529.5t-654 -189.5h-1022zM1376 127q345 0 528 155.5t183 436.5q0 279 -183 433.5t-528 154.5h-874v-535h622v-115h-622v-530h874z" />
    <glyph glyph-name="Ntilde" unicode="&#xd1;" horiz-adv-x="2467" 
d="M1636 1876q22 -161 -31.5 -237t-158.5 -76q-50 0 -98.5 23.5t-87 56.5t-75 66.5t-76.5 57t-77 23.5q-130 0 -98 -207h-107q-21 159 34 235t161 76q49 0 97.5 -23t87 -56t75.5 -66.5t76.5 -56.5t75.5 -23q130 0 96 207h106zM315 0v1434h156l1532 -1268v1268h149v-1434
h-155l-1532 1266v-1266h-150z" />
    <glyph glyph-name="Ograve" unicode="&#xd2;" horiz-adv-x="2445" 
d="M1296 1571h-147l-467 319h211zM1223 -20q-501 0 -778 195t-277 538q0 347 277 544t778 197q500 0 777 -197t277 -542q0 -344 -277 -539.5t-777 -195.5zM1223 104q429 0 661 162t232 449q0 289 -232 451.5t-661 162.5t-661 -163t-232 -453q0 -286 232 -447.5t661 -161.5z
" />
    <glyph glyph-name="Oacute" unicode="&#xd3;" horiz-adv-x="2445" 
d="M1147 1571l405 319h211l-469 -319h-147zM1223 -20q-501 0 -778 195t-277 538q0 347 277 544t778 197q500 0 777 -197t277 -542q0 -344 -277 -539.5t-777 -195.5zM1223 104q429 0 661 162t232 449q0 289 -232 451.5t-661 162.5t-661 -163t-232 -453q0 -286 232 -447.5
t661 -161.5z" />
    <glyph glyph-name="Ocircumflex" unicode="&#xd4;" horiz-adv-x="2445" 
d="M1563 1571l-342 241l-342 -241h-131l382 319h187l379 -319h-133zM1223 -20q-501 0 -778 195t-277 538q0 347 277 544t778 197q500 0 777 -197t277 -542q0 -344 -277 -539.5t-777 -195.5zM1223 104q429 0 661 162t232 449q0 289 -232 451.5t-661 162.5t-661 -163
t-232 -453q0 -286 232 -447.5t661 -161.5z" />
    <glyph glyph-name="Otilde" unicode="&#xd5;" horiz-adv-x="2445" 
d="M1626 1876q22 -161 -31.5 -237t-158.5 -76q-50 0 -98.5 23.5t-87 56.5t-75 66.5t-76.5 57t-77 23.5q-130 0 -98 -207h-107q-21 159 34 235t161 76q42 0 83 -16.5t73 -41.5t66.5 -54.5t62.5 -54.5t61.5 -41.5t64.5 -16.5q131 0 97 207h106zM1223 -20q-501 0 -778 195
t-277 538q0 347 277 544t778 197q500 0 777 -197t277 -542q0 -344 -277 -539.5t-777 -195.5zM1223 104q429 0 661 162t232 449q0 289 -232 451.5t-661 162.5t-661 -163t-232 -453q0 -286 232 -447.5t661 -161.5z" />
    <glyph glyph-name="Odieresis" unicode="&#xd6;" horiz-adv-x="2445" 
d="M1395 1622v172h182v-172h-182zM866 1622v172h183v-172h-183zM1223 -20q-501 0 -778 195t-277 538q0 347 277 544t778 197q500 0 777 -197t277 -542q0 -344 -277 -539.5t-777 -195.5zM1223 104q429 0 661 162t232 449q0 289 -232 451.5t-661 162.5t-661 -163t-232 -453
q0 -286 232 -447.5t661 -161.5z" />
    <glyph glyph-name="multiply" unicode="&#xd7;" horiz-adv-x="1320" 
d="M1044 311l-385 336l-389 -342l-77 86l378 332l-374 326l79 88l386 -336l389 340l75 -84l-378 -334l374 -328z" />
    <glyph glyph-name="Oslash" unicode="&#xd8;" horiz-adv-x="2445" 
d="M229 0l220 172q-281 196 -281 541q0 347 277 544t778 197q411 0 675 -135l146 115h176l-221 -177q278 -194 278 -542q0 -344 -277 -539.5t-777 -195.5q-408 0 -674 133l-143 -113h-177zM330 713q0 -292 233 -449l1217 961q-216 104 -557 104q-429 0 -661 -163t-232 -453z
M1223 104q429 0 661 162t232 449q0 291 -234 452l-1216 -960q217 -103 557 -103z" />
    <glyph glyph-name="Ugrave" unicode="&#xd9;" horiz-adv-x="2336" 
d="M1247 1571h-147l-467 319h211zM2087 688q0 -338 -242.5 -523t-677.5 -185t-676 184.5t-241 523.5v746h158v-742q0 -283 198 -435.5t561 -152.5q365 0 563.5 152.5t198.5 435.5v742h158v-746z" />
    <glyph glyph-name="Uacute" unicode="&#xda;" horiz-adv-x="2336" 
d="M1094 1571l405 319h211l-469 -319h-147zM2087 688q0 -338 -242.5 -523t-677.5 -185t-676 184.5t-241 523.5v746h158v-742q0 -283 198 -435.5t561 -152.5q365 0 563.5 152.5t198.5 435.5v742h158v-746z" />
    <glyph glyph-name="Ucircumflex" unicode="&#xdb;" horiz-adv-x="2336" 
d="M1509 1571l-342 241l-342 -241h-131l383 319h187l378 -319h-133zM2087 688q0 -338 -242.5 -523t-677.5 -185t-676 184.5t-241 523.5v746h158v-742q0 -283 198 -435.5t561 -152.5q365 0 563.5 152.5t198.5 435.5v742h158v-746z" />
    <glyph glyph-name="Udieresis" unicode="&#xdc;" horiz-adv-x="2336" 
d="M1341 1622v172h183v-172h-183zM813 1622v172h182v-172h-182zM2087 688q0 -338 -242.5 -523t-677.5 -185t-676 184.5t-241 523.5v746h158v-742q0 -283 198 -435.5t561 -152.5q365 0 563.5 152.5t198.5 435.5v742h158v-746z" />
    <glyph glyph-name="Yacute" unicode="&#xdd;" horiz-adv-x="1961" 
d="M905 1571l406 319h211l-469 -319h-148zM899 0v584l-860 850h207l735 -727l745 727h197l-866 -852v-582h-158z" />
    <glyph glyph-name="Thorn" unicode="&#xde;" horiz-adv-x="2191" 
d="M315 0v1434h158v-220h1006q281 0 435 -128t154 -357q0 -226 -155 -354.5t-436 -128.5h-1004v-246h-158zM1456 1090h-983v-717h983q219 0 335 93t116 263q0 172 -116 266.5t-335 94.5z" />
    <glyph glyph-name="germandbls" unicode="&#xdf;" horiz-adv-x="2256" 
d="M238 0v997q0 173 115 300t322 193t482 66q744 0 744 -395q0 -115 -77.5 -199t-230.5 -124q531 -49 531 -398q0 -220 -218 -340t-622 -120q-198 0 -354 29.5t-307 99.5l45 114q136 -70 280 -98.5t330 -28.5q348 0 519 88t171 254q0 111 -63.5 178.5t-218.5 102.5t-420 35
h-492v116h453q248 0 387 71.5t139 211.5q0 148 -140 217.5t-458 69.5q-360 0 -563 -113.5t-203 -325.5v-1001h-151z" />
    <glyph glyph-name="agrave" unicode="&#xe0;" horiz-adv-x="1880" 
d="M1014 1249h-148l-467 320h211zM162 786q83 347 739 347q269 0 432.5 -49t234 -144t70.5 -246v-467q0 -66 24 -99.5t93 -33.5q17 0 53 4l-6 -106q-52 -10 -94 -10q-113 0 -163 56t-50 167v94q-107 -148 -340.5 -233.5t-509.5 -85.5q-266 0 -405.5 81.5t-139.5 239.5
q0 150 122 229.5t392 92.5l879 36v23q0 116 -55 188t-186.5 110t-350.5 38q-537 0 -586 -256zM252 307q0 -213 412 -213q215 0 403.5 52.5t308 153t119.5 226.5v31l-883 -41q-185 -9 -272.5 -59t-87.5 -150z" />
    <glyph glyph-name="aacute" unicode="&#xe1;" horiz-adv-x="1880" 
d="M864 1249l406 320h211l-469 -320h-148zM162 786q83 347 739 347q269 0 432.5 -49t234 -144t70.5 -246v-467q0 -66 24 -99.5t93 -33.5q17 0 53 4l-6 -106q-52 -10 -94 -10q-113 0 -163 56t-50 167v94q-107 -148 -340.5 -233.5t-509.5 -85.5q-266 0 -405.5 81.5
t-139.5 239.5q0 150 122 229.5t392 92.5l879 36v23q0 116 -55 188t-186.5 110t-350.5 38q-537 0 -586 -256zM252 307q0 -213 412 -213q215 0 403.5 52.5t308 153t119.5 226.5v31l-883 -41q-185 -9 -272.5 -59t-87.5 -150z" />
    <glyph glyph-name="acircumflex" unicode="&#xe2;" horiz-adv-x="1880" 
d="M1280 1249l-342 242l-342 -242h-131l383 320h186l379 -320h-133zM162 786q83 347 739 347q269 0 432.5 -49t234 -144t70.5 -246v-467q0 -66 24 -99.5t93 -33.5q17 0 53 4l-6 -106q-52 -10 -94 -10q-113 0 -163 56t-50 167v94q-107 -148 -340.5 -233.5t-509.5 -85.5
q-266 0 -405.5 81.5t-139.5 239.5q0 150 122 229.5t392 92.5l879 36v23q0 116 -55 188t-186.5 110t-350.5 38q-537 0 -586 -256zM252 307q0 -213 412 -213q215 0 403.5 52.5t308 153t119.5 226.5v31l-883 -41q-185 -9 -272.5 -59t-87.5 -150z" />
    <glyph glyph-name="atilde" unicode="&#xe3;" horiz-adv-x="1880" 
d="M1343 1554q22 -161 -31.5 -237t-158.5 -76q-50 0 -98.5 23.5t-87 56.5t-75 66.5t-76.5 57t-77 23.5q-129 0 -98 -206h-106q-21 159 34 235t160 76q49 0 97.5 -23t87 -56.5t75.5 -66.5t76.5 -56t75.5 -23q130 0 96 206h106zM162 786q83 347 739 347q269 0 432.5 -49
t234 -144t70.5 -246v-467q0 -66 24 -99.5t93 -33.5q17 0 53 4l-6 -106q-52 -10 -94 -10q-113 0 -163 56t-50 167v94q-107 -148 -340.5 -233.5t-509.5 -85.5q-266 0 -405.5 81.5t-139.5 239.5q0 150 122 229.5t392 92.5l879 36v23q0 116 -55 188t-186.5 110t-350.5 38
q-537 0 -586 -256zM252 307q0 -213 412 -213q215 0 403.5 52.5t308 153t119.5 226.5v31l-883 -41q-185 -9 -272.5 -59t-87.5 -150z" />
    <glyph glyph-name="adieresis" unicode="&#xe4;" horiz-adv-x="1880" 
d="M1112 1300v173h182v-173h-182zM584 1300v173h182v-173h-182zM162 786q83 347 739 347q269 0 432.5 -49t234 -144t70.5 -246v-467q0 -66 24 -99.5t93 -33.5q17 0 53 4l-6 -106q-52 -10 -94 -10q-113 0 -163 56t-50 167v94q-107 -148 -340.5 -233.5t-509.5 -85.5
q-266 0 -405.5 81.5t-139.5 239.5q0 150 122 229.5t392 92.5l879 36v23q0 116 -55 188t-186.5 110t-350.5 38q-537 0 -586 -256zM252 307q0 -213 412 -213q215 0 403.5 52.5t308 153t119.5 226.5v31l-883 -41q-185 -9 -272.5 -59t-87.5 -150z" />
    <glyph glyph-name="aring" unicode="&#xe5;" horiz-adv-x="1880" 
d="M942 1217q-142 0 -221.5 54t-79.5 150q0 94 79.5 148.5t221.5 54.5q139 0 217 -54.5t78 -148.5q0 -96 -78 -150t-217 -54zM942 1286q100 0 154.5 35.5t54.5 99.5q0 62 -54.5 96.5t-154.5 34.5q-102 0 -157.5 -34.5t-55.5 -96.5q0 -64 55.5 -99.5t157.5 -35.5zM162 786
q83 347 739 347q269 0 432.5 -49t234 -144t70.5 -246v-467q0 -66 24 -99.5t93 -33.5q17 0 53 4l-6 -106q-52 -10 -94 -10q-113 0 -163 56t-50 167v94q-107 -148 -340.5 -233.5t-509.5 -85.5q-266 0 -405.5 81.5t-139.5 239.5q0 150 122 229.5t392 92.5l879 36v23
q0 116 -55 188t-186.5 110t-350.5 38q-537 0 -586 -256zM252 307q0 -213 412 -213q215 0 403.5 52.5t308 153t119.5 226.5v31l-883 -41q-185 -9 -272.5 -59t-87.5 -150z" />
    <glyph glyph-name="ae" unicode="&#xe6;" horiz-adv-x="3250" 
d="M688 -20q-588 0 -588 321q0 150 122.5 231t391.5 91l877 26v4q-1 126 -55 204t-184 119.5t-347 41.5q-541 0 -590 -256l-153 24q83 347 745 347q283 0 449 -69t227 -216q86 144 275 214.5t442 70.5q379 0 595 -151.5t216 -406.5q0 -23 -4 -55h-1465q15 -204 185 -315
t489 -111q279 0 433 61.5t202 186.5l152 -29q-68 -173 -255.5 -253t-531.5 -80q-586 0 -757 337q-69 -112 -204.5 -189t-303.5 -112.5t-363 -35.5zM2300 1020q-297 0 -463.5 -101.5t-191.5 -289.5h1312q-26 188 -198.5 289.5t-458.5 101.5zM252 307q0 -213 434 -213
q366 0 588 121t219 307v25l-881 -31q-183 -8 -271.5 -58.5t-88.5 -150.5z" />
    <glyph glyph-name="ccedilla" unicode="&#xe7;" horiz-adv-x="1929" 
d="M1802 731l-153 -29q-32 154 -203.5 234t-452.5 80q-332 0 -510 -121t-178 -340q0 -217 179 -339t509 -122q289 0 459 79t203 235l153 -31q-45 -195 -257 -296t-558 -101h-26l-23 -125q76 24 166 24q112 0 171.5 -37t59.5 -108q0 -83 -81.5 -126.5t-270.5 -43.5
q-140 0 -309 35l8 73q150 -32 287 -32q124 0 176.5 23t52.5 69q0 78 -137 78q-81 0 -152 -31l-88 14l33 191q-339 26 -524.5 176t-185.5 395q0 270 222 424t621 154q339 0 552 -103.5t257 -298.5z" />
    <glyph glyph-name="egrave" unicode="&#xe8;" horiz-adv-x="1968" 
d="M1059 1249h-148l-467 320h211zM995 -20q-402 0 -623.5 155.5t-221.5 427.5q0 265 220.5 417.5t618.5 152.5q393 0 617.5 -151t224.5 -407q0 -21 -4 -57h-1526q19 -202 196 -313t498 -111q302 0 464 61.5t210 186.5l154 -29q-47 -116 -146 -188.5t-266.5 -108.5
t-415.5 -36zM989 1020q-311 0 -485 -101.5t-201 -289.5h1374q-24 185 -201 288t-487 103z" />
    <glyph glyph-name="eacute" unicode="&#xe9;" horiz-adv-x="1968" 
d="M909 1249l406 320h211l-469 -320h-148zM995 -20q-402 0 -623.5 155.5t-221.5 427.5q0 265 220.5 417.5t618.5 152.5q393 0 617.5 -151t224.5 -407q0 -21 -4 -57h-1526q19 -202 196 -313t498 -111q302 0 464 61.5t210 186.5l154 -29q-47 -116 -146 -188.5t-266.5 -108.5
t-415.5 -36zM989 1020q-311 0 -485 -101.5t-201 -289.5h1374q-24 185 -201 288t-487 103z" />
    <glyph glyph-name="ecircumflex" unicode="&#xea;" horiz-adv-x="1968" 
d="M1325 1249l-342 242l-342 -242h-131l383 320h186l379 -320h-133zM995 -20q-402 0 -623.5 155.5t-221.5 427.5q0 265 220.5 417.5t618.5 152.5q393 0 617.5 -151t224.5 -407q0 -21 -4 -57h-1526q19 -202 196 -313t498 -111q302 0 464 61.5t210 186.5l154 -29
q-47 -116 -146 -188.5t-266.5 -108.5t-415.5 -36zM989 1020q-311 0 -485 -101.5t-201 -289.5h1374q-24 185 -201 288t-487 103z" />
    <glyph glyph-name="edieresis" unicode="&#xeb;" horiz-adv-x="1968" 
d="M1157 1300v173h182v-173h-182zM629 1300v173h182v-173h-182zM995 -20q-402 0 -623.5 155.5t-221.5 427.5q0 265 220.5 417.5t618.5 152.5q393 0 617.5 -151t224.5 -407q0 -21 -4 -57h-1526q19 -202 196 -313t498 -111q302 0 464 61.5t210 186.5l154 -29
q-47 -116 -146 -188.5t-266.5 -108.5t-415.5 -36zM989 1020q-311 0 -485 -101.5t-201 -289.5h1374q-24 185 -201 288t-487 103z" />
    <glyph glyph-name="igrave" unicode="&#xec;" horiz-adv-x="675" 
d="M414 1249h-148l-467 320h211zM262 0v1110h150v-1110h-150z" />
    <glyph glyph-name="iacute" unicode="&#xed;" horiz-adv-x="675" 
d="M264 1249l406 320h211l-469 -320h-148zM262 0v1110h150v-1110h-150z" />
    <glyph glyph-name="icircumflex" unicode="&#xee;" horiz-adv-x="673" 
d="M678 1249l-342 242l-342 -242h-131l383 320h186l379 -320h-133zM262 0v1110h150v-1110h-150z" />
    <glyph glyph-name="idieresis" unicode="&#xef;" horiz-adv-x="675" 
d="M510 1300v173h182v-173h-182zM-18 1300v173h182v-173h-182zM262 0v1110h150v-1110h-150z" />
    <glyph glyph-name="eth" unicode="&#xf0;" horiz-adv-x="2009" 
d="M1001 -20q-406 0 -627.5 137t-221.5 379q0 240 217 378t612 138q478 0 692 -221q-43 122 -138.5 230.5t-264.5 225.5l-428 -112v106l313 82q-146 90 -360 201l178 32q199 -103 334 -192l432 113v-105l-322 -86q238 -177 338 -357.5t100 -396.5q0 -256 -221.5 -404
t-632.5 -148zM1004 94q338 0 516 107t178 299q0 185 -183.5 291t-510.5 106q-339 0 -519 -106t-180 -295t180 -295.5t519 -106.5z" />
    <glyph glyph-name="ntilde" unicode="&#xf1;" horiz-adv-x="2035" 
d="M1421 1554q22 -161 -31.5 -237t-158.5 -76q-50 0 -98.5 23.5t-87 56.5t-75 66.5t-76.5 57t-77 23.5q-129 0 -98 -206h-107q-21 159 34 235t161 76q49 0 97.5 -23t87 -56.5t75.5 -66.5t76.5 -56t75.5 -23q130 0 96 206h106zM262 0v1110h135l11 -338q97 167 296 264t451 97
q306 0 473.5 -149.5t167.5 -412.5v-571h-149v545q0 218 -137.5 341.5t-391.5 123.5q-202 0 -363 -67.5t-252 -191.5t-91 -282v-469h-150z" />
    <glyph glyph-name="ograve" unicode="&#xf2;" horiz-adv-x="2013" 
d="M1079 1249h-147l-467 320h211zM1006 -20q-405 0 -630.5 153t-225.5 422t226 423.5t630 154.5q406 0 632 -154t226 -424t-225 -422.5t-633 -152.5zM1006 94q338 0 520 122t182 339q0 219 -181.5 340t-520.5 121q-338 0 -519.5 -121t-181.5 -340q0 -218 181.5 -339.5
t519.5 -121.5z" />
    <glyph glyph-name="oacute" unicode="&#xf3;" horiz-adv-x="2013" 
d="M930 1249l405 320h211l-469 -320h-147zM1006 -20q-405 0 -630.5 153t-225.5 422t226 423.5t630 154.5q406 0 632 -154t226 -424t-225 -422.5t-633 -152.5zM1006 94q338 0 520 122t182 339q0 219 -181.5 340t-520.5 121q-338 0 -519.5 -121t-181.5 -340
q0 -218 181.5 -339.5t519.5 -121.5z" />
    <glyph glyph-name="ocircumflex" unicode="&#xf4;" horiz-adv-x="2013" 
d="M1346 1249l-342 242l-342 -242h-132l383 320h187l379 -320h-133zM1006 -20q-405 0 -630.5 153t-225.5 422t226 423.5t630 154.5q406 0 632 -154t226 -424t-225 -422.5t-633 -152.5zM1006 94q338 0 520 122t182 339q0 219 -181.5 340t-520.5 121q-338 0 -519.5 -121
t-181.5 -340q0 -218 181.5 -339.5t519.5 -121.5z" />
    <glyph glyph-name="otilde" unicode="&#xf5;" horiz-adv-x="2013" 
d="M1409 1554q22 -161 -31.5 -237t-158.5 -76q-50 0 -98.5 23.5t-87 56.5t-75 66.5t-76.5 57t-77 23.5q-129 0 -98 -206h-107q-21 159 34 235t161 76q49 0 97.5 -23t87 -56.5t75 -66.5t76 -56t75.5 -23q131 0 97 206h106zM1006 -20q-405 0 -630.5 153t-225.5 422t226 423.5
t630 154.5q406 0 632 -154t226 -424t-225 -422.5t-633 -152.5zM1006 94q338 0 520 122t182 339q0 219 -181.5 340t-520.5 121q-338 0 -519.5 -121t-181.5 -340q0 -218 181.5 -339.5t519.5 -121.5z" />
    <glyph glyph-name="odieresis" unicode="&#xf6;" horiz-adv-x="2013" 
d="M1178 1300v173h182v-173h-182zM649 1300v173h182v-173h-182zM1006 -20q-405 0 -630.5 153t-225.5 422t226 423.5t630 154.5q406 0 632 -154t226 -424t-225 -422.5t-633 -152.5zM1006 94q338 0 520 122t182 339q0 219 -181.5 340t-520.5 121q-338 0 -519.5 -121
t-181.5 -340q0 -218 181.5 -339.5t519.5 -121.5z" />
    <glyph glyph-name="divide" unicode="&#xf7;" horiz-adv-x="1320" 
d="M575 1032v166h173v-166h-173zM1190 664h-1057v114h1057v-114zM575 242v168h173v-168h-173z" />
    <glyph glyph-name="oslash" unicode="&#xf8;" horiz-adv-x="2013" 
d="M180 0l187 139q-217 151 -217 416q0 269 226 423.5t630 154.5q337 0 553 -107l112 84h162l-184 -137q215 -155 215 -416q0 -271 -225 -424t-633 -153q-339 0 -549 106l-115 -86h-162zM305 555q0 -212 172 -334l967 719q-173 78 -438 78q-338 0 -519.5 -122t-181.5 -341z
M1006 94q339 0 520.5 122t181.5 341q0 213 -172 332l-965 -719q172 -76 435 -76z" />
    <glyph glyph-name="ugrave" unicode="&#xf9;" horiz-adv-x="1980" 
d="M1063 1249h-148l-466 320h210zM1720 1110v-1110h-135l-12 328q-97 -164 -290.5 -256t-426.5 -92q-136 0 -249.5 32.5t-200 97t-135 168t-48.5 236.5v596h152v-575q0 -109 39.5 -193.5t110 -136.5t162.5 -78.5t202 -26.5q99 0 194.5 20t183 62t154 101.5t106.5 145.5
t42 187v494h151z" />
    <glyph glyph-name="uacute" unicode="&#xfa;" horiz-adv-x="1980" 
d="M913 1249l406 320h211l-469 -320h-148zM1720 1110v-1110h-135l-12 328q-97 -164 -290.5 -256t-426.5 -92q-136 0 -249.5 32.5t-200 97t-135 168t-48.5 236.5v596h152v-575q0 -109 39.5 -193.5t110 -136.5t162.5 -78.5t202 -26.5q99 0 194.5 20t183 62t154 101.5
t106.5 145.5t42 187v494h151z" />
    <glyph glyph-name="ucircumflex" unicode="&#xfb;" horiz-adv-x="1980" 
d="M1329 1249l-342 242l-342 -242h-131l383 320h186l379 -320h-133zM1720 1110v-1110h-135l-12 328q-97 -164 -290.5 -256t-426.5 -92q-136 0 -249.5 32.5t-200 97t-135 168t-48.5 236.5v596h152v-575q0 -109 39.5 -193.5t110 -136.5t162.5 -78.5t202 -26.5q99 0 194.5 20
t183 62t154 101.5t106.5 145.5t42 187v494h151z" />
    <glyph glyph-name="udieresis" unicode="&#xfc;" horiz-adv-x="1980" 
d="M1161 1300v173h182v-173h-182zM633 1300v173h182v-173h-182zM1720 1110v-1110h-135l-12 328q-97 -164 -290.5 -256t-426.5 -92q-136 0 -249.5 32.5t-200 97t-135 168t-48.5 236.5v596h152v-575q0 -109 39.5 -193.5t110 -136.5t162.5 -78.5t202 -26.5q99 0 194.5 20
t183 62t154 101.5t106.5 145.5t42 187v494h151z" />
    <glyph glyph-name="yacute" unicode="&#xfd;" horiz-adv-x="1710" 
d="M780 1249l406 320h211l-469 -320h-148zM1503 1110h168l-792 -1225q-116 -177 -228 -246t-286 -69q-110 0 -183 18l-8 119q78 -18 172 -18q138 0 228 56.5t188 199.5l43 67l-766 1098h176l670 -971z" />
    <glyph glyph-name="thorn" unicode="&#xfe;" horiz-adv-x="2099" 
d="M1167 -20q-265 0 -462 80.5t-293 224.5v-695h-150v1946h150v-713q96 146 293 228t462 82q366 0 573.5 -156.5t207.5 -421.5t-207 -420t-574 -155zM1122 94q321 0 496.5 123.5t175.5 337.5t-175.5 337.5t-496.5 123.5q-322 0 -516 -126.5t-194 -336.5q0 -207 194.5 -333
t515.5 -126z" />
    <glyph glyph-name="ydieresis" unicode="&#xff;" horiz-adv-x="1710" 
d="M1028 1300v173h182v-173h-182zM500 1300v173h182v-173h-182zM1503 1110h168l-792 -1225q-116 -177 -228 -246t-286 -69q-110 0 -183 18l-8 119q78 -18 172 -18q138 0 228 56.5t188 199.5l43 67l-766 1098h176l670 -971z" />
    <glyph glyph-name="Amacron" unicode="&#x100;" horiz-adv-x="2185" 
d="M651 1653v104h879v-104h-879zM1974 0l-282 414h-1207l-280 -414h-176l979 1434h159l990 -1434h-183zM567 535h1043l-525 765z" />
    <glyph glyph-name="amacron" unicode="&#x101;" horiz-adv-x="1880" 
d="M500 1331v105h878v-105h-878zM162 786q83 347 739 347q269 0 432.5 -49t234 -144t70.5 -246v-467q0 -66 24 -99.5t93 -33.5q17 0 53 4l-6 -106q-52 -10 -94 -10q-113 0 -163 56t-50 167v94q-107 -148 -340.5 -233.5t-509.5 -85.5q-266 0 -405.5 81.5t-139.5 239.5
q0 150 122 229.5t392 92.5l879 36v23q0 116 -55 188t-186.5 110t-350.5 38q-537 0 -586 -256zM252 307q0 -213 412 -213q215 0 403.5 52.5t308 153t119.5 226.5v31l-883 -41q-185 -9 -272.5 -59t-87.5 -150z" />
    <glyph glyph-name="Abreve" unicode="&#x102;" horiz-adv-x="2185" 
d="M1366 1868h125q0 -142 -102.5 -216.5t-296.5 -74.5t-297 74.5t-103 216.5h123q0 -201 277 -201q274 0 274 201zM1974 0l-282 414h-1207l-280 -414h-176l979 1434h159l990 -1434h-183zM567 535h1043l-525 765z" />
    <glyph glyph-name="abreve" unicode="&#x103;" horiz-adv-x="1880" 
d="M1214 1546h125q0 -142 -102.5 -216.5t-296.5 -74.5t-296.5 74.5t-102.5 216.5h123q0 -200 276 -200q274 0 274 200zM162 786q83 347 739 347q269 0 432.5 -49t234 -144t70.5 -246v-467q0 -66 24 -99.5t93 -33.5q17 0 53 4l-6 -106q-52 -10 -94 -10q-113 0 -163 56
t-50 167v94q-107 -148 -340.5 -233.5t-509.5 -85.5q-266 0 -405.5 81.5t-139.5 239.5q0 150 122 229.5t392 92.5l879 36v23q0 116 -55 188t-186.5 110t-350.5 38q-537 0 -586 -256zM252 307q0 -213 412 -213q215 0 403.5 52.5t308 153t119.5 226.5v31l-883 -41
q-185 -9 -272.5 -59t-87.5 -150z" />
    <glyph glyph-name="Aogonek" unicode="&#x104;" horiz-adv-x="2185" 
d="M1628 -256q0 85 74.5 151.5t259.5 120.5l-272 400h-1205l-280 -416h-176l979 1434h159l990 -1434q-119 -27 -200.5 -55t-123.5 -57t-59 -55t-17 -56q0 -101 164 -101q115 0 240 35l-4 -112q-122 -37 -261 -37q-130 0 -199 47t-69 135zM567 535h1043l-525 765z" />
    <glyph glyph-name="aogonek" unicode="&#x105;" horiz-adv-x="1884" 
d="M1800 -401q-119 -37 -258 -37q-130 0 -200 47t-70 135q0 81 71 145t248 115q-96 45 -96 201v104q-104 -152 -338.5 -240.5t-511.5 -88.5q-266 0 -405.5 81.5t-139.5 239.5q0 150 122 229.5t392 92.5l879 36v23q0 116 -55 188t-186.5 110t-350.5 38q-537 0 -586 -256
l-153 24q83 347 739 347q269 0 432.5 -49t234 -144t70.5 -246v-467q0 -66 24 -99.5t93 -33.5q17 0 53 4l-6 -106q-217 -56 -308 -105t-91 -110q0 -101 164 -101q115 0 237 35zM252 307q0 -213 412 -213q215 0 403.5 52.5t308 153t119.5 226.5v31l-883 -41
q-185 -9 -272.5 -59t-87.5 -150z" />
    <glyph glyph-name="Cacute" unicode="&#x106;" horiz-adv-x="2324" 
d="M1108 1571l405 319h211l-469 -319h-147zM168 717q0 343 276 540t762 197q409 0 662 -122.5t319 -354.5l-166 -35q-57 190 -265.5 288.5t-549.5 98.5q-417 0 -646.5 -162t-229.5 -450q0 -289 229 -451t647 -162q354 0 565.5 100.5t260.5 299.5l163 -35
q-64 -243 -315.5 -366t-673.5 -123q-491 0 -764.5 195.5t-273.5 541.5z" />
    <glyph glyph-name="cacute" unicode="&#x107;" horiz-adv-x="1929" 
d="M889 1249l405 320h211l-469 -320h-147zM1802 731l-153 -29q-32 154 -203.5 234t-452.5 80q-332 0 -510 -121t-178 -340q0 -217 179 -339t509 -122q289 0 459 79t203 235l153 -31q-45 -195 -257 -296t-558 -101q-399 0 -621 153t-222 422q0 270 222 424t621 154
q339 0 552 -103.5t257 -298.5z" />
    <glyph glyph-name="Ccircumflex" unicode="&#x108;" horiz-adv-x="2324" 
d="M1528 1571l-342 241l-342 -241h-131l383 319h186l379 -319h-133zM168 717q0 343 276 540t762 197q409 0 662 -122.5t319 -354.5l-166 -35q-57 190 -265.5 288.5t-549.5 98.5q-417 0 -646.5 -162t-229.5 -450q0 -289 229 -451t647 -162q354 0 565.5 100.5t260.5 299.5
l163 -35q-64 -243 -315.5 -366t-673.5 -123q-491 0 -764.5 195.5t-273.5 541.5z" />
    <glyph glyph-name="ccircumflex" unicode="&#x109;" horiz-adv-x="1929" 
d="M1311 1249l-342 242l-342 -242h-131l383 320h186l379 -320h-133zM1802 731l-153 -29q-32 154 -203.5 234t-452.5 80q-332 0 -510 -121t-178 -340q0 -217 179 -339t509 -122q289 0 459 79t203 235l153 -31q-45 -195 -257 -296t-558 -101q-399 0 -621 153t-222 422
q0 270 222 424t621 154q339 0 552 -103.5t257 -298.5z" />
    <glyph glyph-name="Cdotaccent" unicode="&#x10a;" horiz-adv-x="2324" 
d="M1100 1622v184h176v-184h-176zM168 717q0 343 276 540t762 197q409 0 662 -122.5t319 -354.5l-166 -35q-57 190 -265.5 288.5t-549.5 98.5q-417 0 -646.5 -162t-229.5 -450q0 -289 229 -451t647 -162q354 0 565.5 100.5t260.5 299.5l163 -35q-64 -243 -315.5 -366
t-673.5 -123q-491 0 -764.5 195.5t-273.5 541.5z" />
    <glyph glyph-name="cdotaccent" unicode="&#x10b;" horiz-adv-x="1929" 
d="M901 1300v185h176v-185h-176zM1802 731l-153 -29q-32 154 -203.5 234t-452.5 80q-332 0 -510 -121t-178 -340q0 -217 179 -339t509 -122q289 0 459 79t203 235l153 -31q-45 -195 -257 -296t-558 -101q-399 0 -621 153t-222 422q0 270 222 424t621 154q339 0 552 -103.5
t257 -298.5z" />
    <glyph glyph-name="Ccaron" unicode="&#x10c;" horiz-adv-x="2324" 
d="M1661 1890l-383 -319h-186l-379 319h133l344 -241l340 241h131zM168 717q0 343 276 540t762 197q409 0 662 -122.5t319 -354.5l-166 -35q-57 190 -265.5 288.5t-549.5 98.5q-417 0 -646.5 -162t-229.5 -450q0 -289 229 -451t647 -162q354 0 565.5 100.5t260.5 299.5
l163 -35q-64 -243 -315.5 -366t-673.5 -123q-491 0 -764.5 195.5t-273.5 541.5z" />
    <glyph glyph-name="ccaron" unicode="&#x10d;" horiz-adv-x="1929" 
d="M1444 1569l-383 -320h-187l-378 320h133l344 -242l340 242h131zM1802 731l-153 -29q-32 154 -203.5 234t-452.5 80q-332 0 -510 -121t-178 -340q0 -217 179 -339t509 -122q289 0 459 79t203 235l153 -31q-45 -195 -257 -296t-558 -101q-399 0 -621 153t-222 422
q0 270 222 424t621 154q339 0 552 -103.5t257 -298.5z" />
    <glyph glyph-name="Dcaron" unicode="&#x10e;" horiz-adv-x="2398" 
d="M1671 1890l-383 -319h-186l-379 319h133l344 -241l340 241h131zM315 0v1434h1022q424 0 653.5 -190t229.5 -525q0 -340 -229 -529.5t-654 -189.5h-1022zM1348 127q345 0 527.5 155.5t182.5 436.5q0 279 -182.5 433.5t-527.5 154.5h-875v-1180h875z" />
    <glyph glyph-name="dcaron" unicode="&#x10f;" horiz-adv-x="2177" 
d="M932 -20q-368 0 -575 155t-207 420t207.5 421.5t574.5 156.5q262 0 458.5 -80t295.5 -222v705h151v-1536h-139l-10 279q-99 -142 -296 -220.5t-460 -78.5zM2097 1098v438h141l-40 -438h-101zM975 94q322 0 516.5 126t194.5 333q0 139 -87.5 244t-249 162t-374.5 57
q-320 0 -495 -123.5t-175 -337.5t175 -337.5t495 -123.5z" />
    <glyph glyph-name="Dcroat" unicode="&#x110;" horiz-adv-x="2426" 
d="M344 0v657h-317v115h317v662h1022q424 0 653.5 -190t229.5 -525q0 -340 -229 -529.5t-654 -189.5h-1022zM1376 127q345 0 528 155.5t183 436.5q0 279 -183 433.5t-528 154.5h-874v-535h622v-115h-622v-530h874z" />
    <glyph glyph-name="dcroat" unicode="&#x111;" horiz-adv-x="2099" 
d="M932 -20q-368 0 -575 153.5t-207 415.5t207.5 417.5t574.5 155.5q262 0 459 -80.5t295 -224.5v453h-584v98h584v168h151v-168h236v-98h-236v-1270h-139l-10 281q-97 -142 -294.5 -221.5t-461.5 -79.5zM975 94q322 0 516.5 124.5t194.5 328.5q0 207 -194.5 332t-516.5 125
q-320 0 -495 -121.5t-175 -333.5q0 -210 175.5 -332.5t494.5 -122.5z" />
    <glyph glyph-name="Emacron" unicode="&#x112;" horiz-adv-x="2131" 
d="M688 1653v104h879v-104h-879zM315 0v1434h1639v-123h-1485v-514h1358v-123h-1358v-551h1503v-123h-1657z" />
    <glyph glyph-name="emacron" unicode="&#x113;" horiz-adv-x="1968" 
d="M545 1331v105h878v-105h-878zM995 -20q-402 0 -623.5 155.5t-221.5 427.5q0 265 220.5 417.5t618.5 152.5q393 0 617.5 -151t224.5 -407q0 -21 -4 -57h-1526q19 -202 196 -313t498 -111q302 0 464 61.5t210 186.5l154 -29q-47 -116 -146 -188.5t-266.5 -108.5t-415.5 -36
zM989 1020q-311 0 -485 -101.5t-201 -289.5h1374q-24 185 -201 288t-487 103z" />
    <glyph glyph-name="Ebreve" unicode="&#x114;" horiz-adv-x="2131" 
d="M1407 1868h125q0 -142 -102.5 -216.5t-296.5 -74.5t-297 74.5t-103 216.5h123q0 -201 277 -201q274 0 274 201zM315 0v1434h1639v-123h-1485v-514h1358v-123h-1358v-551h1503v-123h-1657z" />
    <glyph glyph-name="ebreve" unicode="&#x115;" horiz-adv-x="1968" 
d="M1260 1546h124q0 -142 -102.5 -216.5t-296.5 -74.5t-296.5 74.5t-102.5 216.5h123q0 -200 276 -200q275 0 275 200zM995 -20q-402 0 -623.5 155.5t-221.5 427.5q0 265 220.5 417.5t618.5 152.5q393 0 617.5 -151t224.5 -407q0 -21 -4 -57h-1526q19 -202 196 -313
t498 -111q302 0 464 61.5t210 186.5l154 -29q-47 -116 -146 -188.5t-266.5 -108.5t-415.5 -36zM989 1020q-311 0 -485 -101.5t-201 -289.5h1374q-24 185 -201 288t-487 103z" />
    <glyph glyph-name="Edotaccent" unicode="&#x116;" horiz-adv-x="2131" 
d="M1047 1622v184h176v-184h-176zM315 0v1434h1639v-123h-1485v-514h1358v-123h-1358v-551h1503v-123h-1657z" />
    <glyph glyph-name="edotaccent" unicode="&#x117;" horiz-adv-x="1968" 
d="M897 1300v185h176v-185h-176zM995 -20q-402 0 -623.5 155.5t-221.5 427.5q0 265 220.5 417.5t618.5 152.5q393 0 617.5 -151t224.5 -407q0 -21 -4 -57h-1526q19 -202 196 -313t498 -111q302 0 464 61.5t210 186.5l154 -29q-47 -116 -146 -188.5t-266.5 -108.5t-415.5 -36
zM989 1020q-311 0 -485 -101.5t-201 -289.5h1374q-24 185 -201 288t-487 103z" />
    <glyph glyph-name="Eogonek" unicode="&#x118;" horiz-adv-x="2136" 
d="M315 0v1434h1639v-123h-1485v-514h1358v-123h-1358v-551h1503v-123h-2q-119 -26 -200 -54t-123 -56.5t-59 -55t-17 -57.5q0 -101 164 -101q117 0 239 35l-6 -112q-119 -37 -258 -37q-129 0 -198.5 47t-69.5 135q0 78 62.5 141t217.5 115h-1407z" />
    <glyph glyph-name="eogonek" unicode="&#x119;" horiz-adv-x="1968" 
d="M1817 -401q-119 -37 -258 -37q-132 0 -201.5 47.5t-69.5 136.5q0 40 15 77.5t45 72.5t63.5 66t80.5 71q11 9 17 14q-183 -67 -514 -67q-402 0 -623.5 155.5t-221.5 427.5q0 265 220.5 417.5t618.5 152.5q393 0 617.5 -151t224.5 -407q0 -21 -4 -57h-1526
q19 -202 196 -313t498 -111q302 0 464 61.5t210 186.5l154 -29q-35 -84 -90.5 -156.5t-108 -119.5t-100.5 -89t-77.5 -84t-29.5 -85q0 -103 166 -103q116 0 238 35zM989 1020q-311 0 -485 -101.5t-201 -289.5h1374q-24 185 -201 288t-487 103z" />
    <glyph glyph-name="Ecaron" unicode="&#x11a;" horiz-adv-x="2131" 
d="M1606 1890l-383 -319h-187l-379 319h134l344 -241l340 241h131zM315 0v1434h1639v-123h-1485v-514h1358v-123h-1358v-551h1503v-123h-1657z" />
    <glyph glyph-name="ecaron" unicode="&#x11b;" horiz-adv-x="1968" 
d="M1458 1569l-383 -320h-186l-379 320h133l344 -242l340 242h131zM995 -20q-402 0 -623.5 155.5t-221.5 427.5q0 265 220.5 417.5t618.5 152.5q393 0 617.5 -151t224.5 -407q0 -21 -4 -57h-1526q19 -202 196 -313t498 -111q302 0 464 61.5t210 186.5l154 -29
q-47 -116 -146 -188.5t-266.5 -108.5t-415.5 -36zM989 1020q-311 0 -485 -101.5t-201 -289.5h1374q-24 185 -201 288t-487 103z" />
    <glyph glyph-name="Gcircumflex" unicode="&#x11c;" horiz-adv-x="2471" 
d="M1550 1571l-342 241l-342 -241h-131l383 319h187l378 -319h-133zM168 715q0 347 283 543t790 196q415 0 674 -117t328 -333l-164 -35q-61 172 -277 266t-563 94q-434 0 -671.5 -162t-237.5 -452t231.5 -450.5t669.5 -160.5q378 0 593.5 122.5t268.5 344.5h-909v121h1079
v-692h-123l-18 371v14q-106 -196 -333 -300.5t-568 -104.5q-504 0 -778.5 194t-274.5 541z" />
    <glyph glyph-name="gcircumflex" unicode="&#x11d;" horiz-adv-x="1900" 
d="M1278 1249l-342 242l-342 -242h-131l383 320h186l379 -320h-133zM938 1133q400 0 580 -113q114 154 335 127l-8 -123q-161 17 -256 -59q70 -76 70 -179q0 -164 -184.5 -249.5t-536.5 -85.5q-240 0 -393 36q-106 -13 -154.5 -45t-48.5 -88q0 -128 305 -131l717 -14
q241 -4 356 -73t115 -202q0 -189 -219.5 -276.5t-689.5 -87.5q-432 0 -634 74.5t-202 238.5q0 101 80 165t236 89q-209 44 -209 193q0 152 219 198q-203 87 -203 258q0 168 186.5 257.5t538.5 89.5zM1505 786q0 119 -143.5 180.5t-423.5 61.5q-281 0 -425 -61.5t-144 -180.5
q0 -233 569 -233q567 0 567 233zM666 109q-416 -9 -416 -205q0 -123 161 -176.5t517 -53.5q395 0 574 60t179 188q0 85 -76 128t-243 46z" />
    <glyph glyph-name="Gbreve" unicode="&#x11e;" horiz-adv-x="2471" 
d="M1485 1868h125q0 -142 -103 -216.5t-297 -74.5t-296.5 74.5t-102.5 216.5h123q0 -201 276 -201q275 0 275 201zM168 715q0 347 283 543t790 196q415 0 674 -117t328 -333l-164 -35q-61 172 -277 266t-563 94q-434 0 -671.5 -162t-237.5 -452t231.5 -450.5t669.5 -160.5
q378 0 593.5 122.5t268.5 344.5h-909v121h1079v-692h-123l-18 371v14q-106 -196 -333 -300.5t-568 -104.5q-504 0 -778.5 194t-274.5 541z" />
    <glyph glyph-name="gbreve" unicode="&#x11f;" horiz-adv-x="1900" 
d="M1212 1546h125q0 -142 -102.5 -216.5t-296.5 -74.5t-296.5 74.5t-102.5 216.5h123q0 -200 276 -200q274 0 274 200zM938 1133q400 0 580 -113q114 154 335 127l-8 -123q-161 17 -256 -59q70 -76 70 -179q0 -164 -184.5 -249.5t-536.5 -85.5q-240 0 -393 36
q-106 -13 -154.5 -45t-48.5 -88q0 -128 305 -131l717 -14q241 -4 356 -73t115 -202q0 -189 -219.5 -276.5t-689.5 -87.5q-432 0 -634 74.5t-202 238.5q0 101 80 165t236 89q-209 44 -209 193q0 152 219 198q-203 87 -203 258q0 168 186.5 257.5t538.5 89.5zM1505 786
q0 119 -143.5 180.5t-423.5 61.5q-281 0 -425 -61.5t-144 -180.5q0 -233 569 -233q567 0 567 233zM666 109q-416 -9 -416 -205q0 -123 161 -176.5t517 -53.5q395 0 574 60t179 188q0 85 -76 128t-243 46z" />
    <glyph glyph-name="Gdotaccent" unicode="&#x120;" horiz-adv-x="2471" 
d="M1122 1622v184h176v-184h-176zM168 715q0 347 283 543t790 196q415 0 674 -117t328 -333l-164 -35q-61 172 -277 266t-563 94q-434 0 -671.5 -162t-237.5 -452t231.5 -450.5t669.5 -160.5q378 0 593.5 122.5t268.5 344.5h-909v121h1079v-692h-123l-18 371v14
q-106 -196 -333 -300.5t-568 -104.5q-504 0 -778.5 194t-274.5 541z" />
    <glyph glyph-name="gdotaccent" unicode="&#x121;" horiz-adv-x="1900" 
d="M850 1300v185h176v-185h-176zM938 1133q400 0 580 -113q114 154 335 127l-8 -123q-161 17 -256 -59q70 -76 70 -179q0 -164 -184.5 -249.5t-536.5 -85.5q-240 0 -393 36q-106 -13 -154.5 -45t-48.5 -88q0 -128 305 -131l717 -14q241 -4 356 -73t115 -202
q0 -189 -219.5 -276.5t-689.5 -87.5q-432 0 -634 74.5t-202 238.5q0 101 80 165t236 89q-209 44 -209 193q0 152 219 198q-203 87 -203 258q0 168 186.5 257.5t538.5 89.5zM1505 786q0 119 -143.5 180.5t-423.5 61.5q-281 0 -425 -61.5t-144 -180.5q0 -233 569 -233
q567 0 567 233zM666 109q-416 -9 -416 -205q0 -123 161 -176.5t517 -53.5q395 0 574 60t179 188q0 85 -76 128t-243 46z" />
    <glyph glyph-name="Gcommaaccent" unicode="&#x122;" horiz-adv-x="2471" 
d="M168 715q0 347 283 543t790 196q415 0 674 -117t328 -333l-164 -35q-61 172 -277 266t-563 94q-434 0 -671.5 -162t-237.5 -452t231.5 -450.5t669.5 -160.5q378 0 593.5 122.5t268.5 344.5h-909v121h1079v-692h-123l-18 371v14q-106 -196 -333 -300.5t-568 -104.5
q-504 0 -778.5 194t-274.5 541zM870 -446l260 309h183l-314 -309h-129z" />
    <glyph glyph-name="gcommaaccent" unicode="&#x123;" horiz-adv-x="1900" 
d="M1354 1563l-316 -314h-186l373 314h129zM938 1133q400 0 580 -113q114 154 335 127l-8 -123q-161 17 -256 -59q70 -76 70 -179q0 -164 -184.5 -249.5t-536.5 -85.5q-240 0 -393 36q-106 -13 -154.5 -45t-48.5 -88q0 -128 305 -131l717 -14q241 -4 356 -73t115 -202
q0 -189 -219.5 -276.5t-689.5 -87.5q-432 0 -634 74.5t-202 238.5q0 101 80 165t236 89q-209 44 -209 193q0 152 219 198q-203 87 -203 258q0 168 186.5 257.5t538.5 89.5zM1505 786q0 119 -143.5 180.5t-423.5 61.5q-281 0 -425 -61.5t-144 -180.5q0 -233 569 -233
q567 0 567 233zM666 109q-416 -9 -416 -205q0 -123 161 -176.5t517 -53.5q395 0 574 60t179 188q0 85 -76 128t-243 46z" />
    <glyph glyph-name="Hcircumflex" unicode="&#x124;" horiz-adv-x="2506" 
d="M1593 1571l-342 241l-342 -241h-131l383 319h187l378 -319h-133zM315 0v1434h158v-629h1561v629h157v-1434h-157v680h-1561v-680h-158z" />
    <glyph glyph-name="hcircumflex" unicode="&#x125;" horiz-adv-x="2035" 
d="M1075 1673l-342 242l-342 -242h-131l383 320h186l379 -320h-133zM262 0v1536h150v-758q99 163 298.5 259t450.5 96q303 0 469 -149.5t166 -412.5v-571h-149v545q0 218 -136 341.5t-387 123.5q-204 0 -366 -67.5t-254 -191.5t-92 -282v-469h-150z" />
    <glyph glyph-name="Hbar" unicode="&#x126;" horiz-adv-x="2506" 
d="M315 0v1073h-292v98h292v263h158v-263h1561v263h157v-263h293v-98h-293v-1073h-157v680h-1561v-680h-158zM473 805h1561v268h-1561v-268z" />
    <glyph glyph-name="hbar" unicode="&#x127;" horiz-adv-x="2035" 
d="M262 0v1270h-235v98h235v168h150v-168h585v-98h-585v-504q99 164 298.5 260t450.5 96q304 0 469.5 -149t165.5 -414v-559h-149v535q0 218 -136 341t-387 123q-204 0 -366.5 -68t-254 -191.5t-91.5 -280.5v-459h-150z" />
    <glyph glyph-name="Itilde" unicode="&#x128;" horiz-adv-x="788" 
d="M799 1876q22 -161 -32 -237t-159 -76q-50 0 -98.5 23.5t-87 56.5t-74.5 66.5t-76 57t-77 23.5q-131 0 -99 -207h-106q-21 159 34 235t160 76q49 0 97.5 -23t87 -56t75.5 -66.5t76.5 -56.5t75.5 -23q130 0 96 207h107zM315 0v1434h158v-1434h-158z" />
    <glyph glyph-name="itilde" unicode="&#x129;" horiz-adv-x="675" 
d="M743 1554q22 -161 -31.5 -237t-158.5 -76q-50 0 -98.5 23.5t-87 56.5t-75 66.5t-76.5 57t-77 23.5q-129 0 -98 -206h-107q-21 159 34 235t161 76q49 0 97.5 -23t87 -56.5t75.5 -66.5t76.5 -56t75.5 -23q130 0 96 206h106zM262 0v1110h150v-1110h-150z" />
    <glyph glyph-name="Imacron" unicode="&#x12a;" horiz-adv-x="788" 
d="M-45 1653v104h879v-104h-879zM315 0v1434h158v-1434h-158z" />
    <glyph glyph-name="imacron" unicode="&#x12b;" horiz-adv-x="673" 
d="M-102 1331v105h878v-105h-878zM262 0v1110h150v-1110h-150z" />
    <glyph glyph-name="Ibreve" unicode="&#x12c;" horiz-adv-x="788" 
d="M670 1868h125q0 -142 -103 -216.5t-297 -74.5t-296.5 74.5t-102.5 216.5h123q0 -201 276 -201q275 0 275 201zM315 0v1434h158v-1434h-158z" />
    <glyph glyph-name="ibreve" unicode="&#x12d;" horiz-adv-x="675" 
d="M612 1546h125q0 -142 -102.5 -216.5t-296.5 -74.5t-296.5 74.5t-102.5 216.5h122q0 -200 277 -200q274 0 274 200zM262 0v1110h150v-1110h-150z" />
    <glyph glyph-name="Iogonek" unicode="&#x12e;" horiz-adv-x="788" 
d="M66 -256q0 169 249 272v1418h158v-1434q-278 -98 -278 -223q0 -101 167 -101q115 0 240 35l-4 -112q-122 -37 -260 -37q-132 0 -202 47t-70 135z" />
    <glyph glyph-name="iogonek" unicode="&#x12f;" horiz-adv-x="675" 
d="M252 1300v170h172v-170h-172zM8 -256q0 171 254 274v1092h152v-1110q-277 -97 -277 -223q0 -101 166 -101q117 0 242 35l-6 -112q-122 -37 -260 -37q-132 0 -201.5 47t-69.5 135z" />
    <glyph glyph-name="Idotaccent" unicode="&#x130;" horiz-adv-x="788" 
d="M307 1622v184h176v-184h-176zM315 0v1434h158v-1434h-158z" />
    <glyph glyph-name="dotlessi" unicode="&#x131;" horiz-adv-x="675" 
d="M262 0v1110h150v-1110h-150z" />
    <glyph glyph-name="IJ" unicode="&#x132;" horiz-adv-x="2162" 
d="M315 0v1434h158v-1434h-158zM1886 553q0 -298 -154.5 -435.5t-494.5 -137.5q-194 0 -367 30l-8 129q188 -33 363 -33q265 0 384.5 105t119.5 336v887h157v-881z" />
    <glyph glyph-name="ij" unicode="&#x133;" horiz-adv-x="1349" 
d="M252 1300v170h172v-170h-172zM928 1300v170h170v-170h-170zM262 0v1110h152v-1110h-152zM938 -35v1145h149v-1137q0 -213 -102 -308t-313 -95q-94 0 -183 12l-6 119q77 -14 162 -14q150 0 221.5 64.5t71.5 213.5z" />
    <glyph glyph-name="Jcircumflex" unicode="&#x134;" horiz-adv-x="1376" 
d="M1360 1571l-342 241l-342 -241h-131l383 319h186l379 -319h-133zM1098 553q0 -298 -154.5 -435.5t-494.5 -137.5q-194 0 -367 30l-8 129q188 -33 362 -33q265 0 384.5 105t119.5 336v887h158v-881z" />
    <glyph glyph-name="jcircumflex" unicode="&#x135;" horiz-adv-x="675" 
d="M680 1249l-342 242l-342 -242h-131l383 320h186l379 -320h-133zM262 -35v1145h150v-1137q0 -213 -102.5 -308t-313.5 -95q-94 0 -182 12l-7 119q77 -14 162 -14q150 0 221.5 64.5t71.5 213.5z" />
    <glyph glyph-name="Kcommaaccent" unicode="&#x136;" horiz-adv-x="2144" 
d="M315 0v1434h156v-758l1331 758h246l-1167 -670l1235 -764h-263l-1114 680l-268 -154v-526h-156zM768 -446l260 309h182l-313 -309h-129z" />
    <glyph glyph-name="kcommaaccent" unicode="&#x137;" horiz-adv-x="1767" 
d="M262 0v1536h150v-985l1040 559h236l-920 -496l969 -614h-240l-860 545l-225 -125v-420h-150zM590 -446l260 309h182l-313 -309h-129z" />
    <glyph glyph-name="kgreenlandic" unicode="&#x138;" horiz-adv-x="1767" 
d="M262 0v1110h150v-559l1040 559h236l-920 -496l969 -614h-234l-866 545l-225 -125v-420h-150z" />
    <glyph glyph-name="Lacute" unicode="&#x139;" horiz-adv-x="1863" 
d="M319 1571l406 319h211l-469 -319h-148zM315 0v1434h158v-1307h1307v-127h-1465z" />
    <glyph glyph-name="lacute" unicode="&#x13a;" horiz-adv-x="673" 
d="M262 1673l406 320h211l-469 -320h-148zM412 0h-150v1536h150v-1536z" />
    <glyph glyph-name="Lcommaaccent" unicode="&#x13b;" horiz-adv-x="1863" 
d="M315 0v1434h158v-1307h1307v-127h-1465zM684 -446l260 309h182l-313 -309h-129z" />
    <glyph glyph-name="lcommaaccent" unicode="&#x13c;" horiz-adv-x="673" 
d="M412 0h-150v1536h150v-1536zM-14 -446l260 309h182l-313 -309h-129z" />
    <glyph glyph-name="Lcaron" unicode="&#x13d;" horiz-adv-x="1863" 
d="M315 0v1434h158v-1307h1307v-127h-1465zM893 995v439h141l-41 -439h-100z" />
    <glyph glyph-name="lcaron" unicode="&#x13e;" horiz-adv-x="751" 
d="M412 0h-150v1536h150v-1536zM674 1098v438h141l-41 -438h-100z" />
    <glyph glyph-name="Ldot" unicode="&#x13f;" horiz-adv-x="1863" 
d="M315 0v1434h158v-1307h1307v-127h-1465zM1233 668v186h182v-186h-182z" />
    <glyph glyph-name="ldot" unicode="&#x140;" horiz-adv-x="808" 
d="M412 0h-150v1536h150v-1536zM651 653v187h183v-187h-183z" />
    <glyph glyph-name="Lslash" unicode="&#x141;" horiz-adv-x="1898" 
d="M348 0v643l-317 -88v117l317 88v674h158v-629l498 139v-119l-498 -139v-559h1309v-127h-1467z" />
    <glyph glyph-name="lslash" unicode="&#x142;" horiz-adv-x="825" 
d="M489 0h-151v664l-309 -89v111l309 88v762h151v-719l308 88v-110l-308 -88v-707z" />
    <glyph glyph-name="Nacute" unicode="&#x143;" horiz-adv-x="2467" 
d="M1157 1571l406 319h211l-469 -319h-148zM315 0v1434h156l1532 -1268v1268h149v-1434h-155l-1532 1266v-1266h-150z" />
    <glyph glyph-name="nacute" unicode="&#x144;" horiz-adv-x="2035" 
d="M942 1249l406 320h211l-469 -320h-148zM262 0v1110h135l11 -338q97 167 296 264t451 97q306 0 473.5 -149.5t167.5 -412.5v-571h-149v545q0 218 -137.5 341.5t-391.5 123.5q-202 0 -363 -67.5t-252 -191.5t-91 -282v-469h-150z" />
    <glyph glyph-name="Ncommaaccent" unicode="&#x145;" horiz-adv-x="2467" 
d="M315 0v1434h156l1532 -1268v1268h149v-1434h-155l-1532 1266v-1266h-150zM899 -446l260 309h182l-313 -309h-129z" />
    <glyph glyph-name="ncommaaccent" unicode="&#x146;" horiz-adv-x="2035" 
d="M262 0v1110h135l11 -338q97 167 296 264t451 97q306 0 473.5 -149.5t167.5 -412.5v-571h-149v545q0 218 -137.5 341.5t-391.5 123.5q-202 0 -363 -67.5t-252 -191.5t-91 -282v-469h-150zM707 -446l260 309h182l-313 -309h-129z" />
    <glyph glyph-name="Ncaron" unicode="&#x147;" horiz-adv-x="2467" 
d="M1706 1890l-383 -319h-186l-379 319h133l344 -241l340 241h131zM315 0v1434h156l1532 -1268v1268h149v-1434h-155l-1532 1266v-1266h-150z" />
    <glyph glyph-name="ncaron" unicode="&#x148;" horiz-adv-x="2035" 
d="M1491 1569l-383 -320h-186l-379 320h133l344 -242l340 242h131zM262 0v1110h135l11 -338q97 167 296 264t451 97q306 0 473.5 -149.5t167.5 -412.5v-571h-149v545q0 218 -137.5 341.5t-391.5 123.5q-202 0 -363 -67.5t-252 -191.5t-91 -282v-469h-150z" />
    <glyph glyph-name="napostrophe" unicode="&#x149;" horiz-adv-x="2035" 
d="M262 1235l260 309h183l-314 -309h-129zM262 0v1110h135l11 -338q97 167 296 264t451 97q306 0 473.5 -149.5t167.5 -412.5v-571h-149v545q0 218 -137.5 341.5t-391.5 123.5q-202 0 -363 -67.5t-252 -191.5t-91 -282v-469h-150z" />
    <glyph glyph-name="Eng" unicode="&#x14a;" horiz-adv-x="2467" 
d="M315 0v1434h156l1532 -1266v1266h149v-1297q0 -297 -153 -432t-492 -135q-188 0 -362 31l-8 123q206 -31 358 -31q226 0 347.5 76.5t150.5 238.5l-1528 1260v-1268h-150z" />
    <glyph glyph-name="eng" unicode="&#x14b;" horiz-adv-x="2035" 
d="M262 0v1110h135l11 -338q97 167 296 264t451 97q306 0 473.5 -149.5t167.5 -412.5v-598q0 -213 -102.5 -308t-313.5 -95q-94 0 -182 12l-6 119q77 -14 162 -14q150 0 221.5 64.5t71.5 213.5v580q0 218 -137.5 341.5t-391.5 123.5q-202 0 -363 -67.5t-252 -191.5t-91 -282
v-469h-150z" />
    <glyph glyph-name="Omacron" unicode="&#x14c;" horiz-adv-x="2445" 
d="M782 1653v104h879v-104h-879zM1223 -20q-501 0 -778 195t-277 538q0 347 277 544t778 197q500 0 777 -197t277 -542q0 -344 -277 -539.5t-777 -195.5zM1223 104q429 0 661 162t232 449q0 289 -232 451.5t-661 162.5t-661 -163t-232 -453q0 -286 232 -447.5t661 -161.5z
" />
    <glyph glyph-name="omacron" unicode="&#x14d;" horiz-adv-x="2013" 
d="M565 1331v105h879v-105h-879zM1006 -20q-405 0 -630.5 153t-225.5 422t226 423.5t630 154.5q406 0 632 -154t226 -424t-225 -422.5t-633 -152.5zM1006 94q338 0 520 122t182 339q0 219 -181.5 340t-520.5 121q-338 0 -519.5 -121t-181.5 -340q0 -218 181.5 -339.5
t519.5 -121.5z" />
    <glyph glyph-name="Obreve" unicode="&#x14e;" horiz-adv-x="2445" 
d="M1497 1868h125q0 -142 -102.5 -216.5t-296.5 -74.5t-297 74.5t-103 216.5h123q0 -201 277 -201q274 0 274 201zM1223 -20q-501 0 -778 195t-277 538q0 347 277 544t778 197q500 0 777 -197t277 -542q0 -344 -277 -539.5t-777 -195.5zM1223 104q429 0 661 162t232 449
q0 289 -232 451.5t-661 162.5t-661 -163t-232 -453q0 -286 232 -447.5t661 -161.5z" />
    <glyph glyph-name="obreve" unicode="&#x14f;" horiz-adv-x="2013" 
d="M1280 1546h125q0 -142 -102.5 -216.5t-296.5 -74.5t-297 74.5t-103 216.5h123q0 -200 277 -200q274 0 274 200zM1006 -20q-405 0 -630.5 153t-225.5 422t226 423.5t630 154.5q406 0 632 -154t226 -424t-225 -422.5t-633 -152.5zM1006 94q338 0 520 122t182 339
q0 219 -181.5 340t-520.5 121q-338 0 -519.5 -121t-181.5 -340q0 -218 181.5 -339.5t519.5 -121.5z" />
    <glyph glyph-name="Ohungarumlaut" unicode="&#x150;" horiz-adv-x="2445" 
d="M932 1571l309 319h184l-356 -319h-137zM1370 1571l311 319h183l-357 -319h-137zM1223 -20q-501 0 -778 195t-277 538q0 347 277 544t778 197q500 0 777 -197t277 -542q0 -344 -277 -539.5t-777 -195.5zM1223 104q429 0 661 162t232 449q0 289 -232 451.5t-661 162.5
t-661 -163t-232 -453q0 -286 232 -447.5t661 -161.5z" />
    <glyph glyph-name="ohungarumlaut" unicode="&#x151;" horiz-adv-x="2013" 
d="M707 1249l309 320h184l-356 -320h-137zM1145 1249l311 320h182l-356 -320h-137zM1006 -20q-405 0 -630.5 153t-225.5 422t226 423.5t630 154.5q406 0 632 -154t226 -424t-225 -422.5t-633 -152.5zM1006 94q338 0 520 122t182 339q0 219 -181.5 340t-520.5 121
q-338 0 -519.5 -121t-181.5 -340q0 -218 181.5 -339.5t519.5 -121.5z" />
    <glyph glyph-name="OE" unicode="&#x152;" horiz-adv-x="3590" 
d="M168 713q0 337 285.5 529t799.5 192h2157v-123h-1401v-516h1276v-121h-1276v-551h1421v-123h-2177q-515 0 -800 189t-285 524zM1253 123h602v1188h-602q-444 0 -683.5 -157.5t-239.5 -440.5q0 -280 240 -435t683 -155z" />
    <glyph glyph-name="oe" unicode="&#x153;" horiz-adv-x="3440" 
d="M983 -20q-394 0 -613.5 153t-219.5 422t220 423.5t613 154.5q274 0 469.5 -79.5t290.5 -238.5q89 159 281 238.5t462 79.5q380 0 597.5 -151t217.5 -407q0 -39 -4 -57h-1476q18 -203 190 -313.5t492 -110.5q281 0 436 61.5t203 186.5l151 -29q-68 -173 -256.5 -253
t-533.5 -80q-576 0 -758 321q-189 -321 -762 -321zM2486 1020q-301 0 -469.5 -101.5t-193.5 -289.5h1325q-19 185 -195 288t-467 103zM983 94q327 0 502.5 122t175.5 341q0 217 -175.5 338t-502.5 121q-326 0 -502 -121.5t-176 -339.5q0 -217 176 -339t502 -122z" />
    <glyph glyph-name="Racute" unicode="&#x154;" horiz-adv-x="2242" 
d="M1047 1571l405 319h211l-469 -319h-147zM315 0v1434h1201q265 0 403.5 -114t138.5 -325q0 -208 -140.5 -322t-401.5 -114h-68l608 -559h-213l-604 557h-766v-557h-158zM1493 1311h-1020v-631h1020q196 0 300.5 80.5t104.5 234.5q0 156 -102.5 236t-302.5 80z" />
    <glyph glyph-name="racute" unicode="&#x155;" horiz-adv-x="1331" 
d="M606 1249l406 320h211l-469 -320h-148zM262 0v1110h137l11 -393q95 190 304.5 301.5t483.5 111.5q40 0 72 -4l-8 -143q-42 10 -97 10q-110 0 -213.5 -21t-200.5 -67t-170 -113.5t-118.5 -168t-50.5 -222.5v-401h-150z" />
    <glyph glyph-name="Rcommaaccent" unicode="&#x156;" horiz-adv-x="2242" 
d="M315 0v1434h1201q265 0 403.5 -114t138.5 -325q0 -208 -140.5 -322t-401.5 -114h-68l608 -559h-213l-604 557h-766v-557h-158zM1493 1311h-1020v-631h1020q196 0 300.5 80.5t104.5 234.5q0 156 -102.5 236t-302.5 80zM778 -446l260 309h183l-314 -309h-129z" />
    <glyph glyph-name="rcommaaccent" unicode="&#x157;" horiz-adv-x="1331" 
d="M262 0v1110h137l11 -393q95 190 304.5 301.5t483.5 111.5q40 0 72 -4l-8 -143q-42 10 -97 10q-110 0 -213.5 -21t-200.5 -67t-170 -113.5t-118.5 -168t-50.5 -222.5v-401h-150zM-14 -446l260 309h182l-313 -309h-129z" />
    <glyph glyph-name="Rcaron" unicode="&#x158;" horiz-adv-x="2242" 
d="M1595 1890l-383 -319h-186l-379 319h133l344 -241l340 241h131zM315 0v1434h1201q265 0 403.5 -114t138.5 -325q0 -208 -140.5 -322t-401.5 -114h-68l608 -559h-213l-604 557h-766v-557h-158zM1493 1311h-1020v-631h1020q196 0 300.5 80.5t104.5 234.5q0 156 -102.5 236
t-302.5 80z" />
    <glyph glyph-name="rcaron" unicode="&#x159;" horiz-adv-x="1331" 
d="M1182 1569l-383 -320h-187l-379 320h134l344 -242l340 242h131zM262 0v1110h137l11 -393q95 190 304.5 301.5t483.5 111.5q40 0 72 -4l-8 -143q-42 10 -97 10q-110 0 -213.5 -21t-200.5 -67t-170 -113.5t-118.5 -168t-50.5 -222.5v-401h-150z" />
    <glyph glyph-name="Sacute" unicode="&#x15a;" horiz-adv-x="2215" 
d="M1022 1571l405 319h211l-469 -319h-147zM145 434l164 29q35 -176 250 -267.5t574 -91.5q387 0 577.5 77.5t190.5 224.5q0 124 -116.5 177t-408.5 72l-557 29q-321 22 -470.5 105t-149.5 251q0 197 221.5 305.5t642.5 108.5q850 0 958 -430l-163 -29q-85 334 -795 334
q-348 0 -526.5 -72.5t-178.5 -205.5q0 -115 115.5 -167t384.5 -71l563 -29q344 -24 492.5 -107t148.5 -261q0 -216 -236.5 -326t-695.5 -110q-281 0 -488.5 48.5t-337 151t-159.5 254.5z" />
    <glyph glyph-name="sacute" unicode="&#x15b;" horiz-adv-x="1832" 
d="M834 1249l405 320h211l-469 -320h-147zM891 1022q-288 0 -434 -51t-146 -148q0 -90 89.5 -129.5t324.5 -54.5l440 -18q199 -13 314.5 -46.5t166 -93t50.5 -155.5q0 -346 -772 -346q-366 0 -565 90t-240 276l149 25q53 -281 656 -281q622 0 622 221q0 92 -84.5 134
t-304.5 55l-444 20q-300 17 -424.5 83.5t-124.5 209.5q0 156 186 238t541 82q354 0 546 -84.5t232 -257.5l-145 -27q-28 131 -184 194.5t-449 63.5z" />
    <glyph glyph-name="Scircumflex" unicode="&#x15c;" horiz-adv-x="2215" 
d="M1438 1571l-342 241l-342 -241h-131l383 319h186l379 -319h-133zM145 434l164 29q35 -176 250 -267.5t574 -91.5q387 0 577.5 77.5t190.5 224.5q0 124 -116.5 177t-408.5 72l-557 29q-321 22 -470.5 105t-149.5 251q0 197 221.5 305.5t642.5 108.5q850 0 958 -430
l-163 -29q-85 334 -795 334q-348 0 -526.5 -72.5t-178.5 -205.5q0 -115 115.5 -167t384.5 -71l563 -29q344 -24 492.5 -107t148.5 -261q0 -216 -236.5 -326t-695.5 -110q-281 0 -488.5 48.5t-337 151t-159.5 254.5z" />
    <glyph glyph-name="scircumflex" unicode="&#x15d;" horiz-adv-x="1832" 
d="M1251 1249l-342 242l-342 -242h-131l383 320h187l378 -320h-133zM891 1022q-288 0 -434 -51t-146 -148q0 -90 89.5 -129.5t324.5 -54.5l440 -18q199 -13 314.5 -46.5t166 -93t50.5 -155.5q0 -346 -772 -346q-366 0 -565 90t-240 276l149 25q53 -281 656 -281
q622 0 622 221q0 92 -84.5 134t-304.5 55l-444 20q-300 17 -424.5 83.5t-124.5 209.5q0 156 186 238t541 82q354 0 546 -84.5t232 -257.5l-145 -27q-28 131 -184 194.5t-449 63.5z" />
    <glyph glyph-name="Scedilla" unicode="&#x15e;" horiz-adv-x="2215" 
d="M145 434l164 29q35 -176 250 -267.5t574 -91.5q387 0 577.5 77.5t190.5 224.5q0 124 -116.5 177t-408.5 72l-557 29q-321 22 -470.5 105t-149.5 251q0 197 221.5 305.5t642.5 108.5q850 0 958 -430l-163 -29q-85 334 -795 334q-348 0 -526.5 -72.5t-178.5 -205.5
q0 -115 115.5 -167t384.5 -71l563 -29q344 -24 492.5 -107t148.5 -261q0 -215 -231.5 -324.5t-681.5 -111.5l-23 -125q76 24 166 24q113 0 172.5 -37.5t59.5 -107.5q0 -83 -82 -126.5t-271 -43.5q-140 0 -309 35l8 73q150 -32 287 -32q124 0 176.5 23t52.5 69q0 78 -137 78
q-80 0 -151 -31l-88 14l32 189q-389 11 -622 124t-275 328z" />
    <glyph glyph-name="scedilla" unicode="&#x15f;" horiz-adv-x="1832" 
d="M891 1022q-288 0 -434 -51t-146 -148q0 -90 89.5 -129.5t324.5 -54.5l440 -18q199 -13 314.5 -46.5t166 -93t50.5 -155.5q0 -340 -752 -346l-22 -125q76 24 165 24q113 0 172.5 -37.5t59.5 -107.5q0 -83 -81.5 -126.5t-270.5 -43.5q-141 0 -310 35l9 73q150 -32 286 -32
q124 0 177 23t53 69q0 78 -138 78q-80 0 -151 -31l-88 14l33 189q-324 9 -502.5 99t-216.5 265l149 25q53 -281 656 -281q622 0 622 221q0 92 -84.5 134t-304.5 55l-444 20q-300 17 -424.5 83.5t-124.5 209.5q0 156 186 238t541 82q354 0 546 -84.5t232 -257.5l-145 -27
q-28 131 -184 194.5t-449 63.5z" />
    <glyph glyph-name="Scaron" unicode="&#x160;" horiz-adv-x="2215" 
d="M1571 1890l-383 -319h-187l-378 319h133l344 -241l340 241h131zM145 434l164 29q35 -176 250 -267.5t574 -91.5q387 0 577.5 77.5t190.5 224.5q0 124 -116.5 177t-408.5 72l-557 29q-321 22 -470.5 105t-149.5 251q0 197 221.5 305.5t642.5 108.5q850 0 958 -430
l-163 -29q-85 334 -795 334q-348 0 -526.5 -72.5t-178.5 -205.5q0 -115 115.5 -167t384.5 -71l563 -29q344 -24 492.5 -107t148.5 -261q0 -216 -236.5 -326t-695.5 -110q-281 0 -488.5 48.5t-337 151t-159.5 254.5z" />
    <glyph glyph-name="scaron" unicode="&#x161;" horiz-adv-x="1832" 
d="M1384 1569l-383 -320h-186l-379 320h133l344 -242l340 242h131zM891 1022q-288 0 -434 -51t-146 -148q0 -90 89.5 -129.5t324.5 -54.5l440 -18q199 -13 314.5 -46.5t166 -93t50.5 -155.5q0 -346 -772 -346q-366 0 -565 90t-240 276l149 25q53 -281 656 -281
q622 0 622 221q0 92 -84.5 134t-304.5 55l-444 20q-300 17 -424.5 83.5t-124.5 209.5q0 156 186 238t541 82q354 0 546 -84.5t232 -257.5l-145 -27q-28 131 -184 194.5t-449 63.5z" />
    <glyph glyph-name="uni0162" unicode="&#x162;" horiz-adv-x="2052" 
d="M946 0v1307h-889v127h1936v-127h-889v-1307h-158zM670 -446l260 309h182l-313 -309h-129z" />
    <glyph glyph-name="uni0163" unicode="&#x163;" horiz-adv-x="1378" 
d="M344 418v577h-326v115h263q59 0 73.5 41t24.5 250h117v-291h770v-115h-770v-569q0 -181 93 -255.5t304 -74.5q191 0 389 43l-6 -119q-194 -40 -414 -40q-133 0 -226.5 21.5t-160.5 72t-99 135.5t-32 209zM397 -446l260 309h183l-314 -309h-129z" />
    <glyph glyph-name="Tcaron" unicode="&#x164;" horiz-adv-x="2052" 
d="M1499 1890l-383 -319h-186l-379 319h133l344 -241l340 241h131zM946 0v1307h-889v127h1936v-127h-889v-1307h-158z" />
    <glyph glyph-name="tcaron" unicode="&#x165;" horiz-adv-x="1378" 
d="M690 1257v439h141l-40 -439h-101zM344 418v577h-326v115h263q59 0 73.5 41t24.5 250h117v-291h770v-115h-770v-569q0 -181 93 -255.5t304 -74.5q191 0 389 43l-6 -119q-194 -40 -414 -40q-133 0 -226.5 21.5t-160.5 72t-99 135.5t-32 209z" />
    <glyph glyph-name="Tbar" unicode="&#x166;" horiz-adv-x="2052" 
d="M477 686v98h469v523h-889v127h1936v-127h-889v-523h469v-98h-469v-686h-158v686h-469z" />
    <glyph glyph-name="tbar" unicode="&#x167;" horiz-adv-x="1378" 
d="M61 530v99h283v366h-326v115h263q59 0 73.5 41t24.5 250h117v-291h770v-115h-770v-366h589v-99h-589v-104q0 -181 93 -255.5t304 -74.5q191 0 389 43l-6 -119q-194 -40 -414 -40q-133 0 -226.5 21.5t-160.5 72t-99 135.5t-32 209v112h-283z" />
    <glyph glyph-name="Utilde" unicode="&#x168;" horiz-adv-x="2336" 
d="M1573 1876q22 -161 -32 -237t-159 -76q-50 0 -98.5 23.5t-87 56.5t-74.5 66.5t-76 57t-77 23.5q-131 0 -99 -207h-106q-21 159 34 235t160 76q49 0 97.5 -23t87 -56t75.5 -66.5t76.5 -56.5t75.5 -23q130 0 96 207h107zM2087 688q0 -338 -242.5 -523t-677.5 -185
t-676 184.5t-241 523.5v746h158v-742q0 -283 198 -435.5t561 -152.5q365 0 563.5 152.5t198.5 435.5v742h158v-746z" />
    <glyph glyph-name="utilde" unicode="&#x169;" horiz-adv-x="1980" 
d="M1393 1554q22 -161 -32 -237t-159 -76q-50 0 -98.5 23.5t-87 56.5t-75 66.5t-76.5 57t-77 23.5q-129 0 -98 -206h-106q-21 159 34 235t160 76q49 0 97.5 -23t87 -56.5t75.5 -66.5t76.5 -56t75.5 -23q130 0 96 206h107zM1720 1110v-1110h-135l-12 328
q-97 -164 -290.5 -256t-426.5 -92q-136 0 -249.5 32.5t-200 97t-135 168t-48.5 236.5v596h152v-575q0 -109 39.5 -193.5t110 -136.5t162.5 -78.5t202 -26.5q99 0 194.5 20t183 62t154 101.5t106.5 145.5t42 187v494h151z" />
    <glyph glyph-name="Umacron" unicode="&#x16a;" horiz-adv-x="2336" 
d="M729 1653v104h879v-104h-879zM2087 688q0 -338 -242.5 -523t-677.5 -185t-676 184.5t-241 523.5v746h158v-742q0 -283 198 -435.5t561 -152.5q365 0 563.5 152.5t198.5 435.5v742h158v-746z" />
    <glyph glyph-name="umacron" unicode="&#x16b;" horiz-adv-x="1980" 
d="M549 1331v105h878v-105h-878zM1720 1110v-1110h-135l-12 328q-97 -164 -290.5 -256t-426.5 -92q-136 0 -249.5 32.5t-200 97t-135 168t-48.5 236.5v596h152v-575q0 -109 39.5 -193.5t110 -136.5t162.5 -78.5t202 -26.5q99 0 194.5 20t183 62t154 101.5t106.5 145.5
t42 187v494h151z" />
    <glyph glyph-name="Ubreve" unicode="&#x16c;" horiz-adv-x="2336" 
d="M1444 1868h125q0 -142 -103 -216.5t-297 -74.5t-296.5 74.5t-102.5 216.5h123q0 -201 276 -201q275 0 275 201zM2087 688q0 -338 -242.5 -523t-677.5 -185t-676 184.5t-241 523.5v746h158v-742q0 -283 198 -435.5t561 -152.5q365 0 563.5 152.5t198.5 435.5v742h158v-746
z" />
    <glyph glyph-name="ubreve" unicode="&#x16d;" horiz-adv-x="1980" 
d="M1264 1546h125q0 -142 -103 -216.5t-297 -74.5t-296.5 74.5t-102.5 216.5h123q0 -200 276 -200q275 0 275 200zM1720 1110v-1110h-135l-12 328q-97 -164 -290.5 -256t-426.5 -92q-136 0 -249.5 32.5t-200 97t-135 168t-48.5 236.5v596h152v-575q0 -109 39.5 -193.5
t110 -136.5t162.5 -78.5t202 -26.5q99 0 194.5 20t183 62t154 101.5t106.5 145.5t42 187v494h151z" />
    <glyph glyph-name="Uring" unicode="&#x16e;" horiz-adv-x="2336" 
d="M1171 1538q-142 0 -221.5 54.5t-79.5 150.5q0 94 79.5 148.5t221.5 54.5q139 0 217 -54.5t78 -148.5q0 -96 -78 -150.5t-217 -54.5zM1171 1608q100 0 154.5 35.5t54.5 99.5q0 62 -54.5 96.5t-154.5 34.5q-102 0 -157.5 -34.5t-55.5 -96.5q0 -64 55.5 -99.5t157.5 -35.5z
M2087 688q0 -338 -242.5 -523t-677.5 -185t-676 184.5t-241 523.5v746h158v-742q0 -283 198 -435.5t561 -152.5q365 0 563.5 152.5t198.5 435.5v742h158v-746z" />
    <glyph glyph-name="uring" unicode="&#x16f;" horiz-adv-x="1980" 
d="M991 1217q-142 0 -221.5 54t-79.5 150q0 94 79.5 148.5t221.5 54.5q139 0 217 -54.5t78 -148.5q0 -96 -78 -150t-217 -54zM991 1286q100 0 154.5 35.5t54.5 99.5q0 62 -54.5 96.5t-154.5 34.5q-102 0 -157.5 -34.5t-55.5 -96.5q0 -64 55.5 -99.5t157.5 -35.5zM1720 1110
v-1110h-135l-12 328q-97 -164 -290.5 -256t-426.5 -92q-136 0 -249.5 32.5t-200 97t-135 168t-48.5 236.5v596h152v-575q0 -109 39.5 -193.5t110 -136.5t162.5 -78.5t202 -26.5q99 0 194.5 20t183 62t154 101.5t106.5 145.5t42 187v494h151z" />
    <glyph glyph-name="Uhungarumlaut" unicode="&#x170;" horiz-adv-x="2336" 
d="M874 1571l310 319h184l-356 -319h-138zM1313 1571l311 319h182l-356 -319h-137zM2087 688q0 -338 -242.5 -523t-677.5 -185t-676 184.5t-241 523.5v746h158v-742q0 -283 198 -435.5t561 -152.5q365 0 563.5 152.5t198.5 435.5v742h158v-746z" />
    <glyph glyph-name="uhungarumlaut" unicode="&#x171;" horiz-adv-x="1980" 
d="M690 1249l309 320h185l-357 -320h-137zM1128 1249l312 320h182l-356 -320h-138zM1720 1110v-1110h-135l-12 328q-97 -164 -290.5 -256t-426.5 -92q-136 0 -249.5 32.5t-200 97t-135 168t-48.5 236.5v596h152v-575q0 -109 39.5 -193.5t110 -136.5t162.5 -78.5t202 -26.5
q99 0 194.5 20t183 62t154 101.5t106.5 145.5t42 187v494h151z" />
    <glyph glyph-name="Uogonek" unicode="&#x172;" horiz-adv-x="2336" 
d="M1202 -438q-132 0 -201 47t-69 135q0 74 55 131.5t189 104.5h-9q-435 0 -676 184.5t-241 523.5v746h158v-742q0 -283 198 -435.5t561 -152.5q365 0 563.5 152.5t198.5 435.5v742h158v-746q0 -235 -121.5 -399t-349.5 -242q-55 -20 -145 -46.5t-152.5 -46.5t-126 -46
t-96.5 -58.5t-33 -72.5q0 -101 162 -101q116 0 241 35l-6 -112q-119 -37 -258 -37z" />
    <glyph glyph-name="uogonek" unicode="&#x173;" horiz-adv-x="1980" 
d="M1190 -256q0 45 18 82t61.5 74t121.5 70.5t192 62.5l-10 295q-97 -164 -290.5 -256t-426.5 -92q-136 0 -249.5 32.5t-200 97t-135 168t-48.5 236.5v596h152v-575q0 -109 39.5 -193.5t110 -136.5t162.5 -78.5t202 -26.5q99 0 194.5 20t183 62t154 101.5t106.5 145.5
t42 187v494h151v-1110h-2q-119 -26 -200 -54t-123 -56.5t-59 -55t-17 -57.5q0 -101 164 -101q117 0 239 35l-6 -112q-119 -37 -258 -37q-129 0 -198.5 47t-69.5 135z" />
    <glyph glyph-name="Wcircumflex" unicode="&#x174;" horiz-adv-x="3022" 
d="M1851 1571l-342 241l-342 -241h-131l383 319h187l379 -319h-134zM715 0l-666 1434h172l586 -1274l625 1274h161l623 -1268l590 1268h166l-672 -1434h-164l-627 1284l-630 -1284h-164z" />
    <glyph glyph-name="wcircumflex" unicode="&#x175;" horiz-adv-x="2543" 
d="M1612 1249l-342 242l-342 -242h-131l383 320h186l379 -320h-133zM616 0l-571 1110h164l485 -960l512 960h137l504 -960l494 960h158l-582 -1110h-133l-508 983l-526 -983h-134z" />
    <glyph glyph-name="Ycircumflex" unicode="&#x176;" horiz-adv-x="1961" 
d="M1321 1571l-342 241l-342 -241h-131l383 319h186l379 -319h-133zM899 0v584l-860 850h207l735 -727l745 727h197l-866 -852v-582h-158z" />
    <glyph glyph-name="ycircumflex" unicode="&#x177;" horiz-adv-x="1710" 
d="M1196 1249l-342 242l-342 -242h-131l383 320h186l379 -320h-133zM1503 1110h168l-792 -1225q-116 -177 -228 -246t-286 -69q-110 0 -183 18l-8 119q78 -18 172 -18q138 0 228 56.5t188 199.5l43 67l-766 1098h176l670 -971z" />
    <glyph glyph-name="Ydieresis" unicode="&#x178;" horiz-adv-x="1961" 
d="M1153 1622v172h182v-172h-182zM625 1622v172h182v-172h-182zM899 0v584l-860 850h207l735 -727l745 727h197l-866 -852v-582h-158z" />
    <glyph glyph-name="Zacute" unicode="&#x179;" horiz-adv-x="2029" 
d="M918 1571l405 319h211l-469 -319h-147zM145 0v115l1493 1192h-1488v127h1744v-109l-1505 -1198h1505v-127h-1749z" />
    <glyph glyph-name="zacute" unicode="&#x17a;" horiz-adv-x="1685" 
d="M766 1249l405 320h211l-469 -320h-147zM129 0v113l1221 882h-1198v115h1419v-113l-1225 -882h1231v-115h-1448z" />
    <glyph glyph-name="Zdotaccent" unicode="&#x17b;" horiz-adv-x="2029" 
d="M926 1622v184h176v-184h-176zM145 0v115l1493 1192h-1488v127h1744v-109l-1505 -1198h1505v-127h-1749z" />
    <glyph glyph-name="zdotaccent" unicode="&#x17c;" horiz-adv-x="1685" 
d="M760 1300v185h176v-185h-176zM129 0v113l1221 882h-1198v115h1419v-113l-1225 -882h1231v-115h-1448z" />
    <glyph glyph-name="Zcaron" unicode="&#x17d;" horiz-adv-x="2029" 
d="M1487 1890l-383 -319h-186l-379 319h133l344 -241l340 241h131zM145 0v115l1493 1192h-1488v127h1744v-109l-1505 -1198h1505v-127h-1749z" />
    <glyph glyph-name="zcaron" unicode="&#x17e;" horiz-adv-x="1685" 
d="M1321 1569l-383 -320h-186l-379 320h133l344 -242l340 242h131zM129 0v113l1221 882h-1198v115h1419v-113l-1225 -882h1231v-115h-1448z" />
    <glyph glyph-name="uni0191" unicode="&#x191;" horiz-adv-x="2072" 
d="M315 1434h1637v-127h-1479v-562h1354v-127h-1354v-479q0 -290 -139.5 -429.5t-431.5 -139.5q-121 0 -293 33l-6 125q162 -31 278 -31q225 0 329.5 104.5t104.5 335.5v1297z" />
    <glyph glyph-name="uni0192" unicode="&#x192;" horiz-adv-x="1318" 
d="M365 -35v1030h-330v115h330v35q0 209 137 310t420 101q190 0 374 -30l-8 -111q-188 31 -352 31q-222 0 -322 -72.5t-100 -230.5v-33h774v-115h-774v-1022q0 -213 -101.5 -308t-314.5 -95q-108 0 -182 12l-6 119q74 -14 162 -14q150 0 221.5 64.5t71.5 213.5z" />
    <glyph glyph-name="uni0218" unicode="&#x218;" horiz-adv-x="2215" 
d="M145 434l164 29q35 -176 250 -267.5t574 -91.5q387 0 577.5 77.5t190.5 224.5q0 124 -116.5 177t-408.5 72l-557 29q-321 22 -470.5 105t-149.5 251q0 197 221.5 305.5t642.5 108.5q850 0 958 -430l-163 -29q-85 334 -795 334q-348 0 -526.5 -72.5t-178.5 -205.5
q0 -115 115.5 -167t384.5 -71l563 -29q344 -24 492.5 -107t148.5 -261q0 -216 -236.5 -326t-695.5 -110q-281 0 -488.5 48.5t-337 151t-159.5 254.5zM778 -446l260 309h183l-314 -309h-129z" />
    <glyph glyph-name="uni0219" unicode="&#x219;" horiz-adv-x="1832" 
d="M891 1022q-288 0 -434 -51t-146 -148q0 -90 89.5 -129.5t324.5 -54.5l440 -18q199 -13 314.5 -46.5t166 -93t50.5 -155.5q0 -346 -772 -346q-366 0 -565 90t-240 276l149 25q53 -281 656 -281q622 0 622 221q0 92 -84.5 134t-304.5 55l-444 20q-300 17 -424.5 83.5
t-124.5 209.5q0 156 186 238t541 82q354 0 546 -84.5t232 -257.5l-145 -27q-28 131 -184 194.5t-449 63.5zM598 -446l260 309h182l-313 -309h-129z" />
    <glyph glyph-name="uni021A" unicode="&#x21a;" horiz-adv-x="2052" 
d="M946 0v1307h-889v127h1936v-127h-889v-1307h-158zM670 -446l260 309h182l-313 -309h-129z" />
    <glyph glyph-name="uni021B" unicode="&#x21b;" horiz-adv-x="1378" 
d="M344 418v577h-326v115h263q59 0 73.5 41t24.5 250h117v-291h770v-115h-770v-569q0 -181 93 -255.5t304 -74.5q191 0 389 43l-6 -119q-194 -40 -414 -40q-133 0 -226.5 21.5t-160.5 72t-99 135.5t-32 209zM397 -446l260 309h183l-314 -309h-129z" />
    <glyph glyph-name="dotlessj" unicode="&#x237;" horiz-adv-x="675" 
d="M262 -35v1145h150v-1137q0 -213 -102.5 -308t-313.5 -95q-94 0 -182 12l-7 119q77 -14 162 -14q150 0 221.5 64.5t71.5 213.5z" />
    <glyph glyph-name="uni02BC" unicode="&#x2bc;" horiz-adv-x="612" 
d="M197 1434h198v-238q0 -171 -66.5 -240.5t-232.5 -72.5l-8 94q124 0 164.5 42t40.5 163v67h-96v185z" />
    <glyph glyph-name="circumflex" unicode="&#x2c6;" 
d="M852 1249l-342 242l-342 -242h-131l383 320h186l379 -320h-133z" />
    <glyph glyph-name="caron" unicode="&#x2c7;" 
d="M985 1569l-383 -320h-186l-379 320h133l344 -242l340 242h131z" />
    <glyph glyph-name="breve" unicode="&#x2d8;" 
d="M786 1546h125q0 -142 -102.5 -216.5t-296.5 -74.5t-296.5 74.5t-102.5 216.5h123q0 -200 276 -200q274 0 274 200z" />
    <glyph glyph-name="dotaccent" unicode="&#x2d9;" 
d="M424 1300v185h176v-185h-176z" />
    <glyph glyph-name="ring" unicode="&#x2da;" 
d="M514 1217q-142 0 -221.5 54t-79.5 150q0 94 79.5 148.5t221.5 54.5q139 0 217 -54.5t78 -148.5q0 -96 -78 -150t-217 -54zM514 1286q100 0 154.5 35.5t54.5 99.5q0 62 -54.5 96.5t-154.5 34.5q-102 0 -157.5 -34.5t-55.5 -96.5q0 -64 55.5 -99.5t157.5 -35.5z" />
    <glyph glyph-name="ogonek" unicode="&#x2db;" 
d="M350 -256q0 47 21 86.5t70.5 78.5t140.5 73.5t223 64.5l74 -47q-157 -34 -248.5 -73.5t-121.5 -73.5t-30 -76q0 -101 164 -101q118 0 240 35l-6 -112q-119 -37 -259 -37q-129 0 -198.5 47t-69.5 135z" />
    <glyph glyph-name="tilde" unicode="&#x2dc;" 
d="M915 1554q22 -161 -31.5 -237t-158.5 -76q-50 0 -98.5 23.5t-87 56.5t-75 66.5t-76.5 57t-77 23.5q-129 0 -98 -206h-107q-21 159 34 235t161 76q49 0 97.5 -23t87 -56.5t75.5 -66.5t76.5 -56t75.5 -23q130 0 96 206h106z" />
    <glyph glyph-name="hungarumlaut" unicode="&#x2dd;" 
d="M213 1249l309 320h185l-357 -320h-137zM651 1249l312 320h182l-357 -320h-137z" />
    <glyph glyph-name="pi" unicode="&#x3c0;" horiz-adv-x="2074" 
d="M66 999v111h1941v-111h-252v-999h-156v999h-1126v-999h-156v999h-251z" />
    <glyph glyph-name="uni0400" unicode="&#x400;" horiz-adv-x="2131" 
d="M1214 1571h-147l-467 319h211zM315 0v1434h1639v-123h-1485v-514h1358v-123h-1358v-551h1503v-123h-1657z" />
    <glyph glyph-name="afii10023" unicode="&#x401;" horiz-adv-x="2131" 
d="M1307 1602v172h182v-172h-182zM778 1602v172h183v-172h-183zM315 0v1434h1639v-123h-1485v-514h1358v-123h-1358v-551h1503v-123h-1657z" />
    <glyph glyph-name="afii10051" unicode="&#x402;" horiz-adv-x="2787" 
d="M946 0v1307h-889v127h1936v-127h-889v-713q105 166 318.5 261t488.5 95q301 0 472 -123t171 -335v-80q0 -214 -157 -323t-441 -109q-166 0 -330 28l-6 113q192 -29 317 -29q214 0 336.5 81t122.5 239v73q0 162 -136.5 256.5t-381.5 94.5q-214 0 -391.5 -69.5t-280 -192
t-102.5 -271.5v-303h-158z" />
    <glyph glyph-name="afii10052" unicode="&#x403;" horiz-adv-x="1904" 
d="M969 1593l405 320h211l-469 -320h-147zM315 0v1434h1528v-127h-1370v-1307h-158z" />
    <glyph glyph-name="afii10053" unicode="&#x404;" horiz-adv-x="2324" 
d="M168 717q0 343 276 540t762 197q409 0 662 -122.5t319 -354.5l-166 -35q-57 190 -265.5 288.5t-549.5 98.5q-392 0 -619 -144.5t-253 -402.5h1403v-114h-1405q20 -267 247 -415.5t627 -148.5q354 0 565.5 100.5t260.5 299.5l163 -35q-64 -243 -315.5 -366t-673.5 -123
q-491 0 -764.5 195.5t-273.5 541.5z" />
    <glyph glyph-name="afii10054" unicode="&#x405;" horiz-adv-x="2215" 
d="M145 434l164 29q35 -176 250 -267.5t574 -91.5q387 0 577.5 77.5t190.5 224.5q0 124 -116.5 177t-408.5 72l-557 29q-321 22 -470.5 105t-149.5 251q0 197 221.5 305.5t642.5 108.5q850 0 958 -430l-163 -29q-85 334 -795 334q-348 0 -526.5 -72.5t-178.5 -205.5
q0 -115 115.5 -167t384.5 -71l563 -29q344 -24 492.5 -107t148.5 -261q0 -216 -236.5 -326t-695.5 -110q-281 0 -488.5 48.5t-337 151t-159.5 254.5z" />
    <glyph glyph-name="afii10055" unicode="&#x406;" horiz-adv-x="788" 
d="M315 0v1434h158v-1434h-158z" />
    <glyph glyph-name="afii10056" unicode="&#x407;" horiz-adv-x="788" 
d="M567 1622v172h183v-172h-183zM39 1622v172h182v-172h-182zM315 0v1434h158v-1434h-158z" />
    <glyph glyph-name="afii10057" unicode="&#x408;" horiz-adv-x="1376" 
d="M1098 553q0 -298 -154.5 -435.5t-494.5 -137.5q-194 0 -367 30l-8 129q188 -33 362 -33q265 0 384.5 105t119.5 336v887h158v-881z" />
    <glyph glyph-name="afii10058" unicode="&#x409;" horiz-adv-x="3700" 
d="M37 115q86 12 149 38.5t109 79.5q78 93 110 286t46 640l8 275h1577v-523h999q260 0 405.5 -121t145.5 -333q0 -213 -145.5 -335t-405.5 -122h-1157v1307h-1266l-6 -154q-15 -481 -54.5 -694t-137.5 -322q-65 -72 -149.5 -106t-213.5 -45zM3013 788h-977v-667h977
q197 0 305 87.5t108 248.5q0 160 -107.5 245.5t-305.5 85.5z" />
    <glyph glyph-name="afii10059" unicode="&#x40a;" horiz-adv-x="3885" 
d="M315 0v1434h158v-605h1561v605h157v-603h1043q253 0 395.5 -110.5t142.5 -304.5q0 -195 -142.5 -305.5t-395.5 -110.5h-1200v702h-1561v-702h-158zM3217 709h-1026v-588h1026q188 0 292 76.5t104 218.5t-103.5 217.5t-292.5 75.5z" />
    <glyph glyph-name="afii10060" unicode="&#x40b;" horiz-adv-x="2717" 
d="M942 0v1307h-889v127h1936v-127h-889v-713q101 162 300.5 256t452.5 94q300 0 462.5 -141t162.5 -393v-410h-156v381q0 209 -133 325.5t-377 116.5q-205 0 -367.5 -69t-253.5 -193.5t-91 -281.5v-279h-158z" />
    <glyph glyph-name="afii10061" unicode="&#x40c;" horiz-adv-x="2154" 
d="M991 1573l406 319h211l-469 -319h-148zM530 731l1291 703h262l-1288 -695l1327 -739h-271zM315 0v1434h156v-1434h-156z" />
    <glyph glyph-name="uni040D" unicode="&#x40d;" horiz-adv-x="2478" 
d="M1321 1573h-147l-467 319h211zM315 0v1434h156v-1258l1536 1258h154v-1434h-154v1260l-1536 -1260h-156z" />
    <glyph glyph-name="afii10062" unicode="&#x40e;" horiz-adv-x="2048" 
d="M1430 1851h143q0 -162 -140.5 -253t-388.5 -91t-387 90.5t-139 253.5h141q0 -113 103 -177t282 -64t282.5 64t103.5 177zM670 0l305 373l-940 1061h190l842 -947l772 947h184l-1167 -1434h-186z" />
    <glyph glyph-name="afii10145" unicode="&#x40f;" horiz-adv-x="2344" 
d="M315 0v1434h158v-1309h1401v1309h156v-1434h-781v-336h-151v336h-783z" />
    <glyph glyph-name="afii10017" unicode="&#x410;" horiz-adv-x="2185" 
d="M1974 0l-282 414h-1207l-280 -414h-176l979 1434h159l990 -1434h-183zM567 535h1043l-525 765z" />
    <glyph glyph-name="afii10018" unicode="&#x411;" horiz-adv-x="2252" 
d="M315 0v1434h1653v-123h-1501v-475h1098q243 0 377.5 -111t134.5 -311q0 -198 -133.5 -306t-376.5 -108h-1252zM1546 715h-1079v-596h1079q181 0 278 76t97 219q0 146 -98 223.5t-277 77.5z" />
    <glyph glyph-name="afii10019" unicode="&#x412;" horiz-adv-x="2330" 
d="M315 0v1434h1280q225 0 351.5 -93.5t126.5 -263.5q0 -119 -70.5 -210.5t-208.5 -125.5q179 -29 271 -121.5t92 -236.5q0 -184 -133 -283.5t-392 -99.5h-1317zM1569 1317h-1100v-526h1114q146 0 238 71.5t92 198.5q0 124 -88.5 190t-255.5 66zM1595 672h-1126v-555h1135
q391 0 391 276q0 135 -103 207t-297 72z" />
    <glyph glyph-name="afii10020" unicode="&#x413;" horiz-adv-x="1904" 
d="M315 0v1434h1528v-127h-1370v-1307h-158z" />
    <glyph glyph-name="afii10021" unicode="&#x414;" horiz-adv-x="2332" 
d="M23 -354v479h180q58 62 95.5 127.5t72 176.5t54.5 281t28 414l10 310h1546v-1309h248v-479h-150v354h-1935v-354h-149zM496 334q-50 -127 -142 -209h1499v1182h-1241l-6 -177q-10 -301 -36.5 -487t-73.5 -309z" />
    <glyph glyph-name="afii10022" unicode="&#x415;" horiz-adv-x="2131" 
d="M315 0v1434h1639v-123h-1485v-514h1358v-123h-1358v-551h1503v-123h-1657z" />
    <glyph glyph-name="afii10024" unicode="&#x416;" horiz-adv-x="2846" 
d="M1346 0v1434h155v-1434h-155zM1571 741l999 693h221l-997 -686l1024 -748h-229zM1276 739l-1022 -739h-223l1026 743l-987 691h221z" />
    <glyph glyph-name="afii10025" unicode="&#x417;" horiz-adv-x="2209" 
d="M2044 410q0 -214 -245 -323.5t-724 -109.5q-447 0 -677.5 111t-264.5 334l166 29q23 -179 213 -268t563 -89q392 0 592.5 81.5t200.5 240.5q0 141 -135 204.5t-426 63.5h-670v117h659q253 0 391 63.5t138 192.5q0 140 -182.5 211t-567.5 71q-691 0 -753 -338l-156 31
q80 422 909 422q469 0 693.5 -95.5t224.5 -287.5q0 -251 -373 -321q424 -47 424 -340z" />
    <glyph glyph-name="afii10026" unicode="&#x418;" horiz-adv-x="2478" 
d="M315 0v1434h156v-1258l1536 1258h154v-1434h-154v1260l-1536 -1260h-156z" />
    <glyph glyph-name="afii10027" unicode="&#x419;" horiz-adv-x="2478" 
d="M1649 1851h143q0 -162 -140 -253t-388 -91t-387.5 91t-139.5 253h142q0 -113 103 -177t282 -64t282 64t103 177zM315 0v1434h156v-1258l1536 1258h154v-1434h-154v1260l-1536 -1260h-156z" />
    <glyph glyph-name="afii10028" unicode="&#x41a;" horiz-adv-x="2152" 
d="M530 731l1291 703h262l-1288 -695l1327 -739h-271zM315 0v1434h156v-1434h-156z" />
    <glyph glyph-name="afii10029" unicode="&#x41b;" horiz-adv-x="2351" 
d="M37 115q86 12 149 38.5t109 79.5q78 93 110 286t46 640l8 275h1577v-1434h-158v1307h-1266l-6 -154q-15 -481 -54.5 -694t-137.5 -322q-65 -72 -149.5 -106t-213.5 -45z" />
    <glyph glyph-name="afii10030" unicode="&#x41c;" horiz-adv-x="2889" 
d="M315 0v1434h164l969 -1055l962 1055h164v-1434h-153v1247l-905 -1001h-138l-911 997v-1243h-152z" />
    <glyph glyph-name="afii10031" unicode="&#x41d;" horiz-adv-x="2506" 
d="M315 0v1434h158v-629h1561v629h157v-1434h-157v680h-1561v-680h-158z" />
    <glyph glyph-name="afii10032" unicode="&#x41e;" horiz-adv-x="2445" 
d="M1223 -20q-501 0 -778 195t-277 538q0 347 277 544t778 197q500 0 777 -197t277 -542q0 -344 -277 -539.5t-777 -195.5zM1223 104q429 0 661 162t232 449q0 289 -232 451.5t-661 162.5t-661 -163t-232 -453q0 -286 232 -447.5t661 -161.5z" />
    <glyph glyph-name="afii10033" unicode="&#x41f;" horiz-adv-x="2473" 
d="M315 0v1434h1844v-1434h-156v1307h-1530v-1307h-158z" />
    <glyph glyph-name="afii10034" unicode="&#x420;" horiz-adv-x="2191" 
d="M315 0v1434h1164q281 0 435 -129t154 -357q0 -227 -155 -355t-436 -128h-1004v-465h-158zM1456 1307h-983v-715h983q219 0 335 93t116 263q0 172 -116 265.5t-335 93.5z" />
    <glyph glyph-name="afii10035" unicode="&#x421;" horiz-adv-x="2324" 
d="M168 717q0 343 276 540t762 197q409 0 662 -122.5t319 -354.5l-166 -35q-57 190 -265.5 288.5t-549.5 98.5q-417 0 -646.5 -162t-229.5 -450q0 -289 229 -451t647 -162q354 0 565.5 100.5t260.5 299.5l163 -35q-64 -243 -315.5 -366t-673.5 -123q-491 0 -764.5 195.5
t-273.5 541.5z" />
    <glyph glyph-name="afii10036" unicode="&#x422;" horiz-adv-x="2052" 
d="M946 0v1307h-889v127h1936v-127h-889v-1307h-158z" />
    <glyph glyph-name="afii10037" unicode="&#x423;" horiz-adv-x="2048" 
d="M670 0l305 373l-940 1061h190l842 -947l772 947h184l-1167 -1434h-186z" />
    <glyph glyph-name="afii10038" unicode="&#x424;" horiz-adv-x="2492" 
d="M1163 -41v201h-86q-453 0 -704.5 147.5t-251.5 423.5t252.5 425t703.5 149h86v165h162v-165h90q451 0 704 -149t253 -425t-252 -423.5t-705 -147.5h-90v-201h-162zM2216 731q0 222 -208 338.5t-589 116.5h-96v-905h96q381 0 589 115t208 335zM276 731q0 -220 208 -335
t589 -115h92v905h-92q-381 0 -589 -116.5t-208 -338.5z" />
    <glyph glyph-name="afii10039" unicode="&#x425;" horiz-adv-x="1996" 
d="M272 0h-209l822 727l-801 707h213l704 -619l709 619h207l-813 -709l821 -725h-213l-723 637z" />
    <glyph glyph-name="afii10040" unicode="&#x426;" horiz-adv-x="2404" 
d="M315 0v1434h158v-1309h1462v1309h156v-1309h238v-479h-152v354h-1862z" />
    <glyph glyph-name="afii10041" unicode="&#x427;" horiz-adv-x="2246" 
d="M205 1032v402h157v-375q0 -219 161.5 -319.5t480.5 -100.5q197 0 375 33.5t401 109.5v652h155v-1434h-155v659q-221 -78 -410.5 -113.5t-398.5 -35.5q-380 0 -573 126t-193 396z" />
    <glyph glyph-name="afii10042" unicode="&#x428;" horiz-adv-x="3178" 
d="M315 0v1434h158v-1307h1036v1307h158v-1307h1038v1307h158v-1434h-2548z" />
    <glyph glyph-name="afii10043" unicode="&#x429;" horiz-adv-x="3170" 
d="M315 0v1434h158v-1307h1036v1307h158v-1307h1038v1307h158v-1307h232v-481h-150v354h-2630z" />
    <glyph glyph-name="afii10044" unicode="&#x42a;" horiz-adv-x="2439" 
d="M653 0v1311h-661v123h813v-523h971q261 0 407 -121t146 -333q0 -213 -146 -335t-407 -122h-1123zM1753 788h-948v-667h948q200 0 308 87.5t108 248.5t-108 246t-308 85z" />
    <glyph glyph-name="afii10045" unicode="&#x42b;" horiz-adv-x="2756" 
d="M2284 2v1434h157v-1434h-157zM315 0v1434h158v-523h1000q260 0 405 -121t145 -333q0 -213 -145 -335t-405 -122h-1158zM1450 788h-977v-667h977q197 0 305.5 87.5t108.5 248.5q0 160 -108 245.5t-306 85.5z" />
    <glyph glyph-name="afii10046" unicode="&#x42c;" horiz-adv-x="2138" 
d="M315 0v1434h158v-523h1000q260 0 405 -121t145 -333q0 -213 -145 -335t-405 -122h-1158zM1450 788h-977v-667h977q197 0 305.5 87.5t108.5 248.5q0 160 -108 245.5t-306 85.5z" />
    <glyph glyph-name="afii10047" unicode="&#x42d;" horiz-adv-x="2322" 
d="M299 948l-154 33q67 231 320 352t663 121q478 0 752 -196.5t274 -540.5q0 -345 -272.5 -541t-755.5 -196q-427 0 -680.5 122t-316.5 365l162 33q49 -201 262 -301.5t573 -100.5q400 0 626 152t243 424h-1313v114h1311q-28 259 -253 402t-612 143q-347 0 -559 -97.5
t-270 -287.5z" />
    <glyph glyph-name="afii10048" unicode="&#x42e;" horiz-adv-x="3110" 
d="M315 0v1434h158v-631h367q36 307 308 479t740 172q500 0 777.5 -197t277.5 -542q0 -344 -277 -539.5t-778 -195.5q-489 0 -764.5 185.5t-289.5 514.5h-361v-680h-158zM1888 102q427 0 659 162.5t232 450.5q0 289 -232 451.5t-659 162.5q-431 0 -663 -163t-232 -453
q0 -287 233 -449t662 -162z" />
    <glyph glyph-name="afii10049" unicode="&#x42f;" horiz-adv-x="2244" 
d="M717 561q-244 0 -387.5 117t-143.5 317q0 204 141 321.5t384 117.5h1218v-1434h-157v559h-711l-682 -559h-209l682 559zM731 680h1041v633h-1041q-179 0 -281 -84.5t-102 -233.5t102 -232t281 -83z" />
    <glyph glyph-name="afii10065" unicode="&#x430;" horiz-adv-x="1880" 
d="M162 786q83 347 739 347q269 0 432.5 -49t234 -144t70.5 -246v-467q0 -66 24 -99.5t93 -33.5q17 0 53 4l-6 -106q-52 -10 -94 -10q-113 0 -163 56t-50 167v94q-107 -148 -340.5 -233.5t-509.5 -85.5q-266 0 -405.5 81.5t-139.5 239.5q0 150 122 229.5t392 92.5l879 36v23
q0 116 -55 188t-186.5 110t-350.5 38q-537 0 -586 -256zM252 307q0 -213 412 -213q215 0 403.5 52.5t308 153t119.5 226.5v31l-883 -41q-185 -9 -272.5 -59t-87.5 -150z" />
    <glyph glyph-name="afii10066" unicode="&#x431;" horiz-adv-x="2031" 
d="M1034 -20q-221 0 -388.5 45.5t-271 131t-155 201t-51.5 260.5v72q0 424 196 620t629 210l508 12q154 6 283 27l12 -113q-143 -29 -291 -31l-510 -12q-348 -11 -507.5 -151.5t-182.5 -458.5q89 145 295 224t492 79q379 0 585.5 -145t206.5 -406q0 -263 -226 -414
t-624 -151zM1036 94q334 0 513.5 118.5t179.5 332.5q0 208 -175 326t-501 118q-214 0 -378 -51.5t-256.5 -149.5t-92.5 -229q0 -211 181.5 -338t528.5 -127z" />
    <glyph glyph-name="afii10067" unicode="&#x432;" horiz-adv-x="1939" 
d="M262 0v1110h1084q186 0 284.5 -71t98.5 -205q0 -101 -60 -166.5t-172 -92.5q145 -19 222 -89.5t77 -190.5q0 -143 -109 -219t-317 -76h-1108zM1303 1006h-895v-383h890q134 0 205.5 49t71.5 145q0 92 -69.5 140.5t-202.5 48.5zM1319 518h-911v-412h925q303 0 303 203
q0 209 -317 209z" />
    <glyph glyph-name="afii10068" unicode="&#x433;" horiz-adv-x="1558" 
d="M262 0v1110h1260v-115h-1110v-995h-150z" />
    <glyph glyph-name="afii10069" unicode="&#x434;" horiz-adv-x="1945" 
d="M14 -330v443h156q79 73 123 170t67.5 259.5t30.5 432.5l4 135h1258v-997h221v-443h-143v330h-1571v-330h-146zM440 279q-43 -98 -114 -166h1181v886h-972v-26q-7 -262 -29.5 -423t-65.5 -271z" />
    <glyph glyph-name="afii10070" unicode="&#x435;" horiz-adv-x="1968" 
d="M995 -20q-402 0 -623.5 155.5t-221.5 427.5q0 265 220.5 417.5t618.5 152.5q393 0 617.5 -151t224.5 -407q0 -21 -4 -57h-1526q19 -202 196 -313t498 -111q302 0 464 61.5t210 186.5l154 -29q-47 -116 -146 -188.5t-266.5 -108.5t-415.5 -36zM989 1020
q-311 0 -485 -101.5t-201 -289.5h1374q-24 185 -201 288t-487 103z" />
    <glyph glyph-name="afii10072" unicode="&#x436;" horiz-adv-x="2301" 
d="M1075 0v1110h150v-1110h-150zM1282 584l768 526h211l-772 -522l784 -588h-215zM1018 584l-774 -584h-215l784 588l-772 522h211z" />
    <glyph glyph-name="afii10073" unicode="&#x437;" horiz-adv-x="1871" 
d="M1722 315q0 -172 -204.5 -253.5t-608.5 -81.5q-374 0 -562 80.5t-224 271.5l153 28q26 -148 172.5 -210t462.5 -62q654 0 654 236q0 42 -17.5 75t-52.5 54.5t-77.5 36t-102 21.5t-116.5 10t-130 3h-500v107h500q461 0 461 192q0 106 -145 153.5t-470 47.5
q-291 0 -434 -57.5t-182 -198.5l-145 31q45 178 232 256t529 78q398 0 583 -71t185 -224q0 -203 -329 -256q179 -16 273.5 -79t94.5 -188z" />
    <glyph glyph-name="afii10074" unicode="&#x438;" horiz-adv-x="2039" 
d="M262 0v1110h150v-950l1216 950h150v-1110h-150v952l-1216 -952h-150z" />
    <glyph glyph-name="afii10075" unicode="&#x439;" horiz-adv-x="2039" 
d="M1370 1534h137q0 -139 -128 -216t-341 -77t-341 77t-128 216h138q0 -91 90 -144t241 -53t241.5 53t90.5 144zM262 0v1110h150v-950l1216 950h150v-1110h-150v952l-1216 -952h-150z" />
    <glyph glyph-name="afii10076" unicode="&#x43a;" horiz-adv-x="1779" 
d="M262 0v1110h150v-1110h-150zM475 569l1012 541h244l-1012 -535l1030 -575h-246z" />
    <glyph glyph-name="afii10077" unicode="&#x43b;" horiz-adv-x="1961" 
d="M55 102q131 12 205 86q68 69 102 222.5t44 443.5l8 256h1286v-1110h-150v991h-995l-4 -151q-10 -321 -53 -492t-125 -252q-55 -53 -126.5 -78.5t-180.5 -31.5z" />
    <glyph glyph-name="afii10078" unicode="&#x43c;" horiz-adv-x="2428" 
d="M408 0h-146v1110h162l790 -778l791 778h162v-1110h-148v950l-733 -725h-141l-737 727v-952z" />
    <glyph glyph-name="afii10079" unicode="&#x43d;" horiz-adv-x="2054" 
d="M262 0v1110h150v-475h1230v475h150v-1110h-150v520h-1230v-520h-150z" />
    <glyph glyph-name="afii10080" unicode="&#x43e;" horiz-adv-x="2013" 
d="M1006 -20q-405 0 -630.5 153t-225.5 422t226 423.5t630 154.5q406 0 632 -154t226 -424t-225 -422.5t-633 -152.5zM1006 94q338 0 520 122t182 339q0 219 -181.5 340t-520.5 121q-338 0 -519.5 -121t-181.5 -340q0 -218 181.5 -339.5t519.5 -121.5z" />
    <glyph glyph-name="afii10081" unicode="&#x43f;" horiz-adv-x="2031" 
d="M262 0v1110h1507v-1110h-149v991h-1208v-991h-150z" />
    <glyph glyph-name="afii10082" unicode="&#x440;" horiz-adv-x="2099" 
d="M1167 -20q-263 0 -460 79t-295 220v-689h-150v1520h137l9 -287q98 146 296 228t463 82q366 0 573.5 -156.5t207.5 -421.5t-207 -420t-574 -155zM1122 94q321 0 496.5 123.5t175.5 337.5t-175.5 337.5t-496.5 123.5q-322 0 -516 -126.5t-194 -336.5q0 -207 194.5 -333
t515.5 -126z" />
    <glyph glyph-name="afii10083" unicode="&#x441;" horiz-adv-x="1929" 
d="M1802 731l-153 -29q-32 154 -203.5 234t-452.5 80q-332 0 -510 -121t-178 -340q0 -217 179 -339t509 -122q289 0 459 79t203 235l153 -31q-45 -195 -257 -296t-558 -101q-399 0 -621 153t-222 422q0 270 222 424t621 154q339 0 552 -103.5t257 -298.5z" />
    <glyph glyph-name="afii10084" unicode="&#x442;" horiz-adv-x="1703" 
d="M776 0v991h-737v119h1624v-119h-735v-991h-152z" />
    <glyph glyph-name="afii10085" unicode="&#x443;" horiz-adv-x="1710" 
d="M1503 1110h168l-792 -1225q-116 -177 -228 -246t-286 -69q-110 0 -183 18l-8 119q78 -18 172 -18q138 0 228 56.5t188 199.5l43 67l-766 1098h176l670 -971z" />
    <glyph glyph-name="afii10086" unicode="&#x444;" horiz-adv-x="2326" 
d="M1087 -410v392q-453 3 -695 151.5t-242 419.5q0 273 242.5 423.5t694.5 153.5v406h150v-406q454 -3 697 -153t243 -424q0 -272 -243.5 -420t-696.5 -151v-392h-150zM2025 553q0 226 -199.5 346t-588.5 123v-932q390 3 589 121t199 342zM299 553q0 -223 199.5 -341
t588.5 -122v932q-387 -4 -587.5 -124t-200.5 -345z" />
    <glyph glyph-name="afii10087" unicode="&#x445;" horiz-adv-x="1724" 
d="M250 0h-199l703 565l-680 545h207l585 -465l592 465h197l-688 -545l706 -565h-207l-610 483z" />
    <glyph glyph-name="afii10088" unicode="&#x446;" horiz-adv-x="2025" 
d="M262 0v1110h150v-991h1175v991h152v-991h221v-449h-145v330h-1553z" />
    <glyph glyph-name="afii10089" unicode="&#x447;" horiz-adv-x="1894" 
d="M342 866q0 -189 116.5 -268.5t395.5 -79.5q301 0 627 109v483h151v-1110h-151v516q-357 -115 -650 -115q-341 0 -491 108t-150 345v256h152v-244z" />
    <glyph glyph-name="afii10090" unicode="&#x448;" horiz-adv-x="2590" 
d="M262 0v1110h148v-991h811v991h149v-991h811v991h148v-1110h-2067z" />
    <glyph glyph-name="afii10091" unicode="&#x449;" horiz-adv-x="2617" 
d="M262 0v1110h148v-991h811v991h149v-991h811v991h148v-991h221v-449h-144v330h-2144z" />
    <glyph glyph-name="afii10092" unicode="&#x44a;" horiz-adv-x="2037" 
d="M502 0v995h-496v115h645v-369h811q227 0 349 -96.5t122 -275.5q0 -177 -122 -273t-349 -96h-960zM1448 631h-797v-520h797q163 0 250.5 66t87.5 192q0 129 -87.5 195.5t-250.5 66.5z" />
    <glyph glyph-name="afii10093" unicode="&#x44b;" horiz-adv-x="2400" 
d="M1989 0v1110h149v-1110h-149zM262 0v1110h150v-369h833q227 0 349 -96.5t122 -275.5q0 -177 -122 -273t-349 -96h-983zM1231 631h-819v-520h819q163 0 250.5 66t87.5 192q0 129 -87.5 195.5t-250.5 66.5z" />
    <glyph glyph-name="afii10094" unicode="&#x44c;" horiz-adv-x="1820" 
d="M262 0v1110h150v-369h833q227 0 349 -96.5t122 -275.5q0 -177 -122 -273t-349 -96h-983zM1231 631h-819v-520h819q163 0 250.5 66t87.5 192q0 129 -87.5 195.5t-250.5 66.5z" />
    <glyph glyph-name="afii10095" unicode="&#x44d;" horiz-adv-x="1935" 
d="M279 711l-146 32q42 191 256.5 290.5t556.5 99.5q395 0 616.5 -155.5t221.5 -420.5q0 -269 -220.5 -423t-619.5 -154q-730 0 -817 387l147 30q63 -305 670 -305q316 0 493 107.5t199 306.5h-1061v110h1059q-23 192 -200 298t-488 106q-290 0 -463.5 -77t-203.5 -232z" />
    <glyph glyph-name="afii10096" unicode="&#x44e;" horiz-adv-x="2607" 
d="M262 0v1110h150v-473h338q34 233 256 364.5t593 131.5q406 0 631.5 -154t225.5 -424t-225 -422.5t-632 -152.5q-390 0 -614.5 142t-239.5 394h-333v-516h-150zM1599 94q338 0 519.5 121.5t181.5 339.5q0 219 -181.5 340t-519.5 121t-519 -121t-181 -340
q0 -217 181.5 -339t518.5 -122z" />
    <glyph glyph-name="afii10097" unicode="&#x44f;" horiz-adv-x="1878" 
d="M139 774q0 161 117.5 249.5t329.5 88.5h1030v-1112h-150v438h-604l-530 -438h-201l535 440l-58 2q-227 0 -348 86t-121 246zM596 547h870v454h-870q-148 0 -228.5 -59t-80.5 -168q0 -110 80.5 -168.5t228.5 -58.5z" />
    <glyph glyph-name="uni0450" unicode="&#x450;" horiz-adv-x="1968" 
d="M1059 1249h-148l-467 320h211zM995 -20q-402 0 -623.5 155.5t-221.5 427.5q0 265 220.5 417.5t618.5 152.5q393 0 617.5 -151t224.5 -407q0 -21 -4 -57h-1526q19 -202 196 -313t498 -111q302 0 464 61.5t210 186.5l154 -29q-47 -116 -146 -188.5t-266.5 -108.5
t-415.5 -36zM989 1020q-311 0 -485 -101.5t-201 -289.5h1374q-24 185 -201 288t-487 103z" />
    <glyph glyph-name="afii10071" unicode="&#x451;" horiz-adv-x="1968" 
d="M1157 1300v173h182v-173h-182zM629 1300v173h182v-173h-182zM995 -20q-402 0 -623.5 155.5t-221.5 427.5q0 265 220.5 417.5t618.5 152.5q393 0 617.5 -151t224.5 -407q0 -21 -4 -57h-1526q19 -202 196 -313t498 -111q302 0 464 61.5t210 186.5l154 -29
q-47 -116 -146 -188.5t-266.5 -108.5t-415.5 -36zM989 1020q-311 0 -485 -101.5t-201 -289.5h1374q-24 185 -201 288t-487 103z" />
    <glyph glyph-name="afii10099" unicode="&#x452;" horiz-adv-x="2041" 
d="M270 0v1231h-260v117h260v188h152v-188h702v-117h-702v-510q98 164 294.5 259t446.5 95q308 0 474.5 -148.5t166.5 -412.5v-522q0 -225 -113 -323.5t-360 -98.5q-123 0 -192 14l-9 117q77 -14 173 -14q184 0 267 68.5t83 226.5v505q0 218 -137.5 341.5t-391.5 123.5
q-201 0 -361 -68t-250.5 -191.5t-90.5 -280.5v-412h-152z" />
    <glyph glyph-name="afii10100" unicode="&#x453;" horiz-adv-x="1558" 
d="M788 1249l406 320h211l-469 -320h-148zM262 0v1110h1260v-115h-1110v-995h-150z" />
    <glyph glyph-name="afii10101" unicode="&#x454;" horiz-adv-x="1935" 
d="M1331 612v-108h-1030q22 -196 199.5 -305t490.5 -109q292 0 463 76t203 229l155 -30q-47 -191 -259 -288t-562 -97q-397 0 -619 153.5t-222 421.5q0 269 222 423.5t617 154.5q345 0 559 -100t258 -290l-153 -30q-33 152 -206 229.5t-458 77.5q-311 0 -487.5 -106.5
t-198.5 -301.5h1028z" />
    <glyph glyph-name="afii10102" unicode="&#x455;" horiz-adv-x="1832" 
d="M891 1022q-288 0 -434 -51t-146 -148q0 -90 89.5 -129.5t324.5 -54.5l440 -18q199 -13 314.5 -46.5t166 -93t50.5 -155.5q0 -346 -772 -346q-366 0 -565 90t-240 276l149 25q53 -281 656 -281q622 0 622 221q0 92 -84.5 134t-304.5 55l-444 20q-300 17 -424.5 83.5
t-124.5 209.5q0 156 186 238t541 82q354 0 546 -84.5t232 -257.5l-145 -27q-28 131 -184 194.5t-449 63.5z" />
    <glyph glyph-name="afii10103" unicode="&#x456;" horiz-adv-x="675" 
d="M252 1300v170h172v-170h-172zM262 0v1110h152v-1110h-152z" />
    <glyph glyph-name="afii10104" unicode="&#x457;" horiz-adv-x="675" 
d="M96 1300v173h148v-173h-148zM432 1300v173h150v-173h-150zM262 0v1110h152v-1110h-152z" />
    <glyph glyph-name="afii10105" unicode="&#x458;" horiz-adv-x="675" 
d="M252 1300v170h170v-170h-170zM262 -35v1145h150v-1137q0 -213 -102.5 -308t-313.5 -95q-94 0 -182 12l-7 119q77 -14 162 -14q150 0 221.5 64.5t71.5 213.5z" />
    <glyph glyph-name="afii10106" unicode="&#x459;" horiz-adv-x="3108" 
d="M55 102q131 12 205 86q68 69 102 222.5t44 443.5l8 256h1286v-369h833q227 0 349 -96.5t122 -275.5q0 -177 -122 -273t-349 -96h-983v991h-995l-4 -151q-10 -321 -53 -492t-125 -252q-55 -53 -126.5 -78.5t-180.5 -31.5zM2519 631h-819v-520h819q163 0 250.5 66t87.5 192
q0 129 -87.5 195.5t-250.5 66.5z" />
    <glyph glyph-name="afii10107" unicode="&#x45a;" horiz-adv-x="3231" 
d="M262 0v1110h150v-453h1228v453h152v-453h887q217 0 332.5 -85.5t115.5 -243.5t-115.5 -243t-332.5 -85h-1039v541h-1228v-541h-150zM2662 547h-870v-436h870q155 0 236.5 55t81.5 162t-82 163t-236 56z" />
    <glyph glyph-name="afii10108" unicode="&#x45b;" horiz-adv-x="2043" 
d="M272 0v1231h-258v117h258v188h152v-188h702v-117h-702v-510q97 164 295 259t448 95q306 0 472.5 -148.5t166.5 -412.5v-514h-151v487q0 218 -137.5 341.5t-389.5 123.5q-201 0 -361.5 -68t-251.5 -191.5t-91 -280.5v-412h-152z" />
    <glyph glyph-name="afii10109" unicode="&#x45c;" horiz-adv-x="1779" 
d="M807 1249l405 320h211l-469 -320h-147zM262 0v1110h150v-1110h-150zM475 569l1012 541h244l-1012 -535l1030 -575h-246z" />
    <glyph glyph-name="uni045D" unicode="&#x45d;" horiz-adv-x="2039" 
d="M1118 1249h-147l-467 320h211zM262 0v1110h150v-950l1216 950h150v-1110h-150v952l-1216 -952h-150z" />
    <glyph glyph-name="afii10110" unicode="&#x45e;" horiz-adv-x="1712" 
d="M1188 1536h143q0 -140 -122.5 -219.5t-340.5 -79.5q-219 0 -340.5 79.5t-121.5 219.5h141q0 -92 85 -143.5t236 -51.5t235.5 51.5t84.5 143.5zM1503 1110h168l-792 -1225q-116 -177 -228 -246t-286 -69q-110 0 -183 18l-8 119q78 -18 172 -18q139 0 227 54.5t177 195.5
l53 75l-764 1096h176l670 -971z" />
    <glyph glyph-name="afii10193" unicode="&#x45f;" horiz-adv-x="2000" 
d="M262 0v1110h150v-991h1175v991h152v-1110h-666v-330h-145v330h-666z" />
    <glyph glyph-name="afii10146" unicode="&#x462;" horiz-adv-x="2109" 
d="M313 0v1120h-274v113h274v211h154v-211h784v-113h-784v-262h993q252 0 394.5 -113.5t142.5 -314.5q0 -202 -142.5 -316t-394.5 -114h-1147zM1440 739h-973v-620h973q190 0 295.5 80t105.5 229q0 151 -105.5 231t-295.5 80z" />
    <glyph glyph-name="afii10194" unicode="&#x463;" horiz-adv-x="1783" 
d="M258 0v1044h-244v113h244v379h150v-379h636v-113h-636v-319h798q228 0 350.5 -95.5t122.5 -269.5q0 -172 -122.5 -266t-350.5 -94h-948zM1194 612h-786v-499h786q162 0 250 63t88 184q0 123 -87.5 187.5t-250.5 64.5z" />
    <glyph glyph-name="afii10147" unicode="&#x472;" horiz-adv-x="2445" 
d="M1223 -20q-501 0 -778 195t-277 538q0 347 277 544t778 197q500 0 777 -197t277 -542q0 -344 -277 -539.5t-777 -195.5zM1223 1329q-403 0 -632.5 -145t-256.5 -404h1777q-27 260 -256 404.5t-632 144.5zM1223 104q411 0 641 147.5t250 414.5h-1782q19 -265 249.5 -413.5
t641.5 -148.5z" />
    <glyph glyph-name="afii10195" unicode="&#x473;" horiz-adv-x="2013" 
d="M1006 -20q-405 0 -630.5 153t-225.5 422t226 423.5t630 154.5q406 0 632 -154t226 -424t-225 -422.5t-633 -152.5zM1006 1016q-316 0 -495.5 -107t-203.5 -301h1399q-24 194 -204 301t-496 107zM1006 94q315 0 495.5 107t202.5 299h-1395q22 -192 202.5 -299t494.5 -107z
" />
    <glyph glyph-name="afii10148" unicode="&#x474;" horiz-adv-x="2170" 
d="M954 0l-903 1434h182l805 -1289l682 1080q82 133 155.5 181t190.5 48q44 0 82 -6l9 -133q-114 9 -176.5 -20.5t-125.5 -127.5l-737 -1167h-164z" />
    <glyph glyph-name="afii10196" unicode="&#x475;" horiz-adv-x="1787" 
d="M788 0l-759 1110h178l653 -973l537 789q78 116 143 161.5t154 45.5q46 0 86 -9l6 -123q-66 7 -108 -3t-77 -41t-83 -97l-596 -860h-134z" />
    <glyph glyph-name="afii10050" unicode="&#x490;" horiz-adv-x="1904" 
d="M315 0v1434h1377v278h151v-405h-1370v-1307h-158z" />
    <glyph glyph-name="afii10098" unicode="&#x491;" horiz-adv-x="1558" 
d="M262 0v1110h1114v301h146v-416h-1110v-995h-150z" />
    <glyph glyph-name="Wgrave" unicode="&#x1e80;" horiz-adv-x="3022" 
d="M1585 1571h-147l-467 319h211zM715 0l-666 1434h172l586 -1274l625 1274h161l623 -1268l590 1268h166l-672 -1434h-164l-627 1284l-630 -1284h-164z" />
    <glyph glyph-name="wgrave" unicode="&#x1e81;" horiz-adv-x="2543" 
d="M1346 1249h-148l-467 320h211zM616 0l-571 1110h164l485 -960l512 960h137l504 -960l494 960h158l-582 -1110h-133l-508 983l-526 -983h-134z" />
    <glyph glyph-name="Wacute" unicode="&#x1e82;" horiz-adv-x="3022" 
d="M1436 1571l405 319h211l-469 -319h-147zM715 0l-666 1434h172l586 -1274l625 1274h161l623 -1268l590 1268h166l-672 -1434h-164l-627 1284l-630 -1284h-164z" />
    <glyph glyph-name="wacute" unicode="&#x1e83;" horiz-adv-x="2543" 
d="M1196 1249l406 320h210l-469 -320h-147zM616 0l-571 1110h164l485 -960l512 960h137l504 -960l494 960h158l-582 -1110h-133l-508 983l-526 -983h-134z" />
    <glyph glyph-name="Wdieresis" unicode="&#x1e84;" horiz-adv-x="3022" 
d="M1683 1622v172h183v-172h-183zM1155 1622v172h182v-172h-182zM715 0l-666 1434h172l586 -1274l625 1274h161l623 -1268l590 1268h166l-672 -1434h-164l-627 1284l-630 -1284h-164z" />
    <glyph glyph-name="wdieresis" unicode="&#x1e85;" horiz-adv-x="2543" 
d="M1444 1300v173h182v-173h-182zM915 1300v173h183v-173h-183zM616 0l-571 1110h164l485 -960l512 960h137l504 -960l494 960h158l-582 -1110h-133l-508 983l-526 -983h-134z" />
    <glyph glyph-name="uni1E9E" unicode="&#x1e9e;" horiz-adv-x="2592" 
d="M270 0v844q0 298 212.5 454t629.5 156q388 0 778 -39v-119l-475 -442l514 -31q285 -22 409 -117.5t124 -265.5q0 -212 -229.5 -336t-676.5 -124q-470 0 -804 178l63 118q306 -174 741 -174q370 0 559 88.5t189 241.5q0 84 -35.5 138t-125 88.5t-242.5 46.5l-652 38v105
l484 455q-241 26 -621 26q-686 0 -686 -479v-850h-156z" />
    <glyph glyph-name="Ygrave" unicode="&#x1ef2;" horiz-adv-x="1961" 
d="M1055 1571h-148l-467 319h211zM899 0v584l-860 850h207l735 -727l745 727h197l-866 -852v-582h-158z" />
    <glyph glyph-name="ygrave" unicode="&#x1ef3;" horiz-adv-x="1710" 
d="M930 1249h-148l-467 320h211zM1503 1110h168l-792 -1225q-116 -177 -228 -246t-286 -69q-110 0 -183 18l-8 119q78 -18 172 -18q138 0 228 56.5t188 199.5l43 67l-766 1098h176l670 -971z" />
    <glyph glyph-name="endash" unicode="&#x2013;" horiz-adv-x="1697" 
d="M125 524v125h1446v-125h-1446z" />
    <glyph glyph-name="emdash" unicode="&#x2014;" horiz-adv-x="3393" 
d="M125 524v125h3142v-125h-3142z" />
    <glyph glyph-name="quoteleft" unicode="&#x2018;" horiz-adv-x="612" 
d="M352 881h-200v239q0 172 67 241.5t234 72.5l8 -95q-124 0 -165.5 -42t-41.5 -162v-68h98v-186z" />
    <glyph glyph-name="quoteright" unicode="&#x2019;" horiz-adv-x="612" 
d="M262 1434h199v-240q0 -172 -67 -241t-234 -72l-8 94q125 0 165.5 42t40.5 163v69h-96v185z" />
    <glyph glyph-name="quotesinglbase" unicode="&#x201a;" horiz-adv-x="612" 
d="M197 184h198v-237q0 -172 -66.5 -241.5t-232.5 -72.5l-8 95q124 0 164.5 42t40.5 162v68h-96v184z" />
    <glyph glyph-name="quotedblleft" unicode="&#x201c;" horiz-adv-x="1103" 
d="M152 881v239q0 172 67 241.5t234 72.5l8 -95q-124 0 -165.5 -42t-41.5 -162v-68h98v-186h-200zM645 881v239q0 172 66 241.5t233 72.5l8 -95q-124 0 -164 -41.5t-40 -162.5v-68h96v-186h-199z" />
    <glyph glyph-name="quotedblright" unicode="&#x201d;" horiz-adv-x="1103" 
d="M262 1434h199v-240q0 -172 -67 -241t-234 -72l-8 94q125 0 165.5 42t40.5 163v69h-96v185zM754 1434h198v-240q0 -172 -66 -241t-233 -72l-8 94q124 0 164.5 42t40.5 163v69h-96v185z" />
    <glyph glyph-name="quotedblbase" unicode="&#x201e;" horiz-adv-x="1103" 
d="M197 184h198v-237q0 -172 -66.5 -241.5t-232.5 -72.5l-8 95q124 0 164.5 42t40.5 162v68h-96v184zM688 184h199v-237q0 -172 -66 -241.5t-233 -72.5l-8 95q124 0 165 42t41 162v68h-98v184z" />
    <glyph glyph-name="dagger" unicode="&#x2020;" horiz-adv-x="1488" 
d="M1374 936h-557v-1243h-145v1243h-557v129h557v471h145v-471h557v-129z" />
    <glyph glyph-name="daggerdbl" unicode="&#x2021;" horiz-adv-x="1540" 
d="M139 297h557v639h-557v129h557v471h146v-471h559v-129h-559v-639h559v-129h-559v-475h-146v475h-557v129z" />
    <glyph glyph-name="bullet" unicode="&#x2022;" horiz-adv-x="712" 
d="M223 520v301h264v-301h-264z" />
    <glyph glyph-name="ellipsis" unicode="&#x2026;" horiz-adv-x="2125" 
d="M217 0v184h178v-184h-178zM975 0v184h178v-184h-178zM1733 0v184h178v-184h-178z" />
    <glyph glyph-name="perthousand" unicode="&#x2030;" horiz-adv-x="2740" 
d="M506 848q-178 0 -282.5 85t-104.5 220q0 134 104 217.5t283 83.5t283 -83.5t104 -217.5q0 -135 -104.5 -220t-282.5 -85zM360 0h-178l1506 1434h178zM506 948q120 0 187 55.5t67 149.5q0 92 -67.5 146.5t-186.5 54.5t-186.5 -54.5t-67.5 -146.5q0 -94 67 -149.5
t187 -55.5zM1542 -20q-179 0 -283 83.5t-104 217.5q0 133 104.5 218t282.5 85q111 0 194 -35.5t130 -99.5q98 135 325 135q178 0 282.5 -85t104.5 -218q0 -134 -104 -217.5t-283 -83.5q-112 0 -195 35t-130 98q-47 -63 -130.5 -98t-193.5 -35zM1542 78q119 0 187.5 55
t68.5 148q0 92 -68 147t-188 55t-187 -54.5t-67 -147.5t67.5 -148t186.5 -55zM2191 78q119 0 186.5 55t67.5 148q0 92 -67.5 147t-186.5 55q-120 0 -188 -54.5t-68 -147.5t68 -148t188 -55z" />
    <glyph glyph-name="guilsinglleft" unicode="&#x2039;" horiz-adv-x="1015" 
d="M868 227v-147l-764 407v150l764 410v-146l-663 -338z" />
    <glyph glyph-name="guilsinglright" unicode="&#x203a;" horiz-adv-x="1015" 
d="M909 487l-764 -407v143l664 338l-664 336v150l764 -410v-150z" />
    <glyph glyph-name="fraction" unicode="&#x2044;" horiz-adv-x="1570" 
d="M154 0h-154l1417 1434h154z" />
    <glyph glyph-name="zerosuperior" unicode="&#x2070;" horiz-adv-x="1134" 
d="M567 928q-237 0 -370.5 98t-133.5 270t133.5 270.5t370.5 98.5t370.5 -98.5t133.5 -270.5q0 -173 -134 -270.5t-370 -97.5zM567 1014q184 0 285.5 74t101.5 208t-101.5 208.5t-285.5 74.5q-183 0 -285 -74.5t-102 -208.5q0 -135 101.5 -208.5t285.5 -73.5z" />
    <glyph glyph-name="foursuperior" unicode="&#x2074;" horiz-adv-x="1148" 
d="M895 938h-107v160h-737v71l750 492h94v-485h203v-78h-203v-160zM195 1176h593v391z" />
    <glyph glyph-name="fivesuperior" unicode="&#x2075;" horiz-adv-x="1034" 
d="M520 928q-399 0 -465 180l111 25q47 -127 354 -127q344 0 344 163q0 75 -86.5 115.5t-255.5 40.5q-213 0 -336 -72l-90 19l51 383h779v-78h-690l-31 -242q126 66 340 66q211 0 320.5 -59.5t109.5 -174.5q0 -117 -115.5 -178t-339.5 -61z" />
    <glyph glyph-name="sixsuperior" unicode="&#x2076;" horiz-adv-x="1060" 
d="M63 1278q0 188 126.5 287.5t359.5 99.5q178 0 292 -44t152 -128l-108 -31q-67 125 -338 125q-185 0 -281 -78.5t-96 -226.5q99 107 399 107q217 0 326 -57.5t109 -166.5q0 -110 -117 -173.5t-338 -63.5q-239 0 -362.5 88t-123.5 262zM547 1006q166 0 255 43t89 116
q0 72 -88.5 112t-253.5 40q-163 0 -258.5 -36t-95.5 -99q0 -80 96 -128t256 -48z" />
    <glyph glyph-name="sevensuperior" unicode="&#x2077;" horiz-adv-x="999" 
d="M948 1585l-549 -647h-133l549 633h-766v84h899v-70z" />
    <glyph glyph-name="eightsuperior" unicode="&#x2078;" horiz-adv-x="1089" 
d="M545 928q-241 0 -363.5 53t-122.5 154q0 134 236 178q-195 47 -195 164q0 91 113 139.5t332 48.5q218 0 331 -48.5t113 -139.5q0 -59 -49.5 -100.5t-144.5 -63.5q235 -44 235 -178q0 -101 -122 -154t-363 -53zM545 1589q-328 0 -328 -119q0 -120 328 -120q327 0 327 120
q0 119 -327 119zM545 1004q366 0 366 133q0 135 -366 135q-369 0 -369 -135q0 -133 369 -133z" />
    <glyph glyph-name="ninesuperior" unicode="&#x2079;" horiz-adv-x="1060" 
d="M997 1313q0 -188 -125.5 -286.5t-357.5 -98.5q-179 0 -293.5 43.5t-152.5 126.5l108 30q67 -122 338 -122q185 0 281 77.5t96 225.5q-104 -107 -399 -107q-216 0 -325.5 58t-109.5 165q0 110 117.5 175t337.5 65q485 0 485 -352zM514 1585q-165 0 -254.5 -43t-89.5 -117
q0 -71 89 -111t255 -40q162 0 257 36t95 99q0 79 -97 127.5t-255 48.5z" />
    <glyph glyph-name="zeroinferior" unicode="&#x2080;" horiz-adv-x="1134" 
d="M567 -231q-237 0 -370.5 98t-133.5 270t133.5 270.5t370.5 98.5t370.5 -98.5t133.5 -270.5q0 -173 -134 -270.5t-370 -97.5zM567 -145q184 0 285.5 74t101.5 208t-101.5 208.5t-285.5 74.5q-183 0 -285 -74.5t-102 -208.5q0 -135 101.5 -208.5t285.5 -73.5z" />
    <glyph glyph-name="oneinferior" unicode="&#x2081;" horiz-adv-x="999" 
d="M70 -221v88h401v536l-393 -57v86l422 64h84v-629h364v-88h-878z" />
    <glyph glyph-name="twoinferior" unicode="&#x2082;" horiz-adv-x="1026" 
d="M66 -137l540 221q90 40 135.5 71.5t59.5 56.5t14 62q0 68 -80 108t-235 40q-146 0 -230.5 -42t-95.5 -118l-111 19q20 108 132.5 166.5t302.5 58.5q209 0 320.5 -59.5t111.5 -165.5q0 -56 -20.5 -94t-85.5 -81.5t-191 -95.5l-365 -147h682v-84h-884v84z" />
    <glyph glyph-name="threeinferior" unicode="&#x2083;" horiz-adv-x="1038" 
d="M973 -25q0 -102 -111 -154t-350 -52q-217 0 -325.5 47t-135.5 143l111 18q19 -66 101 -97.5t251 -31.5q183 0 261.5 33t78.5 101q0 58 -56 89t-161 31h-330v78h328q97 0 151 31t54 86q0 62 -81.5 95.5t-244.5 33.5q-159 0 -240 -32t-102 -97l-109 18q30 95 138.5 143
t312.5 48q218 0 329 -51.5t111 -147.5q0 -60 -40.5 -101.5t-114.5 -58.5q84 -17 129 -61t45 -111z" />
    <glyph glyph-name="fourinferior" unicode="&#x2084;" horiz-adv-x="1148" 
d="M895 -221h-107v160h-737v71l750 492h94v-486h203v-77h-203v-160zM195 16h593v392z" />
    <glyph glyph-name="fiveinferior" unicode="&#x2085;" horiz-adv-x="1034" 
d="M520 -231q-399 0 -465 180l111 24q47 -127 354 -127q344 0 344 164q0 75 -86.5 115.5t-255.5 40.5q-213 0 -336 -72l-90 19l51 383h779v-78h-690l-31 -242q126 66 340 66q211 0 320.5 -59.5t109.5 -174.5q0 -117 -115.5 -178t-339.5 -61z" />
    <glyph glyph-name="sixinferior" unicode="&#x2086;" horiz-adv-x="1060" 
d="M63 119q0 188 126.5 287.5t359.5 99.5q178 0 292 -44t152 -128l-108 -31q-67 125 -338 125q-185 0 -281 -78.5t-96 -226.5q98 106 399 106q217 0 326 -57t109 -166q0 -110 -117 -173.5t-338 -63.5q-239 0 -362.5 88t-123.5 262zM547 -154q165 0 254.5 43t89.5 117
q0 72 -88.5 112t-253.5 40q-163 0 -258.5 -36t-95.5 -99q0 -80 96.5 -128.5t255.5 -48.5z" />
    <glyph glyph-name="seveninferior" unicode="&#x2087;" horiz-adv-x="999" 
d="M948 426l-549 -647h-133l549 633h-766v84h899v-70z" />
    <glyph glyph-name="eightinferior" unicode="&#x2088;" horiz-adv-x="1089" 
d="M545 -231q-241 0 -363.5 52.5t-122.5 153.5q0 66 60 111.5t176 67.5q-195 47 -195 163q0 91 113.5 140t331.5 49t331 -49t113 -140q0 -119 -194 -163q115 -22 175 -67.5t60 -111.5q0 -101 -122 -153.5t-363 -52.5zM545 430q-328 0 -328 -119q0 -121 328 -121
q327 0 327 121q0 119 -327 119zM545 -156q366 0 366 133q0 136 -366 136q-369 0 -369 -136q0 -133 369 -133z" />
    <glyph glyph-name="nineinferior" unicode="&#x2089;" horiz-adv-x="1060" 
d="M997 154q0 -188 -125.5 -286.5t-357.5 -98.5q-179 0 -293.5 43.5t-152.5 126.5l108 30q68 -123 338 -123q185 0 281 78t96 226q-104 -107 -399 -107q-216 0 -325.5 58t-109.5 165q0 110 117.5 175t337.5 65q485 0 485 -352zM514 426q-165 0 -254.5 -43t-89.5 -117
q0 -71 89 -111t255 -40q162 0 257 36t95 99q0 79 -97 127.5t-255 48.5z" />
    <glyph glyph-name="colonmonetary" unicode="&#x20a1;" horiz-adv-x="2324" 
d="M715 -164l45 197q-286 75 -439 251.5t-153 432.5q0 320 242 514t675 219l33 147h109l-33 -143h12q141 0 275 -16l37 159h108l-41 -176q246 -46 399.5 -158.5t202.5 -285.5l-166 -35q-79 270 -465 354l-272 -1192q320 11 511.5 111.5t236.5 288.5l163 -35
q-63 -235 -301.5 -358t-638.5 -131l-32 -144h-109l33 144q-167 7 -285 28l-39 -172h-108zM1206 1329h-41l-274 -1198q141 -26 285 -29l276 1213q-106 14 -246 14zM330 717q0 -205 117.5 -349t340.5 -212l267 1167q-348 -29 -536.5 -187.5t-188.5 -418.5z" />
    <glyph glyph-name="uni20A9" unicode="&#x20a9;" horiz-adv-x="3028" 
d="M719 0l-258 555h-340v100h293l-119 258h-201v99h156l-197 422h170l195 -422h813l207 422h157l207 -422h811l197 422h166l-199 -422h158v-99h-203l-121 -258h297v-100h-344l-260 -555h-164l-627 1286l-630 -1286h-164zM1976 655h471l121 258h-719zM582 655h475l125 258
h-719zM2025 555l193 -393l182 393h-375zM629 555l182 -397l195 397h-377z" />
    <glyph glyph-name="uni20AA" unicode="&#x20aa;" horiz-adv-x="2443" 
d="M1421 829q0 180 -66.5 250t-238.5 70h-682v-1149h-155v1274h821q236 0 332 -92.5t96 -319.5v-389h-107v356zM2191 463q0 -257 -111 -360t-388 -103h-750v780h107v-655h639q198 0 274 73.5t76 264.5v790h153v-790z" />
    <glyph glyph-name="dong" unicode="&#x20ab;" horiz-adv-x="2105" 
d="M932 -20q-368 0 -575 153.5t-207 415.5t207.5 417.5t574.5 155.5q262 0 459 -80.5t295 -224.5v453h-584v98h584v168h151v-168h236v-98h-236v-1270h-139l-10 281q-97 -142 -294.5 -221.5t-461.5 -79.5zM975 94q322 0 516.5 124.5t194.5 328.5q0 207 -194.5 332t-516.5 125
q-320 0 -495 -121.5t-175 -333.5q0 -210 175.5 -332.5t494.5 -122.5zM207 -285v99h1628v-99h-1628z" />
    <glyph glyph-name="Euro" unicode="&#x20ac;" horiz-adv-x="2476" 
d="M33 487v99h297q-11 75 -11 131q0 50 11 125h-297v100h323q82 243 342 377.5t660 134.5q409 0 662 -122.5t319 -354.5l-166 -35q-57 190 -265.5 288.5t-549.5 98.5q-326 0 -540 -100.5t-294 -286.5h938l-10 -100h-958q-13 -63 -13 -125q0 -69 15 -131h929l-10 -99h-889
q78 -186 291.5 -285.5t540.5 -99.5q355 0 565.5 101.5t259.5 300.5l164 -35q-64 -243 -315.5 -366t-673.5 -123q-402 0 -661 132t-341 375h-323z" />
    <glyph glyph-name="uni20AD" unicode="&#x20ad;" horiz-adv-x="2166" 
d="M334 0v709h-291v102h291v623h158v-762l1331 762h243l-1081 -623h827v-102h-825l1147 -709h-262l-1112 680l-268 -154v-526h-158z" />
    <glyph glyph-name="uni20AE" unicode="&#x20ae;" horiz-adv-x="2041" 
d="M487 381v98l459 64v258l-459 -64v99l459 65v406h-889v127h1936v-127h-889v-383l463 65v-100l-463 -66v-258l463 66v-99l-463 -65v-467h-158v444z" />
    <glyph glyph-name="uni20B1" unicode="&#x20b1;" horiz-adv-x="2322" 
d="M330 0v680h-303v98h303v254h-303v98h303v304h1085q221 0 370.5 -79t213.5 -225h323v-98h-292q12 -59 12 -125q0 -67 -12 -129h292v-98h-325q-63 -146 -212 -223.5t-372 -77.5h-928v-379h-155zM1393 1315h-908v-185h1340q-113 185 -432 185zM1882 907q0 70 -14 125h-1383
v-254h1381q16 62 16 129zM1393 496q312 0 430 184h-1338v-184h908z" />
    <glyph glyph-name="uni20B4" unicode="&#x20b4;" horiz-adv-x="2342" 
d="M39 510v98h270q68 68 205 104t360 50l564 29q279 19 383 75h-1782v99h1878q14 32 14 77q0 140 -178 217.5t-524 77.5q-352 0 -550 -66t-237 -188l-163 27q51 167 286.5 255.5t663.5 88.5q419 0 639.5 -108.5t220.5 -305.5q0 -37 -10 -75h221v-99h-285
q-65 -69 -197.5 -106t-353.5 -51l-557 -29q-275 -18 -391 -72h1784v-98h-1892q-21 -44 -21 -96q0 -155 191.5 -236.5t578.5 -81.5q349 0 561.5 75t249.5 214l162 -29q-46 -187 -300 -281.5t-673 -94.5q-460 0 -694 109.5t-234 324.5q0 49 13 96h-203z" />
    <glyph glyph-name="uni20B5" unicode="&#x20b5;" horiz-adv-x="2324" 
d="M168 717q0 334 263 531t730 206v143h109v-143q382 -11 618 -132.5t299 -344.5l-166 -35q-54 181 -246 279.5t-505 107.5v-1227q325 9 520 110.5t242 291.5l163 -35q-61 -234 -296 -357t-629 -132v-144h-109v144q-470 9 -731.5 204t-261.5 533zM330 717q0 -282 217 -444
t614 -171v1227q-396 -9 -613.5 -170.5t-217.5 -441.5z" />
    <glyph glyph-name="uni20B8" unicode="&#x20b8;" horiz-adv-x="2093" 
d="M78 1335v99h1937v-99h-1937zM78 938v127h1937v-127h-891v-938h-157v938h-889z" />
    <glyph glyph-name="uni20B9" unicode="&#x20b9;" horiz-adv-x="2050" 
d="M229 555v115h891q185 0 289 72.5t117 211.5h-1297v101h1295q-19 129 -121.5 196.5t-282.5 67.5h-891v115h1774v-99h-492q154 -94 172 -280h320v-101h-317q-14 -189 -156 -294t-393 -105h-635l1155 -555h-279z" />
    <glyph glyph-name="uni20BA" unicode="&#x20ba;" horiz-adv-x="2045" 
d="M334 0v512l-326 -51v100l326 51v265l-326 -52v101l326 51v457h158v-433l587 93v-101l-587 -92v-264l587 92v-100l-587 -92v-412h880q222 0 332 85.5t139 287.5l148 -33q-38 -249 -185 -357t-434 -108h-1038z" />
    <glyph glyph-name="uni20BC" unicode="&#x20bc;" horiz-adv-x="2285" 
d="M1217 205h-148v801q-331 -12 -496 -145.5t-165 -377.5v-483h-158v483q0 301 207 467.5t612 179.5v304h148v-304q405 -13 612 -179.5t207 -467.5v-483h-158v483q0 245 -164 378t-497 145v-801z" />
    <glyph glyph-name="uni20BD" unicode="&#x20bd;" horiz-adv-x="2224" 
d="M43 174v98h305v252h-305v125h305v785h1161q279 0 435.5 -121t156.5 -334t-157 -334t-437 -121h-1003v-252h983v-98h-983v-174h-156v174h-305zM1491 1309h-987v-660h987q214 0 331 86.5t117 241.5q0 158 -116.5 245t-331.5 87z" />
    <glyph glyph-name="uni2113" unicode="&#x2113;" horiz-adv-x="1622" 
d="M10 408l271 67v508q0 222 159 347.5t441 125.5q284 0 436.5 -108t152.5 -297q0 -157 -89 -265t-313 -202.5t-634 -192.5q6 -158 109 -227.5t344 -69.5q214 0 459 62l-5 -121q-274 -58 -483 -58q-285 0 -422.5 92t-152.5 289l-273 -71v121zM434 987v-477q335 81 524 158
t274 167t85 214q0 141 -109.5 215.5t-324.5 74.5q-216 0 -332.5 -91t-116.5 -261z" />
    <glyph glyph-name="uni2116" unicode="&#x2116;" horiz-adv-x="3293" 
d="M2791 911q-166 0 -263 75t-97 198q0 122 97 196t263 74t262.5 -73.5t96.5 -196.5q0 -124 -96.5 -198.5t-262.5 -74.5zM309 0v1434h156l1532 -1270v1270h149v-1434h-155l-1532 1268v-1268h-150zM2791 1368q-110 0 -176.5 -49t-66.5 -135q0 -87 66.5 -138t176.5 -51
q111 0 177.5 50.5t66.5 138.5q0 84 -66.5 134t-177.5 50zM2464 659v86h653v-86h-653z" />
    <glyph glyph-name="trademark" unicode="&#x2122;" horiz-adv-x="2086" 
d="M360 717v633h-329v84h757v-84h-329v-633h-99zM965 717v717h116l355 -457l352 457h113v-717h-93v610l-338 -442h-75l-336 440v-608h-94z" />
    <glyph glyph-name="estimated" unicode="&#x212e;" horiz-adv-x="1591" 
d="M1452 553h-1065q-8 0 -8 -6v-324q0 -19 14 -37q76 -81 181.5 -126.5t222.5 -45.5q127 0 236.5 51t187.5 142h94q-91 -105 -227.5 -166t-292.5 -61q-178 0 -329.5 78t-240 214t-88.5 297t88.5 298t240 216.5t329.5 79.5q179 0 330.5 -79.5t239 -216.5t87.5 -298v-16z
M1212 594v326q0 23 -18 41q-76 78 -179 121.5t-218 43.5q-116 0 -221 -45.5t-181 -126.5q-16 -16 -16 -41v-319q0 -8 8 -8h817q8 0 8 8z" />
    <glyph glyph-name="oneseventh" unicode="&#x2150;" horiz-adv-x="2768" 
d="M70 717v88h401v536l-393 -57v86l422 64h84v-629h364v-88h-878zM719 0h-154l1417 1434h154zM2716 647l-549 -647h-133l549 633h-766v84h899v-70z" />
    <glyph glyph-name="oneninth" unicode="&#x2151;" horiz-adv-x="2705" 
d="M70 717v88h401v536l-393 -57v86l422 64h84v-629h364v-88h-878zM719 0h-154l1417 1434h154zM2640 375q0 -188 -125.5 -286.5t-357.5 -98.5q-179 0 -294 43.5t-153 126.5l109 30q67 -122 338 -122q185 0 280.5 77.5t95.5 225.5q-104 -107 -399 -107q-216 0 -325 57.5
t-109 165.5q0 110 117 175t337 65q239 0 362.5 -88t123.5 -264zM2157 647q-166 0 -255.5 -43t-89.5 -117q0 -71 89.5 -111t255.5 -40q162 0 257 36t95 99q0 79 -97 127.5t-255 48.5z" />
    <glyph glyph-name="onethird" unicode="&#x2153;" horiz-adv-x="2670" 
d="M70 717v88h401v536l-393 -57v86l422 64h84v-629h364v-88h-878zM719 0h-154l1417 1434h154zM2603 197q0 -102 -111 -154.5t-350 -52.5q-217 0 -325.5 47t-135.5 143l111 19q19 -66 101 -97.5t251 -31.5q183 0 261.5 32.5t78.5 100.5q0 58 -56.5 89.5t-160.5 31.5h-330v77
h328q97 0 151 31t54 86q0 62 -81.5 95.5t-244.5 33.5q-159 0 -240 -32t-102 -97l-108 19q30 95 138 142.5t312 47.5q218 0 329.5 -51.5t111.5 -147.5q0 -59 -41 -100.5t-115 -58.5q84 -17 129 -61t45 -111z" />
    <glyph glyph-name="twothirds" unicode="&#x2154;" horiz-adv-x="2684" 
d="M66 801l540 221q90 40 135.5 71.5t59.5 56.5t14 62q0 68 -80 108t-235 40q-146 0 -230.5 -42t-95.5 -118l-111 19q20 108 132.5 166.5t302.5 58.5q209 0 320.5 -59.5t111.5 -165.5q0 -56 -20.5 -94t-85.5 -81.5t-191 -95.5l-365 -147h682v-84h-884v84zM735 0h-153
l1417 1434h153zM2619 197q0 -102 -110.5 -154.5t-349.5 -52.5q-217 0 -325.5 47t-135.5 143l110 19q19 -66 101.5 -97.5t251.5 -31.5q183 0 261.5 32.5t78.5 100.5q0 58 -56.5 89.5t-160.5 31.5h-330v77h327q97 0 151 31t54 86q0 62 -81 95.5t-244 33.5q-159 0 -240 -32
t-102 -97l-109 19q30 95 138.5 142.5t312.5 47.5q218 0 329 -51.5t111 -147.5q0 -59 -41 -100.5t-115 -58.5q84 -17 129 -61t45 -111z" />
    <glyph glyph-name="onefifth" unicode="&#x2155;" horiz-adv-x="2699" 
d="M70 717v88h401v536l-393 -57v86l422 64h84v-629h364v-88h-878zM719 0h-154l1417 1434h154zM2183 -10q-399 0 -465 180l111 25q47 -127 354 -127q344 0 344 163q0 75 -86.5 115.5t-255.5 40.5q-213 0 -336 -72l-90 19l51 383h779v-78h-691l-30 -242q126 66 340 66
q211 0 320.5 -59.5t109.5 -174.5q0 -117 -115.5 -178t-339.5 -61z" />
    <glyph glyph-name="twofifths" unicode="&#x2156;" horiz-adv-x="2713" 
d="M66 801l540 221q90 40 135.5 71.5t59.5 56.5t14 62q0 68 -80 108t-235 40q-146 0 -230.5 -42t-95.5 -118l-111 19q20 108 132.5 166.5t302.5 58.5q209 0 320.5 -59.5t111.5 -165.5q0 -56 -20.5 -94t-85.5 -81.5t-191 -95.5l-365 -147h682v-84h-884v84zM735 0h-153
l1417 1434h153zM2200 -10q-399 0 -465 180l110 25q47 -127 355 -127q344 0 344 163q0 75 -86.5 115.5t-255.5 40.5q-213 0 -336 -72l-90 19l51 383h778v-78h-690l-31 -242q126 66 340 66q211 0 320.5 -59.5t109.5 -174.5q0 -117 -115 -178t-339 -61z" />
    <glyph glyph-name="threefifths" unicode="&#x2157;" horiz-adv-x="2693" 
d="M973 913q0 -102 -111 -154t-350 -52q-217 0 -325.5 47t-135.5 143l111 18q19 -66 101 -97.5t251 -31.5q183 0 261.5 33t78.5 101q0 58 -56 89t-161 31h-330v78h328q97 0 151 31t54 86q0 62 -81.5 95.5t-244.5 33.5q-159 0 -240 -32t-102 -97l-109 18q30 95 138.5 143
t312.5 48q218 0 329 -51.5t111 -147.5q0 -60 -40.5 -101.5t-114.5 -58.5q84 -17 129 -61t45 -111zM713 0h-154l1417 1434h154zM2177 -10q-399 0 -465 180l111 25q47 -127 354 -127q344 0 344 163q0 75 -86.5 115.5t-255.5 40.5q-213 0 -336 -72l-90 19l51 383h779v-78h-691
l-30 -242q126 66 340 66q211 0 320.5 -59.5t109.5 -174.5q0 -117 -115.5 -178t-339.5 -61z" />
    <glyph glyph-name="fourfifths" unicode="&#x2158;" horiz-adv-x="2764" 
d="M895 717h-107v160h-737v71l750 492h94v-486h203v-77h-203v-160zM784 0h-153l1417 1434h154zM195 954h593v392zM2249 -10q-399 0 -465 180l110 25q47 -127 355 -127q344 0 344 163q0 75 -86.5 115.5t-255.5 40.5q-213 0 -336 -72l-90 19l51 383h778v-78h-690l-31 -242
q126 66 340 66q211 0 320.5 -59.5t109.5 -174.5q0 -117 -115 -178t-339 -61z" />
    <glyph glyph-name="onesixth" unicode="&#x2159;" horiz-adv-x="2686" 
d="M70 717v88h401v536l-393 -57v86l422 64h84v-629h364v-88h-878zM719 0h-154l1417 1434h154zM1690 340q0 188 126 287.5t359 99.5q178 0 292 -44t152 -128l-108 -31q-67 125 -338 125q-185 0 -281 -78.5t-96 -226.5q99 107 399 107q217 0 326 -57.5t109 -166.5
q0 -110 -117 -173.5t-338 -63.5q-239 0 -362 88t-123 262zM2173 68q166 0 255 43t89 116q0 72 -88.5 112t-253.5 40q-163 0 -258.5 -36t-95.5 -99q0 -80 96 -128t256 -48z" />
    <glyph glyph-name="fivesixths" unicode="&#x215a;" horiz-adv-x="2658" 
d="M520 707q-399 0 -465 180l111 24q47 -127 354 -127q344 0 344 164q0 75 -86.5 115.5t-255.5 40.5q-213 0 -336 -72l-90 19l51 383h779v-78h-690l-31 -242q126 66 340 66q211 0 320.5 -59.5t109.5 -174.5q0 -117 -115.5 -178t-339.5 -61zM690 0h-153l1417 1434h153z
M1661 340q0 188 126 287.5t359 99.5q178 0 292.5 -44t152.5 -128l-109 -31q-67 125 -338 125q-185 0 -281 -78.5t-96 -226.5q99 107 400 107q217 0 325.5 -57.5t108.5 -166.5q0 -110 -117 -173.5t-338 -63.5q-239 0 -362 88t-123 262zM2144 68q166 0 255 43t89 116
q0 72 -88.5 112t-253.5 40q-163 0 -258.5 -36t-95.5 -99q0 -80 96 -128t256 -48z" />
    <glyph glyph-name="oneeighth" unicode="&#x215b;" horiz-adv-x="2734" 
d="M70 717v88h401v536l-393 -57v86l422 64h84v-629h364v-88h-878zM719 0h-154l1417 1434h154zM2187 -10q-241 0 -363 53t-122 154q0 134 235 178q-194 47 -194 164q0 91 113 139.5t331 48.5q219 0 332 -48.5t113 -139.5q0 -119 -195 -164q236 -44 236 -178
q0 -101 -122.5 -154t-363.5 -53zM2187 651q-327 0 -327 -119q0 -120 327 -120q328 0 328 120q0 119 -328 119zM2187 66q367 0 367 133q0 135 -367 135q-368 0 -368 -135q0 -133 368 -133z" />
    <glyph glyph-name="threeeighths" unicode="&#x215c;" horiz-adv-x="2727" 
d="M973 913q0 -102 -111 -154t-350 -52q-217 0 -325.5 47t-135.5 143l111 18q19 -66 101 -97.5t251 -31.5q183 0 261.5 33t78.5 101q0 58 -56 89t-161 31h-330v78h328q97 0 151 31t54 86q0 62 -81.5 95.5t-244.5 33.5q-159 0 -240 -32t-102 -97l-109 18q30 95 138.5 143
t312.5 48q218 0 329 -51.5t111 -147.5q0 -60 -40.5 -101.5t-114.5 -58.5q84 -17 129 -61t45 -111zM713 0h-154l1417 1434h154zM2181 -10q-241 0 -363 53t-122 154q0 134 235 178q-194 47 -194 164q0 91 113 139.5t331 48.5q219 0 332 -48.5t113 -139.5q0 -119 -195 -164
q235 -44 235 -178q0 -101 -122 -154t-363 -53zM2181 651q-328 0 -328 -119q0 -120 328 -120t328 120q0 119 -328 119zM2181 66q367 0 367 133q0 135 -367 135q-369 0 -369 -135q0 -133 369 -133z" />
    <glyph glyph-name="fiveeighths" unicode="&#x215d;" horiz-adv-x="2705" 
d="M520 707q-399 0 -465 180l111 24q47 -127 354 -127q344 0 344 164q0 75 -86.5 115.5t-255.5 40.5q-213 0 -336 -72l-90 19l51 383h779v-78h-690l-31 -242q126 66 340 66q211 0 320.5 -59.5t109.5 -174.5q0 -117 -115.5 -178t-339.5 -61zM690 0h-153l1417 1434h153z
M2161 -10q-241 0 -363.5 53t-122.5 154q0 134 236 178q-195 47 -195 164q0 91 113 139.5t332 48.5q218 0 331 -48.5t113 -139.5q0 -119 -195 -164q236 -44 236 -178q0 -101 -122 -154t-363 -53zM2161 651q-328 0 -328 -119q0 -120 328 -120q327 0 327 120q0 119 -327 119z
M2161 66q366 0 366 133q0 135 -366 135q-369 0 -369 -135q0 -133 369 -133z" />
    <glyph glyph-name="seveneighths" unicode="&#x215e;" horiz-adv-x="2551" 
d="M948 1364l-549 -647h-133l549 633h-766v84h899v-70zM539 0h-154l1417 1434h154zM2007 -10q-241 0 -363 53t-122 154q0 134 235 178q-194 47 -194 164q0 91 113 139.5t331 48.5t331 -48.5t113 -139.5q0 -59 -49.5 -100.5t-144.5 -63.5q235 -44 235 -178q0 -101 -122 -154
t-363 -53zM2007 651q-328 0 -328 -119q0 -120 328 -120t328 120q0 119 -328 119zM2007 66q367 0 367 133q0 135 -367 135q-369 0 -369 -135q0 -133 369 -133z" />
    <glyph glyph-name="arrowleft" unicode="&#x2190;" horiz-adv-x="1587" 
d="M625 1069l-340 -336h1185v-123h-1187l342 -338l-78 -82l-479 482l479 481z" />
    <glyph glyph-name="arrowup" unicode="&#x2191;" horiz-adv-x="1585" 
d="M1192 877l-338 342v-1188h-123v1186l-338 -340l-82 77l484 482l479 -480z" />
    <glyph glyph-name="arrowright" unicode="&#x2192;" horiz-adv-x="1585" 
d="M958 1069l80 84l480 -481l-480 -482l-80 82l342 338h-1185v123h1185z" />
    <glyph glyph-name="arrowdown" unicode="&#x2193;" horiz-adv-x="1585" 
d="M393 575l338 -342v1188h121v-1188l338 342l82 -79l-479 -480l-482 480z" />
    <glyph glyph-name="uni2194" unicode="&#x2194;" horiz-adv-x="1886" 
d="M625 1069l-340 -336h1314l-339 336l79 84l480 -481l-482 -482l-77 82l342 338h-1319l342 -338l-78 -82l-479 482l479 481z" />
    <glyph glyph-name="uni2195" unicode="&#x2195;" horiz-adv-x="1499" 
d="M342 500l338 -342v1134l-338 -342l-82 80l481 479l480 -479l-82 -80l-336 340v-1132l336 342l82 -80l-480 -479l-481 479z" />
    <glyph glyph-name="uni2196" unicode="&#x2196;" horiz-adv-x="1585" 
d="M983 1085h-483l841 -841l-86 -86l-841 843v-487h-109v680h678v-109z" />
    <glyph glyph-name="uni2197" unicode="&#x2197;" horiz-adv-x="1585" 
d="M602 1085v109h678v-680h-111v485l-839 -841l-86 86l841 841h-483z" />
    <glyph glyph-name="uni2198" unicode="&#x2198;" horiz-adv-x="1585" 
d="M602 268h483l-841 840l86 88l839 -842v486h111v-680h-678v108z" />
    <glyph glyph-name="uni2199" unicode="&#x2199;" horiz-adv-x="1585" 
d="M983 268v-108h-678v680h109v-488l841 844l86 -88l-841 -840h483z" />
    <glyph glyph-name="partialdiff" unicode="&#x2202;" horiz-adv-x="2113" 
d="M1016 -20q-422 0 -644 123.5t-222 349.5q0 215 214 327.5t619 112.5q309 0 517.5 -66.5t287.5 -185.5v27q0 331 -197 498t-571 167q-524 0 -651 -198l-152 41q154 278 803 278q448 0 687 -200.5t239 -585.5q0 -337 -237 -512.5t-693 -175.5zM1016 98q329 0 527 106.5
t198 280.5q0 131 -194.5 213t-526.5 82q-342 0 -525.5 -85.5t-183.5 -243.5q0 -165 182 -259t523 -94z" />
    <glyph glyph-name="product" unicode="&#x220f;" horiz-adv-x="2476" 
d="M315 -250v1684h1846v-1684h-156v1557h-1532v-1557h-158z" />
    <glyph glyph-name="summation" unicode="&#x2211;" horiz-adv-x="1806" 
d="M98 -307v112l715 760l-711 756v113h1598v-127h-1376l688 -738l-693 -749h1410v-127h-1631z" />
    <glyph glyph-name="minus" unicode="&#x2212;" horiz-adv-x="1320" 
d="M1190 664h-1057v114h1057v-114z" />
    <glyph glyph-name="uni2215" unicode="&#x2215;" horiz-adv-x="1570" 
d="M154 0h-154l1417 1434h154z" />
    <glyph glyph-name="radical" unicode="&#x221a;" horiz-adv-x="1855" 
d="M860 0l-577 858l-238 -113l-45 91l360 168l574 -867l747 1297h162l-833 -1434h-150z" />
    <glyph glyph-name="infinity" unicode="&#x221e;" horiz-adv-x="2127" 
d="M1563 270q-146 0 -266.5 65.5t-239.5 227.5q-41 -53 -73.5 -90t-79.5 -78t-94.5 -66.5t-110.5 -42t-134 -16.5q-196 0 -309 103t-113 282q0 174 117 284t305 110q143 0 258.5 -65.5t239.5 -227.5q51 67 94 112.5t104 90.5t136 67.5t164 22.5q197 0 309 -103.5t112 -281.5
q0 -175 -115.5 -284.5t-303.5 -109.5zM276 655q0 -130 82.5 -202t210.5 -72q71 0 131.5 21t113.5 65t88.5 84.5t86.5 107.5q-113 158 -206.5 218.5t-213.5 60.5q-128 0 -210.5 -75.5t-82.5 -207.5zM1556 938q-59 0 -112.5 -15.5t-93.5 -39t-82 -63t-71 -73.5t-67 -85
q103 -156 203 -218.5t223 -62.5q128 0 210.5 75.5t82.5 207.5q0 129 -82.5 201.5t-210.5 72.5z" />
    <glyph glyph-name="integral" unicode="&#x222b;" horiz-adv-x="921" 
d="M365 1114q0 190 91 280.5t277 90.5q88 0 193 -23l-2 -110q-83 18 -179 18q-118 0 -173.5 -57.5t-55.5 -188.5v-1179q0 -194 -92 -284.5t-279 -90.5q-89 0 -174 18l-6 113q92 -20 164 -20q122 0 179 59t57 192v1182z" />
    <glyph glyph-name="approxequal" unicode="&#x2248;" horiz-adv-x="1320" 
d="M403 958q-130 0 -270 -94v119q144 90 279 90q67 0 140 -20.5t126.5 -45t120 -45t121.5 -20.5q128 0 270 94v-118q-149 -91 -279 -91q-66 0 -137.5 20.5t-124 45t-120.5 45t-126 20.5zM403 496q-129 0 -270 -95v119q144 90 279 90q67 0 140 -20.5t126.5 -45t120 -45
t121.5 -20.5q128 0 270 94v-118q-147 -90 -279 -90q-66 0 -137.5 20.5t-124 45t-120.5 45t-126 20.5z" />
    <glyph glyph-name="notequal" unicode="&#x2260;" horiz-adv-x="1320" 
d="M467 211h-137l108 217h-305v113h363l180 358h-543v113h600l109 217h137l-109 -217h320v-113h-377l-180 -358h557v-113h-615z" />
    <glyph glyph-name="lessequal" unicode="&#x2264;" horiz-adv-x="1302" 
d="M131 694v119l1057 436v-135l-897 -356l897 -357v-141zM1188 20h-1057v115h1057v-115z" />
    <glyph glyph-name="greaterequal" unicode="&#x2265;" horiz-adv-x="1302" 
d="M1190 813v-119l-1057 -434v133l897 357l-897 356v143zM1192 20h-1057v115h1057v-115z" />
    <glyph glyph-name="wave" unicode="&#x2307;" horiz-adv-x="2506" 
d="M2507 0q-104 0 -194.5 46t-159.5 123.5t-131 177.5t-116 211.5t-106.5 222.5t-110.5 211t-120.5 177.5t-143 123.5t-172.5 46t-173 -46t-143.5 -123.5t-120.5 -177.5t-110.5 -211t-106 -222.5t-115.5 -211.5t-130.5 -177.5t-159 -123.5t-194.5 -46v117q71 0 135.5 33.5
t114 86.5t100 135t90 160.5t88.5 181.5q48 103 74 155.5t76.5 145t88 142.5t95.5 115.5t113 99t127.5 58t150.5 24.5q108 0 205.5 -47.5t162 -105t140.5 -178t112 -190.5t106 -219q58 -122 89 -184t88 -156t103 -139.5t111.5 -81.5t136.5 -36q10 0 10 -58q0 -59 -10 -59z
" />
    <glyph glyph-name="lozenge" unicode="&#x25ca;" horiz-adv-x="1851" 
d="M1016 0h-180l-766 717l766 717h180l766 -717zM266 719l664 -621l655 621l-665 610z" />
    <glyph glyph-name="commaaccent" unicode="&#xf6c3;" 
d="M193 -446l260 309h182l-313 -309h-129z" />
    <glyph glyph-name="kgreenlandic.case" horiz-adv-x="2508" 
d="M315 0v1434h156v-758l1331 758h246l-1167 -670l1235 -764h-263l-1114 680l-268 -154v-526h-156zM2529 1434l-315 -314h-186l372 314h129z" />
    <glyph glyph-name="napostrophe.case" horiz-adv-x="2822" 
d="M670 0v1434h155l1532 -1268v1268h150v-1434h-156l-1532 1266v-1266h-149zM8 1124l260 310h183l-314 -310h-129z" />
    <glyph glyph-name="i.dot" horiz-adv-x="673" 
d="M252 1300v170h172v-170h-172zM262 0v1110h152v-1110h-152z" />
    <glyph glyph-name="caron.alt" 
d="M614 1098v438h142l-41 -438h-101z" />
    <glyph glyph-name="revcommaaccent" 
d="M918 1563l-316 -314h-186l372 314h130z" />
    <glyph glyph-name="zero.tlf" horiz-adv-x="2146" 
d="M1073 -20q-461 0 -721 195t-260 542t260 542t721 195t721 -195t260 -542t-260 -542t-721 -195zM1073 102q390 0 604.5 161.5t214.5 453.5q0 291 -214.5 451.5t-604.5 160.5t-604.5 -160.5t-214.5 -451.5q0 -292 214.5 -453.5t604.5 -161.5z" />
    <glyph glyph-name="one.tlf" horiz-adv-x="2146" 
d="M199 0v125h874v1175l-856 -122v129l877 127h137v-1309h807v-125h-1839z" />
    <glyph glyph-name="two.tlf" horiz-adv-x="2146" 
d="M227 121l1039 481q194 89 295.5 157t136.5 125.5t35 135.5q0 147 -172 230t-494 83q-309 0 -484 -90.5t-200 -257.5l-160 31q40 211 257.5 324.5t586.5 113.5q401 0 616 -113.5t215 -314.5q0 -80 -22.5 -139.5t-86 -122.5t-176.5 -126.5t-294 -141.5l-801 -371h1434v-125
h-1725v121z" />
    <glyph glyph-name="three.tlf" horiz-adv-x="2146" 
d="M1970 387q0 -206 -214 -306.5t-679 -100.5q-290 0 -479 43.5t-289 126t-139 212.5l164 33q28 -101 108.5 -165.5t238.5 -100t398 -35.5q379 0 548 73.5t169 227.5q0 132 -125 202.5t-366 70.5h-637v116h635q223 0 342.5 70t119.5 197q0 137 -174 211.5t-514 74.5
q-227 0 -379.5 -35.5t-233 -99.5t-110.5 -162l-155 35q60 189 269.5 284t606.5 95q424 0 641 -99.5t217 -287.5q0 -129 -91.5 -214.5t-264.5 -119.5q193 -31 293 -118.5t100 -227.5z" />
    <glyph glyph-name="four.tlf" horiz-adv-x="2146" 
d="M1710 0h-154v328h-1493v118l1489 988h158v-988h404v-118h-404v-328zM272 446h1284v848z" />
    <glyph glyph-name="five.tlf" horiz-adv-x="2146" 
d="M1049 -20q-385 0 -608.5 87.5t-290.5 270.5l163 35q49 -135 236.5 -204t501.5 -69q723 0 723 355q0 173 -182 264.5t-535 91.5q-232 0 -408.5 -39.5t-273.5 -112.5l-144 15l101 760h1503v-115h-1368l-74 -543q130 70 309.5 108t382.5 38q412 0 630.5 -120t219.5 -349
q0 -232 -223.5 -352.5t-662.5 -120.5z" />
    <glyph glyph-name="six.tlf" horiz-adv-x="2146" 
d="M160 682q0 372 246 572t706 200q359 0 581.5 -90.5t293.5 -263.5l-162 -33q-56 131 -237 198.5t-476 67.5q-388 0 -590.5 -167.5t-202.5 -493.5v-31q84 117 301.5 182.5t534.5 65.5q417 0 635.5 -113t218.5 -330q0 -221 -229 -343.5t-664 -122.5q-470 0 -713 178.5
t-243 523.5zM1116 98q354 0 541.5 93t187.5 255q0 158 -188 244t-541 86q-350 0 -550.5 -78.5t-200.5 -208.5q0 -175 205.5 -283t545.5 -108z" />
    <glyph glyph-name="seven.tlf" horiz-adv-x="2146" 
d="M1939 1311l-1116 -1311h-198l1126 1307h-1542v127h1730v-123z" />
    <glyph glyph-name="eight.tlf" horiz-adv-x="2146" 
d="M1073 -20q-465 0 -704.5 105.5t-239.5 305.5q0 135 124.5 225.5t367.5 131.5q-202 41 -306 125.5t-104 207.5q0 180 220.5 276.5t641.5 96.5t641.5 -96.5t220.5 -276.5q0 -123 -102.5 -207.5t-304.5 -125.5q242 -41 365.5 -131.5t123.5 -225.5q0 -200 -239 -305.5
t-705 -105.5zM1769 1069q0 268 -696 268t-696 -268q0 -264 696 -264t696 264zM1073 96q389 0 582.5 76t193.5 221q0 142 -193 216.5t-583 74.5t-582 -74.5t-192 -216.5q0 -145 193 -221t581 -76z" />
    <glyph glyph-name="nine.tlf" horiz-adv-x="2146" 
d="M1985 752q0 -372 -246.5 -572t-706.5 -200q-360 0 -581.5 90t-290.5 264l162 33q56 -131 236.5 -199t473.5 -68q390 0 592.5 168t202.5 494v31q-83 -117 -300.5 -182.5t-535.5 -65.5q-417 0 -636.5 113t-219.5 329q0 221 230 344t665 123q469 0 712 -179t243 -523z
M1028 1335q-353 0 -541 -93t-188 -255q0 -158 188 -244t541 -86q350 0 552 78.5t202 208.5q0 175 -206.5 283t-547.5 108z" />
    <glyph glyph-name="zero.posf" horiz-adv-x="2299" 
d="M1149 -20q-461 0 -721 168t-260 466t260.5 466.5t720.5 168.5q462 0 722.5 -168.5t260.5 -466.5t-260.5 -466t-722.5 -168zM1149 102q390 0 605.5 135t215.5 377t-215 376t-606 134q-389 0 -604 -134t-215 -376t215 -377t604 -135z" />
    <glyph glyph-name="one.posf" horiz-adv-x="1916" 
d="M133 0v125h828v971l-807 -123v129l825 127h139v-1104h746v-125h-1731z" />
    <glyph glyph-name="two.posf" horiz-adv-x="1964" 
d="M143 123l1014 342q156 54 253 98.5t150 88.5t71 84t18 95q0 135 -170.5 217t-491.5 82q-311 0 -487 -90.5t-201 -259.5l-160 31q41 211 259 324.5t589 113.5q398 0 613 -112t215 -303q0 -77 -25 -133.5t-92.5 -113.5t-189 -110t-312.5 -112l-760 -246h1432v-119h-1725
v123z" />
    <glyph glyph-name="three.posf" horiz-adv-x="2095" 
d="M1933 152q0 -211 -214.5 -314.5t-678.5 -103.5q-290 0 -479 44t-289 126.5t-139 214.5l164 33q21 -76 71 -130.5t138 -94t221 -58.5t315 -19q379 0 548 76t169 234q0 136 -125 209t-366 73h-637v117h635q223 0 343 73t120 204q0 142 -175 219.5t-514 77.5
q-227 0 -379.5 -35.5t-233 -99.5t-110.5 -162l-155 34q60 189 269.5 284t606.5 95q425 0 641.5 -101.5t216.5 -295.5q0 -134 -91.5 -222t-266.5 -122q193 -31 294 -121t101 -235z" />
    <glyph glyph-name="four.posf" horiz-adv-x="2179" 
d="M1741 -246h-154v246h-1493v119l1487 1110h160v-1110h403v-119h-403v-246zM293 119h1294v964z" />
    <glyph glyph-name="five.posf" horiz-adv-x="2095" 
d="M1055 -266q-385 0 -608.5 87.5t-290.5 270.5l163 35q49 -135 236.5 -203.5t501.5 -68.5q360 0 541.5 97.5t181.5 287.5q0 168 -182 257t-535 89q-232 0 -408.5 -39.5t-273.5 -112.5l-143 15l100 780h1503v-115h-1368l-74 -563q128 69 308.5 107t384.5 38
q412 0 630.5 -116.5t219.5 -341.5q0 -246 -224.5 -375t-662.5 -129z" />
    <glyph glyph-name="six.posf" horiz-adv-x="2164" 
d="M168 682q0 372 246 572t706 200q359 0 581.5 -90.5t293.5 -263.5l-162 -33q-56 131 -237 198.5t-476 67.5q-388 0 -590 -167.5t-202 -493.5v-31q84 117 301 182.5t534 65.5q417 0 635.5 -113t218.5 -330q0 -221 -229 -343.5t-664 -122.5q-470 0 -713 178.5t-243 523.5z
M1124 98q354 0 541.5 93t187.5 255q0 158 -188 244t-541 86q-350 0 -550.5 -78.5t-200.5 -208.5q0 -175 205.5 -283t545.5 -108z" />
    <glyph glyph-name="seven.posf" horiz-adv-x="1857" 
d="M1780 1106l-1151 -1352h-199l1161 1348h-1542v127h1731v-123z" />
    <glyph glyph-name="eight.posf" horiz-adv-x="2195" 
d="M1098 -20q-465 0 -704.5 105.5t-239.5 305.5q0 135 124 225.5t367 131.5q-202 41 -305.5 125.5t-103.5 207.5q0 180 220.5 276.5t641.5 96.5t641.5 -96.5t220.5 -276.5q0 -123 -103 -207.5t-305 -125.5q243 -41 366.5 -131.5t123.5 -225.5q0 -200 -239 -305.5
t-705 -105.5zM1794 1069q0 268 -696 268q-697 0 -697 -268q0 -264 697 -264q696 0 696 264zM1098 96q389 0 582.5 76t193.5 221q0 142 -193 216.5t-583 74.5t-582 -74.5t-192 -216.5q0 -145 193 -221t581 -76z" />
    <glyph glyph-name="nine.posf" horiz-adv-x="2166" 
d="M1997 526q0 -383 -246.5 -588.5t-706.5 -205.5q-359 0 -581 90.5t-291 263.5l162 35q56 -131 236.5 -198.5t473.5 -67.5q390 0 592.5 172t202.5 508v34q-83 -118 -300 -184t-535 -66q-417 0 -637 113.5t-220 329.5q0 230 229.5 358.5t663.5 128.5q470 0 713.5 -184.5
t243.5 -538.5zM1040 1128q-354 0 -541.5 -97.5t-187.5 -266.5q0 -159 188 -245.5t541 -86.5q350 0 552 78.5t202 208.5q0 185 -206 297t-548 112z" />
    <glyph glyph-name="zero.numerator" horiz-adv-x="1134" 
d="M567 707q-237 0 -370.5 98t-133.5 270t133.5 270.5t370.5 98.5t370.5 -98.5t133.5 -270.5q0 -173 -134 -270.5t-370 -97.5zM567 793q184 0 285.5 74t101.5 208t-101.5 208.5t-285.5 74.5q-183 0 -285 -74.5t-102 -208.5q0 -135 101.5 -208.5t285.5 -73.5z" />
    <glyph glyph-name="one.numerator" horiz-adv-x="999" 
d="M70 717v88h401v536l-393 -57v86l422 64h84v-629h364v-88h-878z" />
    <glyph glyph-name="two.numerator" horiz-adv-x="1026" 
d="M66 801l540 221q90 40 135.5 71.5t59.5 56.5t14 62q0 68 -80 108t-235 40q-146 0 -230.5 -42t-95.5 -118l-111 19q20 108 132.5 166.5t302.5 58.5q209 0 320.5 -59.5t111.5 -165.5q0 -56 -20.5 -94t-85.5 -81.5t-191 -95.5l-365 -147h682v-84h-884v84z" />
    <glyph glyph-name="three.numerator" horiz-adv-x="1038" 
d="M973 913q0 -102 -111 -154t-350 -52q-217 0 -325.5 47t-135.5 143l111 18q19 -66 101 -97.5t251 -31.5q183 0 261.5 33t78.5 101q0 58 -56 89t-161 31h-330v78h328q97 0 151 31t54 86q0 62 -81.5 95.5t-244.5 33.5q-159 0 -240 -32t-102 -97l-109 18q30 95 138.5 143
t312.5 48q218 0 329 -51.5t111 -147.5q0 -60 -40.5 -101.5t-114.5 -58.5q84 -17 129 -61t45 -111z" />
    <glyph glyph-name="four.numerator" horiz-adv-x="1148" 
d="M895 717h-107v160h-737v71l750 492h94v-486h203v-77h-203v-160zM195 954h593v392z" />
    <glyph glyph-name="five.numerator" horiz-adv-x="1034" 
d="M520 707q-399 0 -465 180l111 24q47 -127 354 -127q344 0 344 164q0 75 -86.5 115.5t-255.5 40.5q-213 0 -336 -72l-90 19l51 383h779v-78h-690l-31 -242q126 66 340 66q211 0 320.5 -59.5t109.5 -174.5q0 -117 -115.5 -178t-339.5 -61z" />
    <glyph glyph-name="six.numerator" horiz-adv-x="1060" 
d="M63 1057q0 188 126.5 287.5t359.5 99.5q178 0 292 -44t152 -128l-108 -31q-67 125 -338 125q-185 0 -281 -78.5t-96 -226.5q98 106 399 106q217 0 326 -57t109 -166q0 -110 -117 -173.5t-338 -63.5q-239 0 -362.5 88t-123.5 262zM547 784q165 0 254.5 43t89.5 117
q0 72 -88.5 112t-253.5 40q-163 0 -258.5 -36t-95.5 -99q0 -80 96.5 -128.5t255.5 -48.5z" />
    <glyph glyph-name="seven.numerator" horiz-adv-x="999" 
d="M948 1364l-549 -647h-133l549 633h-766v84h899v-70z" />
    <glyph glyph-name="eight.numerator" horiz-adv-x="1089" 
d="M545 707q-241 0 -363.5 52.5t-122.5 153.5q0 66 60 111.5t176 67.5q-195 47 -195 163q0 91 113.5 140t331.5 49t331 -49t113 -140q0 -119 -194 -163q115 -22 175 -67.5t60 -111.5q0 -101 -122 -153.5t-363 -52.5zM545 1368q-328 0 -328 -119q0 -121 328 -121
q327 0 327 121q0 119 -327 119zM545 782q366 0 366 133q0 136 -366 136q-369 0 -369 -136q0 -133 369 -133z" />
    <glyph glyph-name="nine.numerator" horiz-adv-x="1060" 
d="M997 1092q0 -188 -125.5 -286.5t-357.5 -98.5q-179 0 -293.5 43.5t-152.5 126.5l108 30q68 -123 338 -123q185 0 281 77.5t96 225.5q-103 -106 -399 -106q-216 0 -325.5 58t-109.5 165q0 110 117.5 175t337.5 65q485 0 485 -352zM514 1364q-165 0 -254.5 -43t-89.5 -117
q0 -71 89 -111t255 -40q162 0 257 36t95 99q0 79 -97 127.5t-255 48.5z" />
    <glyph glyph-name="zero.denominator" horiz-adv-x="1134" 
d="M567 -10q-237 0 -370.5 98t-133.5 270t133.5 270.5t370.5 98.5t370.5 -98.5t133.5 -270.5q0 -173 -134 -270.5t-370 -97.5zM567 76q184 0 285.5 74t101.5 208t-101.5 208.5t-285.5 74.5q-183 0 -285 -74.5t-102 -208.5q0 -135 101.5 -208.5t285.5 -73.5z" />
    <glyph glyph-name="one.denominator" horiz-adv-x="999" 
d="M70 0v88h401v537l-393 -58v86l422 64h84v-629h364v-88h-878z" />
    <glyph glyph-name="two.denominator" horiz-adv-x="1026" 
d="M66 84l540 221q130 58 169.5 97t39.5 94q0 68 -80 107.5t-235 39.5q-146 0 -230.5 -42t-95.5 -118l-111 19q20 108 132.5 166.5t302.5 58.5q209 0 320.5 -59.5t111.5 -165.5q0 -56 -20.5 -94t-85.5 -81.5t-191 -95.5l-365 -147h682v-84h-884v84z" />
    <glyph glyph-name="three.denominator" horiz-adv-x="1038" 
d="M973 197q0 -102 -111 -154.5t-350 -52.5q-217 0 -325.5 47t-135.5 143l111 19q19 -66 101 -97.5t251 -31.5q183 0 261.5 32.5t78.5 100.5q0 58 -56.5 89.5t-160.5 31.5h-330v77h328q97 0 151 31t54 86q0 62 -81.5 95.5t-244.5 33.5q-159 0 -240 -32t-102 -97l-109 19
q30 95 138.5 142.5t312.5 47.5q218 0 329 -51.5t111 -147.5q0 -60 -40.5 -101t-114.5 -58q84 -17 129 -61t45 -111z" />
    <glyph glyph-name="four.denominator" horiz-adv-x="1148" 
d="M895 0h-107v160h-737v71l750 492h94v-485h203v-78h-203v-160zM195 238h593v391z" />
    <glyph glyph-name="five.denominator" horiz-adv-x="1034" 
d="M520 -10q-399 0 -465 180l111 25q47 -127 354 -127q344 0 344 163q0 75 -86.5 115.5t-255.5 40.5q-213 0 -336 -72l-90 19l51 383h779v-78h-690l-31 -242q126 66 340 66q211 0 320.5 -59.5t109.5 -174.5q0 -117 -115.5 -178t-339.5 -61z" />
    <glyph glyph-name="six.denominator" horiz-adv-x="1060" 
d="M63 340q0 188 126.5 287.5t359.5 99.5q178 0 292 -44t152 -128l-108 -31q-67 125 -338 125q-185 0 -281 -78.5t-96 -226.5q99 107 399 107q217 0 326 -57.5t109 -166.5q0 -110 -117 -173.5t-338 -63.5q-239 0 -362.5 88t-123.5 262zM547 68q166 0 255 43t89 116
q0 72 -88.5 112t-253.5 40q-163 0 -258.5 -36t-95.5 -99q0 -80 96 -128t256 -48z" />
    <glyph glyph-name="seven.denominator" horiz-adv-x="999" 
d="M948 647l-549 -647h-133l549 633h-766v84h899v-70z" />
    <glyph glyph-name="eight.denominator" horiz-adv-x="1089" 
d="M545 -10q-241 0 -363.5 53t-122.5 154q0 134 236 178q-195 47 -195 164q0 91 113 139.5t332 48.5q218 0 331 -48.5t113 -139.5q0 -59 -49.5 -100.5t-144.5 -63.5q235 -44 235 -178q0 -101 -122 -154t-363 -53zM545 651q-328 0 -328 -119q0 -120 328 -120q327 0 327 120
q0 119 -327 119zM545 66q366 0 366 133q0 135 -366 135q-369 0 -369 -135q0 -133 369 -133z" />
    <glyph glyph-name="nine.denominator" horiz-adv-x="1060" 
d="M997 375q0 -188 -125.5 -286.5t-357.5 -98.5q-179 0 -293.5 43.5t-152.5 126.5l108 30q67 -122 338 -122q185 0 281 77.5t96 225.5q-104 -107 -399 -107q-216 0 -325.5 58t-109.5 165q0 110 117.5 175t337.5 65q485 0 485 -352zM514 647q-165 0 -254.5 -43t-89.5 -117
q0 -71 89 -111t255 -40q162 0 257 36t95 99q0 79 -97 127.5t-255 48.5z" />
    <glyph glyph-name="twosevenths" horiz-adv-x="2783" 
d="M66 801l540 221q90 40 135.5 71.5t59.5 56.5t14 62q0 68 -80 108t-235 40q-146 0 -230.5 -42t-95.5 -118l-111 19q20 108 132.5 166.5t302.5 58.5q209 0 320.5 -59.5t111.5 -165.5q0 -56 -20.5 -94t-85.5 -81.5t-191 -95.5l-365 -147h682v-84h-884v84zM735 0h-153
l1417 1434h153zM2732 647l-549 -647h-133l549 633h-766v84h899v-70z" />
    <glyph glyph-name="twoninths" horiz-adv-x="2721" 
d="M66 801l540 221q90 40 135.5 71.5t59.5 56.5t14 62q0 68 -80 108t-235 40q-146 0 -230.5 -42t-95.5 -118l-111 19q20 108 132.5 166.5t302.5 58.5q209 0 320.5 -59.5t111.5 -165.5q0 -56 -20.5 -94t-85.5 -81.5t-191 -95.5l-365 -147h682v-84h-884v84zM735 0h-153
l1417 1434h153zM2656 375q0 -188 -125.5 -286.5t-357.5 -98.5q-179 0 -294 43.5t-153 126.5l109 30q67 -122 338 -122q185 0 281 77.5t96 225.5q-104 -107 -400 -107q-216 0 -325 57.5t-109 165.5q0 110 117.5 175t337.5 65q485 0 485 -352zM2173 647q-165 0 -254.5 -43
t-89.5 -117q0 -71 89 -111t255 -40q162 0 257 36t95 99q0 79 -97 127.5t-255 48.5z" />
    <glyph glyph-name="threesevenths" horiz-adv-x="2762" 
d="M973 913q0 -102 -111 -154t-350 -52q-217 0 -325.5 47t-135.5 143l111 18q19 -66 101 -97.5t251 -31.5q183 0 261.5 33t78.5 101q0 58 -56 89t-161 31h-330v78h328q97 0 151 31t54 86q0 62 -81.5 95.5t-244.5 33.5q-159 0 -240 -32t-102 -97l-109 18q30 95 138.5 143
t312.5 48q218 0 329 -51.5t111 -147.5q0 -60 -40.5 -101.5t-114.5 -58.5q84 -17 129 -61t45 -111zM713 0h-154l1417 1434h154zM2710 647l-549 -647h-133l548 633h-766v84h900v-70z" />
    <glyph glyph-name="foursevenths" horiz-adv-x="2834" 
d="M895 717h-107v160h-737v71l750 492h94v-486h203v-77h-203v-160zM784 0h-153l1417 1434h154zM195 954h593v392zM2781 647l-549 -647h-133l549 633h-766v84h899v-70z" />
    <glyph glyph-name="fourninths" horiz-adv-x="2770" 
d="M895 717h-107v160h-737v71l750 492h94v-486h203v-77h-203v-160zM784 0h-153l1417 1434h154zM195 954h593v392zM2705 375q0 -188 -125.5 -286.5t-357.5 -98.5q-179 0 -293.5 43.5t-152.5 126.5l108 30q67 -122 338 -122q185 0 281 77.5t96 225.5q-104 -107 -399 -107
q-216 0 -325.5 58t-109.5 165q0 110 117.5 175t337.5 65q485 0 485 -352zM2222 647q-165 0 -254.5 -43t-89.5 -117q0 -71 89 -111t255 -40q162 0 257 36t95 99q0 79 -97 127.5t-255 48.5z" />
    <glyph glyph-name="fivesevenths" horiz-adv-x="2740" 
d="M520 707q-399 0 -465 180l111 24q47 -127 354 -127q344 0 344 164q0 75 -86.5 115.5t-255.5 40.5q-213 0 -336 -72l-90 19l51 383h779v-78h-690l-31 -242q126 66 340 66q211 0 320.5 -59.5t109.5 -174.5q0 -117 -115.5 -178t-339.5 -61zM690 0h-153l1417 1434h153z
M2687 647l-549 -647h-133l549 633h-766v84h899v-70z" />
    <glyph glyph-name="fiveninths" horiz-adv-x="2676" 
d="M520 707q-399 0 -465 180l111 24q47 -127 354 -127q344 0 344 164q0 75 -86.5 115.5t-255.5 40.5q-213 0 -336 -72l-90 19l51 383h779v-78h-690l-31 -242q126 66 340 66q211 0 320.5 -59.5t109.5 -174.5q0 -117 -115.5 -178t-339.5 -61zM690 0h-153l1417 1434h153z
M2613 375q0 -188 -125.5 -286.5t-357.5 -98.5q-179 0 -294 43.5t-153 126.5l109 30q67 -122 338 -122q185 0 281 77.5t96 225.5q-104 -107 -400 -107q-216 0 -325 57.5t-109 165.5q0 110 117.5 175t337.5 65q485 0 485 -352zM2130 647q-165 0 -254.5 -43t-89.5 -117
q0 -71 89 -111t255 -40q162 0 257 36t95 99q0 79 -97 127.5t-255 48.5z" />
    <glyph glyph-name="sixsevenths" horiz-adv-x="2777" 
d="M63 1057q0 188 126.5 287.5t359.5 99.5q178 0 292 -44t152 -128l-108 -31q-67 125 -338 125q-185 0 -281 -78.5t-96 -226.5q98 106 399 106q217 0 326 -57t109 -166q0 -110 -117 -173.5t-338 -63.5q-239 0 -362.5 88t-123.5 262zM729 0h-154l1418 1434h153zM547 784
q165 0 254.5 43t89.5 117q0 72 -88.5 112t-253.5 40q-163 0 -258.5 -36t-95.5 -99q0 -80 96.5 -128.5t255.5 -48.5zM2726 647l-549 -647h-133l549 633h-766v84h899v-70z" />
    <glyph glyph-name="sevenninths" horiz-adv-x="2525" 
d="M948 1364l-549 -647h-133l549 633h-766v84h899v-70zM539 0h-154l1417 1434h154zM2460 375q0 -188 -126 -286.5t-358 -98.5q-179 0 -293.5 43.5t-152.5 126.5l108 30q67 -122 338 -122q185 0 281 77.5t96 225.5q-104 -107 -399 -107q-216 0 -325 57.5t-109 165.5
q0 110 117 175t337 65q239 0 362.5 -88t123.5 -264zM1976 647q-165 0 -254.5 -43t-89.5 -117q0 -71 89 -111t255 -40q162 0 257.5 36t95.5 99q0 79 -97 127.5t-256 48.5z" />
    <glyph glyph-name="eightninths" horiz-adv-x="2744" 
d="M545 707q-241 0 -363.5 52.5t-122.5 153.5q0 66 60 111.5t176 67.5q-195 47 -195 163q0 91 113.5 140t331.5 49t331 -49t113 -140q0 -119 -194 -163q115 -22 175 -67.5t60 -111.5q0 -101 -122 -153.5t-363 -52.5zM760 0h-154l1417 1434h154zM545 1368q-328 0 -328 -119
q0 -121 328 -121q327 0 327 121q0 119 -327 119zM545 782q366 0 366 133q0 136 -366 136q-369 0 -369 -136q0 -133 369 -133zM2679 375q0 -188 -126 -286.5t-358 -98.5q-179 0 -293.5 43.5t-152.5 126.5l109 30q67 -122 337 -122q185 0 281 77.5t96 225.5
q-104 -107 -399 -107q-216 0 -325 57.5t-109 165.5q0 110 117 175t337 65q239 0 362.5 -88t123.5 -264zM2195 647q-165 0 -254.5 -43t-89.5 -117q0 -71 89 -111t255 -40q162 0 257.5 36t95.5 99q0 79 -97 127.5t-256 48.5z" />
    <glyph glyph-name="mu" horiz-adv-x="1951" 
d="M1724 1110v-1110h-135l-12 328q-97 -165 -290 -256.5t-427 -91.5q-155 0 -281.5 43.5t-201.5 132.5v-566h-150v1520h152v-575q0 -109 39.5 -193.5t110 -136.5t162.5 -78.5t202 -26.5q100 0 197 20.5t185 64.5t154 105.5t105.5 150t38.5 192.5v477h151z" />
    <glyph glyph-name="Omega" horiz-adv-x="2117" 
d="M1382 266v-157h488v-109h-629v344q265 46 402 169.5t137 322.5q0 231 -193 364t-528 133q-338 0 -530.5 -133t-192.5 -366q0 -397 541 -490v-344h-631v109h487v159q-275 60 -417 203.5t-142 366.5q0 285 237.5 450.5t647.5 165.5t647.5 -165.5t237.5 -450.5
q0 -221 -143 -365.5t-419 -206.5z" />
    <glyph glyph-name="Delta" horiz-adv-x="2174" 
d="M1163 1434l989 -1434h-2127l979 1434h159zM281 121h1607l-807 1179z" />
    <glyph glyph-name="at.case" horiz-adv-x="2658" 
d="M2042 131q-129 0 -204 61.5t-75 165.5v29q-85 -124 -245 -195t-357 -71q-194 0 -300.5 76t-106.5 206q0 128 96 200t309 87l602 35v35q0 151 -104 217.5t-297 66.5q-179 0 -291 -57.5t-129 -169.5l-145 17q29 152 179.5 231.5t385.5 79.5q270 0 408.5 -91t138.5 -290
v-399q0 -156 159 -156q155 0 260 130t105 361q0 175 -74.5 322t-212.5 253.5t-345 166t-462 59.5q-258 0 -468.5 -66.5t-351 -184.5t-216.5 -281.5t-76 -356.5q0 -184 67.5 -334t199 -260t338 -170.5t473.5 -60.5q368 0 669 131l29 -65q-310 -140 -698 -140
q-285 0 -507.5 65.5t-365.5 185t-217 283.5t-74 365q0 210 84 388t236.5 305.5t378.5 199.5t499 72q270 0 492.5 -65t373.5 -180.5t233.5 -277.5t82.5 -354q0 -263 -131.5 -416t-345.5 -153zM901 412q0 -88 72 -138.5t203 -50.5q156 0 291 50.5t215.5 139t80.5 193.5v25
l-598 -39q-264 -17 -264 -180z" />
    <glyph glyph-name="questiondown.case" horiz-adv-x="1941" 
d="M1118 1432v-172h-180v172h180zM967 102q209 0 362.5 38.5t245.5 120t104 202.5l158 -27q-24 -220 -255 -339.5t-615 -119.5q-404 0 -621 114t-217 296q0 70 27.5 126.5t74 94.5t106.5 69.5t127 55.5t134 47t128.5 49t110 57.5t78.5 77t33 101.5h160q-4 -72 -35 -131
t-79.5 -98.5t-110 -72t-128.5 -56.5t-133.5 -46.5t-126.5 -47.5t-106 -54.5t-73 -72t-27 -95.5q0 -128 172 -208.5t506 -80.5z" />
    <glyph glyph-name="exclamdown.case" horiz-adv-x="788" 
d="M483 1432v-172h-178v172h178zM324 1065h143l8 -1065h-162z" />
    <glyph glyph-name="parenleft.case" horiz-adv-x="858" 
d="M575 -164q-177 221 -258 432.5t-81 438.5q0 226 81 436.5t258 433.5h150q-182 -233 -262 -438t-80 -432q0 -226 80 -432t262 -439h-150z" />
    <glyph glyph-name="parenright.case" horiz-adv-x="858" 
d="M281 1577q178 -222 260 -433t82 -437q0 -227 -82 -438t-260 -433h-150q182 232 263 438t81 433q0 224 -81 429.5t-263 440.5h150z" />
    <glyph glyph-name="braceleft.case" horiz-adv-x="1034" 
d="M233 707q159 -20 232.5 -98.5t73.5 -231.5v-178q0 -143 59.5 -204t200.5 -61q63 0 164 11l8 -111q-95 -12 -183 -12q-200 0 -294.5 87t-94.5 279v187q0 95 -28.5 148t-99 82.5t-205.5 43.5v113q135 14 205.5 43.5t99 83t28.5 149.5v187q0 192 94.5 279t294.5 87
q84 0 183 -12l-8 -111q-101 11 -164 11q-140 0 -200 -61.5t-60 -203.5v-180q0 -152 -73.5 -230t-232.5 -97z" />
    <glyph glyph-name="braceright.case" horiz-adv-x="1034" 
d="M967 762v-113q-134 -14 -205 -43.5t-100 -82.5t-29 -148v-187q0 -192 -94 -279t-295 -87q-90 0 -181 12l7 111q104 -11 163 -11q141 0 201 61t60 204v178q0 153 73.5 231.5t233.5 98.5q-160 19 -233.5 97t-73.5 230v180q0 142 -59.5 203.5t-201.5 61.5q-59 0 -163 -11
l-7 111q95 12 181 12q201 0 295 -87t94 -279v-187q0 -141 68 -198.5t266 -77.5z" />
    <glyph glyph-name="bracketleft.case" horiz-adv-x="985" 
d="M315 -164v1741h609v-109h-463v-1523h463v-109h-609z" />
    <glyph glyph-name="bracketright.case" horiz-adv-x="985" 
d="M670 -164h-609v109h463v1523h-463v109h609v-1741z" />
    <glyph glyph-name="hyphen.case" horiz-adv-x="1263" 
d="M125 668v125h1012v-125h-1012z" />
    <glyph glyph-name="endash.case" horiz-adv-x="1697" 
d="M125 668v125h1446v-125h-1446z" />
    <glyph glyph-name="emdash.case" horiz-adv-x="3393" 
d="M125 668v125h3142v-125h-3142z" />
    <glyph glyph-name="brokenbar.case" horiz-adv-x="780" 
d="M465 829h-150v830h150v-830zM465 -246h-150v871h150v-871z" />
    <glyph glyph-name="bar.case" horiz-adv-x="780" 
d="M465 -246h-150v1905h150v-1905z" />
    <glyph glyph-name="guillemotleft.case" horiz-adv-x="1875" 
d="M868 371v-148l-764 408v149l764 410v-146l-663 -337zM1708 371v-148l-764 408v149l764 410v-146l-664 -337z" />
    <glyph glyph-name="guillemotright.case" horiz-adv-x="1873" 
d="M909 631l-764 -408v144l664 338l-664 335v150l764 -410v-149zM1749 631l-764 -408v144l664 338l-664 335v150l764 -410v-149z" />
    <glyph glyph-name="guilsinglleft.case" horiz-adv-x="1015" 
d="M868 371v-148l-764 408v149l764 410v-146l-663 -337z" />
    <glyph glyph-name="guilsinglright.case" horiz-adv-x="1015" 
d="M909 631l-764 -408v144l664 338l-664 335v150l764 -410v-149z" />
    <glyph glyph-name="afii10021.bg" horiz-adv-x="2281" 
d="M23 -354v479h231l801 1309h164l809 -1309h229v-479h-150v354h-1933v-354h-151zM426 125h1423l-714 1169z" />
    <glyph glyph-name="afii10029.bg" horiz-adv-x="2185" 
d="M1976 0l-891 1298l-880 -1298h-178l979 1434h163l990 -1434h-183z" />
    <glyph glyph-name="afii10038.bg" horiz-adv-x="2492" 
d="M1163 -190v190h-86q-452 0 -704 185t-252 530q0 229 115 391.5t329 245t512 82.5h86v163h162v-163h90q451 0 704 -187.5t253 -531.5q0 -345 -252.5 -530t-704.5 -185h-90v-190h-162zM2216 715q0 292 -208 445t-589 153h-96v-1194h96q381 0 589 152t208 444zM276 715
q0 -292 208 -444t589 -152h92v1194h-92q-381 0 -589 -153t-208 -445z" />
    <glyph glyph-name="afii10066.sb" horiz-adv-x="2054" 
d="M1030 -20q-229 0 -398.5 35.5t-273 102.5t-153 159t-49.5 210q0 156 102.5 268.5t312.5 164.5q66 18 150 24l-113 19q-191 35 -276.5 101.5t-85.5 176.5q0 127 116 196.5t381 73.5l768 17q148 3 283 31l12 -115q-120 -30 -290 -33l-768 -14q-190 -4 -268.5 -41.5
t-78.5 -116.5q0 -40 21 -69.5t60 -51t114 -39t162 -30.5t225 -29l182 -25q388 -43 563 -165.5t175 -333.5q0 -119 -49.5 -212t-152.5 -162t-272.5 -105.5t-398.5 -36.5zM1030 92q717 0 717 404q0 97 -57 173t-156.5 123t-227.5 71t-276 24q-354 0 -536.5 -99t-182.5 -284
q0 -193 176.5 -302.5t542.5 -109.5z" />
    <glyph glyph-name="afii10067.bg" horiz-adv-x="1943" 
d="M170 985q0 279 208 425t621 146q364 0 556 -108t192 -311q0 -133 -84 -222t-244 -124q185 -29 282 -123.5t97 -247.5q0 -220 -194.5 -330t-597.5 -110q-437 0 -636.5 143.5t-199.5 435.5v426zM317 985v-143h844q207 0 318.5 73t111.5 205q0 155 -153 238.5t-439 83.5
q-340 0 -511 -117t-171 -340zM317 559q0 -239 162 -352t527 -113q324 0 478 82.5t154 249.5q0 147 -121 225t-354 78h-846v-170z" />
    <glyph glyph-name="afii10068.bg" horiz-adv-x="1847" 
d="M952 1022q-585 0 -641 -258l-149 24q86 345 792 345q351 0 536 -81t185 -233q0 -138 -119 -201.5t-423 -93.5l-443 -24q-224 -22 -307.5 -64t-83.5 -131q0 -215 619 -215q302 0 470 71.5t191 209.5l152 -25q-83 -366 -816 -366q-768 0 -768 329q0 140 118.5 206.5
t414.5 94.5l442 27q232 20 317 59t85 127q0 199 -572 199z" />
    <glyph glyph-name="afii10069.bg" horiz-adv-x="2103" 
d="M936 33q-366 0 -574 146.5t-208 402.5q0 257 208 404t574 147q266 0 464.5 -77t293.5 -216l8 270h137v-971q0 -284 -203.5 -426.5t-638.5 -142.5q-358 0 -546.5 86.5t-233.5 261.5l152 21q35 -126 185 -192t441 -66q360 0 527.5 115t167.5 343v180
q-97 -137 -293.5 -211.5t-460.5 -74.5zM979 150q322 0 516.5 116t194.5 314q0 202 -194 319t-517 117q-318 0 -494 -114.5t-176 -317.5q0 -205 176 -319.5t494 -114.5z" />
    <glyph glyph-name="afii10072.bg" horiz-adv-x="2301" 
d="M1075 0v1536h150v-1536h-150zM1282 584l768 526h211l-772 -522l784 -588h-215zM1018 584l-774 -584h-215l784 588l-772 522h211z" />
    <glyph glyph-name="afii10073.bg" horiz-adv-x="1929" 
d="M289 721l-142 35q59 186 255 281.5t559 95.5q390 0 591 -102t201 -300q0 -132 -85.5 -219t-248.5 -121q182 -29 276.5 -125.5t94.5 -251.5q0 -224 -203.5 -334t-632.5 -110q-258 0 -432 44.5t-268 127.5t-133 211l149 31q43 -150 203 -223.5t481 -73.5q351 0 513.5 81
t162.5 252q0 149 -119 228.5t-348 79.5h-575v116h573q211 0 324.5 71.5t113.5 201.5q0 147 -164 223t-477 76q-308 0 -465.5 -74t-203.5 -221z" />
    <glyph glyph-name="afii10074.bg" horiz-adv-x="1980" 
d="M1720 1110v-1110h-135l-12 328q-97 -164 -290.5 -256t-426.5 -92q-136 0 -249.5 32.5t-200 97t-135 168t-48.5 236.5v596h152v-575q0 -109 39.5 -193.5t110 -136.5t162.5 -78.5t202 -26.5q99 0 194.5 20t183 62t154 101.5t106.5 145.5t42 187v494h151z" />
    <glyph glyph-name="afii10075.bg" horiz-adv-x="1980" 
d="M1307 1534h137q0 -139 -128 -216t-341 -77t-341 77t-128 216h137q0 -91 90.5 -144t241.5 -53t241.5 53t90.5 144zM1720 1110v-1110h-137l-10 328q-97 -164 -290.5 -256t-426.5 -92q-136 0 -249.5 32.5t-200 97t-135 168t-48.5 236.5v596h152v-575q0 -109 39.5 -193.5
t110 -136.5t162.5 -78.5t202 -26.5q98 0 194 20t183.5 63t154 103t107 146.5t41.5 188.5v489h151z" />
    <glyph glyph-name="afii10076.bg" horiz-adv-x="1779" 
d="M262 0v1536h150v-1536h-150zM475 569l1012 541h244l-1012 -535l1030 -575h-246z" />
    <glyph glyph-name="afii10077.bg" horiz-adv-x="1720" 
d="M936 1110l756 -1110h-174l-656 973l-667 -973h-168l766 1110h143z" />
    <glyph glyph-name="afii10081.bg" horiz-adv-x="2035" 
d="M262 0v1110h135l11 -338q97 167 296 264t451 97q306 0 473.5 -149.5t167.5 -412.5v-571h-149v545q0 218 -137.5 341.5t-391.5 123.5q-202 0 -363 -67.5t-252 -191.5t-91 -282v-469h-150z" />
    <glyph glyph-name="afii10084.bg" horiz-adv-x="3016" 
d="M262 0v1110h137l9 -311q86 154 251.5 244t374.5 90q214 0 354.5 -92t186.5 -257q83 161 253 255t388 94q262 0 412.5 -141.5t150.5 -387.5v-604h-151v580q0 201 -119 315.5t-334 114.5q-255 0 -417.5 -146.5t-162.5 -378.5v-485h-151v600q0 192 -119 301t-334 109
q-254 0 -416.5 -147t-162.5 -378v-485h-150z" />
    <glyph glyph-name="afii10088.bg" horiz-adv-x="1986" 
d="M1720 1110v-991h224v-441h-144v322h-215l-12 328q-97 -164 -290.5 -256t-426.5 -92q-136 0 -249.5 32.5t-200 97t-135 168t-48.5 236.5v596h152v-575q0 -109 39.5 -193.5t110 -136.5t162.5 -78.5t202 -26.5q99 0 194.5 20t183 62t154 101.5t106.5 145.5t42 187v494h151z
" />
    <glyph glyph-name="afii10090.bg" horiz-adv-x="2885" 
d="M1348 625v485h151v-606q0 -188 111.5 -296t312.5 -108q244 0 396.5 146.5t152.5 378.5v485h151v-1110h-137l-10 305q-83 -151 -238.5 -238t-351.5 -87q-205 0 -339 89t-179 250q-79 -157 -239 -248t-365 -91q-257 0 -399 139.5t-142 386.5v604h152v-586q0 -198 111 -311
t311 -113q245 0 398 146.5t153 378.5z" />
    <glyph glyph-name="afii10091.bg" horiz-adv-x="2918" 
d="M1348 625v485h151v-606q0 -188 111.5 -296t312.5 -108q244 0 396.5 146.5t152.5 378.5v485h151v-991h232v-449h-143v330h-234l-4 299q-84 -148 -239 -233.5t-349 -85.5q-205 0 -339 89t-179 250q-79 -157 -239 -248t-365 -91q-257 0 -399 139.5t-142 386.5v604h152v-586
q0 -198 111 -311t311 -113q245 0 398 146.5t153 378.5z" />
    <glyph glyph-name="afii10092.bg" horiz-adv-x="2080" 
d="M6 993v117h645v-369h789q262 0 392 -93t130 -267q0 -191 -179 -296t-556 -105q-198 0 -339.5 27.5t-225 81t-122 125.5t-38.5 167v612h-496zM651 381q0 -150 135.5 -221.5t442.5 -71.5q581 0 581 289q0 130 -92.5 192t-292.5 62h-774v-250z" />
    <glyph glyph-name="afii10094.bg" horiz-adv-x="1816" 
d="M1698 381q0 -190 -179.5 -295.5t-555.5 -105.5q-198 0 -339.5 27.5t-225 81t-122 125.5t-38.5 167v729h149v-369h789q262 0 392 -93t130 -267zM387 381q0 -149 135 -221t441 -72q581 0 581 289q0 130 -92 192t-291 62h-774v-250z" />
    <glyph glyph-name="afii10096.bg" horiz-adv-x="2607" 
d="M262 0v1536h150v-899h338q34 233 256 364.5t593 131.5q406 0 631.5 -154t225.5 -424t-225 -422.5t-632 -152.5q-390 0 -614.5 142t-239.5 394h-333v-516h-150zM1599 94q338 0 519.5 121.5t181.5 339.5q0 219 -181.5 340t-519.5 121t-519 -121t-181 -340
q0 -217 181.5 -339t518.5 -122z" />
    <glyph glyph-name="uni045D.bg" horiz-adv-x="1980" 
d="M1065 1249h-147l-467 320h211zM1720 1110v-1110h-135l-12 328q-97 -164 -290.5 -256t-426.5 -92q-136 0 -249.5 32.5t-200 97t-135 168t-48.5 236.5v596h152v-575q0 -109 39.5 -193.5t110 -136.5t162.5 -78.5t202 -26.5q99 0 194.5 20t183 62t154 101.5t106.5 145.5
t42 187v494h151z" />
    <glyph glyph-name="breve_cyr" horiz-adv-x="1398" 
d="M1083 1851h144q0 -162 -140.5 -253t-388.5 -91t-387 90.5t-139 253.5h141q0 -113 103 -177t282 -64t282 64t103 177z" />
    </font>
</defs>
</svg>
