<?xml version="1.0" standalone="no"?>
<!DOCTYPE svg PUBLIC "-//W3C//DTD SVG 1.1//EN" "http://www.w3.org/Graphics/SVG/1.1/DTD/svg11.dtd" >
<svg xmlns="http://www.w3.org/2000/svg" xmlns:xlink="http://www.w3.org/1999/xlink" version="1.1">
<metadata>
Created by FontForge 20201107 at Sat Apr  5 22:05:08 2025
 By 
(c) 1996-2018 Typodermic Fonts Inc
</metadata>
<defs>
<font id="JoystixMonospace-Regular" horiz-adv-x="1695" >
  <font-face 
    font-family="Joystix Monospace"
    font-weight="400"
    font-stretch="normal"
    units-per-em="2048"
    panose-1="2 1 6 9 2 1 2 2 3 4"
    ascent="1638"
    descent="-410"
    cap-height="1434"
    bbox="-1462 -410 1696 2253"
    underline-thickness="0"
    underline-position="0"
    unicode-range="U+0017-F8FF"
  />
<missing-glyph 
d="M1360 2048v-2458h-1024v2458h1024zM541 -205h614v2048h-614v-2048z" />
    <glyph glyph-name=".notdef" 
d="M1360 2048v-2458h-1024v2458h1024zM541 -205h614v2048h-614v-2048z" />
    <glyph glyph-name=".null" horiz-adv-x="0" 
 />
    <glyph glyph-name="nonmarkingreturn" horiz-adv-x="682" 
 />
    <glyph glyph-name="uni0017" 
 />
    <glyph glyph-name="space" unicode=" " 
 />
    <glyph glyph-name="exclam" unicode="!" 
d="M1360 1434v-410h-205v-205h-205v-205h-205v-204h-204v614h204v410h615zM541 205v-205h-205v205h205z" />
    <glyph glyph-name="quotedbl" unicode="&#x22;" 
d="M1360 1434v-615h-205v205h-205v410h410zM1155 819v-205h-205v205h205zM745 1434v-615h-204v205h-205v410h409zM541 819v-205h-205v205h205z" />
    <glyph glyph-name="numbersign" unicode="#" 
d="M1360 614v-204h-205v-205h-205v205h-205v-205h-204v205h-205v204h205v205h-205v205h205v205h204v-205h205v205h205v-205h205v-205h-205v-205h205zM745 614h205v205h-205v-205z" />
    <glyph glyph-name="dollar" unicode="$" 
d="M1565 614v-204h-205v-205h-410v-205h-205v205h-409v205h614v204h-614v205h-205v205h205v205h409v205h205v-205h410v-205h-615v-205h615v-205h205z" />
    <glyph glyph-name="percent" unicode="%" 
d="M1462 1434v-205h-205v205h205zM1257 1229v-205h-204v205h204zM1053 1024v-205h-205v205h205zM643 1434v-410h-410v410h410zM1462 614v-409h-409v409h409zM848 819v-205h-205v205h205zM643 614v-204h-205v204h205zM438 410v-205h-205v205h205z" />
    <glyph glyph-name="ampersand" unicode="&#x26;" 
d="M745 819v-205h205v-204h205v-205h410v-205h-410v205h-205v205h-205v204h-204v205h-205v410h205v-410h204zM541 205h409v-205h-614v205h-205v409h410v-409zM950 1229v-410h-205v410h-204v205h204v-205h205zM1360 614v-204h-205v204h205z" />
    <glyph glyph-name="quotesingle" unicode="'" 
d="M1053 1434v-615h-205v205h-205v410h410zM848 819v-205h-205v205h205z" />
    <glyph glyph-name="parenleft" unicode="(" 
d="M1360 0v-205h-410v205h-205v1434h205v204h410v-204h-205v-1434h205z" />
    <glyph glyph-name="parenright" unicode=")" 
d="M336 -205v205h205v1434h-205v204h409v-204h205v-1434h-205v-205h-409z" />
    <glyph glyph-name="asterisk" unicode="*" 
d="M1360 1229v-205h-205v205h205zM1565 819v-205h-410v-204h-205v-410h-205v410h-204v204h-410v205h410v205h204v410h205v-410h205v-205h410zM1360 410v-205h-205v205h205zM541 1229v-205h-205v205h205zM541 410v-205h-205v205h205z" />
    <glyph glyph-name="plus" unicode="+" 
d="M1460 819v-205h-407v-409h-410v409h-410v205h410v410h410v-410h407z" />
    <glyph glyph-name="comma" unicode="," 
d="M1053 819v-614h-205v205h-205v409h410zM848 205v-205h-205v205h205z" />
    <glyph glyph-name="hyphen" unicode="-" 
d="M1360 819v-205h-1024v205h1024z" />
    <glyph glyph-name="hyphen" unicode="&#x2010;" 
d="M1360 819v-205h-1024v205h1024z" />
    <glyph glyph-name="hyphen" unicode="&#xad;" 
d="M1360 819v-205h-1024v205h1024z" />
    <glyph glyph-name="period" unicode="." 
d="M1053 410v-410h-410v410h410z" />
    <glyph glyph-name="slash" unicode="/" 
d="M1565 1434v-205h-205v205h205zM1360 1229v-205h-205v205h205zM1155 1024v-205h-205v205h205zM950 819v-205h-205v205h205zM745 614v-204h-204v204h204zM541 410v-205h-205v205h205zM336 205v-205h-205v205h205z" />
    <glyph glyph-name="zero" unicode="0" 
d="M745 205h410v-205h-614v205h-205v205h-205v614h205v205h205v-819h204v-205zM1565 1024v-614h-205v-205h-205v819h-205v205h-409v205h614v-205h205v-205h205z" />
    <glyph glyph-name="one" unicode="1" 
d="M1462 205v-205h-1229v205h410v819h-207v205h207v205h410v-1229h409z" />
    <glyph glyph-name="two" unicode="2" 
d="M1565 205v-205h-1434v410h205v204h205v205h409v205h205v205h-614v-205h-410v205h205v205h1024v-205h205v-410h-205v-205h-205v-204h-410v-205h820z" />
    <glyph glyph-name="three" unicode="3" 
d="M1565 614v-409h-207v-205h-1022v205h-205v205h408v-205h616v409h-616v205h206v205h205v205h-614v205h1229v-205h-205v-205h-205v-205h205v-205h205z" />
    <glyph glyph-name="three" unicode="&#x4e1;" 
d="M1565 614v-409h-207v-205h-1022v205h-205v205h408v-205h616v409h-616v205h206v205h205v205h-614v205h1229v-205h-205v-205h-205v-205h205v-205h205z" />
    <glyph glyph-name="three" unicode="&#x4e0;" 
d="M1565 614v-409h-207v-205h-1022v205h-205v205h408v-205h616v409h-616v205h206v205h205v205h-614v205h1229v-205h-205v-205h-205v-205h205v-205h205z" />
    <glyph glyph-name="four" unicode="4" 
d="M1565 614v-204h-205v-410h-410v410h-819v409h203v205h207v205h204v205h615v-820h205zM541 614h409v410h-205v-205h-204v-205z" />
    <glyph glyph-name="five" unicode="5" 
d="M1565 819v-614h-205v-205h-1024v205h-205v205h410v-205h614v614h-1024v615h1229v-205h-819v-205h819v-205h205z" />
    <glyph glyph-name="six" unicode="6" 
d="M1565 614v-409h-205v-205h-1024v205h-205v819h205v205h205v205h819v-205h-615v-205h-204v-205h819v-205h205zM541 205h614v409h-614v-409z" />
    <glyph glyph-name="seven" unicode="7" 
d="M1565 1434v-410h-207v-205h-203v-205h-205v-614h-409v614h204v205h205v205h205v205h-614v-205h-410v410h1434z" />
    <glyph glyph-name="eight" unicode="8" 
d="M336 614v205h-205v410h205v205h819v-205h205v-410h-205v410h-614v-205h204v-205h410v-205h410v-409h-205v-205h-1024v205h-205v409h205zM336 614v-409h819v205h-410v204h-409z" />
    <glyph glyph-name="nine" unicode="9" 
d="M1565 1229v-819h-205v-205h-205v-205h-819v205h614v205h205v204h-819v205h-205v410h205v205h1024v-205h205zM541 819h614v410h-614v-410z" />
    <glyph glyph-name="colon" unicode=":" 
d="M1053 1434v-410h-410v410h410zM1053 819v-409h-410v409h410z" />
    <glyph glyph-name="semicolon" unicode=";" 
d="M1053 1434v-410h-410v410h410zM1053 819v-614h-205v205h-205v409h410zM848 205v-205h-205v205h205z" />
    <glyph glyph-name="semicolon" unicode="&#x37e;" 
d="M1053 1434v-410h-410v410h410zM1053 819v-614h-205v205h-205v409h410zM848 205v-205h-205v205h205z" />
    <glyph glyph-name="less" unicode="&#x3c;" 
d="M1360 205v-205h-410v205h-205v205h-204v204h-205v205h205v205h204v205h205v205h410v-205h-205v-205h-205v-205h-205v-205h205v-204h205v-205h205z" />
    <glyph glyph-name="equal" unicode="=" 
d="M1462 1024v-205h-1229v205h1229zM1462 614v-204h-1229v204h1229z" />
    <glyph glyph-name="greater" unicode="&#x3e;" 
d="M1360 819v-205h-207v-204h-203v-205h-205v-205h-409v205h205v205h204v204h205v205h-205v205h-204v205h-205v205h409v-205h205v-205h203v-205h207z" />
    <glyph glyph-name="question" unicode="?" 
d="M1565 1229v-410h-410v-205h-205v-204h-205v409h205v205h205v205h-614v-205h-410v205h205v205h1024v-205h205zM950 205v-205h-205v205h205z" />
    <glyph glyph-name="at" unicode="@" 
d="M541 205h819v-205h-1024v205h-205v1024h205v205h1024v-205h205v-615h-205v-204h-615v614h410v205h-614v-1024zM1155 819h-205v-205h205v205z" />
    <glyph glyph-name="A" unicode="A" 
d="M1565 1024v-1024h-410v410h-614v-410h-410v1024h205v205h205v205h614v-205h205v-205h205zM541 614h614v410h-205v205h-205v-205h-204v-410z" />
    <glyph glyph-name="A" unicode="&#x430;" 
d="M1565 1024v-1024h-410v410h-614v-410h-410v1024h205v205h205v205h614v-205h205v-205h205zM541 614h614v410h-205v205h-205v-205h-204v-410z" />
    <glyph glyph-name="A" unicode="&#x410;" 
d="M1565 1024v-1024h-410v410h-614v-410h-410v1024h205v205h205v205h614v-205h205v-205h205zM541 614h614v410h-205v205h-205v-205h-204v-410z" />
    <glyph glyph-name="A" unicode="&#x3b1;" 
d="M1565 1024v-1024h-410v410h-614v-410h-410v1024h205v205h205v205h614v-205h205v-205h205zM541 614h614v410h-205v205h-205v-205h-204v-410z" />
    <glyph glyph-name="A" unicode="&#x391;" 
d="M1565 1024v-1024h-410v410h-614v-410h-410v1024h205v205h205v205h614v-205h205v-205h205zM541 614h614v410h-205v205h-205v-205h-204v-410z" />
    <glyph glyph-name="A" unicode="a" 
d="M1565 1024v-1024h-410v410h-614v-410h-410v1024h205v205h205v205h614v-205h205v-205h205zM541 614h614v410h-205v205h-205v-205h-204v-410z" />
    <glyph glyph-name="B" unicode="B" 
d="M1565 614v-409h-205v-205h-1229v1434h1229v-205h205v-410h-205v-205h205zM541 819h614v410h-614v-410zM541 205h614v409h-614v-409z" />
    <glyph glyph-name="B" unicode="&#x432;" 
d="M1565 614v-409h-205v-205h-1229v1434h1229v-205h205v-410h-205v-205h205zM541 819h614v410h-614v-410zM541 205h614v409h-614v-409z" />
    <glyph glyph-name="B" unicode="&#x412;" 
d="M1565 614v-409h-205v-205h-1229v1434h1229v-205h205v-410h-205v-205h205zM541 819h614v410h-614v-410zM541 205h614v409h-614v-409z" />
    <glyph glyph-name="B" unicode="&#x3b2;" 
d="M1565 614v-409h-205v-205h-1229v1434h1229v-205h205v-410h-205v-205h205zM541 819h614v410h-614v-410zM541 205h614v409h-614v-409z" />
    <glyph glyph-name="B" unicode="&#x392;" 
d="M1565 614v-409h-205v-205h-1229v1434h1229v-205h205v-410h-205v-205h205zM541 819h614v410h-614v-410zM541 205h614v409h-614v-409z" />
    <glyph glyph-name="B" unicode="b" 
d="M1565 614v-409h-205v-205h-1229v1434h1229v-205h205v-410h-205v-205h205zM541 819h614v410h-614v-410zM541 205h614v409h-614v-409z" />
    <glyph glyph-name="C" unicode="C" 
d="M1565 410v-205h-205v-205h-819v205h-205v205h-205v614h205v205h205v205h819v-205h205v-205h-410v205h-410v-205h-204v-614h204v-205h410v205h410z" />
    <glyph glyph-name="C" unicode="&#x441;" 
d="M1565 410v-205h-205v-205h-819v205h-205v205h-205v614h205v205h205v205h819v-205h205v-205h-410v205h-410v-205h-204v-614h204v-205h410v205h410z" />
    <glyph glyph-name="C" unicode="&#x421;" 
d="M1565 410v-205h-205v-205h-819v205h-205v205h-205v614h205v205h205v205h819v-205h205v-205h-410v205h-410v-205h-204v-614h204v-205h410v205h410z" />
    <glyph glyph-name="C" unicode="c" 
d="M1565 410v-205h-205v-205h-819v205h-205v205h-205v614h205v205h205v205h819v-205h205v-205h-410v205h-410v-205h-204v-614h204v-205h410v205h410z" />
    <glyph glyph-name="D" unicode="D" 
d="M1565 1024v-614h-205v-205h-205v-205h-1024v1434h1024v-205h205v-205h205zM950 410h205v614h-205v205h-409v-1024h409v205z" />
    <glyph glyph-name="D" unicode="d" 
d="M1565 1024v-614h-205v-205h-205v-205h-1024v1434h1024v-205h205v-205h205zM950 410h205v614h-205v205h-409v-1024h409v205z" />
    <glyph glyph-name="E" unicode="E" 
d="M1565 205v-205h-1434v1434h1434v-205h-1024v-410h819v-205h-819v-409h1024z" />
    <glyph glyph-name="E" unicode="&#x435;" 
d="M1565 205v-205h-1434v1434h1434v-205h-1024v-410h819v-205h-819v-409h1024z" />
    <glyph glyph-name="E" unicode="&#x415;" 
d="M1565 205v-205h-1434v1434h1434v-205h-1024v-410h819v-205h-819v-409h1024z" />
    <glyph glyph-name="E" unicode="&#x3b5;" 
d="M1565 205v-205h-1434v1434h1434v-205h-1024v-410h819v-205h-819v-409h1024z" />
    <glyph glyph-name="E" unicode="&#x395;" 
d="M1565 205v-205h-1434v1434h1434v-205h-1024v-410h819v-205h-819v-409h1024z" />
    <glyph glyph-name="E" unicode="e" 
d="M1565 205v-205h-1434v1434h1434v-205h-1024v-410h819v-205h-819v-409h1024z" />
    <glyph glyph-name="F" unicode="F" 
d="M1565 1434v-205h-1024v-410h819v-205h-819v-614h-410v1434h1434z" />
    <glyph glyph-name="F" unicode="&#xf53d;" 
d="M1565 1434v-205h-1024v-410h819v-205h-819v-614h-410v1434h1434z" />
    <glyph glyph-name="F" unicode="&#xf53c;" 
d="M1565 1434v-205h-1024v-410h819v-205h-819v-614h-410v1434h1434z" />
    <glyph glyph-name="F" unicode="f" 
d="M1565 1434v-205h-1024v-410h819v-205h-819v-614h-410v1434h1434z" />
    <glyph glyph-name="G" unicode="G" 
d="M1565 819v-819h-1024v209h-205v201h-205v614h205v205h205v205h1024v-205h-820v-205h-204v-614h204v-205h410v409h-205v205h615z" />
    <glyph glyph-name="G" unicode="g" 
d="M1565 819v-819h-1024v209h-205v201h-205v614h205v205h205v205h1024v-205h-820v-205h-204v-614h204v-205h410v409h-205v205h615z" />
    <glyph glyph-name="H" unicode="H" 
d="M1565 1434v-1434h-410v614h-614v-614h-410v1434h410v-615h614v615h410z" />
    <glyph glyph-name="H" unicode="&#x43d;" 
d="M1565 1434v-1434h-410v614h-614v-614h-410v1434h410v-615h614v615h410z" />
    <glyph glyph-name="H" unicode="&#x41d;" 
d="M1565 1434v-1434h-410v614h-614v-614h-410v1434h410v-615h614v615h410z" />
    <glyph glyph-name="H" unicode="&#x3b7;" 
d="M1565 1434v-1434h-410v614h-614v-614h-410v1434h410v-615h614v615h410z" />
    <glyph glyph-name="H" unicode="&#x397;" 
d="M1565 1434v-1434h-410v614h-614v-614h-410v1434h410v-615h614v615h410z" />
    <glyph glyph-name="H" unicode="h" 
d="M1565 1434v-1434h-410v614h-614v-614h-410v1434h410v-615h614v615h410z" />
    <glyph glyph-name="I" unicode="I" 
d="M1462 1434v-205h-409v-1024h409v-205h-1229v205h410v1024h-410v205h1229z" />
    <glyph glyph-name="I" unicode="&#x456;" 
d="M1462 1434v-205h-409v-1024h409v-205h-1229v205h410v1024h-410v205h1229z" />
    <glyph glyph-name="I" unicode="&#x406;" 
d="M1462 1434v-205h-409v-1024h409v-205h-1229v205h410v1024h-410v205h1229z" />
    <glyph glyph-name="I" unicode="&#x3b9;" 
d="M1462 1434v-205h-409v-1024h409v-205h-1229v205h410v1024h-410v205h1229z" />
    <glyph glyph-name="I" unicode="&#x399;" 
d="M1462 1434v-205h-409v-1024h409v-205h-1229v205h410v1024h-410v205h1229z" />
    <glyph glyph-name="I" unicode="&#x131;" 
d="M1462 1434v-205h-409v-1024h409v-205h-1229v205h410v1024h-410v205h1229z" />
    <glyph glyph-name="I" unicode="i" 
d="M1462 1434v-205h-409v-1024h409v-205h-1229v205h410v1024h-410v205h1229z" />
    <glyph glyph-name="J" unicode="J" 
d="M1565 1434v-1229h-205v-205h-1024v205h-205v205h410v-205h614v1229h410z" />
    <glyph glyph-name="J" unicode="&#x458;" 
d="M1565 1434v-1229h-205v-205h-1024v205h-205v205h410v-205h614v1229h410z" />
    <glyph glyph-name="J" unicode="&#x408;" 
d="M1565 1434v-1229h-205v-205h-1024v205h-205v205h410v-205h614v1229h410z" />
    <glyph glyph-name="J" unicode="&#x237;" 
d="M1565 1434v-1229h-205v-205h-1024v205h-205v205h410v-205h614v1229h410z" />
    <glyph glyph-name="J" unicode="j" 
d="M1565 1434v-1229h-205v-205h-1024v205h-205v205h410v-205h614v1229h410z" />
    <glyph glyph-name="K" unicode="K" 
d="M1565 205v-205h-615v205h-205v205h-204v-410h-410v1434h410v-615h204v205h205v205h205v205h410v-205h-205v-205h-205v-205h-205v-205h205v-204h205v-205h205z" />
    <glyph glyph-name="K" unicode="&#x43a;" 
d="M1565 205v-205h-615v205h-205v205h-204v-410h-410v1434h410v-615h204v205h205v205h205v205h410v-205h-205v-205h-205v-205h-205v-205h205v-204h205v-205h205z" />
    <glyph glyph-name="K" unicode="&#x41a;" 
d="M1565 205v-205h-615v205h-205v205h-204v-410h-410v1434h410v-615h204v205h205v205h205v205h410v-205h-205v-205h-205v-205h-205v-205h205v-204h205v-205h205z" />
    <glyph glyph-name="K" unicode="&#x3ba;" 
d="M1565 205v-205h-615v205h-205v205h-204v-410h-410v1434h410v-615h204v205h205v205h205v205h410v-205h-205v-205h-205v-205h-205v-205h205v-204h205v-205h205z" />
    <glyph glyph-name="K" unicode="&#x39a;" 
d="M1565 205v-205h-615v205h-205v205h-204v-410h-410v1434h410v-615h204v205h205v205h205v205h410v-205h-205v-205h-205v-205h-205v-205h205v-204h205v-205h205z" />
    <glyph glyph-name="K" unicode="k" 
d="M1565 205v-205h-615v205h-205v205h-204v-410h-410v1434h410v-615h204v205h205v205h205v205h410v-205h-205v-205h-205v-205h-205v-205h205v-204h205v-205h205z" />
    <glyph glyph-name="L" unicode="L" 
d="M1565 205v-205h-1434v1434h410v-1229h1024z" />
    <glyph glyph-name="L" unicode="l" 
d="M1565 205v-205h-1434v1434h410v-1229h1024z" />
    <glyph glyph-name="M" unicode="M" 
d="M1565 1434v-1434h-410v614h-205v-204h-205v204h-204v-614h-410v1434h410v-205h204v-205h205v205h205v205h410z" />
    <glyph glyph-name="M" unicode="&#x43c;" 
d="M1565 1434v-1434h-410v614h-205v-204h-205v204h-204v-614h-410v1434h410v-205h204v-205h205v205h205v205h410z" />
    <glyph glyph-name="M" unicode="&#x41c;" 
d="M1565 1434v-1434h-410v614h-205v-204h-205v204h-204v-614h-410v1434h410v-205h204v-205h205v205h205v205h410z" />
    <glyph glyph-name="M" unicode="&#x3bc;" 
d="M1565 1434v-1434h-410v614h-205v-204h-205v204h-204v-614h-410v1434h410v-205h204v-205h205v205h205v205h410z" />
    <glyph glyph-name="M" unicode="&#x39c;" 
d="M1565 1434v-1434h-410v614h-205v-204h-205v204h-204v-614h-410v1434h410v-205h204v-205h205v205h205v205h410z" />
    <glyph glyph-name="M" unicode="m" 
d="M1565 1434v-1434h-410v614h-205v-204h-205v204h-204v-614h-410v1434h410v-205h204v-205h205v205h205v205h410z" />
    <glyph glyph-name="N" unicode="N" 
d="M1565 1434v-1434h-410v205h-205v205h-205v204h-204v-614h-410v1434h410v-205h204v-205h205v-205h205v615h410z" />
    <glyph glyph-name="N" unicode="&#x3bd;" 
d="M1565 1434v-1434h-410v205h-205v205h-205v204h-204v-614h-410v1434h410v-205h204v-205h205v-205h205v615h410z" />
    <glyph glyph-name="N" unicode="&#x39d;" 
d="M1565 1434v-1434h-410v205h-205v205h-205v204h-204v-614h-410v1434h410v-205h204v-205h205v-205h205v615h410z" />
    <glyph glyph-name="N" unicode="n" 
d="M1565 1434v-1434h-410v205h-205v205h-205v204h-204v-614h-410v1434h410v-205h204v-205h205v-205h205v615h410z" />
    <glyph glyph-name="O" unicode="O" 
d="M1565 1229v-1024h-205v-205h-1024v205h-205v1024h205v205h1024v-205h205zM541 205h614v1024h-614v-1024z" />
    <glyph glyph-name="O" unicode="&#x43e;" 
d="M1565 1229v-1024h-205v-205h-1024v205h-205v1024h205v205h1024v-205h205zM541 205h614v1024h-614v-1024z" />
    <glyph glyph-name="O" unicode="&#x41e;" 
d="M1565 1229v-1024h-205v-205h-1024v205h-205v1024h205v205h1024v-205h205zM541 205h614v1024h-614v-1024z" />
    <glyph glyph-name="O" unicode="&#x3bf;" 
d="M1565 1229v-1024h-205v-205h-1024v205h-205v1024h205v205h1024v-205h205zM541 205h614v1024h-614v-1024z" />
    <glyph glyph-name="O" unicode="&#x39f;" 
d="M1565 1229v-1024h-205v-205h-1024v205h-205v1024h205v205h1024v-205h205zM541 205h614v1024h-614v-1024z" />
    <glyph glyph-name="O" unicode="o" 
d="M1565 1229v-1024h-205v-205h-1024v205h-205v1024h205v205h1024v-205h205zM541 205h614v1024h-614v-1024z" />
    <glyph glyph-name="P" unicode="P" 
d="M1565 1229v-615h-205v-204h-819v-410h-410v1434h1229v-205h205zM541 614h614v615h-614v-615z" />
    <glyph glyph-name="P" unicode="&#x440;" 
d="M1565 1229v-615h-205v-204h-819v-410h-410v1434h1229v-205h205zM541 614h614v615h-614v-615z" />
    <glyph glyph-name="P" unicode="&#x420;" 
d="M1565 1229v-615h-205v-204h-819v-410h-410v1434h1229v-205h205zM541 614h614v615h-614v-615z" />
    <glyph glyph-name="P" unicode="&#x3c1;" 
d="M1565 1229v-615h-205v-204h-819v-410h-410v1434h1229v-205h205zM541 614h614v615h-614v-615z" />
    <glyph glyph-name="P" unicode="&#x3a1;" 
d="M1565 1229v-615h-205v-204h-819v-410h-410v1434h1229v-205h205zM541 614h614v615h-614v-615z" />
    <glyph glyph-name="P" unicode="p" 
d="M1565 1229v-615h-205v-204h-819v-410h-410v1434h1229v-205h205zM541 614h614v615h-614v-615z" />
    <glyph glyph-name="Q" unicode="Q" 
d="M1565 205v-205h-205v205h-205v-205h-819v205h-205v1024h205v205h1024v-205h205v-819h-205v-205h205zM745 614h410v615h-614v-1024h409v205h-205v204z" />
    <glyph glyph-name="Q" unicode="q" 
d="M1565 205v-205h-205v205h-205v-205h-819v205h-205v1024h205v205h1024v-205h205v-819h-205v-205h205zM745 614h410v615h-614v-1024h409v205h-205v204z" />
    <glyph glyph-name="R" unicode="R" 
d="M1565 205v-205h-615v205h-205v205h-204v-410h-410v1434h1229v-205h205v-615h-410v-204h205v-205h205zM950 819h205v410h-614v-615h409v205z" />
    <glyph glyph-name="R" unicode="r" 
d="M1565 205v-205h-615v205h-205v205h-204v-410h-410v1434h1229v-205h205v-615h-410v-204h205v-205h205zM950 819h205v410h-614v-615h409v205z" />
    <glyph glyph-name="S" unicode="S" 
d="M1565 614v-409h-205v-205h-1024v205h-205v205h410v-205h614v409h-819v205h-205v410h205v205h819v-205h205v-205h-410v205h-409v-410h819v-205h205z" />
    <glyph glyph-name="S" unicode="&#x455;" 
d="M1565 614v-409h-205v-205h-1024v205h-205v205h410v-205h614v409h-819v205h-205v410h205v205h819v-205h205v-205h-410v205h-409v-410h819v-205h205z" />
    <glyph glyph-name="S" unicode="&#x405;" 
d="M1565 614v-409h-205v-205h-1024v205h-205v205h410v-205h614v409h-819v205h-205v410h205v205h819v-205h205v-205h-410v205h-409v-410h819v-205h205z" />
    <glyph glyph-name="S" unicode="s" 
d="M1565 614v-409h-205v-205h-1024v205h-205v205h410v-205h614v409h-819v205h-205v410h205v205h819v-205h205v-205h-410v205h-409v-410h819v-205h205z" />
    <glyph glyph-name="T" unicode="T" 
d="M1462 1434v-205h-409v-1229h-410v1229h-410v205h1229z" />
    <glyph glyph-name="T" unicode="&#x442;" 
d="M1462 1434v-205h-409v-1229h-410v1229h-410v205h1229z" />
    <glyph glyph-name="T" unicode="&#x422;" 
d="M1462 1434v-205h-409v-1229h-410v1229h-410v205h1229z" />
    <glyph glyph-name="T" unicode="&#x3c4;" 
d="M1462 1434v-205h-409v-1229h-410v1229h-410v205h1229z" />
    <glyph glyph-name="T" unicode="&#x3a4;" 
d="M1462 1434v-205h-409v-1229h-410v1229h-410v205h1229z" />
    <glyph glyph-name="T" unicode="t" 
d="M1462 1434v-205h-409v-1229h-410v1229h-410v205h1229z" />
    <glyph glyph-name="U" unicode="U" 
d="M1565 1434v-1229h-205v-205h-1024v205h-205v1229h410v-1229h614v1229h410z" />
    <glyph glyph-name="U" unicode="u" 
d="M1565 1434v-1229h-205v-205h-1024v205h-205v1229h410v-1229h614v1229h410z" />
    <glyph glyph-name="V" unicode="V" 
d="M1565 1434v-820h-205v-204h-205v-205h-205v-205h-205v205h-204v205h-205v204h-205v820h410v-615h204v-205h205v205h205v615h410z" />
    <glyph glyph-name="V" unicode="v" 
d="M1565 1434v-820h-205v-204h-205v-205h-205v-205h-205v205h-204v205h-205v204h-205v820h410v-615h204v-205h205v205h205v615h410z" />
    <glyph glyph-name="W" unicode="W" 
d="M1565 1434v-1434h-410v205h-205v205h-205v-205h-204v-205h-410v1434h410v-615h204v205h205v-205h205v615h410z" />
    <glyph glyph-name="W" unicode="&#x51d;" 
d="M1565 1434v-1434h-410v205h-205v205h-205v-205h-204v-205h-410v1434h410v-615h204v205h205v-205h205v615h410z" />
    <glyph glyph-name="W" unicode="&#x51c;" 
d="M1565 1434v-1434h-410v205h-205v205h-205v-205h-204v-205h-410v1434h410v-615h204v205h205v-205h205v615h410z" />
    <glyph glyph-name="W" unicode="w" 
d="M1565 1434v-1434h-410v205h-205v205h-205v-205h-204v-205h-410v1434h410v-615h204v205h205v-205h205v615h410z" />
    <glyph glyph-name="X" unicode="X" 
d="M1565 410v-410h-410v205h-205v205h-205v-205h-204v-205h-410v410h205v204h205v205h-205v205h-205v410h410v-205h204v-205h205v205h205v205h410v-410h-205v-205h-205v-205h205v-204h205z" />
    <glyph glyph-name="X" unicode="&#x445;" 
d="M1565 410v-410h-410v205h-205v205h-205v-205h-204v-205h-410v410h205v204h205v205h-205v205h-205v410h410v-205h204v-205h205v205h205v205h410v-410h-205v-205h-205v-205h205v-204h205z" />
    <glyph glyph-name="X" unicode="&#x425;" 
d="M1565 410v-410h-410v205h-205v205h-205v-205h-204v-205h-410v410h205v204h205v205h-205v205h-205v410h410v-205h204v-205h205v205h205v205h410v-410h-205v-205h-205v-205h205v-204h205z" />
    <glyph glyph-name="X" unicode="&#x3c7;" 
d="M1565 410v-410h-410v205h-205v205h-205v-205h-204v-205h-410v410h205v204h205v205h-205v205h-205v410h410v-205h204v-205h205v205h205v205h410v-410h-205v-205h-205v-205h205v-204h205z" />
    <glyph glyph-name="X" unicode="&#x3a7;" 
d="M1565 410v-410h-410v205h-205v205h-205v-205h-204v-205h-410v410h205v204h205v205h-205v205h-205v410h410v-205h204v-205h205v205h205v205h410v-410h-205v-205h-205v-205h205v-204h205z" />
    <glyph glyph-name="X" unicode="x" 
d="M1565 410v-410h-410v205h-205v205h-205v-205h-204v-205h-410v410h205v204h205v205h-205v205h-205v410h410v-205h204v-205h205v205h205v205h410v-410h-205v-205h-205v-205h205v-204h205z" />
    <glyph glyph-name="Y" unicode="Y" 
d="M1462 1434v-615h-205v-205h-204v-614h-410v614h-207v205h-203v615h410v-615h410v615h409z" />
    <glyph glyph-name="Y" unicode="&#x4af;" 
d="M1462 1434v-615h-205v-205h-204v-614h-410v614h-207v205h-203v615h410v-615h410v615h409z" />
    <glyph glyph-name="Y" unicode="&#x4ae;" 
d="M1462 1434v-615h-205v-205h-204v-614h-410v614h-207v205h-203v615h410v-615h410v615h409z" />
    <glyph glyph-name="Y" unicode="&#x3c5;" 
d="M1462 1434v-615h-205v-205h-204v-614h-410v614h-207v205h-203v615h410v-615h410v615h409z" />
    <glyph glyph-name="Y" unicode="&#x3a5;" 
d="M1462 1434v-615h-205v-205h-204v-614h-410v614h-207v205h-203v615h410v-615h410v615h409z" />
    <glyph glyph-name="Y" unicode="y" 
d="M1462 1434v-615h-205v-205h-204v-614h-410v614h-207v205h-203v615h410v-615h410v615h409z" />
    <glyph glyph-name="Z" unicode="Z" 
d="M1565 205v-205h-1434v410h205v204h205v205h204v205h205v205h-819v205h1434v-410h-205v-205h-205v-205h-205v-204h-205v-205h820z" />
    <glyph glyph-name="Z" unicode="&#x3b6;" 
d="M1565 205v-205h-1434v410h205v204h205v205h204v205h205v205h-819v205h1434v-410h-205v-205h-205v-205h-205v-204h-205v-205h820z" />
    <glyph glyph-name="Z" unicode="&#x396;" 
d="M1565 205v-205h-1434v410h205v204h205v205h204v205h205v205h-819v205h1434v-410h-205v-205h-205v-205h-205v-204h-205v-205h820z" />
    <glyph glyph-name="Z" unicode="z" 
d="M1565 205v-205h-1434v410h205v204h205v205h204v205h205v205h-819v205h1434v-410h-205v-205h-205v-205h-205v-204h-205v-205h820z" />
    <glyph glyph-name="bracketleft" unicode="[" 
d="M1360 0v-205h-819v1843h819v-204h-410v-1434h410z" />
    <glyph glyph-name="backslash" unicode="\" 
d="M1565 205v-205h-205v205h-205v205h-205v204h-205v205h-204v205h-205v205h-205v205h205v-205h205v-205h204v-205h205v-205h205v-204h205v-205h205z" />
    <glyph glyph-name="bracketright" unicode="]" 
d="M336 -205v205h409v1434h-409v204h819v-1843h-819z" />
    <glyph glyph-name="asciicircum" unicode="^" 
d="M1360 1024v-205h-410v205h-205v-205h-409v205h205v205h204v205h205v-205h205v-205h205z" />
    <glyph glyph-name="underscore" unicode="_" 
d="M1565 0v-205h-1434v205h1434z" />
    <glyph glyph-name="grave" unicode="`" 
d="M1155 1638h-410v205h-204v205h409v-205h205v-205z" />
    <glyph glyph-name="braceleft" unicode="{" 
d="M950 819v-205h205v-614h205v-205h-410v205h-205v614h-204v205h204v615h205v204h410v-204h-205v-615h-205z" />
    <glyph glyph-name="bar" unicode="|" 
d="M643 -205v1843h410v-1843h-410z" />
    <glyph glyph-name="braceright" unicode="}" 
d="M745 614v205h-204v615h-205v204h409v-204h205v-615h205v-205h-205v-614h-205v-205h-409v205h205v614h204z" />
    <glyph glyph-name="asciitilde" unicode="~" 
d="M1462 819v-205h-205v205h205zM1257 614v-202h-409v202h-410v205h410v-205h409zM438 614v-202h-205v202h205z" />
    <glyph glyph-name="nbspace" unicode="&#xa0;" 
 />
    <glyph glyph-name="exclamdown" unicode="&#xa1;" 
d="M336 0v410h205v204h204v205h205v205h205v-614h-205v-410h-614zM1155 1229v205h205v-205h-205z" />
    <glyph glyph-name="cent" unicode="&#xa2;" 
d="M1077 1434v-205h359v-205h-359v-614h359v-205h-359v-205h-205v205h-409v205h-205v614h205v205h409v205h205zM668 1024v-614h204v614h-204z" />
    <glyph glyph-name="sterling" unicode="&#xa3;" 
d="M131 205h205v409h-205v205h205v410h205v205h819v-205h205v-203h-410v203h-410v-410h410v-205h-410v-409h820v-205h-1434v205z" />
    <glyph glyph-name="currency" unicode="&#xa4;" 
d="M336 209v405h205v205h-205v410h205v-205h614v205h205v-410h-205v-205h205v-405h-205v201h-614v-201h-205zM745 614h205v205h-205v-205z" />
    <glyph glyph-name="yen" unicode="&#xa5;" 
d="M1053 205v-205h-410v205h-410v205h410v204h-205v205h-205v615h408v-615h412v615h409v-615h-205v-205h-204v-204h409v-205h-409z" />
    <glyph glyph-name="brokenbar" unicode="&#xa6;" 
d="M1053 1638v-731h-410v731h410zM643 -205v729h410v-729h-410z" />
    <glyph glyph-name="section" unicode="&#xa7;" 
d="M1565 205v-410h-205v-205h-1024v205h-205v205h410v-205h614v410h-819v205h-205v204h205v205h-205v410h205v205h1024v-205h205v-205h-410v205h-614v-410h819v-205h205v-204h-205v-205h205zM541 410h614v204h-614v-204z" />
    <glyph glyph-name="dieresis" unicode="&#xa8;" 
d="M950 2048h410v-410h-410v410zM336 1638v410h409v-410h-409z" />
    <glyph glyph-name="copyright" unicode="&#xa9;" 
d="M1565 1229v-1024h-205v1024h-1024v205h1024v-205h205zM1155 410h-614v614h614v-205h-410v-205h410v-204zM336 205h-205v1024h205v-1024zM336 0v205h1024v-205h-1024z" />
    <glyph glyph-name="ordfeminine" unicode="&#xaa;" 
d="M643 1024h410v205h-410v205h410v-205h204v-615h-204v205h-410v-205h-205v615h205v-205z" />
    <glyph glyph-name="guillemotleft" unicode="&#xab;" 
d="M541 614v-204h204v-205h205v-205h-409v205h-205v205h-205v204h205v205h205v205h409v-205h205v205h410v-205h-205v-205h-205v-204h205v-205h205v-205h-410v205h-205v205h-205v204h-204zM745 819v-205h205v205h-205z" />
    <glyph glyph-name="logicalnot" unicode="&#xac;" 
d="M1462 819v-819h-409v614h-820v205h1229z" />
    <glyph glyph-name="registered" unicode="&#xae;" 
d="M1565 1229v-1024h-205v1024h-1024v205h1024v-205h205zM336 205h-205v1024h205v-1024zM336 0v205h1024v-205h-1024zM668 786h360v-159h158v-312h-158v312h-360v-312h-158v785h676v-314h-158v158h-360v-158z" />
    <glyph glyph-name="macron" unicode="&#xaf;" 
d="M1155 1638h-614v205h614v-205z" />
    <glyph glyph-name="degree" unicode="&#xb0;" 
d="M539 1024h-203v410h203v204h614v-204h205v-410h-205v-205h-614v205zM948 1434h-205v-410h205v410z" />
    <glyph glyph-name="plusminus" unicode="&#xb1;" 
d="M1462 819v-205h-409v-405h-410v405h-410v205h410v410h410v-410h409zM1462 0v-205h-1229v205h1229z" />
    <glyph glyph-name="twosuperior" unicode="&#xb2;" 
d="M336 614v410h205v-205h819v-205h-1024zM1155 1229v205h-819v204h819v-204h205v-205h-205zM541 1024v205h614v-205h-614z" />
    <glyph glyph-name="threesuperior" unicode="&#xb3;" 
d="M336 1434v204h1024v-409h-205v205h-819zM336 614v205h819v-205h-819zM1155 819v205h-410v205h410v-205h205v-205h-205z" />
    <glyph glyph-name="acute" unicode="&#xb4;" 
d="M950 1638h-409v205h204v205h410v-205h-205v-205z" />
    <glyph glyph-name="acute" unicode="&#x374;" 
d="M950 1638h-409v205h204v205h410v-205h-205v-205z" />
    <glyph glyph-name="uni00B5" unicode="&#xb5;" 
d="M541 205h409v-205h-409v-410h-410v1434h410v-819zM1360 1024v-819h205v-205h-410v205h-205v819h410z" />
    <glyph glyph-name="paragraph" unicode="&#xb6;" 
d="M336 1434h1229v-1842h-205v1637h-410v-1637h-205v1022h-409v205h-205v410h205v205z" />
    <glyph glyph-name="periodcentered" unicode="&#xb7;" 
d="M1053 918v-410h-410v410h410z" />
    <glyph glyph-name="periodcentered" unicode="&#x22c5;" 
d="M1053 918v-410h-410v410h410z" />
    <glyph glyph-name="cedilla" unicode="&#xb8;" 
d="M950 -410h-409v205h204v205h410v-205h-205v-205z" />
    <glyph glyph-name="onesuperior" unicode="&#xb9;" 
d="M336 614v205h409v410h-409v205h409v204h205v-819h410v-205h-1024z" />
    <glyph glyph-name="ordmasculine" unicode="&#xba;" 
d="M1257 1229v-410h-204v410h-410v205h410v-205h204zM643 819h410v-205h-410v205zM643 1229v-410h-205v410h205z" />
    <glyph glyph-name="guillemotright" unicode="&#xbb;" 
d="M131 205h205v205h205v204h-205v205h-205v205h410v-205h204v-205h205v-204h205v204h-205v205h-205v205h410v-205h205v-205h205v-204h-205v-205h-205v-205h-410v205h-204v-205h-410v205zM745 410v-205h205v205h-205z" />
    <glyph glyph-name="onequarter" unicode="&#xbc;" 
d="M131 819v205h205v205h-205v205h205v204h205v-614h204v-205h-614zM1565 1434v-205h-205v205h205zM1360 1229v-205h-205v205h205zM1155 1024v-205h-205v205h205zM950 819v-205h-205v205h205zM745 614v-204h-204v204h204zM541 410v-205h-205v205h205zM336 205v-205h-205v205
h205zM1155 410v204h205v205h205v-1024h-205v205h-410v410h205v-205h205v205h-205z" />
    <glyph glyph-name="onehalf" unicode="&#xbd;" 
d="M1360 205v205h-410v204h-205v205h-614v205h205v205h-205v205h205v204h205v-614h204v-205h205v-205h410v-204h205v-205h-205zM950 -205v205h205v205h205v-205h205v-205h-615zM336 205v-205h-205v205h205zM541 410v-205h-205v205h205zM745 614v-204h-204v204h204z
M1565 1434v-205h-205v205h205zM1360 1229v-205h-205v205h205zM1155 1024v-205h-205v205h205z" />
    <glyph glyph-name="threequarters" unicode="&#xbe;" 
d="M131 1434v204h614v-409h-204v205h-410zM131 614v205h410v-205h-410zM541 819v205h-205v205h205v-205h204v-205h-204zM1565 1434v-205h-205v205h205zM1360 1229v-205h-205v205h205zM1155 1024v-205h-205v205h205zM950 819v-205h-205v205h205zM745 614v-204h-204v204h204z
M541 410v-205h-205v205h205zM336 205v-205h-205v205h205zM1155 410v204h205v205h205v-1024h-205v205h-410v410h205v-205h205v205h-205z" />
    <glyph glyph-name="questiondown" unicode="&#xbf;" 
d="M131 205v409h410v205h204v205h205v-410h-205v-204h-204v-205h614v205h410v-205h-205v-205h-1024v205h-205zM745 1229v205h205v-205h-205z" />
    <glyph glyph-name="Agrave" unicode="&#xc0;" 
d="M1565 1024v-1024h-410v410h-614v-410h-410v1024h205v205h205v205h614v-205h205v-205h205zM541 614h614v410h-205v205h-205v-205h-204v-410zM1028 1638h-410v205h-204v205h409v-205h205v-205z" />
    <glyph glyph-name="Agrave" unicode="&#xe0;" 
d="M1565 1024v-1024h-410v410h-614v-410h-410v1024h205v205h205v205h614v-205h205v-205h205zM541 614h614v410h-205v205h-205v-205h-204v-410zM1028 1638h-410v205h-204v205h409v-205h205v-205z" />
    <glyph glyph-name="Aacute" unicode="&#xc1;" 
d="M1565 1024v-1024h-410v410h-614v-410h-410v1024h205v205h205v205h614v-205h205v-205h205zM541 614h614v410h-205v205h-205v-205h-204v-410zM1028 1638h-410v205h205v205h410v-205h-205v-205z" />
    <glyph glyph-name="Aacute" unicode="&#xf46a;" 
d="M1565 1024v-1024h-410v410h-614v-410h-410v1024h205v205h205v205h614v-205h205v-205h205zM541 614h614v410h-205v205h-205v-205h-204v-410zM1028 1638h-410v205h205v205h410v-205h-205v-205z" />
    <glyph glyph-name="Aacute" unicode="&#xf460;" 
d="M1565 1024v-1024h-410v410h-614v-410h-410v1024h205v205h205v205h614v-205h205v-205h205zM541 614h614v410h-205v205h-205v-205h-204v-410zM1028 1638h-410v205h205v205h410v-205h-205v-205z" />
    <glyph glyph-name="Aacute" unicode="&#xe1;" 
d="M1565 1024v-1024h-410v410h-614v-410h-410v1024h205v205h205v205h614v-205h205v-205h205zM541 614h614v410h-205v205h-205v-205h-204v-410zM1028 1638h-410v205h205v205h410v-205h-205v-205z" />
    <glyph glyph-name="Acircumflex" unicode="&#xc2;" 
d="M1565 1024v-1024h-410v410h-614v-410h-410v1024h205v205h205v205h614v-205h205v-205h205zM541 614h614v410h-205v205h-205v-205h-204v-410zM745 1638h-409v205h205v205h614v-205h205v-205h-410v205h-205v-205z" />
    <glyph glyph-name="Acircumflex" unicode="&#xe2;" 
d="M1565 1024v-1024h-410v410h-614v-410h-410v1024h205v205h205v205h614v-205h205v-205h205zM541 614h614v410h-205v205h-205v-205h-204v-410zM745 1638h-409v205h205v205h614v-205h205v-205h-410v205h-205v-205z" />
    <glyph glyph-name="Atilde" unicode="&#xc3;" 
d="M1565 1024v-1024h-410v410h-614v-410h-410v1024h205v205h205v205h614v-205h205v-205h205zM541 614h614v410h-205v205h-205v-205h-204v-410zM639 1638h-205v205h205v205h205v-205h-205v-205zM1049 1638h-205v205h205v205h204v-205h-204v-205z" />
    <glyph glyph-name="Atilde" unicode="&#xe3;" 
d="M1565 1024v-1024h-410v410h-614v-410h-410v1024h205v205h205v205h614v-205h205v-205h205zM541 614h614v410h-205v205h-205v-205h-204v-410zM639 1638h-205v205h205v205h205v-205h-205v-205zM1049 1638h-205v205h205v205h204v-205h-204v-205z" />
    <glyph glyph-name="Adieresis" unicode="&#xc4;" 
d="M1565 1024v-1024h-410v410h-614v-410h-410v1024h205v205h205v205h614v-205h205v-205h205zM541 614h614v410h-205v205h-205v-205h-204v-410zM948 2048h410v-410h-410v410zM334 1638v410h409v-410h-409z" />
    <glyph glyph-name="Adieresis" unicode="&#x4d3;" 
d="M1565 1024v-1024h-410v410h-614v-410h-410v1024h205v205h205v205h614v-205h205v-205h205zM541 614h614v410h-205v205h-205v-205h-204v-410zM948 2048h410v-410h-410v410zM334 1638v410h409v-410h-409z" />
    <glyph glyph-name="Adieresis" unicode="&#x4d2;" 
d="M1565 1024v-1024h-410v410h-614v-410h-410v1024h205v205h205v205h614v-205h205v-205h205zM541 614h614v410h-205v205h-205v-205h-204v-410zM948 2048h410v-410h-410v410zM334 1638v410h409v-410h-409z" />
    <glyph glyph-name="Adieresis" unicode="&#xe4;" 
d="M1565 1024v-1024h-410v410h-614v-410h-410v1024h205v205h205v205h614v-205h205v-205h205zM541 614h614v410h-205v205h-205v-205h-204v-410zM948 2048h410v-410h-410v410zM334 1638v410h409v-410h-409z" />
    <glyph glyph-name="Aring" unicode="&#xc5;" 
d="M1155 2048v-819h205v-205h205v-1024h-410v410h-614v-410h-410v1024h205v205h205v819h614zM541 614h614v410h-205v205h-205v-205h-204v-410zM745 1638h205v205h-205v-205z" />
    <glyph glyph-name="Aring" unicode="&#xe5;" 
d="M1155 2048v-819h205v-205h205v-1024h-410v410h-614v-410h-410v1024h205v205h205v819h614zM541 614h614v410h-205v205h-205v-205h-204v-410zM745 1638h205v205h-205v-205z" />
    <glyph glyph-name="AE" unicode="&#xc6;" 
d="M1667 209v-209h-819v410h-410v-410h-409v1024h204v205h203v205h1231v-205h-410v-410h408v-205h-408v-405h410zM438 614h410v615h-205v-205h-205v-410z" />
    <glyph glyph-name="AE" unicode="&#x4d5;" 
d="M1667 209v-209h-819v410h-410v-410h-409v1024h204v205h203v205h1231v-205h-410v-410h408v-205h-408v-405h410zM438 614h410v615h-205v-205h-205v-410z" />
    <glyph glyph-name="AE" unicode="&#x4d4;" 
d="M1667 209v-209h-819v410h-410v-410h-409v1024h204v205h203v205h1231v-205h-410v-410h408v-205h-408v-405h410zM438 614h410v615h-205v-205h-205v-410z" />
    <glyph glyph-name="AE" unicode="&#xe6;" 
d="M1667 209v-209h-819v410h-410v-410h-409v1024h204v205h203v205h1231v-205h-410v-410h408v-205h-408v-405h410zM438 614h410v615h-205v-205h-205v-410z" />
    <glyph glyph-name="Ccedilla" unicode="&#xc7;" 
d="M950 -410h-409v205h204v205h-204v205h-205v205h-205v614h205v205h205v205h819v-205h205v-205h-410v205h-410v-205h-204v-614h204v-205h410v205h410v-205h-205v-205h-205v-205h-205v-205z" />
    <glyph glyph-name="Ccedilla" unicode="&#xe7;" 
d="M950 -410h-409v205h204v205h-204v205h-205v205h-205v614h205v205h205v205h819v-205h205v-205h-410v205h-410v-205h-204v-614h204v-205h410v205h410v-205h-205v-205h-205v-205h-205v-205z" />
    <glyph glyph-name="Egrave" unicode="&#xc8;" 
d="M1565 205v-205h-1434v1434h1434v-205h-1024v-410h819v-205h-819v-409h1024zM1094 1638h-410v205h-205v205h410v-205h205v-205z" />
    <glyph glyph-name="Egrave" unicode="&#x450;" 
d="M1565 205v-205h-1434v1434h1434v-205h-1024v-410h819v-205h-819v-409h1024zM1094 1638h-410v205h-205v205h410v-205h205v-205z" />
    <glyph glyph-name="Egrave" unicode="&#x400;" 
d="M1565 205v-205h-1434v1434h1434v-205h-1024v-410h819v-205h-819v-409h1024zM1094 1638h-410v205h-205v205h410v-205h205v-205z" />
    <glyph glyph-name="Egrave" unicode="&#xe8;" 
d="M1565 205v-205h-1434v1434h1434v-205h-1024v-410h819v-205h-819v-409h1024zM1094 1638h-410v205h-205v205h410v-205h205v-205z" />
    <glyph glyph-name="Eacute" unicode="&#xc9;" 
d="M1565 205v-205h-1434v1434h1434v-205h-1024v-410h819v-205h-819v-409h1024zM1010 1638h-410v205h205v205h409v-205h-204v-205z" />
    <glyph glyph-name="Eacute" unicode="&#xf46b;" 
d="M1565 205v-205h-1434v1434h1434v-205h-1024v-410h819v-205h-819v-409h1024zM1010 1638h-410v205h205v205h409v-205h-204v-205z" />
    <glyph glyph-name="Eacute" unicode="&#xf461;" 
d="M1565 205v-205h-1434v1434h1434v-205h-1024v-410h819v-205h-819v-409h1024zM1010 1638h-410v205h205v205h409v-205h-204v-205z" />
    <glyph glyph-name="Eacute" unicode="&#xe9;" 
d="M1565 205v-205h-1434v1434h1434v-205h-1024v-410h819v-205h-819v-409h1024zM1010 1638h-410v205h205v205h409v-205h-204v-205z" />
    <glyph glyph-name="Ecircumflex" unicode="&#xca;" 
d="M1565 205v-205h-1434v1434h1434v-205h-1024v-410h819v-205h-819v-409h1024zM745 1638h-409v205h205v205h614v-205h205v-205h-410v205h-205v-205z" />
    <glyph glyph-name="Ecircumflex" unicode="&#xea;" 
d="M1565 205v-205h-1434v1434h1434v-205h-1024v-410h819v-205h-819v-409h1024zM745 1638h-409v205h205v205h614v-205h205v-205h-410v205h-205v-205z" />
    <glyph glyph-name="Edieresis" unicode="&#xcb;" 
d="M1565 205v-205h-1434v1434h1434v-205h-1024v-410h819v-205h-819v-409h1024zM950 2048h410v-410h-410v410zM336 1638v410h409v-410h-409z" />
    <glyph glyph-name="Edieresis" unicode="&#x451;" 
d="M1565 205v-205h-1434v1434h1434v-205h-1024v-410h819v-205h-819v-409h1024zM950 2048h410v-410h-410v410zM336 1638v410h409v-410h-409z" />
    <glyph glyph-name="Edieresis" unicode="&#x401;" 
d="M1565 205v-205h-1434v1434h1434v-205h-1024v-410h819v-205h-819v-409h1024zM950 2048h410v-410h-410v410zM336 1638v410h409v-410h-409z" />
    <glyph glyph-name="Edieresis" unicode="&#xeb;" 
d="M1565 205v-205h-1434v1434h1434v-205h-1024v-410h819v-205h-819v-409h1024zM950 2048h410v-410h-410v410zM336 1638v410h409v-410h-409z" />
    <glyph glyph-name="Igrave" unicode="&#xcc;" 
d="M1462 1434v-205h-409v-1024h409v-205h-1229v205h410v1024h-410v205h1229zM1061 1638h-410v205h-205v205h410v-205h205v-205z" />
    <glyph glyph-name="Igrave" unicode="&#xec;" 
d="M1462 1434v-205h-409v-1024h409v-205h-1229v205h410v1024h-410v205h1229zM1061 1638h-410v205h-205v205h410v-205h205v-205z" />
    <glyph glyph-name="Iacute" unicode="&#xcd;" 
d="M1462 1434v-205h-409v-1024h409v-205h-1229v205h410v1024h-410v205h1229zM1055 1638h-410v205h205v205h410v-205h-205v-205z" />
    <glyph glyph-name="Iacute" unicode="&#xed;" 
d="M1462 1434v-205h-409v-1024h409v-205h-1229v205h410v1024h-410v205h1229zM1055 1638h-410v205h205v205h410v-205h-205v-205z" />
    <glyph glyph-name="Icircumflex" unicode="&#xce;" 
d="M1462 1434v-205h-409v-1024h409v-205h-1229v205h410v1024h-410v205h1229zM745 1638h-409v205h205v205h614v-205h205v-205h-410v205h-205v-205z" />
    <glyph glyph-name="Icircumflex" unicode="&#xee;" 
d="M1462 1434v-205h-409v-1024h409v-205h-1229v205h410v1024h-410v205h1229zM745 1638h-409v205h205v205h614v-205h205v-205h-410v205h-205v-205z" />
    <glyph glyph-name="Idieresis" unicode="&#xcf;" 
d="M1462 1434v-205h-409v-1024h409v-205h-1229v205h410v1024h-410v205h1229zM950 2048h410v-410h-410v410zM336 1638v410h409v-410h-409z" />
    <glyph glyph-name="Idieresis" unicode="&#x457;" 
d="M1462 1434v-205h-409v-1024h409v-205h-1229v205h410v1024h-410v205h1229zM950 2048h410v-410h-410v410zM336 1638v410h409v-410h-409z" />
    <glyph glyph-name="Idieresis" unicode="&#x407;" 
d="M1462 1434v-205h-409v-1024h409v-205h-1229v205h410v1024h-410v205h1229zM950 2048h410v-410h-410v410zM336 1638v410h409v-410h-409z" />
    <glyph glyph-name="Idieresis" unicode="&#x3ca;" 
d="M1462 1434v-205h-409v-1024h409v-205h-1229v205h410v1024h-410v205h1229zM950 2048h410v-410h-410v410zM336 1638v410h409v-410h-409z" />
    <glyph glyph-name="Idieresis" unicode="&#x3aa;" 
d="M1462 1434v-205h-409v-1024h409v-205h-1229v205h410v1024h-410v205h1229zM950 2048h410v-410h-410v410zM336 1638v410h409v-410h-409z" />
    <glyph glyph-name="Idieresis" unicode="&#xef;" 
d="M1462 1434v-205h-409v-1024h409v-205h-1229v205h410v1024h-410v205h1229zM950 2048h410v-410h-410v410zM336 1638v410h409v-410h-409z" />
    <glyph glyph-name="Eth" unicode="&#xd0;" 
d="M1565 1024v-614h-205v-205h-205v-205h-819v614h-205v205h205v615h819v-205h205v-205h205zM950 819v-205h-205v-409h205v205h205v614h-205v205h-205v-410h205z" />
    <glyph glyph-name="Eth" unicode="&#x111;" 
d="M1565 1024v-614h-205v-205h-205v-205h-819v614h-205v205h205v615h819v-205h205v-205h205zM950 819v-205h-205v-409h205v205h205v614h-205v205h-205v-410h205z" />
    <glyph glyph-name="Eth" unicode="&#x110;" 
d="M1565 1024v-614h-205v-205h-205v-205h-819v614h-205v205h205v615h819v-205h205v-205h205zM950 819v-205h-205v-409h205v205h205v614h-205v205h-205v-410h205z" />
    <glyph glyph-name="Eth" unicode="&#xf0;" 
d="M1565 1024v-614h-205v-205h-205v-205h-819v614h-205v205h205v615h819v-205h205v-205h205zM950 819v-205h-205v-409h205v205h205v614h-205v205h-205v-410h205z" />
    <glyph glyph-name="Ntilde" unicode="&#xd1;" 
d="M1565 1434v-1434h-410v205h-205v205h-205v204h-204v-614h-410v1434h410v-205h204v-205h205v-205h205v615h410zM643 1638h-205v205h205v205h205v-205h-205v-205zM1053 1638h-205v205h205v205h204v-205h-204v-205z" />
    <glyph glyph-name="Ntilde" unicode="&#xf1;" 
d="M1565 1434v-1434h-410v205h-205v205h-205v204h-204v-614h-410v1434h410v-205h204v-205h205v-205h205v615h410zM643 1638h-205v205h205v205h205v-205h-205v-205zM1053 1638h-205v205h205v205h204v-205h-204v-205z" />
    <glyph glyph-name="Ograve" unicode="&#xd2;" 
d="M1565 1229v-1024h-205v-205h-1024v205h-205v1024h205v205h1024v-205h205zM541 205h614v1024h-614v-1024zM1073 1638h-409v205h-205v205h409v-205h205v-205z" />
    <glyph glyph-name="Ograve" unicode="&#xf4d3;" 
d="M1565 1229v-1024h-205v-205h-1024v205h-205v1024h205v205h1024v-205h205zM541 205h614v1024h-614v-1024zM1073 1638h-409v205h-205v205h409v-205h205v-205z" />
    <glyph glyph-name="Ograve" unicode="&#xf4d2;" 
d="M1565 1229v-1024h-205v-205h-1024v205h-205v1024h205v205h1024v-205h205zM541 205h614v1024h-614v-1024zM1073 1638h-409v205h-205v205h409v-205h205v-205z" />
    <glyph glyph-name="Ograve" unicode="&#xf2;" 
d="M1565 1229v-1024h-205v-205h-1024v205h-205v1024h205v205h1024v-205h205zM541 205h614v1024h-614v-1024zM1073 1638h-409v205h-205v205h409v-205h205v-205z" />
    <glyph glyph-name="Oacute" unicode="&#xd3;" 
d="M1565 1229v-1024h-205v-205h-1024v205h-205v1024h205v205h1024v-205h205zM541 205h614v1024h-614v-1024zM1032 1638h-409v205h204v205h410v-205h-205v-205z" />
    <glyph glyph-name="Oacute" unicode="&#xf46d;" 
d="M1565 1229v-1024h-205v-205h-1024v205h-205v1024h205v205h1024v-205h205zM541 205h614v1024h-614v-1024zM1032 1638h-409v205h204v205h410v-205h-205v-205z" />
    <glyph glyph-name="Oacute" unicode="&#xf463;" 
d="M1565 1229v-1024h-205v-205h-1024v205h-205v1024h205v205h1024v-205h205zM541 205h614v1024h-614v-1024zM1032 1638h-409v205h204v205h410v-205h-205v-205z" />
    <glyph glyph-name="Oacute" unicode="&#xf3;" 
d="M1565 1229v-1024h-205v-205h-1024v205h-205v1024h205v205h1024v-205h205zM541 205h614v1024h-614v-1024zM1032 1638h-409v205h204v205h410v-205h-205v-205z" />
    <glyph glyph-name="Ocircumflex" unicode="&#xd4;" 
d="M1565 1229v-1024h-205v-205h-1024v205h-205v1024h205v205h1024v-205h205zM541 205h614v1024h-614v-1024zM745 1638h-409v205h205v205h614v-205h205v-205h-410v205h-205v-205z" />
    <glyph glyph-name="Ocircumflex" unicode="&#xf4;" 
d="M1565 1229v-1024h-205v-205h-1024v205h-205v1024h205v205h1024v-205h205zM541 205h614v1024h-614v-1024zM745 1638h-409v205h205v205h614v-205h205v-205h-410v205h-205v-205z" />
    <glyph glyph-name="Otilde" unicode="&#xd5;" 
d="M1565 1229v-1024h-205v-205h-1024v205h-205v1024h205v205h1024v-205h205zM541 205h614v1024h-614v-1024zM643 1638h-205v205h205v205h205v-205h-205v-205zM1053 1638h-205v205h205v205h204v-205h-204v-205z" />
    <glyph glyph-name="Otilde" unicode="&#xf5;" 
d="M1565 1229v-1024h-205v-205h-1024v205h-205v1024h205v205h1024v-205h205zM541 205h614v1024h-614v-1024zM643 1638h-205v205h205v205h205v-205h-205v-205zM1053 1638h-205v205h205v205h204v-205h-204v-205z" />
    <glyph glyph-name="Odieresis" unicode="&#xd6;" 
d="M1565 1229v-1024h-205v-205h-1024v205h-205v1024h205v205h1024v-205h205zM541 205h614v1024h-614v-1024zM948 2048h410v-410h-410v410zM334 1638v410h409v-410h-409z" />
    <glyph glyph-name="Odieresis" unicode="&#x4e7;" 
d="M1565 1229v-1024h-205v-205h-1024v205h-205v1024h205v205h1024v-205h205zM541 205h614v1024h-614v-1024zM948 2048h410v-410h-410v410zM334 1638v410h409v-410h-409z" />
    <glyph glyph-name="Odieresis" unicode="&#x4e6;" 
d="M1565 1229v-1024h-205v-205h-1024v205h-205v1024h205v205h1024v-205h205zM541 205h614v1024h-614v-1024zM948 2048h410v-410h-410v410zM334 1638v410h409v-410h-409z" />
    <glyph glyph-name="Odieresis" unicode="&#xf6;" 
d="M1565 1229v-1024h-205v-205h-1024v205h-205v1024h205v205h1024v-205h205zM541 205h614v1024h-614v-1024zM948 2048h410v-410h-410v410zM334 1638v410h409v-410h-409z" />
    <glyph glyph-name="multiply" unicode="&#xd7;" 
d="M336 205v409h205v205h-205v410h205v-205h204v-205h205v205h205v205h205v-410h-205v-205h205v-409h-205v205h-205v204h-205v-204h-204v-205h-205z" />
    <glyph glyph-name="Oslash" unicode="&#xd8;" 
d="M1565 1229v-1024h-205v-205h-1024v205h-205v1024h205v205h1024v-205h205zM541 205h614v614h-205v205h205v205h-614v-615h204v-204h-204v-205zM950 819v-205h-205v205h205z" />
    <glyph glyph-name="Oslash" unicode="&#xf8;" 
d="M1565 1229v-1024h-205v-205h-1024v205h-205v1024h205v205h1024v-205h205zM541 205h614v614h-205v205h205v205h-614v-615h204v-204h-204v-205zM950 819v-205h-205v205h205z" />
    <glyph glyph-name="Ugrave" unicode="&#xd9;" 
d="M1565 1434v-1229h-205v-205h-1024v205h-205v1229h410v-1229h614v1229h410zM1073 1638h-409v205h-205v205h409v-205h205v-205z" />
    <glyph glyph-name="Ugrave" unicode="&#xf9;" 
d="M1565 1434v-1229h-205v-205h-1024v205h-205v1229h410v-1229h614v1229h410zM1073 1638h-409v205h-205v205h409v-205h205v-205z" />
    <glyph glyph-name="Uacute" unicode="&#xda;" 
d="M1565 1434v-1229h-205v-205h-1024v205h-205v1229h410v-1229h614v1229h410zM1032 1638h-409v205h204v205h410v-205h-205v-205z" />
    <glyph glyph-name="Uacute" unicode="&#xfa;" 
d="M1565 1434v-1229h-205v-205h-1024v205h-205v1229h410v-1229h614v1229h410zM1032 1638h-409v205h204v205h410v-205h-205v-205z" />
    <glyph glyph-name="Ucircumflex" unicode="&#xdb;" 
d="M1565 1434v-1229h-205v-205h-1024v205h-205v1229h410v-1229h614v1229h410zM745 1638h-409v205h205v205h614v-205h205v-205h-410v205h-205v-205z" />
    <glyph glyph-name="Ucircumflex" unicode="&#xfb;" 
d="M1565 1434v-1229h-205v-205h-1024v205h-205v1229h410v-1229h614v1229h410zM745 1638h-409v205h205v205h614v-205h205v-205h-410v205h-205v-205z" />
    <glyph glyph-name="Udieresis" unicode="&#xdc;" 
d="M1565 1434v-1229h-205v-205h-1024v205h-205v1229h410v-1229h614v1229h410zM948 2048h410v-410h-410v410zM334 1638v410h409v-410h-409z" />
    <glyph glyph-name="Udieresis" unicode="&#xfc;" 
d="M1565 1434v-1229h-205v-205h-1024v205h-205v1229h410v-1229h614v1229h410zM948 2048h410v-410h-410v410zM334 1638v410h409v-410h-409z" />
    <glyph glyph-name="Yacute" unicode="&#xdd;" 
d="M1462 1434v-615h-205v-205h-204v-614h-410v614h-207v205h-203v615h410v-615h410v615h409zM1020 1638h-410v205h205v205h410v-205h-205v-205z" />
    <glyph glyph-name="Yacute" unicode="&#xfd;" 
d="M1462 1434v-615h-205v-205h-204v-614h-410v614h-207v205h-203v615h410v-615h410v615h409zM1020 1638h-410v205h205v205h410v-205h-205v-205z" />
    <glyph glyph-name="Thorn" unicode="&#xde;" 
d="M1565 940v-410h-205v-206h-819v-324h-410v1434h410v-289h819v-205h205zM541 530h614v410h-614v-410z" />
    <glyph glyph-name="Thorn" unicode="&#xfe;" 
d="M1565 940v-410h-205v-206h-819v-324h-410v1434h410v-289h819v-205h205zM541 530h614v410h-614v-410z" />
    <glyph glyph-name="divide" unicode="&#xf7;" 
d="M1462 819v-205h-1229v205h1229zM1053 1229v-205h-410v205h410zM1053 205h-410v205h410v-205z" />
    <glyph glyph-name="Ydieresis" unicode="&#xff;" 
d="M1462 1434v-615h-205v-205h-204v-614h-410v614h-207v205h-203v615h410v-615h410v615h409zM920 2048h409v-410h-409v410zM305 1638v410h410v-410h-410z" />
    <glyph glyph-name="Ydieresis" unicode="&#x3cb;" 
d="M1462 1434v-615h-205v-205h-204v-614h-410v614h-207v205h-203v615h410v-615h410v615h409zM920 2048h409v-410h-409v410zM305 1638v410h410v-410h-410z" />
    <glyph glyph-name="Ydieresis" unicode="&#x3ab;" 
d="M1462 1434v-615h-205v-205h-204v-614h-410v614h-207v205h-203v615h410v-615h410v615h409zM920 2048h409v-410h-409v410zM305 1638v410h410v-410h-410z" />
    <glyph glyph-name="Ydieresis" unicode="&#x178;" 
d="M1462 1434v-615h-205v-205h-204v-614h-410v614h-207v205h-203v615h410v-615h410v615h409zM920 2048h409v-410h-409v410zM305 1638v410h410v-410h-410z" />
    <glyph glyph-name="Amacron" unicode="&#x100;" 
d="M1565 1024v-1024h-410v410h-614v-410h-410v1024h205v205h205v205h614v-205h205v-205h205zM541 614h614v410h-205v205h-205v-205h-204v-410zM1155 1638h-614v205h614v-205z" />
    <glyph glyph-name="Amacron" unicode="&#xf50f;" 
d="M1565 1024v-1024h-410v410h-614v-410h-410v1024h205v205h205v205h614v-205h205v-205h205zM541 614h614v410h-205v205h-205v-205h-204v-410zM1155 1638h-614v205h614v-205z" />
    <glyph glyph-name="Amacron" unicode="&#xf50e;" 
d="M1565 1024v-1024h-410v410h-614v-410h-410v1024h205v205h205v205h614v-205h205v-205h205zM541 614h614v410h-205v205h-205v-205h-204v-410zM1155 1638h-614v205h614v-205z" />
    <glyph glyph-name="Amacron" unicode="&#x101;" 
d="M1565 1024v-1024h-410v410h-614v-410h-410v1024h205v205h205v205h614v-205h205v-205h205zM541 614h614v410h-205v205h-205v-205h-204v-410zM1155 1638h-614v205h614v-205z" />
    <glyph glyph-name="Abreve" unicode="&#x102;" 
d="M1565 1024v-1024h-410v410h-614v-410h-410v1024h205v205h205v205h614v-205h205v-205h205zM541 614h614v410h-205v205h-205v-205h-204v-410zM1049 2048h204v-410h-819v410h205v-205h410v205z" />
    <glyph glyph-name="Abreve" unicode="&#x4d1;" 
d="M1565 1024v-1024h-410v410h-614v-410h-410v1024h205v205h205v205h614v-205h205v-205h205zM541 614h614v410h-205v205h-205v-205h-204v-410zM1049 2048h204v-410h-819v410h205v-205h410v205z" />
    <glyph glyph-name="Abreve" unicode="&#x4d0;" 
d="M1565 1024v-1024h-410v410h-614v-410h-410v1024h205v205h205v205h614v-205h205v-205h205zM541 614h614v410h-205v205h-205v-205h-204v-410zM1049 2048h204v-410h-819v410h205v-205h410v205z" />
    <glyph glyph-name="Abreve" unicode="&#x103;" 
d="M1565 1024v-1024h-410v410h-614v-410h-410v1024h205v205h205v205h614v-205h205v-205h205zM541 614h614v410h-205v205h-205v-205h-204v-410zM1049 2048h204v-410h-819v410h205v-205h410v205z" />
    <glyph glyph-name="Aogonek" unicode="&#x104;" 
d="M1565 0h-410v410h-614v-410h-410v1024h205v205h205v205h614v-205h205v-205h205v-1024zM541 614h614v410h-205v205h-205v-205h-204v-410zM1565 -410h-615v410h205v-205h410v-205z" />
    <glyph glyph-name="Aogonek" unicode="&#x105;" 
d="M1565 0h-410v410h-614v-410h-410v1024h205v205h205v205h614v-205h205v-205h205v-1024zM541 614h614v410h-205v205h-205v-205h-204v-410zM1565 -410h-615v410h205v-205h410v-205z" />
    <glyph glyph-name="Cacute" unicode="&#x106;" 
d="M1565 410v-205h-205v-205h-819v205h-205v205h-205v614h205v205h205v205h819v-205h205v-205h-410v205h-410v-205h-204v-614h204v-205h410v205h410zM1128 1638h-409v205h205v205h409v-205h-205v-205z" />
    <glyph glyph-name="Cacute" unicode="&#x107;" 
d="M1565 410v-205h-205v-205h-819v205h-205v205h-205v614h205v205h205v205h819v-205h205v-205h-410v205h-410v-205h-204v-614h204v-205h410v205h410zM1128 1638h-409v205h205v205h409v-205h-205v-205z" />
    <glyph glyph-name="uni0108" unicode="&#x108;" 
d="M1565 410v-205h-205v-205h-819v205h-205v205h-205v614h205v205h205v205h819v-205h205v-205h-410v205h-410v-205h-204v-614h204v-205h410v205h410zM860 1638h-409v205h204v205h615v-205h205v-205h-410v205h-205v-205z" />
    <glyph glyph-name="uni0108" unicode="&#x109;" 
d="M1565 410v-205h-205v-205h-819v205h-205v205h-205v614h205v205h205v205h819v-205h205v-205h-410v205h-410v-205h-204v-614h204v-205h410v205h410zM860 1638h-409v205h204v205h615v-205h205v-205h-410v205h-205v-205z" />
    <glyph glyph-name="Cdotaccent" unicode="&#x10a;" 
d="M1565 410v-205h-205v-205h-819v205h-205v205h-205v614h205v205h205v205h819v-205h205v-205h-410v205h-410v-205h-204v-614h204v-205h410v205h410zM745 1638v410h410v-410h-410z" />
    <glyph glyph-name="Cdotaccent" unicode="&#x10b;" 
d="M1565 410v-205h-205v-205h-819v205h-205v205h-205v614h205v205h205v205h819v-205h205v-205h-410v205h-410v-205h-204v-614h204v-205h410v205h410zM745 1638v410h410v-410h-410z" />
    <glyph glyph-name="Ccaron" unicode="&#x10c;" 
d="M1565 410v-205h-205v-205h-819v205h-205v205h-205v614h205v205h205v205h819v-205h205v-205h-410v205h-410v-205h-204v-614h204v-205h410v205h410zM1049 2048h409v-205h-205v-205h-614v205h-205v205h410v-205h205v205z" />
    <glyph glyph-name="Ccaron" unicode="&#x10d;" 
d="M1565 410v-205h-205v-205h-819v205h-205v205h-205v614h205v205h205v205h819v-205h205v-205h-410v205h-410v-205h-204v-614h204v-205h410v205h410zM1049 2048h409v-205h-205v-205h-614v205h-205v205h410v-205h205v205z" />
    <glyph glyph-name="Dcaron" unicode="&#x10e;" 
d="M1565 1024v-614h-205v-205h-205v-205h-1024v1434h1024v-205h205v-205h205zM950 410h205v614h-205v205h-409v-1024h409v205zM844 2048h409v-205h-204v-205h-615v205h-205v205h410v-205h205v205z" />
    <glyph glyph-name="Dcaron" unicode="&#x10f;" 
d="M1565 1024v-614h-205v-205h-205v-205h-1024v1434h1024v-205h205v-205h205zM950 410h205v614h-205v205h-409v-1024h409v205zM844 2048h409v-205h-204v-205h-615v205h-205v205h410v-205h205v205z" />
    <glyph glyph-name="Emacron" unicode="&#x112;" 
d="M1565 205v-205h-1434v1434h1434v-205h-1024v-410h819v-205h-819v-409h1024zM1155 1638h-614v205h614v-205z" />
    <glyph glyph-name="Emacron" unicode="&#xf511;" 
d="M1565 205v-205h-1434v1434h1434v-205h-1024v-410h819v-205h-819v-409h1024zM1155 1638h-614v205h614v-205z" />
    <glyph glyph-name="Emacron" unicode="&#xf510;" 
d="M1565 205v-205h-1434v1434h1434v-205h-1024v-410h819v-205h-819v-409h1024zM1155 1638h-614v205h614v-205z" />
    <glyph glyph-name="Emacron" unicode="&#x113;" 
d="M1565 205v-205h-1434v1434h1434v-205h-1024v-410h819v-205h-819v-409h1024zM1155 1638h-614v205h614v-205z" />
    <glyph glyph-name="Ebreve" unicode="&#x114;" 
d="M1565 205v-205h-1434v1434h1434v-205h-1024v-410h819v-205h-819v-409h1024zM1071 2048h205v-410h-819v410h205v-205h409v205z" />
    <glyph glyph-name="Ebreve" unicode="&#x4d7;" 
d="M1565 205v-205h-1434v1434h1434v-205h-1024v-410h819v-205h-819v-409h1024zM1071 2048h205v-410h-819v410h205v-205h409v205z" />
    <glyph glyph-name="Ebreve" unicode="&#x4d6;" 
d="M1565 205v-205h-1434v1434h1434v-205h-1024v-410h819v-205h-819v-409h1024zM1071 2048h205v-410h-819v410h205v-205h409v205z" />
    <glyph glyph-name="Ebreve" unicode="&#x115;" 
d="M1565 205v-205h-1434v1434h1434v-205h-1024v-410h819v-205h-819v-409h1024zM1071 2048h205v-410h-819v410h205v-205h409v205z" />
    <glyph glyph-name="Edotaccent" unicode="&#x116;" 
d="M1565 205v-205h-1434v1434h1434v-205h-1024v-410h819v-205h-819v-409h1024zM662 1638v410h409v-410h-409z" />
    <glyph glyph-name="Edotaccent" unicode="&#x117;" 
d="M1565 205v-205h-1434v1434h1434v-205h-1024v-410h819v-205h-819v-409h1024zM662 1638v410h409v-410h-409z" />
    <glyph glyph-name="Eogonek" unicode="&#x118;" 
d="M1565 -410h-615v410h-819v1434h1434v-205h-1024v-410h819v-205h-819v-409h1024v-205h-410v-205h410v-205z" />
    <glyph glyph-name="Eogonek" unicode="&#x119;" 
d="M1565 -410h-615v410h-819v1434h1434v-205h-1024v-410h819v-205h-819v-409h1024v-205h-410v-205h410v-205z" />
    <glyph glyph-name="Ecaron" unicode="&#x11a;" 
d="M1565 205v-205h-1434v1434h1434v-205h-1024v-410h819v-205h-819v-409h1024zM950 2048h410v-205h-205v-205h-614v205h-205v205h409v-205h205v205z" />
    <glyph glyph-name="Ecaron" unicode="&#x11b;" 
d="M1565 205v-205h-1434v1434h1434v-205h-1024v-410h819v-205h-819v-409h1024zM950 2048h410v-205h-205v-205h-614v205h-205v205h409v-205h205v205z" />
    <glyph glyph-name="uni011C" unicode="&#x11c;" 
d="M1565 819v-819h-1024v209h-205v201h-205v614h205v205h205v205h1024v-205h-820v-205h-204v-614h204v-205h410v409h-205v205h615zM745 1638h-409v205h205v205h614v-205h205v-205h-410v205h-205v-205z" />
    <glyph glyph-name="uni011C" unicode="&#x11d;" 
d="M1565 819v-819h-1024v209h-205v201h-205v614h205v205h205v205h1024v-205h-820v-205h-204v-614h204v-205h410v409h-205v205h615zM745 1638h-409v205h205v205h614v-205h205v-205h-410v205h-205v-205z" />
    <glyph glyph-name="Gbreve" unicode="&#x11e;" 
d="M1565 819v-819h-1024v209h-205v201h-205v614h205v205h205v205h1024v-205h-820v-205h-204v-614h204v-205h410v409h-205v205h615zM1153 2048h205v-410h-819v410h204v-205h410v205z" />
    <glyph glyph-name="Gbreve" unicode="&#x11f;" 
d="M1565 819v-819h-1024v209h-205v201h-205v614h205v205h205v205h1024v-205h-820v-205h-204v-614h204v-205h410v409h-205v205h615zM1153 2048h205v-410h-819v410h204v-205h410v205z" />
    <glyph glyph-name="Gdotaccent" unicode="&#x120;" 
d="M1565 819v-819h-1024v209h-205v201h-205v614h205v205h205v205h1024v-205h-820v-205h-204v-614h204v-205h410v409h-205v205h615zM745 1638v410h410v-410h-410z" />
    <glyph glyph-name="Gdotaccent" unicode="&#x121;" 
d="M1565 819v-819h-1024v209h-205v201h-205v614h205v205h205v205h1024v-205h-820v-205h-204v-614h204v-205h410v409h-205v205h615zM745 1638v410h410v-410h-410z" />
    <glyph glyph-name="Gcommaaccent" unicode="&#x122;" 
d="M1565 819v-819h-410v-205h-205v-205h-409v205h204v205h-204v209h-205v201h-205v614h205v205h205v205h1024v-205h-820v-205h-204v-614h204v-205h410v409h-205v205h615z" />
    <glyph glyph-name="Gcommaaccent" unicode="&#x123;" 
d="M1565 819v-819h-410v-205h-205v-205h-409v205h204v205h-204v209h-205v201h-205v614h205v205h205v205h1024v-205h-820v-205h-204v-614h204v-205h410v409h-205v205h615z" />
    <glyph glyph-name="uni0124" unicode="&#x124;" 
d="M1565 1434v-1434h-410v614h-614v-614h-410v1434h410v-615h614v615h410zM745 1638h-409v205h205v205h614v-205h205v-205h-410v205h-205v-205z" />
    <glyph glyph-name="uni0124" unicode="&#x125;" 
d="M1565 1434v-1434h-410v614h-614v-614h-410v1434h410v-615h614v615h410zM745 1638h-409v205h205v205h614v-205h205v-205h-410v205h-205v-205z" />
    <glyph glyph-name="Hbar" unicode="&#x126;" 
d="M1696 1024h-131v-1024h-410v614h-614v-614h-410v1024h-131v205h131v205h410v-205h614v205h410v-205h131v-205zM541 819h614v205h-614v-205z" />
    <glyph glyph-name="Hbar" unicode="&#x127;" 
d="M1696 1024h-131v-1024h-410v614h-614v-614h-410v1024h-131v205h131v205h410v-205h614v205h410v-205h131v-205zM541 819h614v205h-614v-205z" />
    <glyph glyph-name="Itilde" unicode="&#x128;" 
d="M1462 1434v-205h-409v-1024h409v-205h-1229v205h410v1024h-410v205h1229zM643 1638h-205v205h205v205h205v-205h-205v-205zM1053 1638h-205v205h205v205h204v-205h-204v-205z" />
    <glyph glyph-name="Itilde" unicode="&#x129;" 
d="M1462 1434v-205h-409v-1024h409v-205h-1229v205h410v1024h-410v205h1229zM643 1638h-205v205h205v205h205v-205h-205v-205zM1053 1638h-205v205h205v205h204v-205h-204v-205z" />
    <glyph glyph-name="Imacron" unicode="&#x12a;" 
d="M1462 1434v-205h-409v-1024h409v-205h-1229v205h410v1024h-410v205h1229zM1155 1638h-614v205h614v-205z" />
    <glyph glyph-name="Imacron" unicode="&#x12b;" 
d="M1462 1434v-205h-409v-1024h409v-205h-1229v205h410v1024h-410v205h1229zM1155 1638h-614v205h614v-205z" />
    <glyph glyph-name="Ibreve" unicode="&#x12c;" 
d="M1462 1434v-205h-409v-1024h409v-205h-1229v205h410v1024h-410v205h1229zM1055 2048h205v-410h-820v410h205v-205h410v205z" />
    <glyph glyph-name="Ibreve" unicode="&#x12d;" 
d="M1462 1434v-205h-409v-1024h409v-205h-1229v205h410v1024h-410v205h1229zM1055 2048h205v-410h-820v410h205v-205h410v205z" />
    <glyph glyph-name="Iogonek" unicode="&#x12e;" 
d="M1462 -410h-614v410h-615v205h410v1024h-410v205h1229v-205h-409v-1024h409v-205h-409v-205h409v-205z" />
    <glyph glyph-name="Iogonek" unicode="&#x12f;" 
d="M1462 -410h-614v410h-615v205h410v1024h-410v205h1229v-205h-409v-1024h409v-205h-409v-205h409v-205z" />
    <glyph glyph-name="Idotaccent" unicode="&#x130;" 
d="M1462 1434v-205h-409v-1024h409v-205h-1229v205h410v1024h-410v205h1229zM643 1638v410h410v-410h-410z" />
    <glyph glyph-name="IJ" unicode="&#x132;" 
d="M78 1434h409v-1434h-409v1434zM1630 1434v-1225h-207v-209h-653v205h-201v205h408v-205h242v1229h411z" />
    <glyph glyph-name="IJ" unicode="&#x133;" 
d="M78 1434h409v-1434h-409v1434zM1630 1434v-1225h-207v-209h-653v205h-201v205h408v-205h242v1229h411z" />
    <glyph glyph-name="uni0134" unicode="&#x134;" 
d="M1565 1434v-1229h-205v-205h-1024v205h-205v205h410v-205h614v1229h410zM950 1638h-409v205h204v205h615v-205h205v-205h-410v205h-205v-205z" />
    <glyph glyph-name="uni0134" unicode="&#x135;" 
d="M1565 1434v-1229h-205v-205h-1024v205h-205v205h410v-205h614v1229h410zM950 1638h-409v205h204v205h615v-205h205v-205h-410v205h-205v-205z" />
    <glyph glyph-name="Kcommaaccent" unicode="&#x136;" 
d="M1565 205v-205h-615v205h-205v205h-204v-410h-410v1434h410v-615h204v205h205v205h205v205h410v-205h-205v-205h-205v-205h-205v-205h205v-204h205v-205h205zM745 -410h-409v205h205v205h409v-205h-205v-205z" />
    <glyph glyph-name="Kcommaaccent" unicode="&#x137;" 
d="M1565 205v-205h-615v205h-205v205h-204v-410h-410v1434h410v-615h204v205h205v205h205v205h410v-205h-205v-205h-205v-205h-205v-205h205v-204h205v-205h205zM745 -410h-409v205h205v205h409v-205h-205v-205z" />
    <glyph glyph-name="Lacute" unicode="&#x139;" 
d="M1565 205v-205h-1434v1434h410v-1229h1024zM541 1638h-410v205h205v205h409v-205h-204v-205z" />
    <glyph glyph-name="Lacute" unicode="&#x13a;" 
d="M1565 205v-205h-1434v1434h410v-1229h1024zM541 1638h-410v205h205v205h409v-205h-204v-205z" />
    <glyph glyph-name="Lcommaaccent" unicode="&#x13b;" 
d="M950 -410h-409v205h204v205h-614v1434h410v-1229h1024v-205h-410v-205h-205v-205z" />
    <glyph glyph-name="Lcommaaccent" unicode="&#x13c;" 
d="M950 -410h-409v205h204v205h-614v1434h410v-1229h1024v-205h-410v-205h-205v-205z" />
    <glyph glyph-name="Lcaron" unicode="&#x13d;" 
d="M1565 205v-205h-1434v1434h410v-1229h1024zM1360 1434v-615h-205v205h-205v410h410zM1155 819v-205h-205v205h205z" />
    <glyph glyph-name="Lcaron" unicode="&#x13e;" 
d="M1565 205v-205h-1434v1434h410v-1229h1024zM1360 1434v-615h-205v205h-205v410h410zM1155 819v-205h-205v205h205z" />
    <glyph glyph-name="Lslash" unicode="&#x141;" 
d="M1565 205v-205h-1229v410h-205v204h205v820h409v-410h205v-205h-205v-614h820z" />
    <glyph glyph-name="Lslash" unicode="&#x142;" 
d="M1565 205v-205h-1229v410h-205v204h205v820h409v-410h205v-205h-205v-614h820z" />
    <glyph glyph-name="Nacute" unicode="&#x143;" 
d="M1565 1434v-1434h-410v205h-205v205h-205v204h-204v-614h-410v1434h410v-205h204v-205h205v-205h205v615h410zM1032 1638h-409v205h204v205h410v-205h-205v-205z" />
    <glyph glyph-name="Nacute" unicode="&#x144;" 
d="M1565 1434v-1434h-410v205h-205v205h-205v204h-204v-614h-410v1434h410v-205h204v-205h205v-205h205v615h410zM1032 1638h-409v205h204v205h410v-205h-205v-205z" />
    <glyph glyph-name="Ncommaaccent" unicode="&#x145;" 
d="M1565 1434v-1434h-410v205h-205v205h-205v204h-204v-614h-410v1434h410v-205h204v-205h205v-205h205v615h410zM848 -410h-410v205h205v205h410v-205h-205v-205z" />
    <glyph glyph-name="Ncommaaccent" unicode="&#x146;" 
d="M1565 1434v-1434h-410v205h-205v205h-205v204h-204v-614h-410v1434h410v-205h204v-205h205v-205h205v615h410zM848 -410h-410v205h205v205h410v-205h-205v-205z" />
    <glyph glyph-name="Ncaron" unicode="&#x147;" 
d="M1565 1434v-1434h-410v205h-205v205h-205v204h-204v-614h-410v1434h410v-205h204v-205h205v-205h205v615h410zM950 2048h410v-205h-205v-205h-614v205h-205v205h409v-205h205v205z" />
    <glyph glyph-name="Ncaron" unicode="&#x148;" 
d="M1565 1434v-1434h-410v205h-205v205h-205v204h-204v-614h-410v1434h410v-205h204v-205h205v-205h205v615h410zM950 2048h410v-205h-205v-205h-614v205h-205v205h409v-205h205v205z" />
    <glyph glyph-name="Eng" unicode="&#x14a;" 
d="M1565 1229v-1434h-205v-205h-615v205h410v1434h-614v-1229h-410v1434h1229v-205h205z" />
    <glyph glyph-name="Eng" unicode="&#x14b;" 
d="M1565 1229v-1434h-205v-205h-615v205h410v1434h-614v-1229h-410v1434h1229v-205h205z" />
    <glyph glyph-name="Omacron" unicode="&#x14c;" 
d="M1565 1229v-1024h-205v-205h-1024v205h-205v1024h205v205h1024v-205h205zM541 205h614v1024h-614v-1024zM1155 1638h-614v205h614v-205z" />
    <glyph glyph-name="Omacron" unicode="&#xf519;" 
d="M1565 1229v-1024h-205v-205h-1024v205h-205v1024h205v205h1024v-205h205zM541 205h614v1024h-614v-1024zM1155 1638h-614v205h614v-205z" />
    <glyph glyph-name="Omacron" unicode="&#xf518;" 
d="M1565 1229v-1024h-205v-205h-1024v205h-205v1024h205v205h1024v-205h205zM541 205h614v1024h-614v-1024zM1155 1638h-614v205h614v-205z" />
    <glyph glyph-name="Omacron" unicode="&#x14d;" 
d="M1565 1229v-1024h-205v-205h-1024v205h-205v1024h205v205h1024v-205h205zM541 205h614v1024h-614v-1024zM1155 1638h-614v205h614v-205z" />
    <glyph glyph-name="Obreve" unicode="&#x14e;" 
d="M1565 1229v-1024h-205v-205h-1024v205h-205v1024h205v205h1024v-205h205zM541 205h614v1024h-614v-1024zM1053 2048h204v-410h-819v410h205v-205h410v205z" />
    <glyph glyph-name="Obreve" unicode="&#xf51b;" 
d="M1565 1229v-1024h-205v-205h-1024v205h-205v1024h205v205h1024v-205h205zM541 205h614v1024h-614v-1024zM1053 2048h204v-410h-819v410h205v-205h410v205z" />
    <glyph glyph-name="Obreve" unicode="&#xf51a;" 
d="M1565 1229v-1024h-205v-205h-1024v205h-205v1024h205v205h1024v-205h205zM541 205h614v1024h-614v-1024zM1053 2048h204v-410h-819v410h205v-205h410v205z" />
    <glyph glyph-name="Obreve" unicode="&#x14f;" 
d="M1565 1229v-1024h-205v-205h-1024v205h-205v1024h205v205h1024v-205h205zM541 205h614v1024h-614v-1024zM1053 2048h204v-410h-819v410h205v-205h410v205z" />
    <glyph glyph-name="Ohungarumlaut" unicode="&#x150;" 
d="M1565 1229v-1024h-205v-205h-1024v205h-205v1024h205v205h1024v-205h205zM541 205h614v1024h-614v-1024zM745 1638h-409v205h205v205h409v-205h-205v-205zM1360 1638h-410v205h205v205h410v-205h-205v-205z" />
    <glyph glyph-name="Ohungarumlaut" unicode="&#x151;" 
d="M1565 1229v-1024h-205v-205h-1024v205h-205v1024h205v205h1024v-205h205zM541 205h614v1024h-614v-1024zM745 1638h-409v205h205v205h409v-205h-205v-205zM1360 1638h-410v205h205v205h410v-205h-205v-205z" />
    <glyph glyph-name="OE" unicode="&#x152;" 
d="M1649 205v-205h-1407v205h-205v1024h205v205h1407v-205h-500v-410h397v-205h-397v-409h500zM446 205h291v1024h-291v-1024z" />
    <glyph glyph-name="OE" unicode="&#x153;" 
d="M1649 205v-205h-1407v205h-205v1024h205v205h1407v-205h-500v-410h397v-205h-397v-409h500zM446 205h291v1024h-291v-1024z" />
    <glyph glyph-name="Racute" unicode="&#x154;" 
d="M1565 205v-205h-615v205h-205v205h-204v-410h-410v1434h1229v-205h205v-615h-410v-204h205v-205h205zM950 819h205v410h-614v-615h409v205zM950 1638h-409v205h204v205h410v-205h-205v-205z" />
    <glyph glyph-name="Racute" unicode="&#x155;" 
d="M1565 205v-205h-615v205h-205v205h-204v-410h-410v1434h1229v-205h205v-615h-410v-204h205v-205h205zM950 819h205v410h-614v-615h409v205zM950 1638h-409v205h204v205h410v-205h-205v-205z" />
    <glyph glyph-name="Rcommaaccent" unicode="&#x156;" 
d="M1565 205v-205h-615v205h-205v205h-204v-410h-410v1434h1229v-205h205v-615h-410v-204h205v-205h205zM950 819h205v410h-614v-615h409v205zM745 -410h-409v205h205v205h409v-205h-205v-205z" />
    <glyph glyph-name="Rcommaaccent" unicode="&#x157;" 
d="M1565 205v-205h-615v205h-205v205h-204v-410h-410v1434h1229v-205h205v-615h-410v-204h205v-205h205zM950 819h205v410h-614v-615h409v205zM745 -410h-409v205h205v205h409v-205h-205v-205z" />
    <glyph glyph-name="Rcaron" unicode="&#x158;" 
d="M1565 205v-205h-615v205h-205v205h-204v-410h-410v1434h1229v-205h205v-615h-410v-204h205v-205h205zM950 819h205v410h-614v-615h409v205zM887 2048h409v-205h-204v-205h-615v205h-205v205h410v-205h205v205z" />
    <glyph glyph-name="Rcaron" unicode="&#x159;" 
d="M1565 205v-205h-615v205h-205v205h-204v-410h-410v1434h1229v-205h205v-615h-410v-204h205v-205h205zM950 819h205v410h-614v-615h409v205zM887 2048h409v-205h-204v-205h-615v205h-205v205h410v-205h205v205z" />
    <glyph glyph-name="Sacute" unicode="&#x15a;" 
d="M1565 614v-409h-205v-205h-1024v205h-205v205h410v-205h614v409h-819v205h-205v410h205v205h819v-205h205v-205h-410v205h-409v-410h819v-205h205zM950 1638h-409v205h204v205h410v-205h-205v-205z" />
    <glyph glyph-name="Sacute" unicode="&#x15b;" 
d="M1565 614v-409h-205v-205h-1024v205h-205v205h410v-205h614v409h-819v205h-205v410h205v205h819v-205h205v-205h-410v205h-409v-410h819v-205h205zM950 1638h-409v205h204v205h410v-205h-205v-205z" />
    <glyph glyph-name="Scircumflex" unicode="&#x15c;" 
d="M1565 614v-409h-205v-205h-1024v205h-205v205h410v-205h614v409h-819v205h-205v410h205v205h819v-205h205v-205h-410v205h-409v-410h819v-205h205zM745 1638h-409v205h205v205h614v-205h205v-205h-410v205h-205v-205z" />
    <glyph glyph-name="Scircumflex" unicode="&#x15d;" 
d="M1565 614v-409h-205v-205h-1024v205h-205v205h410v-205h614v409h-819v205h-205v410h205v205h819v-205h205v-205h-410v205h-409v-410h819v-205h205zM745 1638h-409v205h205v205h614v-205h205v-205h-410v205h-205v-205z" />
    <glyph glyph-name="Scedilla" unicode="&#x15e;" 
d="M1565 614v-409h-205v-205h-205v-205h-207v-205h-407v205h204v205h-409v205h-205v205h410v-205h614v409h-819v205h-205v410h205v205h819v-205h205v-205h-410v205h-409v-410h819v-205h205z" />
    <glyph glyph-name="Scedilla" unicode="&#x219;" 
d="M1565 614v-409h-205v-205h-205v-205h-207v-205h-407v205h204v205h-409v205h-205v205h410v-205h614v409h-819v205h-205v410h205v205h819v-205h205v-205h-410v205h-409v-410h819v-205h205z" />
    <glyph glyph-name="Scedilla" unicode="&#x218;" 
d="M1565 614v-409h-205v-205h-205v-205h-207v-205h-407v205h204v205h-409v205h-205v205h410v-205h614v409h-819v205h-205v410h205v205h819v-205h205v-205h-410v205h-409v-410h819v-205h205z" />
    <glyph glyph-name="Scedilla" unicode="&#x15f;" 
d="M1565 614v-409h-205v-205h-205v-205h-207v-205h-407v205h204v205h-409v205h-205v205h410v-205h614v409h-819v205h-205v410h205v205h819v-205h205v-205h-410v205h-409v-410h819v-205h205z" />
    <glyph glyph-name="Scaron" unicode="&#x160;" 
d="M1565 614v-409h-205v-205h-1024v205h-205v205h410v-205h614v409h-819v205h-205v410h205v205h819v-205h205v-205h-410v205h-409v-410h819v-205h205zM922 2048h409v-205h-205v-205h-614v205h-205v205h410v-205h205v205z" />
    <glyph glyph-name="Scaron" unicode="&#x161;" 
d="M1565 614v-409h-205v-205h-1024v205h-205v205h410v-205h614v409h-819v205h-205v410h205v205h819v-205h205v-205h-410v205h-409v-410h819v-205h205zM922 2048h409v-205h-205v-205h-614v205h-205v205h410v-205h205v205z" />
    <glyph glyph-name="Tcommaaccent" unicode="&#x162;" 
d="M1462 1434v-205h-409v-1434h-205v-205h-410v205h205v1434h-410v205h1229z" />
    <glyph glyph-name="Tcommaaccent" unicode="&#x21b;" 
d="M1462 1434v-205h-409v-1434h-205v-205h-410v205h205v1434h-410v205h1229z" />
    <glyph glyph-name="Tcommaaccent" unicode="&#x21a;" 
d="M1462 1434v-205h-409v-1434h-205v-205h-410v205h205v1434h-410v205h1229z" />
    <glyph glyph-name="Tcommaaccent" unicode="&#x163;" 
d="M1462 1434v-205h-409v-1434h-205v-205h-410v205h205v1434h-410v205h1229z" />
    <glyph glyph-name="Tcaron" unicode="&#x164;" 
d="M1462 1434v-205h-409v-1229h-410v1229h-410v205h1229zM952 2048h410v-205h-205v-205h-614v205h-205v205h410v-205h204v205z" />
    <glyph glyph-name="Tcaron" unicode="&#x165;" 
d="M1462 1434v-205h-409v-1229h-410v1229h-410v205h1229zM952 2048h410v-205h-205v-205h-614v205h-205v205h410v-205h204v205z" />
    <glyph glyph-name="Tbar" unicode="&#x166;" 
d="M1462 819v-205h-409v-614h-410v614h-410v205h410v410h-410v205h1229v-205h-409v-410h409z" />
    <glyph glyph-name="Tbar" unicode="&#x167;" 
d="M1462 819v-205h-409v-614h-410v614h-410v205h410v410h-410v205h1229v-205h-409v-410h409z" />
    <glyph glyph-name="Utilde" unicode="&#x168;" 
d="M1565 1434v-1229h-205v-205h-1024v205h-205v1229h410v-1229h614v1229h410zM643 1638h-205v205h205v205h205v-205h-205v-205zM1053 1638h-205v205h205v205h204v-205h-204v-205z" />
    <glyph glyph-name="Utilde" unicode="&#x169;" 
d="M1565 1434v-1229h-205v-205h-1024v205h-205v1229h410v-1229h614v1229h410zM643 1638h-205v205h205v205h205v-205h-205v-205zM1053 1638h-205v205h205v205h204v-205h-204v-205z" />
    <glyph glyph-name="Umacron" unicode="&#x16a;" 
d="M1565 1434v-1229h-205v-205h-1024v205h-205v1229h410v-1229h614v1229h410zM1155 1638h-614v205h614v-205z" />
    <glyph glyph-name="Umacron" unicode="&#x16b;" 
d="M1565 1434v-1229h-205v-205h-1024v205h-205v1229h410v-1229h614v1229h410zM1155 1638h-614v205h614v-205z" />
    <glyph glyph-name="Ubreve" unicode="&#x16c;" 
d="M1565 1434v-1229h-205v-205h-1024v205h-205v1229h410v-1229h614v1229h410zM1053 2048h204v-410h-819v410h205v-205h410v205z" />
    <glyph glyph-name="Ubreve" unicode="&#x16d;" 
d="M1565 1434v-1229h-205v-205h-1024v205h-205v1229h410v-1229h614v1229h410zM1053 2048h204v-410h-819v410h205v-205h410v205z" />
    <glyph glyph-name="Uring" unicode="&#x16e;" 
d="M1565 1434v-1229h-205v-205h-1024v205h-205v1229h410v-1229h614v1229h410zM1153 2048v-614h-614v614h614zM743 1638h205v205h-205v-205z" />
    <glyph glyph-name="Uring" unicode="&#x16f;" 
d="M1565 1434v-1229h-205v-205h-1024v205h-205v1229h410v-1229h614v1229h410zM1153 2048v-614h-614v614h614zM743 1638h205v205h-205v-205z" />
    <glyph glyph-name="Uhungarumlaut" unicode="&#x170;" 
d="M1565 1434v-1229h-205v-205h-1024v205h-205v1229h410v-1229h614v1229h410zM725 1638h-410v205h205v205h410v-205h-205v-205zM1339 1638h-409v205h205v205h409v-205h-205v-205z" />
    <glyph glyph-name="Uhungarumlaut" unicode="&#x171;" 
d="M1565 1434v-1229h-205v-205h-1024v205h-205v1229h410v-1229h614v1229h410zM725 1638h-410v205h205v205h410v-205h-205v-205zM1339 1638h-409v205h205v205h409v-205h-205v-205z" />
    <glyph glyph-name="Uogonek" unicode="&#x172;" 
d="M1360 -410h-615v410h-409v205h-205v1229h410v-1229h614v1229h410v-1229h-205v-205h-410v-205h410v-205z" />
    <glyph glyph-name="Uogonek" unicode="&#x173;" 
d="M1360 -410h-615v410h-409v205h-205v1229h410v-1229h614v1229h410v-1229h-205v-205h-410v-205h410v-205z" />
    <glyph glyph-name="Wcircumflex" unicode="&#x174;" 
d="M1565 1434v-1434h-410v205h-205v205h-205v-205h-204v-205h-410v1434h410v-615h204v205h205v-205h205v615h410zM745 1638h-409v205h205v205h614v-205h205v-205h-410v205h-205v-205z" />
    <glyph glyph-name="Wcircumflex" unicode="&#x175;" 
d="M1565 1434v-1434h-410v205h-205v205h-205v-205h-204v-205h-410v1434h410v-615h204v205h205v-205h205v615h410zM745 1638h-409v205h205v205h614v-205h205v-205h-410v205h-205v-205z" />
    <glyph glyph-name="Ycircumflex" unicode="&#x176;" 
d="M1462 1434v-615h-205v-205h-204v-614h-410v614h-207v205h-203v615h410v-615h410v615h409zM717 1638h-410v205h205v205h614v-205h205v-205h-409v205h-205v-205z" />
    <glyph glyph-name="Ycircumflex" unicode="&#x177;" 
d="M1462 1434v-615h-205v-205h-204v-614h-410v614h-207v205h-203v615h410v-615h410v615h409zM717 1638h-410v205h205v205h614v-205h205v-205h-409v205h-205v-205z" />
    <glyph glyph-name="Zacute" unicode="&#x179;" 
d="M1565 205v-205h-1434v410h205v204h205v205h204v205h205v205h-819v205h1434v-410h-205v-205h-205v-205h-205v-204h-205v-205h820zM1018 1638h-410v205h205v205h410v-205h-205v-205z" />
    <glyph glyph-name="Zacute" unicode="&#x17a;" 
d="M1565 205v-205h-1434v410h205v204h205v205h204v205h205v205h-819v205h1434v-410h-205v-205h-205v-205h-205v-204h-205v-205h820zM1018 1638h-410v205h205v205h410v-205h-205v-205z" />
    <glyph glyph-name="Zdotaccent" unicode="&#x17b;" 
d="M1565 205v-205h-1434v410h205v204h205v205h204v205h205v205h-819v205h1434v-410h-205v-205h-205v-205h-205v-204h-205v-205h820zM629 1638v410h409v-410h-409z" />
    <glyph glyph-name="Zdotaccent" unicode="&#x17c;" 
d="M1565 205v-205h-1434v410h205v204h205v205h204v205h205v205h-819v205h1434v-410h-205v-205h-205v-205h-205v-204h-205v-205h820zM629 1638v410h409v-410h-409z" />
    <glyph glyph-name="Zcaron" unicode="&#x17d;" 
d="M1565 205v-205h-1434v410h205v204h205v205h204v205h205v205h-819v205h1434v-410h-205v-205h-205v-205h-205v-204h-205v-205h820zM918 2048h409v-205h-205v-205h-614v205h-205v205h410v-205h205v205z" />
    <glyph glyph-name="Zcaron" unicode="&#x17e;" 
d="M1565 205v-205h-1434v410h205v204h205v205h204v205h205v205h-819v205h1434v-410h-205v-205h-205v-205h-205v-204h-205v-205h820zM918 2048h409v-205h-205v-205h-614v205h-205v205h410v-205h205v205z" />
    <glyph glyph-name="uni0181" unicode="&#x181;" 
d="M336 1229v205h1024v-205h205v-410h-205v-205h205v-409h-205v-205h-819v1229h-205zM131 819v410h205v-410h-205zM950 819h205v410h-205v-410zM950 205h205v409h-205v-409z" />
    <glyph glyph-name="uni0181" unicode="&#x253;" 
d="M336 1229v205h1024v-205h205v-410h-205v-205h205v-409h-205v-205h-819v1229h-205zM131 819v410h205v-410h-205zM950 819h205v410h-205v-410zM950 205h205v409h-205v-409z" />
    <glyph glyph-name="uni0187" unicode="&#x187;" 
d="M748 1229v-205h-207v-614h204v-205h410v205h410v-205h-205v-205h-819v205h-205v205h-205v614h205v205h205v205h614v204h410v-204h-205v-205h-612z" />
    <glyph glyph-name="uni0187" unicode="&#x188;" 
d="M748 1229v-205h-207v-614h204v-205h410v205h410v-205h-205v-205h-819v205h-205v205h-205v614h205v205h205v205h614v204h410v-204h-205v-205h-612z" />
    <glyph glyph-name="uni018A" unicode="&#x18a;" 
d="M1155 1229h-205v-1024h205v-205h-614v1229h-205v205h819v-205h205v-205h205v-614h-205v614h-205v205zM131 819v410h205v-410h-205zM1360 205h-205v205h205v-205z" />
    <glyph glyph-name="uni018A" unicode="&#x257;" 
d="M1155 1229h-205v-1024h205v-205h-614v1229h-205v205h819v-205h205v-205h205v-614h-205v614h-205v205zM131 819v410h205v-410h-205zM1360 205h-205v205h205v-205z" />
    <glyph glyph-name="uni018E" unicode="&#x18e;" 
d="M131 1229v205h1434v-1434h-1434v205h1024v409h-819v205h819v410h-1024z" />
    <glyph glyph-name="uni018E" unicode="&#x1dd;" 
d="M131 1229v205h1434v-1434h-1434v205h1024v409h-819v205h819v410h-1024z" />
    <glyph glyph-name="uni018F" unicode="&#x18f;" 
d="M131 1024v205h205v205h1024v-205h205v-1024h-205v-205h-1024v205h-205v614h1024v410h-614v-205h-410zM1155 614h-614v-409h614v409z" />
    <glyph glyph-name="uni018F" unicode="&#x4d9;" 
d="M131 1024v205h205v205h1024v-205h205v-1024h-205v-205h-1024v205h-205v614h1024v410h-614v-205h-410zM1155 614h-614v-409h614v409z" />
    <glyph glyph-name="uni018F" unicode="&#x4d8;" 
d="M131 1024v205h205v205h1024v-205h205v-1024h-205v-205h-1024v205h-205v614h1024v410h-614v-205h-410zM1155 614h-614v-409h614v409z" />
    <glyph glyph-name="uni018F" unicode="&#x259;" 
d="M131 1024v205h205v205h1024v-205h205v-1024h-205v-205h-1024v205h-205v614h1024v410h-614v-205h-410zM1155 614h-614v-409h614v409z" />
    <glyph glyph-name="florin" unicode="&#x192;" 
d="M1255 819v-205h-202v-819h-205v-205h-410v205h205v819h-205v205h205v615h205v204h409v-204h-204v-615h202z" />
    <glyph glyph-name="uni0194" unicode="&#x194;" 
d="M541 -410v205h-205v205h205v205h204v205h-204v204h-205v205h-205v615h410v-410h204v-205h205v205h205v410h410v-615h-205v-205h-205v-204h-205v-205h205v-205h205v-205h-205v-205h-614zM950 -205v205h-205v-205h205z" />
    <glyph glyph-name="uni0194" unicode="&#x263;" 
d="M541 -410v205h-205v205h205v205h204v205h-204v204h-205v205h-205v615h410v-410h204v-205h205v205h205v410h410v-615h-205v-205h-205v-204h-205v-205h205v-205h205v-205h-205v-205h-614zM950 -205v205h-205v-205h205z" />
    <glyph glyph-name="uni0198" unicode="&#x198;" 
d="M1360 1024v205h-205v-205h-205v-205h-205v-205h205v-204h205v-205h205v-205h-615v205h-204v205h-205v-410h-205v1434h205v-615h205v205h204v205h205v205h615v-410h-205z" />
    <glyph glyph-name="uni0198" unicode="&#x199;" 
d="M1360 1024v205h-205v-205h-205v-205h-205v-205h205v-204h205v-205h205v-205h-615v205h-204v205h-205v-410h-205v1434h205v-615h205v205h204v205h205v205h615v-410h-205z" />
    <glyph glyph-name="uni019D" unicode="&#x19d;" 
d="M131 -410v205h205v1639h409v-205h205v-410h205v615h410v-1434h-410v205h-205v409h-205v-819h-204v-205h-410z" />
    <glyph glyph-name="uni019D" unicode="&#x272;" 
d="M131 -410v205h205v1639h409v-205h205v-410h205v615h410v-1434h-410v205h-205v409h-205v-819h-204v-205h-410z" />
    <glyph glyph-name="uni01A0" unicode="&#x1a0;" 
d="M1360 1229v-1024h-205v-205h-819v205h-205v1024h205v205h1024v204h205v-409h-205zM541 205h409v1024h-409v-1024z" />
    <glyph glyph-name="uni01A0" unicode="&#x1a1;" 
d="M1360 1229v-1024h-205v-205h-819v205h-205v1024h205v205h1024v204h205v-409h-205zM541 205h409v1024h-409v-1024z" />
    <glyph glyph-name="uni01AF" unicode="&#x1af;" 
d="M1155 1229v-1024h-205v-205h-614v205h-205v1229h410v-1229h204v1229h615v204h205v-409h-410z" />
    <glyph glyph-name="uni01AF" unicode="&#x1b0;" 
d="M1155 1229v-1024h-205v-205h-614v205h-205v1229h410v-1229h204v1229h615v204h205v-409h-410z" />
    <glyph glyph-name="uni01B3" unicode="&#x1b3;" 
d="M1360 819v410h-205v-410h-205v-205h-205v-614h-204v614h-207v205h-203v615h410v-615h204v615h615v-205h205v-410h-205z" />
    <glyph glyph-name="uni01B3" unicode="&#x1b4;" 
d="M1360 819v410h-205v-410h-205v-205h-205v-614h-204v614h-207v205h-203v615h410v-615h204v615h615v-205h205v-410h-205z" />
    <glyph glyph-name="uni01F4" unicode="&#x1f4;" 
d="M1565 819v-819h-1024v209h-205v201h-205v614h205v205h205v205h1024v-205h-820v-205h-204v-614h204v-205h410v409h-205v205h615zM1161 1638h-409v205h204v205h410v-205h-205v-205z" />
    <glyph glyph-name="uni01F4" unicode="&#x1f5;" 
d="M1565 819v-819h-1024v209h-205v201h-205v614h205v205h205v205h1024v-205h-820v-205h-204v-614h204v-205h410v409h-205v205h615zM1161 1638h-409v205h204v205h410v-205h-205v-205z" />
    <glyph glyph-name="uni01F8" unicode="&#x1f8;" 
d="M1565 1434v-1434h-410v205h-205v205h-205v204h-204v-614h-410v1434h410v-205h204v-205h205v-205h205v615h410zM1155 1638h-410v205h-204v205h409v-205h205v-205z" />
    <glyph glyph-name="uni01F8" unicode="&#x1f9;" 
d="M1565 1434v-1434h-410v205h-205v205h-205v204h-204v-614h-410v1434h410v-205h204v-205h205v-205h205v615h410zM1155 1638h-410v205h-204v205h409v-205h205v-205z" />
    <glyph glyph-name="uni0241" unicode="&#x241;" 
d="M1565 1229v-615h-410v-204h-205v-410h-346v614h346v205h205v410h-614v-205h-410v205h205v205h1024v-205h205z" />
    <glyph glyph-name="uni0241" unicode="&#x242;" 
d="M1565 1229v-615h-410v-204h-205v-410h-346v614h346v205h205v410h-614v-205h-410v205h205v205h1024v-205h205z" />
    <glyph glyph-name="uni024C" unicode="&#x24c;" 
d="M1565 205v-205h-615v205h-205v-205h-409v410h-205v204h205v820h1024v-205h205v-615h-410v-204h205v-205h205zM950 819h205v410h-410v-615h205v205z" />
    <glyph glyph-name="uni024C" unicode="&#x24d;" 
d="M1565 205v-205h-615v205h-205v-205h-409v410h-205v204h205v820h1024v-205h205v-615h-410v-204h205v-205h205zM950 819h205v410h-410v-615h205v205z" />
    <glyph glyph-name="circumflex" unicode="&#x2c6;" 
d="M745 1638h-409v205h205v205h614v-205h205v-205h-410v205h-205v-205z" />
    <glyph glyph-name="caron" unicode="&#x2c7;" 
d="M950 2048h410v-205h-205v-205h-614v205h-205v205h409v-205h205v205z" />
    <glyph glyph-name="breve" unicode="&#x2d8;" 
d="M1053 2048h204v-410h-819v410h205v-205h410v205z" />
    <glyph glyph-name="dotaccent" unicode="&#x2d9;" 
d="M643 1638v410h410v-410h-410z" />
    <glyph glyph-name="ring" unicode="&#x2da;" 
d="M1155 2048v-614h-614v614h614zM745 1638h205v205h-205v-205z" />
    <glyph glyph-name="ogonek" unicode="&#x2db;" 
d="M1155 -410h-614v410h204v-205h410v-205z" />
    <glyph glyph-name="tilde" unicode="&#x2dc;" 
d="M643 1638h-205v205h205v205h205v-205h-205v-205zM1053 1638h-205v205h205v205h204v-205h-204v-205z" />
    <glyph glyph-name="hungarumlaut" unicode="&#x2dd;" 
d="M643 1638h-410v205h205v205h410v-205h-205v-205zM1257 1638h-409v205h205v205h409v-205h-205v-205z" />
    <glyph glyph-name="gravecomb" unicode="&#x300;" horiz-adv-x="0" 
d="M-541 1638h-409v205h-205v205h410v-205h204v-205z" />
    <glyph glyph-name="acutecomb" unicode="&#x301;" horiz-adv-x="0" 
d="M-745 1638h-410v205h205v205h409v-205h-204v-205z" />
    <glyph glyph-name="uni0302" unicode="&#x302;" horiz-adv-x="0" 
d="M-950 1638h-410v205h205v205h614v-205h205v-205h-409v205h-205v-205z" />
    <glyph glyph-name="tildecomb" unicode="&#x303;" horiz-adv-x="0" 
d="M-1053 1638h-204v205h204v205h205v-205h-205v-205zM-643 1638h-205v205h205v205h205v-205h-205v-205z" />
    <glyph glyph-name="uni0304" unicode="&#x304;" horiz-adv-x="0" 
d="M-541 1638h-614v205h614v-205z" />
    <glyph glyph-name="uni0306" unicode="&#x306;" horiz-adv-x="0" 
d="M-643 2048h205v-410h-819v410h204v-205h410v205z" />
    <glyph glyph-name="uni0307" unicode="&#x307;" horiz-adv-x="0" 
d="M-1053 1638v410h410v-410h-410z" />
    <glyph glyph-name="uni0308" unicode="&#x308;" horiz-adv-x="0" 
d="M-745 2048h409v-410h-409v410zM-1360 1638v410h410v-410h-410z" />
    <glyph glyph-name="hookabovecomb" unicode="&#x309;" horiz-adv-x="0" 
d="M-1155 1843v205h614v-410h-204v205h-410zM-950 1434v204h205v-204h-205z" />
    <glyph glyph-name="uni030A" unicode="&#x30a;" horiz-adv-x="0" 
d="M-541 2048v-614h-614v614h614zM-950 1638h205v205h-205v-205z" />
    <glyph glyph-name="uni030B" unicode="&#x30b;" horiz-adv-x="0" 
d="M-1053 1638h-409v205h205v205h409v-205h-205v-205zM-438 1638h-410v205h205v205h410v-205h-205v-205z" />
    <glyph glyph-name="uni030C" unicode="&#x30c;" horiz-adv-x="0" 
d="M-745 2048h409v-205h-205v-205h-614v205h-205v205h410v-205h205v205z" />
    <glyph glyph-name="uni0313" unicode="&#x313;" horiz-adv-x="0" 
d="M-1053 1638v205h205v-205h-205zM-848 1843v205h205v-205h-205z" />
    <glyph glyph-name="uni031B" unicode="&#x31b;" horiz-adv-x="0" 
d="M-1053 1229v205h205v204h205v-409h-410z" />
    <glyph glyph-name="dotbelowcomb" unicode="&#x323;" horiz-adv-x="0" 
d="M-1053 -410v410h410v-410h-410z" />
    <glyph glyph-name="uni0326" unicode="&#x326;" horiz-adv-x="0" 
d="M-745 -410h-410v205h205v205h409v-205h-204v-205z" />
    <glyph glyph-name="uni0328" unicode="&#x328;" horiz-adv-x="0" 
d="M-541 -410h-614v410h205v-205h409v-205z" />
    <glyph glyph-name="uni032D" unicode="&#x32d;" horiz-adv-x="0" 
d="M-950 -410h-410v205h205v205h614v-205h205v-205h-409v205h-205v-205z" />
    <glyph glyph-name="uni0375" unicode="&#x375;" horiz-adv-x="0" 
d="M-745 -205h-410v205h205v205h409v-205h-204v-205z" />
    <glyph glyph-name="tonos" unicode="&#x384;" 
d="M950 1024h-205v614h205v-614z" />
    <glyph glyph-name="dieresistonos" unicode="&#x385;" 
d="M131 1024v410h410v-410h-410zM950 1024h-205v614h205v-614zM1155 1024v410h410v-410h-410z" />
    <glyph glyph-name="Alphatonos" unicode="&#x386;" 
d="M1565 1024v-1024h-410v410h-410v-410h-409v1024h205v205h204v205h410v-205h205v-205h205zM745 614h410v410h-410v-410zM336 1024h-205v614h205v-614z" />
    <glyph glyph-name="Alphatonos" unicode="&#x3ac;" 
d="M1565 1024v-1024h-410v410h-410v-410h-409v1024h205v205h204v205h410v-205h205v-205h205zM745 614h410v410h-410v-410zM336 1024h-205v614h205v-614z" />
    <glyph glyph-name="anoteleia" unicode="&#x387;" 
d="M1053 1229v-410h-410v410h410z" />
    <glyph glyph-name="Epsilontonos" unicode="&#x388;" 
d="M336 1024h-205v614h205v-614zM1565 205v-205h-1024v1434h1024v-205h-615v-410h410v-205h-410v-409h615z" />
    <glyph glyph-name="Epsilontonos" unicode="&#x3ad;" 
d="M336 1024h-205v614h205v-614zM1565 205v-205h-1024v1434h1024v-205h-615v-410h410v-205h-410v-409h615z" />
    <glyph glyph-name="Etatonos" unicode="&#x389;" 
d="M336 1024h-205v614h205v-614zM1565 1434v-1434h-410v614h-205v-614h-409v1434h409v-615h205v615h410z" />
    <glyph glyph-name="Etatonos" unicode="&#x3ae;" 
d="M336 1024h-205v614h205v-614zM1565 1434v-1434h-410v614h-205v-614h-409v1434h409v-615h205v615h410z" />
    <glyph glyph-name="Iotatonos" unicode="&#x38a;" 
d="M336 1024h-205v614h205v-614zM1565 1434v-205h-410v-1024h410v-205h-1229v205h409v1024h-204v205h1024z" />
    <glyph glyph-name="Iotatonos" unicode="&#x3af;" 
d="M336 1024h-205v614h205v-614zM1565 1434v-205h-410v-1024h410v-205h-1229v205h409v1024h-204v205h1024z" />
    <glyph glyph-name="Omicrontonos" unicode="&#x38c;" 
d="M336 1024h-205v614h205v-614zM1565 1229v-1024h-205v-205h-615v205h-204v1024h204v205h615v-205h205zM950 205h205v1024h-205v-1024z" />
    <glyph glyph-name="Omicrontonos" unicode="&#x3cc;" 
d="M336 1024h-205v614h205v-614zM1565 1229v-1024h-205v-205h-615v205h-204v1024h204v205h615v-205h205zM950 205h205v1024h-205v-1024z" />
    <glyph glyph-name="Upsilontonos" unicode="&#x38e;" 
d="M336 1024h-205v614h205v-614zM1565 1434v-615h-205v-205h-205v-614h-205v614h-207v205h-202v615h409v-615h205v615h410z" />
    <glyph glyph-name="Upsilontonos" unicode="&#x3cd;" 
d="M336 1024h-205v614h205v-614zM1565 1434v-615h-205v-205h-205v-614h-205v614h-207v205h-202v615h409v-615h205v615h410z" />
    <glyph glyph-name="Omegatonos" unicode="&#x38f;" 
d="M1155 1229h-205v-1229h-409v205h204v205h-204v819h204v205h615v-205h205v-819h-205v-205h205v-205h-410v1229zM336 1024h-205v614h205v-614z" />
    <glyph glyph-name="Omegatonos" unicode="&#x3ce;" 
d="M1155 1229h-205v-1229h-409v205h204v205h-204v819h204v205h615v-205h205v-819h-205v-205h205v-205h-410v1229zM336 1024h-205v614h205v-614z" />
    <glyph glyph-name="iotadieresistonos" unicode="&#x390;" 
d="M336 1024h-205v614h205v-614zM1565 1434v-205h-410v-1024h410v-205h-1229v205h409v1024h-204v205h1024zM1155 2048h410v-410h-410v410zM541 1638v410h409v-410h-409z" />
    <glyph glyph-name="uni0413" unicode="&#x393;" 
d="M1565 1434v-205h-1024v-1229h-410v1434h1434z" />
    <glyph glyph-name="uni0413" unicode="&#x433;" 
d="M1565 1434v-205h-1024v-1229h-410v1434h1434z" />
    <glyph glyph-name="uni0413" unicode="&#x413;" 
d="M1565 1434v-205h-1024v-1229h-410v1434h1434z" />
    <glyph glyph-name="uni0413" unicode="&#x3b3;" 
d="M1565 1434v-205h-1024v-1229h-410v1434h1434z" />
    <glyph glyph-name="Delta" unicode="&#x394;" 
d="M1565 1024v-1024h-1434v1024h205v205h205v205h614v-205h205v-205h205zM541 205h614v819h-205v205h-205v-205h-204v-819z" />
    <glyph glyph-name="Delta" unicode="&#x3b4;" 
d="M1565 1024v-1024h-1434v1024h205v205h205v205h614v-205h205v-205h205zM541 205h614v819h-205v205h-205v-205h-204v-819z" />
    <glyph glyph-name="uni04E8" unicode="&#x398;" 
d="M1565 1229v-1024h-205v-205h-1024v205h-205v1024h205v205h1024v-205h205zM541 1229v-410h614v410h-614zM541 205h614v409h-614v-409z" />
    <glyph glyph-name="uni04E8" unicode="&#x4e9;" 
d="M1565 1229v-1024h-205v-205h-1024v205h-205v1024h205v205h1024v-205h205zM541 1229v-410h614v410h-614zM541 205h614v409h-614v-409z" />
    <glyph glyph-name="uni04E8" unicode="&#x4e8;" 
d="M1565 1229v-1024h-205v-205h-1024v205h-205v1024h205v205h1024v-205h205zM541 1229v-410h614v410h-614zM541 205h614v409h-614v-409z" />
    <glyph glyph-name="uni04E8" unicode="&#x473;" 
d="M1565 1229v-1024h-205v-205h-1024v205h-205v1024h205v205h1024v-205h205zM541 1229v-410h614v410h-614zM541 205h614v409h-614v-409z" />
    <glyph glyph-name="uni04E8" unicode="&#x472;" 
d="M1565 1229v-1024h-205v-205h-1024v205h-205v1024h205v205h1024v-205h205zM541 1229v-410h614v410h-614zM541 205h614v409h-614v-409z" />
    <glyph glyph-name="uni04E8" unicode="&#x3b8;" 
d="M1565 1229v-1024h-205v-205h-1024v205h-205v1024h205v205h1024v-205h205zM541 1229v-410h614v410h-614zM541 205h614v409h-614v-409z" />
    <glyph glyph-name="Lambda" unicode="&#x39b;" 
d="M1565 1024v-1024h-410v1024h-205v205h-205v-205h-204v-1024h-410v1024h205v205h205v205h614v-205h205v-205h205z" />
    <glyph glyph-name="Lambda" unicode="&#x3bb;" 
d="M1565 1024v-1024h-410v1024h-205v205h-205v-205h-204v-1024h-410v1024h205v205h205v205h614v-205h205v-205h205z" />
    <glyph glyph-name="Xi" unicode="&#x39e;" 
d="M1155 1024v205h-614v-205h-410v410h1434v-410h-410zM1565 410v-410h-1434v410h410v-205h614v205h410zM1360 614h-1024v205h1024v-205z" />
    <glyph glyph-name="Xi" unicode="&#x3be;" 
d="M1155 1024v205h-614v-205h-410v410h1434v-410h-410zM1565 410v-410h-1434v410h410v-205h614v205h410zM1360 614h-1024v205h1024v-205z" />
    <glyph glyph-name="uni041F" unicode="&#x3a0;" 
d="M1565 1434v-1434h-410v1229h-614v-1229h-410v1434h1434z" />
    <glyph glyph-name="uni041F" unicode="&#x43f;" 
d="M1565 1434v-1434h-410v1229h-614v-1229h-410v1434h1434z" />
    <glyph glyph-name="uni041F" unicode="&#x41f;" 
d="M1565 1434v-1434h-410v1229h-614v-1229h-410v1434h1434z" />
    <glyph glyph-name="Sigma" unicode="&#x3a3;" 
d="M131 0v205h205v205h205v204h204v205h-204v205h-205v205h-205v205h1434v-205h-820v-205h205v-205h205v-205h-205v-204h-205v-205h820v-205h-1434z" />
    <glyph glyph-name="Sigma" unicode="&#x3c3;" 
d="M131 0v205h205v205h205v204h204v205h-204v205h-205v205h-205v205h1434v-205h-820v-205h205v-205h205v-205h-205v-204h-205v-205h820v-205h-1434z" />
    <glyph glyph-name="Sigma" unicode="&#x3c2;" 
d="M131 0v205h205v205h205v204h204v205h-204v205h-205v205h-205v205h1434v-205h-820v-205h205v-205h205v-205h-205v-204h-205v-205h820v-205h-1434z" />
    <glyph glyph-name="uni0424" unicode="&#x3a6;" 
d="M336 205v205h-205v614h205v205h409v205h205v-205h410v-205h205v-614h-205v-205h-410v-205h-205v205h-409zM1155 410v614h-205v-614h205zM541 1024v-614h204v614h-204z" />
    <glyph glyph-name="uni0424" unicode="&#x444;" 
d="M336 205v205h-205v614h205v205h409v205h205v-205h410v-205h205v-614h-205v-205h-410v-205h-205v205h-409zM1155 410v614h-205v-614h205zM541 1024v-614h204v614h-204z" />
    <glyph glyph-name="uni0424" unicode="&#x424;" 
d="M336 205v205h-205v614h205v205h409v205h205v-205h410v-205h205v-614h-205v-205h-410v-205h-205v205h-409zM1155 410v614h-205v-614h205zM541 1024v-614h204v614h-204z" />
    <glyph glyph-name="uni0424" unicode="&#x3c6;" 
d="M336 205v205h-205v614h205v205h409v205h205v-205h410v-205h205v-614h-205v-205h-410v-205h-205v205h-409zM1155 410v614h-205v-614h205zM541 1024v-614h204v614h-204z" />
    <glyph glyph-name="Psi" unicode="&#x3a8;" 
d="M745 0v410h-409v204h-205v820h410v-820h204v820h205v-820h205v820h410v-820h-205v-204h-410v-410h-205z" />
    <glyph glyph-name="Psi" unicode="&#x3c8;" 
d="M745 0v410h-409v204h-205v820h410v-820h204v820h205v-820h205v820h410v-820h-205v-204h-410v-410h-205z" />
    <glyph glyph-name="Omega" unicode="&#x3a9;" 
d="M1155 1229h-614v-819h204v-410h-614v205h205v205h-205v819h205v205h1024v-205h205v-819h-205v-205h205v-205h-615v410h205v819z" />
    <glyph glyph-name="Omega" unicode="&#x2126;" 
d="M1155 1229h-614v-819h204v-410h-614v205h205v205h-205v819h205v205h1024v-205h205v-819h-205v-205h205v-205h-615v410h205v819z" />
    <glyph glyph-name="Omega" unicode="&#x3c9;" 
d="M1155 1229h-614v-819h204v-410h-614v205h205v205h-205v819h205v205h1024v-205h205v-819h-205v-205h205v-205h-615v410h205v819z" />
    <glyph glyph-name="upsilondieresistonos" unicode="&#x3b0;" 
d="M1155 2048h410v-410h-410v410zM541 1638v410h409v-410h-409zM336 1024h-205v614h205v-614zM1565 1434v-615h-205v-205h-205v-614h-205v614h-207v205h-202v615h409v-615h205v615h410z" />
    <glyph glyph-name="pi" unicode="&#x3c0;" 
d="M1360 819v-614h205v-205h-410v205h-205v614h-205v-819h-409v819h-205v205h1434v-205h-205z" />
    <glyph glyph-name="uni04C3" unicode="&#x3d7;" 
d="M745 -410v205h410v205h-205v205h-205v205h-204v-410h-410v1434h410v-615h204v205h205v205h205v205h410v-205h-205v-205h-205v-205h-205v-205h205v-204h205v-205h205v-410h-205v-205h-615z" />
    <glyph glyph-name="uni04C3" unicode="&#x4c4;" 
d="M745 -410v205h410v205h-205v205h-205v205h-204v-410h-410v1434h410v-615h204v205h205v205h205v205h410v-205h-205v-205h-205v-205h-205v-205h205v-204h205v-205h205v-410h-205v-205h-615z" />
    <glyph glyph-name="uni04C3" unicode="&#x4c3;" 
d="M745 -410v205h410v205h-205v205h-205v205h-204v-410h-410v1434h410v-615h204v205h205v205h205v205h410v-205h-205v-205h-205v-205h-205v-205h205v-204h205v-205h205v-410h-205v-205h-615z" />
    <glyph glyph-name="uni0402" unicode="&#x402;" 
d="M745 -410v205h410v819h-410v-614h-409v1229h-205v205h1024v-205h-410v-410h615v-205h205v-819h-205v-205h-615z" />
    <glyph glyph-name="uni0402" unicode="&#x452;" 
d="M745 -410v205h410v819h-410v-614h-409v1229h-205v205h1024v-205h-410v-410h615v-205h205v-819h-205v-205h-615z" />
    <glyph glyph-name="uni0403" unicode="&#x403;" 
d="M1565 1434v-205h-1024v-1229h-410v1434h1434zM1155 1638h-410v205h205v205h410v-205h-205v-205z" />
    <glyph glyph-name="uni0403" unicode="&#x453;" 
d="M1565 1434v-205h-1024v-1229h-410v1434h1434zM1155 1638h-410v205h205v205h410v-205h-205v-205z" />
    <glyph glyph-name="uni0404" unicode="&#x404;" 
d="M1565 410v-205h-205v-205h-819v205h-205v205h-205v614h205v205h205v205h819v-205h205v-205h-410v205h-410v-205h-204v-205h614v-205h-614v-204h204v-205h410v205h410z" />
    <glyph glyph-name="uni0404" unicode="&#x454;" 
d="M1565 410v-205h-205v-205h-819v205h-205v205h-205v614h205v205h205v205h819v-205h205v-205h-410v205h-410v-205h-204v-205h614v-205h-614v-204h204v-205h410v205h410z" />
    <glyph glyph-name="uni0409" unicode="&#x409;" 
d="M1565 614v-409h-205v-205h-615v1229h-204v-1229h-410v205h205v1229h614v-615h410v-205h205zM1155 614h-205v-409h205v409z" />
    <glyph glyph-name="uni0409" unicode="&#x459;" 
d="M1565 614v-409h-205v-205h-615v1229h-204v-1229h-410v205h205v1229h614v-615h410v-205h205zM1155 614h-205v-409h205v409z" />
    <glyph glyph-name="uni040A" unicode="&#x40a;" 
d="M745 0v614h-204v-598h-410v1418h410v-615h204v615h205v-615h410v-205h205v-409h-205v-205h-615zM950 614v-409h205v409h-205z" />
    <glyph glyph-name="uni040A" unicode="&#x45a;" 
d="M745 0v614h-204v-598h-410v1418h410v-615h204v615h205v-615h410v-205h205v-409h-205v-205h-615zM950 614v-409h205v409h-205z" />
    <glyph glyph-name="uni040B" unicode="&#x40b;" 
d="M1565 614v-614h-410v614h-410v-614h-409v1229h-205v205h1024v-205h-410v-410h615v-205h205z" />
    <glyph glyph-name="uni040B" unicode="&#x45b;" 
d="M1565 614v-614h-410v614h-410v-614h-409v1229h-205v205h1024v-205h-410v-410h615v-205h205z" />
    <glyph glyph-name="uni040C" unicode="&#x40c;" 
d="M1565 205v-205h-615v205h-205v205h-204v-410h-410v1434h410v-615h204v205h205v205h205v205h410v-205h-205v-205h-205v-205h-205v-205h205v-204h205v-205h205zM950 1638h-409v205h204v205h410v-205h-205v-205z" />
    <glyph glyph-name="uni040C" unicode="&#x45c;" 
d="M1565 205v-205h-615v205h-205v205h-204v-410h-410v1434h410v-615h204v205h205v205h205v205h410v-205h-205v-205h-205v-205h-205v-205h205v-204h205v-205h205zM950 1638h-409v205h204v205h410v-205h-205v-205z" />
    <glyph glyph-name="uni040D" unicode="&#x40d;" 
d="M131 0v1434h410v-615h204v205h205v205h205v205h410v-1434h-410v614h-205v-204h-205v-205h-204v-205h-410zM950 1638h-409v205h-205v205h409v-205h205v-205z" />
    <glyph glyph-name="uni040D" unicode="&#x45d;" 
d="M131 0v1434h410v-615h204v205h205v205h205v205h410v-1434h-410v614h-205v-204h-205v-205h-204v-205h-410zM950 1638h-409v205h-205v205h409v-205h205v-205z" />
    <glyph glyph-name="uni040E" unicode="&#x40e;" 
d="M131 205v205h410v-205h614v409h-819v205h-205v615h410v-615h614v615h410v-1229h-205v-205h-1024v205h-205zM1053 2048h204v-410h-819v410h205v-205h410v205z" />
    <glyph glyph-name="uni040E" unicode="&#x45e;" 
d="M131 205v205h410v-205h614v409h-819v205h-205v615h410v-615h614v615h410v-1229h-205v-205h-1024v205h-205zM1053 2048h204v-410h-819v410h205v-205h410v205z" />
    <glyph glyph-name="uni040F" unicode="&#x40f;" 
d="M745 -410v410h-614v1434h410v-1229h614v1229h410v-1434h-615v-410h-205z" />
    <glyph glyph-name="uni040F" unicode="&#x45f;" 
d="M745 -410v410h-614v1434h410v-1229h614v1229h410v-1434h-615v-410h-205z" />
    <glyph glyph-name="uni0411" unicode="&#x411;" 
d="M1565 614v-409h-205v-205h-1229v1434h1024v-205h-614v-410h819v-205h205zM1155 614h-614v-409h614v409z" />
    <glyph glyph-name="uni0411" unicode="&#x431;" 
d="M1565 614v-409h-205v-205h-1229v1434h1024v-205h-614v-410h819v-205h205zM1155 614h-614v-409h614v409z" />
    <glyph glyph-name="uni0414" unicode="&#x414;" 
d="M336 0v-410h-205v615h205v205h205v1024h819v-1229h205v-615h-205v410h-1024zM745 1229v-1024h205v1024h-205z" />
    <glyph glyph-name="uni0414" unicode="&#x434;" 
d="M336 0v-410h-205v615h205v205h205v1024h819v-1229h205v-615h-205v410h-1024zM745 1229v-1024h205v1024h-205z" />
    <glyph glyph-name="uni0416" unicode="&#x416;" 
d="M1360 819h-205v-205h205v-204h205v-410h-205v205h-205v205h-205v-410h-205v410h-204v-205h-205v-205h-205v410h205v204h205v205h-205v205h-205v410h205v-205h205v-205h204v410h205v-410h205v205h205v205h205v-410h-205v-205z" />
    <glyph glyph-name="uni0416" unicode="&#x436;" 
d="M1360 819h-205v-205h205v-204h205v-410h-205v205h-205v205h-205v-410h-205v410h-204v-205h-205v-205h-205v410h205v204h205v205h-205v205h-205v410h205v-205h205v-205h204v410h205v-410h205v205h205v205h205v-410h-205v-205z" />
    <glyph glyph-name="uni0417" unicode="&#x417;" 
d="M1155 819v410h-614v-205h-410v205h205v205h1024v-205h205v-410h-205v-205h205v-409h-205v-205h-1024v205h-205v205h410v-205h614v409h-614v205h614z" />
    <glyph glyph-name="uni0417" unicode="&#x437;" 
d="M1155 819v410h-614v-205h-410v205h205v205h1024v-205h205v-410h-205v-205h205v-409h-205v-205h-1024v205h-205v205h410v-205h614v409h-614v205h614z" />
    <glyph glyph-name="uni0418" unicode="&#x418;" 
d="M131 0v1434h410v-615h204v205h205v205h205v205h410v-1434h-410v614h-205v-204h-205v-205h-204v-205h-410z" />
    <glyph glyph-name="uni0418" unicode="&#x438;" 
d="M131 0v1434h410v-615h204v205h205v205h205v205h410v-1434h-410v614h-205v-204h-205v-205h-204v-205h-410z" />
    <glyph glyph-name="uni0419" unicode="&#x419;" 
d="M131 0v1434h410v-615h204v205h205v205h205v205h410v-1434h-410v614h-205v-204h-205v-205h-204v-205h-410zM1053 2048h204v-410h-819v410h205v-205h410v205z" />
    <glyph glyph-name="uni0419" unicode="&#x439;" 
d="M131 0v1434h410v-615h204v205h205v205h205v205h410v-1434h-410v614h-205v-204h-205v-205h-204v-205h-410zM1053 2048h204v-410h-819v410h205v-205h410v205z" />
    <glyph glyph-name="uni041B" unicode="&#x41b;" 
d="M745 1229v-1024h-204v-205h-410v205h205v205h205v1024h1024v-1434h-410v1229h-410z" />
    <glyph glyph-name="uni041B" unicode="&#x43b;" 
d="M745 1229v-1024h-204v-205h-410v205h205v205h205v1024h1024v-1434h-410v1229h-410z" />
    <glyph glyph-name="uni0423" unicode="&#x423;" 
d="M131 205v205h410v-205h614v409h-819v205h-205v615h410v-615h614v615h410v-1229h-205v-205h-1024v205h-205z" />
    <glyph glyph-name="uni0423" unicode="&#x443;" 
d="M131 205v205h410v-205h614v409h-819v205h-205v615h410v-615h614v615h410v-1229h-205v-205h-1024v205h-205z" />
    <glyph glyph-name="uni0426" unicode="&#x426;" 
d="M1360 -410v410h-1229v1434h410v-1229h409v1229h410v-1229h205v-615h-205z" />
    <glyph glyph-name="uni0426" unicode="&#x446;" 
d="M1360 -410v410h-1229v1434h410v-1229h409v1229h410v-1229h205v-615h-205z" />
    <glyph glyph-name="uni0427" unicode="&#x427;" 
d="M131 819v615h410v-615h614v615h410v-1434h-410v614h-819v205h-205z" />
    <glyph glyph-name="uni0427" unicode="&#x447;" 
d="M131 819v615h410v-615h614v615h410v-1434h-410v614h-819v205h-205z" />
    <glyph glyph-name="uni0428" unicode="&#x428;" 
d="M950 1434v-1229h205v1229h410v-1434h-1434v1434h410v-1229h204v1229h205z" />
    <glyph glyph-name="uni0428" unicode="&#x448;" 
d="M950 1434v-1229h205v1229h410v-1434h-1434v1434h410v-1229h204v1229h205z" />
    <glyph glyph-name="uni0429" unicode="&#x429;" 
d="M1360 -410v410h-1229v1434h410v-1229h204v1229h205v-1229h205v1229h205v-1229h205v-615h-205z" />
    <glyph glyph-name="uni0429" unicode="&#x449;" 
d="M1360 -410v410h-1229v1434h410v-1229h204v1229h205v-1229h205v1229h205v-1229h205v-615h-205z" />
    <glyph glyph-name="uni042A" unicode="&#x42a;" 
d="M1565 614v-409h-205v-205h-1024v1229h-205v205h614v-615h615v-205h205zM1155 614h-410v-409h410v409z" />
    <glyph glyph-name="uni042A" unicode="&#x44a;" 
d="M1565 614v-409h-205v-205h-1024v1229h-205v205h614v-615h615v-205h205zM1155 614h-410v-409h410v409z" />
    <glyph glyph-name="uni042B" unicode="&#x42b;" 
d="M688 614h-205v-409h205v409zM1098 614v-409h-205v-205h-819v1434h409v-615h410v-205h205zM1200 1434h410v-1434h-410v1434z" />
    <glyph glyph-name="uni042B" unicode="&#x44b;" 
d="M688 614h-205v-409h205v409zM1098 614v-409h-205v-205h-819v1434h409v-615h410v-205h205zM1200 1434h410v-1434h-410v1434z" />
    <glyph glyph-name="uni042C" unicode="&#x42c;" 
d="M1155 614h-614v-409h614v409zM1565 614v-409h-205v-205h-1229v1434h410v-615h819v-205h205z" />
    <glyph glyph-name="uni042C" unicode="&#x44c;" 
d="M1155 614h-614v-409h614v409zM1565 614v-409h-205v-205h-1229v1434h410v-615h819v-205h205z" />
    <glyph glyph-name="uni042D" unicode="&#x42d;" 
d="M131 205v205h410v-205h409v205h205v204h-614v205h614v205h-205v205h-409v-205h-410v205h205v205h819v-205h205v-205h205v-614h-205v-205h-205v-205h-819v205h-205z" />
    <glyph glyph-name="uni042D" unicode="&#x44d;" 
d="M131 205v205h410v-205h409v205h205v204h-614v205h614v205h-205v205h-409v-205h-410v205h205v205h819v-205h205v-205h205v-614h-205v-205h-205v-205h-819v205h-205z" />
    <glyph glyph-name="uni042E" unicode="&#x42e;" 
d="M745 1229v205h615v-205h205v-1024h-205v-205h-615v205h-204v409h-205v-614h-205v1434h205v-615h205v410h204zM1155 205v1024h-205v-1024h205z" />
    <glyph glyph-name="uni042E" unicode="&#x44e;" 
d="M745 1229v205h615v-205h205v-1024h-205v-205h-615v205h-204v409h-205v-614h-205v1434h205v-615h205v410h204zM1155 205v1024h-205v-1024h205z" />
    <glyph glyph-name="uni042F" unicode="&#x42f;" 
d="M131 0v205h205v205h205v204h-410v615h205v205h1229v-1434h-410v410h-205v-205h-205v-205h-614zM541 819h204v-205h410v615h-614v-410z" />
    <glyph glyph-name="uni042F" unicode="&#x44f;" 
d="M131 0v205h205v205h205v204h-410v615h205v205h1229v-1434h-410v410h-205v-205h-205v-205h-614zM541 819h204v-205h410v615h-614v-410z" />
    <glyph glyph-name="uni0474" unicode="&#x474;" 
d="M131 410v1024h410v-1024h204v1024h820v-205h-410v-819h-205v-205h-205v-205h-204v205h-205v205h-205z" />
    <glyph glyph-name="uni0474" unicode="&#x475;" 
d="M131 410v1024h410v-1024h204v1024h820v-205h-410v-819h-205v-205h-205v-205h-204v205h-205v205h-205z" />
    <glyph glyph-name="uni048A" unicode="&#x48a;" 
d="M1360 -205v205h-205v614h-205v-204h-205v-205h-204v-205h-410v1434h410v-615h204v205h205v205h205v205h410v-1639h-205zM1053 2048h204v-410h-819v410h205v-205h410v205zM1155 -410v205h205v-205h-205z" />
    <glyph glyph-name="uni048A" unicode="&#x48b;" 
d="M1360 -205v205h-205v614h-205v-204h-205v-205h-204v-205h-410v1434h410v-615h204v205h205v205h205v205h410v-1639h-205zM1053 2048h204v-410h-819v410h205v-205h410v205zM1155 -410v205h205v-205h-205z" />
    <glyph glyph-name="uni048C" unicode="&#x48c;" 
d="M131 1024v205h205v205h409v-205h410v-205h-410v-205h615v-205h205v-409h-205v-205h-1024v1024h-205zM1155 614h-410v-409h410v409z" />
    <glyph glyph-name="uni048C" unicode="&#x48d;" 
d="M131 1024v205h205v205h409v-205h410v-205h-410v-205h615v-205h205v-409h-205v-205h-1024v1024h-205zM1155 614h-410v-409h410v409z" />
    <glyph glyph-name="uni048E" unicode="&#x48e;" 
d="M1155 205v205h-614v-410h-410v1434h1229v-205h205v-615h-205v-409h-205zM541 1229v-205h204v-205h205v-205h205v615h-614zM541 819v-205h204v205h-204z" />
    <glyph glyph-name="uni048E" unicode="&#x48f;" 
d="M1155 205v205h-614v-410h-410v1434h1229v-205h205v-615h-205v-409h-205zM541 1229v-205h204v-205h205v-205h205v615h-614zM541 819v-205h204v205h-204z" />
    <glyph glyph-name="uni0490" unicode="&#x490;" 
d="M541 1229v-1229h-410v1434h1229v409h205v-614h-1024z" />
    <glyph glyph-name="uni0490" unicode="&#x491;" 
d="M541 1229v-1229h-410v1434h1229v409h205v-614h-1024z" />
    <glyph glyph-name="uni0492" unicode="&#x492;" 
d="M745 614v-614h-409v614h-205v205h205v615h1229v-205h-820v-410h410v-205h-410z" />
    <glyph glyph-name="uni0492" unicode="&#x493;" 
d="M745 614v-614h-409v614h-205v205h205v615h1229v-205h-820v-410h410v-205h-410z" />
    <glyph glyph-name="uni0494" unicode="&#x494;" 
d="M541 -410v205h614v819h-614v-614h-410v1434h1024v-205h-614v-410h819v-205h205v-819h-205v-205h-819z" />
    <glyph glyph-name="uni0494" unicode="&#x495;" 
d="M541 -410v205h614v819h-614v-614h-410v1434h1024v-205h-614v-410h819v-205h205v-819h-205v-205h-819z" />
    <glyph glyph-name="uni0496" unicode="&#x496;" 
d="M1360 819h-205v-205h205v-204h205v-820h-205v615h-205v205h-205v-410h-205v410h-204v-205h-205v-205h-205v410h205v204h205v205h-205v205h-205v410h205v-205h205v-205h204v410h205v-410h205v205h205v205h205v-410h-205v-205z" />
    <glyph glyph-name="uni0496" unicode="&#x497;" 
d="M1360 819h-205v-205h205v-204h205v-820h-205v615h-205v205h-205v-410h-205v410h-204v-205h-205v-205h-205v410h205v204h205v205h-205v205h-205v410h205v-205h205v-205h204v410h205v-410h205v205h205v205h205v-410h-205v-205z" />
    <glyph glyph-name="uni0498" unicode="&#x498;" 
d="M1155 -410h-614v410h-205v205h-205v205h410v-205h614v409h-614v205h614v410h-614v-205h-410v205h205v205h1024v-205h205v-410h-205v-205h205v-409h-205v-205h-615v-205h410v-205z" />
    <glyph glyph-name="uni0498" unicode="&#x499;" 
d="M1155 -410h-614v410h-205v205h-205v205h410v-205h614v409h-614v205h614v410h-614v-205h-410v205h205v205h1024v-205h205v-410h-205v-205h205v-409h-205v-205h-615v-205h410v-205z" />
    <glyph glyph-name="uni049A" unicode="&#x49a;" 
d="M1360 -410v410h-410v205h-205v205h-204v-410h-410v1434h410v-615h204v205h205v205h205v205h410v-205h-205v-205h-205v-205h-205v-205h205v-204h205v-205h205v-615h-205z" />
    <glyph glyph-name="uni049A" unicode="&#x49b;" 
d="M1360 -410v410h-410v205h-205v205h-204v-410h-410v1434h410v-615h204v205h205v205h205v205h410v-205h-205v-205h-205v-205h-205v-205h205v-204h205v-205h205v-615h-205z" />
    <glyph glyph-name="uni049C" unicode="&#x49c;" 
d="M541 205v409h-205v-614h-205v1434h205v-615h205v410h204v-410h205v-205h205v-204h205v-205h205v-205h-205v205h-205v205h-205v204h-205v-409h-204zM1155 819h-205v205h205v-205zM1360 1024h-205v205h205v-205zM1565 1229h-205v205h205v-205z" />
    <glyph glyph-name="uni049C" unicode="&#x49d;" 
d="M541 205v409h-205v-614h-205v1434h205v-615h205v410h204v-410h205v-205h205v-204h205v-205h205v-205h-205v205h-205v205h-205v204h-205v-409h-204zM1155 819h-205v205h205v-205zM1360 1024h-205v205h205v-205zM1565 1229h-205v205h205v-205z" />
    <glyph glyph-name="uni049E" unicode="&#x49e;" 
d="M131 1024v205h205v205h205v-205h204v-205h205v205h205v205h410v-205h-205v-205h-205v-205h-205v-205h205v-204h205v-205h205v-205h-615v205h-205v205h-204v-410h-205v1024h-205zM745 819v205h-204v-205h204z" />
    <glyph glyph-name="uni049E" unicode="&#x49f;" 
d="M131 1024v205h205v205h205v-205h204v-205h205v205h205v205h410v-205h-205v-205h-205v-205h-205v-205h205v-204h205v-205h205v-205h-615v205h-205v205h-204v-410h-205v1024h-205zM745 819v205h-204v-205h204z" />
    <glyph glyph-name="uni04A0" unicode="&#x4a0;" 
d="M1565 205v-205h-615v205h-205v205h-204v-410h-205v1229h-205v205h410v-615h204v205h205v205h205v205h410v-205h-205v-205h-205v-205h-205v-205h205v-204h205v-205h205z" />
    <glyph glyph-name="uni04A0" unicode="&#x4a1;" 
d="M1565 205v-205h-615v205h-205v205h-204v-410h-205v1229h-205v205h410v-615h204v205h205v205h205v205h410v-205h-205v-205h-205v-205h-205v-205h205v-204h205v-205h205z" />
    <glyph glyph-name="uni04A2" unicode="&#x4a2;" 
d="M1360 -410v410h-410v614h-409v-614h-410v1434h410v-615h409v615h410v-1229h205v-615h-205z" />
    <glyph glyph-name="uni04A2" unicode="&#x4a3;" 
d="M1360 -410v410h-410v614h-409v-614h-410v1434h410v-615h409v615h410v-1229h205v-615h-205z" />
    <glyph glyph-name="uni04A4" unicode="&#x4a4;" 
d="M131 1229v205h614v-615h410v615h410v-1434h-410v614h-410v-614h-409v1229h-205z" />
    <glyph glyph-name="uni04A4" unicode="&#x4a5;" 
d="M131 1229v205h614v-615h410v615h410v-1434h-410v614h-410v-614h-409v1229h-205z" />
    <glyph glyph-name="uni04A6" unicode="&#x4a6;" 
d="M745 -410v205h410v819h-205v-614h-205v1229h-204v-1229h-410v1434h819v-615h410v-205h205v-819h-205v-205h-615z" />
    <glyph glyph-name="uni04A6" unicode="&#x4a7;" 
d="M745 -410v205h410v819h-205v-614h-205v1229h-204v-1229h-410v1434h819v-615h410v-205h205v-819h-205v-205h-615z" />
    <glyph glyph-name="uni04A8" unicode="&#x4a8;" 
d="M336 0v205h-205v1024h205v205h819v-205h-614v-1024h409v-205h-614zM1360 205h-410v205h-205v409h205v-409h410v-205h205v-205h-205v205zM1360 819h-410v205h410v-205zM1360 819h205v-409h-205v409z" />
    <glyph glyph-name="uni04A8" unicode="&#x4a9;" 
d="M336 0v205h-205v1024h205v205h819v-205h-614v-1024h409v-205h-614zM1360 205h-410v205h-205v409h205v-409h410v-205h205v-205h-205v205zM1360 819h-410v205h410v-205zM1360 819h205v-409h-205v409z" />
    <glyph glyph-name="uni04AA" unicode="&#x4aa;" 
d="M1360 -410h-615v410h-204v205h-205v205h-205v614h205v205h205v205h819v-205h205v-205h-410v205h-410v-205h-204v-614h204v-205h410v205h410v-205h-205v-205h-410v-205h410v-205z" />
    <glyph glyph-name="uni04AA" unicode="&#x4ab;" 
d="M1360 -410h-615v410h-204v205h-205v205h-205v614h205v205h205v205h819v-205h205v-205h-410v205h-410v-205h-204v-614h204v-205h410v205h410v-205h-205v-205h-410v-205h410v-205z" />
    <glyph glyph-name="uni04AC" unicode="&#x4ac;" 
d="M1053 -410v410h-410v1229h-410v205h1229v-205h-409v-1024h204v-615h-204z" />
    <glyph glyph-name="uni04AC" unicode="&#x4ad;" 
d="M1053 -410v410h-410v1229h-410v205h1229v-205h-409v-1024h204v-615h-204z" />
    <glyph glyph-name="uni04B0" unicode="&#x4b0;" 
d="M1462 205h-409v-205h-410v205h-410v205h410v204h-207v205h-203v615h410v-615h410v615h409v-615h-205v-205h-204v-204h409v-205z" />
    <glyph glyph-name="uni04B0" unicode="&#x4b1;" 
d="M1462 205h-409v-205h-410v205h-410v205h410v204h-207v205h-203v615h410v-615h410v615h409v-615h-205v-205h-204v-204h409v-205z" />
    <glyph glyph-name="uni04B2" unicode="&#x4b2;" 
d="M1360 -410v410h-205v205h-205v205h-205v-205h-204v-205h-410v410h205v204h205v205h-205v205h-205v410h410v-205h204v-205h205v205h205v205h410v-410h-205v-205h-205v-205h205v-204h205v-820h-205z" />
    <glyph glyph-name="uni04B2" unicode="&#x4b3;" 
d="M1360 -410v410h-205v205h-205v205h-205v-205h-204v-205h-410v410h205v204h205v205h-205v205h-205v410h410v-205h204v-205h205v205h205v205h410v-410h-205v-205h-205v-205h205v-204h205v-820h-205z" />
    <glyph glyph-name="uni04B4" unicode="&#x4b4;" 
d="M1360 -410v410h-1024v1229h-205v205h819v-205h-205v-1024h410v1229h205v-1229h205v-615h-205z" />
    <glyph glyph-name="uni04B4" unicode="&#x4b5;" 
d="M1360 -410v410h-1024v1229h-205v205h819v-205h-205v-1024h410v1229h205v-1229h205v-615h-205z" />
    <glyph glyph-name="uni04B6" unicode="&#x4b6;" 
d="M1360 -410v410h-410v614h-614v205h-205v615h410v-615h409v615h410v-1229h205v-615h-205z" />
    <glyph glyph-name="uni04B6" unicode="&#x4b7;" 
d="M1360 -410v410h-410v614h-614v205h-205v615h410v-615h409v615h410v-1229h205v-615h-205z" />
    <glyph glyph-name="uni04B8" unicode="&#x4b8;" 
d="M745 205v409h-409v205h-205v615h410v-615h204v410h205v-410h205v615h410v-1434h-410v614h-205v-409h-205z" />
    <glyph glyph-name="uni04B8" unicode="&#x4b9;" 
d="M745 205v409h-409v205h-205v615h410v-615h204v410h205v-410h205v615h410v-1434h-410v614h-205v-409h-205z" />
    <glyph glyph-name="uni04BA" unicode="&#x4ba;" 
d="M1565 614v-614h-410v614h-614v-614h-410v1434h410v-615h819v-205h205z" />
    <glyph glyph-name="uni04BA" unicode="&#x4bb;" 
d="M1565 614v-614h-410v614h-614v-614h-410v1434h410v-615h819v-205h205z" />
    <glyph glyph-name="uni04BC" unicode="&#x4bc;" 
d="M131 614v410h205v-205h205v410h204v205h615v-205h205v-615h-615v-409h205v205h410v-205h-205v-205h-615v205h-204v409h-410zM950 819h205v410h-205v-410z" />
    <glyph glyph-name="uni04BC" unicode="&#x4bd;" 
d="M131 614v410h205v-205h205v410h204v205h615v-205h205v-615h-615v-409h205v205h410v-205h-205v-205h-615v205h-204v409h-410zM950 819h205v410h-205v-410z" />
    <glyph glyph-name="uni04BE" unicode="&#x4be;" 
d="M131 614v410h205v-205h205v410h204v205h615v-205h205v-615h-615v-409h205v205h410v-205h-205v-205h-205v-410h-205v410h-205v205h-204v409h-410zM950 819h205v410h-205v-410z" />
    <glyph glyph-name="uni04BE" unicode="&#x4bf;" 
d="M131 614v410h205v-205h205v410h204v205h615v-205h205v-615h-615v-409h205v205h410v-205h-205v-205h-205v-410h-205v410h-205v205h-204v409h-410zM950 819h205v410h-205v-410z" />
    <glyph glyph-name="I.1" unicode="&#x4c0;" 
d="M643 1434h410v-1434h-410v1434z" />
    <glyph glyph-name="I.1" unicode="&#xe001;" 
d="M643 1434h410v-1434h-410v1434z" />
    <glyph glyph-name="I.1" unicode="&#x4cf;" 
d="M643 1434h410v-1434h-410v1434z" />
    <glyph glyph-name="uni04C1" unicode="&#x4c1;" 
d="M1360 819h-205v-205h205v-204h205v-410h-205v205h-205v205h-205v-410h-205v410h-204v-205h-205v-205h-205v410h205v204h205v205h-205v205h-205v410h205v-205h205v-205h204v410h205v-410h205v205h205v205h205v-410h-205v-205zM1053 2048h204v-410h-819v410h205v-205h410
v205z" />
    <glyph glyph-name="uni04C1" unicode="&#x4c2;" 
d="M1360 819h-205v-205h205v-204h205v-410h-205v205h-205v205h-205v-410h-205v410h-204v-205h-205v-205h-205v410h205v204h205v205h-205v205h-205v410h205v-205h205v-205h204v410h205v-410h205v205h205v205h205v-410h-205v-205zM1053 2048h204v-410h-819v410h205v-205h410
v205z" />
    <glyph glyph-name="uni04C5" unicode="&#x4c5;" 
d="M1360 -205v205h-410v1229h-205v-1024h-204v-205h-410v205h205v205h205v1024h819v-1229h205v-410h-205zM1155 -410v205h205v-205h-205z" />
    <glyph glyph-name="uni04C5" unicode="&#x4c6;" 
d="M1360 -205v205h-410v1229h-205v-1024h-204v-205h-410v205h205v205h205v1024h819v-1229h205v-410h-205zM1155 -410v205h205v-205h-205z" />
    <glyph glyph-name="uni04C7" unicode="&#x4c7;" 
d="M745 -410v205h410v819h-614v-614h-410v1434h410v-615h614v615h410v-1639h-205v-205h-615z" />
    <glyph glyph-name="uni04C7" unicode="&#x4c8;" 
d="M745 -410v205h410v819h-614v-614h-410v1434h410v-615h614v615h410v-1639h-205v-205h-615z" />
    <glyph glyph-name="uni04C9" unicode="&#x4c9;" 
d="M1360 -205v205h-410v614h-409v-614h-410v1434h410v-615h409v615h410v-1229h205v-410h-205zM1155 -410v205h205v-205h-205z" />
    <glyph glyph-name="uni04C9" unicode="&#x4ca;" 
d="M1360 -205v205h-410v614h-409v-614h-410v1434h410v-615h409v615h410v-1229h205v-410h-205zM1155 -410v205h205v-205h-205z" />
    <glyph glyph-name="uni04CB" unicode="&#x4cb;" 
d="M1360 -205v205h-410v614h-614v205h-205v615h410v-615h409v615h410v-1229h205v-410h-205zM1155 -410v205h205v-205h-205z" />
    <glyph glyph-name="uni04CB" unicode="&#x4cc;" 
d="M1360 -205v205h-410v614h-614v205h-205v615h410v-615h409v615h410v-1229h205v-410h-205zM1155 -410v205h205v-205h-205z" />
    <glyph glyph-name="uni04CD" unicode="&#x4cd;" 
d="M1360 -205v205h-205v614h-205v-204h-409v204h-205v-614h-205v1434h205v-205h205v-205h409v205h205v205h205v-1229h205v-410h-205zM1155 -410v205h205v-205h-205z" />
    <glyph glyph-name="uni04CD" unicode="&#x4ce;" 
d="M1360 -205v205h-205v614h-205v-204h-409v204h-205v-614h-205v1434h205v-205h205v-205h409v205h205v205h205v-1229h205v-410h-205zM1155 -410v205h205v-205h-205z" />
    <glyph glyph-name="uni04DA" unicode="&#x4da;" 
d="M131 1024v205h205v205h1024v-205h205v-1024h-205v-205h-1024v205h-205v614h1024v410h-614v-205h-410zM1155 614h-614v-409h614v409zM950 2048h410v-410h-410v410zM336 1638v410h409v-410h-409z" />
    <glyph glyph-name="uni04DA" unicode="&#x4db;" 
d="M131 1024v205h205v205h1024v-205h205v-1024h-205v-205h-1024v205h-205v614h1024v410h-614v-205h-410zM1155 614h-614v-409h614v409zM950 2048h410v-410h-410v410zM336 1638v410h409v-410h-409z" />
    <glyph glyph-name="uni04DC" unicode="&#x4dc;" 
d="M1360 819h-205v-205h205v-204h205v-410h-205v205h-205v205h-205v-410h-205v410h-204v-205h-205v-205h-205v410h205v204h205v205h-205v205h-205v410h205v-205h205v-205h204v410h205v-410h205v205h205v205h205v-410h-205v-205zM950 2048h410v-410h-410v410zM336 1638v410
h409v-410h-409z" />
    <glyph glyph-name="uni04DC" unicode="&#x4dd;" 
d="M1360 819h-205v-205h205v-204h205v-410h-205v205h-205v205h-205v-410h-205v410h-204v-205h-205v-205h-205v410h205v204h205v205h-205v205h-205v410h205v-205h205v-205h204v410h205v-410h205v205h205v205h205v-410h-205v-205zM950 2048h410v-410h-410v410zM336 1638v410
h409v-410h-409z" />
    <glyph glyph-name="uni04DE" unicode="&#x4de;" 
d="M1155 819v410h-614v-205h-410v205h205v205h1024v-205h205v-410h-205v-205h205v-409h-205v-205h-1024v205h-205v205h410v-205h614v409h-614v205h614zM950 2048h410v-410h-410v410zM336 1638v410h409v-410h-409z" />
    <glyph glyph-name="uni04DE" unicode="&#x4df;" 
d="M1155 819v410h-614v-205h-410v205h205v205h1024v-205h205v-410h-205v-205h205v-409h-205v-205h-1024v205h-205v205h410v-205h614v409h-614v205h614zM950 2048h410v-410h-410v410zM336 1638v410h409v-410h-409z" />
    <glyph glyph-name="uni04E2" unicode="&#x4e2;" 
d="M131 0v1434h410v-615h204v205h205v205h205v205h410v-1434h-410v614h-205v-204h-205v-205h-204v-205h-410zM1155 1638h-614v205h614v-205z" />
    <glyph glyph-name="uni04E2" unicode="&#x4e3;" 
d="M131 0v1434h410v-615h204v205h205v205h205v205h410v-1434h-410v614h-205v-204h-205v-205h-204v-205h-410zM1155 1638h-614v205h614v-205z" />
    <glyph glyph-name="uni04E4" unicode="&#x4e4;" 
d="M131 0v1434h410v-615h204v205h205v205h205v205h410v-1434h-410v614h-205v-204h-205v-205h-204v-205h-410zM950 2048h410v-410h-410v410zM336 1638v410h409v-410h-409z" />
    <glyph glyph-name="uni04E4" unicode="&#x4e5;" 
d="M131 0v1434h410v-615h204v205h205v205h205v205h410v-1434h-410v614h-205v-204h-205v-205h-204v-205h-410zM950 2048h410v-410h-410v410zM336 1638v410h409v-410h-409z" />
    <glyph glyph-name="uni04EA" unicode="&#x4ea;" 
d="M1565 1229v-1024h-205v-205h-1024v205h-205v1024h205v205h1024v-205h205zM541 1229v-410h614v410h-614zM541 205h614v409h-614v-409zM950 2048h410v-410h-410v410zM336 1638v410h409v-410h-409z" />
    <glyph glyph-name="uni04EA" unicode="&#x4eb;" 
d="M1565 1229v-1024h-205v-205h-1024v205h-205v1024h205v205h1024v-205h205zM541 1229v-410h614v410h-614zM541 205h614v409h-614v-409zM950 2048h410v-410h-410v410zM336 1638v410h409v-410h-409z" />
    <glyph glyph-name="uni04EC" unicode="&#x4ec;" 
d="M131 205v205h410v-205h409v205h205v204h-614v205h614v205h-205v205h-409v-205h-410v205h205v205h819v-205h205v-205h205v-614h-205v-205h-205v-205h-819v205h-205zM950 2048h410v-410h-410v410zM336 1638v410h409v-410h-409z" />
    <glyph glyph-name="uni04EC" unicode="&#x4ed;" 
d="M131 205v205h410v-205h409v205h205v204h-614v205h614v205h-205v205h-409v-205h-410v205h205v205h819v-205h205v-205h205v-614h-205v-205h-205v-205h-819v205h-205zM950 2048h410v-410h-410v410zM336 1638v410h409v-410h-409z" />
    <glyph glyph-name="uni04EE" unicode="&#x4ee;" 
d="M131 205v205h410v-205h614v409h-819v205h-205v615h410v-615h614v615h410v-1229h-205v-205h-1024v205h-205zM1155 1638h-614v205h614v-205z" />
    <glyph glyph-name="uni04EE" unicode="&#x4ef;" 
d="M131 205v205h410v-205h614v409h-819v205h-205v615h410v-615h614v615h410v-1229h-205v-205h-1024v205h-205zM1155 1638h-614v205h614v-205z" />
    <glyph glyph-name="uni04F0" unicode="&#x4f0;" 
d="M131 205v205h410v-205h614v409h-819v205h-205v615h410v-615h614v615h410v-1229h-205v-205h-1024v205h-205zM950 2048h410v-410h-410v410zM336 1638v410h409v-410h-409z" />
    <glyph glyph-name="uni04F0" unicode="&#x4f1;" 
d="M131 205v205h410v-205h614v409h-819v205h-205v615h410v-615h614v615h410v-1229h-205v-205h-1024v205h-205zM950 2048h410v-410h-410v410zM336 1638v410h409v-410h-409z" />
    <glyph glyph-name="uni04F2" unicode="&#x4f2;" 
d="M131 205v205h410v-205h614v409h-819v205h-205v615h410v-615h614v615h410v-1229h-205v-205h-1024v205h-205zM745 1638h-409v205h205v205h409v-205h-205v-205zM1360 1638h-410v205h205v205h410v-205h-205v-205z" />
    <glyph glyph-name="uni04F2" unicode="&#x4f3;" 
d="M131 205v205h410v-205h614v409h-819v205h-205v615h410v-615h614v615h410v-1229h-205v-205h-1024v205h-205zM745 1638h-409v205h205v205h409v-205h-205v-205zM1360 1638h-410v205h205v205h410v-205h-205v-205z" />
    <glyph glyph-name="uni04F4" unicode="&#x4f4;" 
d="M131 819v615h410v-615h614v615h410v-1434h-410v614h-819v205h-205zM950 2048h410v-410h-410v410zM336 1638v410h409v-410h-409z" />
    <glyph glyph-name="uni04F4" unicode="&#x4f5;" 
d="M131 819v615h410v-615h614v615h410v-1434h-410v614h-819v205h-205zM950 2048h410v-410h-410v410zM336 1638v410h409v-410h-409z" />
    <glyph glyph-name="uni04F6" unicode="&#x4f6;" 
d="M541 -410v410h-410v1434h1434v-205h-1024v-1024h204v-615h-204z" />
    <glyph glyph-name="uni04F6" unicode="&#x4f7;" 
d="M541 -410v410h-410v1434h1434v-205h-1024v-1024h204v-615h-204z" />
    <glyph glyph-name="uni04F8" unicode="&#x4f8;" 
d="M688 614h-205v-409h205v409zM1098 614v-409h-205v-205h-819v1434h409v-615h410v-205h205zM1200 1434h410v-1434h-410v1434zM950 2048h410v-410h-410v410zM336 1638v410h409v-410h-409z" />
    <glyph glyph-name="uni04F8" unicode="&#x4f9;" 
d="M688 614h-205v-409h205v409zM1098 614v-409h-205v-205h-819v1434h409v-615h410v-205h205zM1200 1434h410v-1434h-410v1434zM950 2048h410v-410h-410v410zM336 1638v410h409v-410h-409z" />
    <glyph glyph-name="uni04FA" unicode="&#x4fa;" 
d="M131 -410v205h205v819h-205v205h205v615h1229v-205h-820v-410h410v-205h-410v-819h-204v-205h-410z" />
    <glyph glyph-name="uni04FA" unicode="&#x4fb;" 
d="M131 -410v205h205v819h-205v205h205v615h1229v-205h-820v-410h410v-205h-410v-819h-204v-205h-410z" />
    <glyph glyph-name="uni04FC" unicode="&#x4fc;" 
d="M1565 410v-615h-205v-205h-615v205h410v410h-205v205h-205v-205h-204v-205h-410v410h205v204h205v205h-205v205h-205v410h410v-205h204v-205h205v205h205v205h410v-410h-205v-205h-205v-205h205v-204h205z" />
    <glyph glyph-name="uni04FC" unicode="&#x4fd;" 
d="M1565 410v-615h-205v-205h-615v205h410v410h-205v205h-205v-205h-204v-205h-410v410h205v204h205v205h-205v205h-205v410h410v-205h204v-205h205v205h205v205h410v-410h-205v-205h-205v-205h205v-204h205z" />
    <glyph glyph-name="uni04FE" unicode="&#x4fe;" 
d="M131 614v205h205v205h-205v410h410v-205h204v-205h205v205h205v205h410v-410h-205v-205h205v-205h-205v-204h205v-410h-410v205h-205v205h-205v-205h-204v-205h-410v410h205v204h-205z" />
    <glyph glyph-name="uni04FE" unicode="&#x4ff;" 
d="M131 614v205h205v205h-205v410h410v-205h204v-205h205v205h205v205h410v-410h-205v-205h205v-205h-205v-204h205v-410h-410v205h-205v205h-205v-205h-204v-205h-410v410h205v204h-205z" />
    <glyph glyph-name="uni0510" unicode="&#x510;" 
d="M541 1229v-410h614v-205h-614v-409h614v205h410v-205h-205v-205h-1024v205h-205v409h205v205h-205v410h205v205h1024v-205h205v-205h-410v205h-614z" />
    <glyph glyph-name="uni0510" unicode="&#x511;" 
d="M541 1229v-410h614v-205h-614v-409h614v205h410v-205h-205v-205h-1024v205h-205v409h205v205h-205v410h205v205h1024v-205h205v-205h-410v205h-614z" />
    <glyph glyph-name="uni0512" unicode="&#x512;" 
d="M745 -410v205h410v1434h-410v-1024h-204v-205h-410v205h205v205h205v1024h1024v-1639h-205v-205h-615z" />
    <glyph glyph-name="uni0512" unicode="&#x513;" 
d="M745 -410v205h410v1434h-410v-1024h-204v-205h-410v205h205v205h205v1024h1024v-1639h-205v-205h-615z" />
    <glyph glyph-name="uni0524" unicode="&#x524;" 
d="M1360 -410v410h-410v1229h-409v-1229h-410v1434h1229v-1229h205v-615h-205z" />
    <glyph glyph-name="uni0524" unicode="&#x525;" 
d="M1360 -410v410h-410v1229h-409v-1229h-410v1434h1229v-1229h205v-615h-205z" />
    <glyph glyph-name="uni0526" unicode="&#x526;" 
d="M1360 614v-409h205v-615h-205v410h-410v614h-409v-614h-410v1434h410v-615h614v-205h205z" />
    <glyph glyph-name="uni0526" unicode="&#x527;" 
d="M1360 614v-409h205v-615h-205v410h-410v614h-409v-614h-410v1434h410v-615h614v-205h205z" />
    <glyph glyph-name="uni052E" unicode="&#x52e;" 
d="M1360 -410v410h-410v1229h-205v-1024h-204v-205h-410v205h205v205h205v1024h819v-1229h205v-615h-205z" />
    <glyph glyph-name="uni052E" unicode="&#xf531;" 
d="M1360 -410v410h-410v1229h-205v-1024h-204v-205h-410v205h205v205h205v1024h819v-1229h205v-615h-205z" />
    <glyph glyph-name="uni052E" unicode="&#xf530;" 
d="M1360 -410v410h-410v1229h-205v-1024h-204v-205h-410v205h205v205h205v1024h819v-1229h205v-615h-205z" />
    <glyph glyph-name="uni052E" unicode="&#x52f;" 
d="M1360 -410v410h-410v1229h-205v-1024h-204v-205h-410v205h205v205h205v1024h819v-1229h205v-615h-205z" />
    <glyph glyph-name="uni058F" unicode="&#x58f;" 
d="M131 819v410h205v205h819v-205h205v-205h205v-205h-205v-205h205v-204h-205v-410h-410v410h-205v204h205v205h-205v205h205v205h-409v-205h-205v-205h-205z" />
    <glyph glyph-name="uni1E02" unicode="&#x1e02;" 
d="M1565 614v-409h-205v-205h-1229v1434h1229v-205h205v-410h-205v-205h205zM541 819h614v410h-614v-410zM541 205h614v409h-614v-409zM541 1638v410h409v-410h-409z" />
    <glyph glyph-name="uni1E02" unicode="&#x1e03;" 
d="M1565 614v-409h-205v-205h-1229v1434h1229v-205h205v-410h-205v-205h205zM541 819h614v410h-614v-410zM541 205h614v409h-614v-409zM541 1638v410h409v-410h-409z" />
    <glyph glyph-name="uni1E0A" unicode="&#x1e0a;" 
d="M1565 1024v-614h-205v-205h-205v-205h-1024v1434h1024v-205h205v-205h205zM950 410h205v614h-205v205h-409v-1024h409v205zM541 1638v410h409v-410h-409z" />
    <glyph glyph-name="uni1E0A" unicode="&#x1e0b;" 
d="M1565 1024v-614h-205v-205h-205v-205h-1024v1434h1024v-205h205v-205h205zM950 410h205v614h-205v205h-409v-1024h409v205zM541 1638v410h409v-410h-409z" />
    <glyph glyph-name="uni1E0C" unicode="&#x1e0c;" 
d="M541 -410v410h-410v1434h1024v-205h205v-205h205v-614h-205v-205h-205v-205h-205v-410h-409zM950 410h205v614h-205v205h-409v-1024h409v205z" />
    <glyph glyph-name="uni1E0C" unicode="&#x1e0d;" 
d="M541 -410v410h-410v1434h1024v-205h205v-205h205v-614h-205v-205h-205v-205h-205v-410h-409zM950 410h205v614h-205v205h-409v-1024h409v205z" />
    <glyph glyph-name="uni1E12" unicode="&#x1e12;" 
d="M541 -410h-410v205h205v205h-205v1434h1024v-205h205v-205h205v-614h-205v-205h-205v-205h-205v-205h205v-205h-410v205h-204v-205zM950 410h205v614h-205v205h-409v-1024h409v205z" />
    <glyph glyph-name="uni1E12" unicode="&#x1e13;" 
d="M541 -410h-410v205h205v205h-205v1434h1024v-205h205v-205h205v-614h-205v-205h-205v-205h-205v-205h205v-205h-410v205h-204v-205zM950 410h205v614h-205v205h-409v-1024h409v205z" />
    <glyph glyph-name="uni1E1E" unicode="&#x1e1e;" 
d="M1565 1434v-205h-1024v-410h819v-205h-819v-614h-410v1434h1434zM643 1638v410h410v-410h-410z" />
    <glyph glyph-name="uni1E1E" unicode="&#x1e1f;" 
d="M1565 1434v-205h-1024v-410h819v-205h-819v-614h-410v1434h1434zM643 1638v410h410v-410h-410z" />
    <glyph glyph-name="uni1E22" unicode="&#x1e22;" 
d="M1565 1434v-1434h-410v614h-614v-614h-410v1434h410v-615h614v615h410zM643 1638v410h410v-410h-410z" />
    <glyph glyph-name="uni1E22" unicode="&#x1e23;" 
d="M1565 1434v-1434h-410v614h-614v-614h-410v1434h410v-615h614v615h410zM643 1638v410h410v-410h-410z" />
    <glyph glyph-name="uni1E24" unicode="&#x1e24;" 
d="M1565 1434v-1434h-410v614h-614v-614h-410v1434h410v-615h614v615h410zM643 -410v410h410v-410h-410z" />
    <glyph glyph-name="uni1E24" unicode="&#x1e25;" 
d="M1565 1434v-1434h-410v614h-614v-614h-410v1434h410v-615h614v615h410zM643 -410v410h410v-410h-410z" />
    <glyph glyph-name="uni1E3C" unicode="&#x1e3c;" 
d="M745 -410h-409v205h205v205h-410v1434h410v-1229h1024v-205h-410v-205h205v-205h-410v205h-205v-205z" />
    <glyph glyph-name="uni1E3C" unicode="&#x1e3d;" 
d="M745 -410h-409v205h205v205h-410v1434h410v-1229h1024v-205h-410v-205h205v-205h-410v205h-205v-205z" />
    <glyph glyph-name="uni1E44" unicode="&#x1e44;" 
d="M1565 1434v-1434h-410v205h-205v205h-205v204h-204v-614h-410v1434h410v-205h204v-205h205v-205h205v615h410zM643 1638v410h410v-410h-410z" />
    <glyph glyph-name="uni1E44" unicode="&#x1e45;" 
d="M1565 1434v-1434h-410v205h-205v205h-205v204h-204v-614h-410v1434h410v-205h204v-205h205v-205h205v615h410zM643 1638v410h410v-410h-410z" />
    <glyph glyph-name="uni1E4A" unicode="&#x1e4a;" 
d="M1565 1434v-1434h-410v205h-205v205h-205v204h-204v-614h-410v1434h410v-205h204v-205h205v-205h205v615h410zM745 -410h-409v205h205v205h614v-205h205v-205h-410v205h-205v-205z" />
    <glyph glyph-name="uni1E4A" unicode="&#x1e4b;" 
d="M1565 1434v-1434h-410v205h-205v205h-205v204h-204v-614h-410v1434h410v-205h204v-205h205v-205h205v615h410zM745 -410h-409v205h205v205h614v-205h205v-205h-410v205h-205v-205z" />
    <glyph glyph-name="uni1E56" unicode="&#x1e56;" 
d="M1565 1229v-615h-205v-204h-819v-410h-410v1434h1229v-205h205zM541 614h614v615h-614v-615zM643 1638v410h410v-410h-410z" />
    <glyph glyph-name="uni1E56" unicode="&#x1e57;" 
d="M1565 1229v-615h-205v-204h-819v-410h-410v1434h1229v-205h205zM541 614h614v615h-614v-615zM643 1638v410h410v-410h-410z" />
    <glyph glyph-name="uni1E5A" unicode="&#x1e5a;" 
d="M1565 205v-205h-615v205h-205v205h-204v-410h-410v1434h1229v-205h205v-615h-410v-204h205v-205h205zM950 819h205v410h-614v-615h409v205zM541 -410v410h409v-410h-409z" />
    <glyph glyph-name="uni1E5A" unicode="&#x1e5b;" 
d="M1565 205v-205h-615v205h-205v205h-204v-410h-410v1434h1229v-205h205v-615h-410v-204h205v-205h205zM950 819h205v410h-614v-615h409v205zM541 -410v410h409v-410h-409z" />
    <glyph glyph-name="uni1E60" unicode="&#x1e60;" 
d="M1565 614v-409h-205v-205h-1024v205h-205v205h410v-205h614v409h-819v205h-205v410h205v205h819v-205h205v-205h-410v205h-409v-410h819v-205h205zM541 1638v410h409v-410h-409z" />
    <glyph glyph-name="uni1E60" unicode="&#x1e61;" 
d="M1565 614v-409h-205v-205h-1024v205h-205v205h410v-205h614v409h-819v205h-205v410h205v205h819v-205h205v-205h-410v205h-409v-410h819v-205h205zM541 1638v410h409v-410h-409z" />
    <glyph glyph-name="uni1E62" unicode="&#x1e62;" 
d="M643 -410v410h-307v205h-205v205h410v-205h614v409h-819v205h-205v410h205v205h819v-205h205v-205h-410v205h-409v-410h819v-205h205v-409h-205v-205h-307v-410h-410z" />
    <glyph glyph-name="uni1E62" unicode="&#x1e63;" 
d="M643 -410v410h-307v205h-205v205h410v-205h614v409h-819v205h-205v410h205v205h819v-205h205v-205h-410v205h-409v-410h819v-205h205v-409h-205v-205h-307v-410h-410z" />
    <glyph glyph-name="uni1E6A" unicode="&#x1e6a;" 
d="M1462 1434v-205h-409v-1229h-410v1229h-410v205h1229zM643 1638v410h410v-410h-410z" />
    <glyph glyph-name="uni1E6A" unicode="&#x1e6b;" 
d="M1462 1434v-205h-409v-1229h-410v1229h-410v205h1229zM643 1638v410h410v-410h-410z" />
    <glyph glyph-name="uni1E6C" unicode="&#x1e6c;" 
d="M643 -410v1639h-410v205h1229v-205h-409v-1639h-410z" />
    <glyph glyph-name="uni1E6C" unicode="&#x1e6d;" 
d="M643 -410v1639h-410v205h1229v-205h-409v-1639h-410z" />
    <glyph glyph-name="Wgrave" unicode="&#x1e80;" 
d="M1565 1434v-1434h-410v205h-205v205h-205v-205h-204v-205h-410v1434h410v-615h204v205h205v-205h205v615h410zM1073 1638h-409v205h-205v205h409v-205h205v-205z" />
    <glyph glyph-name="Wgrave" unicode="&#x1e81;" 
d="M1565 1434v-1434h-410v205h-205v205h-205v-205h-204v-205h-410v1434h410v-615h204v205h205v-205h205v615h410zM1073 1638h-409v205h-205v205h409v-205h205v-205z" />
    <glyph glyph-name="Wacute" unicode="&#x1e82;" 
d="M1565 1434v-1434h-410v205h-205v205h-205v-205h-204v-205h-410v1434h410v-615h204v205h205v-205h205v615h410zM1032 1638h-409v205h204v205h410v-205h-205v-205z" />
    <glyph glyph-name="Wacute" unicode="&#x1e83;" 
d="M1565 1434v-1434h-410v205h-205v205h-205v-205h-204v-205h-410v1434h410v-615h204v205h205v-205h205v615h410zM1032 1638h-409v205h204v205h410v-205h-205v-205z" />
    <glyph glyph-name="Wdieresis" unicode="&#x1e84;" 
d="M1565 1434v-1434h-410v205h-205v205h-205v-205h-204v-205h-410v1434h410v-615h204v205h205v-205h205v615h410zM950 2048h410v-410h-410v410zM336 1638v410h409v-410h-409z" />
    <glyph glyph-name="Wdieresis" unicode="&#x1e85;" 
d="M1565 1434v-1434h-410v205h-205v205h-205v-205h-204v-205h-410v1434h410v-615h204v205h205v-205h205v615h410zM950 2048h410v-410h-410v410zM336 1638v410h409v-410h-409z" />
    <glyph glyph-name="uni1E92" unicode="&#x1e92;" 
d="M745 -410v410h-614v410h205v204h205v205h204v205h205v205h-819v205h1434v-410h-205v-205h-205v-205h-205v-204h-205v-205h820v-205h-410v-410h-410z" />
    <glyph glyph-name="uni1E92" unicode="&#x1e93;" 
d="M745 -410v410h-614v410h205v204h205v205h204v205h205v205h-819v205h1434v-410h-205v-205h-205v-205h-205v-204h-205v-205h820v-205h-410v-410h-410z" />
    <glyph glyph-name="uni1E9E" unicode="&#x1e9e;" 
d="M950 614v205h-205v205h205v205h-409v-1229h-410v1229h205v205h1229v-205h-205v-205h-205v-205h205v-205h205v-409h-410v409h-205zM745 0v205h615v-205h-615z" />
    <glyph glyph-name="uni1EA0" unicode="&#x1ea0;" 
d="M1565 1024v-1024h-410v410h-614v-410h-410v1024h205v205h205v205h614v-205h205v-205h205zM541 614h614v410h-205v205h-205v-205h-204v-410zM639 -410v410h410v-410h-410z" />
    <glyph glyph-name="uni1EA0" unicode="&#x1ea1;" 
d="M1565 1024v-1024h-410v410h-614v-410h-410v1024h205v205h205v205h614v-205h205v-205h205zM541 614h614v410h-205v205h-205v-205h-204v-410zM639 -410v410h410v-410h-410z" />
    <glyph glyph-name="uni1EA2" unicode="&#x1ea2;" 
d="M745 1434v204h205v-204h205v-205h205v-205h205v-1024h-410v410h-614v-410h-410v1024h205v205h205v205h204zM541 614h614v410h-205v205h-205v-205h-204v-410zM541 1843v205h614v-410h-205v205h-409z" />
    <glyph glyph-name="uni1EA2" unicode="&#x1ea3;" 
d="M745 1434v204h205v-204h205v-205h205v-205h205v-1024h-410v410h-614v-410h-410v1024h205v205h205v205h204zM541 614h614v410h-205v205h-205v-205h-204v-410zM541 1843v205h614v-410h-205v205h-409z" />
    <glyph glyph-name="uni1EA4" unicode="&#x1ea4;" 
d="M1565 1024v-1024h-410v410h-614v-410h-410v1024h205v205h205v205h614v-205h205v-205h205zM541 614h614v410h-205v205h-205v-205h-204v-410zM772 1536h-307v154h153v153h461v-153h154v-154h-307v154h-154v-154zM1079 1946h-307v153h154v154h307v-154h-154v-153z" />
    <glyph glyph-name="uni1EA4" unicode="&#x1ea5;" 
d="M1565 1024v-1024h-410v410h-614v-410h-410v1024h205v205h205v205h614v-205h205v-205h205zM541 614h614v410h-205v205h-205v-205h-204v-410zM772 1536h-307v154h153v153h461v-153h154v-154h-307v154h-154v-154zM1079 1946h-307v153h154v154h307v-154h-154v-153z" />
    <glyph glyph-name="uni1EA6" unicode="&#x1ea6;" 
d="M1565 1024v-1024h-410v410h-614v-410h-410v1024h205v205h205v205h614v-205h205v-205h205zM541 614h614v410h-205v205h-205v-205h-204v-410zM774 1536h-307v154h154v153h460v-153h154v-154h-307v154h-154v-154zM928 1946h-307v153h-154v154h307v-154h154v-153z" />
    <glyph glyph-name="uni1EA6" unicode="&#x1ea7;" 
d="M1565 1024v-1024h-410v410h-614v-410h-410v1024h205v205h205v205h614v-205h205v-205h205zM541 614h614v410h-205v205h-205v-205h-204v-410zM774 1536h-307v154h154v153h460v-153h154v-154h-307v154h-154v-154zM928 1946h-307v153h-154v154h307v-154h154v-153z" />
    <glyph glyph-name="uni1EA8" unicode="&#x1ea8;" 
d="M1565 1024v-1024h-410v410h-614v-410h-410v1024h205v205h205v205h614v-205h205v-205h205zM541 614h614v410h-205v205h-205v-205h-204v-410zM774 1536h-307v154h154v153h460v-153h154v-154h-307v154h-154v-154zM1081 2099v154h461v-307h-153v153h-308zM1235 1792v154h154
v-154h-154z" />
    <glyph glyph-name="uni1EA8" unicode="&#x1ea9;" 
d="M1565 1024v-1024h-410v410h-614v-410h-410v1024h205v205h205v205h614v-205h205v-205h205zM541 614h614v410h-205v205h-205v-205h-204v-410zM774 1536h-307v154h154v153h460v-153h154v-154h-307v154h-154v-154zM1081 2099v154h461v-307h-153v153h-308zM1235 1792v154h154
v-154h-154z" />
    <glyph glyph-name="uni1EAA" unicode="&#x1eaa;" 
d="M1565 1024v-1024h-410v410h-614v-410h-410v1024h205v205h205v205h614v-205h205v-205h205zM541 614h614v410h-205v205h-205v-205h-204v-410zM774 1536h-307v154h154v153h460v-153h154v-154h-307v154h-154v-154zM694 1946h-153v153h153v154h154v-154h-154v-153zM1001 1946
h-153v153h153v154h154v-154h-154v-153z" />
    <glyph glyph-name="uni1EAA" unicode="&#x1eab;" 
d="M1565 1024v-1024h-410v410h-614v-410h-410v1024h205v205h205v205h614v-205h205v-205h205zM541 614h614v410h-205v205h-205v-205h-204v-410zM774 1536h-307v154h154v153h460v-153h154v-154h-307v154h-154v-154zM694 1946h-153v153h153v154h154v-154h-154v-153zM1001 1946
h-153v153h153v154h154v-154h-154v-153z" />
    <glyph glyph-name="uni1EAC" unicode="&#x1eac;" 
d="M1565 1024v-1024h-410v410h-614v-410h-410v1024h205v205h205v205h614v-205h205v-205h205zM541 614h614v410h-205v205h-205v-205h-204v-410zM745 1638h-409v205h205v205h614v-205h205v-205h-410v205h-205v-205zM639 -410v410h410v-410h-410z" />
    <glyph glyph-name="uni1EAC" unicode="&#x1ead;" 
d="M1565 1024v-1024h-410v410h-614v-410h-410v1024h205v205h205v205h614v-205h205v-205h205zM541 614h614v410h-205v205h-205v-205h-204v-410zM745 1638h-409v205h205v205h614v-205h205v-205h-410v205h-205v-205zM639 -410v410h410v-410h-410z" />
    <glyph glyph-name="uni1EAE" unicode="&#x1eae;" 
d="M1565 1024v-1024h-410v410h-614v-410h-410v1024h205v205h205v205h614v-205h205v-205h205zM541 614h614v410h-205v205h-205v-205h-204v-410zM999 1843h154v-307h-614v307h153v-153h307v153zM930 1946h-307v153h153v154h307v-154h-153v-153z" />
    <glyph glyph-name="uni1EAE" unicode="&#x1eaf;" 
d="M1565 1024v-1024h-410v410h-614v-410h-410v1024h205v205h205v205h614v-205h205v-205h205zM541 614h614v410h-205v205h-205v-205h-204v-410zM999 1843h154v-307h-614v307h153v-153h307v153zM930 1946h-307v153h153v154h307v-154h-153v-153z" />
    <glyph glyph-name="uni1EB0" unicode="&#x1eb0;" 
d="M1565 1024v-1024h-410v410h-614v-410h-410v1024h205v205h205v205h614v-205h205v-205h205zM541 614h614v410h-205v205h-205v-205h-204v-410zM1001 1843h154v-307h-614v307h153v-153h307v153zM1081 1946h-307v153h-153v154h307v-154h153v-153z" />
    <glyph glyph-name="uni1EB0" unicode="&#x1eb1;" 
d="M1565 1024v-1024h-410v410h-614v-410h-410v1024h205v205h205v205h614v-205h205v-205h205zM541 614h614v410h-205v205h-205v-205h-204v-410zM1001 1843h154v-307h-614v307h153v-153h307v153zM1081 1946h-307v153h-153v154h307v-154h153v-153z" />
    <glyph glyph-name="uni1EB2" unicode="&#x1eb2;" 
d="M1565 1024v-1024h-410v410h-614v-410h-410v1024h205v205h205v205h614v-205h205v-205h205zM541 614h614v410h-205v205h-205v-205h-204v-410zM1001 1843h154v-307h-614v307h153v-153h307v153zM1151 2099v154h461v-307h-154v153h-307zM1305 1792v154h153v-154h-153z" />
    <glyph glyph-name="uni1EB2" unicode="&#x1eb3;" 
d="M1565 1024v-1024h-410v410h-614v-410h-410v1024h205v205h205v205h614v-205h205v-205h205zM541 614h614v410h-205v205h-205v-205h-204v-410zM1001 1843h154v-307h-614v307h153v-153h307v153zM1151 2099v154h461v-307h-154v153h-307zM1305 1792v154h153v-154h-153z" />
    <glyph glyph-name="uni1EB4" unicode="&#x1eb4;" 
d="M1565 1024v-1024h-410v410h-614v-410h-410v1024h205v205h205v205h614v-205h205v-205h205zM541 614h614v410h-205v205h-205v-205h-204v-410zM1001 1843h154v-307h-614v307h153v-153h307v153zM694 1946h-153v153h153v154h154v-154h-154v-153zM1001 1946h-153v153h153v154
h154v-154h-154v-153z" />
    <glyph glyph-name="uni1EB4" unicode="&#x1eb5;" 
d="M1565 1024v-1024h-410v410h-614v-410h-410v1024h205v205h205v205h614v-205h205v-205h205zM541 614h614v410h-205v205h-205v-205h-204v-410zM1001 1843h154v-307h-614v307h153v-153h307v153zM694 1946h-153v153h153v154h154v-154h-154v-153zM1001 1946h-153v153h153v154
h154v-154h-154v-153z" />
    <glyph glyph-name="uni1EB6" unicode="&#x1eb6;" 
d="M1565 1024v-1024h-410v410h-614v-410h-410v1024h205v205h205v205h614v-205h205v-205h205zM541 614h614v410h-205v205h-205v-205h-204v-410zM1049 2048h204v-410h-819v410h205v-205h410v205zM639 -410v410h410v-410h-410z" />
    <glyph glyph-name="uni1EB6" unicode="&#x1eb7;" 
d="M1565 1024v-1024h-410v410h-614v-410h-410v1024h205v205h205v205h614v-205h205v-205h205zM541 614h614v410h-205v205h-205v-205h-204v-410zM1049 2048h204v-410h-819v410h205v-205h410v205zM639 -410v410h410v-410h-410z" />
    <glyph glyph-name="uni1EB8" unicode="&#x1eb8;" 
d="M621 -410v410h-490v1434h1434v-205h-1024v-410h819v-205h-819v-409h1024v-205h-535v-410h-409z" />
    <glyph glyph-name="uni1EB8" unicode="&#x1eb9;" 
d="M621 -410v410h-490v1434h1434v-205h-1024v-410h819v-205h-819v-409h1024v-205h-535v-410h-409z" />
    <glyph glyph-name="uni1EBA" unicode="&#x1eba;" 
d="M745 1434v204h205v-204h615v-205h-1024v-410h819v-205h-819v-409h1024v-205h-1434v1434h614zM541 1843v205h614v-410h-205v205h-409z" />
    <glyph glyph-name="uni1EBA" unicode="&#x1ebb;" 
d="M745 1434v204h205v-204h615v-205h-1024v-410h819v-205h-819v-409h1024v-205h-1434v1434h614zM541 1843v205h614v-410h-205v205h-409z" />
    <glyph glyph-name="uni1EBC" unicode="&#x1ebc;" 
d="M1565 205v-205h-1434v1434h1434v-205h-1024v-410h819v-205h-819v-409h1024zM745 1638h-204v205h204v205h205v-205h-205v-205zM1155 1638h-205v205h205v205h205v-205h-205v-205z" />
    <glyph glyph-name="uni1EBC" unicode="&#x1ebd;" 
d="M1565 205v-205h-1434v1434h1434v-205h-1024v-410h819v-205h-819v-409h1024zM745 1638h-204v205h204v205h205v-205h-205v-205zM1155 1638h-205v205h205v205h205v-205h-205v-205z" />
    <glyph glyph-name="uni1EBE" unicode="&#x1ebe;" 
d="M1565 205v-205h-1434v1434h1434v-205h-1024v-410h819v-205h-819v-409h1024zM772 1536h-307v154h153v153h461v-153h154v-154h-307v154h-154v-154zM1079 1946h-307v153h154v154h307v-154h-154v-153z" />
    <glyph glyph-name="uni1EBE" unicode="&#x1ebf;" 
d="M1565 205v-205h-1434v1434h1434v-205h-1024v-410h819v-205h-819v-409h1024zM772 1536h-307v154h153v153h461v-153h154v-154h-307v154h-154v-154zM1079 1946h-307v153h154v154h307v-154h-154v-153z" />
    <glyph glyph-name="uni1EC0" unicode="&#x1ec0;" 
d="M1565 205v-205h-1434v1434h1434v-205h-1024v-410h819v-205h-819v-409h1024zM774 1536h-307v154h154v153h460v-153h154v-154h-307v154h-154v-154zM928 1946h-307v153h-154v154h307v-154h154v-153z" />
    <glyph glyph-name="uni1EC0" unicode="&#x1ec1;" 
d="M1565 205v-205h-1434v1434h1434v-205h-1024v-410h819v-205h-819v-409h1024zM774 1536h-307v154h154v153h460v-153h154v-154h-307v154h-154v-154zM928 1946h-307v153h-154v154h307v-154h154v-153z" />
    <glyph glyph-name="uni1EC2" unicode="&#x1ec2;" 
d="M1565 205v-205h-1434v1434h1434v-205h-1024v-410h819v-205h-819v-409h1024zM774 1536h-307v154h154v153h460v-153h154v-154h-307v154h-154v-154zM1081 2099v154h461v-307h-153v153h-308zM1235 1792v154h154v-154h-154z" />
    <glyph glyph-name="uni1EC2" unicode="&#x1ec3;" 
d="M1565 205v-205h-1434v1434h1434v-205h-1024v-410h819v-205h-819v-409h1024zM774 1536h-307v154h154v153h460v-153h154v-154h-307v154h-154v-154zM1081 2099v154h461v-307h-153v153h-308zM1235 1792v154h154v-154h-154z" />
    <glyph glyph-name="uni1EC4" unicode="&#x1ec4;" 
d="M1565 205v-205h-1434v1434h1434v-205h-1024v-410h819v-205h-819v-409h1024zM774 1536h-307v154h154v153h460v-153h154v-154h-307v154h-154v-154zM694 1946h-153v153h153v154h154v-154h-154v-153zM1001 1946h-153v153h153v154h154v-154h-154v-153z" />
    <glyph glyph-name="uni1EC4" unicode="&#x1ec5;" 
d="M1565 205v-205h-1434v1434h1434v-205h-1024v-410h819v-205h-819v-409h1024zM774 1536h-307v154h154v153h460v-153h154v-154h-307v154h-154v-154zM694 1946h-153v153h153v154h154v-154h-154v-153zM1001 1946h-153v153h153v154h154v-154h-154v-153z" />
    <glyph glyph-name="uni1EC6" unicode="&#x1ec6;" 
d="M770 1638h-410v205h205v205h615v-205h204v-205h-409v205h-205v-205zM621 -410v410h-490v1434h1434v-205h-1024v-410h819v-205h-819v-409h1024v-205h-535v-410h-409z" />
    <glyph glyph-name="uni1EC6" unicode="&#x1ec7;" 
d="M770 1638h-410v205h205v205h615v-205h204v-205h-409v205h-205v-205zM621 -410v410h-490v1434h1434v-205h-1024v-410h819v-205h-819v-409h1024v-205h-535v-410h-409z" />
    <glyph glyph-name="uni1EC8" unicode="&#x1ec8;" 
d="M848 1434v204h205v-204h409v-205h-409v-1024h409v-205h-1229v205h410v1024h-410v205h615zM643 1843v205h614v-410h-204v205h-410z" />
    <glyph glyph-name="uni1EC8" unicode="&#x1ec9;" 
d="M848 1434v204h205v-204h409v-205h-409v-1024h409v-205h-1229v205h410v1024h-410v205h615zM643 1843v205h614v-410h-204v205h-410z" />
    <glyph glyph-name="uni1ECA" unicode="&#x1eca;" 
d="M643 -410v410h-410v205h410v1024h-410v205h1229v-205h-409v-1024h409v-205h-409v-410h-410z" />
    <glyph glyph-name="uni1ECA" unicode="&#x1ecb;" 
d="M643 -410v410h-410v205h410v1024h-410v205h1229v-205h-409v-1024h409v-205h-409v-410h-410z" />
    <glyph glyph-name="uni1ECC" unicode="&#x1ecc;" 
d="M643 -410v410h-307v205h-205v1024h205v205h1024v-205h205v-1024h-205v-205h-307v-410h-410zM541 205h614v1024h-614v-1024z" />
    <glyph glyph-name="uni1ECC" unicode="&#x1ecd;" 
d="M643 -410v410h-307v205h-205v1024h205v205h1024v-205h205v-1024h-205v-205h-307v-410h-410zM541 205h614v1024h-614v-1024z" />
    <glyph glyph-name="uni1ECE" unicode="&#x1ece;" 
d="M745 1434v204h205v-204h410v-205h205v-1024h-205v-205h-1024v205h-205v1024h205v205h409zM541 205h614v1024h-614v-1024zM541 1843v205h614v-410h-205v205h-409z" />
    <glyph glyph-name="uni1ECE" unicode="&#x1ecf;" 
d="M745 1434v204h205v-204h410v-205h205v-1024h-205v-205h-1024v205h-205v1024h205v205h409zM541 205h614v1024h-614v-1024zM541 1843v205h614v-410h-205v205h-409z" />
    <glyph glyph-name="uni1ED0" unicode="&#x1ed0;" 
d="M1565 1229v-1024h-205v-205h-1024v205h-205v1024h205v205h1024v-205h205zM541 205h614v1024h-614v-1024zM772 1536h-307v154h153v153h461v-153h154v-154h-307v154h-154v-154zM1079 1946h-307v153h154v154h307v-154h-154v-153z" />
    <glyph glyph-name="uni1ED0" unicode="&#x1ed1;" 
d="M1565 1229v-1024h-205v-205h-1024v205h-205v1024h205v205h1024v-205h205zM541 205h614v1024h-614v-1024zM772 1536h-307v154h153v153h461v-153h154v-154h-307v154h-154v-154zM1079 1946h-307v153h154v154h307v-154h-154v-153z" />
    <glyph glyph-name="uni1ED2" unicode="&#x1ed2;" 
d="M1565 1229v-1024h-205v-205h-1024v205h-205v1024h205v205h1024v-205h205zM541 205h614v1024h-614v-1024zM774 1536h-307v154h154v153h460v-153h154v-154h-307v154h-154v-154zM928 1946h-307v153h-154v154h307v-154h154v-153z" />
    <glyph glyph-name="uni1ED2" unicode="&#x1ed3;" 
d="M1565 1229v-1024h-205v-205h-1024v205h-205v1024h205v205h1024v-205h205zM541 205h614v1024h-614v-1024zM774 1536h-307v154h154v153h460v-153h154v-154h-307v154h-154v-154zM928 1946h-307v153h-154v154h307v-154h154v-153z" />
    <glyph glyph-name="uni1ED4" unicode="&#x1ed4;" 
d="M1565 1229v-1024h-205v-205h-1024v205h-205v1024h205v205h1024v-205h205zM541 205h614v1024h-614v-1024zM774 1536h-307v154h154v153h460v-153h154v-154h-307v154h-154v-154zM1081 2099v154h461v-307h-153v153h-308zM1235 1792v154h154v-154h-154z" />
    <glyph glyph-name="uni1ED4" unicode="&#x1ed5;" 
d="M1565 1229v-1024h-205v-205h-1024v205h-205v1024h205v205h1024v-205h205zM541 205h614v1024h-614v-1024zM774 1536h-307v154h154v153h460v-153h154v-154h-307v154h-154v-154zM1081 2099v154h461v-307h-153v153h-308zM1235 1792v154h154v-154h-154z" />
    <glyph glyph-name="uni1ED6" unicode="&#x1ed6;" 
d="M1565 1229v-1024h-205v-205h-1024v205h-205v1024h205v205h1024v-205h205zM541 205h614v1024h-614v-1024zM774 1536h-307v154h154v153h460v-153h154v-154h-307v154h-154v-154zM694 1946h-153v153h153v154h154v-154h-154v-153zM1001 1946h-153v153h153v154h154v-154h-154
v-153z" />
    <glyph glyph-name="uni1ED6" unicode="&#x1ed7;" 
d="M1565 1229v-1024h-205v-205h-1024v205h-205v1024h205v205h1024v-205h205zM541 205h614v1024h-614v-1024zM774 1536h-307v154h154v153h460v-153h154v-154h-307v154h-154v-154zM694 1946h-153v153h153v154h154v-154h-154v-153zM1001 1946h-153v153h153v154h154v-154h-154
v-153z" />
    <glyph glyph-name="uni1ED8" unicode="&#x1ed8;" 
d="M745 1638h-409v205h205v205h614v-205h205v-205h-410v205h-205v-205zM643 -410v410h-307v205h-205v1024h205v205h1024v-205h205v-1024h-205v-205h-307v-410h-410zM541 205h614v1024h-614v-1024z" />
    <glyph glyph-name="uni1ED8" unicode="&#x1ed9;" 
d="M745 1638h-409v205h205v205h614v-205h205v-205h-410v205h-205v-205zM643 -410v410h-307v205h-205v1024h205v205h1024v-205h205v-1024h-205v-205h-307v-410h-410zM541 205h614v1024h-614v-1024z" />
    <glyph glyph-name="uni1EDA" unicode="&#x1eda;" 
d="M1360 1229v-1024h-205v-205h-819v205h-205v1024h205v205h1024v204h205v-409h-205zM541 205h409v1024h-409v-1024zM950 1638h-409v205h204v205h410v-205h-205v-205z" />
    <glyph glyph-name="uni1EDA" unicode="&#x1edb;" 
d="M1360 1229v-1024h-205v-205h-819v205h-205v1024h205v205h1024v204h205v-409h-205zM541 205h409v1024h-409v-1024zM950 1638h-409v205h204v205h410v-205h-205v-205z" />
    <glyph glyph-name="uni1EDC" unicode="&#x1edc;" 
d="M1360 1229v-1024h-205v-205h-819v205h-205v1024h205v205h1024v204h205v-409h-205zM541 205h409v1024h-409v-1024zM950 1638h-409v205h-205v205h409v-205h205v-205z" />
    <glyph glyph-name="uni1EDC" unicode="&#x1edd;" 
d="M1360 1229v-1024h-205v-205h-819v205h-205v1024h205v205h1024v204h205v-409h-205zM541 205h409v1024h-409v-1024zM950 1638h-409v205h-205v205h409v-205h205v-205z" />
    <glyph glyph-name="uni1EDE" unicode="&#x1ede;" 
d="M1462 1229v-1024h-205v-205h-1024v205h-204v1024h204v205h410v204h205v-204h614v204h205v-409h-205zM438 205h615v1024h-615v-1024zM438 1843v205h615v-410h-205v205h-410z" />
    <glyph glyph-name="uni1EDE" unicode="&#x1edf;" 
d="M1462 1229v-1024h-205v-205h-1024v205h-204v1024h204v205h410v204h205v-204h614v204h205v-409h-205zM438 205h615v1024h-615v-1024zM438 1843v205h615v-410h-205v205h-410z" />
    <glyph glyph-name="uni1EE0" unicode="&#x1ee0;" 
d="M1360 1229v-1024h-205v-205h-819v205h-205v1024h205v205h1024v204h205v-409h-205zM541 205h409v1024h-409v-1024zM541 1638h-205v205h205v205h204v-205h-204v-205zM950 1638h-205v205h205v205h205v-205h-205v-205z" />
    <glyph glyph-name="uni1EE0" unicode="&#x1ee1;" 
d="M1360 1229v-1024h-205v-205h-819v205h-205v1024h205v205h1024v204h205v-409h-205zM541 205h409v1024h-409v-1024zM541 1638h-205v205h205v205h204v-205h-204v-205zM950 1638h-205v205h205v205h205v-205h-205v-205z" />
    <glyph glyph-name="uni1EE2" unicode="&#x1ee2;" 
d="M539 -410v410h-203v205h-205v1024h205v205h1024v204h205v-409h-205v-1024h-205v-205h-205v-410h-411zM541 205h409v1024h-409v-1024z" />
    <glyph glyph-name="uni1EE2" unicode="&#x1ee3;" 
d="M539 -410v410h-203v205h-205v1024h205v205h1024v204h205v-409h-205v-1024h-205v-205h-205v-410h-411zM541 205h409v1024h-409v-1024z" />
    <glyph glyph-name="uni1EE4" unicode="&#x1ee4;" 
d="M643 -410v410h-307v205h-205v1229h410v-1229h614v1229h410v-1229h-205v-205h-307v-410h-410z" />
    <glyph glyph-name="uni1EE4" unicode="&#x1ee5;" 
d="M643 -410v410h-307v205h-205v1229h410v-1229h614v1229h410v-1229h-205v-205h-307v-410h-410z" />
    <glyph glyph-name="uni1EE6" unicode="&#x1ee6;" 
d="M1565 1434v-1229h-205v-205h-1024v205h-205v1229h410v-1229h614v1229h410zM541 1843v205h614v-410h-205v205h-409zM745 1434v204h205v-204h-205z" />
    <glyph glyph-name="uni1EE6" unicode="&#x1ee7;" 
d="M1565 1434v-1229h-205v-205h-1024v205h-205v1229h410v-1229h614v1229h410zM541 1843v205h614v-410h-205v205h-409zM745 1434v204h205v-204h-205z" />
    <glyph glyph-name="uni1EE8" unicode="&#x1ee8;" 
d="M1155 1229v-1024h-205v-205h-614v205h-205v1229h410v-1229h204v1229h615v204h205v-409h-410zM950 1638h-409v205h204v205h410v-205h-205v-205z" />
    <glyph glyph-name="uni1EE8" unicode="&#x1ee9;" 
d="M1155 1229v-1024h-205v-205h-614v205h-205v1229h410v-1229h204v1229h615v204h205v-409h-410zM950 1638h-409v205h204v205h410v-205h-205v-205z" />
    <glyph glyph-name="uni1EEA" unicode="&#x1eea;" 
d="M1155 1229v-1024h-205v-205h-614v205h-205v1229h410v-1229h204v1229h615v204h205v-409h-410zM745 1638h-409v205h-205v205h410v-205h204v-205z" />
    <glyph glyph-name="uni1EEA" unicode="&#x1eeb;" 
d="M1155 1229v-1024h-205v-205h-614v205h-205v1229h410v-1229h204v1229h615v204h205v-409h-410zM745 1638h-409v205h-205v205h410v-205h204v-205z" />
    <glyph glyph-name="uni1EEC" unicode="&#x1eec;" 
d="M1155 1229v-1024h-205v-205h-614v205h-205v1229h410v-1229h204v1229h615v204h205v-409h-410zM336 1843v205h614v-410h-205v205h-409zM541 1434v204h204v-204h-204z" />
    <glyph glyph-name="uni1EEC" unicode="&#x1eed;" 
d="M1155 1229v-1024h-205v-205h-614v205h-205v1229h410v-1229h204v1229h615v204h205v-409h-410zM336 1843v205h614v-410h-205v205h-409zM541 1434v204h204v-204h-204z" />
    <glyph glyph-name="uni1EEE" unicode="&#x1eee;" 
d="M1155 1229v-1024h-205v-205h-614v205h-205v1229h410v-1229h204v1229h615v204h205v-409h-410zM541 1638h-205v205h205v205h204v-205h-204v-205zM950 1638h-205v205h205v205h205v-205h-205v-205z" />
    <glyph glyph-name="uni1EEE" unicode="&#x1eef;" 
d="M1155 1229v-1024h-205v-205h-614v205h-205v1229h410v-1229h204v1229h615v204h205v-409h-410zM541 1638h-205v205h205v205h204v-205h-204v-205zM950 1638h-205v205h205v205h205v-205h-205v-205z" />
    <glyph glyph-name="uni1EF0" unicode="&#x1ef0;" 
d="M438 -410v410h-102v205h-205v1229h410v-1229h204v1229h615v204h205v-409h-410v-1024h-205v-205h-102v-410h-410z" />
    <glyph glyph-name="uni1EF0" unicode="&#x1ef1;" 
d="M438 -410v410h-102v205h-205v1229h410v-1229h204v1229h615v204h205v-409h-410v-1024h-205v-205h-102v-410h-410z" />
    <glyph glyph-name="Ygrave" unicode="&#x1ef2;" 
d="M1462 1434v-615h-205v-205h-204v-614h-410v614h-207v205h-203v615h410v-615h410v615h409zM1044 1638h-409v205h-205v205h410v-205h204v-205z" />
    <glyph glyph-name="Ygrave" unicode="&#x1ef3;" 
d="M1462 1434v-615h-205v-205h-204v-614h-410v614h-207v205h-203v615h410v-615h410v615h409zM1044 1638h-409v205h-205v205h410v-205h204v-205z" />
    <glyph glyph-name="uni1EF6" unicode="&#x1ef6;" 
d="M1462 1434v-615h-205v-205h-204v-614h-410v614h-207v205h-203v615h410v-615h410v615h409zM541 1843v205h614v-410h-205v205h-409zM745 1434v204h205v-204h-205z" />
    <glyph glyph-name="uni1EF6" unicode="&#x1ef7;" 
d="M1462 1434v-615h-205v-205h-204v-614h-410v614h-207v205h-203v615h410v-615h410v615h409zM541 1843v205h614v-410h-205v205h-409zM745 1434v204h205v-204h-205z" />
    <glyph glyph-name="zerospace" unicode="&#x200b;" 
 />
    <glyph glyph-name="endash" unicode="&#x2013;" 
d="M1565 819v-205h-1434v205h1434z" />
    <glyph glyph-name="emdash" unicode="&#x2014;" 
d="M1696 819v-205h-1696v205h1696z" />
    <glyph glyph-name="quoteleft" unicode="&#x2018;" 
d="M643 614v615h205v-205h205v-410h-410zM848 1229v205h205v-205h-205z" />
    <glyph glyph-name="quoteright" unicode="&#x2019;" 
d="M1053 1434v-615h-205v205h-205v410h410zM848 819v-205h-205v205h205z" />
    <glyph glyph-name="quotesinglbase" unicode="&#x201a;" 
d="M1053 410v-615h-205v205h-205v410h410zM848 -205v-205h-205v205h205z" />
    <glyph glyph-name="quotedblleft" unicode="&#x201c;" 
d="M336 614v615h205v-205h204v-410h-409zM541 1229v205h204v-205h-204zM950 614v615h205v-205h205v-410h-410zM1155 1229v205h205v-205h-205z" />
    <glyph glyph-name="quotedblright" unicode="&#x201d;" 
d="M1360 1434v-615h-205v205h-205v410h410zM1155 819v-205h-205v205h205zM745 1434v-615h-204v205h-205v410h409zM541 819v-205h-205v205h205z" />
    <glyph glyph-name="quotedblbase" unicode="&#x201e;" 
d="M1360 410v-615h-205v205h-205v410h410zM1155 -205v-205h-205v205h205zM745 410v-615h-204v205h-205v410h409zM541 -205v-205h-205v205h205z" />
    <glyph glyph-name="dagger" unicode="&#x2020;" 
d="M950 1024v-1024h-205v1024h-409v205h409v205h205v-205h410v-205h-410z" />
    <glyph glyph-name="daggerdbl" unicode="&#x2021;" 
d="M1360 410v-205h-410v-205h-205v205h-409v205h409v614h-409v205h409v205h205v-205h410v-205h-410v-614h410z" />
    <glyph glyph-name="bullet" unicode="&#x2022;" 
d="M1155 1024v-614h-614v614h614z" />
    <glyph glyph-name="ellipsis" unicode="&#x2026;" 
d="M438 410v-410h-307v410h307zM1001 410v-410h-307v410h307zM1565 410v-410h-308v410h308z" />
    <glyph glyph-name="perthousand" unicode="&#x2030;" 
d="M131 1434h410v-410h-410v410zM336 614v-204h-205v204h205zM950 1229v-205h-205v205h205zM745 1024v-205h-204v205h204zM541 819v-205h-205v205h205zM1155 1434v-205h-205v205h205zM1155 614h410v-409h-410v409zM541 614h409v-409h-409v409z" />
    <glyph glyph-name="uni2032" unicode="&#x2032;" 
d="M950 1024v-205h-409v205h204v410h410v-410h-205z" />
    <glyph glyph-name="uni2033" unicode="&#x2033;" 
d="M950 819v205h205v410h410v-410h-205v-205h-410zM541 1024v-205h-410v205h205v410h409v-410h-204z" />
    <glyph glyph-name="guilsinglleft" unicode="&#x2039;" 
d="M745 614v-204h205v-205h205v-205h-410v205h-204v205h-205v204h205v205h204v205h410v-205h-205v-205h-205z" />
    <glyph glyph-name="guilsinglright" unicode="&#x203a;" 
d="M950 1024v-205h205v-205h205v-204h-205v-205h-205v-205h-409v205h204v205h205v204h-205v205h-204v205h409z" />
    <glyph glyph-name="fraction" unicode="&#x2044;" horiz-adv-x="0" 
d="M717 1434v-205h-205v205h205zM512 1229v-205h-205v205h205zM307 1024v-205h-205v205h205zM102 819v-205h-204v205h204zM-102 614v-204h-205v204h205zM-307 410v-205h-205v205h205zM-512 205v-205h-205v205h205z" />
    <glyph glyph-name="zerosuperior" unicode="&#x2070;" 
d="M541 614v205h-205v615h205v-615h614v-205h-614zM541 1434v204h614v-204h205v-615h-205v615h-614z" />
    <glyph glyph-name="foursuperior" unicode="&#x2074;" 
d="M1155 819v-205h-205v205h-614v205h205v205h204v-205h205v205h-205v205h205v204h205v-614h205v-205h-205z" />
    <glyph glyph-name="fivesuperior" unicode="&#x2075;" 
d="M1155 819v205h-819v614h1024v-204h-819v-205h614v-205h205v-205h-205zM336 614v205h819v-205h-819z" />
    <glyph glyph-name="sixsuperior" unicode="&#x2076;" 
d="M541 1024v-205h614v-205h-614v205h-205v615h205v-205h614v-205h205v-205h-205v205h-614zM541 1434v204h614v-204h-614z" />
    <glyph glyph-name="sevensuperior" unicode="&#x2077;" 
d="M336 1434v204h1024v-409h-205v205h-819zM745 614v410h205v-410h-205zM950 1024v205h205v-205h-205z" />
    <glyph glyph-name="eightsuperior" unicode="&#x2078;" 
d="M1155 819v205h-614v205h-205v205h205v-205h614v-205h205v-205h-205zM1155 1229v205h-614v204h614v-204h205v-205h-205zM541 614v205h-205v205h205v-205h614v-205h-614z" />
    <glyph glyph-name="ninesuperior" unicode="&#x2079;" 
d="M336 1229v205h205v-205h614v205h-614v204h614v-204h205v-615h-205v205h-614v205h-205zM541 614v205h614v-205h-614z" />
    <glyph glyph-name="zeroinferior" unicode="&#x2080;" 
d="M541 0v205h-205v614h205v-614h614v-205h-614zM541 819v205h614v-205h205v-614h-205v614h-614z" />
    <glyph glyph-name="oneinferior" unicode="&#x2081;" 
d="M336 0v205h409v409h-409v205h409v205h205v-819h410v-205h-1024z" />
    <glyph glyph-name="twoinferior" unicode="&#x2082;" 
d="M336 0v410h205v-205h819v-205h-1024zM1155 614v205h-819v205h819v-205h205v-205h-205zM541 410v204h614v-204h-614z" />
    <glyph glyph-name="threeinferior" unicode="&#x2083;" 
d="M336 819v205h1024v-410h-205v205h-819zM336 0v205h819v-205h-819zM1155 205v205h-410v204h410v-204h205v-205h-205z" />
    <glyph glyph-name="fourinferior" unicode="&#x2084;" 
d="M1155 205v-205h-205v205h-614v205h205v204h204v-204h205v204h-205v205h205v205h205v-614h205v-205h-205z" />
    <glyph glyph-name="fiveinferior" unicode="&#x2085;" 
d="M1155 205v205h-819v614h1024v-205h-819v-205h614v-204h205v-205h-205zM336 0v205h819v-205h-819z" />
    <glyph glyph-name="sixinferior" unicode="&#x2086;" 
d="M541 410v-205h614v-205h-614v205h-205v614h205v-205h614v-204h205v-205h-205v205h-614zM541 819v205h614v-205h-614z" />
    <glyph glyph-name="seveninferior" unicode="&#x2087;" 
d="M336 819v205h1024v-410h-205v205h-819zM745 0v410h205v-410h-205zM950 410v204h205v-204h-205z" />
    <glyph glyph-name="eightinferior" unicode="&#x2088;" 
d="M1155 205v205h-614v204h-205v205h205v-205h614v-204h205v-205h-205zM1155 614v205h-614v205h614v-205h205v-205h-205zM541 0v205h-205v205h205v-205h614v-205h-614z" />
    <glyph glyph-name="nineinferior" unicode="&#x2089;" 
d="M336 614v205h205v-205h614v205h-614v205h614v-205h205v-614h-205v205h-614v204h-205zM541 0v205h614v-205h-614z" />
    <glyph glyph-name="uni20A9" unicode="&#x20a9;" 
d="M1155 614v-204h410v-205h-410v-205h-205v205h-205v-205h-204v205h-410v205h410v204h-205v205h-205v205h205v205h-205v205h205v-205h205v-205h204v410h205v-410h205v205h205v-205h205v-205h-205v-205h-205zM1360 1229v205h205v-205h-205zM745 614v-204h205v204h-205z
M745 614v205h-204v-205h204zM950 614h205v205h-205v-205z" />
    <glyph glyph-name="uni20AA" unicode="&#x20aa;" 
d="M336 1024v-1024h-205v1434h819v-205h205v-615h-205v410h-614zM541 205v614h204v-409h615v1024h205v-1434h-820v205h-204z" />
    <glyph glyph-name="dong" unicode="&#x20ab;" 
d="M541 1434v204h409v205h410v-205h205v-204h-205v-1024h-1024v204h-205v410h205v205h614v205h-409zM131 0v205h1434v-205h-1434zM541 614h409v410h-409v-410z" />
    <glyph glyph-name="Euro" unicode="&#x20ac;" 
d="M1360 614v-204h-615v-205h820v-205h-1024v205h-205v205h-205v204h207v205h-207v205h205v205h205v205h1024v-205h-820v-205h820v-205h-820v-205h615z" />
    <glyph glyph-name="uni20AD" unicode="&#x20ad;" 
d="M131 614v205h205v615h205v-615h204v205h205v205h205v205h410v-205h-205v-205h-205v-205h410v-205h-410v-204h205v-205h205v-205h-615v205h-205v205h-204v-410h-205v614h-205z" />
    <glyph glyph-name="uni20AE" unicode="&#x20ae;" 
d="M1462 1434v-205h-409v-205h204v-205h-204v-205h204v-204h-204v-410h-410v205h-205v205h205v204h-205v205h205v410h-410v205h1229z" />
    <glyph glyph-name="uni20B1" unicode="&#x20b1;" 
d="M745 410v-410h-409v819h-205v205h205v410h1024v-205h205v-615h-205v-204h-615zM745 1229v-205h410v205h-410zM1155 614v205h-410v-205h410z" />
    <glyph glyph-name="uni20B2" unicode="&#x20b2;" 
d="M1155 1024v-205h410v-819h-1024v205h-205v205h-205v614h205v205h205v205h1024v-205h-205v-205h-205v205h-410v-205h-204v-410h204v-409h410v409h-410v205h205v205h205zM336 205v-205h-205v205h205z" />
    <glyph glyph-name="uni20B4" unicode="&#x20b4;" 
d="M131 1024v205h819v205h-614v204h819v-204h205v-205h205v-205h-205v-205h-410v-205h615v-204h-820v-205h615v-205h-819v205h-205v205h-205v204h205v205h409v205h-614z" />
    <glyph glyph-name="uni20B8" unicode="&#x20b8;" 
d="M1462 1024v-205h-409v-819h-410v819h-410v205h1229zM1462 1229h-1229v205h1229v-205z" />
    <glyph glyph-name="uni20B9" unicode="&#x20b9;" 
d="M1460 1024v-205h-205v-203h-206v-206h206v-201h205v-209h-614v209h-205v201h-207v206h412v203h-613v205h816v205h-816v205h1227v-205h-205v-205h205z" />
    <glyph glyph-name="uni20BA" unicode="&#x20ba;" 
d="M131 410v204h205v205h-205v205h205v410h409v-205h410v-205h-410v-205h410v-205h-410v-409h410v205h410v-205h-205v-205h-1024v410h-205z" />
    <glyph glyph-name="uni20BC" unicode="&#x20bc;" 
d="M1053 1434v-410h409v-205h205v-819h-410v819h-204v-819h-410v819h-205v-819h-409v819h204v205h410v410h410z" />
    <glyph glyph-name="uni20BD" unicode="&#x20bd;" 
d="M131 205v205h205v204h-205v205h205v615h1024v-205h205v-410h-205v-205h-615v-204h410v-205h-410v-205h-409v205h-205zM745 1229v-410h410v410h-410z" />
    <glyph glyph-name="uni20BE" unicode="&#x20be;" 
d="M131 0v205h205v205h-205v819h205v205h409v204h205v-204h205v204h205v-204h205v-205h-205v-410h-205v410h-205v-410h-205v410h-204v-819h204v-205h205v-205h-819z" />
    <glyph glyph-name="litre" unicode="&#x2113;" 
d="M1360 1229v-410h-205v410h-410v-615h205v-204h-205v-205h410v-205h-614v205h-205v1024h205v205h614v-205h205zM950 614v205h205v-205h-205z" />
    <glyph glyph-name="uni2116" unicode="&#x2116;" 
d="M336 819v-819h-205v1434h205v-205h205v-205h204v410h205v-1434h-205v614h-204v205h-205zM1155 819v615h410v-615h-410z" />
    <glyph glyph-name="uni2117" unicode="&#x2117;" 
d="M1565 1229v-1022h-205v1022h-1024v205h1024v-205h205zM1186 1100v-473h-518v-312h-158v785h676zM336 207h-205v1022h205v-1022zM336 0v207h1024v-207h-1024zM668 786h360v158h-360v-158z" />
    <glyph glyph-name="trademark" unicode="&#x2122;" 
d="M1155 1024v-205h-205v615h615v-615h-205v205h-205zM131 1229v205h614v-205h-204v-410h-205v410h-205z" />
    <glyph glyph-name="uni212E" unicode="&#x212e;" 
d="M1565 410v-205h-205v-205h-1024v205h-205v1024h205v205h1024v-205h205v-615h-1024v-409h614v205h410zM541 819h614v410h-614v-410z" />
    <glyph glyph-name="onethird" unicode="&#x2153;" 
d="M950 410v204h-205v205h-614v205h205v205h-205v205h205v204h205v-614h204v-205h205v-205h615v-204h-205v-205h205v-205h-205v205h-205v205h-205zM950 -205v205h410v-205h-410zM1360 1229v-205h-205v205h205zM336 205v-205h-205v205h205zM541 410v-205h-205v205h205z
M745 614v-204h-204v204h204zM1565 1434v-205h-205v205h205zM1155 1024v-205h-205v205h205z" />
    <glyph glyph-name="twothirds" unicode="&#x2154;" 
d="M950 410v204h-205v205h-614v205h205v205h205v-205h204v-205h205v-205h615v-204h-205v-205h205v-205h-205v205h-205v205h-205zM541 1229v205h-410v204h410v-204h204v-205h-204zM950 -205v205h410v-205h-410zM541 410v-205h-205v205h205zM745 614v-204h-204v204h204z
M1155 1024v-205h-205v205h205zM1360 1229v-205h-205v205h205zM1565 1434v-205h-205v205h205zM336 205v-205h-205v205h205z" />
    <glyph glyph-name="oneeighth" unicode="&#x215b;" 
d="M950 819v-205h205v-204h205v-205h205v-205h-205v205h-205v205h-205v204h-205v205h-614v205h205v205h-205v205h205v204h205v-614h204v-205h205zM1155 1024v-205h205v-205h205v-204h-205v204h-205v205h-205v205h205zM1155 -205v205h-205v205h205v-205h205v-205h-205z
M745 614v-204h-204v204h204zM1360 1229v-205h-205v205h205zM1565 1434v-205h-205v205h205zM541 410v-205h-205v205h205zM336 205v-205h-205v205h205z" />
    <glyph glyph-name="threeeighths" unicode="&#x215c;" 
d="M131 1229v205h614v-205h-204v-205h204v-205h205v-205h205v-204h205v-205h205v-205h-205v205h-205v205h-205v204h-205v205h-204v205h-205v205h-205zM745 614v-204h-204v204h-410v205h410v-205h204zM1360 410v204h-205v205h-205v205h205v-205h205v-205h205v-204h-205z
M1155 -205v205h-205v205h205v-205h205v-205h-205zM1360 1229v-205h-205v205h205zM336 205v-205h-205v205h205zM1565 1434v-205h-205v205h205zM541 410v-205h-205v205h205z" />
    <glyph glyph-name="fiveeighths" unicode="&#x215d;" 
d="M1360 0v205h-205v205h-205v204h-205v205h-204v205h-410v410h614v-205h-204v-205h204v-205h205v-205h205v-204h205v-205h205v-205h-205zM745 614v-204h-204v204h-410v205h410v-205h204zM1360 410v204h-205v205h-205v205h205v-205h205v-205h205v-204h-205zM1155 -205v205
h-205v205h205v-205h205v-205h-205zM1360 1229v-205h-205v205h205zM336 205v-205h-205v205h205zM1565 1434v-205h-205v205h205zM541 410v-205h-205v205h205z" />
    <glyph glyph-name="seveneighths" unicode="&#x215e;" 
d="M131 1229v205h614v-410h-204v205h-410zM1360 0v205h-205v205h-205v204h-205v205h205v-205h205v-204h205v-205h205v-205h-205zM1360 410v204h-205v205h-205v205h205v-205h205v-205h205v-204h-205zM1155 -205v205h-205v205h205v-205h205v-205h-205zM745 614v-204h-204v204
h204zM1360 1229v-205h-205v205h205zM336 819v205h205v-205h-205zM131 614v205h205v-205h-205zM1565 1434v-205h-205v205h205zM336 205v-205h-205v205h205zM541 410v-205h-205v205h205z" />
    <glyph glyph-name="uni2190" unicode="&#x2190;" 
d="M950 410v-410h-205v205h-204v205h-205v204h-205v205h205v205h205v205h204v205h205v-410h615v-614h-615z" />
    <glyph glyph-name="uni2191" unicode="&#x2191;" 
d="M541 614h-410v205h205v205h205v205h204v205h205v-205h205v-205h205v-205h205v-205h-410v-614h-614v614z" />
    <glyph glyph-name="uni2192" unicode="&#x2192;" 
d="M745 1024v410h205v-205h205v-205h205v-205h205v-205h-205v-204h-205v-205h-205v-205h-205v410h-614v614h614z" />
    <glyph glyph-name="uni2193" unicode="&#x2193;" 
d="M1155 819h410v-205h-205v-204h-205v-205h-205v-205h-205v205h-204v205h-205v204h-205v205h410v615h614v-615z" />
    <glyph glyph-name="partialdiff" unicode="&#x2202;" 
d="M541 205h614v409h-614v-409zM131 205v409h205v205h819v205h-205v205h-614v205h819v-205h205v-205h205v-819h-205v-205h-1024v205h-205z" />
    <glyph glyph-name="product" unicode="&#x220f;" 
d="M1565 1434v-1844h-410v1639h-614v-1639h-410v1844h1434z" />
    <glyph glyph-name="summation" unicode="&#x2211;" 
d="M1565 1434v-205h-1024v-205h204v-205h205v-205h205v-409h-205v-205h-205v-205h820v-205h-1434v410h205v205h205v205h204v204h-204v205h-205v205h-205v410h1434z" />
    <glyph glyph-name="minus" unicode="&#x2212;" 
d="M1462 819v-205h-1229v205h1229z" />
    <glyph glyph-name="radical" unicode="&#x221a;" 
d="M541 614v-409h204v-205h-204v205h-205v205h-205v204h410zM1360 1229v-205h-205v410h410v-205h-205zM745 205v409h205v-409h-205zM1155 1024v-410h-205v410h205z" />
    <glyph glyph-name="infinity" unicode="&#x221e;" 
d="M950 410h410v-205h-410v205h-205v614h-409v205h409v-205h205v-614zM336 410h409v-205h-409v205h-205v614h205v-614zM1565 1024v-614h-205v614h-410v205h410v-205h205z" />
    <glyph glyph-name="integral" unicode="&#x222b;" 
d="M438 -410v205h205v1639h205v204h409v-204h-204v-1639h-205v-205h-410z" />
    <glyph glyph-name="approxequal" unicode="&#x2248;" 
d="M1462 1229v-205h-205v205h205zM1257 1024v-205h-409v205h-410v205h410v-205h409zM438 1024v-205h-205v205h205zM1462 410v-205h-205v205h205zM1257 205v-205h-409v205h-410v205h410v-205h409zM438 205v-205h-205v205h205z" />
    <glyph glyph-name="notequal" unicode="&#x2260;" 
d="M1360 1229v-205h205v-205h-615v-205h615v-204h-1024v-205h-205v205h-205v204h614v205h-614v205h1024v205h205zM1565 1434v-205h-205v205h205zM336 205v-205h-205v205h205z" />
    <glyph glyph-name="lessequal" unicode="&#x2264;" 
d="M1360 0v-205h-1024v205h1024zM1360 410v-205h-410v205h-205v204h-204v207h-205v203h205v205h204v205h205v204h410v-204h-205v-205h-205v-205h-205v-203h205v-207h205v-204h205z" />
    <glyph glyph-name="greaterequal" unicode="&#x2265;" 
d="M336 -205v205h1024v-205h-1024zM336 205v205h205v204h204v205h205v205h-205v205h-204v205h-205v204h409v-204h205v-205h205v-205h203v-205h-203v-205h-205v-204h-205v-205h-409z" />
    <glyph glyph-name="block" unicode="&#x2588;" 
d="M1565 1434v-1434h-1434v1434h1434z" />
    <glyph glyph-name="lozenge" unicode="&#x25ca;" 
d="M1360 1024v-410h-205v-204h-205v-207h-205v207h-204v204h-205v410h205v205h204v205h205v-205h205v-205h205zM745 1024v-410h205v410h-205z" />
    <glyph glyph-name="uni2605" unicode="&#x2605;" 
d="M950 1024h615v-205h-205v-205h-205v-204h205v-410h-205v205h-205v205h-205v-205h-204v-205h-205v410h205v204h-205v205h-205v205h614v410h205v-410z" />
    <glyph glyph-name="uni2606" unicode="&#x2606;" 
d="M541 614h614v-204h205v-410h-205v205h-205v205h-205v-205h-204v-205h-205v410h205v204h-205v205h-205v205h614v410h205v-410h615v-205h-205v-205h-205v205h-614v-205z" />
    <glyph glyph-name="uni2610" unicode="&#x2610;" 
d="M131 0v1434h1434v-1434h-1434zM1360 205v1024h-1024v-1024h1024z" />
    <glyph glyph-name="uni2611" unicode="&#x2611;" 
d="M1565 1434v-1434h-1434v1434h1434zM1155 819v410h-819v-1024h409v205h-204v204h204v-204h205v-205h410v614h-205zM950 410v409h205v-409h-205z" />
    <glyph glyph-name="uni2612" unicode="&#x2612;" 
d="M131 0v1434h1434v-1434h-1434zM1360 205v1024h-1024v-1024h1024zM950 410v204h-205v205h-204v205h204v-205h205v-205h205v-204h-205zM950 819v205h205v-205h-205zM541 410v204h204v-204h-204z" />
    <glyph glyph-name="uni263A" unicode="&#x263a;" 
d="M541 -205v205h-205v205h-205v1024h205v-1024h205v-205h614v-205h-614zM541 1434v204h614v-204h205v-205h205v-1024h-205v1024h-205v205h-614zM745 205v205h-204v204h204v-204h205v-205h-205zM541 819v205h204v-205h-204zM336 1229v205h205v-205h-205zM1155 0v205h205
v-205h-205zM950 819v205h205v-205h-205zM950 410v204h205v-204h-205z" />
    <glyph glyph-name="uni263B" unicode="&#x263b;" 
d="M541 -205v205h-205v205h-205v1024h205v205h205v204h614v-204h205v-205h205v-1024h-205v-205h-205v-205h-614zM745 205h205v205h-205v204h-204v-204h204v-205zM950 819h205v205h-205v-205zM541 819h204v205h-204v-205zM950 410h205v204h-205v-204z" />
    <glyph glyph-name="uni2640" unicode="&#x2640;" 
d="M541 0v205h204v205h-204v204h-205v615h205v-615h614v-204h-205v-205h205v-205h-205v-205h-205v205h-204zM1155 614v615h-614v205h614v-205h205v-615h-205z" />
    <glyph glyph-name="uni2642" unicode="&#x2642;" 
d="M1360 819v205h-205v205h-205v205h615v-615h-205zM336 819v205h819v-819h-205v614h-614zM336 0v205h-205v614h205v-614h614v-205h-614z" />
    <glyph glyph-name="uni2660" unicode="&#x2660;" 
d="M336 0v205h409v205h-614v409h205v205h205v205h204v205h205v-205h205v-205h205v-205h205v-409h-615v-205h410v-205h-1024z" />
    <glyph glyph-name="uni2663" unicode="&#x2663;" 
d="M131 410v614h410v410h614v-410h410v-614h-410v204h-205v-409h410v-205h-1024v205h409v409h-204v-204h-410zM1155 819v205h-205v-205h205zM541 1024v-205h204v205h-204z" />
    <glyph glyph-name="heart" unicode="&#x2665;" 
d="M1565 1229v-410h-205v-205h-205v-204h-205v-205h-205v205h-204v204h-205v205h-205v410h205v205h409v-205h205v205h410v-205h205z" />
    <glyph glyph-name="uni2666" unicode="&#x2666;" 
d="M541 205v205h-205v204h-205v205h205v205h205v205h204v205h205v-205h205v-205h205v-205h205v-205h-205v-204h-205v-205h-205v-205h-205v205h-204z" />
    <glyph glyph-name="uni2667" unicode="&#x2667;" 
d="M131 410v614h410v410h614v-410h410v-614h-410v204h-205v-409h410v-205h-1024v205h409v409h-204v-204h-410zM1155 819v205h-205v-205h205zM541 1024v-205h204v205h-204z" />
    <glyph glyph-name="uni2669" unicode="&#x2669;" 
d="M950 205v-205h-409v205h-205v205h205v204h409v820h205v-1229h-205z" />
    <glyph glyph-name="uni266A" unicode="&#x266a;" 
d="M1155 819v205h-205v-819h-205v-205h-409v205h-205v205h205v204h409v820h410v-205h205v-410h-205z" />
    <glyph glyph-name="uni266B" unicode="&#x266b;" 
d="M745 819v-819h-204v-205h-205v205h-205v205h205v205h205v819h409v205h615v-1229h-205v-205h-205v205h-205v205h205v204h205v410h-205v-205h-410z" />
    <glyph glyph-name="uni266C" unicode="&#x266c;" 
d="M745 819v-819h-204v-205h-205v205h-205v205h205v205h205v1024h1024v-1434h-205v-205h-205v205h-205v205h205v205h205v409h-615zM745 1024h615v205h-615v-205z" />
    <glyph glyph-name="uni266D" unicode="&#x266d;" 
d="M745 205h410v-205h-614v1434h204v-820h205v-204h-205v-205zM1155 614h-205v205h410v-614h-205v409z" />
    <glyph glyph-name="uni266E" unicode="&#x266e;" 
d="M1155 -205v615h-205v204h-205v-204h205v-205h-205v-205h-204v1434h204v-615h205v-205h205v205h-205v205h205v205h205v-1434h-205z" />
    <glyph glyph-name="uni266F" unicode="&#x266f;" 
d="M336 205v205h205v204h-205v205h205v410h204v-205h205v410h205v-205h205v-205h-205v-205h205v-205h-205v-409h-205v205h-205v-410h-204v205h-205zM745 819v-205h205v205h-205z" />
    <glyph glyph-name="uni26A2" unicode="&#x26a2;" 
d="M336 614v205h-205v410h205v-410h409v-409h205v409h-205v410h-409v205h409v-205h205v-410h410v-205h-205v-204h205v-205h-205v-205h-205v205h-205v-205h-204v205h-205v205h205v204h-205zM1360 819v410h205v-410h-205zM950 1229v205h393v-205h-393z" />
    <glyph glyph-name="uni26A3" unicode="&#x26a3;" 
d="M336 1024v205h614v-205h205v205h-205v205h-205v204h615v-614h205v-614h-205v204h-205v205h-205v-205h205v-614h-205v410h-409v-410h409v-205h-409v205h-205v614h-205v410h205zM336 1024v-410h409v410h-409z" />
    <glyph glyph-name="uni26A4" unicode="&#x26a4;" 
d="M745 819v-205h-204v205h-205v205h205v205h204v205h410v-205h205v-615h-205v-204h-205v409h-205zM336 410h614v-205h-205v-205h205v-205h-205v-205h-204v205h-205v205h205v205h-205v205h-205v409h205v-409zM1360 1229v205h-205v204h-205v205h615v-614h-205zM745 1229v-205
h205v-205h205v410h-410z" />
    <glyph glyph-name="uni26A5" unicode="&#x26a5;" 
d="M336 0v205h205v205h-205v204h-205v410h205v-410h614v-204h-205v-205h205v-205h-205v-205h-204v205h-205zM1360 1024v205h-205v205h-205v204h615v-614h-205zM336 1024v205h819v-615h-205v410h-614z" />
    <glyph glyph-name="uni26A6" unicode="&#x26a6;" 
d="M1360 819v205h-205v205h-205v205h615v-615h-205zM336 614v205h614v-614h-205v409h-409zM336 0v205h-205v409h205v-409h409v-205h-409zM745 1024v205h205v-205h205v-205h205v-205h-205v205h-205v205h-205z" />
    <glyph glyph-name="uni26A7" unicode="&#x26a7;" 
d="M565 1434v204h-188v-204h188v-205h752v-615h-189v410h-563v205h-188v-205h188v-410h563v-204h-188v-205h188v-205h-188v-205h-186v205h-189v205h189v205h-189v204h-188v410h-189v205h-188v614h565v-205h189v-204h-189zM1505 1024v205h-188v205h-189v204h566v-614h-189z
M377 1229v205h-189v-205h189z" />
    <glyph glyph-name="old.equal" unicode="&#xe000;" 
d="M1565 1434v-410h-1434v410h1434zM1565 819v-407h-1434v407h1434z" />
    <glyph glyph-name="uniF51C" unicode="&#xf31d;" 
d="M1565 1229v-1024h-205v-205h-1024v205h-205v1024h205v205h1024v-205h205zM541 1229v-410h614v410h-614zM541 205h614v409h-614v-409zM1053 2048h204v-410h-819v410h205v-205h410v205z" />
    <glyph glyph-name="uniF51C" unicode="&#xf51c;" 
d="M1565 1229v-1024h-205v-205h-1024v205h-205v1024h205v205h1024v-205h205zM541 1229v-410h614v410h-614zM541 205h614v409h-614v-409zM1053 2048h204v-410h-819v410h205v-205h410v205z" />
    <glyph glyph-name="uniF43A" unicode="&#xf43a;" 
d="M1462 1434v-615h-205v-205h-204v-614h-410v614h-207v205h-203v615h410v-615h410v615h409zM1155 1638h-614v205h614v-205z" />
    <glyph glyph-name="uniF43A" unicode="&#xf43b;" 
d="M1462 1434v-615h-205v-205h-204v-614h-410v614h-207v205h-203v615h410v-615h410v615h409zM1155 1638h-614v205h614v-205z" />
    <glyph glyph-name="uniF462" unicode="&#xf462;" 
d="M131 0v1434h410v-615h204v205h205v205h205v205h410v-1434h-410v614h-205v-204h-205v-205h-204v-205h-410zM1155 1638h-410v205h205v205h410v-205h-205v-205z" />
    <glyph glyph-name="uniF462" unicode="&#xf46c;" 
d="M131 0v1434h410v-615h204v205h205v205h205v205h410v-1434h-410v614h-205v-204h-205v-205h-204v-205h-410zM1155 1638h-410v205h205v205h410v-205h-205v-205z" />
    <glyph glyph-name="uniF464" unicode="&#xf464;" 
d="M131 205v205h410v-205h614v409h-819v205h-205v615h410v-615h614v615h410v-1229h-205v-205h-1024v205h-205zM1053 1638h-410v205h205v205h409v-205h-204v-205z" />
    <glyph glyph-name="uniF464" unicode="&#xf4cd;" 
d="M131 205v205h410v-205h614v409h-819v205h-205v615h410v-615h614v615h410v-1229h-205v-205h-1024v205h-205zM1053 1638h-410v205h205v205h409v-205h-204v-205z" />
    <glyph glyph-name="uniF464" unicode="&#xf4cc;" 
d="M131 205v205h410v-205h614v409h-819v205h-205v615h410v-615h614v615h410v-1229h-205v-205h-1024v205h-205zM1053 1638h-410v205h205v205h409v-205h-204v-205z" />
    <glyph glyph-name="uniF464" unicode="&#xf46e;" 
d="M131 205v205h410v-205h614v409h-819v205h-205v615h410v-615h614v615h410v-1229h-205v-205h-1024v205h-205zM1053 1638h-410v205h205v205h409v-205h-204v-205z" />
    <glyph glyph-name="uniF465" unicode="&#xf465;" 
d="M688 614h-205v-409h205v409zM1098 614v-409h-205v-205h-819v1434h409v-615h410v-205h205zM1200 1434h410v-1434h-410v1434zM950 1638h-409v205h204v205h410v-205h-205v-205z" />
    <glyph glyph-name="uniF465" unicode="&#xf46f;" 
d="M688 614h-205v-409h205v409zM1098 614v-409h-205v-205h-819v1434h409v-615h410v-205h205zM1200 1434h410v-1434h-410v1434zM950 1638h-409v205h204v205h410v-205h-205v-205z" />
    <glyph glyph-name="uniF466" unicode="&#xf466;" 
d="M131 205v205h410v-205h409v205h205v204h-614v205h614v205h-205v205h-409v-205h-410v205h205v205h819v-205h205v-205h205v-614h-205v-205h-205v-205h-819v205h-205zM950 1638h-409v205h204v205h410v-205h-205v-205z" />
    <glyph glyph-name="uniF466" unicode="&#xf470;" 
d="M131 205v205h410v-205h409v205h205v204h-614v205h614v205h-205v205h-409v-205h-410v205h205v205h819v-205h205v-205h205v-614h-205v-205h-205v-205h-819v205h-205zM950 1638h-409v205h204v205h410v-205h-205v-205z" />
    <glyph glyph-name="uniF467" unicode="&#xf467;" 
d="M745 1229v205h615v-205h205v-1024h-205v-205h-615v205h-204v409h-205v-614h-205v1434h205v-615h205v410h204zM1155 205v1024h-205v-1024h205zM950 1638h-409v205h204v205h410v-205h-205v-205z" />
    <glyph glyph-name="uniF467" unicode="&#xf471;" 
d="M745 1229v205h615v-205h205v-1024h-205v-205h-615v205h-204v409h-205v-614h-205v1434h205v-615h205v410h204zM1155 205v1024h-205v-1024h205zM950 1638h-409v205h204v205h410v-205h-205v-205z" />
    <glyph glyph-name="uniF468" unicode="&#xf468;" 
d="M131 0v205h205v205h205v204h-410v615h205v205h1229v-1434h-410v410h-205v-205h-205v-205h-614zM541 819h204v-205h410v615h-614v-410zM1155 1638h-410v205h205v205h410v-205h-205v-205z" />
    <glyph glyph-name="uniF468" unicode="&#xf472;" 
d="M131 0v205h205v205h205v204h-410v615h205v205h1229v-1434h-410v410h-205v-205h-205v-205h-614zM541 819h204v-205h410v615h-614v-410zM1155 1638h-410v205h205v205h410v-205h-205v-205z" />
    <glyph glyph-name="uniF469" unicode="&#xf469;" 
d="M1565 205v-205h-1434v1434h1434v-205h-1024v-410h819v-205h-819v-409h1024zM131 1638v410h205v-410h-205zM1360 1638v410h205v-410h-205zM950 1638h-409v205h204v205h410v-205h-205v-205z" />
    <glyph glyph-name="uniF469" unicode="&#xf473;" 
d="M1565 205v-205h-1434v1434h1434v-205h-1024v-410h819v-205h-819v-409h1024zM131 1638v410h205v-410h-205zM1360 1638v410h205v-410h-205zM950 1638h-409v205h204v205h410v-205h-205v-205z" />
    <glyph glyph-name="uniF498" unicode="&#xf498;" 
d="M745 1229v205h615v-205h205v-1024h-205v-205h-615v205h-204v409h-205v-614h-205v1434h205v-615h205v410h204zM1155 205v1024h-205v-1024h205zM950 2048h410v-410h-410v410zM336 1638v410h409v-410h-409z" />
    <glyph glyph-name="uniF498" unicode="&#xf499;" 
d="M745 1229v205h615v-205h205v-1024h-205v-205h-615v205h-204v409h-205v-614h-205v1434h205v-615h205v410h204zM1155 205v1024h-205v-1024h205zM950 2048h410v-410h-410v410zM336 1638v410h409v-410h-409z" />
    <glyph glyph-name="uniF49A" unicode="&#xf49a;" 
d="M1565 1229v-1024h-205v-205h-1024v205h-205v1024h205v205h1024v-205h205zM541 1229v-410h614v410h-614zM541 205h614v409h-614v-409zM1155 1638h-614v205h614v-205z" />
    <glyph glyph-name="uniF49A" unicode="&#xf49b;" 
d="M1565 1229v-1024h-205v-205h-1024v205h-205v1024h205v205h1024v-205h205zM541 1229v-410h614v410h-614zM541 205h614v409h-614v-409zM1155 1638h-614v205h614v-205z" />
    <glyph glyph-name="uniF49C" unicode="&#xf49c;" 
d="M131 1024v205h205v205h1024v-205h205v-1024h-205v-205h-1024v205h-205v614h1024v410h-614v-205h-410zM1155 614h-614v-409h614v409zM1155 1638h-614v205h614v-205z" />
    <glyph glyph-name="uniF49C" unicode="&#xf49d;" 
d="M131 1024v205h205v205h1024v-205h205v-1024h-205v-205h-1024v205h-205v614h1024v410h-614v-205h-410zM1155 614h-614v-409h614v409zM1155 1638h-614v205h614v-205z" />
    <glyph glyph-name="uniF49E" unicode="&#xf49e;" 
d="M1155 1024h-410v-205h615v-205h205v-614h-410v614h-410v-614h-409v1024h-205v205h205v205h409v-205h410v-205z" />
    <glyph glyph-name="uniF49E" unicode="&#xf49f;" 
d="M1155 1024h-410v-205h615v-205h205v-614h-410v614h-410v-614h-409v1024h-205v205h205v205h409v-205h410v-205z" />
    <glyph glyph-name="uniF4C6" unicode="&#xf4c6;" 
d="M1155 -205v819h-819v205h-205v615h410v-615h614v615h410v-1639h-410zM745 -410v205h615v-205h-615z" />
    <glyph glyph-name="uniF4C6" unicode="&#xf4c7;" 
d="M1155 -205v819h-819v205h-205v615h410v-615h614v615h410v-1639h-410zM745 -410v205h615v-205h-615z" />
    <glyph glyph-name="uniF4D4" unicode="&#xf4d4;" 
d="M1565 1229v-615h-205v-204h-819v-410h-410v1434h1229v-205h205zM541 614h614v615h-614v-615zM950 2048h410v-205h-205v-205h-614v205h-205v205h409v-205h205v205z" />
    <glyph glyph-name="uniF4D4" unicode="&#xf4d5;" 
d="M1565 1229v-615h-205v-204h-819v-410h-410v1434h1229v-205h205zM541 614h614v615h-614v-615zM950 2048h410v-205h-205v-205h-614v205h-205v205h409v-205h205v205z" />
    <glyph glyph-name="uniF4D6" unicode="&#xf4d6;" 
d="M131 205v205h410v-205h409v205h205v204h-614v205h614v205h-205v205h-409v-205h-410v205h205v205h819v-205h205v-205h205v-614h-205v-205h-205v-205h-819v205h-205zM539 1638v410h409v-410h-409z" />
    <glyph glyph-name="uniF4D6" unicode="&#xf4d7;" 
d="M131 205v205h410v-205h409v205h205v204h-614v205h614v205h-205v205h-409v-205h-410v205h205v205h819v-205h205v-205h205v-614h-205v-205h-205v-205h-819v205h-205zM539 1638v410h409v-410h-409z" />
    <glyph glyph-name="uniF4D8" unicode="&#xf4d8;" 
d="M131 0v205h205v205h205v204h-410v615h205v205h1229v-1434h-410v410h-205v-205h-205v-205h-614zM541 819h204v-205h410v615h-614v-410zM950 2048h410v-410h-410v410zM336 1638v410h409v-410h-409z" />
    <glyph glyph-name="uniF4D8" unicode="&#xf4d9;" 
d="M131 0v205h205v205h205v204h-410v615h205v205h1229v-1434h-410v410h-205v-205h-205v-205h-614zM541 819h204v-205h410v615h-614v-410zM950 2048h410v-410h-410v410zM336 1638v410h409v-410h-409z" />
    <glyph glyph-name="uniF50A" unicode="&#xf50a;" 
d="M745 -410v410h-409v205h-205v205h410v-205h614v409h-614v205h614v410h-614v-205h-410v205h205v205h1024v-205h205v-410h-205v-205h205v-409h-205v-205h-410v-410h-205z" />
    <glyph glyph-name="uniF50A" unicode="&#xf50b;" 
d="M745 -410v410h-409v205h-205v205h410v-205h614v409h-614v205h614v410h-614v-205h-410v205h205v205h1024v-205h205v-410h-205v-205h205v-409h-205v-205h-410v-410h-205z" />
    <glyph glyph-name="uniF512" unicode="&#xf513;" 
d="M950 1638h410v-204h205v-205h-1024v-410h819v-205h-819v-409h1024v-205h-1434v1434h205v204h409v-204h205v204zM336 1843v205h1024v-205h-1024z" />
    <glyph glyph-name="uniF514" unicode="&#xf514;" 
d="M950 1638h410v-204h205v-205h-1024v-410h819v-205h-819v-409h1024v-205h-1434v1434h205v204h409v-204h205v204zM1053 2253h204v-410h-819v410h205v-205h410v205z" />
    <glyph glyph-name="uniF514" unicode="&#xf515;" 
d="M950 1638h410v-204h205v-205h-1024v-410h819v-205h-819v-409h1024v-205h-1434v1434h205v204h409v-204h205v204zM1053 2253h204v-410h-819v410h205v-205h410v205z" />
    <glyph glyph-name="uniF516" unicode="&#xf516;" 
d="M1155 819v410h-614v-205h-410v205h205v205h1024v-205h205v-410h-205v-205h205v-409h-205v-205h-1024v205h-205v205h410v-205h614v409h-614v205h614zM950 2048h410v-205h-205v-205h-614v205h-205v205h409v-205h205v205z" />
    <glyph glyph-name="uniF516" unicode="&#xf517;" 
d="M1155 819v410h-614v-205h-410v205h205v205h1024v-205h205v-410h-205v-205h205v-409h-205v-205h-1024v205h-205v205h410v-205h614v409h-614v205h614zM950 2048h410v-205h-205v-205h-614v205h-205v205h409v-205h205v205z" />
    <glyph glyph-name="uniF51E" unicode="&#xf51e;" 
d="M950 1638h410v-409h205v-1024h-205v-205h-1024v205h-205v1024h205v409h409v-204h205v204zM541 205h614v409h-614v-409zM541 1229v-410h614v410h-614zM336 1843v205h1024v-205h-1024z" />
    <glyph glyph-name="uniF51E" unicode="&#xf51f;" 
d="M950 1638h410v-409h205v-1024h-205v-205h-1024v205h-205v1024h205v409h409v-204h205v204zM541 205h614v409h-614v-409zM541 1229v-410h614v410h-614zM336 1843v205h1024v-205h-1024z" />
    <glyph glyph-name="uniF520" unicode="&#xf520;" 
d="M688 614h-205v-409h205v409zM1098 614v-409h-205v-205h-819v1434h409v-615h410v-205h205zM1200 1434h410v-1434h-410v1434zM1155 1638h-614v205h614v-205z" />
    <glyph glyph-name="uniF520" unicode="&#xf521;" 
d="M688 614h-205v-409h205v409zM1098 614v-409h-205v-205h-819v1434h409v-615h410v-205h205zM1200 1434h410v-1434h-410v1434zM1155 1638h-614v205h614v-205z" />
    <glyph glyph-name="uniF522" unicode="&#xf522;" 
d="M131 205v205h410v-205h409v205h205v204h-614v205h614v205h-205v205h-409v-205h-410v205h205v205h819v-205h205v-205h205v-614h-205v-205h-205v-205h-819v205h-205zM1053 1638h-615v205h615v-205z" />
    <glyph glyph-name="uniF522" unicode="&#xf523;" 
d="M131 205v205h410v-205h409v205h205v204h-614v205h614v205h-205v205h-409v-205h-410v205h205v205h819v-205h205v-205h205v-614h-205v-205h-205v-205h-819v205h-205zM1053 1638h-615v205h615v-205z" />
    <glyph glyph-name="uniF524" unicode="&#xf524;" 
d="M131 205v205h410v-205h409v205h205v204h-614v205h614v205h-205v205h-409v-205h-410v205h205v205h819v-205h205v-205h205v-614h-205v-205h-205v-205h-819v205h-205zM950 2048h205v-410h-819v410h205v-205h409v205z" />
    <glyph glyph-name="uniF524" unicode="&#xf525;" 
d="M131 205v205h410v-205h409v205h205v204h-614v205h614v205h-205v205h-409v-205h-410v205h205v205h819v-205h205v-205h205v-614h-205v-205h-205v-205h-819v205h-205zM950 2048h205v-410h-819v410h205v-205h409v205z" />
    <glyph glyph-name="uniF526" unicode="&#xf526;" 
d="M1565 410v-205h-205v-205h-819v205h-205v205h-205v614h205v205h205v205h819v-205h205v-205h-410v205h-410v-205h-204v-205h614v-205h-614v-204h204v-205h410v205h410zM1053 2048h409v-410h-409v410zM438 1638v410h410v-410h-410z" />
    <glyph glyph-name="uniF526" unicode="&#xf527;" 
d="M1565 410v-205h-205v-205h-819v205h-205v205h-205v614h205v205h205v205h819v-205h205v-205h-410v205h-410v-205h-204v-205h614v-205h-614v-204h204v-205h410v205h410zM1053 2048h409v-410h-409v410zM438 1638v410h410v-410h-410z" />
    <glyph glyph-name="uniF528" unicode="&#xf528;" 
d="M131 0v205h205v205h205v204h-410v615h205v205h1229v-1434h-410v410h-205v-205h-205v-205h-614zM541 819h204v-205h410v615h-614v-410zM1257 1638h-614v205h614v-205z" />
    <glyph glyph-name="uniF528" unicode="&#xf529;" 
d="M131 0v205h205v205h205v204h-410v615h205v205h1229v-1434h-410v410h-205v-205h-205v-205h-614zM541 819h204v-205h410v615h-614v-410zM1257 1638h-614v205h614v-205z" />
    <glyph glyph-name="uniF52A" unicode="&#xf52a;" 
d="M131 0v205h205v205h205v204h-410v615h205v205h1229v-1434h-410v410h-205v-205h-205v-205h-614zM541 819h204v-205h410v615h-614v-410zM1155 2048h205v-410h-819v410h204v-205h410v205z" />
    <glyph glyph-name="uniF52A" unicode="&#xf52b;" 
d="M131 0v205h205v205h205v204h-410v615h205v205h1229v-1434h-410v410h-205v-205h-205v-205h-614zM541 819h204v-205h410v615h-614v-410zM1155 2048h205v-410h-819v410h204v-205h410v205z" />
    <glyph glyph-name="uniF52C" unicode="&#xf52c;" 
d="M745 1229v205h615v-205h205v-1024h-205v-205h-615v205h-204v409h-205v-614h-205v1434h205v-615h205v410h204zM1155 205v1024h-205v-1024h205zM1155 1638h-614v205h614v-205z" />
    <glyph glyph-name="uniF52C" unicode="&#xf52d;" 
d="M745 1229v205h615v-205h205v-1024h-205v-205h-615v205h-204v409h-205v-614h-205v1434h205v-615h205v410h204zM1155 205v1024h-205v-1024h205zM1155 1638h-614v205h614v-205z" />
    <glyph glyph-name="uniF52E" unicode="&#xf52e;" 
d="M745 1229v205h615v-205h205v-1024h-205v-205h-615v205h-204v409h-205v-614h-205v1434h205v-615h205v410h204zM1155 205v1024h-205v-1024h205zM950 2048h205v-410h-819v410h205v-205h409v205z" />
    <glyph glyph-name="uniF52E" unicode="&#xf52f;" 
d="M745 1229v205h615v-205h205v-1024h-205v-205h-615v205h-204v409h-205v-614h-205v1434h205v-615h205v410h204zM1155 205v1024h-205v-1024h205zM950 2048h205v-410h-819v410h205v-205h409v205z" />
    <glyph glyph-name="uniF532" unicode="&#xf532;" 
d="M1155 -205v819h-205v-204h-205v-205h-204v-205h-410v1434h410v-615h204v205h205v205h205v205h410v-1639h-410zM745 -410v205h615v-205h-615zM1053 2048h204v-410h-819v410h205v-205h410v205z" />
    <glyph glyph-name="uniF532" unicode="&#xf533;" 
d="M1155 -205v819h-205v-204h-205v-205h-204v-205h-410v1434h410v-615h204v205h205v205h205v205h410v-1639h-410zM745 -410v205h615v-205h-615zM1053 2048h204v-410h-819v410h205v-205h410v205z" />
    <glyph glyph-name="uniF536" unicode="&#xf536;" 
d="M688 614h-205v-409h205v409zM1098 614v-409h-205v-205h-819v1434h409v-615h410v-205h205zM1200 1434h410v-1434h-410v1434zM1053 2048h204v-410h-819v410h205v-205h410v205z" />
    <glyph glyph-name="uniF536" unicode="&#xf537;" 
d="M688 614h-205v-409h205v409zM1098 614v-409h-205v-205h-819v1434h409v-615h410v-205h205zM1200 1434h410v-1434h-410v1434zM1053 2048h204v-410h-819v410h205v-205h410v205z" />
    <glyph glyph-name="uniF538" unicode="&#xf538;" 
d="M541 1229v-410h614v-205h-614v-409h614v205h410v-205h-205v-205h-1024v205h-205v409h205v205h-205v410h205v205h1024v-205h205v-205h-410v205h-614zM950 2048h410v-410h-410v410zM336 1638v410h409v-410h-409z" />
    <glyph glyph-name="uniF538" unicode="&#xf539;" 
d="M541 1229v-410h614v-205h-614v-409h614v205h410v-205h-205v-205h-1024v205h-205v409h205v205h-205v410h205v205h1024v-205h205v-205h-410v205h-614zM950 2048h410v-410h-410v410zM336 1638v410h409v-410h-409z" />
    <glyph glyph-name="uniF53E" unicode="&#xf53e;" 
d="M848 -410v410h-307v205h-205v205h-205v614h205v205h205v205h819v-205h205v-205h-410v205h-407v-205h-207v-614h204v-205h410v205h410v-205h-205v-205h-307v-410h-205z" />
    <glyph glyph-name="uniF53E" unicode="&#xf53f;" 
d="M848 -410v410h-307v205h-205v205h-205v614h205v205h205v205h819v-205h205v-205h-410v205h-407v-205h-207v-614h204v-205h410v205h410v-205h-205v-205h-307v-410h-205z" />
    <glyph glyph-name="uniF8FF" unicode="&#xf8ff;" 
d="M131 410v819h205v205h409v-205h205v205h-205v204h205v-204h410v-205h205v-205h-205v-410h205v-204h-205v-410h-410v205h-205v-205h-204v2h-205v408h-205zM950 1638v205h205v-205h-205z" />
    <glyph glyph-name="CR" 
 />
    </font>
</defs>
</svg>
