<?xml version="1.0" standalone="no"?>
<!DOCTYPE svg PUBLIC "-//W3C//DTD SVG 1.1//EN" "http://www.w3.org/Graphics/SVG/1.1/DTD/svg11.dtd" >
<svg xmlns="http://www.w3.org/2000/svg" xmlns:xlink="http://www.w3.org/1999/xlink" version="1.1">
<metadata>
Created by FontForge 20201107 at Fri Jun 13 06:43:06 2014
 By 
HTF Knockout Copr. 1994-7 The Hoefler Type Foundry, Inc. http://www.typography.com
</metadata>
<defs>
<font id="Knockout-HTF30-JuniorWelterwt" horiz-adv-x="882" >
  <font-face 
    font-family="Knockout HTF30-JuniorWelterwt"
    font-weight="500"
    font-stretch="normal"
    units-per-em="2048"
    panose-1="0 0 0 0 0 0 0 0 0 0"
    ascent="1638"
    descent="-410"
    x-height="958"
    cap-height="1364"
    bbox="-74 -528 1495 1745"
    underline-thickness="100"
    underline-position="-466"
    unicode-range="U+000D-FB02"
  />
<missing-glyph horiz-adv-x="748" 
d="M68 0v1365h544v-1365h-544zM136 68h408v1229h-408v-1229z" />
    <glyph glyph-name=".notdef" horiz-adv-x="748" 
d="M68 0v1365h544v-1365h-544zM136 68h408v1229h-408v-1229z" />
    <glyph glyph-name="glyph1" horiz-adv-x="2048" 
 />
    <glyph glyph-name="glyph1" horiz-adv-x="2048" 
 />
    <glyph glyph-name="uni000D" unicode="&#xd;" horiz-adv-x="2048" 
 />
    <glyph glyph-name="space" unicode=" " horiz-adv-x="385" 
 />
    <glyph glyph-name="exclam" unicode="!" horiz-adv-x="444" 
d="M117 770v594h213v-594l-76 -371h-61zM127 0v242h190v-242h-190z" />
    <glyph glyph-name="quotedbl" unicode="&#x22;" horiz-adv-x="610" 
d="M70 938l77 426h181l-133 -426h-125zM326 938l114 426h185l-174 -426h-125z" />
    <glyph glyph-name="numbersign" unicode="#" horiz-adv-x="1331" 
d="M23 350v129h307l76 404h-320v131h344l68 350h147l-65 -350h301l67 350h148l-66 -350h279v-131h-305l-76 -404h317v-129h-342l-67 -350h-148l68 350h-303l-68 -350h-147l67 350h-282zM477 479h303l76 404h-303z" />
    <glyph glyph-name="dollar" unicode="$" horiz-adv-x="1007" 
d="M92 350v66h207v-31q0 -242 213 -242q94 0 150.5 61.5t56.5 147.5q0 31 -9 59t-29.5 53t-40.5 44.5t-55.5 42t-61 37t-68.5 37.5q-62 33 -99 55t-86.5 60.5t-77 74.5t-47.5 88.5t-20 112.5q0 142 77.5 243t215.5 130v196h186v-192q150 -25 238 -127.5t88 -249.5v-55h-201
v26q0 101 -53 167.5t-160 66.5q-86 0 -135 -51.5t-49 -133.5q0 -35 15 -65t48 -57.5t65 -47t85 -47.5q36 -19 53.5 -28.5t52.5 -29.5t53.5 -33.5t48.5 -35.5t47 -41t40 -45t35.5 -53t25 -59t18 -68t5.5 -76q0 -143 -87 -246t-233 -131v-194h-186v194q-149 25 -237.5 127.5
t-88.5 249.5z" />
    <glyph glyph-name="percent" unicode="%" horiz-adv-x="1329" 
d="M80 913v256q0 104 64.5 166t164.5 62q102 0 167 -62t65 -166v-256q0 -105 -65 -166t-167 -61q-101 0 -165 61t-64 166zM145 25l965 1386l92 -72l-964 -1386zM227 881q0 -32 22.5 -53t59.5 -21t60.5 21t23.5 53v321q0 32 -24 54t-60 22t-59 -21.5t-23 -54.5v-321zM807 195
v256q0 104 65 165.5t166 61.5q102 0 167 -61.5t65 -165.5v-256q0 -105 -65 -167.5t-167 -62.5q-101 0 -166 62.5t-65 167.5zM954 162q0 -32 24 -54t60 -22t60 22t24 54v321q0 32 -23.5 53t-60.5 21t-60.5 -21t-23.5 -53v-321z" />
    <glyph glyph-name="ampersand" unicode="&#x26;" horiz-adv-x="1316" 
d="M82 313q0 128 75 237t210 191q-60 157 -60 281q0 164 91.5 270.5t250.5 106.5q145 0 220 -84.5t75 -224.5q0 -248 -348 -412q83 -193 205 -346q64 84 105.5 195.5t41.5 183.5h172q0 -114 -54.5 -249.5t-143.5 -254.5q86 -70 153 -70q64 0 64 74v135h159v-141
q0 -115 -66 -177.5t-179 -62.5q-116 0 -258 123q-69 -56 -158.5 -89.5t-177.5 -33.5q-169 0 -273 100.5t-104 247.5zM287 340q0 -95 58 -145t165 -50q44 0 89.5 19t76.5 45q-135 156 -242 371q-68 -43 -107.5 -104.5t-39.5 -135.5zM502 1026q0 -85 39 -207q117 67 168 139.5
t51 133.5q0 59 -27 94t-82 35q-69 0 -109 -52.5t-40 -142.5z" />
    <glyph glyph-name="quotesingle" unicode="'" horiz-adv-x="409" 
d="M102 938l93 426h206l-172 -426h-127z" />
    <glyph glyph-name="parenleft" unicode="(" horiz-adv-x="757" 
d="M205 610q0 282 134.5 545t379.5 442l53 -65q-160 -172 -261 -408.5t-101 -513.5q0 -276 100.5 -511.5t261.5 -407.5l-53 -68q-245 179 -379.5 442t-134.5 545z" />
    <glyph glyph-name="parenright" unicode=")" horiz-adv-x="757" 
d="M-14 -309q161 172 261.5 407.5t100.5 511.5q0 277 -101 513.5t-261 408.5l53 65q245 -179 379.5 -442t134.5 -545t-134.5 -545t-379.5 -442z" />
    <glyph glyph-name="asterisk" unicode="*" horiz-adv-x="733" 
d="M83 1150.5q-5 10.5 1 23.5l43 77q7 11 21 12t22 -6q78 -47 152 -116q-29 110 -29 190q0 12 7.5 22.5t21.5 10.5h88q26 0 26 -33q0 -83 -26 -190q79 76 151 121q29 13 43 -9l45 -75q11 -25 -16 -41q-68 -41 -176 -72q101 -27 178 -72q27 -18 14 -41l-43 -75
q-13 -24 -43 -9q-75 45 -149 119q26 -110 26 -192q0 -12 -7 -22.5t-19 -10.5h-90q-12 0 -19.5 10.5t-7.5 22.5q0 79 27 190q-78 -76 -152 -119q-8 -7 -22 -6t-21 12l-43 78q-6 13 -1 23.5t15 15.5q68 41 176 72q-108 33 -178 74q-10 5 -15 15.5z" />
    <glyph glyph-name="plus" unicode="+" horiz-adv-x="806" 
d="M92 610v164h230v250h165v-250h228v-164h-228v-250h-165v250h-230z" />
    <glyph glyph-name="comma" unicode="," horiz-adv-x="456" 
d="M86 -145q62 0 97.5 39t35.5 106h-86v244h191v-215q0 -110 -59.5 -176t-178.5 -66v68z" />
    <glyph glyph-name="hyphen" unicode="-" horiz-adv-x="657" 
d="M82 535v172h493v-172h-493z" />
    <glyph glyph-name="period" unicode="." horiz-adv-x="456" 
d="M133 0v244h191v-244h-191z" />
    <glyph glyph-name="slash" unicode="/" horiz-adv-x="602" 
d="M18 -131l426 1624h152l-424 -1624h-154z" />
    <glyph glyph-name="zero" unicode="0" horiz-adv-x="1046" 
d="M104 360v644q0 179 113.5 287t306.5 108q192 0 305 -108.5t113 -286.5v-644q0 -178 -113 -286.5t-305 -108.5q-193 0 -306.5 108t-113.5 287zM307 346q0 -84 58.5 -140t158.5 -56t157.5 55.5t57.5 140.5v672q0 85 -57.5 140.5t-157.5 55.5t-158.5 -56t-58.5 -140v-672z
" />
    <glyph glyph-name="one" unicode="1" horiz-adv-x="526" 
d="M160 0v1268q49 0 71.5 27.5t22.5 68.5h113v-1364h-207z" />
    <glyph glyph-name="two" unicode="2" horiz-adv-x="931" 
d="M72 0v84q0 91 12 159.5t45.5 141.5t98.5 141.5t165 139.5q154 109 220.5 190.5t66.5 171.5q0 92 -50 145.5t-147 53.5q-105 0 -152.5 -55t-47.5 -162v-88h-185v98q0 78 24 145.5t69.5 120t120 83t169.5 30.5q103 0 182 -31t124.5 -84t67.5 -116.5t22 -135.5
q0 -135 -94 -253t-289 -251q-58 -39 -99.5 -83.5t-64.5 -88.5t-33 -83.5t-10 -77.5h575v-195h-790z" />
    <glyph glyph-name="three" unicode="3" horiz-adv-x="937" 
d="M84 328v98h184v-66q0 -112 48 -167.5t151 -55.5q101 0 152 54t51 157v113q0 155 -185 155h-116v160h116q185 0 185 156v84q0 211 -203 211q-103 0 -151 -55.5t-48 -167.5v-66h-184v98q0 157 98.5 260t284.5 103q190 0 294.5 -99t104.5 -268v-59q0 -104 -50.5 -177.5
t-139.5 -88.5q89 -22 139.5 -86.5t50.5 -167.5v-121q0 -169 -104.5 -268t-294.5 -99q-95 0 -169.5 29t-120 79.5t-69.5 115t-24 139.5z" />
    <glyph glyph-name="four" unicode="4" horiz-adv-x="915" 
d="M23 324v145l565 895h162v-862h141v-178h-141v-324h-181v324h-546zM242 502h327v528z" />
    <glyph glyph-name="five" unicode="5" horiz-adv-x="956" 
d="M86 328v73h186v-41q0 -103 51 -163t152 -60q103 0 154 55t51 168v234q0 80 -42.5 125t-117.5 45q-168 0 -248 -172l-166 37l44 735h729q-10 -100 -47 -143t-136 -43h-379l-28 -383q37 60 113.5 96.5t179.5 36.5q139 0 219 -82t80 -217v-285q0 -178 -106 -278.5
t-300 -100.5q-94 0 -169.5 30t-122.5 81t-72 115.5t-25 136.5z" />
    <glyph glyph-name="six" unicode="6" horiz-adv-x="997" 
d="M104 360v625q0 190 112 302t306 112q94 0 169.5 -30t122.5 -81t72 -115.5t25 -136.5v-49h-186v17q0 223 -215 223q-102 0 -153.5 -62.5t-51.5 -179.5v-291q47 60 124.5 101t176.5 41q149 0 233.5 -89t84.5 -229v-158q0 -180 -108 -286.5t-300 -106.5t-302 107t-110 286z
M305 354q0 -99 57.5 -158t153.5 -59t153.5 55t57.5 142v151q0 94 -47.5 145.5t-157.5 51.5q-100 0 -158.5 -56t-58.5 -141v-131z" />
    <glyph glyph-name="seven" unicode="7" horiz-adv-x="880" 
d="M55 1176v188h817v-137q-109 -166 -184.5 -303t-137.5 -289.5t-92 -309.5t-30 -325h-219q0 264 125 575.5t321 600.5h-600z" />
    <glyph glyph-name="eight" unicode="8" horiz-adv-x="999" 
d="M94 332v104q0 89 48 158t120 100q-71 31 -116.5 99.5t-45.5 158.5v80q0 169 105 268t295 99q191 0 295 -99t104 -268v-80q0 -90 -45 -158.5t-115 -99.5q71 -31 118.5 -100t47.5 -158v-104q0 -168 -106.5 -267.5t-298.5 -99.5q-191 0 -298.5 99.5t-107.5 267.5zM285 348
q0 -98 60.5 -154.5t154.5 -56.5t154.5 56.5t60.5 154.5v76q0 78 -54.5 138.5t-160.5 60.5t-160.5 -60.5t-54.5 -138.5v-76zM291 952q0 -36 11.5 -69.5t35 -63t65.5 -47.5t97 -18t97 18t65.5 47.5t35 63t11.5 69.5v64q0 100 -58 155.5t-151 55.5t-151 -55.5t-58 -155.5v-64z
" />
    <glyph glyph-name="nine" unicode="9" horiz-adv-x="1024" 
d="M100 834v170q0 180 107.5 287.5t298.5 107.5q203 0 308.5 -107.5t105.5 -294.5v-630q0 -189 -109 -295.5t-303 -106.5q-190 0 -296 96.5t-106 253.5v50h185v-17q0 -107 60 -159t167 -52q100 0 149.5 58.5t49.5 164.5v285q-48 -66 -113 -103.5t-168 -37.5
q-156 0 -246 94.5t-90 235.5zM297 864q0 -90 52 -144t157 -54q99 0 155 56.5t56 141.5v148q0 94 -53.5 154.5t-157.5 60.5q-100 0 -154.5 -54t-54.5 -143v-166z" />
    <glyph glyph-name="colon" unicode=":" horiz-adv-x="456" 
d="M133 0v244h191v-244h-191zM133 668v243h191v-243h-191z" />
    <glyph glyph-name="semicolon" unicode=";" horiz-adv-x="456" 
d="M86 -145q62 0 97.5 39t35.5 106h-86v244h191v-215q0 -110 -59.5 -176t-178.5 -66v68zM133 668v243h191v-243h-191z" />
    <glyph glyph-name="less" unicode="&#x3c;" horiz-adv-x="1034" 
d="M104 653v60l770 497v-206l-499 -322l499 -322v-206z" />
    <glyph glyph-name="equal" unicode="=" horiz-adv-x="813" 
d="M92 418v182h629v-182h-629zM92 784v183h629v-183h-629z" />
    <glyph glyph-name="greater" unicode="&#x3e;" horiz-adv-x="1034" 
d="M160 154v206l499 322l-499 322v206l770 -499v-60z" />
    <glyph glyph-name="question" unicode="?" horiz-adv-x="876" 
d="M59 897v131q0 163 92 266t277 103q105 0 184.5 -29.5t125 -81.5t67.5 -114t22 -134q0 -124 -57 -212t-182 -181q-73 -56 -97 -99.5t-24 -115.5h-154q0 29 1.5 52.5t8 47t10.5 39t18.5 38.5t21 34t30 38t34 38.5t43 46t48.5 51.5q93 99 93 215q0 103 -45 150t-140 47
q-188 0 -188 -228v-102h-189zM287 0v242h190v-242h-190z" />
    <glyph glyph-name="at" unicode="@" horiz-adv-x="1521" 
d="M70 682q0 146 54.5 278t148.5 228.5t227 153.5t284 57q136 0 251 -39t191.5 -102.5t130 -144.5t77.5 -164t24 -163q0 -121 -45 -225t-139 -171.5t-221 -67.5q-77 0 -134.5 50.5t-56.5 123.5q-99 -154 -233 -154q-95 0 -152 63.5t-57 169.5q0 97 50 199t139.5 173
t189.5 71q68 0 109 -33.5t50 -91.5l39 113h154l-143 -422q-27 -66 -4.5 -112t90.5 -46q108 0 180 98t72 262q0 226 -157.5 368t-404.5 142q-174 0 -312.5 -82.5t-214 -222.5t-75.5 -309q0 -176 75.5 -316t213.5 -219t313 -79q244 0 408 151l65 -80q-196 -174 -473 -174
q-151 0 -284 54.5t-227 149t-148.5 228t-54.5 285.5zM582 586q0 -62 31 -97.5t79 -35.5q61 0 102.5 47t71.5 135l56 164q0 53 -23.5 90t-75.5 37q-70 0 -127 -55.5t-85.5 -132.5t-28.5 -152z" />
    <glyph glyph-name="A" unicode="A" horiz-adv-x="983" 
d="M14 0l361 1364h229l365 -1364h-219l-88 352h-351l-84 -352h-213zM354 532h262l-133 537z" />
    <glyph glyph-name="B" unicode="B" horiz-adv-x="1052" 
d="M127 0v1364h459q192 0 276 -87t84 -249v-51q0 -234 -203 -272q222 -39 222 -277v-92q0 -336 -367 -336h-471zM346 182h254q145 0 145 150v96q0 176 -170 176h-229v-422zM346 772h217q170 0 170 174v84q0 152 -145 152h-242v-410z" />
    <glyph glyph-name="C" unicode="C" horiz-adv-x="1050" 
d="M106 391v582q0 85 26.5 160t79 134.5t138.5 94.5t197 35q112 0 196.5 -31.5t135 -87t75.5 -126t25 -155.5v-110h-197v96q0 107 -58 166t-171 59q-112 0 -170.5 -59t-58.5 -156v-624q0 -96 58.5 -154.5t170.5 -58.5q113 0 171 59t58 166v96h197v-110q0 -85 -25 -156
t-75.5 -127t-135 -87.5t-196.5 -31.5q-110 0 -196.5 35t-139 95.5t-79 135.5t-26.5 160z" />
    <glyph glyph-name="D" unicode="D" horiz-adv-x="1101" 
d="M127 0v1364h446q208 0 315 -112.5t107 -288.5v-562q0 -176 -107 -288.5t-315 -112.5h-446zM344 195h211q113 0 168 59t55 168v518q0 110 -55 169.5t-168 59.5h-211v-974z" />
    <glyph glyph-name="E" unicode="E" horiz-adv-x="931" 
d="M127 0v1364h737v-195h-520v-358h375v-184h-375v-432h520v-195h-737z" />
    <glyph glyph-name="F" unicode="F" horiz-adv-x="892" 
d="M127 0v1366h733v-195h-516v-395h395v-188h-395v-588h-217z" />
    <glyph glyph-name="G" unicode="G" horiz-adv-x="1071" 
d="M106 385v594q0 85 26.5 159t79 132.5t138.5 92.5t197 34q220 0 321 -111t101 -307v-29h-209v49q0 90 -52.5 149.5t-160.5 59.5q-109 0 -166 -63t-57 -152v-624q0 -87 57.5 -150t165.5 -63t165.5 63t57.5 150v161h-217v183h422v-713h-113l-35 115q-41 -73 -121 -111.5
t-188 -38.5q-105 0 -186.5 34t-129.5 93.5t-72 133.5t-24 159z" />
    <glyph glyph-name="H" unicode="H" horiz-adv-x="1153" 
d="M127 0v1364h217v-578h465v578h217v-1364h-217v594h-465v-594h-217z" />
    <glyph glyph-name="I" unicode="I" horiz-adv-x="471" 
d="M127 0v1364h217v-1364h-217z" />
    <glyph glyph-name="J" unicode="J" horiz-adv-x="1001" 
d="M70 367v176h202v-162q0 -225 199 -225q97 0 142.5 54t45.5 171v983h218v-967q0 -201 -96 -316.5t-304 -115.5q-202 0 -304.5 104.5t-102.5 297.5z" />
    <glyph glyph-name="K" unicode="K" horiz-adv-x="1048" 
d="M127 0v1364h217v-639l438 639h238l-412 -586l410 -778h-240l-309 608l-125 -164v-444h-217z" />
    <glyph glyph-name="L" unicode="L" 
d="M127 0v1364h217v-1169h508v-195h-725z" />
    <glyph glyph-name="M" unicode="M" horiz-adv-x="1421" 
d="M127 0v1364h301l219 -856l66 -272l65 274l215 854h301v-1364h-194v1077l-68 -270l-217 -807h-215l-211 807l-67 270v-1077h-195z" />
    <glyph glyph-name="N" unicode="N" horiz-adv-x="1140" 
d="M127 0v1364h168l381 -664l133 -249v913h205v-1364h-152l-391 651l-139 250v-901h-205z" />
    <glyph glyph-name="O" unicode="O" horiz-adv-x="1093" 
d="M106 408v548q0 198 111 319.5t330 121.5q112 0 197.5 -33.5t138 -93.5t78.5 -139t26 -175v-548q0 -200 -110 -321.5t-330 -121.5q-219 0 -330 122t-111 321zM326 393q0 -109 55.5 -173t165.5 -64q111 0 167 64t56 173v578q0 109 -56 173t-167 64q-110 0 -165.5 -64
t-55.5 -173v-578z" />
    <glyph glyph-name="P" unicode="P" horiz-adv-x="1015" 
d="M127 0v1364h459q191 0 278.5 -93t87.5 -255v-137q0 -161 -87.5 -254t-278.5 -93h-242v-532h-217zM344 713h244q79 0 112 42t33 122v143q0 80 -33 121t-112 41h-244v-469z" />
    <glyph glyph-name="Q" unicode="Q" horiz-adv-x="1091" 
d="M106 385v594q0 85 26.5 159t78.5 132.5t138.5 92.5t197.5 34t196.5 -34t137.5 -92.5t78 -132.5t26 -159v-631q0 -100 -55 -186q27 -22 57.5 -29.5t85.5 -7.5v-125q-26 -19 -50 -27t-73 -8q-89 0 -162 55q-110 -55 -241 -55q-111 0 -197.5 34t-138.5 93.5t-78.5 133.5
t-26.5 159zM324 369q0 -87 57.5 -150t165.5 -63q74 0 125 28l-60 56l156 118v635q0 89 -57 152t-164 63q-109 0 -166 -63t-57 -152v-624z" />
    <glyph glyph-name="R" unicode="R" horiz-adv-x="1064" 
d="M127 0v1364h459q366 0 366 -336v-92q0 -117 -48 -180.5t-161 -83.5q107 -11 161 -85.5t54 -172.5v-209q0 -53 68 -53v-168h-43q-136 0 -189 44t-53 160v224q0 178 -163 178h-234v-590h-217zM344 748h219q170 0 170 176v106q0 152 -147 152h-242v-434z" />
    <glyph glyph-name="S" unicode="S" horiz-adv-x="1007" 
d="M72 348v66h215v-23q0 -241 221 -241q100 0 154.5 53.5t54.5 142.5q0 87 -53.5 142.5t-206.5 125.5q-63 29 -109 54.5t-98 63.5t-84.5 78.5t-54 95.5t-21.5 118q0 160 110.5 266.5t299.5 106.5q191 0 307.5 -107.5t116.5 -275.5v-53h-209v22q0 102 -54.5 166.5
t-166.5 64.5q-90 0 -138.5 -47.5t-48.5 -122.5q0 -81 56.5 -132.5t234.5 -137.5q184 -88 261 -177t77 -226q0 -174 -121 -290t-313 -116q-191 0 -310.5 108.5t-119.5 274.5z" />
    <glyph glyph-name="T" unicode="T" horiz-adv-x="933" 
d="M27 1167v197h880v-197h-332v-1167h-217v1167h-331z" />
    <glyph glyph-name="U" unicode="U" horiz-adv-x="1130" 
d="M125 360v1004h219v-999q0 -215 221 -215q223 0 223 215v999h218v-1004q0 -186 -121 -290.5t-320 -104.5q-198 0 -319 105t-121 290z" />
    <glyph glyph-name="V" unicode="V" horiz-adv-x="1017" 
d="M25 1364h229l264 -1061l260 1061h223l-389 -1364h-204z" />
    <glyph glyph-name="W" unicode="W" horiz-adv-x="1458" 
d="M25 1364h223l170 -1022l223 1022h203l209 -1022l172 1022h217l-287 -1364h-213l-205 967l-217 -967h-213z" />
    <glyph glyph-name="X" unicode="X" horiz-adv-x="1024" 
d="M37 0l373 700l-353 664h238l233 -496l234 496h227l-352 -664l373 -700h-238l-254 520l-256 -520h-225z" />
    <glyph glyph-name="Y" unicode="Y" horiz-adv-x="958" 
d="M-10 1364h239l263 -625l264 625h219l-379 -811v-553h-217v553z" />
    <glyph glyph-name="Z" unicode="Z" horiz-adv-x="993" 
d="M63 0v94l592 1073h-561v197h840v-94l-584 -1073h565v-197h-852z" />
    <glyph glyph-name="bracketleft" unicode="[" horiz-adv-x="704" 
d="M242 -342v1907h448v-162h-270v-1583h270v-162h-448z" />
    <glyph glyph-name="backslash" unicode="\" horiz-adv-x="595" 
d="M8 1493h154l424 -1624h-152z" />
    <glyph glyph-name="bracketright" unicode="]" horiz-adv-x="704" 
d="M14 -180h271v1583h-271v162h449v-1907h-449v162z" />
    <glyph glyph-name="asciicircum" unicode="^" horiz-adv-x="634" 
d="M31 1108v57q74 0 122 48.5t78 150.5h177q30 -102 78 -150.5t122 -48.5v-57q-50 -16 -100 -16q-69 0 -120.5 49t-72.5 129q-21 -80 -73 -129t-123 -49q-38 0 -88 16z" />
    <glyph glyph-name="underscore" unicode="_" horiz-adv-x="768" 
d="M0 0h768v-172h-768v172z" />
    <glyph glyph-name="grave" unicode="`" horiz-adv-x="409" 
d="M41 1411h209l90 -293h-125z" />
    <glyph glyph-name="a" unicode="a" 
d="M70 242v12q0 51 15 93.5t40.5 73t64.5 54.5t80.5 39.5t95 26.5t102 16t107.5 10v121q0 129 -139 129q-80 0 -108.5 -32t-28.5 -107v-29h-188v35q0 128 82 210.5t241 82.5q326 0 326 -334v-459q0 -55 67 -55v-145h-61q-65 0 -103.5 31.5t-37.5 101.5q-50 -63 -123.5 -98
t-157.5 -35q-124 0 -199 69.5t-75 188.5zM254 254q0 -50 33 -84.5t92 -34.5q76 0 136 44t60 112v158q-167 -12 -244 -56t-77 -133v-6z" />
    <glyph glyph-name="b" unicode="b" horiz-adv-x="913" 
d="M113 0v1364h194v-541q39 70 106 112t154 42q122 0 187 -87t65 -228v-359q0 -147 -79.5 -233t-211.5 -86q-86 0 -157.5 38.5t-104.5 124.5l-35 -147h-118zM307 315q0 -89 48 -137.5t116 -48.5q158 0 158 199v290q0 199 -154 199q-77 0 -122.5 -49.5t-45.5 -136.5v-316z
" />
    <glyph glyph-name="c" unicode="c" horiz-adv-x="847" 
d="M94 336v287q0 164 92 259t254 95q161 0 245.5 -91.5t84.5 -256.5v-11h-172v39q0 74 -41.5 119t-116.5 45q-76 0 -116.5 -45.5t-40.5 -130.5v-330q0 -86 40 -131t117 -45q75 0 116.5 44.5t41.5 119.5v39h172v-12q0 -165 -84.5 -255.5t-245.5 -90.5q-162 0 -254 93.5
t-92 258.5z" />
    <glyph glyph-name="d" unicode="d" horiz-adv-x="913" 
d="M94 303v338q0 151 77 243.5t196 92.5q85 0 138 -27.5t101 -89.5v504h195v-1364h-139l-13 147q-23 -58 -67.5 -96t-92.5 -52.5t-102 -14.5q-132 0 -212.5 86.5t-80.5 232.5zM285 328q0 -199 157 -199q68 0 116 48.5t48 137.5v322q0 87 -44 136.5t-120 49.5
q-157 0 -157 -198v-297z" />
    <glyph glyph-name="e" unicode="e" horiz-adv-x="849" 
d="M94 336v287q0 164 92 259t254 95q160 0 245 -94t85 -260v-148h-487v-172q0 -75 41 -119.5t116 -44.5t116.5 44.5t41.5 119.5v39h172v-12q0 -165 -84.5 -255.5t-245.5 -90.5q-162 0 -254 93.5t-92 258.5zM283 575h315v82q0 74 -41.5 119t-116.5 45t-116 -45t-41 -119v-82z
" />
    <glyph glyph-name="f" unicode="f" horiz-adv-x="557" 
d="M47 788v158h129v80q0 157 73.5 247.5t211.5 90.5h86v-158h-55q-130 0 -130 -153v-107h166v-158h-155v-788h-197v788h-129z" />
    <glyph glyph-name="g" unicode="g" horiz-adv-x="876" 
d="M61 -90q0 134 185 176q-78 18 -119 60t-41 94q0 54 48.5 102.5t115.5 58.5q-69 37 -106.5 104.5t-37.5 153.5v7q0 130 98 220.5t238 90.5q55 0 107 -13.5t53 -13.5q125 0 125 121h133q8 -47 8 -88q0 -64 -32 -95.5t-74 -31.5q-56 0 -82 16q100 -81 100 -200v-19
q0 -133 -92.5 -216t-245.5 -83q-48 0 -100 13q-39 0 -66.5 -26.5t-27.5 -53.5q0 -26 20 -43.5t77 -29t153 -11.5q175 0 260.5 -60.5t85.5 -165.5v-20q0 -123 -106.5 -211t-280.5 -88q-166 0 -281 67.5t-115 172.5v12zM233 -53v-13q0 -51 56.5 -86.5t165.5 -35.5
q107 0 159 38t52 91v12q0 52 -45.5 78t-165.5 26q-111 0 -166.5 -30t-55.5 -80zM281 659q0 -70 44 -118.5t117 -48.5t117.5 48.5t44.5 118.5v9q0 70 -44.5 119t-117.5 49t-117 -49t-44 -119v-9z" />
    <glyph glyph-name="h" unicode="h" horiz-adv-x="931" 
d="M113 0v1364h196v-592q36 100 109.5 151.5t154.5 51.5q116 0 184 -82t68 -217v-676h-196v674q0 71 -36.5 112t-98.5 41q-55 0 -99.5 -48.5t-65 -104t-20.5 -96.5v-578h-196z" />
    <glyph glyph-name="i" unicode="i" horiz-adv-x="421" 
d="M113 0v958h196v-958h-196zM119 1124v195h184v-195h-184z" />
    <glyph glyph-name="j" unicode="j" horiz-adv-x="421" 
d="M-31 -190h25q71 0 95 23.5t24 76.5v1048h196v-1005q0 -136 -60.5 -209.5t-199.5 -73.5h-80v140zM119 1124v195h184v-195h-184z" />
    <glyph glyph-name="k" unicode="k" horiz-adv-x="876" 
d="M113 0v1364h196v-870l314 467h196l-266 -396l301 -565h-203l-217 426l-125 -174v-252h-196z" />
    <glyph glyph-name="l" unicode="l" horiz-adv-x="421" 
d="M113 0v1364h196v-1364h-196z" />
    <glyph glyph-name="m" unicode="m" horiz-adv-x="1304" 
d="M113 0v958h161l13 -186q76 203 250 203q155 0 204 -174q42 95 98 134.5t140 39.5q104 0 160.5 -72.5t56.5 -202.5v-700h-195v698q0 61 -25.5 95t-76.5 34q-42 0 -73 -28t-45.5 -70.5t-20.5 -80t-6 -70.5v-578h-197v698q0 129 -100 129q-42 0 -73.5 -28t-46.5 -70.5
t-21.5 -80.5t-6.5 -70v-578h-196z" />
    <glyph glyph-name="n" unicode="n" horiz-adv-x="933" 
d="M113 0v958h159l15 -221q47 124 112 181t154 57q132 0 202 -81t70 -218v-676h-196v674q0 71 -36.5 112t-98.5 41q-56 0 -100.5 -48.5t-64.5 -104t-20 -96.5v-578h-196z" />
    <glyph glyph-name="o" unicode="o" horiz-adv-x="884" 
d="M94 336v287q0 163 93 258.5t255 95.5q161 0 253.5 -95.5t92.5 -258.5v-287q0 -164 -92.5 -258t-253.5 -94q-163 0 -255.5 94t-92.5 258zM285 303q0 -75 41 -119.5t116 -44.5q74 0 115 44.5t41 119.5v354q0 74 -41.5 119t-114.5 45q-75 0 -116 -45t-41 -119v-354z" />
    <glyph glyph-name="p" unicode="p" horiz-adv-x="913" 
d="M113 -324v1282h139l12 -147q34 86 106 125t156 39q131 0 211 -86.5t80 -233.5v-374q0 -129 -74 -214t-180 -85q-89 0 -146.5 26t-109.5 90v-422h-194zM307 328q0 -87 43.5 -137t118.5 -50q158 0 158 199v291q0 198 -158 198q-67 0 -114.5 -49t-47.5 -139v-313z" />
    <glyph glyph-name="q" unicode="q" horiz-adv-x="913" 
d="M94 281v374q0 147 80 233.5t213 86.5q54 0 102 -14.5t92.5 -53t67.5 -96.5l33 147h119v-1282h-195v459q-43 -78 -106.5 -115.5t-163.5 -37.5q-98 0 -170 85.5t-72 213.5zM285 340q0 -199 157 -199q75 0 119.5 50t44.5 137v313q0 90 -48 139t-116 49q-157 0 -157 -198
v-291z" />
    <glyph glyph-name="r" unicode="r" horiz-adv-x="618" 
d="M113 0v958h159l17 -194q41 135 115 180q48 29 113 29q35 0 75 -8v-189q-57 8 -102 8q-72 0 -114 -21q-68 -35 -67 -110v-653h-196z" />
    <glyph glyph-name="s" unicode="s" horiz-adv-x="815" 
d="M76 283v36h162v-22q0 -164 178 -164q74 0 112.5 32t38.5 91t-40 96.5t-156 75.5q-142 45 -208.5 111t-66.5 168q0 113 88.5 191.5t231.5 78.5q160 0 239.5 -72t79.5 -205v-18h-157v14q0 125 -162 125q-68 0 -105 -27.5t-37 -76.5q0 -53 44 -85.5t176 -78.5
q136 -45 193.5 -113.5t57.5 -175.5q0 -115 -88 -197.5t-241 -82.5q-162 0 -251 82.5t-89 216.5z" />
    <glyph glyph-name="t" unicode="t" horiz-adv-x="571" 
d="M43 788v158h139v180l187 60v-240h155v-158h-155v-473q0 -200 65 -315h-207q-31 60 -43 131t-12 184v473h-129z" />
    <glyph glyph-name="u" unicode="u" horiz-adv-x="937" 
d="M113 283v675h196v-673q0 -72 36.5 -113t98.5 -41q55 0 99.5 48.5t65 104.5t20.5 97v577h196v-958h-159l-15 190q-78 -206 -266 -206q-133 0 -202.5 80.5t-69.5 218.5z" />
    <glyph glyph-name="v" unicode="v" horiz-adv-x="802" 
d="M16 958h195l139 -528l51 -217l52 217l137 528h196l-292 -958h-185z" />
    <glyph glyph-name="w" unicode="w" horiz-adv-x="1169" 
d="M16 958h195l96 -528l41 -217l43 217l121 528h170l96 -528l43 -217l41 217l121 528h170l-248 -958h-168l-104 395l-47 219l-49 -219l-105 -395h-168z" />
    <glyph glyph-name="x" unicode="x" horiz-adv-x="790" 
d="M27 0l284 479l-284 479h196l180 -335l179 335h196l-282 -479l282 -479h-196l-179 338l-180 -338h-196z" />
    <glyph glyph-name="y" unicode="y" horiz-adv-x="802" 
d="M16 958h195l139 -528l51 -217l52 217l137 528h194l-305 -1005q-18 -59 -31.5 -95.5t-37 -76.5t-52 -61.5t-72 -35.5t-100.5 -14h-82v146h62q71 0 97 20t42 74l14 51z" />
    <glyph glyph-name="z" unicode="z" horiz-adv-x="755" 
d="M57 0v123l445 684h-424v151h627v-122l-439 -684h426v-152h-635z" />
    <glyph glyph-name="braceleft" unicode="{" horiz-adv-x="749" 
d="M162 545v133h67q86 0 120 25t34 83q0 39 -27.5 96t-60.5 108.5t-60.5 128t-27.5 149.5q0 129 84.5 213t245.5 84h79v-162h-77q-72 0 -108 -32.5t-36 -88.5q0 -55 23 -122t51 -119t51 -110t23 -97q0 -87 -50.5 -145t-150.5 -79q100 -20 150.5 -77t50.5 -144q0 -40 -23 -98
t-51 -109.5t-51 -118.5t-23 -122q0 -56 36 -88.5t108 -32.5h77v-162h-79q-161 0 -245.5 83.5t-84.5 211.5q0 74 27.5 150.5t60.5 128t60.5 107.5t27.5 95q0 60 -34 85.5t-120 25.5h-67z" />
    <glyph glyph-name="bar" unicode="|" horiz-adv-x="401" 
d="M127 -131v1624h147v-1624h-147z" />
    <glyph glyph-name="braceright" unicode="}" horiz-adv-x="749" 
d="M133 -180h78q72 0 107.5 32.5t35.5 88.5q0 55 -23 122t-50.5 118.5t-50.5 109.5t-23 98q0 87 50.5 144t150.5 77q-100 21 -150.5 79t-50.5 145q0 39 23 97t50.5 110t50.5 119t23 122q0 56 -35.5 88.5t-107.5 32.5h-78v162h80q161 0 245.5 -84t84.5 -213
q0 -73 -27.5 -149.5t-60.5 -128t-60.5 -108.5t-27.5 -96q0 -58 33.5 -83t119.5 -25h68v-133h-68q-86 0 -119.5 -25.5t-33.5 -85.5q0 -39 27.5 -95t60.5 -107.5t60.5 -128t27.5 -150.5q0 -128 -84.5 -211.5t-245.5 -83.5h-80v162z" />
    <glyph glyph-name="asciitilde" unicode="~" horiz-adv-x="667" 
d="M31 641q0 79 39 123.5t120 44.5q49 0 109.5 -30.5t110 -60.5t71.5 -30q24 0 33.5 11.5t9.5 37.5v76h84q31 -47 31 -92q0 -79 -40.5 -123.5t-121.5 -44.5q-38 0 -84.5 19t-81.5 42.5t-70.5 42.5t-54.5 19q-41 0 -41 -49v-76h-84q-30 41 -30 90z" />
    <glyph glyph-name="uni00A0" unicode="&#xa0;" horiz-adv-x="192" 
 />
    <glyph glyph-name="exclamdown" unicode="&#xa1;" horiz-adv-x="444" 
d="M117 188l76 371h61l76 -371v-594h-213v594zM127 717v241h190v-241h-190z" />
    <glyph glyph-name="cent" unicode="&#xa2;" horiz-adv-x="862" 
d="M109 512v336q0 130 73 215.5t195 107.5v193h168v-197q111 -25 175 -109t64 -210v-27h-184v49q0 69 -38 109.5t-107 40.5t-107.5 -40.5t-38.5 -109.5v-376q0 -69 38.5 -109.5t107.5 -40.5t107 40.5t38 109.5v49h184v-31q0 -125 -64 -208.5t-175 -108.5v-195h-168v190
q-122 22 -195 107.5t-73 214.5z" />
    <glyph glyph-name="sterling" unicode="&#xa3;" horiz-adv-x="1105" 
d="M-2 160q0 95 62.5 155t179.5 60q79 0 159 -58q54 61 54 140q0 33 -12.5 77t-34.5 74h-295v168h208q-69 134 -69 244q0 75 24 141t71 120.5t126 86t180 31.5q174 0 274.5 -101.5t100.5 -248.5v-78h-186v35q0 100 -49.5 160.5t-143.5 60.5t-144 -55t-50 -160
q0 -108 86 -236h313v-168h-234q27 -96 27 -157q0 -60 -21.5 -112.5t-70.5 -119.5q42 -30 100 -52t95 -22q124 0 124 134v137h187v-129q0 -160 -67.5 -241t-211.5 -81q-89 0 -178 31t-151 80q-108 -111 -240 -111q-97 0 -155 56.5t-58 138.5zM156 172q0 -22 18 -37.5
t51 -15.5q69 0 107 59q-61 51 -109 51q-32 0 -49.5 -16t-17.5 -41z" />
    <glyph glyph-name="currency" unicode="&#xa4;" horiz-adv-x="1038" 
d="M106 391v582q0 86 25 160.5t74.5 135t134.5 95.5t195 35q112 0 196.5 -31.5t135 -87.5t75.5 -127t25 -156v-69h-197v55q0 107 -58 166t-171 59q-112 0 -171 -59t-59 -156v-221h506v-180h-506v-221q0 -97 59 -156t171 -59q113 0 171 59t58 166v55h197v-69q0 -85 -25 -156
t-75.5 -127t-135 -87.5t-196.5 -31.5q-110 0 -195 35t-134.5 95.5t-74.5 135t-25 160.5z" />
    <glyph glyph-name="yen" unicode="&#xa5;" horiz-adv-x="1028" 
d="M47 1364h227l242 -573l240 573h225l-293 -610h244v-181h-318v-139h318v-180h-318v-254h-204v254h-326v180h326v139h-326v181h254z" />
    <glyph glyph-name="section" unicode="&#xa7;" horiz-adv-x="1026" 
d="M80 27v49h199v-53q0 -76 62 -122t165 -46q116 0 169.5 34t53.5 107q0 45 -34.5 84t-90 70.5t-123 63t-134.5 67t-122.5 76t-90 97.5t-34.5 124q0 139 152 239q-129 99 -129 242q0 67 23.5 127t70 108t123 76.5t174.5 28.5q108 0 189 -29t128 -80t70 -113.5t23 -136.5v-30
h-197v45q0 31 -9 58t-31 53.5t-67 41.5t-110 15q-178 0 -178 -152q0 -39 26.5 -74t70 -62t99 -56.5t113.5 -56.5t113.5 -62t99 -73t70 -90t26.5 -112q0 -82 -34 -140t-109 -101q131 -98 131 -236q0 -137 -112 -232t-308 -95q-207 0 -322.5 93t-115.5 253zM297 625
q0 -34 10.5 -58t49 -57.5t113.5 -75t204 -102.5q40 10 67 40t27 74q0 45 -31 85.5t-114.5 92.5t-233.5 121q-40 -10 -66 -44.5t-26 -75.5z" />
    <glyph glyph-name="dieresis" unicode="&#xa8;" horiz-adv-x="542" 
d="M31 1186v190h174v-190h-174zM338 1186v190h174v-190h-174z" />
    <glyph glyph-name="copyright" unicode="&#xa9;" horiz-adv-x="1533" 
d="M51 682q0 196 92.5 360t257 260.5t365.5 96.5q202 0 367 -96.5t257.5 -260.5t92.5 -360t-92.5 -360t-257.5 -260.5t-367 -96.5q-201 0 -365.5 96.5t-257 260.5t-92.5 360zM164 682q0 -169 75.5 -309t214 -222.5t312.5 -82.5q175 0 314 82.5t214.5 222.5t75.5 309
t-75.5 309t-214.5 222.5t-314 82.5q-174 0 -312.5 -82.5t-214 -222.5t-75.5 -309zM537 565v234q0 93 66.5 153t174.5 60q106 0 169 -57t63 -150v-43h-109v41q0 49 -31.5 80.5t-89.5 31.5t-88 -33t-30 -85v-230q0 -50 30.5 -84t87.5 -34q58 0 89.5 31.5t31.5 80.5v41h109v-43
q0 -93 -63 -150t-169 -57q-108 0 -174.5 60t-66.5 153z" />
    <glyph glyph-name="ordfeminine" unicode="&#xaa;" horiz-adv-x="733" 
d="M74 840v8q0 54 23 95t59 66t90 41.5t106.5 24t118.5 10.5v95q0 96 -109 96q-63 0 -85.5 -24.5t-22.5 -82.5v-20h-148v27q0 97 65 159t189 62q256 0 256 -254v-346q0 -23 13 -32t55 -9v-113h-63q-50 0 -81 24.5t-30 77.5q-83 -102 -221 -102q-97 0 -156 53.5t-59 143.5z
M219 850q0 -39 25.5 -64.5t72.5 -25.5q60 0 107 32.5t47 84.5v120q-132 -9 -192 -42t-60 -101v-4z" />
    <glyph glyph-name="guillemotleft" unicode="&#xab;" horiz-adv-x="946" 
d="M55 319v154q110 25 195.5 117t114.5 203h114q0 -114 -66 -227t-177 -171q112 -58 177.5 -170t65.5 -225h-114q-29 110 -114.5 202t-195.5 117zM444 319v154q110 25 195.5 117t114.5 203h114q0 -114 -66 -227t-177 -171q112 -58 177.5 -170t65.5 -225h-114
q-29 110 -114.5 202t-195.5 117z" />
    <glyph glyph-name="logicalnot" unicode="&#xac;" horiz-adv-x="839" 
d="M98 492l201 200l-201 203l121 119l203 -201l201 201l118 -117l-202 -201l202 -202l-120 -121l-203 202l-201 -202z" />
    <glyph glyph-name="uni00AD" unicode="&#xad;" horiz-adv-x="657" 
d="M82 535v172h493v-172h-493z" />
    <glyph glyph-name="registered" unicode="&#xae;" horiz-adv-x="1533" 
d="M51 682q0 196 92.5 360t257 260.5t365.5 96.5q202 0 367 -96.5t257.5 -260.5t92.5 -360t-92.5 -360t-257.5 -260.5t-367 -96.5q-201 0 -365.5 96.5t-257 260.5t-92.5 360zM164 682q0 -169 75.5 -309t214 -222.5t312.5 -82.5q175 0 314 82.5t214.5 222.5t75.5 309
t-75.5 309t-214.5 222.5t-314 82.5q-174 0 -312.5 -82.5t-214 -222.5t-75.5 -309zM557 375v622h260q193 0 193 -176v-4q0 -62 -25 -95.5t-84 -43.5q55 -6 84 -45.5t29 -89.5v-60q0 -28 35 -28v-88h-33q-71 0 -99 22.5t-28 83.5v68q0 94 -86 94h-123v-260h-123zM680 719h115
q90 0 90 90v14q0 78 -78 78h-127v-182z" />
    <glyph glyph-name="macron" unicode="&#xaf;" horiz-adv-x="598" 
d="M27 1192v135h544v-135h-544z" />
    <glyph glyph-name="degree" unicode="&#xb0;" horiz-adv-x="667" 
d="M49 1122q0 112 80.5 194.5t204.5 82.5t204 -82.5t80 -194.5t-80 -194t-204 -82t-204.5 82t-80.5 194zM195 1122q0 -69 37 -111t102 -42t102 42t37 111q0 68 -37 110t-102 42t-102 -42t-37 -110z" />
    <glyph glyph-name="plusminus" unicode="&#xb1;" horiz-adv-x="1038" 
d="M49 0v981h940v-981h-940zM154 100h731v781h-731v-781z" />
    <glyph glyph-name="acute" unicode="&#xb4;" horiz-adv-x="409" 
d="M102 1118l93 293h206l-172 -293h-127z" />
    <glyph glyph-name="paragraph" unicode="&#xb6;" horiz-adv-x="1257" 
d="M92 860v33q0 210 136.5 340.5t342.5 130.5h562v-1671h-160v1519h-154v-1519h-160v698h-88q-206 0 -342.5 130t-136.5 339zM446 745q0 -82 46 -128t124 -46h43v641h-43q-78 0 -124 -46.5t-46 -129.5v-291z" />
    <glyph glyph-name="periodcentered" unicode="&#xb7;" horiz-adv-x="374" 
d="M92 559v244h191v-244h-191z" />
    <glyph glyph-name="cedilla" unicode="&#xb8;" horiz-adv-x="462" 
d="M27 -223l200 270l76 -53l-113 -148q24 17 84 17q88 0 136.5 -55t48.5 -144q0 -83 -57.5 -137.5t-147.5 -54.5q-62 0 -88 22v76h47q45 0 70.5 19t25.5 55v63q0 38 -26 60t-70 22q-59 0 -113 -63z" />
    <glyph glyph-name="ordmasculine" unicode="&#xba;" horiz-adv-x="681" 
d="M68 905v230q0 121 76 191.5t196 70.5q121 0 197.5 -70.5t76.5 -191.5v-230q0 -121 -76.5 -191.5t-197.5 -70.5q-120 0 -196 70.5t-76 191.5zM217 872q0 -51 34 -83.5t89 -32.5t89 32.5t34 83.5v295q0 53 -34 86t-89 33t-89 -33t-34 -86v-295z" />
    <glyph glyph-name="guillemotright" unicode="&#xbb;" horiz-adv-x="946" 
d="M82 0q0 113 66 225t178 170q-111 58 -177.5 171t-66.5 227h115q29 -111 114 -203t195 -117v-154q-110 -25 -195 -116.5t-114 -202.5h-115zM471 0q0 113 66 225t178 170q-111 58 -177.5 171t-66.5 227h115q29 -111 114 -203t195 -117v-154q-110 -25 -195 -116.5
t-114 -202.5h-115z" />
    <glyph glyph-name="questiondown" unicode="&#xbf;" horiz-adv-x="784" 
d="M-37 -80q0 123 57 211.5t183 181.5q73 56 97 99.5t24 115.5h153q0 -29 -1.5 -52.5t-8 -47t-10.5 -39t-18.5 -38.5t-21 -34t-30 -38t-34 -38.5t-43 -46t-48.5 -51.5q-92 -98 -92 -215q0 -103 44.5 -149.5t139.5 -46.5q189 0 189 227v102h188v-131q0 -163 -92 -265.5
t-277 -102.5q-105 0 -184.5 29.5t-125 81t-67.5 113.5t-22 134zM313 717v241h191v-241h-191z" />
    <glyph glyph-name="Agrave" unicode="&#xc0;" horiz-adv-x="983" 
d="M14 0l361 1364h229l365 -1364h-219l-88 352h-351l-84 -352h-213zM242 1739h209l90 -293h-125zM354 532h262l-133 537z" />
    <glyph glyph-name="Aacute" unicode="&#xc1;" horiz-adv-x="983" 
d="M14 0l361 1364h229l365 -1364h-219l-88 352h-351l-84 -352h-213zM354 532h262l-133 537zM416 1446l92 293h207l-172 -293h-127z" />
    <glyph glyph-name="Acircumflex" unicode="&#xc2;" horiz-adv-x="983" 
d="M14 0l361 1364h229l365 -1364h-219l-88 352h-351l-84 -352h-213zM195 1470v58q75 0 123 48t77 150h176q29 -102 77.5 -150t123.5 -48v-58q-50 -16 -100 -16q-69 0 -120.5 49t-72.5 129q-21 -80 -73 -129t-123 -49q-38 0 -88 16zM354 532h262l-133 537z" />
    <glyph glyph-name="Atilde" unicode="&#xc3;" horiz-adv-x="983" 
d="M14 0l361 1364h229l365 -1364h-219l-88 352h-351l-84 -352h-213zM166 1573q0 79 39.5 123.5t120.5 44.5q49 0 109 -30.5t109.5 -60.5t71.5 -30q24 0 33.5 11.5t9.5 37.5v76h84q31 -47 31 -92q0 -79 -40.5 -123.5t-121.5 -44.5q-38 0 -84.5 19t-81 42.5t-70 42.5t-54.5 19
q-41 0 -41 -49v-76h-84q-31 42 -31 90zM354 532h262l-133 537z" />
    <glyph glyph-name="Adieresis" unicode="&#xc4;" horiz-adv-x="983" 
d="M14 0l361 1364h229l365 -1364h-219l-88 352h-351l-84 -352h-213zM225 1513v191h174v-191h-174zM354 532h262l-133 537zM532 1513v191h175v-191h-175z" />
    <glyph glyph-name="Aring" unicode="&#xc5;" horiz-adv-x="983" 
d="M14 0l361 1364h43q-55 20 -89 68.5t-34 105.5q0 76 54.5 131t137.5 55q84 0 138.5 -55t54.5 -131q0 -58 -33 -106t-88 -68h45l365 -1364h-219l-88 352h-351l-84 -352h-213zM354 532h262l-133 537zM393 1538q0 -45 25.5 -73.5t68.5 -28.5q45 0 71 28.5t26 73.5
q0 46 -26 74t-71 28q-44 0 -69 -28t-25 -74z" />
    <glyph glyph-name="AE" unicode="&#xc6;" horiz-adv-x="1509" 
d="M8 0l619 1364h817v-195h-520v-358h374v-184h-374v-432h520v-195h-737v352h-320l-151 -352h-228zM467 537h240v571z" />
    <glyph glyph-name="Ccedilla" unicode="&#xc7;" horiz-adv-x="1050" 
d="M106 391v582q0 85 26.5 160t79 134.5t138.5 94.5t197 35q112 0 196.5 -31.5t135 -87t75.5 -126t25 -155.5v-110h-197v96q0 107 -58 166t-171 59q-112 0 -170.5 -59t-58.5 -156v-624q0 -96 58.5 -154.5t170.5 -58.5q113 0 171 59t58 166v96h197v-110q0 -83 -24 -153
t-72.5 -126t-130.5 -88.5t-189 -34.5l-90 -119q24 17 84 17q88 0 136 -55t48 -144q0 -83 -57 -137.5t-147 -54.5q-62 0 -88 22v76h47q45 0 70.5 19t25.5 55v63q0 38 -26 60t-70 22q-59 0 -113 -63l-74 51l146 194q-171 28 -260 145t-89 275z" />
    <glyph glyph-name="Egrave" unicode="&#xc8;" horiz-adv-x="931" 
d="M127 0v1364h737v-195h-520v-358h375v-184h-375v-432h520v-195h-737zM274 1739h209l90 -293h-124z" />
    <glyph glyph-name="Eacute" unicode="&#xc9;" horiz-adv-x="931" 
d="M127 0v1364h737v-195h-520v-358h375v-184h-375v-432h520v-195h-737zM403 1446l93 293h206l-172 -293h-127z" />
    <glyph glyph-name="Ecircumflex" unicode="&#xca;" horiz-adv-x="931" 
d="M127 0v1364h737v-195h-520v-358h375v-184h-375v-432h520v-195h-737zM193 1470v58q75 0 123 48t77 150h176q29 -102 77.5 -150t123.5 -48v-58q-50 -16 -100 -16q-69 0 -120.5 49t-72.5 129q-21 -80 -73 -129t-123 -49q-38 0 -88 16z" />
    <glyph glyph-name="Edieresis" unicode="&#xcb;" horiz-adv-x="931" 
d="M127 0v1364h737v-195h-520v-358h375v-184h-375v-432h520v-195h-737zM240 1513v191h174v-191h-174zM547 1513v191h174v-191h-174z" />
    <glyph glyph-name="Igrave" unicode="&#xcc;" horiz-adv-x="471" 
d="M-6 1739h209l90 -293h-125zM127 0v1364h217v-1364h-217z" />
    <glyph glyph-name="Iacute" unicode="&#xcd;" horiz-adv-x="471" 
d="M127 0v1364h217v-1364h-217zM156 1446l92 293h207l-172 -293h-127z" />
    <glyph glyph-name="Icircumflex" unicode="&#xce;" horiz-adv-x="471" 
d="M-53 1470v58q75 0 123 48t77 150h177q29 -102 77.5 -150t122.5 -48v-58q-50 -16 -100 -16q-69 0 -120.5 49t-72.5 129q-21 -80 -73 -129t-123 -49q-38 0 -88 16zM127 0v1364h217v-1364h-217z" />
    <glyph glyph-name="Idieresis" unicode="&#xcf;" horiz-adv-x="471" 
d="M-10 1513v191h174v-191h-174zM127 0v1364h217v-1364h-217zM297 1513v191h174v-191h-174z" />
    <glyph glyph-name="Eth" unicode="&#xd0;" horiz-adv-x="1214" 
d="M23 592v180h217v592h444q208 0 316 -112.5t108 -288.5v-562q0 -176 -108 -288.5t-316 -112.5h-444v592h-217zM457 193h211q112 0 167.5 60t55.5 169v518q0 110 -55 169.5t-168 59.5h-211v-397h215v-180h-215v-399z" />
    <glyph glyph-name="Ntilde" unicode="&#xd1;" horiz-adv-x="1140" 
d="M127 0v1364h168l381 -664l133 -249v913h205v-1364h-152l-391 651l-139 250v-901h-205zM250 1573q0 79 39.5 123.5t120.5 44.5q49 0 109 -30.5t109.5 -60.5t71.5 -30q24 0 33.5 11.5t9.5 37.5v76h84q31 -47 31 -92q0 -79 -40.5 -123.5t-121.5 -44.5q-38 0 -84.5 19
t-81 42.5t-70 42.5t-54.5 19q-41 0 -41 -49v-76h-84q-31 42 -31 90z" />
    <glyph glyph-name="Ograve" unicode="&#xd2;" horiz-adv-x="1093" 
d="M106 408v548q0 198 111 319.5t330 121.5q112 0 197.5 -33.5t138 -93.5t78.5 -139t26 -175v-548q0 -200 -110 -321.5t-330 -121.5q-219 0 -330 122t-111 321zM305 1739h209l90 -293h-125zM326 393q0 -109 55.5 -173t165.5 -64q111 0 167 64t56 173v578q0 109 -56 173
t-167 64q-110 0 -165.5 -64t-55.5 -173v-578z" />
    <glyph glyph-name="Oacute" unicode="&#xd3;" horiz-adv-x="1093" 
d="M106 408v548q0 198 111 319.5t330 121.5q112 0 197.5 -33.5t138 -93.5t78.5 -139t26 -175v-548q0 -200 -110 -321.5t-330 -121.5q-219 0 -330 122t-111 321zM326 393q0 -109 55.5 -173t165.5 -64q111 0 167 64t56 173v578q0 109 -56 173t-167 64q-110 0 -165.5 -64
t-55.5 -173v-578zM475 1446l92 293h207l-172 -293h-127z" />
    <glyph glyph-name="Ocircumflex" unicode="&#xd4;" horiz-adv-x="1093" 
d="M106 408v548q0 198 111 319.5t330 121.5q112 0 197.5 -33.5t138 -93.5t78.5 -139t26 -175v-548q0 -200 -110 -321.5t-330 -121.5q-219 0 -330 122t-111 321zM260 1470v58q75 0 123.5 48t77.5 150h176q29 -102 77.5 -150t123.5 -48v-58q-50 -16 -101 -16q-69 0 -120 49
t-72 129q-21 -80 -73.5 -129t-123.5 -49q-38 0 -88 16zM326 393q0 -109 55.5 -173t165.5 -64q111 0 167 64t56 173v578q0 109 -56 173t-167 64q-110 0 -165.5 -64t-55.5 -173v-578z" />
    <glyph glyph-name="Otilde" unicode="&#xd5;" horiz-adv-x="1093" 
d="M106 408v548q0 198 111 319.5t330 121.5q112 0 197.5 -33.5t138 -93.5t78.5 -139t26 -175v-548q0 -200 -110 -321.5t-330 -121.5q-219 0 -330 122t-111 321zM225 1573q0 79 39.5 123.5t120.5 44.5q49 0 109.5 -30.5t110 -60.5t71.5 -30q24 0 33.5 11.5t9.5 37.5v76h84
q31 -47 31 -92q0 -79 -40.5 -123.5t-121.5 -44.5q-38 0 -84.5 19t-81.5 42.5t-70.5 42.5t-54.5 19q-41 0 -41 -49v-76h-84q-31 42 -31 90zM326 393q0 -109 55.5 -173t165.5 -64q111 0 167 64t56 173v578q0 109 -56 173t-167 64q-110 0 -165.5 -64t-55.5 -173v-578z" />
    <glyph glyph-name="Odieresis" unicode="&#xd6;" horiz-adv-x="1093" 
d="M106 408v548q0 198 111 319.5t330 121.5q112 0 197.5 -33.5t138 -93.5t78.5 -139t26 -175v-548q0 -200 -110 -321.5t-330 -121.5q-219 0 -330 122t-111 321zM309 1513v191h174v-191h-174zM326 393q0 -109 55.5 -173t165.5 -64q111 0 167 64t56 173v578q0 109 -56 173
t-167 64q-110 0 -165.5 -64t-55.5 -173v-578zM616 1513v191h175v-191h-175z" />
    <glyph glyph-name="multiply" unicode="&#xd7;" horiz-adv-x="839" 
d="M98 492l201 200l-201 203l121 119l203 -201l201 201l118 -117l-202 -201l202 -202l-120 -121l-203 202l-201 -202z" />
    <glyph glyph-name="Oslash" unicode="&#xd8;" horiz-adv-x="1093" 
d="M68 23l90 147q-52 101 -52 238v548q0 198 111 319.5t330 121.5q186 0 299 -92l72 114l108 -78l-90 -149q51 -99 51 -236v-548q0 -200 -110 -321.5t-330 -121.5q-187 0 -299 94l-70 -114zM326 446l407 672q-57 90 -186 90q-110 0 -165.5 -64t-55.5 -173v-525zM360 246
q57 -90 187 -90q111 0 167 64t56 173v527z" />
    <glyph glyph-name="Ugrave" unicode="&#xd9;" horiz-adv-x="1130" 
d="M125 360v1004h219v-999q0 -215 221 -215q223 0 223 215v999h218v-1004q0 -186 -121 -290.5t-320 -104.5q-198 0 -319 105t-121 290zM350 1739h209l90 -293h-125z" />
    <glyph glyph-name="Uacute" unicode="&#xda;" horiz-adv-x="1130" 
d="M125 360v1004h219v-999q0 -215 221 -215q223 0 223 215v999h218v-1004q0 -186 -121 -290.5t-320 -104.5q-198 0 -319 105t-121 290zM496 1446l92 293h207l-172 -293h-127z" />
    <glyph glyph-name="Ucircumflex" unicode="&#xdb;" horiz-adv-x="1130" 
d="M125 360v1004h219v-999q0 -215 221 -215q223 0 223 215v999h218v-1004q0 -186 -121 -290.5t-320 -104.5q-198 0 -319 105t-121 290zM293 1470v58q75 0 123.5 48t77.5 150h176q29 -102 77.5 -150t122.5 -48v-58q-50 -16 -100 -16q-69 0 -120 49t-72 129
q-21 -80 -73.5 -129t-123.5 -49q-38 0 -88 16z" />
    <glyph glyph-name="Udieresis" unicode="&#xdc;" horiz-adv-x="1130" 
d="M125 360v1004h219v-999q0 -215 221 -215q223 0 223 215v999h218v-1004q0 -186 -121 -290.5t-320 -104.5q-198 0 -319 105t-121 290zM334 1513v191h174v-191h-174zM641 1513v191h174v-191h-174z" />
    <glyph glyph-name="Yacute" unicode="&#xdd;" horiz-adv-x="958" 
d="M-10 1364h239l263 -625l264 625h219l-379 -811v-553h-217v553zM432 1446l92 293h207l-172 -293h-127z" />
    <glyph glyph-name="Thorn" unicode="&#xde;" horiz-adv-x="1015" 
d="M127 0v1364h219v-231h240q191 0 278.5 -93t87.5 -254v-139q0 -161 -87.5 -253.5t-278.5 -92.5h-242v-301h-217zM344 483h244q79 0 112 41t33 121v143q0 80 -33 122t-112 42h-244v-469z" />
    <glyph glyph-name="germandbls" unicode="&#xdf;" horiz-adv-x="907" 
d="M125 0v1014q0 157 85.5 253.5t244.5 96.5q172 0 261 -88t89 -234v-59q0 -86 -34.5 -153t-100.5 -95q80 -31 111.5 -89.5t31.5 -156.5v-215q0 -138 -78.5 -214t-210.5 -76q-62 0 -94 26v74q104 0 146 42.5t42 123.5v282q0 65 -43 95t-139 30v123q174 0 174 140v127
q0 77 -37.5 117t-105.5 40q-145 0 -145 -166v-1038h-197z" />
    <glyph glyph-name="agrave" unicode="&#xe0;" 
d="M70 242v12q0 51 15 93.5t40.5 73t64.5 54.5t80.5 39.5t95 26.5t102 16.5t107.5 9.5v121q0 129 -139 129q-80 0 -108.5 -32t-28.5 -107v-29h-188v35q0 128 82 210.5t241 82.5q326 0 326 -334v-459q0 -55 67 -55v-145h-61q-65 0 -103.5 31.5t-37.5 101.5
q-50 -63 -123.5 -98t-157.5 -35q-124 0 -199 69.5t-75 188.5zM188 1411h209l90 -293h-125zM254 254q0 -50 33 -84.5t92 -34.5q76 0 136 44t60 112v158q-167 -12 -244 -56t-77 -133v-6z" />
    <glyph glyph-name="aacute" unicode="&#xe1;" 
d="M70 242v12q0 51 15 93.5t40.5 73t64.5 54.5t80.5 39.5t95 26.5t102 16.5t107.5 9.5v121q0 129 -139 129q-80 0 -108.5 -32t-28.5 -107v-29h-188v35q0 128 82 210.5t241 82.5q326 0 326 -334v-459q0 -55 67 -55v-145h-61q-65 0 -103.5 31.5t-37.5 101.5
q-50 -63 -123.5 -98t-157.5 -35q-124 0 -199 69.5t-75 188.5zM254 254q0 -50 33 -84.5t92 -34.5q76 0 136 44t60 112v158q-167 -12 -244 -56t-77 -133v-6zM358 1118l93 293h206l-172 -293h-127z" />
    <glyph glyph-name="acircumflex" unicode="&#xe2;" 
d="M70 242v12q0 51 15 93.5t40.5 73t64.5 54.5t80.5 39.5t95 26.5t102 16.5t107.5 9.5v121q0 129 -139 129q-80 0 -108.5 -32t-28.5 -107v-29h-188v35q0 128 82 210.5t241 82.5q326 0 326 -334v-459q0 -55 67 -55v-145h-61q-65 0 -103.5 31.5t-37.5 101.5
q-50 -63 -123.5 -98t-157.5 -35q-124 0 -199 69.5t-75 188.5zM154 1143v57q74 0 122 48.5t78 150.5h176q29 -102 77.5 -150.5t123.5 -48.5v-57q-53 -17 -100 -17q-69 0 -120.5 49.5t-72.5 129.5q-21 -80 -73.5 -129.5t-122.5 -49.5q-35 0 -88 17zM254 254q0 -50 33 -84.5
t92 -34.5q76 0 136 44t60 112v158q-167 -12 -244 -56t-77 -133v-6z" />
    <glyph glyph-name="atilde" unicode="&#xe3;" 
d="M70 242v12q0 51 15 93.5t40.5 73t64.5 54.5t80.5 39.5t95 26.5t102 16.5t107.5 9.5v121q0 129 -139 129q-80 0 -108.5 -32t-28.5 -107v-29h-188v35q0 128 82 210.5t241 82.5q326 0 326 -334v-459q0 -55 67 -55v-145h-61q-65 0 -103.5 31.5t-37.5 101.5
q-50 -63 -123.5 -98t-157.5 -35q-124 0 -199 69.5t-75 188.5zM117 1245q0 79 39 123.5t120 44.5q49 0 109.5 -30.5t110 -60.5t71.5 -30q24 0 33.5 11.5t9.5 37.5v76h84q31 -47 31 -92q0 -79 -40.5 -123.5t-121.5 -44.5q-38 0 -84.5 19t-81.5 42.5t-70.5 42.5t-54.5 19
q-41 0 -41 -49v-76h-84q-30 41 -30 90zM254 254q0 -50 33 -84.5t92 -34.5q76 0 136 44t60 112v158q-167 -12 -244 -56t-77 -133v-6z" />
    <glyph glyph-name="adieresis" unicode="&#xe4;" 
d="M70 242v12q0 51 15 93.5t40.5 73t64.5 54.5t80.5 39.5t95 26.5t102 16.5t107.5 9.5v121q0 129 -139 129q-80 0 -108.5 -32t-28.5 -107v-29h-188v35q0 128 82 210.5t241 82.5q326 0 326 -334v-459q0 -55 67 -55v-145h-61q-65 0 -103.5 31.5t-37.5 101.5
q-50 -63 -123.5 -98t-157.5 -35q-124 0 -199 69.5t-75 188.5zM180 1186v190h174v-190h-174zM254 254q0 -50 33 -84.5t92 -34.5q76 0 136 44t60 112v158q-167 -12 -244 -56t-77 -133v-6zM487 1186v190h175v-190h-175z" />
    <glyph glyph-name="aring" unicode="&#xe5;" 
d="M70 242v12q0 51 15 93.5t40.5 73t64.5 54.5t80.5 39.5t95 26.5t102 16.5t107.5 9.5v121q0 129 -139 129q-80 0 -108.5 -32t-28.5 -107v-29h-188v35q0 128 82 210.5t241 82.5q326 0 326 -334v-459q0 -55 67 -55v-145h-61q-65 0 -103.5 31.5t-37.5 101.5
q-50 -63 -123.5 -98t-157.5 -35q-124 0 -199 69.5t-75 188.5zM240 1305q0 76 54.5 131t137.5 55q84 0 138.5 -55t54.5 -131t-54.5 -131.5t-138.5 -55.5q-83 0 -137.5 55.5t-54.5 131.5zM254 254q0 -50 33 -84.5t92 -34.5q76 0 136 44t60 112v158q-167 -12 -244 -56t-77 -133
v-6zM338 1305q0 -45 25.5 -74t68.5 -29q45 0 70.5 29t25.5 74q0 46 -25.5 74t-70.5 28q-44 0 -69 -28t-25 -74z" />
    <glyph glyph-name="ae" unicode="&#xe6;" horiz-adv-x="1331" 
d="M74 242v12q0 51 15 93.5t40.5 73t64.5 54.5t80.5 39.5t95.5 26.5t102.5 16.5t107.5 9.5v107q0 143 -144 143q-77 0 -113 -33.5t-36 -105.5v-29h-170v35q0 125 79.5 209t219.5 84q185 0 258 -137q86 137 270 137q140 0 223.5 -96t83.5 -258v-148h-487v-172
q0 -75 41.5 -119.5t116.5 -44.5t116 44.5t41 119.5v39h172v-12q0 -158 -87.5 -252t-219.5 -94q-104 0 -179.5 32.5t-119.5 114.5q-53 -71 -131 -109t-166 -38q-124 0 -199 69.5t-75 188.5zM260 254q0 -50 32 -84.5t91 -34.5q77 0 137 44t60 112v158q-167 -12 -243.5 -56
t-76.5 -133v-6zM764 575h315v82q0 74 -41 119t-116 45t-116.5 -45t-41.5 -119v-82z" />
    <glyph glyph-name="ccedilla" unicode="&#xe7;" horiz-adv-x="847" 
d="M94 336v287q0 164 92 259t254 95q161 0 245.5 -91.5t84.5 -256.5v-11h-172v39q0 74 -41.5 119t-116.5 45q-76 0 -116.5 -45.5t-40.5 -130.5v-330q0 -86 40 -131t117 -45q75 0 116.5 44.5t41.5 119.5v39h172v-12q0 -164 -84 -254.5t-244 -91.5l-104 -138q24 17 84 17
q88 0 136 -55t48 -144q0 -83 -57.5 -137.5t-147.5 -54.5q-62 0 -88 22v76h47q45 0 71 19t26 55v63q0 38 -26.5 60t-70.5 22q-58 0 -112 -63l-74 51l164 217q-116 28 -180 117t-64 225z" />
    <glyph glyph-name="egrave" unicode="&#xe8;" horiz-adv-x="849" 
d="M94 336v287q0 164 92 259t254 95q160 0 245 -94t85 -260v-148h-487v-172q0 -75 41 -119.5t116 -44.5t116.5 44.5t41.5 119.5v39h172v-12q0 -165 -84.5 -255.5t-245.5 -90.5q-162 0 -254 93.5t-92 258.5zM197 1411h209l90 -293h-125zM283 575h315v82q0 74 -41.5 119
t-116.5 45t-116 -45t-41 -119v-82z" />
    <glyph glyph-name="eacute" unicode="&#xe9;" horiz-adv-x="849" 
d="M94 336v287q0 164 92 259t254 95q160 0 245 -94t85 -260v-148h-487v-172q0 -75 41 -119.5t116 -44.5t116.5 44.5t41.5 119.5v39h172v-12q0 -165 -84.5 -255.5t-245.5 -90.5q-162 0 -254 93.5t-92 258.5zM283 575h315v82q0 74 -41.5 119t-116.5 45t-116 -45t-41 -119v-82z
M377 1118l92 293h207l-172 -293h-127z" />
    <glyph glyph-name="ecircumflex" unicode="&#xea;" horiz-adv-x="849" 
d="M94 336v287q0 164 92 259t254 95q160 0 245 -94t85 -260v-148h-487v-172q0 -75 41 -119.5t116 -44.5t116.5 44.5t41.5 119.5v39h172v-12q0 -165 -84.5 -255.5t-245.5 -90.5q-162 0 -254 93.5t-92 258.5zM133 1143v57q75 0 123.5 48.5t77.5 150.5h176q29 -102 77.5 -150.5
t123.5 -48.5v-57q-53 -17 -101 -17q-69 0 -120 49.5t-72 129.5q-21 -80 -74 -129.5t-123 -49.5q-35 0 -88 17zM283 575h315v82q0 74 -41.5 119t-116.5 45t-116 -45t-41 -119v-82z" />
    <glyph glyph-name="edieresis" unicode="&#xeb;" horiz-adv-x="849" 
d="M94 336v287q0 164 92 259t254 95q160 0 245 -94t85 -260v-148h-487v-172q0 -75 41 -119.5t116 -44.5t116.5 44.5t41.5 119.5v39h172v-12q0 -165 -84.5 -255.5t-245.5 -90.5q-162 0 -254 93.5t-92 258.5zM188 1186v190h174v-190h-174zM283 575h315v82q0 74 -41.5 119
t-116.5 45t-116 -45t-41 -119v-82zM496 1186v190h174v-190h-174z" />
    <glyph glyph-name="igrave" unicode="&#xec;" horiz-adv-x="421" 
d="M-35 1411h209l90 -293h-125zM113 0v958h196v-958h-196z" />
    <glyph glyph-name="iacute" unicode="&#xed;" horiz-adv-x="421" 
d="M113 0v958h196v-958h-196zM147 1118l93 293h206l-172 -293h-127z" />
    <glyph glyph-name="icircumflex" unicode="&#xee;" horiz-adv-x="421" 
d="M-74 1143v57q74 0 123 48.5t78 150.5h176q29 -102 78 -150.5t123 -48.5v-57q-53 -17 -101 -17q-69 0 -120 49.5t-72 129.5q-21 -80 -74 -129.5t-123 -49.5q-35 0 -88 17zM113 0v958h196v-958h-196z" />
    <glyph glyph-name="idieresis" unicode="&#xef;" horiz-adv-x="421" 
d="M-35 1186v190h174v-190h-174zM113 0v958h196v-958h-196zM272 1186v190h174v-190h-174z" />
    <glyph glyph-name="eth" unicode="&#xf0;" horiz-adv-x="888" 
d="M94 330v334q0 130 79.5 215.5t197.5 85.5q78 0 132.5 -27.5t102.5 -89.5q0 140 -88 262l-133 -66l-39 101l100 49q-80 83 -206 164v6h233q68 -42 125 -96l121 59l39 -98l-86 -43q123 -163 123 -391v-465q0 -159 -99.5 -252.5t-253.5 -93.5t-251 93t-97 253zM285 297
q0 -68 43.5 -112t113.5 -44t115 44t45 112v328q0 88 -42 137t-118 49q-78 0 -117.5 -44.5t-39.5 -145.5v-324z" />
    <glyph glyph-name="ntilde" unicode="&#xf1;" horiz-adv-x="933" 
d="M113 0v958h159l15 -221q47 124 112 181t154 57q132 0 202 -81t70 -218v-676h-196v674q0 71 -36.5 112t-98.5 41q-56 0 -100.5 -48.5t-64.5 -104t-20 -96.5v-578h-196zM139 1245q0 79 39.5 123.5t120.5 44.5q49 0 109.5 -30.5t110 -60.5t71.5 -30q24 0 33.5 11.5t9.5 37.5
v76h84q31 -47 31 -92q0 -79 -40.5 -123.5t-121.5 -44.5q-38 0 -84.5 19t-81.5 42.5t-70.5 42.5t-54.5 19q-41 0 -41 -49v-76h-84q-31 42 -31 90z" />
    <glyph glyph-name="ograve" unicode="&#xf2;" horiz-adv-x="884" 
d="M94 336v287q0 163 93 258.5t255 95.5q161 0 253.5 -95.5t92.5 -258.5v-287q0 -164 -92.5 -258t-253.5 -94q-163 0 -255.5 94t-92.5 258zM197 1411h209l90 -293h-125zM285 303q0 -75 41 -119.5t116 -44.5q74 0 115 44.5t41 119.5v354q0 74 -41.5 119t-114.5 45
q-75 0 -116 -45t-41 -119v-354z" />
    <glyph glyph-name="oacute" unicode="&#xf3;" horiz-adv-x="884" 
d="M94 336v287q0 163 93 258.5t255 95.5q161 0 253.5 -95.5t92.5 -258.5v-287q0 -164 -92.5 -258t-253.5 -94q-163 0 -255.5 94t-92.5 258zM285 303q0 -75 41 -119.5t116 -44.5q74 0 115 44.5t41 119.5v354q0 74 -41.5 119t-114.5 45q-75 0 -116 -45t-41 -119v-354z
M379 1118l92 293h207l-172 -293h-127z" />
    <glyph glyph-name="ocircumflex" unicode="&#xf4;" horiz-adv-x="884" 
d="M94 336v287q0 163 93 258.5t255 95.5q161 0 253.5 -95.5t92.5 -258.5v-287q0 -164 -92.5 -258t-253.5 -94q-163 0 -255.5 94t-92.5 258zM160 1143v57q74 0 122 48.5t78 150.5h177q30 -102 78 -150.5t122 -48.5v-57q-53 -17 -100 -17q-69 0 -120.5 49.5t-72.5 129.5
q-21 -80 -73.5 -129.5t-122.5 -49.5q-35 0 -88 17zM285 303q0 -75 41 -119.5t116 -44.5q74 0 115 44.5t41 119.5v354q0 74 -41.5 119t-114.5 45q-75 0 -116 -45t-41 -119v-354z" />
    <glyph glyph-name="otilde" unicode="&#xf5;" horiz-adv-x="884" 
d="M94 336v287q0 163 93 258.5t255 95.5q161 0 253.5 -95.5t92.5 -258.5v-287q0 -164 -92.5 -258t-253.5 -94q-163 0 -255.5 94t-92.5 258zM119 1245q0 79 39.5 123.5t120.5 44.5q49 0 109 -30.5t109.5 -60.5t71.5 -30q24 0 33.5 11.5t9.5 37.5v76h84q31 -47 31 -92
q0 -79 -40.5 -123.5t-121.5 -44.5q-38 0 -84.5 19t-81.5 42.5t-70.5 42.5t-54.5 19q-41 0 -41 -49v-76h-83q-31 42 -31 90zM285 303q0 -75 41 -119.5t116 -44.5q74 0 115 44.5t41 119.5v354q0 74 -41.5 119t-114.5 45q-75 0 -116 -45t-41 -119v-354z" />
    <glyph glyph-name="odieresis" unicode="&#xf6;" horiz-adv-x="884" 
d="M94 336v287q0 163 93 258.5t255 95.5q161 0 253.5 -95.5t92.5 -258.5v-287q0 -164 -92.5 -258t-253.5 -94q-163 0 -255.5 94t-92.5 258zM203 1186v190h174v-190h-174zM285 303q0 -75 41 -119.5t116 -44.5q74 0 115 44.5t41 119.5v354q0 74 -41.5 119t-114.5 45
q-75 0 -116 -45t-41 -119v-354zM510 1186v190h174v-190h-174z" />
    <glyph glyph-name="oslash" unicode="&#xf8;" horiz-adv-x="884" 
d="M57 6q6 8 15 21t28 41t32 46t13 17q-51 85 -51 205v287q0 163 93 258.5t255 95.5q142 0 234 -76l78 113l73 -60q-88 -129 -90 -129q51 -82 51 -202v-287q0 -164 -92.5 -258t-253.5 -94q-144 0 -233 73q0 1 -19.5 -26.5t-39.5 -55.5l-19 -28zM285 336l288 418
q-41 67 -131 67q-75 0 -116 -45t-41 -119v-321zM309 205q40 -66 133 -66q74 0 115 44.5t41 119.5v320z" />
    <glyph glyph-name="ugrave" unicode="&#xf9;" horiz-adv-x="937" 
d="M113 283v675h196v-673q0 -72 36.5 -113t98.5 -41q55 0 99.5 48.5t65 104.5t20.5 97v577h196v-958h-159l-15 190q-78 -206 -266 -206q-133 0 -202.5 80.5t-69.5 218.5zM233 1411h209l90 -293h-124z" />
    <glyph glyph-name="uacute" unicode="&#xfa;" horiz-adv-x="937" 
d="M113 283v675h196v-673q0 -72 36.5 -113t98.5 -41q55 0 99.5 48.5t65 104.5t20.5 97v577h196v-958h-159l-15 190q-78 -206 -266 -206q-133 0 -202.5 80.5t-69.5 218.5zM401 1118l93 293h206l-172 -293h-127z" />
    <glyph glyph-name="ucircumflex" unicode="&#xfb;" horiz-adv-x="937" 
d="M113 283v675h196v-673q0 -72 36.5 -113t98.5 -41q55 0 99.5 48.5t65 104.5t20.5 97v577h196v-958h-159l-15 190q-78 -206 -266 -206q-133 0 -202.5 80.5t-69.5 218.5zM182 1143v57q74 0 123 48.5t78 150.5h176q29 -102 78 -150.5t123 -48.5v-57q-53 -17 -101 -17
q-69 0 -120 49.5t-72 129.5q-21 -80 -74 -129.5t-123 -49.5q-35 0 -88 17z" />
    <glyph glyph-name="udieresis" unicode="&#xfc;" horiz-adv-x="937" 
d="M113 283v675h196v-673q0 -72 36.5 -113t98.5 -41q55 0 99.5 48.5t65 104.5t20.5 97v577h196v-958h-159l-15 190q-78 -206 -266 -206q-133 0 -202.5 80.5t-69.5 218.5zM229 1186v190h174v-190h-174zM537 1186v190h174v-190h-174z" />
    <glyph glyph-name="yacute" unicode="&#xfd;" horiz-adv-x="802" 
d="M16 958h195l139 -528l51 -217l52 217l137 528h194l-305 -1005q-18 -59 -31.5 -95.5t-37 -76.5t-52 -61.5t-72 -35.5t-100.5 -14h-82v146h62q71 0 97 20t42 74l14 51zM340 1118l92 293h207l-172 -293h-127z" />
    <glyph glyph-name="thorn" unicode="&#xfe;" horiz-adv-x="913" 
d="M113 -324v1688h194v-506q54 65 111.5 91t146.5 26q106 0 180 -85t74 -214v-395q0 -129 -74 -214t-180 -85q-89 0 -146.5 26t-111.5 90v-422h-194zM307 328q0 -87 44.5 -137t119.5 -50q158 0 158 199v276q0 199 -158 199q-76 0 -120 -49.5t-44 -136.5v-301z" />
    <glyph glyph-name="ydieresis" unicode="&#xff;" horiz-adv-x="802" 
d="M16 958h195l139 -528l51 -217l52 217l137 528h194l-305 -1005q-18 -59 -31.5 -95.5t-37 -76.5t-52 -61.5t-72 -35.5t-100.5 -14h-82v146h62q71 0 97 20t42 74l14 51zM164 1186v190h174v-190h-174zM471 1186v190h174v-190h-174z" />
    <glyph glyph-name="OE" unicode="&#x152;" horiz-adv-x="1560" 
d="M106 436v492q0 197 115.5 316.5t337.5 119.5h936v-195h-520v-358h377v-184h-377v-432h520v-195h-936q-222 0 -337.5 119.5t-115.5 316.5zM324 446q0 -130 59.5 -191.5t185.5 -61.5h189v976h-189q-126 0 -185.5 -60.5t-59.5 -190.5v-472z" />
    <glyph glyph-name="oe" unicode="&#x153;" horiz-adv-x="1355" 
d="M94 336v287q0 160 91.5 257t232.5 97q194 0 276 -143q40 69 110.5 106t164.5 37q140 0 223.5 -96t83.5 -258v-148h-488v-172q0 -75 41.5 -119.5t116.5 -44.5t116.5 44.5t41.5 119.5v39h172v-12q0 -161 -83 -253.5t-224 -92.5q-94 0 -164.5 37t-110.5 106
q-82 -143 -276 -143q-141 0 -232.5 95.5t-91.5 256.5zM285 303q0 -75 40.5 -119.5t114.5 -44.5q75 0 116.5 44.5t41.5 119.5v354q0 74 -41.5 119t-116.5 45q-73 0 -114 -45t-41 -119v-354zM788 575h316v82q0 74 -41.5 119t-116.5 45t-116.5 -45t-41.5 -119v-82z" />
    <glyph glyph-name="Ydieresis" unicode="&#x178;" horiz-adv-x="958" 
d="M-10 1364h239l263 -625l264 625h219l-379 -811v-553h-217v553zM240 1513v191h174v-191h-174zM547 1513v191h174v-191h-174z" />
    <glyph glyph-name="circumflex" unicode="&#x2c6;" horiz-adv-x="634" 
d="M31 1143v57q74 0 122 48.5t78 150.5h177q30 -102 78 -150.5t122 -48.5v-57q-53 -17 -100 -17q-69 0 -120.5 49.5t-72.5 129.5q-21 -80 -73.5 -129.5t-122.5 -49.5q-35 0 -88 17z" />
    <glyph glyph-name="tilde" unicode="&#x2dc;" horiz-adv-x="667" 
d="M31 1245q0 79 39 123.5t120 44.5q49 0 109.5 -30.5t110 -60.5t71.5 -30q24 0 33.5 11.5t9.5 37.5v76h84q31 -47 31 -92q0 -79 -40.5 -123.5t-121.5 -44.5q-38 0 -84.5 19t-81.5 42.5t-70.5 42.5t-54.5 19q-41 0 -41 -49v-76h-84q-30 41 -30 90z" />
    <glyph glyph-name="uni2000" unicode="&#x2000;" horiz-adv-x="872" 
 />
    <glyph glyph-name="uni2001" unicode="&#x2001;" horiz-adv-x="1745" 
 />
    <glyph glyph-name="uni2002" unicode="&#x2002;" horiz-adv-x="872" 
 />
    <glyph glyph-name="uni2003" unicode="&#x2003;" horiz-adv-x="1745" 
 />
    <glyph glyph-name="uni2004" unicode="&#x2004;" horiz-adv-x="581" 
 />
    <glyph glyph-name="uni2005" unicode="&#x2005;" horiz-adv-x="436" 
 />
    <glyph glyph-name="uni2006" unicode="&#x2006;" horiz-adv-x="290" 
 />
    <glyph glyph-name="uni2007" unicode="&#x2007;" horiz-adv-x="290" 
 />
    <glyph glyph-name="uni2008" unicode="&#x2008;" horiz-adv-x="218" 
 />
    <glyph glyph-name="uni2009" unicode="&#x2009;" horiz-adv-x="349" 
 />
    <glyph glyph-name="uni200A" unicode="&#x200a;" horiz-adv-x="96" 
 />
    <glyph glyph-name="uni2010" unicode="&#x2010;" horiz-adv-x="657" 
d="M82 535v172h493v-172h-493z" />
    <glyph glyph-name="uni2011" unicode="&#x2011;" horiz-adv-x="657" 
d="M82 535v172h493v-172h-493z" />
    <glyph glyph-name="figuredash" unicode="&#x2012;" horiz-adv-x="657" 
d="M82 535v172h493v-172h-493z" />
    <glyph glyph-name="endash" unicode="&#x2013;" horiz-adv-x="1024" 
d="M129 535v172h768v-172h-768z" />
    <glyph glyph-name="emdash" unicode="&#x2014;" horiz-adv-x="1536" 
d="M129 535v172h1280v-172h-1280z" />
    <glyph glyph-name="quoteleft" unicode="&#x2018;" horiz-adv-x="374" 
d="M90 909v215q0 110 59.5 176t178.5 66v-68q-62 0 -97.5 -39t-35.5 -106h86v-244h-191z" />
    <glyph glyph-name="quoteright" unicode="&#x2019;" horiz-adv-x="374" 
d="M45 907v68q62 0 97.5 39t35.5 106h-86v244h191v-215q0 -110 -59.5 -176t-178.5 -66z" />
    <glyph glyph-name="quotesinglbase" unicode="&#x201a;" horiz-adv-x="374" 
d="M45 -145q62 0 97.5 39t35.5 106h-86v244h191v-215q0 -110 -59.5 -176t-178.5 -66v68z" />
    <glyph glyph-name="quotedblleft" unicode="&#x201c;" horiz-adv-x="659" 
d="M90 909v215q0 110 59.5 176t178.5 66v-68q-62 0 -97.5 -39t-35.5 -106h86v-244h-191zM373 909v215q0 110 59 176t178 66v-68q-62 0 -97.5 -39t-35.5 -106h86v-244h-190z" />
    <glyph glyph-name="quotedblright" unicode="&#x201d;" horiz-adv-x="659" 
d="M45 907v68q62 0 97.5 39t35.5 106h-86v244h191v-215q0 -110 -59.5 -176t-178.5 -66zM328 907v68q62 0 97.5 39t35.5 106h-86v244h190v-215q0 -110 -59 -176t-178 -66z" />
    <glyph glyph-name="quotedblbase" unicode="&#x201e;" horiz-adv-x="659" 
d="M45 -145q62 0 97.5 39t35.5 106h-86v244h191v-215q0 -110 -59.5 -176t-178.5 -66v68zM328 -145q62 0 97.5 39t35.5 106h-86v244h190v-215q0 -110 -59 -176t-178 -66v68z" />
    <glyph glyph-name="bullet" unicode="&#x2022;" horiz-adv-x="686" 
d="M78 682q0 123 74.5 195.5t191.5 72.5q115 0 189.5 -72.5t74.5 -195.5t-74.5 -195.5t-189.5 -72.5q-117 0 -191.5 72.5t-74.5 195.5z" />
    <glyph glyph-name="ellipsis" unicode="&#x2026;" horiz-adv-x="1236" 
d="M133 0v244h191v-244h-191zM522 0v244h191v-244h-191zM911 0v244h191v-244h-191z" />
    <glyph glyph-name="uni202F" unicode="&#x202f;" horiz-adv-x="349" 
 />
    <glyph glyph-name="guilsinglleft" unicode="&#x2039;" horiz-adv-x="557" 
d="M55 319v154q110 25 195.5 117t114.5 203h114q0 -114 -66 -227t-177 -171q112 -58 177.5 -170t65.5 -225h-114q-29 110 -114.5 202t-195.5 117z" />
    <glyph glyph-name="guilsinglright" unicode="&#x203a;" horiz-adv-x="557" 
d="M82 0q0 113 66 225t178 170q-111 58 -177.5 171t-66.5 227h115q29 -111 114 -203t195 -117v-154q-110 -25 -195 -116.5t-114 -202.5h-115z" />
    <glyph glyph-name="uni205F" unicode="&#x205f;" horiz-adv-x="436" 
 />
    <glyph glyph-name="trademark" unicode="&#x2122;" horiz-adv-x="1396" 
d="M57 1260v104h488v-104h-183v-519h-122v519h-183zM659 741v623h166l109 -346l41 -164l43 164l104 346h168v-623h-110v506l-45 -176l-107 -330h-110l-103 330l-45 176v-506h-111z" />
    <glyph glyph-name="uni25FC" unicode="&#x25fc;" horiz-adv-x="962" 
d="M0 0v963h963v-963h-963z" />
    <glyph glyph-name="uniFB01" unicode="&#xfb01;" horiz-adv-x="978" 
d="M47 788v158h129v80q0 157 73.5 247.5t211.5 90.5h86v-158h-55q-130 0 -130 -153v-107h166v-158h-155v-788h-197v788h-129zM670 0v958h196v-958h-196zM676 1124v195h184v-195h-184z" />
    <glyph glyph-name="uniFB02" unicode="&#xfb02;" horiz-adv-x="978" 
d="M47 788v158h129v80q0 157 73.5 247.5t211.5 90.5h86v-158h-55q-130 0 -130 -153v-107h166v-158h-155v-788h-197v788h-129zM670 0v1364h196v-1364h-196z" />
    </font>
</defs>
</svg>
