<?xml version="1.0" standalone="no"?>
<!DOCTYPE svg PUBLIC "-//W3C//DTD SVG 1.1//EN" "http://www.w3.org/Graphics/SVG/1.1/DTD/svg11.dtd" >
<svg xmlns="http://www.w3.org/2000/svg" xmlns:xlink="http://www.w3.org/1999/xlink" version="1.1">
<metadata>
Created by FontForge 20201107 at Wed Apr 19 11:08:48 2023
 By 
lone army
</metadata>
<defs>
<font id="MORTHIX-Regular" horiz-adv-x="779" >
  <font-face 
    font-family="MORTHIX"
    font-weight="400"
    font-stretch="normal"
    units-per-em="1000"
    panose-1="0 0 0 0 0 0 0 0 0 0"
    ascent="800"
    descent="-200"
    x-height="500"
    cap-height="700"
    bbox="-161 -283 1426 913"
    underline-thickness="50"
    underline-position="-125"
    unicode-range="U+000D-2212"
  />
<missing-glyph horiz-adv-x="250" 
 />
    <glyph glyph-name=".notdef" horiz-adv-x="250" 
 />
    <glyph glyph-name=".null" horiz-adv-x="0" 
 />
    <glyph glyph-name=".null" horiz-adv-x="0" 
 />
    <glyph glyph-name="uni000D" unicode="&#xd;" horiz-adv-x="250" 
 />
    <glyph glyph-name="space" unicode=" " horiz-adv-x="260" 
 />
    <glyph glyph-name="exclam" unicode="!" horiz-adv-x="257" 
d="M25 731h208l-40 -509h-128zM36 78q0 42 25.5 67.5t67.5 25.5t67.5 -25.5t25.5 -67.5t-25.5 -67t-67.5 -25t-67.5 25t-25.5 67z" />
    <glyph glyph-name="quotedbl" unicode="&#x22;" horiz-adv-x="374" 
d="M35 721h139l-40 -261h-70zM200 721h139l-40 -261h-70z" />
    <glyph glyph-name="numbersign" unicode="#" horiz-adv-x="813" 
d="M164 155h-119l-10 137h154l18 98h-120l-9 137h154l32 173h165l-32 -173h88l32 173h165l-32 -173h119l9 -137h-153l-18 -98h119l10 -137h-154l-29 -155h-165l29 155h-88l-29 -155h-165zM442 292l18 98h-88l-18 -98h88z" />
    <glyph glyph-name="dollar" unicode="$" horiz-adv-x="460" 
d="M33 226h180v76l-5 -3q-22 -14 -41 -20.5t-36 -6.5q-29 0 -51 17.5t-36.5 45.5t-21.5 63.5t-7 71.5q0 93 42.5 133.5t112.5 40.5h43v106h65v-106h165v-167h-165v-34q51 6 83 -4t51 -32t26 -55.5t7 -75.5q0 -49 -8.5 -89t-26 -68.5t-45 -44t-65.5 -15.5h-22v-109h-65v109
h-180v167zM213 477h-103q-11 0 -16 -7t0 -18q6 -14 23.5 -19.5t41.5 -5.5q13 0 26.5 1.5t27.5 3.5v45zM278 233q26 10 43.5 30t26.5 42.5t9 43t-9 31.5q-6 7 -15 7q-11 0 -25 -9t-30 -23v-122z" />
    <glyph glyph-name="percent" unicode="%" horiz-adv-x="940" 
d="M187 271q-45 0 -77 16t-53 46t-31 71.5t-10 92.5q0 15 2 30t7.5 27t14 20t21.5 8q10 0 19 -4q12 -4 22 -12t18.5 -15t15.5 -12.5t12 -5.5q4 0 7 3q9 12 -2 22.5t-27.5 24t-31.5 31.5t-14 44q1 13 7 25t18.5 21.5t32.5 15t49 5.5q48 0 83 -16.5t57 -46.5t32.5 -72
t10.5 -93t-12 -92.5t-35 -71.5t-57.5 -46t-78.5 -16zM628 700h186l-486 -700h-186zM194 388q13 0 20.5 9.5t11 25t4 35.5t0.5 41v47t-3 36t-10 23t-21 8q-15 0 -21 -8t-6 -16q0 -14 9 -23l16 -16q14 -13 15 -25t-4 -21q-8 -11 -18 -12t-14 -1q-7 0 -11 -4.5t-5 -11.5
t-1 -14.5v-13.5q1 -28 11 -43.5t27 -15.5zM742 -24q-45 0 -77 16t-53 46t-31 71.5t-10 92.5q0 15 2 30t7.5 27t14 20t21.5 8q10 0 19 -4q12 -4 22 -12t18.5 -15t15.5 -12.5t12 -5.5q4 0 7 3q9 12 -2 22.5t-27.5 24t-31.5 31.5t-14 44q1 13 7 25t18.5 21.5t32.5 15t49 5.5
q48 0 83 -16.5t57 -46.5t32.5 -72t10.5 -93t-12 -92.5t-35 -71.5t-57.5 -46t-78.5 -16zM749 93q13 0 20.5 9.5t11 25t4 35.5t0.5 41v47t-3 36t-10 23t-21 8q-15 0 -21 -8t-6 -17q0 -14 9 -22.5t16 -15.5q14 -13 15 -25t-4 -21q-8 -11 -18 -12t-14 -1q-7 0 -11 -4.5t-5 -11.5
t-1 -14.5v-13.5q1 -28 11 -43.5t27 -15.5z" />
    <glyph glyph-name="ampersand" unicode="&#x26;" horiz-adv-x="670" 
d="M384 499q2 35 -7.5 58t-24.5 31q-8 4 -14 4q-7 0 -7.5 -6t4.5 -16q8 -11 8 -22t-7 -19t-16.5 -11.5t-20.5 -3.5q-6 0 -12.5 1t-11.5 4q-7 4 -15 4t-10.5 -5t3.5 -15q8 -11 22 -14.5t35 -8.5q22 -6 34 -21.5t11.5 -34t-14.5 -35.5t-43 -25q-10 -3 -24.5 -10t-27 -19.5
t-21.5 -31.5t-8 -45q1 -33 17 -53.5t38.5 -32t48 -15t46.5 -2.5q52 3 80 28.5t27 66.5q-1 26 -11 34.5t-20 8.5t-18.5 -6t-16 -14.5t-15.5 -18.5t-18 -19q-22 -18 -43 -18q-13 0 -24 7q-18 13 -20.5 26.5t5 26.5t23 25t34 20.5t36.5 13.5t30 5h239v-117q0 -48 -21 -91.5
t-61 -76.5t-98 -52t-133 -19t-134.5 17t-101.5 48.5t-65 76.5t-25 101q-1 38 10 70t31 56.5t46.5 40.5t56.5 22q-39 14 -59 39t-22 67q-1 25 6 41t26 24q11 5 28 5q14 0 28.5 -4t28 -9t24.5 -9t19 -4q7 0 10 4q6 8 -5.5 17.5t-26 21.5t-24.5 26.5t-1 31.5q13 23 51 32.5
t83 9.5q51 0 91 -16t67 -44t40 -66.5t9 -84.5h-149z" />
    <glyph glyph-name="quotesingle" unicode="'" horiz-adv-x="209" 
d="M35 721h139l-40 -261h-70z" />
    <glyph glyph-name="parenleft" unicode="(" horiz-adv-x="345" 
d="M208 -148q-32 39 -63 84.5t-55.5 96.5t-39.5 107t-15 117t15 117t39.5 107t55.5 96.5t63 84.5h102q-29 -55 -49.5 -102.5t-34 -95t-19.5 -97.5t-6 -110t6 -110t19.5 -97.5t34 -95t49.5 -102.5h-102z" />
    <glyph glyph-name="parenright" unicode=")" horiz-adv-x="345" 
d="M35 -148q29 55 49.5 102.5t34 95t19.5 97.5t6 110t-6 110t-19.5 97.5t-34 95t-49.5 102.5h102q32 -39 63 -84.5t55.5 -96.5t39.5 -107t15 -117t-15 -117t-39.5 -107t-55.5 -96.5t-63 -84.5h-102z" />
    <glyph glyph-name="asterisk" unicode="*" horiz-adv-x="453" 
d="M136 551q23 15 20 24t-30 9l-91 -1l46 136l77 -51q14 -10 24 -10q18 0 7 34l-29 87h145l-26 -87q-11 -33 5 -33q9 0 25 12l62 48l47 -136l-80 -1q-27 -1 -29.5 -10t20.5 -23l71 -46l-113 -91l-37 91q-10 25 -22 25t-21 -25l-35 -92l-114 90z" />
    <glyph glyph-name="plus" unicode="+" horiz-adv-x="602" 
d="M50 432h161v161h180v-161h160v-180h-160v-160h-180v160h-161v180z" />
    <glyph glyph-name="comma" unicode="," horiz-adv-x="254" 
d="M125 -120q-13 1 -16.5 8t-3 17t3 21.5t2.5 20.5q0 18 -12 25.5t-26.5 15.5t-26 23t-11.5 48q0 40 25 65t67 25t67 -26t25 -73q0 -23 -7 -53t-19 -56t-29.5 -44t-38.5 -17z" />
    <glyph glyph-name="hyphen" unicode="-" horiz-adv-x="422" 
d="M50 358h322v-180h-322v180z" />
    <glyph glyph-name="period" unicode="." horiz-adv-x="287" 
d="M51 78q0 42 25.5 67.5t67.5 25.5t67.5 -25.5t25.5 -67.5t-25.5 -67t-67.5 -25t-67.5 25t-25.5 67z" />
    <glyph glyph-name="slash" unicode="/" horiz-adv-x="573" 
d="M352 700h206l-337 -700h-206z" />
    <glyph glyph-name="zero" unicode="0" horiz-adv-x="615" 
d="M129 610q1 21 10 41t29 35t51.5 24t77.5 9q78 0 133 -26.5t90.5 -75t52 -116.5t16.5 -151t-19 -151t-56.5 -116t-92 -74.5t-125.5 -26.5q-70 0 -121.5 26.5t-84.5 74.5t-49 116t-16 151q0 23 3.5 47.5t11.5 44.5t22 32.5t35 12.5q13 0 29 -6q20 -7 36 -19.5t29.5 -24.5
t24.5 -21t20 -9q7 0 11 6q10 13 4.5 24.5t-19 24t-32 26.5t-35 32t-27.5 40t-9 50zM269 498q0 -23 15 -37.5t26 -25.5q21 -21 23 -40.5t-7 -33.5q-6 -9 -13 -13.5t-14.5 -6t-14 -1.5h-9.5q-12 0 -17.5 -7.5t-8 -18.5t-2 -22.5t0.5 -20.5q2 -48 17.5 -73t42.5 -25
q21 0 33 15.5t17.5 40.5t6.5 57.5t1 66.5v75t-4.5 58t-15.5 37.5t-34 13.5q-24 0 -33.5 -12.5t-9.5 -26.5z" />
    <glyph glyph-name="one" unicode="1" horiz-adv-x="382" 
d="M113 424q0 39 18.5 70t38 54t32 40t-0.5 29q-5 5 -13 5q-14 0 -32 -17.5t-40 -38.5t-48.5 -38.5t-57.5 -17.5v190h180q16 0 30.5 5t27.5 11.5t25.5 11.5t24.5 5q13 0 24 -7q20 -12 23 -32.5t-1.5 -45t-11.5 -50t-7 -47.5v-551h-210z" />
    <glyph glyph-name="two" unicode="2" horiz-adv-x="641" 
d="M205 0q-34 0 -66 6.5t-57 22t-40.5 39.5t-15.5 58q0 46 25 75t63 53q30 19 60.5 35t53.5 31t34.5 29t2.5 29q-7 12 -20.5 15.5t-31.5 5t-39 3t-41 7.5q-10 3 -26 10.5t-31 22t-25.5 36.5t-10.5 55q0 44 21 77t59.5 55.5t91 34t115.5 11.5q59 0 111.5 -10.5t91.5 -31.5
t62 -54t23 -78q0 -50 -28 -88t-69.5 -67t-90.5 -51t-90.5 -40.5t-69.5 -36t-28 -36.5q0 -12 11.5 -20t37.5 -8h302v-190h-385zM309 364q9 -9 23 -9q13 0 28 7.5t27.5 21t21 32.5t8.5 43q-1 37 -22 52.5t-57 15.5q-24 0 -40.5 -6t-26.5 -14.5t-14 -18.5t-4 -18q0 -9 4.5 -12
t11.5 -3q12 0 27 2.5t23 -9.5q5 -9 1.5 -20.5t-9 -22.5t-8 -22t5.5 -19z" />
    <glyph glyph-name="three" unicode="3" horiz-adv-x="643" 
d="M35 199h305q48 0 73.5 15t18.5 46q-3 14 -11.5 19t-20.5 5q-17 0 -39.5 -7.5t-47.5 -16t-50.5 -16t-49.5 -7.5q-19 0 -35.5 6t-29.5 22q-20 25 -17.5 58.5t37.5 58.5q20 14 50 26t58.5 22.5t48.5 21t19 22.5q0 3 -0.5 7t-5 8.5t-14.5 7.5t-30 3h-259v200h332
q39 0 66 -8.5t44 -23.5t25.5 -36t9.5 -45q2 -35 -8 -61t-27.5 -46.5t-40 -35.5t-45.5 -27q-13 -7 -33.5 -14.5t-38 -15t-27 -15.5t-0.5 -17q7 -7 21 -7q13 0 31 5.5t39 12t45.5 12t51.5 5.5q36 0 62.5 -13t43 -36t24.5 -54.5t8 -69.5q0 -114 -70 -162.5t-207 -48.5h-306v200
z" />
    <glyph glyph-name="four" unicode="4" horiz-adv-x="650" 
d="M122 700h192l-48 -281q-4 -24 -10.5 -55t-8.5 -58t4 -45.5t27 -18.5q16 1 24 12t12.5 27t8 35t10.5 35t19.5 26.5t35.5 10.5h2v312h210v-700h-210v198h-24q-15 0 -25 -11.5t-19.5 -25t-21 -25t-29.5 -11.5t-28 11.5t-17 25t-15 25t-22 11.5h-164z" />
    <glyph glyph-name="five" unicode="5" horiz-adv-x="614" 
d="M85 230q41 -17 87 -27.5t94 -10.5q17 0 38 2t39 7.5t30.5 16t13.5 26.5q0 8 -5 22t-24 16q-14 2 -27.5 -5.5t-27.5 -16.5t-28.5 -17t-30.5 -8q-14 0 -27 7q-18 10 -21.5 23t-4.5 26t-4.5 25t-21.5 20q-11 5 -25.5 7.5t-30 3.5t-30.5 0.5t-26 -1.5v354h510v-200h-300v-71
q0 -12 -1.5 -30.5t-0.5 -36.5t6 -31t17 -13q13 -1 26.5 13t31 30.5t40.5 30.5t56 14q31 0 58.5 -14t48 -40t32.5 -62.5t12 -80.5q0 -50 -15.5 -86.5t-40 -61.5t-54 -40t-59 -23.5t-55 -11.5t-40.5 -3q-30 -1 -69 2t-79.5 11t-77.5 20.5t-64 29.5z" />
    <glyph glyph-name="six" unicode="6" horiz-adv-x="615" 
d="M512 700q-58 -52 -112.5 -106.5t-93.5 -122.5q26 6 51 6q30 0 54.5 -9.5t36.5 -27.5q9 -14 6.5 -28t-11.5 -26.5t-21 -24t-22 -22t-14.5 -19.5t1.5 -17q5 -6 12 -6q8 0 19.5 6t25 13t29.5 13t32 6q24 0 40.5 -12t26.5 -30t14 -40t4 -42q0 -50 -17 -91.5t-51.5 -71
t-87 -46t-124.5 -16.5q-144 0 -214.5 69t-70.5 197q0 82 23.5 155t56.5 132t68 100.5t58 60.5h281zM315 164q51 0 69 35q8 15 4 22.5t-13 7.5q-8 0 -19 -6q-12 -8 -29 -8q-28 0 -45 23q-21 28 -2 64q7 15 5.5 24.5t-9.5 9.5q-5 0 -16 -6q-19 -13 -25.5 -32t-6.5 -42
q0 -39 19 -65.5t68 -26.5z" />
    <glyph glyph-name="seven" unicode="7" horiz-adv-x="648" 
d="M88 0q32 69 50.5 107.5t21.5 44.5q13 27 12 45.5t-10.5 29.5t-25 15t-32.5 3q-21 -1 -35 5t-22 16t-11.5 22.5t-3.5 23.5q0 21 9.5 37t25.5 27t37 17.5t43 9.5q21 3 47 9.5t51 18.5t46.5 29t32.5 40h-324l94 200h554l-57 -120q-13 -27 -42 -59.5t-69.5 -61.5t-89 -51
t-100.5 -29q-13 -2 -29.5 -3.5t-30.5 -5.5t-24 -11.5t-10 -20.5q0 -16 16 -16q8 0 18 3t21 7.5t22 8.5t20 7q10 3 23.5 5t27.5 2q23 0 45 -6t35.5 -21.5t15 -42t-18.5 -67.5l-103 -218h-230z" />
    <glyph glyph-name="eight" unicode="8" horiz-adv-x="663" 
d="M100 407q-16 23 -24.5 50t-8.5 59q0 92 69 147.5t196 55.5t196 -55.5t69 -147.5q0 -25 -9 -57t-38 -58q-18 -15 -44 -29.5t-47.5 -28t-32.5 -26.5t0 -27q9 -9 20 -9q13 0 28.5 7.5t33.5 16t37.5 13.5t38.5 0q29 -8 41.5 -32t12.5 -52q0 -56 -21 -101.5t-61 -78
t-96.5 -50.5t-128.5 -18t-128.5 18t-95.5 50.5t-60 78t-21 101.5q0 107 74 173zM279 515q0 -16 12 -25t41 -9t40.5 9t11.5 25t-11.5 25t-40.5 9t-41 -9t-12 -25zM239 248q0 -76 92 -76q48 0 70 15.5t22 33.5q0 11 -10 11q-9 0 -25.5 -6.5t-34.5 -6.5q-19 0 -33 11t-15 24.5
t5 27t15 26.5t15 22.5t4 15.5t-18 6q-37 0 -62 -29.5t-25 -74.5z" />
    <glyph glyph-name="nine" unicode="9" horiz-adv-x="615" 
d="M103 0q58 52 112.5 106.5t93.5 122.5q-25 -6 -51 -6q-30 0 -54.5 9.5t-36.5 27.5q-13 22 -2 41.5t28 37t30.5 32t4.5 26.5q-4 6 -12 6t-19.5 -6t-25 -13t-29 -13t-32.5 -6q-24 0 -40.5 12t-26.5 30t-14 40t-4 42q0 50 17 91.5t51.5 71t87 46t124.5 16.5q144 0 214.5 -69
t70.5 -197q0 -82 -23.5 -155t-56.5 -132t-68 -100.5t-58 -60.5h-281zM335 398q-7 -15 -5.5 -24.5t9.5 -9.5q6 0 16 6q19 13 25.5 32t6.5 42q0 39 -19 65.5t-68 26.5q-51 0 -69 -35q-8 -15 -4 -22.5t13 -7.5t19 6q12 8 29 8q28 0 45 -23q21 -28 2 -64z" />
    <glyph glyph-name="colon" unicode=":" horiz-adv-x="268" 
d="M36 458q0 42 25.5 67.5t67.5 25.5t67.5 -25.5t25.5 -67.5t-25.5 -67t-67.5 -25t-67.5 25t-25.5 67zM36 78q0 42 25.5 67.5t67.5 25.5t67.5 -25.5t25.5 -67.5t-25.5 -67t-67.5 -25t-67.5 25t-25.5 67z" />
    <glyph glyph-name="semicolon" unicode=";" horiz-adv-x="258" 
d="M36 458q0 42 25.5 67.5t67.5 25.5t67.5 -25.5t25.5 -67.5t-25.5 -67t-67.5 -25t-67.5 25t-25.5 67zM129 -100q-13 1 -16.5 8t-3 17t3 21.5t2.5 20.5q0 18 -12 25.5t-26.5 15.5t-26 23t-11.5 48q0 40 25 65t67 25t67 -26t25 -73q0 -23 -7 -53t-19 -56t-29.5 -44t-38.5 -17
z" />
    <glyph glyph-name="less" unicode="&#x3c;" horiz-adv-x="433" 
d="M35 412l363 180v-155l-206 -102l206 -103v-154l-363 179v155z" />
    <glyph glyph-name="equal" unicode="=" horiz-adv-x="451" 
d="M35 470h381v-135h-381v135zM35 277h381v-135h-381v135z" />
    <glyph glyph-name="greater" unicode="&#x3e;" horiz-adv-x="433" 
d="M35 78v154l206 103l-206 102v155l363 -180v-155z" />
    <glyph glyph-name="question" unicode="?" horiz-adv-x="556" 
d="M-29 630q48 49 113.5 68t134.5 19q18 0 39.5 -3.5t42 -11t37 -20t24.5 -29.5q9 -18 5 -33.5t-14.5 -29t-24 -25.5t-25 -22t-17 -18.5t0.5 -16.5q5 -6 14 -6q10 0 24 5.5t30.5 12t35 12t36.5 5.5q41 0 62 -29t22 -67q1 -35 -14 -60t-37 -44.5t-48 -34.5t-48.5 -31t-38 -34
t-16.5 -43h-195q-1 42 8 71t23.5 49t33 33t36.5 23t34 19t25 21q14 19 7 34.5t-27 15.5q-9 0 -18 -4t-20 -4q-14 0 -21 7t-5.5 17.5t6.5 19.5q6 11 5.5 18.5t-4 12.5t-9.5 7.5t-11 3.5q-17 2 -37.5 -12t-37.5 -30zM115 78q0 42 25.5 67.5t67.5 25.5t67.5 -25.5t25.5 -67.5
t-25.5 -67t-67.5 -25t-67.5 25t-25.5 67z" />
    <glyph glyph-name="at" unicode="@" horiz-adv-x="868" 
d="M588 -83q-35 -11 -73 -17.5t-80 -6.5q-94 0 -171.5 30t-132.5 85.5t-85 133.5t-30 173t30 172.5t85 132.5t132.5 85.5t171.5 30.5t171 -30.5t132 -85.5t85 -132.5t30 -172.5q0 -64 -18.5 -119.5t-54 -96t-88.5 -62t-122 -17.5q-74 4 -116 36t-34 90q-23 -20 -51 -30.5
t-57 -10.5q-36 0 -65.5 17t-48.5 50t-23.5 80.5t8.5 107.5q13 57 37 97t55 65t67.5 36.5t73.5 11.5t61.5 -10t38.5 -28l4 21h150l-27 -112q-6 -27 -23.5 -40.5t-35 -22t-31 -16t-12.5 -21.5t17 -14q8 0 18.5 2.5t19.5 2.5t13.5 -5t1.5 -20l-24 -107q-6 -28 -3 -45.5
t11 -27.5t20 -13.5t22 -3.5q26 -1 53 9.5t49.5 35.5t37 64.5t14.5 95.5q0 81 -25.5 147t-72.5 113t-112.5 72.5t-146.5 25.5q-80 0 -146 -25.5t-113 -72.5t-72.5 -113t-25.5 -147t25.5 -147.5t72.5 -113.5t113 -73t146 -26q64 0 118 16zM416 270q6 0 16 0.5t19.5 3.5t17 8.5
t7.5 15.5q0 11 -12 11q-9 0 -20.5 -1.5t-14.5 8.5t6 18t21.5 15.5t23.5 15t11 17.5q1 10 -10 16.5t-25 6.5q-29 0 -49.5 -18.5t-29.5 -50.5q-9 -29 2 -47.5t37 -18.5z" />
    <glyph glyph-name="A" unicode="A" 
d="M540 0l-151 617l-25 -83q-21 -69 -21.5 -115.5t11 -77.5t31.5 -51.5t39.5 -38.5t35.5 -38.5t20 -51.5q5 -40 -15.5 -68.5t-56.5 -31.5q-30 -3 -63.5 16t-68.5 68l-37 -145h-239l40 157q6 24 17 48t27.5 43t38 30.5t49.5 11.5q20 0 39 -7.5t33 -20.5q12 -10 21.5 -23.5
t17.5 -24.5t15 -19t15 -8q7 0 12 4q14 11 9 27t-18.5 33t-31 33.5t-29.5 26.5q-32 27 -59.5 49t-45.5 45.5t-23.5 51.5t4.5 67q11 40 35 74t57.5 59t75 39t87.5 14q48 0 90 -14.5t76.5 -40.5t58.5 -62.5t36 -81.5l132 -511h-239z" />
    <glyph glyph-name="B" unicode="B" horiz-adv-x="782" 
d="M50 700h456q39 0 66 -8.5t44 -23.5t25.5 -36t9.5 -45q2 -35 -8 -61t-27.5 -46.5t-40 -35.5t-45.5 -27q-13 -7 -26 -15t-21 -16.5t-10 -17.5t7 -18q7 -7 15 -7q9 0 19 6.5t24.5 14t34 13.5t46.5 6q36 0 62.5 -13t43 -36t24.5 -54.5t8 -69.5q0 -114 -70 -162.5t-207 -48.5
l-430 1v700zM479 199q48 0 73.5 15t18.5 46q-6 24 -26 24q-13 0 -31 -8t-38 -18t-41.5 -18t-41.5 -8q-15 0 -29 6t-26 20q-22 26 -18 61t47 66q16 11 36.5 22t38.5 22t30 22t11 23q0 3 -0.5 7t-5 8.5t-14.5 7.5t-30 3h-153v-301h199z" />
    <glyph glyph-name="C" unicode="C" horiz-adv-x="699" 
d="M674 43q-22 -15 -52 -26.5t-64.5 -19.5t-70.5 -12t-71 -4q-45 0 -87.5 7.5t-78 24t-62 41.5t-41.5 60q-18 44 -10.5 82.5t32.5 66.5q10 11 20.5 19.5t19 16t12 14t-0.5 13.5q-6 10 -22 10q-11 0 -22.5 -3t-20.5 -7q-31 -11 -54 -11q-36 0 -56 25t-20 76q0 58 27 112
t77 96t121.5 67.5t160.5 25.5q39 0 78 -5t74 -13.5t64 -19.5t47 -24l-71 -187q-42 35 -88.5 46t-86.5 11q-44 0 -76.5 -9t-54.5 -23.5t-32.5 -32.5t-10.5 -36q0 -12 4 -16t12 -4t18 2t21 2q12 0 24.5 -4.5t23.5 -19.5q16 -21 14 -40t-11.5 -37t-21 -34t-14.5 -30
q-4 -17 6 -30t27.5 -22t39.5 -13.5t42 -4.5q18 0 41 4t45.5 11t43.5 18t34 24z" />
    <glyph glyph-name="D" unicode="D" horiz-adv-x="778" 
d="M35 392q0 27 9 46t23.5 31t33 18t37.5 6q21 0 42 -8q11 -4 21.5 -10.5t20 -12.5t18.5 -10.5t16 -4.5q8 0 14 6q8 8 5 16t-11 16.5t-18.5 16t-18.5 13.5q-34 26 -41 58.5t4 60.5t36 47t55 19h125q78 0 142 -25t109.5 -71t70.5 -111t25 -146q0 -78 -25 -142t-70.5 -109.5
t-109.5 -70.5t-142 -25h-371v392zM384 200q67 0 108 41t41 110q0 47 -20.5 81.5t-55.5 51.5q-12 6 -28 6q-13 0 -24.5 -4t-17.5 -10.5t-4 -16.5t17 -22q32 -26 31 -60.5t-30 -57.5q-18 -14 -38 -14q-14 0 -27 6t-24 13t-19.5 13t-14.5 6q-7 0 -10 -8t-3 -28v-107h119z" />
    <glyph glyph-name="E" unicode="E" horiz-adv-x="734" 
d="M206 0q-36 0 -67 9.5t-54.5 27.5t-36.5 44t-13 59q0 36 14.5 62t38.5 44.5t55.5 29.5t64.5 17.5t66 8.5t60 2h45.5t34 3t20 10t4.5 21q0 1 -1.5 4t-6 6.5t-12.5 6.5t-23 3q-26 0 -74 -13q-62 -17 -107 -17q-46 0 -80 14t-56 39t-32.5 59.5t-10.5 74.5q0 47 17.5 82t49 58
t75.5 34t98 11h424v-200h-517q-17 0 -24.5 -8.5t-0.5 -20.5q9 -16 34 -22.5t58 -6.5q54 0 113 14q58 14 113 14q32 0 60 -5.5t49 -18t33.5 -33t12.5 -50.5q0 -43 -25.5 -67.5t-65.5 -36.5t-89 -15t-96 -3h-74t-57 -5q-32 -6 -30 -22q1 -7 7 -10.5t23 -3.5h476v-200h-493z
" />
    <glyph glyph-name="F" unicode="F" horiz-adv-x="649" 
d="M35 218q0 37 11.5 62t31.5 40t47 21.5t57 6.5q29 0 60 -5t62 -13q18 -5 33.5 -9.5t27.5 -4.5q21 0 28 19q6 17 -6 24.5t-34 10.5t-49.5 4t-53.5 4q-52 7 -92 29.5t-67.5 51.5t-41.5 61.5t-14 59.5v120h614v-200h-384q0 -23 14 -40t37.5 -29t55.5 -19t68 -10
q22 -2 45.5 -6.5t43 -16.5t31.5 -34t11 -58q-2 -37 -19 -62.5t-55 -25.5q-21 0 -48 9q-18 6 -38 9.5t-40 3.5q-21 0 -40 -4.5t-34 -13.5t-23.5 -23.5t-8.5 -35.5v-144h-230v218z" />
    <glyph glyph-name="G" unicode="G" horiz-adv-x="734" 
d="M464 321h230v-278q-22 -15 -55 -26.5t-71 -19.5t-77.5 -12t-74.5 -4q-45 0 -87.5 7.5t-78 24t-62 41.5t-41.5 60q-18 44 -10.5 82.5t32.5 66.5q10 11 20.5 19.5t19 16t12 14t-0.5 13.5q-6 10 -22 10q-11 0 -22.5 -3t-20.5 -7q-31 -11 -54 -11q-36 0 -56 25t-20 76
q0 58 27 112t77 96t121.5 67.5t160.5 25.5q39 0 78 -5t74 -13.5t64 -19.5t47 -24l-71 -187q-42 35 -88.5 46t-86.5 11q-44 0 -76.5 -9t-54.5 -23.5t-32.5 -32.5t-10.5 -36q0 -12 4 -16t12 -4t18 2t21 2q12 0 24.5 -4.5t23.5 -19.5q16 -21 14 -40t-11.5 -37t-21 -34
t-14.5 -30q-4 -17 6 -30t27.5 -22t39.5 -13.5t42 -4.5q6 0 12 0.5t13 1.5v146z" />
    <glyph glyph-name="H" unicode="H" 
d="M50 214q0 42 7 69t20.5 42.5t32.5 21.5t43 6q25 1 53.5 -2.5t52.5 -3.5q22 0 36.5 5t14.5 21t-15.5 23.5t-38 9.5t-48 1.5t-43.5 0.5q-60 3 -87.5 32.5t-27.5 81.5v178h230v-166q0 -29 13 -44.5t34 -23t46 -11t49.5 -8.5t45 -15.5t31.5 -31.5v300h230v-700h-230v296
q-7 -16 -18 -25t-24.5 -13.5t-29 -5.5t-31.5 -1q-22 0 -42.5 -1t-37 -8.5t-26.5 -25t-10 -50.5v-166h-230v214z" />
    <glyph glyph-name="I" unicode="I" horiz-adv-x="330" 
d="M50 700h230v-700h-230v700z" />
    <glyph glyph-name="J" unicode="J" horiz-adv-x="670" 
d="M229 267q0 -19 7.5 -38t19.5 -32.5t26.5 -19.5t28.5 0q12 5 13.5 14t-2 21t-9.5 26t-9.5 28t-1.5 28t14 26q9 9 18.5 12t19.5 3q20 0 39 -6.5t33 -6.5q12 0 19 8q6 9 0.5 18.5t-14.5 27.5t-17.5 47t-8.5 77v200h230v-405q0 -16 -2 -43t-9 -53.5t-20.5 -45.5t-37.5 -19
q-20 0 -46 18q-7 6 -16 13l-18 14t-17.5 11.5t-16.5 4.5t-13 -5q-8 -7 -6.5 -17.5t7.5 -21t14.5 -20.5t12.5 -16q24 -31 14 -56t-38 -42.5t-64.5 -27t-64.5 -9.5q-104 0 -179 47t-110 130z" />
    <glyph glyph-name="K" unicode="K" horiz-adv-x="734" 
d="M50 700h230v-335q21 23 53 33.5t62 20.5t52 26t22 49v206h230v-135q0 -52 -26 -80.5t-70 -48.5q-25 -11 -47 -17.5t-38 -13t-25.5 -15.5t-10.5 -24q-1 -21 19 -36t71 -29q47 -13 72.5 -27t37.5 -31.5t14.5 -38.5t2.5 -47v-157h-230v140q0 46 -15.5 61t-38.5 15
q-20 0 -43.5 -5.5t-45.5 -5.5q-14 0 -25.5 3.5t-20.5 13.5v-222h-230v700z" />
    <glyph glyph-name="L" unicode="L" horiz-adv-x="682" 
d="M297 0q-51 0 -77.5 18t-27.5 56q0 4 1 11.5t5.5 17t14 19.5t26.5 19q16 9 34 14.5t31 10.5t18.5 11.5t-3.5 16.5q-10 12 -25 12q-16 0 -35.5 -10t-42 -21.5t-47 -21t-50.5 -8.5q-31 1 -50 22t-19 79v454h230v-393q0 -29 13 -29q8 0 20.5 8.5t28 18.5t32.5 18.5t34 8.5
q23 0 41 -17q20 -19 19.5 -39t-4 -37t-2.5 -28t24 -11h171v-200h-360z" />
    <glyph glyph-name="M" unicode="M" horiz-adv-x="906" 
d="M35 494q0 54 13 94.5t36.5 68t55 41t67.5 13.5q22 0 52.5 -8.5t58 -36t47 -80t19.5 -139.5v-32.5t1.5 -47.5t5.5 -53.5t11.5 -49.5t19 -36.5t29.5 -13.5q15 0 26.5 12t15 35t-2 57.5t-25.5 80.5q-36 84 -32 144t35 98t81.5 55.5t107.5 17.5q60 0 100.5 -17t66 -48.5
t36.5 -76t11 -98.5v-474h-230v508q0 8 -2 16.5t-14 6.5q-14 -3 -19 -19t-8 -43q-4 -41 -2 -92.5t3.5 -105t-1 -104.5t-15.5 -90.5t-40 -64t-75 -24.5q-52 0 -83.5 31.5t-48.5 80.5t-23 109.5t-8 118.5t-3.5 107.5t-9.5 75.5q-3 11 -6.5 13t-7.5 2q-8 -1 -10.5 -8t-2.5 -15
v-503h-230v494z" />
    <glyph glyph-name="N" unicode="N" horiz-adv-x="775" 
d="M35 494q0 108 51 162.5t132 54.5q26 0 55.5 -6.5t58.5 -22.5t54.5 -44t41.5 -72q16 -43 18.5 -87t-3 -87t-14.5 -82.5t-16.5 -73t-9 -59t8.5 -40.5q10 -16 31 -16q12 0 24 6.5t21.5 20t15.5 33.5t4 48v28t0.5 36.5t1 39.5t0.5 38v329h230v-515q0 -55 -17.5 -93t-45.5 -61
t-64 -33t-72 -10q-71 0 -114.5 31.5t-68.5 80.5t-35.5 109.5t-14.5 118.5t-6 106.5t-9 74.5q-4 12 -7.5 14.5t-6.5 2.5q-8 -1 -11 -8t-3 -15v-503h-230v494z" />
    <glyph glyph-name="O" unicode="O" horiz-adv-x="799" 
d="M232 602q3 48 46.5 82t120.5 34q88 0 157.5 -26.5t117.5 -75t73.5 -116.5t25.5 -151t-25.5 -151t-73.5 -116t-117.5 -74.5t-157.5 -26.5t-157.5 26.5t-117.5 74.5t-73.5 116t-25.5 151q0 27 8.5 54t24.5 49.5t40.5 37t55.5 15.5q36 2 65 -13t51 -33.5t38 -34.5t26 -16
q5 0 8 4q12 13 7.5 24.5t-17 23.5t-30.5 26t-34 31t-27 37.5t-9 47.5zM384 498q-1 -22 14 -40t34 -41q30 -38 38 -73.5t-20 -56.5q-17 -14 -40 -14q-19 0 -37 13t-29 44q-16 42 -48 42q-26 0 -39 -20.5t-13 -52.5q1 -57 40.5 -91.5t114.5 -34.5q74 0 112.5 42.5t38.5 134.5
t-31.5 138.5t-83.5 47.5q-28 0 -39 -12t-12 -26z" />
    <glyph glyph-name="P" unicode="P" horiz-adv-x="769" 
d="M50 700h443q42 0 86.5 -14.5t80.5 -45.5t59 -79.5t24 -116.5q0 -22 -3 -51.5t-12.5 -61t-27.5 -62t-47 -54.5t-71.5 -38.5t-101.5 -14.5q-28 0 -56.5 5t-50.5 16t-33 29.5t-5 46.5q3 13 8.5 25.5t7.5 23t-1.5 18t-17.5 8.5q-22 2 -32.5 -11.5t-15 -32t-4.5 -37.5v-27
v-226h-230v700zM280 402q18 23 40 33.5t43 10.5q22 0 40 -9t28 -25q12 -20 8.5 -40t-8 -36.5t-3 -26.5t24.5 -10q24 0 38.5 11t22 27t10 33t2.5 30q0 51 -21.5 75.5t-56.5 24.5h-168v-98z" />
    <glyph glyph-name="Q" unicode="Q" horiz-adv-x="799" 
d="M748 -78q-19 -28 -48 -28q-17 0 -33.5 11t-29.5 32q-6 10 -12 22.5t-13 22.5t-17.5 17t-25.5 7q-10 0 -22 -3q-10 -3 -29 -7t-40.5 -7t-42.5 -5.5t-35 -2.5q-88 0 -157.5 26.5t-117.5 75t-73.5 116.5t-25.5 151t25.5 151t73.5 116t117.5 74.5t157.5 26.5
q89 0 158.5 -26.5t117.5 -74.5t73 -116t25 -151q0 -27 -8.5 -54t-24.5 -49.5t-40 -36.5t-56 -16q-36 -2 -65 13t-51 33.5t-37.5 34.5t-26.5 16q-5 0 -8 -4q-10 -11 -1 -33t33 -48t59 -53t76 -50q25 -13 54.5 -33.5t51 -44.5t29 -50.5t-10.5 -52.5zM415 201q1 11 -3 21
t-10.5 19.5t-15.5 19t-18 21.5q-31 38 -38.5 73.5t19.5 56.5q17 14 40 14q19 0 37 -13t29 -44q16 -42 49 -42q25 0 38 20.5t13 52.5q-1 57 -40.5 91.5t-114.5 34.5q-74 0 -112.5 -42.5t-38.5 -134.5t31.5 -138.5t83.5 -47.5q28 0 39 12t12 26z" />
    <glyph glyph-name="R" unicode="R" horiz-adv-x="791" 
d="M50 700h532q42 0 70 -10t45 -27.5t24 -40t7 -48.5q0 -48 -17.5 -81.5t-40.5 -55t-46.5 -33t-34.5 -16.5q-30 -12 -56 -20t-44 -16t-25.5 -16.5t0.5 -21.5t24 -13q10 0 22.5 4t26.5 8.5t29.5 9t31.5 4.5q37 1 70 -21.5t46 -78.5l52 -227h-235l-37 173q-6 27 -18 37.5
t-34 10.5q-20 1 -39.5 -4.5t-36.5 -5.5q-14 0 -26 5.5t-23 20.5q-23 30 -15.5 62t39.5 55q22 15 50 24.5t53.5 20t43.5 25.5t18 40q0 4 -1 10t-6 12t-14.5 10t-27.5 4h-177v-500h-230v700z" />
    <glyph glyph-name="S" unicode="S" horiz-adv-x="767" 
d="M182 500q-17 0 -24.5 -8.5t-0.5 -20.5q10 -17 43 -23.5t77 -6.5q32 0 65 3t65 8q35 5 64.5 8t55.5 3q62 0 101.5 -14.5t62.5 -41t32 -64t9 -83.5q0 -58 -13 -106t-40 -82.5t-69.5 -53t-102.5 -18.5h-444v200h346q58 0 98.5 23t63 53.5t25.5 61t-14 46.5q-9 9 -24 9
q-16 0 -37 -11t-45.5 -27t-52.5 -35t-59 -34q-34 -17 -64 -24t-58 -7q-49 0 -87.5 20.5t-65 54t-40.5 76t-14 86.5q0 56 17.5 95.5t49 64.5t75.5 36.5t98 11.5h454v-200h-547z" />
    <glyph glyph-name="T" unicode="T" horiz-adv-x="747" 
d="M242 319q0 14 1 37t7.5 49t22 53.5t44.5 50.5q32 25 65.5 35.5t61.5 17.5t46.5 15.5t18.5 29.5q0 31 -38 31q-14 0 -34 -5.5t-46 -18.5q-37 -19 -66 -40.5t-55.5 -40t-53.5 -31t-62 -13.5q-39 -1 -71 13.5t-52 42t-27.5 67t3.5 88.5h658q38 0 59.5 -22t21.5 -58
q0 -19 -6.5 -40t-23.5 -39t-46 -29.5t-74 -11.5h-124v-500h-230v319z" />
    <glyph glyph-name="U" unicode="U" horiz-adv-x="706" 
d="M265 700v-433q0 -19 7.5 -38t19.5 -32.5t26.5 -19.5t28.5 0q12 5 13.5 14t-2 21t-9.5 26t-9.5 28t-1.5 28t14 26q9 9 18.5 12t19.5 3q20 0 39 -6.5t33 -6.5q12 0 19 8q6 9 0.5 18.5t-14.5 27.5t-17.5 47t-8.5 77v200h230v-405q0 -16 -2 -43t-9 -53.5t-20.5 -45.5
t-37.5 -19q-20 0 -46 18q-7 6 -16 13l-18 14t-17.5 11.5t-16.5 4.5t-13 -5q-8 -7 -6.5 -17.5t8 -21.5t15 -21.5t13.5 -17.5q24 -32 13.5 -57t-38.5 -41.5t-65 -25t-65 -8.5q-71 0 -129 22.5t-99.5 64t-64 99.5t-22.5 129v405h230z" />
    <glyph glyph-name="V" unicode="V" 
d="M647 189q-12 -45 -36 -81.5t-58.5 -62.5t-76.5 -40.5t-90 -14.5q-46 0 -87.5 14.5t-75.5 40t-58.5 62t-36.5 79.5q-9 35 -8 63t9.5 50.5t22.5 39t30 28.5q20 15 39 21t34 10t24.5 9t11.5 16q2 10 -4 16t-17.5 8.5t-27.5 2.5t-33 -3q-19 -3 -37 -3q-56 0 -89.5 32
t-50.5 97l-32 127h239l27 -100q8 -30 26 -47t39 -27.5t43.5 -18t39.5 -18.5q26 -16 34.5 -40t2.5 -46.5t-24.5 -39.5t-47.5 -20q-10 -1 -19.5 -5t-16 -12.5t-8.5 -22.5t4 -35l50 -185l151 617h239z" />
    <glyph glyph-name="W" unicode="W" horiz-adv-x="921" 
d="M886 206q0 -54 -13 -94.5t-36.5 -68t-55 -41t-67.5 -13.5q-22 0 -52.5 8.5t-58 36t-47 80t-19.5 139.5v32.5t-1.5 47.5t-5.5 53.5t-11.5 49.5t-19 36t-29.5 14q-15 0 -26.5 -12t-15 -35t2.5 -57.5t25 -80.5q36 -84 32 -144t-35 -98t-81.5 -55.5t-107.5 -17.5
q-60 0 -100.5 17.5t-66 49t-36.5 75.5t-11 98v474h230v-508q0 -8 2 -16.5t14 -6.5q14 3 19 19t8 43q4 41 2 92.5t-3.5 105t1 104.5t15.5 90.5t40 64t75 24.5q53 0 84 -31.5t48 -80.5t23 -109.5t8 -118.5t3.5 -107.5t9.5 -75.5q3 -11 6.5 -13t7.5 -2q8 1 10.5 8t2.5 15v503
h230v-494z" />
    <glyph glyph-name="X" unicode="X" horiz-adv-x="853" 
d="M274 350l-249 350h269l88 -123q26 -37 40.5 -80.5t25.5 -90.5t22 -94.5t31 -91.5q21 -48 41 -65t37 -17q11 0 20 6q21 15 13 43.5t-29 67t-47.5 84.5t-44 94.5t-18 97.5t31.5 93l54 76h269l-128 -180q-28 -40 -39.5 -74.5t-8.5 -66t20 -61t44 -61.5q43 -49 62 -92
t19 -77.5t-17.5 -59.5t-46.5 -38q-27 -11 -50 -11q-42 0 -82 24.5t-74 58.5t-60 68.5t-40 55.5l-133 -186h-269z" />
    <glyph glyph-name="Y" unicode="Y" horiz-adv-x="803" 
d="M279 700l65 -110q28 -48 24 -93t-25 -85.5t-50.5 -76.5t-52 -66t-30 -54t15.5 -40q3 -2 9 -5t14 -3q14 0 34 16.5t42 66.5q17 37 28.5 78t24.5 84t28.5 85t39.5 80l78 123h279l-357 -504q-21 -29 -49.5 -67t-62.5 -71.5t-72 -57t-79 -23.5q-31 0 -63 18q-30 17 -46 44.5
t-13.5 63.5t26 78.5t73.5 90.5q32 30 45 53t10 46t-20 50.5t-46 67.5l-149 211h279z" />
    <glyph glyph-name="Z" unicode="Z" horiz-adv-x="767" 
d="M714 0h-424q-54 0 -98 11.5t-75.5 36.5t-49 64.5t-17.5 95.5q0 44 11 86.5t33.5 76t56.5 54t80 20.5q26 0 55 -7t63 -24q31 -15 59 -34t52.5 -35t45.5 -27t37 -11q15 0 24 9q17 16 14 46.5t-25.5 61t-63 53.5t-98.5 23h-316v200h414q60 0 102.5 -18.5t69.5 -53t40 -82
t13 -106.5q0 -46 -9 -83.5t-32 -64t-62.5 -41t-101.5 -14.5q-26 0 -55.5 3t-64.5 8q-32 5 -62 8t-57 3q-37 0 -64 -6.5t-37 -23.5q-7 -12 0.5 -20.5t24.5 -8.5h517v-200z" />
    <glyph glyph-name="bracketleft" unicode="[" horiz-adv-x="344" 
d="M35 750h274v-93h-104v-706h104v-93h-274v892z" />
    <glyph glyph-name="backslash" unicode="\" horiz-adv-x="573" 
d="M15 700h206l337 -700h-206z" />
    <glyph glyph-name="bracketright" unicode="]" horiz-adv-x="344" 
d="M35 -49h104v706h-104v93h274v-892h-274v93z" />
    <glyph glyph-name="asciicircum" unicode="^" horiz-adv-x="572" 
d="M207 726h155l180 -362h-155l-102 206l-103 -206h-155z" />
    <glyph glyph-name="underscore" unicode="_" horiz-adv-x="444" 
d="M0 -67h444v-105h-444v105z" />
    <glyph glyph-name="grave" unicode="`" horiz-adv-x="144" 
d="M67 542l-62 161l88 -1l16 -160h-42z" />
    <glyph glyph-name="a" unicode="a" horiz-adv-x="599" 
d="M76 500q108 0 182 -0.5t101 -0.5q43 1 78 -3.5t59.5 -16.5t38 -32t13.5 -50q1 -44 -24 -70t-63.5 -41t-83 -22.5t-82.5 -15.5t-63.5 -20.5t-25.5 -36.5q0 -16 12.5 -26t35.5 -8q28 2 57.5 18t58.5 34.5t57 33.5t52 15q27 0 42.5 -21t15.5 -57v-180h-210q0 14 3.5 40.5
t15.5 57.5q-35 -50 -84 -80t-100 -30q-21 0 -45 6t-44.5 20.5t-34 39t-13.5 60.5q0 23 7.5 46t27 44t54.5 38.5t89 29.5q65 14 65 29q0 9 -41 9h-151v190z" />
    <glyph glyph-name="b" unicode="b" horiz-adv-x="631" 
d="M245 700v-147q0 -49 -1 -96t1.5 -82.5t10 -55.5t25.5 -15q11 3 14 12t3 22t-2 28.5t-2 31.5q1 32 14 53.5t32 35t42 19.5t43 6q37 0 70 -16.5t57.5 -49.5t39 -81.5t14.5 -112.5q0 -128 -71 -197t-215 -69t-214.5 69t-70.5 197v448h210zM239 234q2 -32 20 -51t61 -19
q49 0 66 24t17 64q0 8 -1.5 21.5t-5.5 26t-9.5 21t-13.5 5.5q-3 -1 -7 -6t4 -21q12 -26 3.5 -50t-30.5 -35q-12 -6 -24 -6q-17 0 -31 10t-20 22q-7 15 -17 15q-13 0 -12 -21z" />
    <glyph glyph-name="c" unicode="c" horiz-adv-x="586" 
d="M561 73q-48 -49 -114.5 -68t-135.5 -19q-18 0 -39.5 3.5t-41.5 11.5t-36.5 20t-24.5 30t-4.5 33.5t12.5 30t21.5 26.5t22.5 23t15 20t-1 17q-4 6 -13 6t-22 -6.5t-28.5 -14t-32.5 -14t-35 -6.5q-23 0 -38 9.5t-24 25.5t-13 35.5t-4 38.5q0 55 21.5 100t60.5 76.5t94 49
t122 17.5q80 0 140.5 -23.5t97.5 -63.5l-129 -129q-31 24 -58.5 31t-46.5 7q-32 0 -55.5 -11t-34.5 -28q-8 -13 -4 -19.5t13 -6.5t19 6q12 8 29 8q28 0 45 -23q20 -28 2 -65q-10 -20 -4 -27t17 -7q17 0 39 12t39 28z" />
    <glyph glyph-name="d" unicode="d" horiz-adv-x="631" 
d="M596 700v-448q0 -128 -70.5 -197t-214.5 -69t-215 69t-71 197q0 64 14 112.5t38.5 81.5t58 49.5t72.5 16.5q21 0 43.5 -5.5t41 -18.5t31 -34.5t13.5 -53.5q0 -16 -2 -32t-2 -29.5t3 -22.5t14 -12q18 -5 25.5 15t10 55.5t1.5 82.5t-1 96v147h210zM288 214q-22 11 -30.5 35
t3.5 50q8 16 4 21t-7 6q-8 3 -13.5 -5.5t-9.5 -21t-5.5 -26t-1.5 -21.5q0 -40 17 -64t66 -24q43 0 61 19t20 51q1 11 -3 16t-9 5q-9 0 -17 -15q-6 -12 -20 -22t-31 -10q-12 0 -24 6z" />
    <glyph glyph-name="e" unicode="e" horiz-adv-x="583" 
d="M175 0q-28 0 -55 5t-48 17t-34 32t-13 50t14.5 56t49.5 45q13 7 31.5 14.5t34.5 16t25.5 17t5.5 16.5q-4 9 -23 9q-12 0 -26.5 -2.5t-26.5 -3.5q-43 -2 -64 26t-16 69q5 38 28 65t60 44.5t83.5 26t97.5 9.5q54 1 101.5 -6.5t82.5 -25t55 -44.5t20 -64q0 -23 -9 -44.5
t-31.5 -40.5t-60 -35t-94.5 -28q-10 -2 -22 -5t-22.5 -6.5t-17 -7t-6.5 -6.5q0 -5 5.5 -7t26.5 -2h210v-190h-362zM266 259q5 -4 20 -0.5t31.5 13t29 23.5t12.5 31q0 20 -21 28.5t-58 6.5q-36 -1 -49 -7.5t-8 -14.5q3 -5 10.5 -6t15.5 -2.5t16 -5t12 -13.5t1.5 -18t-6.5 -15
t-6.5 -12t0.5 -8z" />
    <glyph glyph-name="f" unicode="f" horiz-adv-x="468" 
d="M35 373q0 53 27 78.5t62 22.5q11 -1 22.5 -4t22 -6.5t20 -6.5t16.5 -3q14 0 17 15t-7.5 25.5t-27.5 20t-37.5 19t-38 21.5t-28.5 28.5t-10 39.5q2 27 20 51.5t47.5 43t68.5 29.5t82 11q98 0 177 -65l-116 -160q-11 11 -28 21t-33 10q-11 0 -17.5 -5.5t-7.5 -13.5
q0 -9 8 -17t21 -17t27 -19t25 -24t16.5 -31.5t0.5 -40.5q-7 -31 -24 -38t-37 -7h-21.5t-18.5 -3t-13 -11.5t-5 -25.5v-311h-210v373z" />
    <glyph glyph-name="g" unicode="g" horiz-adv-x="665" 
d="M199 -250q-25 0 -55.5 6.5t-56.5 22t-44 41t-18 63.5q0 29 10 56t22.5 51t25 45t17.5 37q5 19 0.5 36t-12.5 38t-15.5 49.5t-7.5 71.5q0 55 15 100t45 77.5t75 50t105 17.5q31 0 51 -4t35 -8.5t27.5 -8t27.5 -2.5q28 2 45 18t30 35t26 34t34 15q9 0 24 -5
q27 -10 33 -29.5t-7 -43.5t-44 -49.5t-79 -49.5q-4 -2 -24.5 -13.5t-41.5 -26.5t-35.5 -32.5t-5.5 -31.5q3 -4 7 -4q7 0 19.5 9t29 19t37 16.5t42.5 0.5q17 -4 27 -14t15.5 -23t7.5 -27.5t2 -29.5q0 -107 -64.5 -168.5t-193.5 -61.5q-30 0 -53 3t-41 6.5t-32 6.5t-25 3
q-16 0 -28 -8q-12 -9 -18.5 -24t-2 -29t22 -24.5t53.5 -10.5h329v-200h-336zM304 252q-9 11 -9.5 27.5t7.5 30.5q6 11 3.5 17t-9.5 6q-9 0 -15.5 -6.5t-10.5 -15.5t-6 -19t-2 -18q0 -35 19.5 -53.5t56.5 -18.5q14 0 25.5 4.5t19.5 20.5q6 12 4 18.5t-10 6.5q-6 0 -17 -6
q-13 -8 -25 -8q-19 0 -31 14z" />
    <glyph glyph-name="h" unicode="h" horiz-adv-x="656" 
d="M50 700h210v-315q0 -31 7.5 -45.5t18.5 -13.5q8 0 13 8.5t9 21t7.5 28.5t9.5 31q20 50 60 73.5t84 23.5q32 0 60 -12t48.5 -37t32 -62.5t11.5 -87.5v-313h-210v252q0 11 1 25.5t0 27.5t-5.5 22t-15.5 9q-15 0 -16.5 -20t6.5 -55q7 -27 5 -49.5t-29 -34.5q-11 -5 -25 -5
q-15 0 -26 6.5t-16 13.5q-6 11 -16 11q-14 0 -14 -20v-183h-210v700z" />
    <glyph glyph-name="i" unicode="i" horiz-adv-x="326" 
d="M65 344q0 42 12 64.5t30.5 34.5t40 18t40.5 14t28.5 18t12.5 19.5t-0.5 17t-10.5 11.5t-13 0.5t-14 -9t-19.5 -11t-29.5 -5.5q-36 0 -64 25.5t-28 76.5q0 52 31 83t82 31t82 -36t31 -119q0 -12 -0.5 -37.5t-0.5 -69.5v-470h-210v344z" />
    <glyph glyph-name="j" unicode="j" horiz-adv-x="344" 
d="M-66 -51q11 -10 27 -13.5t30 1.5q17 7 13 24t-12.5 37t-12 42t14.5 40q9 9 18.5 12t19.5 3q20 0 39 -6.5t33 -6.5q12 0 19 8q6 9 0.5 18.5t-14.5 27.5t-17.5 47t-8.5 77v84q0 42 12 64.5t30.5 34.5t40 18t40.5 14t28.5 18t12.5 19.5t-0.5 17t-10.5 11.5t-13 0.5t-14 -9
t-19.5 -11t-29.5 -5.5q-36 0 -64 25.5t-28 76.5q0 52 31 83t82 31t82 -36t31 -119q0 -12 -0.5 -37.5t-0.5 -69.5v-415q0 -16 -2 -43t-9 -53.5t-20.5 -45.5t-37.5 -19q-20 0 -46 18q-7 6 -16 13l-18 14t-17.5 11.5t-16.5 4.5t-13 -5q-8 -7 -6.5 -17.5t8 -21t14.5 -20.5
t13 -16q24 -31 16.5 -56t-31.5 -42.5t-57 -27t-60 -9.5q-14 0 -33 3t-40 10t-42.5 18.5t-39.5 28.5z" />
    <glyph glyph-name="k" unicode="k" horiz-adv-x="681" 
d="M50 700h210v-296q55 58 118 82.5t139 24.5q13 0 32 -2t37 -9t30.5 -21t13.5 -38q1 -30 -18 -51t-47.5 -36t-61.5 -26t-59 -21.5t-40.5 -22.5t-6.5 -28q4 -10 13 -10q6 0 14.5 4t19.5 8.5t24.5 8.5t30.5 4q19 0 37 -5t34 -17t28 -31t18 -47l40 -171h-225l-25 117
q-6 27 -19 37.5t-39 10.5q-13 0 -25.5 -1.5t-23.5 -1.5t-21 3.5t-18 13.5v-179h-210v700zM260 280q12 15 28 26q20 14 47.5 27t53 26.5t43 27t17.5 28.5q0 18 -25 18q-17 0 -43 -10.5t-55 -33.5q-4 -3 -14 -11t-21 -21.5t-20 -32.5t-11 -44z" />
    <glyph glyph-name="l" unicode="l" horiz-adv-x="291" 
d="M246 356q0 -42 -12 -64.5t-30.5 -34.5t-40 -18t-40.5 -14t-28.5 -18t-12.5 -19.5t0.5 -17t10.5 -11.5q8 -4 13.5 -0.5t13.5 9t19.5 11t29.5 5.5q36 0 64 -25.5t28 -76.5q0 -52 -31 -83t-82 -31t-82 36t-31 119q0 12 0.5 37.5t0.5 69.5v470h210v-344z" />
    <glyph glyph-name="m" unicode="m" horiz-adv-x="766" 
d="M35 326q0 49 12.5 84.5t34 58t50 33.5t59.5 11t64 -11.5t58.5 -41t38 -79.5t2.5 -127q-4 -34 -3 -55t6 -32.5t13 -15.5t18 -4q22 0 32 19.5t-1 74.5q-5 25 -7 55.5t1.5 61t13.5 59t30.5 50.5t51.5 35.5t76 13.5q83 0 114.5 -51t31.5 -159v-306h-210v310q0 8 -2 16.5
t-14 6.5q-14 -3 -19 -19t-8 -43q-4 -41 -1 -77.5t7.5 -68t6.5 -57t-4.5 -43.5t-25 -27.5t-55.5 -9.5q-50 0 -77.5 16.5t-39.5 44t-13.5 62.5t0.5 71t3 70.5t-7 60.5q-3 11 -6.5 13t-7.5 2q-8 -1 -10.5 -8t-2.5 -15v-305h-210v326z" />
    <glyph glyph-name="n" unicode="n" horiz-adv-x="620" 
d="M35 238q0 37 21 52t45 15q21 0 38.5 -8t32.5 -18t26.5 -18t19.5 -8q7 0 11 8q6 13 -3.5 27t-23 31.5t-26 39.5t-12.5 51q0 33 17.5 53.5t41.5 32t50.5 15.5t45.5 4q60 0 109 -16.5t84 -47.5t54 -73.5t19 -95.5v-282h-210v276q0 32 -13.5 46t-29.5 14q-17 0 -19.5 -15.5
t17.5 -42.5q7 -10 14 -23.5t10 -28.5t0 -30t-16 -29q-11 -11 -22.5 -15.5t-22.5 -4.5q-15 0 -28 5.5t-20 12.5v-165h-210v238z" />
    <glyph glyph-name="o" unicode="o" horiz-adv-x="621" 
d="M25 230q0 20 3 39t11.5 34.5t23 25t37.5 9.5q18 0 35.5 -6t33.5 -13.5t29.5 -14t23.5 -6.5q9 0 13 6q9 11 -5 26t-31.5 33.5t-29.5 40.5t0 49q8 18 25 30t39.5 20t48.5 11.5t53 3.5q126 0 193.5 -69t67.5 -197t-70.5 -197t-214.5 -69q-143 0 -214.5 66.5t-71.5 177.5z
M237 199q18 -35 69 -35q49 0 68 26.5t19 65.5q0 23 -6.5 42t-25.5 32q-10 6 -16 6q-8 0 -9.5 -9.5t5.5 -24.5q19 -36 -2 -64q-17 -23 -45 -23q-17 0 -29 8q-10 6 -19 6t-13 -7.5t4 -22.5z" />
    <glyph glyph-name="p" unicode="p" horiz-adv-x="631" 
d="M35 247q0 128 70.5 197t214.5 69t215 -69t71 -197q0 -64 -14.5 -112.5t-39 -81.5t-57.5 -49.5t-70 -16.5q-20 0 -43 6t-42 19.5t-32 35t-14 53.5q0 16 2 31.5t2 28.5t-3 22t-14 12q-18 5 -25.5 -15t-10 -55.5t-1.5 -82.5t1 -96v-196h-210v497zM268 259q6 12 20 22t31 10
q12 0 24 -6q22 -11 30.5 -35t-3.5 -50q-8 -16 -4 -21t7 -6q8 -3 13.5 5.5t9.5 21t5.5 26t1.5 21.5q0 40 -17 64t-66 24q-43 0 -61 -19t-20 -51q-1 -21 12 -21q10 0 17 15z" />
    <glyph glyph-name="q" unicode="q" horiz-adv-x="631" 
d="M386 -250v196q0 49 1 96t-1.5 82.5t-10 55.5t-25.5 15q-11 -3 -14 -12t-3 -22t2 -28.5t2 -31.5q-1 -32 -14 -53.5t-32 -35t-42 -19.5t-43 -6q-37 0 -69.5 16.5t-57.5 49.5t-39.5 81.5t-14.5 112.5q0 128 71 197t215 69t214.5 -69t70.5 -197v-497h-210zM363 259
q8 -15 17 -15q5 0 9 5t3 16q-2 32 -20 51t-61 19q-49 0 -66 -24t-17 -64q0 -8 1.5 -21.5t5.5 -26t9.5 -21t13.5 -5.5q3 1 7 6t-4 21q-12 26 -3.5 50t30.5 35q12 6 24 6q17 0 31 -10t20 -22z" />
    <glyph glyph-name="r" unicode="r" horiz-adv-x="487" 
d="M35 282q0 53 19 95.5t54 73.5t84 47.5t109 16.5q19 0 45.5 -4t50.5 -15.5t41.5 -32t17.5 -53.5q0 -29 -12.5 -51t-26 -40t-22.5 -32.5t-3 -28.5q4 -9 12 -9q10 0 20.5 7t20.5 7q7 0 13 -7q10 -15 -3.5 -38t-43.5 -39q-7 -3 -28 -11.5t-46 -8.5q-14 0 -28.5 5t-25.5 17
q-20 23 -13.5 50.5t21.5 48.5q19 26 16.5 41t-19.5 15q-16 0 -29.5 -14t-13.5 -46v-276h-210v282z" />
    <glyph glyph-name="s" unicode="s" horiz-adv-x="594" 
d="M148 310q-13 0 -18.5 -6t-0.5 -15q7 -10 25.5 -14.5t44.5 -4.5q51 0 107 14q48 12 87 12q80 0 123 -40.5t43 -103.5q0 -29 -10 -56.5t-31 -48.5t-53.5 -34t-78.5 -13h-329v190h253q45 0 74.5 4.5t46 12t23 16.5t4.5 18q-3 18 -30 18q-15 0 -33.5 -4t-38.5 -10t-39.5 -12
t-35.5 -11q-54 -15 -96 -15q-76 0 -113 41t-37 105q0 39 13.5 67t37.5 46t58 26t76 8h337v-190h-409z" />
    <glyph glyph-name="t" unicode="t" horiz-adv-x="392" 
d="M38 324q0 30 6 49.5t16.5 30t23.5 14.5t28 4q20 0 40.5 -4.5t34.5 -4.5q11 0 17.5 4.5t4.5 18.5q-2 20 -16.5 26.5t-34 8.5t-42 3t-42 9.5t-32 28.5t-12.5 59v129h210v-154q0 -22 10.5 -34t26.5 -18.5t34 -11t33 -11t24.5 -18t7.5 -32.5q-1 -20 -11.5 -29.5t-24.5 -14
t-30 -7t-30 -8.5t-23 -18t-9 -36v-118h88v-190h-157q-64 0 -102.5 38.5t-38.5 102.5v183z" />
    <glyph glyph-name="u" unicode="u" horiz-adv-x="620" 
d="M585 218q0 -52 -19 -95t-54 -74t-84 -47.5t-109 -16.5q-19 0 -45.5 4t-50.5 15.5t-41.5 32t-17.5 53.5q0 29 12.5 51t26 39.5t23 31.5t3.5 27q-4 8 -11 8q-8 0 -19.5 -8t-26.5 -18t-32.5 -18t-38.5 -8q-24 0 -45 15t-21 52v238h210v-165q7 7 20 12.5t28 5.5
q11 0 22.5 -4.5t22.5 -15.5q13 -13 16 -28.5t0 -30.5t-10 -28.5t-14 -23.5q-20 -27 -17.5 -42.5t19.5 -15.5q16 0 29.5 14t13.5 46v276h210v-282z" />
    <glyph glyph-name="v" unicode="v" horiz-adv-x="608" 
d="M513 133q-8 -32 -23 -58.5t-40 -45t-60.5 -29t-85.5 -10.5t-86 10t-61 28t-40 42.5t-23 53.5q-7 28 -6.5 49.5t6.5 38.5t16 29t21 20q15 11 28.5 15t24 7t17.5 6t8 11q3 15 -15.5 18.5t-42.5 -0.5q-53 -8 -83.5 14.5t-44.5 76.5l-23 91h211l19 -72q6 -21 17 -35.5
t23.5 -24.5t23.5 -15.5t16 -8.5q11 -6 15.5 -16.5t2.5 -23t-10.5 -26t-23.5 -24.5q-7 -5 -17 -19.5t-4 -44.5l25 -133l89 443h221z" />
    <glyph glyph-name="w" unicode="w" horiz-adv-x="762" 
d="M727 145q0 -78 -38.5 -117.5t-109.5 -39.5q-23 0 -49 6t-48 26.5t-36.5 58.5t-14.5 101q0 12 -0.5 40t-4.5 56.5t-14 50.5t-30 22q-11 0 -19 -9t-10.5 -25.5t1.5 -42t18 -58.5q26 -61 22.5 -104.5t-27.5 -71t-64.5 -40t-90.5 -12.5q-51 0 -85.5 12.5t-54.5 35.5t-28.5 55
t-8.5 71v340h210v-365q0 -6 1 -12.5t9 -4.5q11 3 20 21t13 42q4 28 2 63t-4.5 71.5t-2.5 72t7.5 63t26 44.5t53.5 17q38 0 60 -21t32.5 -54.5t13.5 -74.5t3.5 -82t0.5 -76.5t6 -57.5q5 -20 12 -22t9 -2q6 1 8 6t2 11v361h210v-355z" />
    <glyph glyph-name="x" unicode="x" horiz-adv-x="667" 
d="M179 249l-179 251h238l63 -88q19 -26 32 -54.5t24 -57t20.5 -56.5t20.5 -54q20 -45 42 -70t42 -25q11 0 22 11q17 17 8.5 40t-29 50.5t-46.5 58t-44.5 62.5t-22.5 64.5t19 64.5l39 54h239l-92 -129q-21 -29 -29 -53.5t-6 -47t13.5 -43.5t30.5 -42q32 -36 43.5 -67.5
t8.5 -56t-17 -42t-34 -26.5q-17 -8 -40 -8q-33 0 -66 17.5t-62 41t-51 48t-33 39.5l-93 -131h-238z" />
    <glyph glyph-name="y" unicode="y" horiz-adv-x="636" 
d="M226 500l54 -124q19 -44 23 -87t-2 -83.5t-18.5 -76.5t-26.5 -66t-26.5 -52t-17.5 -35q-8 -20 -4 -34t18 -14q7 0 17 6q22 13 36 44.5t23.5 73t16 90t13 95t14 87.5t19.5 69l46 107h225l-297 -504q-20 -34 -47 -74t-57 -75t-61.5 -58.5t-60.5 -23.5q-11 0 -24 5
q-17 7 -28 25t-9 43t20 54.5t58 61.5q48 37 61.5 71t6 69t-29 73.5t-44.5 83.5l-124 249h226z" />
    <glyph glyph-name="z" unicode="z" horiz-adv-x="594" 
d="M557 0h-337q-42 0 -76 8t-58 26t-37.5 46t-13.5 67q0 64 37 105t113 41q42 0 96 -15q16 -4 35.5 -10.5t39.5 -12.5t38.5 -10t33.5 -4q27 0 30 18q2 9 -4.5 18t-23 16.5t-46 12t-74.5 4.5h-253v190h329q46 0 78.5 -13t53.5 -34t31 -48.5t10 -56.5q0 -63 -43 -103.5
t-123 -40.5q-39 0 -87 12q-56 14 -107 14q-26 0 -44.5 -4.5t-25.5 -14.5q-5 -9 0.5 -15t18.5 -6h409v-190z" />
    <glyph glyph-name="braceleft" unicode="{" horiz-adv-x="368" 
d="M333 -150h-34.5t-38.5 3t-39.5 9t-37.5 18q-29 19 -45 48.5t-23 60.5t-7.5 59.5t-0.5 47.5q1 52 -0.5 82t-6.5 45t-14.5 19t-25.5 4h-25v76h25q16 0 25.5 4t14.5 19t6.5 45t0.5 82q0 19 0.5 47.5t7.5 59.5t23 60.5t45 48.5q18 12 37.5 18t39.5 9t38.5 3h34.5v-72
q-18 1 -33 -4t-26.5 -26t-18 -62.5t-6.5 -113.5v-48t-4.5 -43t-16 -36.5t-33.5 -28.5q22 -12 33.5 -28.5t16 -36.5t4.5 -43v-48q0 -72 6.5 -113.5t18 -62.5t26.5 -26t33 -4v-72z" />
    <glyph glyph-name="bar" unicode="|" horiz-adv-x="240" 
d="M35 750h170v-1000h-170v1000z" />
    <glyph glyph-name="braceright" unicode="}" horiz-adv-x="368" 
d="M35 -78q18 -1 33 4t26.5 26t18 62.5t6.5 113.5v48t4.5 43t16 36.5t33.5 28.5q-22 12 -33.5 28.5t-16 36.5t-4.5 43v48q0 72 -6.5 113.5t-18 62.5t-26.5 26t-33 4v72h34.5t38.5 -3t39.5 -9t37.5 -18q29 -19 45 -48.5t23 -60.5t7.5 -59.5t0.5 -47.5q-1 -52 0.5 -82t6.5 -45
t14.5 -19t25.5 -4h25v-76h-25q-16 0 -25.5 -4t-14.5 -19t-6.5 -45t-0.5 -82q0 -19 -0.5 -47.5t-7.5 -59.5t-23 -60.5t-45 -48.5q-18 -12 -37.5 -18t-39.5 -9t-38.5 -3h-34.5v72z" />
    <glyph glyph-name="asciitilde" unicode="~" horiz-adv-x="572" 
d="M157 613q11 23 25.5 40t45.5 17q18 0 31.5 -6.5t24.5 -13.5t21 -12t21 -3q6 1 11 3.5t9 5.5q4 4 7 8l22 -24q-1 -9 -5 -21t-11.5 -23.5t-18 -19.5t-24.5 -8q-10 0 -24 6q-20 10 -35.5 26t-32.5 18q-7 1 -14 -1.5t-13 -5.5l-14 -8z" />
    <glyph glyph-name="exclamdown" unicode="&#xa1;" horiz-adv-x="278" 
d="M46 425q0 42 25.5 67t67.5 25t67.5 -25t25.5 -67t-25.5 -67.5t-67.5 -25.5t-67.5 25.5t-25.5 67.5zM75 281h128l40 -509h-208z" />
    <glyph glyph-name="cent" unicode="&#xa2;" horiz-adv-x="566" 
d="M253 -9q-29 6 -56 20.5t-38 39.5q-8 18 -4.5 33.5t12.5 30t21.5 26.5t22.5 23t15 20t-1 17q-4 6 -13 6t-22 -6.5t-28.5 -14t-32.5 -14t-35 -6.5q-23 0 -38 9.5t-24 25.5t-13 35.5t-4 38.5q0 49 17 89.5t48 71.5t75 51t98 27v148h123v-148q57 -8 101.5 -29.5t73.5 -53.5
l-129 -129q-31 24 -58.5 31t-46.5 7q-32 0 -55.5 -11t-34.5 -28q-8 -13 -4 -19.5t13 -6.5t19 6q12 8 29 8q28 0 45 -23q20 -28 2 -65q-10 -20 -4 -27t17 -7q17 0 39 12t39 28l129 -134q-35 -35 -80 -54.5t-95 -27.5v-152h-123v152z" />
    <glyph glyph-name="sterling" unicode="&#xa3;" horiz-adv-x="591" 
d="M15 481l47 4v10q0 78 27.5 129t68.5 81.5t88 42.5t87 12q59 0 109.5 -26.5t99.5 -91.5l-60 -59q-23 29 -55 46.5t-66 17.5q-20 0 -41.5 -7.5t-39.5 -24t-29.5 -43t-11.5 -64.5v-27h178v-129h-178v-95q0 -29 13 -29q8 0 20.5 8.5t28 18.5t32.5 18.5t34 8.5q23 0 41 -17
q20 -19 19.5 -39t-4 -37t-2.5 -28t24 -11h131v-150h-292q-11 0 -22 0.5t-20 3.5t-15 10t-8 20q-2 21 9.5 34t21.5 19q15 10 32.5 16.5t30.5 12t18.5 12t-3.5 16.5q-10 12 -25 12q-16 0 -35.5 -10t-42 -21.5t-47 -21t-50.5 -8.5q-31 1 -50 22t-19 79q0 47 0.5 85.5t0.5 70.5
h-45v129z" />
    <glyph glyph-name="currency" unicode="&#xa4;" horiz-adv-x="512" 
d="M109 250q-26 41 -26 98t26 98l-74 73l61 61l78 -78q36 17 81 17q23 0 43.5 -5t38.5 -13l79 79l61 -61l-76 -76q24 -39 24 -95t-24 -95l76 -76l-61 -61l-79 79q-18 -8 -38.5 -13t-43.5 -5q-45 0 -81 17l-78 -78l-61 61zM159 348q0 -43 26 -69t69 -26t69 26t26 69t-26 69
t-69 26t-69 -26t-26 -69z" />
    <glyph glyph-name="yen" unicode="&#xa5;" horiz-adv-x="712" 
d="M86 302h132q6 20 1 39h-133v57h104q-11 14 -23 30t-25 35l-126 179h227l63 -93q26 -38 28 -76.5t-10 -74.5h22q8 39 18 74.5t30 64.5l74 105h228l-172 -244h60v-57h-100l-28 -39h128v-57h-168l-22 -31q-18 -25 -46.5 -57t-61 -60t-66.5 -47t-64 -19q-18 0 -35 9
q-18 11 -22.5 27.5t-0.5 35.5t14.5 39t22.5 37.5t23 31t16 19.5q4 4 7 7.5t6 7.5h-101v57zM326 302q3 10 5 19.5t4 19.5h-37q-6 -11 -12.5 -20.5t-12.5 -18.5h53zM233 245q-12 -17 -18 -30t-1 -21l8.5 -8.5t18.5 -6.5q10 0 20 7t18.5 17t15 21.5t10.5 20.5h-72z" />
    <glyph glyph-name="brokenbar" unicode="&#xa6;" horiz-adv-x="240" 
d="M35 750h170v-396h-170v396zM35 146h170v-396h-170v396z" />
    <glyph glyph-name="section" unicode="&#xa7;" horiz-adv-x="444" 
d="M32 164h198q35 0 58 4t36 10.5t18 14.5t3 15q-1 15 -23 15q-11 0 -26 -3.5t-30.5 -8.5t-31 -10.5t-28.5 -9.5q-40 -13 -74 -13q-59 0 -88 35.5t-29 91.5q0 68 40 97.5t105 29.5h75q35 0 57.5 4t35.5 10t18 14t4 16q-3 15 -23 15q-11 0 -26 -3.5t-30.5 -8.5t-31 -10.5
t-28.5 -9.5q-40 -13 -75 -13q-59 0 -87.5 35t-28.5 91q0 34 10.5 58t29.5 39.5t45.5 22.5t58.5 7h263v-164h-319q-10 0 -14.5 -5t-0.5 -13q5 -8 20.5 -12.5t35.5 -4.5q19 0 40.5 3.5t41.5 9.5q36 10 68 10q63 0 96.5 -34.5t33.5 -89.5q0 -25 -7.5 -48.5t-24 -42t-42 -29.5
t-61.5 -11h-191q-10 0 -14.5 -5t0.5 -13q5 -9 20 -13t35 -4q19 0 40.5 3t42.5 9q36 10 68 10q62 0 95.5 -34.5t33.5 -89.5q0 -25 -7.5 -48.5t-24 -42t-42 -29.5t-61.5 -11h-257v164z" />
    <glyph glyph-name="dieresis" unicode="&#xa8;" horiz-adv-x="348" 
d="M35 609q0 29 18 47t47 18t47 -18t18 -47t-18 -47t-47 -18t-47 18t-18 47zM183 609q0 29 18 47t47 18t47 -18t18 -47t-18 -47t-47 -18t-47 18t-18 47z" />
    <glyph glyph-name="copyright" unicode="&#xa9;" horiz-adv-x="832" 
d="M86 350q0 85 27 154t76.5 118.5t118.5 76.5t154 27t154 -27t118.5 -76.5t76.5 -118.5t27 -154t-27 -154t-76.5 -118.5t-118.5 -76.5t-154 -27t-154 27t-118.5 76.5t-76.5 118.5t-27 154zM148 350q0 -71 22.5 -129t63.5 -99t99 -63.5t129 -22.5t128.5 22.5t98.5 63.5
t63.5 99t22.5 129t-22.5 128.5t-63.5 98.5t-98.5 63.5t-128.5 22.5t-129 -22.5t-99 -63.5t-63.5 -98.5t-22.5 -128.5zM627 167q-26 -17 -68.5 -26.5t-83.5 -9.5q-53 0 -97 18.5t-61 59.5q-11 26 -6.5 48.5t18.5 38.5q6 7 12.5 12t11.5 9t7.5 8t-0.5 8q-4 6 -14 6
q-6 0 -12.5 -2t-12.5 -4q-16 -6 -31 -6q-44 0 -44 59q0 34 16 66t45 56.5t71.5 39.5t94.5 15q45 0 88.5 -10.5t65.5 -25.5l-42 -110q-25 20 -52 26.5t-50 6.5q-52 0 -77.5 -19t-25.5 -40q0 -12 10 -12q5 0 10.5 1t12.5 1t14 -3t13 -11q9 -12 8 -23t-6.5 -21.5t-12 -20
t-8.5 -17.5q-2 -10 4 -17.5t16.5 -13t23 -8t24.5 -2.5q11 0 24 2t26.5 6.5t25.5 10.5t20 14z" />
    <glyph glyph-name="ordfeminine" unicode="&#xaa;" horiz-adv-x="358" 
d="M43.4678 700.286q67.4541 0 113.672 -0.3125q46.2188 -0.311523 63.082 -0.311523q26.8564 0.624023 48.7168 -2.18652t37.1621 -10.3057q15.3018 -7.49414 23.7334 -19.9863q8.43164 -12.4912 8.43164 -31.2285q0.625 -27.4805 -14.9893 -43.7197t-39.6602 -25.6074
q-24.0469 -9.36914 -51.8398 -14.0527q-27.7939 -4.68457 -51.5273 -9.68066q-23.7334 -4.99707 -39.6602 -12.8047q-15.9268 -7.80664 -15.9268 -22.7969q0 -9.99316 7.80664 -16.2383q7.80762 -6.24609 22.1729 -4.99707q17.4883 1.24902 35.9131 11.2422t36.5371 21.5479
t35.6006 20.9238q17.4883 9.36816 32.4775 9.36816q16.8643 0 26.5449 -13.1162q9.68066 -13.1152 9.68066 -35.6006v-112.423h-131.16q0 8.74414 2.18555 25.2949q2.18652 16.5518 9.68164 35.9131q-21.8604 -31.2285 -52.4648 -49.9658
q-30.6035 -18.7373 -62.457 -18.7373q-13.1162 0 -28.1055 3.74805q-14.9902 3.74707 -27.7939 12.8037q-12.8037 9.05566 -21.2354 24.3584q-8.43164 15.3018 -8.43164 37.7861q0 14.3652 4.68457 28.7305q4.68359 14.3652 16.8633 27.4814
q12.1787 13.1162 34.0391 24.0459t55.5869 18.4248q40.5977 8.74414 40.5977 18.1123q0 5.62109 -25.6074 5.62109h-94.3105v118.669z" />
    <glyph glyph-name="guillemotleft" unicode="&#xab;" horiz-adv-x="494" 
d="M219 263h-1l188 187l73 -72l-115 -115l115 -116l-73 -72l-188 187zM16 263h-1l188 187l73 -72l-115 -115l115 -116l-73 -72l-188 187z" />
    <glyph glyph-name="logicalnot" unicode="&#xac;" horiz-adv-x="572" 
d="M60 372h444v-226h-105v121h-339v105z" />
    <glyph glyph-name="registered" unicode="&#xae;" horiz-adv-x="923" 
d="M86 350q0 85 27 154t76.5 118.5t118.5 76.5t154 27t154 -27t118.5 -76.5t76.5 -118.5t27 -154t-27 -154t-76.5 -118.5t-118.5 -76.5t-154 -27t-154 27t-118.5 76.5t-76.5 118.5t-27 154zM148 350q0 -71 22.5 -129t63.5 -99t99 -63.5t129 -22.5t128.5 22.5t98.5 63.5
t63.5 99t22.5 129t-22.5 128.5t-63.5 98.5t-98.5 63.5t-128.5 22.5t-129 -22.5t-99 -63.5t-63.5 -98.5t-22.5 -128.5zM294 536h279q44 0 60 -19.5t16 -46.5q0 -25 -9 -42.5t-21 -28.5t-23 -17t-16 -8q-17 -7 -31.5 -11.5t-24 -9t-13.5 -9t0 -11.5t13 -7q11 0 25.5 6.5
t31.5 7.5q20 1 37 -11t24 -41l28 -119h-124l-19 91q-3 14 -9.5 19.5t-17.5 5.5t-21 -2.5t-19 -2.5q-7 0 -13.5 2.5t-12.5 10.5q-12 16 -8 33t21 28q11 8 26 13.5t28.5 11t22.5 13t9 20.5q0 4 -3.5 11.5t-21.5 7.5h-93v-262h-121v367z" />
    <glyph glyph-name="macron" unicode="&#xaf;" horiz-adv-x="260" 
 />
    <glyph glyph-name="degree" unicode="&#xb0;" horiz-adv-x="376" 
d="M35 573q0 34 11 62t31 48t48.5 31t62.5 11q35 0 63 -11t48 -31t31 -48t11 -62q0 -69 -42 -111t-111 -42t-111 42t-42 111zM109 573q0 -35 22 -57t57 -22t56.5 22t21.5 57t-21.5 56.5t-56.5 21.5t-57 -21.5t-22 -56.5z" />
    <glyph glyph-name="plusminus" unicode="&#xb1;" horiz-adv-x="551" 
d="M35 521h161v161h160v-161h160v-160h-160v-160h-160v160h-161v160zM35 160h481v-160h-481v160z" />
    <glyph glyph-name="twosuperior" unicode="&#xb2;" horiz-adv-x="337" 
d="M103.392 342q-17.6455 0 -34.2529 3.37305q-16.6074 3.37402 -29.582 11.418t-21.0186 20.5q-8.04492 12.4551 -8.04492 30.1006q0 23.873 12.9746 38.9238t32.6963 27.5059q15.5693 9.86035 31.3984 18.1641t27.7656 16.0889t17.9043 15.0508
q5.96875 7.26562 1.29785 15.0498q-3.63281 6.22852 -10.6396 8.04492q-7.00586 1.81641 -16.3477 2.59473t-20.2402 1.55664t-21.2783 3.89258q-5.18945 1.55664 -13.4932 5.44922t-16.0889 11.418q-7.78418 7.52539 -13.2334 18.9424q-5.44922 11.418 -5.44922 28.5439
q0 22.835 10.8984 39.9619q10.8984 17.126 30.8789 28.8037q19.9814 11.6768 47.2275 17.6455q27.2471 5.96777 59.9424 5.96777q30.6201 0 57.8662 -5.44922q27.2471 -5.44922 47.4873 -16.3477t32.1768 -28.0254q11.9365 -17.126 11.9365 -40.4805
q0 -25.9492 -14.5312 -45.6709q-14.5312 -19.7207 -36.0693 -34.7715t-46.9678 -26.4678q-25.4307 -11.418 -46.9678 -21.0186q-21.5381 -9.60156 -36.0693 -18.6836t-14.5312 -18.9434q0 -6.22754 5.96777 -10.3789q5.96875 -4.15234 19.4619 -4.15234h156.732v-98.6064
h-199.808zM157.365 530.909q4.6709 -4.6709 11.9365 -4.6709q6.74707 0 14.5322 3.89258q7.78418 3.89258 14.2715 10.8984q6.4873 7.00684 10.8984 16.8672t4.41113 22.3164q-0.518555 19.2021 -11.417 27.2461q-10.8984 8.04492 -29.582 8.04492
q-12.4561 0 -21.0186 -3.11426q-8.56348 -3.11426 -13.7529 -7.52539q-5.19043 -4.41113 -7.2666 -9.60059q-2.0752 -5.19043 -2.0752 -9.3418q0 -4.6709 2.33496 -6.22852q2.33594 -1.55664 5.96875 -1.55664q6.22754 0 14.0127 1.29785q7.78418 1.29688 11.9365 -4.93066
q2.59473 -4.6709 0.77832 -10.6387q-1.81641 -5.96875 -4.6709 -11.6777t-4.15234 -11.417q-1.29688 -5.70898 2.85449 -9.86133z" />
    <glyph glyph-name="threesuperior" unicode="&#xb3;" horiz-adv-x="311" 
d="M5.11328 440.986h157.843q24.8408 0 38.0371 7.7627q13.1973 7.7627 9.57422 23.8057q-1.55273 7.24512 -5.95117 9.83301q-4.39941 2.58691 -10.6094 2.58691q-8.79785 0 -20.4424 -3.88086q-11.6436 -3.88184 -24.582 -8.28027q-12.9375 -4.39941 -26.1338 -8.28027
q-13.1973 -3.88184 -25.6172 -3.88184q-9.83301 0 -18.3721 3.10547q-8.53906 3.10449 -15.2666 11.3848q-10.3506 12.9385 -9.05664 30.2754t19.4072 30.2744q10.3496 7.24512 25.875 13.4551q15.5254 6.21094 30.2754 11.6445q14.749 5.43359 25.0996 10.8682
q10.3496 5.43359 9.83203 11.6436q0 1.55273 -0.257812 3.62305q-0.258789 2.07031 -2.58789 4.39844q-2.3291 2.3291 -7.50391 3.88184q-5.17578 1.55273 -15.5254 1.55273h-134.037v103.503h171.815q20.1836 0 34.1562 -4.39844q13.9727 -4.39941 22.7705 -12.1621
t13.1973 -18.6309q4.39844 -10.8672 4.91602 -23.2881q1.03516 -18.1123 -4.14062 -31.5684q-5.1748 -13.4551 -14.2314 -24.0645t-20.7002 -18.3721q-11.6445 -7.7627 -23.5469 -13.9727q-6.72852 -3.62305 -17.3369 -7.50391q-10.6094 -3.88184 -19.666 -7.7627
q-9.05664 -3.88184 -13.9727 -8.02148q-4.91699 -4.14062 -0.258789 -8.79785q3.62207 -3.62305 10.8672 -3.62305q6.72852 0 16.043 2.84668q9.31543 2.84668 20.1836 6.20996q10.8682 3.36426 23.5469 6.20996q12.6797 2.84668 26.6523 2.84668
q18.6309 0 32.3447 -6.72754t22.2529 -18.6309q8.53906 -11.9023 12.6797 -28.2041q4.13965 -16.3027 4.13965 -35.9678q0 -58.9971 -36.2256 -84.0967q-36.2266 -25.0996 -107.126 -25.0996h-158.36v103.504z" />
    <glyph glyph-name="acute" unicode="&#xb4;" horiz-adv-x="190" 
d="M97 702l98 1l-108 -161h-52z" />
    <glyph glyph-name="paragraph" unicode="&#xb6;" horiz-adv-x="620" 
d="M335 244h-60q-54 0 -98 17.5t-75.5 49t-49 75.5t-17.5 98v26q0 54 17.5 98.5t49 76t75.5 48.5t98 17h310v-909h-83v790h-84v-790h-83v403z" />
    <glyph glyph-name="periodcentered" unicode="&#xb7;" horiz-adv-x="268" 
d="M36 312q0 42 25.5 67.5t67.5 25.5t67.5 -25.5t25.5 -67.5t-25.5 -67t-67.5 -25t-67.5 25t-25.5 67z" />
    <glyph glyph-name="cedilla" unicode="&#xb8;" horiz-adv-x="260" 
d="M82 -99q16 -4 31 -0.5t20 18.5q4 12 -3 19t-17 10q-12 5 -28 6l36 74l33 -6l-27 -46q35 1 56.5 -12t16.5 -41q-4 -27 -28 -41t-57 -14q-19 0 -42 5z" />
    <glyph glyph-name="onesuperior" unicode="&#xb9;" horiz-adv-x="211" 
d="M66.376 570.049q0 21.5283 10.2119 38.6406q10.2129 17.1113 20.9766 29.8076t17.6641 22.0801t-0.276367 16.0078q-2.75977 2.76074 -7.17578 2.76074q-7.72754 0 -17.6641 -9.66016t-22.0801 -21.252q-12.1436 -11.5928 -26.7725 -21.2529
q-14.6279 -9.65918 -31.7402 -9.65918v104.88h99.3613q8.83203 0 16.8359 2.75977q8.00391 2.76074 15.1797 6.34863t14.0762 6.34766t13.5234 2.75977q7.17676 0 13.248 -3.86328q11.041 -6.625 12.6963 -17.9404q1.65625 -11.3164 -0.828125 -24.8398
q-2.4834 -13.5244 -6.34766 -27.6006t-3.86426 -26.2197v-304.153h-115.92z" />
    <glyph glyph-name="ordmasculine" unicode="&#xba;" horiz-adv-x="395" 
d="M11.9199 531.459q0 12.7363 1.91016 24.835t7.32227 21.9688q5.41309 9.87012 14.6465 15.9199q9.2334 6.04883 23.8789 6.04883q11.4619 0 22.6055 -3.82031q11.1445 -3.82129 21.333 -8.59668q10.1885 -4.77637 18.7842 -8.91504q8.59668 -4.13867 14.9648 -4.13867
q5.73047 0 8.27832 3.82031q5.73047 7.00488 -3.18457 16.5566q-8.91406 9.55176 -20.0586 21.332q-11.1436 11.7803 -18.7842 25.7891q-7.6416 14.0098 0 31.2021q5.09375 11.4619 15.9189 19.1035t25.1533 12.7354q14.3271 5.09473 30.8838 7.32324
q16.5557 2.22852 33.749 2.22852q80.2344 0 123.217 -43.9375t42.9824 -125.445t-44.8926 -125.446q-44.8936 -43.9375 -136.59 -43.9375q-91.0596 0 -136.589 42.3457t-45.5293 113.028zM146.917 511.719q11.4619 -22.2871 43.9375 -22.2871q31.2021 0 43.3008 16.875
q12.0996 16.875 12.0996 41.709q0 14.6455 -4.13965 26.7451q-4.13867 12.0986 -16.2373 20.377q-6.36816 3.82031 -10.1885 3.82031q-5.09473 0 -6.0498 -6.0498q-0.955078 -6.04883 3.50195 -15.6006q12.0986 -22.9238 -1.27344 -40.7539
q-10.8252 -14.6465 -28.6553 -14.6465q-10.8252 0 -18.4658 5.09473q-6.36816 3.82031 -12.0996 3.82031q-5.73047 0 -8.27734 -4.77539q-2.54785 -4.77637 2.54688 -14.3281z" />
    <glyph glyph-name="guillemotright" unicode="&#xbb;" horiz-adv-x="494" 
d="M130 263l-115 115l73 72l188 -187h-1l1 -1l-188 -187l-73 72zM333 263l-115 115l73 72l188 -187h-1l1 -1l-188 -187l-73 72z" />
    <glyph glyph-name="onequarter" unicode="&#xbc;" horiz-adv-x="911" 
d="M95 543q0 23 10.5 40t22 30.5t18.5 23t-1 16.5q-3 3 -7 3q-8 0 -18.5 -10t-23 -22t-27.5 -22t-33 -10v109h103q18 0 32.5 9.5t28.5 9.5q7 0 14 -4q12 -7 13.5 -18.5t-1 -25.5t-6.5 -29t-4 -27v-316h-120zM452 700h206l-337 -700h-206zM568 440h122l-30 -178
q-3 -15 -7 -34.5t-5.5 -37t2.5 -29t17 -11.5q15 0 20 14.5t9 32t12 31.5t29 14h2v198h133v-444h-133v126h-16q-10 0 -16 -7.5t-12 -16t-13 -16t-19 -7.5t-18 7.5t-10.5 16t-9.5 16t-14 7.5h-104z" />
    <glyph glyph-name="onehalf" unicode="&#xbd;" horiz-adv-x="987" 
d="M96 542q0 23 11 41t22.5 31.5t19 23.5t-0.5 17q-3 3 -7 3q-8 0 -19 -10.5t-24 -22.5t-28.5 -22.5t-33.5 -10.5v111h105q19 0 34 9.5t29 9.5q8 0 15 -4q12 -7 13.5 -19t-1 -26t-6.5 -29t-4 -28v-323h-124zM489 700h206l-337 -700h-206zM685 -3q-22 0 -42.5 4t-36.5 14
t-26 25.5t-10 37.5q0 29 16.5 47.5t39.5 33.5q20 12 39.5 22.5t34 20t22 18.5t1.5 19q-4 8 -13 10.5t-20 3t-24 1.5t-26 5q-7 2 -17 7t-19.5 14t-16.5 23t-7 35q0 28 13.5 49.5t38 35.5t58.5 21.5t74 7.5q38 0 71.5 -6.5t58.5 -20t39.5 -34.5t14.5 -50q0 -32 -18 -56.5
t-44.5 -43t-58 -33t-58 -26t-44.5 -23t-18 -23.5q0 -8 7.5 -13t23.5 -5h194v-121h-247zM752 229q4 -5 14 -5q9 0 18.5 4.5t18 13.5t13.5 21.5t5 27.5q-1 23 -14.5 33.5t-36.5 10.5q-31 0 -42.5 -13t-11.5 -24q0 -6 2.5 -7.5t7.5 -1.5q8 0 17.5 1.5t14.5 -6.5q3 -6 0.5 -13
t-5.5 -14.5t-4.5 -14.5t3.5 -13z" />
    <glyph glyph-name="threequarters" unicode="&#xbe;" horiz-adv-x="1116" 
d="M29 372h173q32 0 49 10t12 30q-4 16 -21 16q-11 0 -25.5 -5t-31 -10.5t-33.5 -10.5t-33 -5q-12 0 -23 4t-19 14q-14 17 -12 39t25 39q13 9 33 16.5t38 14t31 13.5t13 15q0 4 -3.5 10.5t-29.5 6.5h-143v131h191q52 0 72.5 -21t22.5 -53q1 -22 -5.5 -39.5t-18 -30.5
t-26 -23t-29.5 -18q-9 -4 -22.5 -9t-25 -10t-17.5 -10.5t0 -11.5q5 -5 13 -5q9 0 21 4t26 8.5t30 8t33 3.5q48 -1 69.5 -32.5t21.5 -80.5q0 -75 -45.5 -107t-136.5 -32h-174v131zM638 700h206l-337 -700h-206zM775 442h121l-30 -177q-3 -16 -7 -35.5t-5 -36.5t3 -28.5
t17 -11.5q10 0 15 7t7.5 17.5t5 22t6.5 22t12.5 17t22.5 6.5h1v197h133v-442h-133v125h-15q-10 0 -16 -7t-12 -16t-13.5 -16t-18.5 -7q-12 0 -18 7t-10.5 16t-9.5 16t-14 7h-103z" />
    <glyph glyph-name="questiondown" unicode="&#xbf;" horiz-adv-x="611" 
d="M432 434q0 -42 -25.5 -67.5t-67.5 -25.5t-67.5 25.5t-25.5 67.5t25.5 67t67.5 25t67.5 -25t25.5 -67zM433 318q1 -42 -8 -71t-23.5 -49t-33 -33t-36.5 -23t-33.5 -19t-25.5 -21q-14 -19 -7 -34.5t27 -15.5q9 0 18 4t20 4q14 0 21 -7t5.5 -17.5t-6.5 -19.5
q-6 -10 -5.5 -18t4 -13t9.5 -7.5t11 -3.5q17 -2 37.5 12t37.5 30l131 -134q-48 -49 -113.5 -68t-134.5 -19q-18 0 -39.5 3.5t-41.5 11t-37 20t-25 29.5q-8 18 -4.5 33.5t14 29t24.5 25.5t25 22t16.5 18.5t-0.5 16.5q-4 6 -14 6t-24 -5.5t-30.5 -12t-35 -12t-36.5 -5.5
q-41 0 -62 29t-22 67q0 35 14.5 60t36.5 44.5t48 34.5t48.5 31t38 34t16.5 43h195z" />
    <glyph glyph-name="Agrave" unicode="&#xc0;" 
d="M323 903l88 -1l16 -160h-42zM389 617l-25 -83q-21 -69 -21.5 -115.5t11 -77.5t31.5 -51.5t39.5 -38.5t35.5 -38.5t20 -51.5q5 -40 -15.5 -68.5t-56.5 -31.5q-30 -3 -63.5 16t-68.5 68l-37 -145h-239l40 157q6 24 17 48t27.5 43t38 30.5t49.5 11.5q20 0 39 -7.5t33 -20.5
q12 -10 21.5 -23.5t17.5 -24.5t15 -19t15 -8q7 0 12 4q14 11 9 27t-18.5 33t-31 33.5t-29.5 26.5q-32 27 -59.5 49t-45.5 45.5t-23.5 51.5t4.5 67q11 40 35 74t57.5 59t75 39t87.5 14q48 0 90 -14.5t76.5 -40.5t58.5 -62.5t36 -81.5l132 -511h-239z" />
    <glyph glyph-name="Aacute" unicode="&#xc1;" 
d="M490 903l-108 -161h-52l62 160zM389 617l-25 -83q-21 -69 -21.5 -115.5t11 -77.5t31.5 -51.5t39.5 -38.5t35.5 -38.5t20 -51.5q5 -40 -15.5 -68.5t-56.5 -31.5q-30 -3 -63.5 16t-68.5 68l-37 -145h-239l40 157q6 24 17 48t27.5 43t38 30.5t49.5 11.5q20 0 39 -7.5
t33 -20.5q12 -10 21.5 -23.5t17.5 -24.5t15 -19t15 -8q7 0 12 4q14 11 9 27t-18.5 33t-31 33.5t-29.5 26.5q-32 27 -59.5 49t-45.5 45.5t-23.5 51.5t4.5 67q11 40 35 74t57.5 59t75 39t87.5 14q48 0 90 -14.5t76.5 -40.5t58.5 -62.5t36 -81.5l132 -511h-239z" />
    <glyph glyph-name="Acircumflex" unicode="&#xc2;" 
d="M489 742h-38l-62 86l-62 -86h-38l67 151h67zM389 617l-25 -83q-21 -69 -21.5 -115.5t11 -77.5t31.5 -51.5t39.5 -38.5t35.5 -38.5t20 -51.5q5 -40 -15.5 -68.5t-56.5 -31.5q-30 -3 -63.5 16t-68.5 68l-37 -145h-239l40 157q6 24 17 48t27.5 43t38 30.5t49.5 11.5
q20 0 39 -7.5t33 -20.5q12 -10 21.5 -23.5t17.5 -24.5t15 -19t15 -8q7 0 12 4q14 11 9 27t-18.5 33t-31 33.5t-29.5 26.5q-32 27 -59.5 49t-45.5 45.5t-23.5 51.5t4.5 67q11 40 35 74t57.5 59t75 39t87.5 14q48 0 90 -14.5t76.5 -40.5t58.5 -62.5t36 -81.5l132 -511h-239z
" />
    <glyph glyph-name="Atilde" unicode="&#xc3;" 
d="M233 830q8 17 16.5 32t20.5 26.5t27.5 18t37.5 6.5q27 0 46 -9t34.5 -19.5t29.5 -18t30 -5.5q9 2 16.5 5.5t12.5 8.5t10 11l33 -33q-1 -12 -7.5 -30t-17 -34.5t-26 -28.5t-35.5 -12q-16 0 -34 9q-14 7 -26.5 17.5t-24.5 20.5t-23.5 17t-23.5 8q-10 1 -20.5 -2t-18.5 -8
q-10 -5 -20 -12zM389 617l-25 -83q-21 -69 -21.5 -115.5t11 -77.5t31.5 -51.5t39.5 -38.5t35.5 -38.5t20 -51.5q5 -40 -15.5 -68.5t-56.5 -31.5q-30 -3 -63.5 16t-68.5 68l-37 -145h-239l40 157q6 24 17 48t27.5 43t38 30.5t49.5 11.5q20 0 39 -7.5t33 -20.5
q12 -10 21.5 -23.5t17.5 -24.5t15 -19t15 -8q7 0 12 4q14 11 9 27t-18.5 33t-31 33.5t-29.5 26.5q-32 27 -59.5 49t-45.5 45.5t-23.5 51.5t4.5 67q11 40 35 74t57.5 59t75 39t87.5 14q48 0 90 -14.5t76.5 -40.5t58.5 -62.5t36 -81.5l132 -511h-239z" />
    <glyph glyph-name="Adieresis" unicode="&#xc4;" 
d="M251 809q0 29 18 47t47 18t47 -18t18 -47t-18 -47t-47 -18t-47 18t-18 47zM399 809q0 29 18 47t47 18t47 -18t18 -47t-18 -47t-47 -18t-47 18t-18 47zM389 617l-25 -83q-21 -69 -21.5 -115.5t11 -77.5t31.5 -51.5t39.5 -38.5t35.5 -38.5t20 -51.5q5 -40 -15.5 -68.5
t-56.5 -31.5q-30 -3 -63.5 16t-68.5 68l-37 -145h-239l40 157q6 24 17 48t27.5 43t38 30.5t49.5 11.5q20 0 39 -7.5t33 -20.5q12 -10 21.5 -23.5t17.5 -24.5t15 -19t15 -8q7 0 12 4q14 11 9 27t-18.5 33t-31 33.5t-29.5 26.5q-32 27 -59.5 49t-45.5 45.5t-23.5 51.5t4.5 67
q11 40 35 74t57.5 59t75 39t87.5 14q48 0 90 -14.5t76.5 -40.5t58.5 -62.5t36 -81.5l132 -511h-239z" />
    <glyph glyph-name="Aring" unicode="&#xc5;" 
d="M323 808q0 30 18.5 48.5t48.5 18.5t48.5 -18.5t18.5 -48.5t-18.5 -48.5t-48.5 -18.5t-48.5 18.5t-18.5 48.5zM361 808q0 -13 8 -21t21 -8q14 0 21.5 8t7.5 21q0 29 -29 29q-13 0 -21 -7.5t-8 -21.5zM389 617l-25 -83q-21 -69 -21.5 -115.5t11 -77.5t31.5 -51.5
t39.5 -38.5t35.5 -38.5t20 -51.5q5 -40 -15.5 -68.5t-56.5 -31.5q-30 -3 -63.5 16t-68.5 68l-37 -145h-239l40 157q6 24 17 48t27.5 43t38 30.5t49.5 11.5q20 0 39 -7.5t33 -20.5q12 -10 21.5 -23.5t17.5 -24.5t15 -19t15 -8q7 0 12 4q14 11 9 27t-18.5 33t-31 33.5
t-29.5 26.5q-32 27 -59.5 49t-45.5 45.5t-23.5 51.5t4.5 67q11 40 35 74t57.5 59t75 39t87.5 14q48 0 90 -14.5t76.5 -40.5t58.5 -62.5t36 -81.5l132 -511h-239z" />
    <glyph glyph-name="AE" unicode="&#xc6;" horiz-adv-x="1208" 
d="M540 0l-22 92q-3 8 -5 15t-3 15l-121 495l-25 -83q-21 -69 -21.5 -115.5t11 -77.5t31.5 -51.5t39.5 -38.5t35.5 -38.5t20 -51.5q5 -40 -15.5 -68.5t-56.5 -31.5q-30 -3 -63.5 16t-68.5 68l-37 -145h-239l40 157q6 24 17 48t27.5 43t38 30.5t49.5 11.5q20 0 39 -7.5
t33 -20.5q12 -10 21.5 -23.5t17.5 -24.5t15 -19t15 -8q7 0 12 4q14 11 9 27t-18.5 33t-31 33.5t-29.5 26.5q-32 27 -59.5 49t-45.5 45.5t-23.5 51.5t4.5 67q11 40 35 74t57.5 59t75 39t87.5 14q52 0 97.5 -16.5t80.5 -47.5q32 28 78.5 41t106.5 13h424v-200h-517
q-17 0 -24.5 -8.5t-0.5 -20.5q9 -16 34 -22.5t58 -6.5q54 0 113 14q58 14 113 14q32 0 60 -5.5t49 -18t33.5 -33t12.5 -50.5q0 -43 -25.5 -67.5t-65.5 -36.5t-89 -15t-96 -3h-74t-57 -5q-32 -6 -30 -22q1 -7 7 -10.5t23 -3.5h476v-200h-633zM700 297q31 5 58.5 6t51.5 1
h44.5t33 3t20 10t4.5 21q0 1 -1.5 4t-6 6.5t-12.5 6.5t-23 3q-26 0 -74 -13q-60 -17 -103 -17z" />
    <glyph glyph-name="Ccedilla" unicode="&#xc7;" horiz-adv-x="699" 
d="M674 43q-22 -15 -52 -26.5t-64.5 -19.5t-70.5 -12t-71 -4q-27 0 -54 3l-22 -38q35 1 56.5 -12t16.5 -41q-4 -27 -28 -41t-57 -14q-19 0 -42 5l9 28q16 -4 31 -0.5t20 18.5q4 12 -3 19t-17 10q-12 5 -28 6l31 65q-63 11 -111.5 41.5t-70.5 83.5q-18 44 -10.5 82.5
t32.5 66.5q10 11 20.5 19.5t19 16t12 14t-0.5 13.5q-6 10 -22 10q-11 0 -22.5 -3t-20.5 -7q-31 -11 -54 -11q-36 0 -56 25t-20 76q0 58 27 112t77 96t121.5 67.5t160.5 25.5q39 0 78 -5t74 -13.5t64 -19.5t47 -24l-71 -187q-42 35 -88.5 46t-86.5 11q-44 0 -76.5 -9
t-54.5 -23.5t-32.5 -32.5t-10.5 -36q0 -12 4 -16t12 -4t18 2t21 2q12 0 24.5 -4.5t23.5 -19.5q16 -21 14 -40t-11.5 -37t-21 -34t-14.5 -30q-4 -17 6 -30t27.5 -22t39.5 -13.5t42 -4.5q18 0 41 4t45.5 11t43.5 18t34 24z" />
    <glyph glyph-name="Egrave" unicode="&#xc8;" horiz-adv-x="734" 
d="M362 742l-62 161l88 -1l16 -160h-42zM206 0q-36 0 -67 9.5t-54.5 27.5t-36.5 44t-13 59q0 36 14.5 62t38.5 44.5t55.5 29.5t64.5 17.5t66 8.5t60 2h45.5t34 3t20 10t4.5 21q0 1 -1.5 4t-6 6.5t-12.5 6.5t-23 3q-26 0 -74 -13q-62 -17 -107 -17q-46 0 -80 14t-56 39
t-32.5 59.5t-10.5 74.5q0 47 17.5 82t49 58t75.5 34t98 11h424v-200h-517q-17 0 -24.5 -8.5t-0.5 -20.5q9 -16 34 -22.5t58 -6.5q54 0 113 14q58 14 113 14q32 0 60 -5.5t49 -18t33.5 -33t12.5 -50.5q0 -43 -25.5 -67.5t-65.5 -36.5t-89 -15t-96 -3h-74t-57 -5
q-32 -6 -30 -22q1 -7 7 -10.5t23 -3.5h476v-200h-493z" />
    <glyph glyph-name="Eacute" unicode="&#xc9;" horiz-adv-x="734" 
d="M369 902l98 1l-108 -161h-52zM206 0q-36 0 -67 9.5t-54.5 27.5t-36.5 44t-13 59q0 36 14.5 62t38.5 44.5t55.5 29.5t64.5 17.5t66 8.5t60 2h45.5t34 3t20 10t4.5 21q0 1 -1.5 4t-6 6.5t-12.5 6.5t-23 3q-26 0 -74 -13q-62 -17 -107 -17q-46 0 -80 14t-56 39t-32.5 59.5
t-10.5 74.5q0 47 17.5 82t49 58t75.5 34t98 11h424v-200h-517q-17 0 -24.5 -8.5t-0.5 -20.5q9 -16 34 -22.5t58 -6.5q54 0 113 14q58 14 113 14q32 0 60 -5.5t49 -18t33.5 -33t12.5 -50.5q0 -43 -25.5 -67.5t-65.5 -36.5t-89 -15t-96 -3h-74t-57 -5q-32 -6 -30 -22
q1 -7 7 -10.5t23 -3.5h476v-200h-493z" />
    <glyph glyph-name="Ecircumflex" unicode="&#xca;" horiz-adv-x="734" 
d="M401 893l66 -151h-38l-62 86l-62 -86h-38l67 151h67zM206 0q-36 0 -67 9.5t-54.5 27.5t-36.5 44t-13 59q0 36 14.5 62t38.5 44.5t55.5 29.5t64.5 17.5t66 8.5t60 2h45.5t34 3t20 10t4.5 21q0 1 -1.5 4t-6 6.5t-12.5 6.5t-23 3q-26 0 -74 -13q-62 -17 -107 -17
q-46 0 -80 14t-56 39t-32.5 59.5t-10.5 74.5q0 47 17.5 82t49 58t75.5 34t98 11h424v-200h-517q-17 0 -24.5 -8.5t-0.5 -20.5q9 -16 34 -22.5t58 -6.5q54 0 113 14q58 14 113 14q32 0 60 -5.5t49 -18t33.5 -33t12.5 -50.5q0 -43 -25.5 -67.5t-65.5 -36.5t-89 -15t-96 -3h-74
t-57 -5q-32 -6 -30 -22q1 -7 7 -10.5t23 -3.5h476v-200h-493z" />
    <glyph glyph-name="Edieresis" unicode="&#xcb;" horiz-adv-x="734" 
d="M228 809q0 29 18 47t47 18t47 -18t18 -47t-18 -47t-47 -18t-47 18t-18 47zM376 809q0 29 18 47t47 18t47 -18t18 -47t-18 -47t-47 -18t-47 18t-18 47zM206 0q-36 0 -67 9.5t-54.5 27.5t-36.5 44t-13 59q0 36 14.5 62t38.5 44.5t55.5 29.5t64.5 17.5t66 8.5t60 2h45.5
t34 3t20 10t4.5 21q0 1 -1.5 4t-6 6.5t-12.5 6.5t-23 3q-26 0 -74 -13q-62 -17 -107 -17q-46 0 -80 14t-56 39t-32.5 59.5t-10.5 74.5q0 47 17.5 82t49 58t75.5 34t98 11h424v-200h-517q-17 0 -24.5 -8.5t-0.5 -20.5q9 -16 34 -22.5t58 -6.5q54 0 113 14q58 14 113 14
q32 0 60 -5.5t49 -18t33.5 -33t12.5 -50.5q0 -43 -25.5 -67.5t-65.5 -36.5t-89 -15t-96 -3h-74t-57 -5q-32 -6 -30 -22q1 -7 7 -10.5t23 -3.5h476v-200h-493z" />
    <glyph glyph-name="Igrave" unicode="&#xcc;" horiz-adv-x="330" 
d="M160 742l-62 161l88 -1l16 -160h-42zM50 700h230v-700h-230v700z" />
    <glyph glyph-name="Iacute" unicode="&#xcd;" horiz-adv-x="330" 
d="M167 902l98 1l-108 -161h-52zM50 700h230v-700h-230v700z" />
    <glyph glyph-name="Icircumflex" unicode="&#xce;" horiz-adv-x="330" 
d="M199 893l66 -151h-38l-62 86l-62 -86h-38l67 151h67zM50 700h230v-700h-230v700z" />
    <glyph glyph-name="Idieresis" unicode="&#xcf;" horiz-adv-x="320" 
d="M21 809q0 29 18 47t47 18t47 -18t18 -47t-18 -47t-47 -18t-47 18t-18 47zM169 809q0 29 18 47t47 18t47 -18t18 -47t-18 -47t-47 -18t-47 18t-18 47zM45 700h230v-700h-230v700z" />
    <glyph glyph-name="Eth" unicode="&#xd0;" horiz-adv-x="778" 
d="M35 236h-50v70h50v86q0 27 9 46t23.5 31t33 18t37.5 6q21 0 42 -8q11 -4 21.5 -10.5t20 -12.5t18.5 -10.5t16 -4.5q8 0 14 6q8 8 5 16t-11 16.5t-18.5 16t-18.5 13.5q-34 26 -41 58.5t4 60.5t36 47t55 19h125q78 0 142 -25t109.5 -71t70.5 -111t25 -146q0 -78 -25 -142
t-70.5 -109.5t-109.5 -70.5t-142 -25h-371v236zM384 200q67 0 108 41t41 110q0 47 -20.5 81.5t-55.5 51.5q-12 6 -28 6q-13 0 -24.5 -4t-17.5 -10.5t-4 -16.5t17 -22q32 -26 31 -60.5t-30 -57.5q-18 -14 -38 -14q-14 0 -27 6t-24 13t-19.5 13t-14.5 6q-7 0 -10 -8t-3 -28v-1
h42v-70h-42v-36h119z" />
    <glyph glyph-name="Ntilde" unicode="&#xd1;" horiz-adv-x="775" 
d="M231 830q8 17 16.5 32t20.5 26.5t27.5 18t37.5 6.5q27 0 46 -9t34.5 -19.5t29.5 -18t30 -5.5q9 2 16.5 5.5t12.5 8.5t10 11l33 -33q-1 -12 -7.5 -30t-17 -34.5t-26 -28.5t-35.5 -12q-16 0 -34 9q-14 7 -26.5 17.5t-24.5 20.5t-23.5 17t-23.5 8q-10 1 -20.5 -2t-18.5 -8
q-10 -5 -20 -12zM35 494q0 108 51 162.5t132 54.5q26 0 55.5 -6.5t58.5 -22.5t54.5 -44t41.5 -72q16 -43 18.5 -87t-3 -87t-14.5 -82.5t-16.5 -73t-9 -59t8.5 -40.5q10 -16 31 -16q12 0 24 6.5t21.5 20t15.5 33.5t4 48v28t0.5 36.5t1 39.5t0.5 38v329h230v-515
q0 -55 -17.5 -93t-45.5 -61t-64 -33t-72 -10q-71 0 -114.5 31.5t-68.5 80.5t-35.5 109.5t-14.5 118.5t-6 106.5t-9 74.5q-4 12 -7.5 14.5t-6.5 2.5q-8 -1 -11 -8t-3 -15v-503h-230v494z" />
    <glyph glyph-name="Ograve" unicode="&#xd2;" horiz-adv-x="799" 
d="M333 903l88 -1l16 -160h-42zM232 602q3 48 46.5 82t120.5 34q88 0 157.5 -26.5t117.5 -75t73.5 -116.5t25.5 -151t-25.5 -151t-73.5 -116t-117.5 -74.5t-157.5 -26.5t-157.5 26.5t-117.5 74.5t-73.5 116t-25.5 151q0 27 8.5 54t24.5 49.5t40.5 37t55.5 15.5q36 2 65 -13
t51 -33.5t38 -34.5t26 -16q5 0 8 4q12 13 7.5 24.5t-17 23.5t-30.5 26t-34 31t-27 37.5t-9 47.5zM384 498q-1 -22 14 -40t33 -41q31 -38 38.5 -73.5t-19.5 -56.5q-17 -14 -40 -14q-19 0 -37 13t-29 44q-16 42 -49 42q-25 0 -38 -20.5t-13 -52.5q1 -57 40.5 -91.5
t114.5 -34.5q74 0 112.5 42.5t38.5 134.5t-31.5 138.5t-83.5 47.5q-28 0 -39 -12t-12 -26z" />
    <glyph glyph-name="Oacute" unicode="&#xd3;" horiz-adv-x="799" 
d="M500 903l-108 -161h-52l62 160zM232 602q3 48 46.5 82t120.5 34q88 0 157.5 -26.5t117.5 -75t73.5 -116.5t25.5 -151t-25.5 -151t-73.5 -116t-117.5 -74.5t-157.5 -26.5t-157.5 26.5t-117.5 74.5t-73.5 116t-25.5 151q0 27 8.5 54t24.5 49.5t40.5 37t55.5 15.5
q36 2 65 -13t51 -33.5t38 -34.5t26 -16q5 0 8 4q12 13 7.5 24.5t-17 23.5t-30.5 26t-34 31t-27 37.5t-9 47.5zM384 498q-1 -22 14 -40t33 -41q31 -38 38.5 -73.5t-19.5 -56.5q-17 -14 -40 -14q-19 0 -37 13t-29 44q-16 42 -49 42q-25 0 -38 -20.5t-13 -52.5
q1 -57 40.5 -91.5t114.5 -34.5q74 0 112.5 42.5t38.5 134.5t-31.5 138.5t-83.5 47.5q-28 0 -39 -12t-12 -26z" />
    <glyph glyph-name="Ocircumflex" unicode="&#xd4;" horiz-adv-x="799" 
d="M499 742h-38l-62 86l-62 -86h-38l67 151h67zM232 602q3 48 46.5 82t120.5 34q88 0 157.5 -26.5t117.5 -75t73.5 -116.5t25.5 -151t-25.5 -151t-73.5 -116t-117.5 -74.5t-157.5 -26.5t-157.5 26.5t-117.5 74.5t-73.5 116t-25.5 151q0 27 8.5 54t24.5 49.5t40.5 37
t55.5 15.5q36 2 65 -13t51 -33.5t38 -34.5t26 -16q5 0 8 4q12 13 7.5 24.5t-17 23.5t-30.5 26t-34 31t-27 37.5t-9 47.5zM384 498q-1 -22 14 -40t33 -41q31 -38 38.5 -73.5t-19.5 -56.5q-17 -14 -40 -14q-19 0 -37 13t-29 44q-16 42 -49 42q-25 0 -38 -20.5t-13 -52.5
q1 -57 40.5 -91.5t114.5 -34.5q74 0 112.5 42.5t38.5 134.5t-31.5 138.5t-83.5 47.5q-28 0 -39 -12t-12 -26z" />
    <glyph glyph-name="Otilde" unicode="&#xd5;" horiz-adv-x="799" 
d="M243 830q8 17 16.5 32t20.5 26.5t27.5 18t37.5 6.5q27 0 46 -9t34.5 -19.5t29.5 -18t30 -5.5q9 2 16.5 5.5t12.5 8.5t10 11l33 -33q-1 -12 -7.5 -30t-17 -34.5t-26 -28.5t-35.5 -12q-16 0 -34 9q-14 7 -26.5 17.5t-24.5 20.5t-23.5 17t-23.5 8q-10 1 -20.5 -2t-18.5 -8
q-10 -5 -20 -12zM232 602q3 48 46.5 82t120.5 34q88 0 157.5 -26.5t117.5 -75t73.5 -116.5t25.5 -151t-25.5 -151t-73.5 -116t-117.5 -74.5t-157.5 -26.5t-157.5 26.5t-117.5 74.5t-73.5 116t-25.5 151q0 27 8.5 54t24.5 49.5t40.5 37t55.5 15.5q36 2 65 -13t51 -33.5
t38 -34.5t26 -16q5 0 8 4q12 13 7.5 24.5t-17 23.5t-30.5 26t-34 31t-27 37.5t-9 47.5zM384 498q-1 -22 14 -40t33 -41q31 -38 38.5 -73.5t-19.5 -56.5q-17 -14 -40 -14q-19 0 -37 13t-29 44q-16 42 -49 42q-25 0 -38 -20.5t-13 -52.5q1 -57 40.5 -91.5t114.5 -34.5
q74 0 112.5 42.5t38.5 134.5t-31.5 138.5t-83.5 47.5q-28 0 -39 -12t-12 -26z" />
    <glyph glyph-name="Odieresis" unicode="&#xd6;" horiz-adv-x="799" 
d="M261 809q0 29 18 47t47 18t47 -18t18 -47t-18 -47t-47 -18t-47 18t-18 47zM409 809q0 29 18 47t47 18t47 -18t18 -47t-18 -47t-47 -18t-47 18t-18 47zM232 602q3 48 46.5 82t120.5 34q88 0 157.5 -26.5t117.5 -75t73.5 -116.5t25.5 -151t-25.5 -151t-73.5 -116
t-117.5 -74.5t-157.5 -26.5t-157.5 26.5t-117.5 74.5t-73.5 116t-25.5 151q0 27 8.5 54t24.5 49.5t40.5 37t55.5 15.5q36 2 65 -13t51 -33.5t38 -34.5t26 -16q5 0 8 4q12 13 7.5 24.5t-17 23.5t-30.5 26t-34 31t-27 37.5t-9 47.5zM384 498q-1 -22 14 -40t33 -41
q31 -38 38.5 -73.5t-19.5 -56.5q-17 -14 -40 -14q-19 0 -37 13t-29 44q-16 42 -49 42q-25 0 -38 -20.5t-13 -52.5q1 -57 40.5 -91.5t114.5 -34.5q74 0 112.5 42.5t38.5 134.5t-31.5 138.5t-83.5 47.5q-28 0 -39 -12t-12 -26z" />
    <glyph glyph-name="multiply" unicode="&#xd7;" horiz-adv-x="624" 
d="M74 214l129 128l-129 129l110 110l129 -129l128 128l110 -110l-128 -128l128 -128l-110 -110l-128 129l-129 -129z" />
    <glyph glyph-name="Oslash" unicode="&#xd8;" horiz-adv-x="799" 
d="M232 602q3 48 46.5 82t120.5 34q55 0 102.5 -10.5t87.5 -30.5l41 52h117l-82 -104q53 -49 80.5 -118.5t27.5 -157.5q0 -83 -25.5 -151t-73.5 -116t-117.5 -74.5t-157.5 -26.5q-60 0 -111 12.5t-93 35.5l-23 -29h-117l66 84q-48 48 -72 115.5t-24 149.5q0 27 8.5 54
t24.5 49.5t40.5 37t55.5 15.5q36 2 65 -13t51 -33.5t38 -34.5t26 -16q5 0 8 4q12 13 7.5 24.5t-17 23.5t-30.5 26t-34 31t-27 37.5t-9 47.5zM384 498q-1 -22 14 -40t33 -41q31 -38 38.5 -73.5t-19.5 -56.5q-17 -14 -40 -14q-19 0 -37 13t-29 44q-16 42 -49 42
q-25 0 -38 -20.5t-13 -52.5q1 -57 40.5 -91.5t114.5 -34.5q74 0 112.5 42.5t38.5 134.5t-31.5 138.5t-83.5 47.5q-28 0 -39 -12t-12 -26z" />
    <glyph glyph-name="Ugrave" unicode="&#xd9;" horiz-adv-x="706" 
d="M348 742l-62 161l88 -1l16 -160h-42zM265 700v-433q0 -19 7.5 -38t19.5 -32.5t26.5 -19.5t28.5 0q12 5 13.5 14t-2 21t-9.5 26t-9.5 28t-1.5 28t14 26q9 9 18.5 12t19.5 3q20 0 39 -6.5t33 -6.5q12 0 19 8q6 9 0.5 18.5t-14.5 27.5t-17.5 47t-8.5 77v200h230v-405
q0 -16 -2 -43t-9 -53.5t-20.5 -45.5t-37.5 -19q-20 0 -46 18q-7 6 -16 13l-18 14t-17.5 11.5t-16.5 4.5t-13 -5q-8 -7 -6.5 -17.5t8 -21.5t15 -21.5t13.5 -17.5q24 -32 13.5 -57t-38.5 -41.5t-65 -25t-65 -8.5q-71 0 -129 22.5t-99.5 64t-64 99.5t-22.5 129v405h230z" />
    <glyph glyph-name="Uacute" unicode="&#xda;" horiz-adv-x="706" 
d="M355 902l98 1l-108 -161h-52zM265 700v-433q0 -19 7.5 -38t19.5 -32.5t26.5 -19.5t28.5 0q12 5 13.5 14t-2 21t-9.5 26t-9.5 28t-1.5 28t14 26q9 9 18.5 12t19.5 3q20 0 39 -6.5t33 -6.5q12 0 19 8q6 9 0.5 18.5t-14.5 27.5t-17.5 47t-8.5 77v200h230v-405q0 -16 -2 -43
t-9 -53.5t-20.5 -45.5t-37.5 -19q-20 0 -46 18q-7 6 -16 13l-18 14t-17.5 11.5t-16.5 4.5t-13 -5q-8 -7 -6.5 -17.5t8 -21.5t15 -21.5t13.5 -17.5q24 -32 13.5 -57t-38.5 -41.5t-65 -25t-65 -8.5q-71 0 -129 22.5t-99.5 64t-64 99.5t-22.5 129v405h230z" />
    <glyph glyph-name="Ucircumflex" unicode="&#xdb;" horiz-adv-x="706" 
d="M387 893l66 -151h-38l-62 86l-62 -86h-38l67 151h67zM265 700v-433q0 -19 7.5 -38t19.5 -32.5t26.5 -19.5t28.5 0q12 5 13.5 14t-2 21t-9.5 26t-9.5 28t-1.5 28t14 26q9 9 18.5 12t19.5 3q20 0 39 -6.5t33 -6.5q12 0 19 8q6 9 0.5 18.5t-14.5 27.5t-17.5 47t-8.5 77v200
h230v-405q0 -16 -2 -43t-9 -53.5t-20.5 -45.5t-37.5 -19q-20 0 -46 18q-7 6 -16 13l-18 14t-17.5 11.5t-16.5 4.5t-13 -5q-8 -7 -6.5 -17.5t8 -21.5t15 -21.5t13.5 -17.5q24 -32 13.5 -57t-38.5 -41.5t-65 -25t-65 -8.5q-71 0 -129 22.5t-99.5 64t-64 99.5t-22.5 129v405
h230z" />
    <glyph glyph-name="Udieresis" unicode="&#xdc;" horiz-adv-x="706" 
d="M214 809q0 29 18 47t47 18t47 -18t18 -47t-18 -47t-47 -18t-47 18t-18 47zM362 809q0 29 18 47t47 18t47 -18t18 -47t-18 -47t-47 -18t-47 18t-18 47zM265 700v-433q0 -19 7.5 -38t19.5 -32.5t26.5 -19.5t28.5 0q12 5 13.5 14t-2 21t-9.5 26t-9.5 28t-1.5 28t14 26
q9 9 18.5 12t19.5 3q20 0 39 -6.5t33 -6.5q12 0 19 8q6 9 0.5 18.5t-14.5 27.5t-17.5 47t-8.5 77v200h230v-405q0 -16 -2 -43t-9 -53.5t-20.5 -45.5t-37.5 -19q-20 0 -46 18q-7 6 -16 13l-18 14t-17.5 11.5t-16.5 4.5t-13 -5q-8 -7 -6.5 -17.5t8 -21.5t15 -21.5t13.5 -17.5
q24 -32 13.5 -57t-38.5 -41.5t-65 -25t-65 -8.5q-71 0 -129 22.5t-99.5 64t-64 99.5t-22.5 129v405h230z" />
    <glyph glyph-name="Yacute" unicode="&#xdd;" horiz-adv-x="803" 
d="M404 902l98 1l-108 -161h-52zM279 700l65 -110q28 -48 24 -93t-25 -85.5t-50.5 -76.5t-52 -66t-30 -54t15.5 -40q3 -2 9 -5t14 -3q14 0 34 16.5t42 66.5q17 37 28.5 78t24.5 84t28.5 85t39.5 80l78 123h279l-357 -504q-21 -29 -49.5 -67t-62.5 -71.5t-72 -57t-79 -23.5
q-31 0 -63 18q-30 17 -46 44.5t-13.5 63.5t26 78.5t73.5 90.5q32 30 45 53t10 46t-20 50.5t-46 67.5l-149 211h279z" />
    <glyph glyph-name="Thorn" unicode="&#xde;" horiz-adv-x="646" 
d="M50 700h210v-107q35 6 75 6q144 0 215 -69t71 -197q0 -64 -14.5 -112.5t-39 -81.5t-57.5 -49.5t-70 -16.5q-20 0 -43 6t-42 19.5t-32 35t-14 53.5q0 16 2 31.5t2 28.5t-3 22t-14 12q-19 5 -26.5 -16.5t-9.5 -60.5v-203h-210v699zM283 345q6 12 20 22t31 10q12 0 24 -6
q22 -11 30.5 -35t-3.5 -50q-8 -16 -4 -21t7 -6q8 -3 13.5 5.5t9.5 21t5.5 26t1.5 21.5q0 40 -17 64t-66 24q-43 0 -61 -19t-20 -51q-1 -21 12 -21q10 0 17 15z" />
    <glyph glyph-name="germandbls" unicode="&#xdf;" horiz-adv-x="782" 
d="M50 700h456q39 0 66 -8.5t44 -23.5t25.5 -36t9.5 -45q2 -35 -8 -61t-27.5 -46.5t-40 -35.5t-45.5 -27q-13 -7 -26 -15t-21 -16.5t-10 -17.5t7 -18q7 -7 15 -7q9 0 19 6.5t24.5 14t34 13.5t46.5 6q36 0 62.5 -13t43 -36t24.5 -54.5t8 -69.5q0 -114 -70 -162.5t-207 -48.5
h-79v200h78q48 0 73.5 15t18.5 46q-6 24 -26 24q-13 0 -31 -8t-38 -18t-41.5 -18t-41.5 -8q-15 0 -29 6t-26 20q-22 26 -18 61t47 66q16 11 36.5 22t38.5 22t30 22t11 23q0 3 -0.5 7t-5 8.5t-14.5 7.5t-30 3h-153v-501l-230 1v700z" />
    <glyph glyph-name="agrave" unicode="&#xe0;" horiz-adv-x="599" 
d="M292 542l-62 161l88 -1l16 -160h-42zM76 500q108 0 182 -0.5t101 -0.5q43 1 78 -3.5t59.5 -16.5t38 -32t13.5 -50q1 -44 -24 -70t-63.5 -41t-83 -22.5t-82.5 -15.5t-63.5 -20.5t-25.5 -36.5q0 -16 12.5 -26t35.5 -8q28 2 57.5 18t58.5 34.5t57 33.5t52 15q27 0 42.5 -21
t15.5 -57v-180h-210q0 14 3.5 40.5t15.5 57.5q-35 -50 -84 -80t-100 -30q-21 0 -45 6t-44.5 20.5t-34 39t-13.5 60.5q0 23 7.5 46t27 44t54.5 38.5t89 29.5q65 14 65 29q0 9 -41 9h-151v190z" />
    <glyph glyph-name="aacute" unicode="&#xe1;" horiz-adv-x="599" 
d="M299 702l98 1l-108 -161h-52zM76 500q108 0 182 -0.5t101 -0.5q43 1 78 -3.5t59.5 -16.5t38 -32t13.5 -50q1 -44 -24 -70t-63.5 -41t-83 -22.5t-82.5 -15.5t-63.5 -20.5t-25.5 -36.5q0 -16 12.5 -26t35.5 -8q28 2 57.5 18t58.5 34.5t57 33.5t52 15q27 0 42.5 -21
t15.5 -57v-180h-210q0 14 3.5 40.5t15.5 57.5q-35 -50 -84 -80t-100 -30q-21 0 -45 6t-44.5 20.5t-34 39t-13.5 60.5q0 23 7.5 46t27 44t54.5 38.5t89 29.5q65 14 65 29q0 9 -41 9h-151v190z" />
    <glyph glyph-name="acircumflex" unicode="&#xe2;" horiz-adv-x="599" 
d="M331 693l66 -151h-38l-62 86l-62 -86h-38l67 151h67zM76 500q108 0 182 -0.5t101 -0.5q43 1 78 -3.5t59.5 -16.5t38 -32t13.5 -50q1 -44 -24 -70t-63.5 -41t-83 -22.5t-82.5 -15.5t-63.5 -20.5t-25.5 -36.5q0 -16 12.5 -26t35.5 -8q28 2 57.5 18t58.5 34.5t57 33.5t52 15
q27 0 42.5 -21t15.5 -57v-180h-210q0 14 3.5 40.5t15.5 57.5q-35 -50 -84 -80t-100 -30q-21 0 -45 6t-44.5 20.5t-34 39t-13.5 60.5q0 23 7.5 46t27 44t54.5 38.5t89 29.5q65 14 65 29q0 9 -41 9h-151v190z" />
    <glyph glyph-name="atilde" unicode="&#xe3;" horiz-adv-x="599" 
d="M140 630q8 17 16.5 32t20.5 26.5t27.5 18t37.5 6.5q27 0 46 -9t34.5 -19.5t29.5 -18t30 -5.5q9 2 16.5 5.5t12.5 8.5t10 11l33 -33q-1 -12 -7.5 -30t-17 -34.5t-26 -28.5t-35.5 -12q-16 0 -34 9q-14 7 -26.5 17.5t-24.5 20.5t-23.5 17t-23.5 8q-10 1 -20.5 -2t-18.5 -8
q-10 -5 -20 -12zM76 500q108 0 182 -0.5t101 -0.5q43 1 78 -3.5t59.5 -16.5t38 -32t13.5 -50q1 -44 -24 -70t-63.5 -41t-83 -22.5t-82.5 -15.5t-63.5 -20.5t-25.5 -36.5q0 -16 12.5 -26t35.5 -8q28 2 57.5 18t58.5 34.5t57 33.5t52 15q27 0 42.5 -21t15.5 -57v-180h-210
q0 14 3.5 40.5t15.5 57.5q-35 -50 -84 -80t-100 -30q-21 0 -45 6t-44.5 20.5t-34 39t-13.5 60.5q0 23 7.5 46t27 44t54.5 38.5t89 29.5q65 14 65 29q0 9 -41 9h-151v190z" />
    <glyph glyph-name="adieresis" unicode="&#xe4;" horiz-adv-x="599" 
d="M158 609q0 29 18 47t47 18t47 -18t18 -47t-18 -47t-47 -18t-47 18t-18 47zM306 609q0 29 18 47t47 18t47 -18t18 -47t-18 -47t-47 -18t-47 18t-18 47zM76 500q108 0 182 -0.5t101 -0.5q43 1 78 -3.5t59.5 -16.5t38 -32t13.5 -50q1 -44 -24 -70t-63.5 -41t-83 -22.5
t-82.5 -15.5t-63.5 -20.5t-25.5 -36.5q0 -16 12.5 -26t35.5 -8q28 2 57.5 18t58.5 34.5t57 33.5t52 15q27 0 42.5 -21t15.5 -57v-180h-210q0 14 3.5 40.5t15.5 57.5q-35 -50 -84 -80t-100 -30q-21 0 -45 6t-44.5 20.5t-34 39t-13.5 60.5q0 23 7.5 46t27 44t54.5 38.5
t89 29.5q65 14 65 29q0 9 -41 9h-151v190z" />
    <glyph glyph-name="aring" unicode="&#xe5;" horiz-adv-x="599" 
d="M230 608q0 30 18.5 48.5t48.5 18.5t48.5 -18.5t18.5 -48.5t-18.5 -48.5t-48.5 -18.5t-48.5 18.5t-18.5 48.5zM268 608q0 -13 8 -21t21 -8q14 0 21.5 8t7.5 21q0 29 -29 29q-13 0 -21 -7.5t-8 -21.5zM76 500q108 0 182 -0.5t101 -0.5q43 1 78 -3.5t59.5 -16.5t38 -32
t13.5 -50q1 -44 -24 -70t-63.5 -41t-83 -22.5t-82.5 -15.5t-63.5 -20.5t-25.5 -36.5q0 -16 12.5 -26t35.5 -8q28 2 57.5 18t58.5 34.5t57 33.5t52 15q27 0 42.5 -21t15.5 -57v-180h-210q0 14 3.5 40.5t15.5 57.5q-35 -50 -84 -80t-100 -30q-21 0 -45 6t-44.5 20.5t-34 39
t-13.5 60.5q0 23 7.5 46t27 44t54.5 38.5t89 29.5q65 14 65 29q0 9 -41 9h-151v190z" />
    <glyph glyph-name="ae" unicode="&#xe6;" horiz-adv-x="1024" 
d="M76 500q108 0 182 -0.5t101 -0.5q63 1 107 -9t65 -38q38 30 95.5 44.5t123.5 15.5q54 1 101.5 -6.5t82.5 -25t55 -44.5t20 -64q0 -23 -9 -44.5t-31.5 -40.5t-60 -35t-94.5 -28q-10 -2 -22 -5t-22.5 -6.5t-17 -7t-6.5 -6.5q0 -5 5.5 -7t26.5 -2h210v-190h-362
q-24 0 -46.5 3.5t-42.5 11.5v-15h-210q0 14 3.5 40.5t15.5 57.5q-35 -50 -84 -80t-100 -30q-21 0 -45 6t-44.5 20.5t-34 39t-13.5 60.5q0 23 7.5 46t27 44t54.5 38.5t89 29.5q65 14 65 29q0 9 -41 9h-151v190zM717 259q5 -4 20 -0.5t31.5 13t29 23.5t12.5 31q0 20 -21 28.5
t-58 6.5q-36 -1 -49 -7.5t-8 -14.5q3 -5 10.5 -6t15.5 -2.5t16 -5t12 -13.5t1.5 -18t-6.5 -15t-6.5 -12t0.5 -8zM494 303q-24 -15 -55 -24t-63 -15.5t-62.5 -12t-54.5 -13t-38.5 -18.5t-14.5 -29q0 -16 12.5 -26t35.5 -8q28 2 57.5 18t58.5 34.5t57 33.5t52 15q23 0 37 -15
t19 -41l5 3q13 7 31.5 14.5t34.5 16t25.5 17t5.5 16.5q-4 9 -23 9q-12 0 -26.5 -2.5t-26.5 -3.5q-23 -2 -40 7t-27 24z" />
    <glyph glyph-name="ccedilla" unicode="&#xe7;" horiz-adv-x="566" 
d="M551 73q-48 -49 -114.5 -68t-135.5 -19h-10.5t-10.5 1l-7 -11q35 1 56.5 -12t16.5 -41q-4 -27 -28 -41t-57 -14q-19 0 -42 5l9 28q16 -4 31 -0.5t20 18.5q4 12 -3 19t-17 10q-12 5 -28 6l18 38q-29 7 -54 21t-36 38q-8 18 -4.5 33.5t12.5 30t21.5 26.5t22.5 23t15 20
t-1 17q-4 6 -13 6t-22 -6.5t-28.5 -14t-32.5 -14t-35 -6.5q-23 0 -38 9.5t-24 25.5t-13 35.5t-4 38.5q0 55 21.5 100t60.5 76.5t94 49t122 17.5q80 0 140.5 -23.5t97.5 -63.5l-129 -129q-31 24 -58.5 31t-46.5 7q-32 0 -55.5 -11t-34.5 -28q-8 -13 -4 -19.5t13 -6.5t19 6
q12 8 29 8q28 0 45 -23q20 -28 2 -65q-10 -20 -4 -27t17 -7q17 0 39 12t39 28z" />
    <glyph glyph-name="egrave" unicode="&#xe8;" horiz-adv-x="563" 
d="M277 542l-62 161l88 -1l16 -160h-42zM165 0q-28 0 -55 5t-48 17t-34 32t-13 50t14.5 56t49.5 45q13 7 31.5 14.5t34.5 16t25.5 17t5.5 16.5q-4 9 -23 9q-12 0 -26.5 -2.5t-26.5 -3.5q-43 -2 -64 26t-16 69q5 38 28 65t60 44.5t83.5 26t97.5 9.5q54 1 101.5 -6.5t82.5 -25
t55 -44.5t20 -64q0 -23 -9 -44.5t-31.5 -40.5t-60 -35t-94.5 -28q-10 -2 -22 -5t-22.5 -6.5t-17 -7t-6.5 -6.5q0 -5 5.5 -7t26.5 -2h210v-190h-362zM256 259q5 -4 20 -0.5t31.5 13t29 23.5t12.5 31q0 20 -21 28.5t-58 6.5q-36 -1 -49 -7.5t-8 -14.5q3 -5 10.5 -6t15.5 -2.5
t16 -5t12 -13.5t1.5 -18t-6.5 -15t-6.5 -12t0.5 -8z" />
    <glyph glyph-name="eacute" unicode="&#xe9;" horiz-adv-x="563" 
d="M284 702l98 1l-108 -161h-52zM165 0q-28 0 -55 5t-48 17t-34 32t-13 50t14.5 56t49.5 45q13 7 31.5 14.5t34.5 16t25.5 17t5.5 16.5q-4 9 -23 9q-12 0 -26.5 -2.5t-26.5 -3.5q-43 -2 -64 26t-16 69q5 38 28 65t60 44.5t83.5 26t97.5 9.5q54 1 101.5 -6.5t82.5 -25
t55 -44.5t20 -64q0 -23 -9 -44.5t-31.5 -40.5t-60 -35t-94.5 -28q-10 -2 -22 -5t-22.5 -6.5t-17 -7t-6.5 -6.5q0 -5 5.5 -7t26.5 -2h210v-190h-362zM256 259q5 -4 20 -0.5t31.5 13t29 23.5t12.5 31q0 20 -21 28.5t-58 6.5q-36 -1 -49 -7.5t-8 -14.5q3 -5 10.5 -6t15.5 -2.5
t16 -5t12 -13.5t1.5 -18t-6.5 -15t-6.5 -12t0.5 -8z" />
    <glyph glyph-name="ecircumflex" unicode="&#xea;" horiz-adv-x="563" 
d="M315 693l66 -151h-38l-62 86l-62 -86h-38l67 151h67zM165 0q-28 0 -55 5t-48 17t-34 32t-13 50t14.5 56t49.5 45q13 7 31.5 14.5t34.5 16t25.5 17t5.5 16.5q-4 9 -23 9q-12 0 -26.5 -2.5t-26.5 -3.5q-43 -2 -64 26t-16 69q5 38 28 65t60 44.5t83.5 26t97.5 9.5
q54 1 101.5 -6.5t82.5 -25t55 -44.5t20 -64q0 -23 -9 -44.5t-31.5 -40.5t-60 -35t-94.5 -28q-10 -2 -22 -5t-22.5 -6.5t-17 -7t-6.5 -6.5q0 -5 5.5 -7t26.5 -2h210v-190h-362zM256 259q5 -4 20 -0.5t31.5 13t29 23.5t12.5 31q0 20 -21 28.5t-58 6.5q-36 -1 -49 -7.5
t-8 -14.5q3 -5 10.5 -6t15.5 -2.5t16 -5t12 -13.5t1.5 -18t-6.5 -15t-6.5 -12t0.5 -8z" />
    <glyph glyph-name="edieresis" unicode="&#xeb;" horiz-adv-x="563" 
d="M143 609q0 29 18 47t47 18t47 -18t18 -47t-18 -47t-47 -18t-47 18t-18 47zM291 609q0 29 18 47t47 18t47 -18t18 -47t-18 -47t-47 -18t-47 18t-18 47zM165 0q-28 0 -55 5t-48 17t-34 32t-13 50t14.5 56t49.5 45q13 7 31.5 14.5t34.5 16t25.5 17t5.5 16.5q-4 9 -23 9
q-12 0 -26.5 -2.5t-26.5 -3.5q-43 -2 -64 26t-16 69q5 38 28 65t60 44.5t83.5 26t97.5 9.5q54 1 101.5 -6.5t82.5 -25t55 -44.5t20 -64q0 -23 -9 -44.5t-31.5 -40.5t-60 -35t-94.5 -28q-10 -2 -22 -5t-22.5 -6.5t-17 -7t-6.5 -6.5q0 -5 5.5 -7t26.5 -2h210v-190h-362z
M256 259q5 -4 20 -0.5t31.5 13t29 23.5t12.5 31q0 20 -21 28.5t-58 6.5q-36 -1 -49 -7.5t-8 -14.5q3 -5 10.5 -6t15.5 -2.5t16 -5t12 -13.5t1.5 -18t-6.5 -15t-6.5 -12t0.5 -8z" />
    <glyph glyph-name="igrave" unicode="&#xec;" horiz-adv-x="310" 
d="M158 542l-62 161l88 -1l16 -160h-42zM50 500h210v-500h-210v500z" />
    <glyph glyph-name="iacute" unicode="&#xed;" horiz-adv-x="310" 
d="M130 702l98 1l-108 -161h-52zM50 500h210v-500h-210v500z" />
    <glyph glyph-name="icircumflex" unicode="&#xee;" horiz-adv-x="310" 
d="M182 693l66 -151h-38l-62 86l-62 -86h-38l67 151h67zM50 500h210v-500h-210v500z" />
    <glyph glyph-name="idieresis" unicode="&#xef;" horiz-adv-x="310" 
d="M9 609q0 29 18 47t47 18t47 -18t18 -47t-18 -47t-47 -18t-47 18t-18 47zM157 609q0 29 18 47t47 18t47 -18t18 -47t-18 -47t-47 -18t-47 18t-18 47zM50 500h210v-500h-210v500z" />
    <glyph glyph-name="eth" unicode="&#xf0;" horiz-adv-x="605" 
 />
    <glyph glyph-name="ntilde" unicode="&#xf1;" horiz-adv-x="620" 
d="M153 630q8 17 16.5 32t20.5 26.5t27.5 18t37.5 6.5q27 0 46 -9t34.5 -19.5t29.5 -18t30 -5.5q9 2 16.5 5.5t12.5 8.5t10 11l33 -33q-1 -12 -7.5 -30t-17 -34.5t-26 -28.5t-35.5 -12q-16 0 -34 9q-14 7 -26.5 17.5t-24.5 20.5t-23.5 17t-23.5 8q-10 1 -20.5 -2t-18.5 -8
q-10 -5 -20 -12zM35 238q0 37 21 52t45 15q21 0 38.5 -8t32.5 -18t26.5 -18t19.5 -8q7 0 11 8q6 13 -3.5 27t-23 31.5t-26 39.5t-12.5 51q0 33 17.5 53.5t41.5 32t50.5 15.5t45.5 4q60 0 109 -16.5t84 -47.5t54 -73.5t19 -95.5v-282h-210v276q0 32 -13.5 46t-29.5 14
q-17 0 -19.5 -15.5t17.5 -42.5q7 -10 14 -23.5t10 -28.5t0 -30t-16 -29q-11 -11 -22.5 -15.5t-22.5 -4.5q-15 0 -28 5.5t-20 12.5v-165h-210v238z" />
    <glyph glyph-name="ograve" unicode="&#xf2;" horiz-adv-x="621" 
d="M306 542l-62 161l88 -1l16 -160h-42zM25 230q0 20 3 39t11.5 34.5t23 25t37.5 9.5q18 0 35.5 -6t33.5 -13.5t29.5 -14t23.5 -6.5q9 0 13 6q9 11 -5 26t-31.5 33.5t-29.5 40.5t0 49q8 18 25 30t39.5 20t48.5 11.5t53 3.5q126 0 193.5 -69t67.5 -197t-70.5 -197t-214.5 -69
q-143 0 -214.5 66.5t-71.5 177.5zM237 199q18 -35 69 -35q49 0 68 26.5t19 65.5q0 23 -6.5 42t-25.5 32q-10 6 -16 6q-8 0 -9.5 -9.5t5.5 -24.5q19 -36 -2 -64q-17 -23 -45 -23q-17 0 -29 8q-10 6 -19 6t-13 -7.5t4 -22.5z" />
    <glyph glyph-name="oacute" unicode="&#xf3;" horiz-adv-x="621" 
d="M313 702l98 1l-108 -161h-52zM25 230q0 20 3 39t11.5 34.5t23 25t37.5 9.5q18 0 35.5 -6t33.5 -13.5t29.5 -14t23.5 -6.5q9 0 13 6q9 11 -5 26t-31.5 33.5t-29.5 40.5t0 49q8 18 25 30t39.5 20t48.5 11.5t53 3.5q126 0 193.5 -69t67.5 -197t-70.5 -197t-214.5 -69
q-143 0 -214.5 66.5t-71.5 177.5zM237 199q18 -35 69 -35q49 0 68 26.5t19 65.5q0 23 -6.5 42t-25.5 32q-10 6 -16 6q-8 0 -9.5 -9.5t5.5 -24.5q19 -36 -2 -64q-17 -23 -45 -23q-17 0 -29 8q-10 6 -19 6t-13 -7.5t4 -22.5z" />
    <glyph glyph-name="ocircumflex" unicode="&#xf4;" horiz-adv-x="621" 
d="M344 693l66 -151h-38l-62 86l-62 -86h-38l67 151h67zM25 230q0 20 3 39t11.5 34.5t23 25t37.5 9.5q18 0 35.5 -6t33.5 -13.5t29.5 -14t23.5 -6.5q9 0 13 6q9 11 -5 26t-31.5 33.5t-29.5 40.5t0 49q8 18 25 30t39.5 20t48.5 11.5t53 3.5q126 0 193.5 -69t67.5 -197
t-70.5 -197t-214.5 -69q-143 0 -214.5 66.5t-71.5 177.5zM237 199q18 -35 69 -35q49 0 68 26.5t19 65.5q0 23 -6.5 42t-25.5 32q-10 6 -16 6q-8 0 -9.5 -9.5t5.5 -24.5q19 -36 -2 -64q-17 -23 -45 -23q-17 0 -29 8q-10 6 -19 6t-13 -7.5t4 -22.5z" />
    <glyph glyph-name="otilde" unicode="&#xf5;" horiz-adv-x="621" 
d="M154 630q8 17 16.5 32t20.5 26.5t27.5 18t37.5 6.5q27 0 46 -9t34.5 -19.5t29.5 -18t30 -5.5q9 2 16.5 5.5t12.5 8.5t10 11l33 -33q-1 -12 -7.5 -30t-17 -34.5t-26 -28.5t-35.5 -12q-16 0 -34 9q-14 7 -26.5 17.5t-24.5 20.5t-23.5 17t-23.5 8q-10 1 -20.5 -2t-18.5 -8
q-10 -5 -20 -12zM25 230q0 20 3 39t11.5 34.5t23 25t37.5 9.5q18 0 35.5 -6t33.5 -13.5t29.5 -14t23.5 -6.5q9 0 13 6q9 11 -5 26t-31.5 33.5t-29.5 40.5t0 49q8 18 25 30t39.5 20t48.5 11.5t53 3.5q126 0 193.5 -69t67.5 -197t-70.5 -197t-214.5 -69q-143 0 -214.5 66.5
t-71.5 177.5zM237 199q18 -35 69 -35q49 0 68 26.5t19 65.5q0 23 -6.5 42t-25.5 32q-10 6 -16 6q-8 0 -9.5 -9.5t5.5 -24.5q19 -36 -2 -64q-17 -23 -45 -23q-17 0 -29 8q-10 6 -19 6t-13 -7.5t4 -22.5z" />
    <glyph glyph-name="odieresis" unicode="&#xf6;" horiz-adv-x="621" 
d="M172 609q0 29 18 47t47 18t47 -18t18 -47t-18 -47t-47 -18t-47 18t-18 47zM320 609q0 29 18 47t47 18t47 -18t18 -47t-18 -47t-47 -18t-47 18t-18 47zM25 230q0 20 3 39t11.5 34.5t23 25t37.5 9.5q18 0 35.5 -6t33.5 -13.5t29.5 -14t23.5 -6.5q9 0 13 6q9 11 -5 26
t-31.5 33.5t-29.5 40.5t0 49q8 18 25 30t39.5 20t48.5 11.5t53 3.5q126 0 193.5 -69t67.5 -197t-70.5 -197t-214.5 -69q-143 0 -214.5 66.5t-71.5 177.5zM237 199q18 -35 69 -35q49 0 68 26.5t19 65.5q0 23 -6.5 42t-25.5 32q-10 6 -16 6q-8 0 -9.5 -9.5t5.5 -24.5
q19 -36 -2 -64q-17 -23 -45 -23q-17 0 -29 8q-10 6 -19 6t-13 -7.5t4 -22.5z" />
    <glyph glyph-name="divide" unicode="&#xf7;" horiz-adv-x="514" 
d="M164 458q0 42 25.5 67.5t67.5 25.5t67.5 -25.5t25.5 -67.5t-25.5 -67t-67.5 -25t-67.5 25t-25.5 67zM35 333h444v-132h-444v132zM164 78q0 42 25.5 67.5t67.5 25.5t67.5 -25.5t25.5 -67.5t-25.5 -67t-67.5 -25t-67.5 25t-25.5 67z" />
    <glyph glyph-name="oslash" unicode="&#xf8;" horiz-adv-x="631" 
d="M25 230q0 20 3 39t11.5 34.5t23 25t37.5 9.5q18 0 35.5 -6t33.5 -13.5t29.5 -14t23.5 -6.5q9 0 13 6q9 11 -5 26t-31.5 33.5t-29.5 40.5t0 49q8 18 25 30t39.5 20t48.5 11.5t53 3.5q79 0 134 -27l30 37h117l-74 -94q54 -66 54 -182q0 -128 -70.5 -197t-214.5 -69
q-61 0 -112 14l-30 -38h-117l61 77q-45 32 -66.5 80.5t-21.5 110.5zM237 199q18 -35 69 -35q49 0 68 26.5t19 65.5q0 23 -6.5 42t-25.5 32q-10 6 -16 6q-8 0 -9.5 -9.5t5.5 -24.5q19 -36 -2 -64q-17 -23 -45 -23q-17 0 -29 8q-10 6 -19 6t-13 -7.5t4 -22.5z" />
    <glyph glyph-name="ugrave" unicode="&#xf9;" horiz-adv-x="620" 
d="M243 703l88 -1l16 -160h-42zM585 218q0 -52 -19 -95t-54 -74t-84 -47.5t-109 -16.5q-19 0 -45.5 4t-50.5 15.5t-41.5 32t-17.5 53.5q0 29 12.5 51t26 39.5t23 31.5t3.5 27q-4 8 -11 8q-8 0 -19.5 -8t-26.5 -18t-32.5 -18t-38.5 -8q-24 0 -45 15t-21 52v238h210v-165
q7 7 20 12.5t28 5.5q11 0 22.5 -4.5t22.5 -15.5q13 -13 16 -28.5t0 -30.5t-10 -28.5t-14 -23.5q-20 -27 -17.5 -42.5t19.5 -15.5q16 0 29.5 14t13.5 46v276h210v-282z" />
    <glyph glyph-name="uacute" unicode="&#xfa;" horiz-adv-x="620" 
d="M410 703l-108 -161h-52l62 160zM585 218q0 -52 -19 -95t-54 -74t-84 -47.5t-109 -16.5q-19 0 -45.5 4t-50.5 15.5t-41.5 32t-17.5 53.5q0 29 12.5 51t26 39.5t23 31.5t3.5 27q-4 8 -11 8q-8 0 -19.5 -8t-26.5 -18t-32.5 -18t-38.5 -8q-24 0 -45 15t-21 52v238h210v-165
q7 7 20 12.5t28 5.5q11 0 22.5 -4.5t22.5 -15.5q13 -13 16 -28.5t0 -30.5t-10 -28.5t-14 -23.5q-20 -27 -17.5 -42.5t19.5 -15.5q16 0 29.5 14t13.5 46v276h210v-282z" />
    <glyph glyph-name="ucircumflex" unicode="&#xfb;" horiz-adv-x="620" 
d="M410 542h-38l-62 86l-62 -86h-38l67 151h67zM585 218q0 -52 -19 -95t-54 -74t-84 -47.5t-109 -16.5q-19 0 -45.5 4t-50.5 15.5t-41.5 32t-17.5 53.5q0 29 12.5 51t26 39.5t23 31.5t3.5 27q-4 8 -11 8q-8 0 -19.5 -8t-26.5 -18t-32.5 -18t-38.5 -8q-24 0 -45 15t-21 52
v238h210v-165q7 7 20 12.5t28 5.5q11 0 22.5 -4.5t22.5 -15.5q13 -13 16 -28.5t0 -30.5t-10 -28.5t-14 -23.5q-20 -27 -17.5 -42.5t19.5 -15.5q16 0 29.5 14t13.5 46v276h210v-282z" />
    <glyph glyph-name="udieresis" unicode="&#xfc;" horiz-adv-x="620" 
d="M171 609q0 29 18 47t47 18t47 -18t18 -47t-18 -47t-47 -18t-47 18t-18 47zM319 609q0 29 18 47t47 18t47 -18t18 -47t-18 -47t-47 -18t-47 18t-18 47zM585 218q0 -52 -19 -95t-54 -74t-84 -47.5t-109 -16.5q-19 0 -45.5 4t-50.5 15.5t-41.5 32t-17.5 53.5q0 29 12.5 51
t26 39.5t23 31.5t3.5 27q-4 8 -11 8q-8 0 -19.5 -8t-26.5 -18t-32.5 -18t-38.5 -8q-24 0 -45 15t-21 52v238h210v-165q7 7 20 12.5t28 5.5q11 0 22.5 -4.5t22.5 -15.5q13 -13 16 -28.5t0 -30.5t-10 -28.5t-14 -23.5q-20 -27 -17.5 -42.5t19.5 -15.5q16 0 29.5 14t13.5 46
v276h210v-282z" />
    <glyph glyph-name="yacute" unicode="&#xfd;" horiz-adv-x="636" 
d="M320 702l98 1l-108 -161h-52zM226 500l54 -124q19 -44 23 -87t-2 -83.5t-18.5 -76.5t-26.5 -66t-26.5 -52t-17.5 -35q-8 -20 -4 -34t18 -14q7 0 17 6q22 13 36 44.5t23.5 73t16 90t13 95t14 87.5t19.5 69l46 107h225l-297 -504q-20 -34 -47 -74t-57 -75t-61.5 -58.5
t-60.5 -23.5q-11 0 -24 5q-17 7 -28 25t-9 43t20 54.5t58 61.5q48 37 61.5 71t6 69t-29 73.5t-44.5 83.5l-124 249h226z" />
    <glyph glyph-name="thorn" unicode="&#xfe;" horiz-adv-x="646" 
d="M50 700h210v-319q2 -39 9.5 -60.5t26.5 -16.5q11 3 14 12t3 22t-2 28.5t-2 31.5q1 32 14 53.5t32 35t42 19.5t43 6q37 0 70 -16.5t57.5 -49.5t39 -81.5t14.5 -112.5q0 -128 -71 -197t-215 -69q-40 0 -75 6v-241h-210v949zM260 204q8 -19 25.5 -29.5t49.5 -10.5
q49 0 66 24t17 64q0 8 -1.5 21.5t-5.5 26t-9.5 21t-13.5 5.5q-3 -1 -7 -6t4 -21q12 -26 3.5 -50t-30.5 -35q-12 -6 -24 -6q-17 0 -31 10t-20 22q-5 10 -11.5 13.5t-11.5 -0.5v-49z" />
    <glyph glyph-name="ydieresis" unicode="&#xff;" horiz-adv-x="636" 
d="M179 609q0 29 18 47t47 18t47 -18t18 -47t-18 -47t-47 -18t-47 18t-18 47zM327 609q0 29 18 47t47 18t47 -18t18 -47t-18 -47t-47 -18t-47 18t-18 47zM226 500l54 -124q19 -44 23 -87t-2 -83.5t-18.5 -76.5t-26.5 -66t-26.5 -52t-17.5 -35q-8 -20 -4 -34t18 -14q7 0 17 6
q22 13 36 44.5t23.5 73t16 90t13 95t14 87.5t19.5 69l46 107h225l-297 -504q-20 -34 -47 -74t-57 -75t-61.5 -58.5t-60.5 -23.5q-11 0 -24 5q-17 7 -28 25t-9 43t20 54.5t58 61.5q48 37 61.5 71t6 69t-29 73.5t-44.5 83.5l-124 249h226z" />
    <glyph glyph-name="Dcroat" unicode="&#x110;" horiz-adv-x="778" 
d="M35 239h-47v57h47v96q0 27 9 46t23.5 31t33 18t37.5 6q21 0 42 -8q11 -4 21.5 -10.5t20 -12.5t18.5 -10.5t16 -4.5q8 0 14 6q8 8 5 16t-11 16.5t-18.5 16t-18.5 13.5q-34 26 -41 58.5t4 60.5t36 47t55 19h125q78 0 142 -25t109.5 -71t70.5 -111t25 -146q0 -78 -25 -142
t-70.5 -109.5t-109.5 -70.5t-142 -25h-371v239zM384 200q67 0 108 41t41 110q0 47 -20.5 81.5t-55.5 51.5q-12 6 -28 6q-13 0 -24.5 -4t-17.5 -10.5t-4 -16.5t17 -22q32 -26 31 -60.5t-30 -57.5q-18 -14 -38 -14q-14 0 -27 6t-24 13t-19.5 13t-14.5 6q-7 0 -10 -8t-3 -28
v-11h45v-57h-45v-39h119z" />
    <glyph glyph-name="dcroat" unicode="&#x111;" horiz-adv-x="621" 
d="M586 700v-57h19v-59h-19v-332q0 -128 -70.5 -197t-214.5 -69t-215 69t-71 197q0 64 14 112.5t38.5 81.5t58 49.5t72.5 16.5q21 0 43.5 -5.5t41 -18.5t31 -34.5t13.5 -53.5q0 -16 -2 -32t-2 -29.5t3 -22.5t14 -12q18 -5 25.5 15t10 55.5t1.5 82.5t-1 96v31h-61v59l61 -1
v58h210zM278 214q-22 11 -30.5 35t3.5 50q8 16 4 21t-7 6q-8 3 -13.5 -5.5t-9.5 -21t-5.5 -26t-1.5 -21.5q0 -40 17 -64t66 -24q43 0 61 19t20 51q1 11 -3 16t-9 5q-9 0 -17 -15q-6 -12 -20 -22t-31 -10q-12 0 -24 6z" />
    <glyph glyph-name="dotlessi" unicode="&#x131;" horiz-adv-x="296" 
d="M50 500h210v-500h-210v500z" />
    <glyph glyph-name="Lslash" unicode="&#x141;" horiz-adv-x="667" 
d="M282 0q-51 0 -77.5 18t-27.5 56q0 4 1 11.5t5.5 17t14 19.5t26.5 19q16 9 34 14.5t31 10.5t18.5 11.5t-3.5 16.5q-10 12 -25 12q-16 0 -35.5 -10t-42 -21.5t-47 -21t-50.5 -8.5q-31 1 -50 22t-19 79v129h-35v74h35v251h230v-251h131v-74h-131v-68q0 -29 13 -29
q8 0 20.5 8.5t28 18.5t32.5 18.5t34 8.5q23 0 41 -17q20 -19 19.5 -39t-4 -37t-2.5 -28t24 -11h171v-200h-360z" />
    <glyph glyph-name="lslash" unicode="&#x142;" horiz-adv-x="291" 
d="M246 441h59v-64h-59v-21q0 -42 -12 -64.5t-30.5 -34.5t-40 -18t-40.5 -14t-28.5 -18t-12.5 -19.5t0.5 -17t10.5 -11.5q8 -4 13.5 -0.5t13.5 9t19.5 11t29.5 5.5q36 0 64 -25.5t28 -76.5q0 -52 -31 -83t-82 -31t-82 36t-31 119q0 12 0.5 37.5t0.5 69.5v147h-44v64h44v259
h210v-259z" />
    <glyph glyph-name="OE" unicode="&#x152;" horiz-adv-x="1333" 
d="M232 603q3 48 46.5 82t120.5 34q86 0 153.5 -24.5t115.5 -70.5q30 38 83 57t123 19h424v-200h-517q-25 0 -28 -15q1 -1 1 -4l3 -9q0 -1 0.5 -1.5t0.5 -2.5q11 -14 35.5 -20t56.5 -6q53 0 111 14t113 14q32 0 60 -5.5t49 -18t33.5 -33t12.5 -50.5q0 -43 -25.5 -67.5
t-65.5 -36.5t-89 -15t-96 -3h-74t-57 -5q-32 -6 -30 -22q1 -7 7 -10.5t23 -3.5h476v-200h-493q-49 0 -88 17t-61 49q-48 -41 -112 -62.5t-145 -21.5q-88 0 -157.5 26.5t-117.5 74.5t-73.5 116t-25.5 151q0 27 8.5 54t24.5 49.5t40.5 37t55.5 15.5q36 2 65 -13t51 -33.5
t38 -34.5t26 -16q5 0 8 4q12 13 7.5 24.5t-17 23.5t-30.5 26t-34 31t-27 38t-9 47zM384 499q-1 -22 14 -40t33 -41q31 -38 38.5 -73.5t-19.5 -56.5q-17 -14 -40 -14q-19 0 -37 13t-29 44q-16 42 -49 42q-25 0 -38 -20.5t-13 -52.5q1 -57 40.5 -91.5t114.5 -34.5
q74 0 112.5 42.5t38.5 134.5t-31.5 138.5t-83.5 47.5q-28 0 -39 -12t-12 -26zM769 285q39 13 81 16t83 3h45.5t34 3t20 10t4.5 21q0 1 -1.5 4t-6 6.5t-12.5 6.5t-23 3q-26 0 -74 -13q-30 -9 -57 -13t-50 -4q-22 0 -40 3q-1 -12 -1.5 -23.5t-2.5 -22.5z" />
    <glyph glyph-name="oe" unicode="&#x153;" horiz-adv-x="971" 
d="M25 234q0 20 3 39t11.5 34.5t23 25t37.5 9.5q18 0 35.5 -6t33.5 -13.5t29.5 -14t23.5 -6.5q9 0 13 6q9 11 -5 26t-31.5 33.5t-29.5 40.5t0 49q8 18 25 30t39.5 20t48.5 11.5t53 3.5q107 0 172 -50q38 20 87 29.5t103 10.5t101.5 -6.5t82.5 -25t55 -44.5t20 -64
q0 -23 -9 -44.5t-31.5 -40.5t-60 -35t-94.5 -28q-10 -2 -22 -5t-22.5 -6.5t-17 -7t-6.5 -6.5q0 -5 5.5 -7t26.5 -2h210v-190h-362q-29 0 -55 5t-47 17q-64 -32 -160 -32q-143 0 -214.5 66.5t-71.5 177.5zM664 259q5 -4 20 -0.5t31.5 13t29 23.5t12.5 31q0 20 -21 28.5
t-58 6.5q-36 -1 -49 -7.5t-8 -14.5q3 -5 10.5 -6t15.5 -2.5t16 -5t12 -13.5t1.5 -18t-6.5 -15t-6.5 -12t0.5 -8zM237 203q18 -35 69 -35q49 0 68 26.5t19 65.5q0 23 -6.5 42t-25.5 32q-10 6 -16 6q-8 0 -9.5 -9.5t5.5 -24.5q19 -36 -2 -64q-17 -23 -45 -23q-17 0 -29 8
q-10 6 -19 6t-13 -7.5t4 -22.5z" />
    <glyph glyph-name="Scaron" unicode="&#x160;" horiz-adv-x="737" 
d="M282 874h33l53 -62l54 62h32l-57 -109h-58zM182 500q-17 0 -24.5 -8.5t-0.5 -20.5q10 -17 37 -23.5t64 -6.5q27 0 57 3t62 8q35 5 64.5 8t55.5 3q62 0 101.5 -14.5t62.5 -41t32 -64t9 -83.5q0 -58 -13 -106t-40 -82.5t-69.5 -53t-102.5 -18.5h-414v200h316q58 0 98.5 23
t63 53.5t25.5 61t-14 46.5q-9 9 -24 9q-16 0 -37 -11t-45.5 -27t-52.5 -35t-59 -34q-34 -17 -63 -24t-55 -7q-46 0 -80 20.5t-56.5 54t-33.5 76t-11 86.5q0 56 17.5 95.5t49 64.5t75.5 36.5t98 11.5h424v-200h-517z" />
    <glyph glyph-name="scaron" unicode="&#x161;" horiz-adv-x="554" 
d="M191 674h33l53 -62l54 62h32l-57 -109h-58zM128 310q-13 0 -18.5 -6t-0.5 -15q7 -10 25.5 -14.5t44.5 -4.5q24 0 52 3.5t54 10.5q48 12 88 12q80 0 123 -40.5t43 -103.5q0 -29 -10 -56.5t-31 -48.5t-53.5 -34t-78.5 -13h-329v190h253q45 0 74 4.5t46 12t23.5 16.5t4.5 18
q-3 18 -30 18q-15 0 -33.5 -4t-38.5 -10t-39.5 -12t-35.5 -11q-54 -15 -96 -15q-76 0 -113 41t-37 105q0 39 13.5 67t37.5 46t58 26t76 8h337v-190h-409z" />
    <glyph glyph-name="Ydieresis" unicode="&#x178;" horiz-adv-x="803" 
d="M263 809q0 29 18 47t47 18t47 -18t18 -47t-18 -47t-47 -18t-47 18t-18 47zM411 809q0 29 18 47t47 18t47 -18t18 -47t-18 -47t-47 -18t-47 18t-18 47zM279 700l65 -110q28 -48 24 -93t-25 -85.5t-50.5 -76.5t-52 -66t-30 -54t15.5 -40q3 -2 9 -5t14 -3q14 0 34 16.5
t42 66.5q17 37 28.5 78t24.5 84t28.5 85t39.5 80l78 123h279l-357 -504q-21 -29 -49.5 -67t-62.5 -71.5t-72 -57t-79 -23.5q-31 0 -63 18q-30 17 -46 44.5t-13.5 63.5t26 78.5t73.5 90.5q32 30 45 53t10 46t-20 50.5t-46 67.5l-149 211h279z" />
    <glyph glyph-name="Zcaron" unicode="&#x17d;" horiz-adv-x="737" 
d="M315 874l53 -62l54 62h32l-57 -109h-58l-57 109h33zM699 0h-424q-54 0 -98 11.5t-75.5 36.5t-49 64.5t-17.5 95.5q0 44 11 86.5t33.5 76t56.5 54t80 20.5q26 0 55 -7t63 -24q31 -15 59 -34t52.5 -35t45.5 -27t37 -11q15 0 24 9q17 16 14 46.5t-25.5 61t-63 53.5t-98.5 23
h-316v200h414q60 0 102.5 -18.5t69.5 -53t40 -82t13 -106.5q0 -46 -9 -83.5t-32 -64t-62.5 -41t-101.5 -14.5q-26 0 -55.5 3t-64.5 8q-32 5 -62 8t-57 3q-37 0 -64 -6.5t-37 -23.5q-7 -12 0.5 -20.5t24.5 -8.5h517v-200z" />
    <glyph glyph-name="zcaron" unicode="&#x17e;" horiz-adv-x="594" 
d="M244 674l53 -62l54 62h32l-57 -109h-58l-57 109h33zM557 0h-337q-42 0 -76 8t-58 26t-37.5 46t-13.5 67q0 64 37 105t113 41q42 0 96 -15q16 -4 35.5 -10.5t39.5 -12.5t38.5 -10t33.5 -4q27 0 30 18q2 9 -4.5 18t-23.5 16.5t-46 12t-74 4.5h-253v190h329q46 0 78.5 -13
t53.5 -34t31 -48.5t10 -56.5q0 -63 -43 -103.5t-123 -40.5q-40 0 -88 12q-26 7 -54 10.5t-52 3.5q-26 0 -44.5 -4.5t-25.5 -14.5q-5 -9 0.5 -15t18.5 -6h409v-190z" />
    <glyph glyph-name="florin" unicode="&#x192;" horiz-adv-x="656" 
d="M116 -58q11 -11 28 -21t33 -10q11 0 17.5 5.5t7.5 13.5q1 13 -17 25t-38.5 28t-35 38.5t-7.5 57.5q3 16 9.5 25t14.5 13.5t17.5 5.5t19.5 1h21.5t18.5 3t13 11.5t5 25.5v209q0 53 27 78.5t62 22.5q11 -1 22.5 -4t22 -6.5t20 -6.5t16.5 -3q14 0 17 15t-7.5 25.5t-27.5 20
t-37.5 19t-38 21.5t-29 28.5t-9.5 39.5q2 27 20 51.5t47.5 43t68.5 29.5t82 11q98 0 177 -65l-116 -160q-11 11 -28 21t-33 10q-11 0 -17.5 -5.5t-7.5 -13.5q0 -9 8 -17t21 -17t27 -19t25 -24t16.5 -31.5t0.5 -40.5q-7 -31 -24 -38t-37 -7h-21.5t-18.5 -3t-13 -11.5
t-5 -25.5v-209q0 -53 -27 -78.5t-62 -22.5q-11 1 -22.5 4t-22 6.5t-20 6.5t-16.5 3q-14 0 -17 -15t7.5 -25.5t27.5 -20t37.5 -19t38 -21.5t29 -28.5t9.5 -39.5q-1 -27 -19.5 -51.5t-48 -43t-68.5 -29.5t-82 -11q-98 0 -177 65z" />
    <glyph glyph-name="circumflex" unicode="&#x2c6;" horiz-adv-x="244" 
d="M156 693l66 -151h-38l-62 86l-62 -86h-38l67 151h67z" />
    <glyph glyph-name="caron" unicode="&#x2c7;" horiz-adv-x="244" 
d="M36 674h33l53 -62l54 62h32l-57 -109h-58z" />
    <glyph glyph-name="breve" unicode="&#x2d8;" horiz-adv-x="260" 
d="M62 674q8 -25 25 -42t43 -19q26 2 43 19t25 42h44q0 -12 -3 -33.5t-14 -43.5t-33.5 -38.5t-61.5 -16.5t-61.5 16.5t-33.5 38.5t-14 43.5t-3 33.5h44z" />
    <glyph glyph-name="dotaccent" unicode="&#x2d9;" horiz-adv-x="200" 
d="M35 609q0 29 18 47t47 18t47 -18t18 -47t-18 -47t-47 -18t-47 18t-18 47z" />
    <glyph glyph-name="ring" unicode="&#x2da;" horiz-adv-x="204" 
d="M35 608q0 30 18.5 48.5t48.5 18.5t48.5 -18.5t18.5 -48.5t-18.5 -48.5t-48.5 -18.5t-48.5 18.5t-18.5 48.5zM73 608q0 -13 8 -21t21 -8q14 0 21.5 8t7.5 21q0 29 -29 29q-13 0 -21 -7.5t-8 -21.5z" />
    <glyph glyph-name="ogonek" unicode="&#x2db;" horiz-adv-x="214" 
d="M179 -52q-5 -29 -23.5 -49.5t-47.5 -20.5q-14 0 -26 4q-40 13 -45.5 49t16.5 73q5 7 8.5 12.5t7.5 9.5q3 4 7 8l24 -8q-11 -20 -16 -42.5t10 -37.5q9 -9 22 -9q14 0 26 8.5t17 19.5z" />
    <glyph glyph-name="tilde" unicode="&#x2dc;" horiz-adv-x="314" 
d="M0 630q8 17 16.5 32t20.5 26.5t27.5 18t37.5 6.5q27 0 46 -9t34.5 -19.5t29.5 -18t30 -5.5q9 2 16.5 5.5t12.5 8.5t10 11l33 -33q-1 -12 -7.5 -30t-17 -34.5t-26 -28.5t-35.5 -12q-16 0 -34 9q-14 7 -26.5 17.5t-24.5 20.5t-23.5 17t-23.5 8q-10 1 -20.5 -2t-18.5 -8
q-10 -5 -20 -12z" />
    <glyph glyph-name="hungarumlaut" unicode="&#x2dd;" horiz-adv-x="216" 
d="M51 662l58 1l-42 -121h-32zM123 662l58 1l-42 -121h-32z" />
    <glyph glyph-name="endash" unicode="&#x2013;" horiz-adv-x="500" 
d="M24 316h444v-105h-444v105z" />
    <glyph glyph-name="emdash" unicode="&#x2014;" horiz-adv-x="1000" 
d="M24 316h942v-105h-942v105z" />
    <glyph glyph-name="quoteleft" unicode="&#x2018;" horiz-adv-x="256" 
d="M151 714h70l-47 -241h-139z" />
    <glyph glyph-name="quoteright" unicode="&#x2019;" horiz-adv-x="256" 
d="M82 714h139l-116 -241h-70z" />
    <glyph glyph-name="quotesinglbase" unicode="&#x201a;" horiz-adv-x="256" 
d="M82 102h139l-116 -241h-70z" />
    <glyph glyph-name="quotedblleft" unicode="&#x201c;" horiz-adv-x="406" 
d="M190 714h70l-86 -241h-139zM301 714h70l-13 -241h-139z" />
    <glyph glyph-name="quotedblright" unicode="&#x201d;" horiz-adv-x="359" 
d="M232 714h139l-155 -241h-70zM48 714h139l-82 -241h-70z" />
    <glyph glyph-name="quotedblbase" unicode="&#x201e;" horiz-adv-x="406" 
d="M232 102h139l-155 -241h-70zM48 102h139l-82 -241h-70z" />
    <glyph glyph-name="dagger" unicode="&#x2020;" horiz-adv-x="260" 
d="M45 750h170v-392h76v-180h-76v-428h-170v428h-76v180h76v392z" />
    <glyph glyph-name="daggerdbl" unicode="&#x2021;" horiz-adv-x="260" 
d="M45 750h170v-280h106v-135h-106v-58h106v-135h-106v-392h-170v392h-105v135h105v58h-105v135h105v280z" />
    <glyph glyph-name="bullet" unicode="&#x2022;" horiz-adv-x="359" 
d="M179 206q-65 0 -104.5 39.5t-39.5 105.5q0 65 39.5 104.5t104.5 39.5q66 0 105.5 -39.5t39.5 -104.5q0 -66 -39.5 -105.5t-105.5 -39.5z" />
    <glyph glyph-name="ellipsis" unicode="&#x2026;" horiz-adv-x="771" 
d="M36 78q0 42 25.5 67.5t67.5 25.5t67.5 -25.5t25.5 -67.5t-25.5 -67t-67.5 -25t-67.5 25t-25.5 67zM293 78q0 42 25.5 67.5t67.5 25.5t67.5 -25.5t25.5 -67.5t-25.5 -67t-67.5 -25t-67.5 25t-25.5 67zM550 78q0 42 25.5 67.5t67.5 25.5t67.5 -25.5t25.5 -67.5t-25.5 -67
t-67.5 -25t-67.5 25t-25.5 67z" />
    <glyph glyph-name="perthousand" unicode="&#x2030;" horiz-adv-x="1441" 
d="M198 228q-48 0 -82.5 17.5t-57 50t-33 78t-10.5 100.5q0 16 2.5 32t8 29.5t14.5 22t23 8.5q11 0 20 -4q13 -5 24 -13t20 -16t16 -14t13 -6q5 0 8 4q10 12 -1.5 23.5t-29.5 26t-33.5 34.5t-14.5 48q1 14 7 27.5t19.5 23.5t34.5 16t52 6q52 0 89 -18t61 -50.5t35 -78
t11 -101.5q0 -55 -13 -100.5t-38 -78t-61.5 -50t-83.5 -17.5zM586 701h206l-337 -700h-206zM205 356q14 0 22 10t12 27t4.5 38.5t0.5 44.5v50.5t-3 39t-11 25.5t-23 9q-16 0 -22 -8.5t-6 -17.5q0 -16 9.5 -25.5l16.5 -16.5q15 -14 16.5 -27.5t-4.5 -23.5q-8 -12 -18.5 -12.5
t-15.5 -0.5q-8 0 -12 -5t-5.5 -12t-1.5 -14v-12q3 -69 41 -69zM820 -10q-48 0 -82.5 17.5t-57 50t-33 78t-10.5 100.5q0 16 2.5 32t8 29.5t14.5 22t23 8.5q11 0 20 -4q13 -5 24 -13t20 -16t16 -14t13 -6q5 0 8 4q10 12 -1.5 23.5t-29.5 26t-33.5 34.5t-14.5 48q1 14 7 27.5
t19.5 23.5t34.5 16t52 6q52 0 89 -18t61 -50.5t35 -78t11 -101.5q0 -55 -13 -100.5t-38 -78t-61.5 -50t-83.5 -17.5zM1230 -10q-48 0 -82.5 17.5t-57 50t-33 78t-10.5 100.5q0 16 2.5 32t8 29.5t14.5 22t23 8.5q11 0 20 -4q13 -5 24 -13t20 -16t16 -14t13 -6q5 0 8 4
q10 12 -1.5 23.5t-29.5 26t-33.5 34.5t-14.5 48q1 14 7 27.5t19.5 23.5t34.5 16t52 6q52 0 89 -18t61 -50.5t35 -78t11 -101.5q0 -55 -13 -100.5t-38 -78t-61.5 -50t-83.5 -17.5zM827 118q14 0 22 10t12 27t4.5 38.5t0.5 44.5v50.5t-3 39t-11 25.5t-23 9q-16 0 -22 -8.5
t-6 -17.5q0 -16 9.5 -25.5l16.5 -16.5q15 -14 16.5 -27.5t-4.5 -23.5q-8 -12 -18.5 -12.5t-15.5 -0.5q-8 0 -12 -5t-5.5 -12t-1.5 -14v-12q3 -69 41 -69zM1237 118q14 0 22 10t12 27t4.5 38.5t0.5 44.5v50.5t-3 39t-11 25.5t-23 9q-16 0 -22 -8.5t-6 -17.5q0 -16 9.5 -25.5
l16.5 -16.5q15 -14 16.5 -27.5t-4.5 -23.5q-8 -12 -18.5 -12.5t-15.5 -0.5q-8 0 -12 -5t-5.5 -12t-1.5 -14v-12q3 -69 41 -69z" />
    <glyph glyph-name="guilsinglleft" unicode="&#x2039;" horiz-adv-x="291" 
d="M16 263h-1l188 187l73 -72l-115 -115l115 -116l-73 -72l-188 187z" />
    <glyph glyph-name="guilsinglright" unicode="&#x203a;" horiz-adv-x="291" 
d="M88 75l-73 72l115 116l-115 115l73 72l188 -187h-1l1 -1z" />
    <glyph glyph-name="fraction" unicode="&#x2044;" horiz-adv-x="573" 
d="M352 700h206l-337 -700h-206z" />
    <glyph glyph-name="Euro" unicode="&#x20ac;" horiz-adv-x="556" 
d="M15 322h43v18v16.5t1 16.5h-44v76h53q8 41 22.5 68.5t35.5 27.5q9 0 16 -4q7 -3 18.5 -6.5t22.5 -3.5t19.5 5t9.5 18t-7 23.5t-15.5 21t-10.5 23.5t7 31q16 29 55 46.5t100 17.5q29 0 58 -4t55 -12t48.5 -19.5t38.5 -26.5l-42 -148q-35 29 -68.5 38.5t-51.5 9.5
q-25 0 -34.5 -11t-12 -26t-1 -29.5t-3.5 -22.5q-4 -7 -17 -7q-7 0 -15 1t-16.5 1t-16.5 -2.5t-16 -9.5h158v-76h-183v-3l-1 -6v-3q0 -8 -0.5 -18t0.5 -21h184v-77h-172q7 -24 18 -45.5t28.5 -38.5t41.5 -27.5t57 -11.5q12 0 27 1.5t32 6.5t34.5 15.5t33.5 27.5l36 -130
q-13 -13 -34.5 -24t-47.5 -19.5t-55 -13.5t-58 -5q-56 0 -102.5 19t-82.5 53.5t-60 83t-35 108.5h-51v77z" />
    <glyph glyph-name="trademark" unicode="&#x2122;" horiz-adv-x="655" 
d="M320 600q0 52 18 77.5t44 25.5q11 0 26 -8t26 -36t11 -82v-25.5t2 -37.5t7 -33.5t15 -14.5q11 1 15 22.5t-10 66.5q-13 40 -11.5 68.5t12.5 46.5t29 26.5t38 8.5q43 0 60 -31.5t17 -83.5v-226h-82v243q0 4 -0.5 8t-5.5 3q-5 -2 -6.5 -9.5t-3.5 -20.5q-2 -29 0 -68.5
t0.5 -75.5t-11 -61t-35.5 -25q-19 0 -30 15t-17 38.5t-8.5 52.5t-3 56.5t-1 51t-3.5 36.5q-1 5 -2 6t-3 1q-3 0 -4 -3.5t-1 -7.5v-240h-82v236zM122 516q0 7 0.5 18t2.5 23.5t7.5 25.5t15.5 24q11 12 23.5 17t22.5 8.5t16.5 7.5t6.5 14q0 15 -13 15q-11 0 -29 -12
q-13 -9 -23.5 -19t-20 -19t-19.5 -15t-22 -7q-28 -1 -44 26.5t-8 74.5h235q14 0 21.5 -10.5t7.5 -27.5q0 -9 -2.5 -19t-8.5 -18.5t-16.5 -14t-26.5 -5.5h-44v-239h-82v152z" />
    <glyph glyph-name="minus" unicode="&#x2212;" horiz-adv-x="514" 
d="M35 420h444v-167h-444v167z" />
    </font>
</defs>
</svg>
