<?xml version="1.0" standalone="no"?>
<!DOCTYPE svg PUBLIC "-//W3C//DTD SVG 1.1//EN" "http://www.w3.org/Graphics/SVG/1.1/DTD/svg11.dtd" >
<svg xmlns="http://www.w3.org/2000/svg" xmlns:xlink="http://www.w3.org/1999/xlink" version="1.1">
<metadata>
Created by FontForge 20201107 at Sat Jul  6 14:50:01 2024
 By 
Copyright (c) 2019 by Daniel Feldt. All rights reserved.
</metadata>
<defs>
<font id="Mazement-Oblique" horiz-adv-x="962" >
  <font-face 
    font-family="Mazement"
    font-weight="400"
    font-style="oblique"
    font-stretch="normal"
    units-per-em="2048"
    panose-1="0 0 0 0 0 0 0 0 0 0"
    ascent="1638"
    descent="-410"
    x-height="1434"
    cap-height="1434"
    bbox="-315 -328 1790.64 1679"
    underline-thickness="102"
    underline-position="-255"
    unicode-range="U+0020-2212"
  />
<missing-glyph horiz-adv-x="1003" 
d="M850 1679l-211 -2007h-637l211 2007h637zM166 -188h332l6 65h-205l152 94h63l6 66h-332l-6 -66h140l-150 -94zM195 84h331l23 227h-332zM229 430h332l25 227h-201l-12 -112h69l7 47h65l-10 -94h-201l16 159h-65zM258 702h332l22 201h-65l-15 -133h-266zM270 817h201
l16 139h131l7 68h-332l-6 -68h131l-8 -73h-131zM299 1077h332l6 68h-131l14 141h-201zM326 1337h331l9 68h-131l6 74h131l8 65h-330l-8 -65h129l-6 -74h-131zM266 150l10 94h201l-10 -94h-201zM371 1145l8 74h65l-8 -74h-65z" />
    <glyph glyph-name=".notdef" horiz-adv-x="1003" 
d="M850 1679l-211 -2007h-637l211 2007h637zM166 -188h332l6 65h-205l152 94h63l6 66h-332l-6 -66h140l-150 -94zM195 84h331l23 227h-332zM229 430h332l25 227h-201l-12 -112h69l7 47h65l-10 -94h-201l16 159h-65zM258 702h332l22 201h-65l-15 -133h-266zM270 817h201
l16 139h131l7 68h-332l-6 -68h131l-8 -73h-131zM299 1077h332l6 68h-131l14 141h-201zM326 1337h331l9 68h-131l6 74h131l8 65h-330l-8 -65h129l-6 -74h-131zM266 150l10 94h201l-10 -94h-201zM371 1145l8 74h65l-8 -74h-65z" />
    <glyph glyph-name=".null" horiz-adv-x="0" 
 />
    <glyph glyph-name="nonmarkingreturn" horiz-adv-x="682" 
 />
    <glyph glyph-name="space" unicode=" " horiz-adv-x="204" 
 />
    <glyph glyph-name="space" unicode="&#xa0;" horiz-adv-x="204" 
 />
    <glyph glyph-name="exclam" unicode="!" horiz-adv-x="471" 
d="M-41 467q-18 0 -18 20l98 926q3 21 22 21h349q9 0 14 -6t4 -15l-98 -926q0 -9 -7 -14.5t-16 -5.5h-348zM-109 20l37 340q4 21 23 21h348q9 0 14 -6t4 -15l-36 -340q0 -9 -7 -14.5t-16 -5.5h-348q-19 0 -19 20z" />
    <glyph glyph-name="quotedbl" unicode="&#x22;" horiz-adv-x="921" 
d="M496 1087q-19 0 -19 21l33 305q4 21 22 21h328q9 0 14.5 -6t4.5 -15l-33 -305q0 -9 -7 -15t-16 -6h-327zM6 1108l33 305q3 21 22 21h328q9 0 14.5 -6t4.5 -15l-33 -305q0 -9 -7 -15t-16 -6h-327q-19 0 -19 21z" />
    <glyph glyph-name="numbersign" unicode="#" horiz-adv-x="1052" 
d="M-86 0q-19 0 -16 20l47 246h-49q-20 0 -17 21l53 278q7 21 25 21h49l49 260h-53q-9 0 -14 5.5t-2 14.5l55 281q7 20 25 20h53l47 246q6 21 24 21h349q9 0 14 -6t2 -15l-47 -246h63l47 246q6 21 25 21h348q9 0 14.5 -6t2.5 -15l-47 -246h45q9 0 14 -5.5t2 -14.5l-55 -281
q-7 -20 -25 -20h-45l-49 -260h49q9 0 14 -6t2 -15l-53 -278q-4 -21 -24 -21h-50l-47 -246q-3 -20 -24 -20h-348q-20 0 -17 20l47 246h-63l-47 -246q-3 -20 -25 -20h-348zM395 586h64l49 260h-64z" />
    <glyph glyph-name="dollar" unicode="$" 
d="M143 -125q-8 0 -12.5 6t-3.5 15l10 104h-139q-13 0 -23 10l-65 74q-11 11 -8 25l39 374q3 21 22 21h348q9 0 14.5 -6t4.5 -15l-8 -92q-3 -10 8 -10h82q9 0 12 10l16 158q0 20 -18 20h-363q-13 0 -24 11l-66 73q-8 8 -8 25l68 647q3 17 14 25l80 73q15 11 27 11h139
l10 104q2 8 7.5 14.5t12.5 6.5h351q8 0 12.5 -6t3.5 -15l-10 -104h135q16 0 23 -11l69 -73q8 -13 6 -25l-39 -373q0 -9 -6.5 -14.5t-15.5 -5.5h-348q-19 0 -19 20l11 90q0 11 -11 11h-82q-10 0 -10 -11l-16 -151q0 -21 18 -21h363q14 0 24 -10l66 -74q8 -12 8 -24l-70 -653
q-3 -16 -12 -25l-84 -74q-10 -10 -27 -10h-135l-10 -104q0 -8 -6.5 -14.5t-13.5 -6.5h-351z" />
    <glyph glyph-name="percent" unicode="%" horiz-adv-x="1107" 
d="M989 1352q11 0 15 -6.5t0 -16.5l-615 -1214q-8 -19 -22 -19h-396q-11 0 -16 6t0 17l612 1214q8 19 27 19h395zM0 1051l29 260q2 18 13.5 28.5t29.5 10.5h282q17 0 26 -10.5t7 -28.5l-29 -260q-2 -19 -13 -30t-28 -11h-282q-38 0 -35 41zM571 137l29 260q2 18 13.5 28.5
t29.5 10.5h283q35 0 32 -39l-28 -260q-2 -19 -13 -30t-28 -11h-283q-38 0 -35 41z" />
    <glyph glyph-name="ampersand" unicode="&#x26;" horiz-adv-x="1093" 
d="M-2 0q-13 0 -23 10l-65 74q-11 11 -8 25l55 522q0 8 12 24l90 95q12 14 7 26l-37 92q-4 20 -4 27l45 430q3 17 14 25l80 73q15 11 26 11h580q16 0 23 -11l69 -73q8 -13 6 -25l-39 -375q0 -8 -12 -24l-168 -172l33 -80l102 106q13 13 27 13h70q18 0 18 -21l47 -360
q0 -9 -6.5 -15t-15.5 -6h-35l-49 -61l26 -49h33q19 0 19 -21l-25 -237q-3 -21 -23 -21h-149q-17 0 -25 14l-26 43l-52 -49q-10 -10 -26 -10h-594zM297 369q0 -11 10 -11h55q11 0 11 11l6 53l-62 108l-4 -4zM399 942l58 59q12 16 12 25l8 80q0 10 -8 10h-41q-12 0 -12 -10z
" />
    <glyph glyph-name="quotesingle" unicode="'" horiz-adv-x="450" 
d="M25 1087q-19 0 -19 21l33 305q3 21 22 21h328q9 0 14.5 -6t4.5 -15l-33 -305q0 -9 -7 -15t-16 -6h-327z" />
    <glyph glyph-name="parenleft" unicode="(" horiz-adv-x="552" 
d="M18 -68q-19 -3 -24 11q-33 131 -42.5 317t13.5 455q23 218 77 423t116 353q2 10 24 6l338 -45q17 -3 10 -25q-63 -150 -109.5 -338.5t-66.5 -373.5q-21 -204 -14 -388.5t39 -318.5q4 -21 -14 -24z" />
    <glyph glyph-name="parenright" unicode=")" horiz-adv-x="573" 
d="M-94 -16q-20 3 -10 24q59 131 104.5 319t67.5 388q19 189 12 373t-37 339q-7 21 14 25l346 45q23 4 25 -6q19 -94 30.5 -208t13.5 -265t-15 -303q-24 -236 -78 -437.5t-115 -334.5q-5 -14 -24 -11z" />
    <glyph glyph-name="asterisk" unicode="*" horiz-adv-x="686" 
d="M203 838q-19 0 -19 20l25 133l-119 -73q-19 -12 -29 8l-57 123q-11 18 10 28l127 60l-114 57q-7 3 -8.5 12.5t4.5 16.5l81 123q16 20 31 8l105 -78l4 137q4 21 22 21h154q9 0 14 -6t4 -15l-24 -137l121 78q16 13 26 -8l57 -123q6 -8 3 -17t-11 -12l-127 -57l115 -60
q17 -13 2 -28l-82 -123q-17 -20 -29 -8l-106 73l-4 -133q0 -9 -7 -14.5t-16 -5.5h-153z" />
    <glyph glyph-name="plus" unicode="+" horiz-adv-x="839" 
d="M131 305q-18 0 -18 21l18 170h-168q-21 0 -18 20l35 338q3 20 22 20h168l18 168q4 21 23 21h338q9 0 14 -6t4 -15l-18 -168h170q21 0 18 -20l-35 -338q-3 -20 -22 -20h-170l-18 -170q0 -9 -7 -15t-16 -6h-338z" />
    <glyph glyph-name="comma" unicode="," horiz-adv-x="497" 
d="M-168 -172q-25 0 -16 22l121 306q7 18 24 18h344q11 0 15.5 -7t-1.5 -17l-145 -306q-5 -16 -22 -16h-320z" />
    <glyph glyph-name="hyphen" unicode="-" horiz-adv-x="430" 
d="M-37 498q-21 0 -18 20l35 338q4 21 22 21h307q9 0 14.5 -6t4.5 -15l-35 -338q-3 -20 -23 -20h-307z" />
    <glyph glyph-name="period" unicode="." horiz-adv-x="483" 
d="M-68 0q-20 0 -29.5 12t-6.5 33l30 291q2 20 14.5 32.5t32.5 12.5h316q20 0 30.5 -12t8.5 -33l-31 -291q-7 -45 -49 -45h-316z" />
    <glyph glyph-name="slash" unicode="/" horiz-adv-x="847" 
d="M-104 2q-11 0 -16 6.5t-1 16.5l512 1390q8 19 25 19h366q11 0 16 -6.5t1 -16.5l-514 -1391q-4 -18 -23 -18h-366z" />
    <glyph glyph-name="zero" unicode="0" 
d="M-2 0q-13 0 -23 10l-65 74q-11 11 -8 25l127 1216q3 17 14 25l80 73q15 11 27 11h663q16 0 23 -11l67 -73q8 -13 6 -25l-127 -1216q-3 -16 -12 -25l-82 -74q-10 -10 -26 -10h-664zM322 401q-3 -20 18 -20h61q20 0 23 20l65 631q1 9 -4 15t-14 6h-61q-20 0 -23 -21z" />
    <glyph glyph-name="one" unicode="1" horiz-adv-x="542" 
d="M-18 0q-19 0 -19 20l107 1012q1 9 -4.5 15t-14.5 6h-51q-19 0 -16 20l34 340q4 21 23 21h440q9 0 14.5 -6t4.5 -15l-148 -1393q0 -9 -6.5 -14.5t-15.5 -5.5h-348z" />
    <glyph glyph-name="two" unicode="2" horiz-adv-x="964" 
d="M774 20q0 -9 -6.5 -14.5t-15.5 -5.5h-752q-13 0 -23 10l-67 74q-11 11 -8 25l65 632q4 17 15 25l81 74q10 10 25 10h363q19 0 22 20l16 162q1 9 -4 15t-14 6h-61q-20 0 -23 -21l-8 -80q0 -9 -7 -14.5t-16 -5.5h-348q-18 0 -18 20l39 373q3 17 14 25l82 73q15 11 27 11
h661q16 0 23 -11l67 -73q8 -13 6 -25l-78 -754q-4 -17 -14 -24l-80 -74q-13 -10 -26 -10h-363q-18 0 -22 -21l-4 -41q-3 -20 18 -20h453q9 0 14 -6t4 -15z" />
    <glyph glyph-name="three" unicode="3" 
d="M2 2q-15 0 -25 10l-67 74q-8 8 -8 25l41 393q3 20 22 20h348q9 0 14.5 -5.5t4.5 -14.5l-10 -103q-3 -20 18 -20h61q20 0 23 20l16 164q1 9 -4 15t-14 6h-215q-20 0 -17 20l23 223q3 21 23 21h215q19 0 22 20l16 160q1 9 -4 15t-14 6h-61q-20 0 -23 -21l-10 -98
q0 -9 -7 -15t-16 -6h-348q-18 0 -18 21l41 393q3 17 14 25l82 73q15 11 27 11h661q16 0 23 -11l67 -73q8 -13 6 -25l-53 -508q0 -13 -10 -26l-49 -58l37 -55q6 -8 6 -27l-58 -540q0 -13 -12 -25l-82 -74q-10 -10 -24 -10h-662z" />
    <glyph glyph-name="four" unicode="4" horiz-adv-x="1017" 
d="M385 0q-18 0 -18 20l14 132q1 9 -4.5 14.5t-14.5 5.5h-434q-18 0 -18 21l27 243q0 5 4 25l352 954q9 19 24 19h568q9 0 14 -6t4 -15l-100 -944q0 -20 18 -20h51q9 0 14.5 -6t4.5 -15l-25 -235q0 -9 -6.5 -15t-15.5 -6h-51q-20 0 -23 -20l-14 -132q0 -9 -7 -14.5t-16 -5.5
h-348zM311 459q-3 -10 6 -10h74q9 0 16 5.5t7 14.5l57 530z" />
    <glyph glyph-name="five" unicode="5" 
d="M-2 0q-13 0 -23 10l-65 74q-11 11 -8 25l32 319q4 21 23 21h348q9 0 14.5 -6t4.5 -15l-2 -29q-3 -20 18 -20h61q20 0 23 20l10 101q3 20 -18 20h-451q-18 0 -18 21l92 872q3 21 22 21h840q9 0 14.5 -6t4.5 -15l-52 -481q0 -9 -6.5 -15t-15.5 -6h-348q-19 0 -19 21l13 110
q0 11 -11 11h-82q-10 0 -10 -11l-20 -194q0 -10 8 -10h373q13 0 24 -11l66 -73q8 -8 8 -25l-66 -620q-3 -16 -12 -25l-82 -74q-10 -10 -26 -10h-664z" />
    <glyph glyph-name="six" unicode="6" 
d="M-2 0q-13 0 -23 10l-65 74q-11 11 -8 25l127 1216q3 17 14 25l80 73q15 11 27 11h663q16 0 23 -11l67 -73q8 -13 6 -25l-41 -393q0 -9 -6.5 -15t-15.5 -6h-348q-19 0 -19 21l13 110q0 11 -11 11h-82q-10 0 -10 -11l-18 -178q-3 -20 18 -20h363q15 0 22 -10l66 -74
q11 -11 8 -25l-66 -626q-3 -16 -12 -25l-82 -74q-10 -10 -26 -10h-664zM322 401q-3 -20 18 -20h61q20 0 23 20l14 131q0 21 -18 21h-62q-9 0 -15.5 -6t-6.5 -15z" />
    <glyph glyph-name="seven" unicode="7" horiz-adv-x="843" 
d="M-16 0q-10 0 -14 7t-1 16l322 1019q3 11 -8 11h-303q-20 0 -17 20l35 340q4 21 22 21h805q21 0 17 -23l-439 -1393q-3 -18 -24 -18h-395z" />
    <glyph glyph-name="eight" unicode="8" 
d="M-2 0q-13 0 -23 10l-65 74q-11 11 -8 25l57 542q0 14 10 27l49 55l-36 58q-7 9 -7 26l54 508q3 17 14 25l80 73q15 11 27 11h663q16 0 23 -11l67 -73q8 -13 6 -25l-53 -508q0 -13 -10 -26l-49 -58l37 -55q6 -8 6 -27l-58 -542q-3 -16 -12 -25l-82 -74q-10 -10 -26 -10
h-664zM322 391q-3 -10 8 -10h82q9 0 12 10l18 184q0 11 -10 11h-82q-10 0 -10 -11zM373 893q0 -10 10 -10h82q10 0 10 10l17 149q0 11 -11 11h-82q-10 0 -10 -11z" />
    <glyph glyph-name="nine" unicode="9" 
d="M813 1434q16 0 23 -11l67 -73q8 -13 6 -25l-127 -1216q-3 -16 -12 -25l-82 -74q-10 -10 -26 -10h-664q-13 0 -23 10l-65 74q-11 11 -8 25l41 393q3 20 22 20h348q9 0 14.5 -5.5t4.5 -14.5l-10 -111q-3 -10 8 -10h82q9 0 12 10l18 178q0 21 -18 21h-363q-14 0 -24 10
l-66 74q-8 8 -8 24l66 627q3 17 14 25l80 73q15 11 27 11h663zM375 901q-3 -20 18 -20h62q19 0 22 20l12 131q1 9 -4 15t-14 6h-61q-20 0 -23 -21z" />
    <glyph glyph-name="colon" unicode=":" horiz-adv-x="483" 
d="M16 788q-20 0 -30.5 12.5t-8.5 33.5l31 290q2 20 14.5 32.5t32.5 12.5h316q20 0 30.5 -12t8.5 -33l-31 -290q-2 -21 -14.5 -33.5t-32.5 -12.5h-316zM-84 242l31 290q2 21 14.5 33.5t32.5 12.5h315q20 0 30.5 -12.5t8.5 -33.5l-31 -290q-7 -45 -47 -45h-315
q-20 0 -31 12.5t-8 32.5z" />
    <glyph glyph-name="semicolon" unicode=";" horiz-adv-x="321" 
d="M14 446q-20 0 -30 13t-7 33l31 290q2 20 14.5 32.5t32.5 12.5h316q20 0 30.5 -12t8.5 -33l-31 -290q-3 -21 -16 -33.5t-33 -12.5h-316zM-184 -150l121 306q7 18 24 18h344q11 0 15.5 -7t-1.5 -17l-145 -306q-5 -16 -22 -16h-320q-25 0 -16 22z" />
    <glyph glyph-name="equal" unicode="=" horiz-adv-x="763" 
d="M8 733q-19 0 -30 6t-9 15l35 338q3 20 43 20h600q42 0 39 -20l-35 -338q-3 -21 -43 -21h-600zM-76 317l35 338q3 21 43 21h600q19 0 30 -6t9 -15l-35 -338q-3 -20 -43 -20h-600q-42 0 -39 20z" />
    <glyph glyph-name="question" unicode="?" horiz-adv-x="921" 
d="M154 463q-19 0 -19 20l10 97q4 15 9 24l276 334q12 18 12 29l9 67q0 21 -19 21h-61q-9 0 -16 -6t-7 -15l-12 -102q0 -9 -7 -15t-16 -6h-307q-18 0 -18 21l41 393q3 17 14 25l82 73q15 11 27 11h620q16 0 23 -11l67 -73q8 -13 6 -25l-43 -426q-3 -16 -14 -27l-268 -335
q-8 -10 -8 -25l-5 -29q0 -9 -6.5 -14.5t-15.5 -5.5h-354zM86 20l37 340q3 21 22 21h349q9 0 14 -6t4 -15l-37 -340q0 -9 -6.5 -14.5t-15.5 -5.5h-349q-18 0 -18 20z" />
    <glyph glyph-name="at" unicode="@" horiz-adv-x="1392" 
d="M-2 0q-13 0 -23 10l-65 74q-11 11 -8 25l127 1216q3 17 14 25l80 73q15 11 27 11h1093q16 0 23 -11l67 -73q8 -13 6 -25l-88 -848q-3 -15 -12 -24l-82 -74q-10 -10 -27 -10h-301l-63 84l-82 -84h-258q-13 0 -23 10l-65 74q-11 11 -8 24l47 449q0 12 12 24l82 74
q10 10 27 10h315q13 0 23 -10l65 -74q8 -8 8 -24l-37 -355l23 -28h25q9 0 12 10l55 532q0 11 -8 11h-635q-12 0 -12 -11l-80 -768q-3 -10 8 -10h885q21 0 18 -20l-28 -267q0 -9 -7 -14.5t-16 -5.5h-1114zM594 655q0 -10 10 -10h31l12 123q0 10 -10 10h-21q-10 0 -10 -10z
" />
    <glyph glyph-name="A" unicode="A" horiz-adv-x="983" 
d="M-113 0q-19 0 -16 20l268 1393q6 21 25 21h655q21 0 21 -21l-27 -1393q1 -9 -5 -14.5t-15 -5.5h-349q-17 0 -20 20l6 191h-133l-37 -191q-3 -20 -24 -20h-349zM354 549h92l21 504h-31z" />
    <glyph glyph-name="B" unicode="B" 
d="M-90 0q-19 0 -19 20l148 1393q3 21 22 21h752q16 0 23 -11l67 -73q8 -13 6 -25l-55 -528q0 -20 -10 -27l-78 -43q-7 -4 -8 -14.5t4 -14.5l69 -43q7 -5 7 -24l-56 -522q-3 -16 -12 -25l-82 -74q-10 -10 -26 -10h-752zM319 381h82q20 0 23 20l22 205q0 21 -18 21h-82z
M365 801h81q20 0 23 20l20 211q1 9 -4 15t-14 6h-82z" />
    <glyph glyph-name="C" unicode="C" 
d="M-2 0q-13 0 -23 10l-65 74q-11 11 -8 25l127 1216q3 17 14 25l80 73q15 11 27 11h663q16 0 23 -11l67 -73q8 -13 6 -25l-55 -537q-3 -20 -23 -20h-348q-21 0 -18 20l24 244q1 9 -4 15t-14 6h-61q-20 0 -23 -21l-65 -631q-3 -20 18 -20h61q20 0 23 20l27 246q0 9 6.5 15
t15.5 6h348q19 0 19 -21l-58 -538q-3 -16 -12 -25l-82 -74q-10 -10 -26 -10h-664z" />
    <glyph glyph-name="D" unicode="D" 
d="M-90 0q-19 0 -19 20l148 1393q3 21 22 21h752q16 0 23 -11l67 -73q8 -13 6 -25l-127 -1216q-3 -16 -12 -25l-82 -74q-10 -10 -26 -10h-752zM319 381h82q20 0 23 20l65 631q1 9 -4 15t-14 6h-82z" />
    <glyph glyph-name="E" unicode="E" horiz-adv-x="829" 
d="M-90 0q-19 0 -19 20l148 1393q3 21 22 21h707q9 0 14 -6t4 -15l-41 -381q0 -20 -18 -20h-321q-20 0 -23 -21l-10 -100q0 -21 18 -21h174q9 0 14.5 -5.5t4.5 -14.5l-27 -256q-3 -21 -22 -21h-175q-9 0 -15.5 -5.5t-6.5 -14.5l-12 -109q0 -20 18 -20h322q8 0 12 -6t2 -15
l-41 -383q0 -9 -7 -14.5t-16 -5.5h-706z" />
    <glyph glyph-name="F" unicode="F" horiz-adv-x="829" 
d="M-90 0q-19 0 -19 20l148 1393q3 21 22 21h707q9 0 14 -6t4 -15l-41 -383q0 -9 -6.5 -14.5t-15.5 -5.5h-317q-20 0 -23 -21l-12 -117q0 -20 18 -20h174q9 0 14.5 -6t4.5 -15l-31 -296q-3 -21 -23 -21h-174q-9 0 -15.5 -5.5t-6.5 -14.5l-51 -474q0 -9 -7 -14.5t-16 -5.5
h-348z" />
    <glyph glyph-name="G" unicode="G" horiz-adv-x="964" 
d="M-2 0q-13 0 -23 10l-65 74q-11 11 -8 25l127 1216q3 17 14 25l80 73q15 11 27 11h661q16 0 23 -11l69 -73q8 -13 6 -25l-41 -393q0 -9 -6.5 -15t-15.5 -6h-348q-19 0 -19 21l10 100q1 9 -4 15t-14 6h-61q-20 0 -23 -21l-65 -631q-3 -20 18 -20h61q20 0 23 20l16 156
q0 10 -8 10h-26q-9 0 -14.5 6t-4.5 15l25 235q0 9 6.5 15t15.5 6h408q18 0 18 -21l-76 -714q-3 -16 -12 -25l-82 -74q-10 -10 -26 -10h-666z" />
    <glyph glyph-name="H" unicode="H" horiz-adv-x="964" 
d="M-90 0q-19 0 -19 20l148 1393q3 21 22 21h349q9 0 14 -6t4 -15l-53 -504h104l53 504q4 21 23 21h348q9 0 14.5 -6t4.5 -15l-146 -1390q-4 -21 -22 -21h-348q-9 0 -14.5 6t-4.5 15l55 528h-104l-57 -531q0 -9 -7 -14.5t-16 -5.5h-348z" />
    <glyph glyph-name="I" unicode="I" horiz-adv-x="532" 
d="M-90 0q-19 0 -19 20l148 1393q3 21 22 21h410q9 0 14 -6t4 -15l-147 -1393q0 -9 -7 -14.5t-16 -5.5h-409z" />
    <glyph glyph-name="J" unicode="J" horiz-adv-x="704" 
d="M-94 0q-15 0 -15 20l37 338q0 9 5.5 15t13.5 6h196q20 0 23 20l106 1014q4 21 23 21h348q9 0 14.5 -6t4.5 -15l-138 -1304q-3 -16 -12 -25l-82 -74q-10 -10 -27 -10h-497z" />
    <glyph glyph-name="K" unicode="K" horiz-adv-x="1044" 
d="M-90 0q-19 0 -19 20l148 1393q3 21 22 21h349q9 0 14 -6t4 -15l-59 -567l184 569q6 19 25 19h409q18 0 14 -23l-225 -682l119 -706q1 -10 -5.5 -16.5t-17.5 -6.5h-407q-18 0 -21 16l-102 574l-61 -570q0 -9 -7 -14.5t-16 -5.5h-348z" />
    <glyph glyph-name="L" unicode="L" horiz-adv-x="788" 
d="M-90 0q-19 0 -19 20l148 1393q3 21 22 21h390q9 0 14 -6t4 -15l-109 -1032h281q17 0 14 -21l-37 -340q0 -9 -6.5 -14.5t-15.5 -5.5h-686z" />
    <glyph glyph-name="M" unicode="M" horiz-adv-x="1044" 
d="M39 1413q3 21 22 21h336q15 0 25 -9.5t12 -23.5l29 -531l139 531q5 14 17.5 23.5t27.5 9.5h336q9 0 14 -6t4 -15l-147 -1393q0 -9 -7 -14.5t-16 -5.5h-350q-18 0 -18 20l39 361l-113 -221l-67 221l-39 -361q0 -9 -7 -14.5t-16 -5.5h-350q-19 0 -19 20z" />
    <glyph glyph-name="N" unicode="N" horiz-adv-x="1003" 
d="M-90 0q-19 0 -19 20l148 1393q3 21 22 21h392q20 0 20 -19l16 -538q0 -9 13 -9h2q8 0 12 11l55 534q3 21 23 21h348q9 0 14.5 -6t4.5 -15l-148 -1393q0 -9 -6.5 -14.5t-15.5 -5.5h-392q-16 0 -20 18l-17 541q0 8 -8 8h-4q-12 0 -12 -10l-57 -537q0 -9 -7 -14.5t-16 -5.5
h-348z" />
    <glyph glyph-name="O" unicode="O" 
d="M-2 0q-13 0 -23 10l-65 74q-11 11 -8 25l127 1216q3 17 14 25l80 73q15 11 27 11h663q16 0 23 -11l67 -73q8 -13 6 -25l-127 -1216q-3 -16 -12 -25l-82 -74q-10 -10 -26 -10h-664zM322 401q-3 -20 18 -20h61q20 0 23 20l65 631q1 9 -4 15t-14 6h-61q-20 0 -23 -21z" />
    <glyph glyph-name="P" unicode="P" 
d="M-90 0q-19 0 -19 20l148 1393q3 21 22 21h752q16 0 23 -11l67 -73q8 -13 6 -25l-96 -919q0 -13 -12 -25l-82 -74q-10 -10 -25 -10h-372q-13 0 -13 -10l-28 -267q0 -9 -7 -14.5t-16 -5.5h-348zM352 684h82q20 0 23 21l32 327q1 9 -4 15t-14 6h-82z" />
    <glyph glyph-name="Q" unicode="Q" 
d="M168 -129q-21 0 -18 20l10 99q0 10 -10 10h-152q-13 0 -23 10l-65 74q-11 11 -8 25l127 1216q3 17 14 25l80 73q15 11 27 11h663q16 0 23 -11l67 -73q8 -13 6 -25l-127 -1216q-3 -16 -12 -25l-82 -74q-10 -10 -26 -10h-150q-10 0 -10 -10l-10 -99q-3 -20 -23 -20h-301z
M319 377q-1 -9 4.5 -15t14.5 -6h61q19 0 23 21l67 655q1 9 -4 15t-14 6h-61q-20 0 -23 -21z" />
    <glyph glyph-name="R" unicode="R" 
d="M-90 0q-19 0 -19 20l148 1393q3 21 22 21h752q16 0 23 -11l67 -73q8 -13 6 -25l-65 -635q-4 -21 -13 -26l-77 -43q-6 -5 -7 -14.5t5 -14.5l69 -43q7 -7 4 -25l-53 -504q0 -9 -6.5 -14.5t-15.5 -5.5h-349q-18 0 -18 20l35 330q1 9 -4.5 15t-14.5 6h-82l-36 -351
q0 -9 -7 -14.5t-16 -5.5h-348zM360 776h82q9 0 16 6t7 15l24 235q1 9 -4 15t-14 6h-82z" />
    <glyph glyph-name="S" unicode="S" 
d="M-2 0q-13 0 -23 10l-65 74q-11 11 -8 25l39 374q3 21 22 21h348q9 0 14.5 -6t4.5 -15l-8 -92q-3 -10 8 -10h82q9 0 12 10l16 158q0 20 -18 20h-363q-13 0 -24 11l-66 73q-8 8 -8 25l68 647q3 17 14 25l80 73q15 11 27 11h661q16 0 23 -11l69 -73q8 -13 6 -25l-39 -373
q0 -9 -6.5 -14.5t-15.5 -5.5h-348q-19 0 -19 20l11 90q0 11 -11 11h-82q-10 0 -10 -11l-16 -151q0 -21 18 -21h363q14 0 24 -10l66 -74q8 -12 8 -24l-70 -653q-3 -16 -12 -25l-84 -74q-10 -10 -27 -10h-661z" />
    <glyph glyph-name="T" unicode="T" horiz-adv-x="880" 
d="M104 0q-18 0 -18 20l109 1022q0 11 -11 11h-204q-20 0 -17 20l35 340q4 21 22 21h820q9 0 14 -6t4 -15l-35 -340q-3 -20 -24 -20h-205q-10 0 -10 -11l-109 -1022q0 -9 -6.5 -14.5t-15.5 -5.5h-349z" />
    <glyph glyph-name="U" unicode="U" 
d="M-2 0q-13 0 -23 10l-65 74q-11 11 -8 25l137 1304q3 21 22 21h349q9 0 14 -6t4 -15l-106 -1022q-3 -10 8 -10h82q9 0 12 10l106 1022q4 21 23 21h348q9 0 14.5 -6t4.5 -15l-138 -1304q-3 -16 -12 -25l-82 -74q-10 -10 -26 -10h-664z" />
    <glyph glyph-name="V" unicode="V" horiz-adv-x="983" 
d="M12 0q-17 0 -20 20l6 1393q0 9 6.5 15t15.5 6h398q23 0 20 -21l-53 -891q0 -10 10 -10h4q11 0 11 10l131 891q3 21 24 21h398q9 0 15 -6t3 -15l-289 -1393q-3 -20 -24 -20h-656z" />
    <glyph glyph-name="W" unicode="W" horiz-adv-x="1212" 
d="M-18 0q-18 0 -21 20l27 1393q0 21 20 21h328q21 0 18 -21l-35 -651q-3 -10 9 -10h12q10 0 12 10l109 651q3 21 22 21h246q10 0 16 -5.5t5 -15.5l-25 -653q0 -10 10 -10h13q10 0 10 10l96 653q3 21 23 21h327q23 0 17 -21l-269 -1393q-3 -20 -24 -20h-410q-18 0 -18 20
l26 517q0 10 -10 10h-8q-10 0 -10 -10l-84 -517q0 -20 -23 -20h-409z" />
    <glyph glyph-name="X" unicode="X" horiz-adv-x="1017" 
d="M-125 0q-20 0 -12 23l225 675q4 8 4 25l-72 688q-2 9 4.5 16t16.5 7h362q19 0 19 -19l35 -373q0 -10 10 -10h10q15 0 15 10l114 373q6 19 23 19h348q20 0 16 -23l-215 -688q-4 -8 -4 -25l86 -675q0 -23 -20 -23h-357q-14 0 -20 18l-53 357q0 10 -13 10h-6q-12 0 -12 -10
l-127 -357q-6 -18 -25 -18h-352z" />
    <glyph glyph-name="Y" unicode="Y" horiz-adv-x="964" 
d="M-51 465q-9 13 -6 24l96 924q3 21 22 21h349q9 0 14 -6t4 -15l-72 -678h105l71 678q4 21 23 21h348q9 0 14.5 -6t4.5 -15l-97 -924q-4 -17 -14 -24l-80 -74q-13 -10 -26 -10h-134l-36 -358q-3 -21 -23 -21h-348q-9 0 -14.5 6t-4.5 15l37 358h-143q-16 0 -23 10z" />
    <glyph glyph-name="Z" unicode="Z" horiz-adv-x="788" 
d="M-129 0q-10 0 -13.5 6.5t-0.5 16.5l360 1019q3 11 -10 11h-197q-19 0 -16 20l35 340q3 21 22 21h715q20 0 16 -23l-360 -1022q-2 -10 10 -10h195q18 0 18 -21l-37 -338q0 -9 -6.5 -14.5t-15.5 -5.5h-715z" />
    <glyph glyph-name="bracketleft" unicode="[" horiz-adv-x="645" 
d="M-90 0q-19 0 -19 20l148 1393q3 21 22 21h523q9 0 14 -6t4 -15l-35 -340q-3 -20 -24 -20h-154l-70 -672h154q9 0 14.5 -6t4.5 -15l-37 -340q0 -9 -7 -14.5t-16 -5.5h-522z" />
    <glyph glyph-name="backslash" unicode="\" horiz-adv-x="827" 
d="M266 2q-18 0 -22 18l-219 1391q-3 23 20 23h367q9 0 14.5 -5.5t5.5 -13.5l221 -1390q3 -23 -20 -23h-367z" />
    <glyph glyph-name="bracketright" unicode="]" horiz-adv-x="645" 
d="M-90 0q-19 0 -19 20l37 340q4 21 23 21h153l70 672h-154q-19 0 -16 20l35 340q3 21 22 21h523q9 0 14 -6t4 -15l-147 -1393q0 -9 -7 -14.5t-16 -5.5h-522z" />
    <glyph glyph-name="asciicircum" unicode="^" horiz-adv-x="528" 
d="M12 934q-11 -7 -17 -5t-5 15l35 340q4 21 14 25l211 125q14 9 29 0l186 -125q10 -6 6 -25l-35 -340q-3 -23 -26 -10l-187 119z" />
    <glyph glyph-name="underscore" unicode="_" horiz-adv-x="655" 
d="M-121 -303q-21 0 -18 20l24 230q0 9 7 14.5t16 5.5h532q19 0 19 -20l-25 -230q-3 -20 -22 -20h-533z" />
    <glyph glyph-name="a" unicode="a" horiz-adv-x="983" 
d="M-113 0q-19 0 -16 20l268 1393q6 21 25 21h655q21 0 21 -21l-27 -1393q1 -9 -5 -14.5t-15 -5.5h-349q-17 0 -20 20l6 191h-133l-37 -191q-3 -20 -24 -20h-349zM354 549h92l21 504h-31z" />
    <glyph glyph-name="b" unicode="b" 
d="M-90 0q-19 0 -19 20l148 1393q3 21 22 21h752q16 0 23 -11l67 -73q8 -13 6 -25l-55 -528q0 -20 -10 -27l-78 -43q-7 -4 -8 -14.5t4 -14.5l69 -43q7 -5 7 -24l-56 -522q-3 -16 -12 -25l-82 -74q-10 -10 -26 -10h-752zM319 381h82q20 0 23 20l22 205q0 21 -18 21h-82z
M365 801h81q20 0 23 20l20 211q1 9 -4 15t-14 6h-82z" />
    <glyph glyph-name="c" unicode="c" 
d="M-2 0q-13 0 -23 10l-65 74q-11 11 -8 25l127 1216q3 17 14 25l80 73q15 11 27 11h663q16 0 23 -11l67 -73q8 -13 6 -25l-55 -537q-3 -20 -23 -20h-348q-21 0 -18 20l24 244q1 9 -4 15t-14 6h-61q-20 0 -23 -21l-65 -631q-3 -20 18 -20h61q20 0 23 20l27 246q0 9 6.5 15
t15.5 6h348q19 0 19 -21l-58 -538q-3 -16 -12 -25l-82 -74q-10 -10 -26 -10h-664z" />
    <glyph glyph-name="d" unicode="d" 
d="M-90 0q-19 0 -19 20l148 1393q3 21 22 21h752q16 0 23 -11l67 -73q8 -13 6 -25l-127 -1216q-3 -16 -12 -25l-82 -74q-10 -10 -26 -10h-752zM319 381h82q20 0 23 20l65 631q1 9 -4 15t-14 6h-82z" />
    <glyph glyph-name="e" unicode="e" horiz-adv-x="829" 
d="M-90 0q-19 0 -19 20l148 1393q3 21 22 21h707q9 0 14 -6t4 -15l-41 -381q0 -20 -18 -20h-321q-20 0 -23 -21l-10 -100q0 -21 18 -21h174q9 0 14.5 -5.5t4.5 -14.5l-27 -256q-3 -21 -22 -21h-175q-9 0 -15.5 -5.5t-6.5 -14.5l-12 -109q0 -20 18 -20h322q8 0 12 -6t2 -15
l-41 -383q0 -9 -7 -14.5t-16 -5.5h-706z" />
    <glyph glyph-name="f" unicode="f" horiz-adv-x="829" 
d="M-90 0q-19 0 -19 20l148 1393q3 21 22 21h707q9 0 14 -6t4 -15l-41 -383q0 -9 -6.5 -14.5t-15.5 -5.5h-317q-20 0 -23 -21l-12 -117q0 -20 18 -20h174q9 0 14.5 -6t4.5 -15l-31 -296q-3 -21 -23 -21h-174q-9 0 -15.5 -5.5t-6.5 -14.5l-51 -474q0 -9 -7 -14.5t-16 -5.5
h-348z" />
    <glyph glyph-name="g" unicode="g" horiz-adv-x="964" 
d="M-2 0q-13 0 -23 10l-65 74q-11 11 -8 25l127 1216q3 17 14 25l80 73q15 11 27 11h661q16 0 23 -11l69 -73q8 -13 6 -25l-41 -393q0 -9 -6.5 -15t-15.5 -6h-348q-19 0 -19 21l10 100q1 9 -4 15t-14 6h-61q-20 0 -23 -21l-65 -631q-3 -20 18 -20h61q20 0 23 20l16 156
q0 10 -8 10h-26q-9 0 -14.5 6t-4.5 15l25 235q0 9 6.5 15t15.5 6h408q18 0 18 -21l-76 -714q-3 -16 -12 -25l-82 -74q-10 -10 -26 -10h-666z" />
    <glyph glyph-name="h" unicode="h" horiz-adv-x="964" 
d="M-90 0q-19 0 -19 20l148 1393q3 21 22 21h349q9 0 14 -6t4 -15l-53 -504h104l53 504q4 21 23 21h348q9 0 14.5 -6t4.5 -15l-146 -1390q-4 -21 -22 -21h-348q-9 0 -14.5 6t-4.5 15l55 528h-104l-57 -531q0 -9 -7 -14.5t-16 -5.5h-348z" />
    <glyph glyph-name="i" unicode="i" horiz-adv-x="532" 
d="M-90 0q-19 0 -19 20l148 1393q3 21 22 21h410q9 0 14 -6t4 -15l-147 -1393q0 -9 -7 -14.5t-16 -5.5h-409z" />
    <glyph glyph-name="j" unicode="j" horiz-adv-x="704" 
d="M-94 0q-15 0 -15 20l37 338q0 9 5.5 15t13.5 6h196q20 0 23 20l106 1014q4 21 23 21h348q9 0 14.5 -6t4.5 -15l-138 -1304q-3 -16 -12 -25l-82 -74q-10 -10 -27 -10h-497z" />
    <glyph glyph-name="k" unicode="k" horiz-adv-x="1044" 
d="M-90 0q-19 0 -19 20l148 1393q3 21 22 21h349q9 0 14 -6t4 -15l-59 -567l184 569q6 19 25 19h409q18 0 14 -23l-225 -682l119 -706q1 -10 -5.5 -16.5t-17.5 -6.5h-407q-18 0 -21 16l-102 574l-61 -570q0 -9 -7 -14.5t-16 -5.5h-348z" />
    <glyph glyph-name="l" unicode="l" horiz-adv-x="788" 
d="M-90 0q-19 0 -19 20l148 1393q3 21 22 21h390q9 0 14 -6t4 -15l-109 -1032h281q17 0 14 -21l-37 -340q0 -9 -6.5 -14.5t-15.5 -5.5h-686z" />
    <glyph glyph-name="m" unicode="m" horiz-adv-x="1044" 
d="M39 1413q3 21 22 21h336q15 0 25 -9.5t12 -23.5l29 -531l139 531q5 14 17.5 23.5t27.5 9.5h336q9 0 14 -6t4 -15l-147 -1393q0 -9 -7 -14.5t-16 -5.5h-350q-18 0 -18 20l39 361l-113 -221l-67 221l-39 -361q0 -9 -7 -14.5t-16 -5.5h-350q-19 0 -19 20z" />
    <glyph glyph-name="n" unicode="n" horiz-adv-x="1003" 
d="M-90 0q-19 0 -19 20l148 1393q3 21 22 21h392q20 0 20 -19l16 -538q0 -9 13 -9h2q8 0 12 11l55 534q3 21 23 21h348q9 0 14.5 -6t4.5 -15l-148 -1393q0 -9 -6.5 -14.5t-15.5 -5.5h-392q-16 0 -20 18l-17 541q0 8 -8 8h-4q-12 0 -12 -10l-57 -537q0 -9 -7 -14.5t-16 -5.5
h-348z" />
    <glyph glyph-name="o" unicode="o" 
d="M-2 0q-13 0 -23 10l-65 74q-11 11 -8 25l127 1216q3 17 14 25l80 73q15 11 27 11h663q16 0 23 -11l67 -73q8 -13 6 -25l-127 -1216q-3 -16 -12 -25l-82 -74q-10 -10 -26 -10h-664zM322 401q-3 -20 18 -20h61q20 0 23 20l65 631q1 9 -4 15t-14 6h-61q-20 0 -23 -21z" />
    <glyph glyph-name="p" unicode="p" 
d="M-90 0q-19 0 -19 20l148 1393q3 21 22 21h752q16 0 23 -11l67 -73q8 -13 6 -25l-96 -919q0 -13 -12 -25l-82 -74q-10 -10 -25 -10h-372q-13 0 -13 -10l-28 -267q0 -9 -7 -14.5t-16 -5.5h-348zM352 684h82q20 0 23 21l32 327q1 9 -4 15t-14 6h-82z" />
    <glyph glyph-name="q" unicode="q" 
d="M168 -129q-21 0 -18 20l10 99q0 10 -10 10h-152q-13 0 -23 10l-65 74q-11 11 -8 25l127 1216q3 17 14 25l80 73q15 11 27 11h663q16 0 23 -11l67 -73q8 -13 6 -25l-127 -1216q-3 -16 -12 -25l-82 -74q-10 -10 -26 -10h-150q-10 0 -10 -10l-10 -99q-3 -20 -23 -20h-301z
M319 377q-1 -9 4.5 -15t14.5 -6h61q19 0 23 21l67 655q1 9 -4 15t-14 6h-61q-20 0 -23 -21z" />
    <glyph glyph-name="r" unicode="r" 
d="M-90 0q-19 0 -19 20l148 1393q3 21 22 21h752q16 0 23 -11l67 -73q8 -13 6 -25l-65 -635q-4 -21 -13 -26l-77 -43q-6 -5 -7 -14.5t5 -14.5l69 -43q7 -7 4 -25l-53 -504q0 -9 -6.5 -14.5t-15.5 -5.5h-349q-18 0 -18 20l35 330q1 9 -4.5 15t-14.5 6h-82l-36 -351
q0 -9 -7 -14.5t-16 -5.5h-348zM360 776h82q9 0 16 6t7 15l24 235q1 9 -4 15t-14 6h-82z" />
    <glyph glyph-name="s" unicode="s" 
d="M-2 0q-13 0 -23 10l-65 74q-11 11 -8 25l39 374q3 21 22 21h348q9 0 14.5 -6t4.5 -15l-8 -92q-3 -10 8 -10h82q9 0 12 10l16 158q0 20 -18 20h-363q-13 0 -24 11l-66 73q-8 8 -8 25l68 647q3 17 14 25l80 73q15 11 27 11h661q16 0 23 -11l69 -73q8 -13 6 -25l-39 -373
q0 -9 -6.5 -14.5t-15.5 -5.5h-348q-19 0 -19 20l11 90q0 11 -11 11h-82q-10 0 -10 -11l-16 -151q0 -21 18 -21h363q14 0 24 -10l66 -74q8 -12 8 -24l-70 -653q-3 -16 -12 -25l-84 -74q-10 -10 -27 -10h-661z" />
    <glyph glyph-name="t" unicode="t" horiz-adv-x="880" 
d="M104 0q-18 0 -18 20l109 1022q0 11 -11 11h-204q-20 0 -17 20l35 340q4 21 22 21h820q9 0 14 -6t4 -15l-35 -340q-3 -20 -24 -20h-205q-10 0 -10 -11l-109 -1022q0 -9 -6.5 -14.5t-15.5 -5.5h-349z" />
    <glyph glyph-name="u" unicode="u" 
d="M-2 0q-13 0 -23 10l-65 74q-11 11 -8 25l137 1304q3 21 22 21h349q9 0 14 -6t4 -15l-106 -1022q-3 -10 8 -10h82q9 0 12 10l106 1022q4 21 23 21h348q9 0 14.5 -6t4.5 -15l-138 -1304q-3 -16 -12 -25l-82 -74q-10 -10 -26 -10h-664z" />
    <glyph glyph-name="v" unicode="v" horiz-adv-x="983" 
d="M12 0q-17 0 -20 20l6 1393q0 9 6.5 15t15.5 6h398q23 0 20 -21l-53 -891q0 -10 10 -10h4q11 0 11 10l131 891q3 21 24 21h398q9 0 15 -6t3 -15l-289 -1393q-3 -20 -24 -20h-656z" />
    <glyph glyph-name="w" unicode="w" horiz-adv-x="1212" 
d="M-18 0q-18 0 -21 20l27 1393q0 21 20 21h328q21 0 18 -21l-35 -651q-3 -10 9 -10h12q10 0 12 10l109 651q3 21 22 21h246q10 0 16 -5.5t5 -15.5l-25 -653q0 -10 10 -10h13q10 0 10 10l96 653q3 21 23 21h327q23 0 17 -21l-269 -1393q-3 -20 -24 -20h-410q-18 0 -18 20
l26 517q0 10 -10 10h-8q-10 0 -10 -10l-84 -517q0 -20 -23 -20h-409z" />
    <glyph glyph-name="x" unicode="x" horiz-adv-x="1017" 
d="M-125 0q-20 0 -12 23l225 675q4 8 4 25l-72 688q-2 9 4.5 16t16.5 7h362q19 0 19 -19l35 -373q0 -10 10 -10h10q15 0 15 10l114 373q6 19 23 19h348q20 0 16 -23l-215 -688q-4 -8 -4 -25l86 -675q0 -23 -20 -23h-357q-14 0 -20 18l-53 357q0 10 -13 10h-6q-12 0 -12 -10
l-127 -357q-6 -18 -25 -18h-352z" />
    <glyph glyph-name="y" unicode="y" horiz-adv-x="964" 
d="M-51 465q-9 13 -6 24l96 924q3 21 22 21h349q9 0 14 -6t4 -15l-72 -678h105l71 678q4 21 23 21h348q9 0 14.5 -6t4.5 -15l-97 -924q-4 -17 -14 -24l-80 -74q-13 -10 -26 -10h-134l-36 -358q-3 -21 -23 -21h-348q-9 0 -14.5 6t-4.5 15l37 358h-143q-16 0 -23 10z" />
    <glyph glyph-name="z" unicode="z" horiz-adv-x="788" 
d="M-129 0q-10 0 -13.5 6.5t-0.5 16.5l360 1019q3 11 -10 11h-197q-19 0 -16 20l35 340q3 21 22 21h715q20 0 16 -23l-360 -1022q-2 -10 10 -10h195q18 0 18 -21l-37 -338q0 -9 -6.5 -14.5t-15.5 -5.5h-715z" />
    <glyph glyph-name="braceleft" unicode="{" horiz-adv-x="679" 
d="M487 -2q-93 0 -177.5 23.5t-150 67.5t-96 116.5t-10.5 161.5q31 121 10.5 167t-112.5 46l29 272q62 0 90 14t42 61t15 150q0 77 47.5 145.5t122 114t165 71.5t177.5 26l-45 -424q-30 0 -50.5 -7.5t-30 -18.5t-15 -30.5t-6 -35t-1 -40.5t-2.5 -40q-5 -51 -39.5 -85
t-87.5 -34v-6q58 0 85.5 -24t21.5 -83q-2 -13 -7 -40.5t-7 -43.5t-1 -37.5t8 -33.5t24.5 -20.5t45.5 -8.5z" />
    <glyph glyph-name="bar" unicode="|" horiz-adv-x="471" 
d="M-90 0q-19 0 -19 20l148 1393q3 21 22 21h349q9 0 14 -6t4 -15l-147 -1393q0 -9 -7 -14.5t-16 -5.5h-348z" />
    <glyph glyph-name="braceright" unicode="}" horiz-adv-x="475" 
d="M-270 422q28 0 47 8.5t29 21t15.5 33.5t6.5 37.5t2.5 42.5t3.5 41q6 59 37.5 83t89.5 24v6q-52 0 -79.5 34t-22.5 85q2 14 7 39.5t7.5 41t1.5 35t-8.5 30.5t-26.5 18.5t-49 7.5l45 424q87 0 172 -26t150.5 -71.5t98.5 -114t17 -145.5q-13 -62 -17 -101.5t-0.5 -65t20 -38
t37.5 -16.5t59 -4l-29 -272q-91 0 -120 -44t-27 -169q2 -89 -43.5 -161.5t-121 -116.5t-165 -67.5t-182.5 -23.5z" />
    <glyph glyph-name="exclamdown" unicode="&#xa1;" horiz-adv-x="471" 
d="M338 760q9 0 14 -6t4 -15l-96 -925q-4 -21 -22 -21h-349q-9 0 -14 6t-4 15l96 925q3 21 23 21h348zM-18 866l34 340q4 21 23 21h348q9 0 14.5 -6t4.5 -15l-35 -340q-3 -20 -23 -20h-348q-21 0 -18 20z" />
    <glyph glyph-name="cent" unicode="&#xa2;" horiz-adv-x="1132" 
d="M309 2q-9 0 -14 6t-4 15l8 81h-289q-13 0 -24 11l-66 73q-8 8 -8 25l106 1010q3 14 13 24l82 74q13 10 26 10h289l8 82q4 21 23 21h215q9 0 14 -6t4 -15l-8 -82h289q15 0 22 -10l66 -74q11 -11 8 -24l-35 -340q-4 -21 -22 -21h-287q-9 0 -14 6t-4 15l12 121q0 10 -10 10
h-60l-61 -592h59q9 0 12 10l13 121q0 9 6.5 14.5t15.5 5.5h287q18 0 18 -20l-36 -340q0 -12 -13 -25l-82 -73q-11 -11 -24 -11h-289l-8 -81q-3 -21 -23 -21h-215zM264 432q-3 -10 8 -10h60l61 592h-59q-10 0 -10 -10z" />
    <glyph glyph-name="sterling" unicode="&#xa3;" horiz-adv-x="806" 
d="M588 600q0 -7 -7 -12.5t-16 -5.5h-123l-20 -201h213q8 0 13.5 -6t4.5 -13l-37 -344q0 -7 -6.5 -12.5t-15.5 -5.5h-725q-8 0 -13.5 5.5t-5.5 12.5l37 344q4 19 23 19h123l20 201h-123q-8 0 -13 5t-5 13l27 252q4 18 22 18h123l47 455q3 17 14 25l80 73q15 11 27 11h498
q8 0 12 -6t2 -15l-35 -338q-3 -20 -18 -20h-197q-9 0 -15.5 -6t-6.5 -15l-19 -164h123q8 0 13.5 -5.5t4.5 -12.5z" />
    <glyph glyph-name="currency" unicode="&#xa4;" horiz-adv-x="1034" 
d="M-70 315q-14 13 2 29l119 107q-58 106 -43 233q12 127 92 234l-96 106q-14 14 2 29l113 102q14 14 28 0l97 -108q112 67 239 67q126 0 224 -67l120 108q6 6 14.5 6t14.5 -6l92 -100q12 -16 -4 -29l-121 -111q57 -102 45 -231q-14 -123 -92 -231l96 -109q14 -14 -2 -29
l-114 -100q-6 -6 -14.5 -6t-14.5 6l-94 107q-114 -68 -242 -68q-127 0 -223 68l-119 -107q-6 -6 -14.5 -6t-14.5 6zM307 684q-6 -54 28.5 -92.5t88.5 -38.5t96.5 38.5t48.5 92.5q5 54 -29.5 92.5t-88.5 38.5t-97 -38.5t-47 -92.5z" />
    <glyph glyph-name="yen" unicode="&#xa5;" horiz-adv-x="964" 
d="M31 289q-19 0 -19 20l13 113q3 20 22 20h141l7 62h-144q-15 0 -22 10l-66 74q-11 11 -8 24l84 801q3 21 22 21h349q9 0 14 -6t4 -15l-59 -555h104l59 555q4 21 23 21h348q9 0 14.5 -6t4.5 -15l-84 -801q-4 -15 -13 -24l-82 -74q-13 -10 -26 -10h-133l-6 -62h133
q21 0 18 -20l-12 -113q0 -9 -7 -14.5t-16 -5.5h-133l-4 -51h133q19 0 19 -21l-13 -113q-3 -20 -22 -20h-133l-6 -61q-3 -21 -23 -21h-348q-9 0 -14.5 6t-4.5 15l7 61h-142q-21 0 -18 20l12 113q0 9 7 15t16 6h141l4 51h-141z" />
    <glyph glyph-name="section" unicode="&#xa7;" horiz-adv-x="512" 
d="M-2 0q-13 0 -23 10l-65 74q-11 11 -8 25l22 217q3 20 23 20h143q9 0 14.5 -5.5t4.5 -14.5l-15 -142q0 -10 8 -10h41q13 0 13 10l14 142q2 11 -8 24l-197 260q-10 14 -8 25l25 239q3 17 14 25l59 55l-47 66q-8 11 -8 24l29 281q3 17 14 25l80 73q15 11 27 11h210
q16 0 23 -11l70 -73q8 -13 6 -25l-23 -215q0 -9 -6.5 -14.5t-15.5 -5.5h-144q-18 0 -18 20l16 139q0 11 -10 11h-41q-10 0 -10 -11l-17 -143q0 -13 9 -25l198 -260q8 -15 6 -24l-24 -238q0 -12 -12 -24l-64 -56l51 -67q8 -16 6 -25l-28 -278q-3 -15 -13 -25l-83 -74
q-10 -10 -27 -10h-211zM147 696q0 -12 9 -24l34 -47q13 0 13 10l10 100q2 11 -8 25l-37 49q-7 0 -10 -10z" />
    <glyph glyph-name="copyright" unicode="&#xa9;" horiz-adv-x="874" 
d="M-12 440q-7 0 -13 6l-30 33q-6 6 -2 13l92 890q3 10 6 13l39 35q4 4 12 4h692q7 0 11 -4l30 -35q5 -5 2 -13l-92 -890l-2 -6q-2 -5 -4 -7l-39 -33q-6 -6 -10 -6h-692zM145 629q0 -4 2 -4h408q6 0 6 4l64 616q3 6 -2 6h-408q-3 0 -6 -6zM203 723l45 430q0 6 4 10l39 35
q4 4 10 4h223q7 0 11 -4l30 -35q4 -4 4 -10l-20 -182q0 -8 -8 -8h-129q-9 0 -9 8l11 86q0 4 -6 4h-19q-4 0 -4 -4l-27 -238q0 -6 4 -6h19q6 0 6 6l10 84q0 10 9 10h129q8 0 8 -10l-19 -180q-3 -9 -6 -12l-39 -35q-4 -4 -10 -4h-223q-6 0 -10 4l-31 35q-5 5 -2 12z" />
    <glyph glyph-name="guillemotleft" unicode="&#xab;" horiz-adv-x="1058" 
d="M545 207q-20 0 -23 16l-94 379q-3 15 4 29l172 379q8 16 27 16h325q24 0 15 -22l-170 -373q-4 -8 -4 -29l92 -373q3 -22 -19 -22h-325zM-43 602q-3 15 4 29l172 379q8 16 27 16h325q24 0 15 -22l-170 -373q-4 -8 -4 -29l92 -373q3 -22 -19 -22h-325q-20 0 -23 16z" />
    <glyph glyph-name="registered" unicode="&#xae;" horiz-adv-x="862" 
d="M-2 432q-8 0 -14 6l-37 41q-7 7 -4 15l92 878q0 9 8 14l45 41q7 7 14 7h658q8 0 12 -7l39 -41q4 -8 4 -14l-92 -878q-3 -10 -8 -15l-47 -41q-3 -6 -13 -6h-657zM117 596q0 -6 6 -6h440q6 0 6 6l72 674q0 6 -6 6h-440q-7 0 -7 -6zM180 659l58 547q3 13 14 13h264
q8 0 12 -7l37 -43q6 -6 6 -12l-24 -223q0 -8 -4 -12l-23 -27q-8 -8 0 -16l15 -23q4 -4 4 -14l-21 -183q0 -12 -12 -12h-117q-10 0 -10 12l18 168q0 13 -10 13h-47l-21 -181q0 -12 -12 -12h-114q-13 0 -13 12zM348 936h47q6 0 10.5 3.5t4.5 8.5l14 125q0 12 -12 12h-47z" />
    <glyph glyph-name="degree" unicode="&#xb0;" horiz-adv-x="694" 
d="M287 842q-127 0 -208 89.5t-69 217.5q14 126 113.5 215.5t226.5 89.5q126 0 206 -89.5t67 -215.5q-12 -127 -111 -217t-225 -90z" />
    <glyph glyph-name="periodcentered" unicode="&#xb7;" horiz-adv-x="483" 
d="M-29 360q-20 0 -30.5 12.5t-8.5 33.5l31 290q7 45 47 45h316q20 0 31 -12.5t8 -32.5l-31 -290q-2 -21 -14.5 -33.5t-32.5 -12.5h-316z" />
    <glyph glyph-name="guillemotright" unicode="&#xbb;" horiz-adv-x="1056" 
d="M-70 207q-23 0 -14 22l170 373q4 8 4 29l-92 373q-3 22 18 22h326q20 0 23 -16l94 -379q3 -17 -4 -29l-172 -379q-8 -16 -27 -16h-326zM387 229l170 373q4 8 4 29l-92 373q-3 22 18 22h326q20 0 23 -16l94 -379q3 -17 -4 -29l-172 -379q-8 -16 -27 -16h-326q-23 0 -14 22
z" />
    <glyph glyph-name="questiondown" unicode="&#xbf;" horiz-adv-x="921" 
d="M596 766q18 0 18 -21l-10 -96q-4 -17 -10 -24l-275 -334q-12 -18 -12 -29l-8 -67q0 -21 18 -21h62q9 0 15.5 6t6.5 15l13 102q0 9 6.5 14.5t15.5 5.5h307q19 0 19 -20l-43 -393q0 -16 -12 -25l-84 -74q-10 -10 -25 -10h-621q-14 0 -24 10l-66 74q-8 12 -8 25l45 426
q3 14 15 26l268 336q8 13 8 25l4 28q0 9 7 15t16 6h354zM238 868l34 340q4 21 23 21h348q9 0 14.5 -6t4.5 -15l-35 -340q-3 -20 -23 -20h-348q-21 0 -18 20z" />
    <glyph glyph-name="Agrave" unicode="&#xc0;" horiz-adv-x="983" 
d="M-113 0q-19 0 -16 20l268 1393q6 21 25 21h655q21 0 21 -21l-27 -1393q1 -9 -5 -14.5t-15 -5.5h-349q-17 0 -20 20l6 191h-133l-37 -191q-3 -20 -24 -20h-349zM266 1645q-3 24 19 24h344q20 0 20 -18l23 -133q3 -10 -3.5 -16.5t-17.5 -6.5h-340q-17 0 -20 16zM354 549h92
l21 504h-31z" />
    <glyph glyph-name="Aacute" unicode="&#xc1;" horiz-adv-x="983" 
d="M-113 0q-19 0 -16 20l268 1393q6 21 25 21h655q21 0 21 -21l-27 -1393q1 -9 -5 -14.5t-15 -5.5h-349q-17 0 -20 20l6 191h-133l-37 -191q-3 -20 -24 -20h-349zM322 1518l51 133q7 18 24 18h344q11 0 15 -7t0 -17l-54 -134q-8 -16 -24 -16h-340q-23 0 -16 23zM354 549h92
l21 504h-31z" />
    <glyph glyph-name="Acircumflex" unicode="&#xc2;" horiz-adv-x="983" 
d="M-113 0q-19 0 -16 20l268 1393q6 21 25 21h655q21 0 21 -21l-27 -1393q1 -9 -5 -14.5t-15 -5.5h-349q-17 0 -20 20l6 191h-133l-37 -191q-3 -20 -24 -20h-349zM203 1518l55 135q10 16 27 16h467q19 0 22 -16l27 -135q3 -10 -2.5 -16.5t-16.5 -6.5h-235q-18 0 -21 18
l-14 95l-35 -95q-9 -18 -24 -18h-236q-21 0 -14 23zM354 549h92l21 504h-31z" />
    <glyph glyph-name="Atilde" unicode="&#xc3;" horiz-adv-x="983" 
d="M-113 0q-19 0 -16 20l268 1393q6 21 25 21h655q21 0 21 -21l-27 -1393q1 -9 -5 -14.5t-15 -5.5h-349q-17 0 -20 20l6 191h-133l-37 -191q-3 -20 -24 -20h-349zM113 1518l55 135q10 16 27 16h405q20 0 23 -16l16 -82l31 80q7 18 24 18h236q23 0 14 -22l-55 -136
q-10 -16 -27 -16h-405q-18 0 -21 18l-14 95l-35 -95q-9 -18 -25 -18h-235q-21 0 -14 23zM354 549h92l21 504h-31z" />
    <glyph glyph-name="Adieresis" unicode="&#xc4;" horiz-adv-x="983" 
d="M-113 0q-19 0 -16 20l268 1393q6 21 25 21h655q21 0 21 -21l-27 -1393q1 -9 -5 -14.5t-15 -5.5h-349q-17 0 -20 20l6 191h-133l-37 -191q-3 -20 -24 -20h-349zM221 1649q3 20 21 20h245q20 0 17 -20l-25 -133q0 -9 -7.5 -15t-16.5 -6h-217q-9 0 -15 6t-6 15zM354 549h92
l21 504h-31zM528 1649q3 20 21 20h246q19 0 16 -20l-25 -133q0 -9 -7.5 -15t-16.5 -6h-217q-9 0 -15 6t-6 15z" />
    <glyph glyph-name="Aring" unicode="&#xc5;" horiz-adv-x="983" 
d="M-113 0q-19 0 -16 20l268 1393q6 21 25 21h655q21 0 21 -21l-27 -1393q1 -9 -5 -14.5t-15 -5.5h-349q-17 0 -20 20l6 191h-133l-37 -191q-3 -20 -24 -20h-349zM283 1649q3 20 20 20h430q20 0 17 -20l-25 -133q0 -9 -8 -15t-17 -6h-401q-20 0 -20 21zM354 549h92l21 504
h-31z" />
    <glyph glyph-name="AE" unicode="&#xc6;" horiz-adv-x="1327" 
d="M-113 0q-19 0 -16 20l268 1393q6 21 25 21h1102q9 0 14 -6t4 -15l-41 -381q0 -20 -18 -20h-322q-19 0 -22 -21l-11 -100q0 -21 19 -21h174q21 0 18 -20l-26 -256q-3 -21 -23 -21h-174q-9 0 -15.5 -5.5t-6.5 -14.5l-13 -109q0 -20 19 -20h321q8 0 12 -6t3 -15l-41 -383
q0 -9 -7 -14.5t-16 -5.5h-706q-19 0 -19 20l21 191h-113l-37 -191q-3 -20 -24 -20h-349zM354 549h92l50 504h-60z" />
    <glyph glyph-name="Ccedilla" unicode="&#xc7;" 
d="M-2 0q-13 0 -23 10l-65 74q-11 11 -8 25l127 1216q3 17 14 25l80 73q15 11 27 11h663q16 0 23 -11l67 -73q8 -13 6 -25l-55 -537q-3 -20 -23 -20h-348q-21 0 -18 20l24 244q1 9 -4 15t-14 6h-61q-20 0 -23 -21l-65 -631q-3 -20 18 -20h61q20 0 23 20l27 246q0 9 6.5 15
t15.5 6h348q19 0 19 -21l-58 -538q-3 -16 -12 -25l-82 -74q-10 -10 -26 -10h-332l182 -25q14 -3 14 -24l-18 -180q-2 -8 -8 -16t-13 -9l-344 -41q-11 -2 -16 2t-4 14l12 113q3 20 21 23l178 24l-172 25q-20 3 -17 22l7 72h-154z" />
    <glyph glyph-name="Egrave" unicode="&#xc8;" horiz-adv-x="829" 
d="M-90 0q-19 0 -19 20l148 1393q3 21 22 21h707q9 0 14 -6t4 -15l-41 -381q0 -20 -18 -20h-321q-20 0 -23 -21l-10 -100q0 -21 18 -21h174q9 0 14.5 -5.5t4.5 -14.5l-27 -256q-3 -21 -22 -21h-175q-9 0 -15.5 -5.5t-6.5 -14.5l-12 -109q0 -20 18 -20h322q8 0 12 -6t2 -15
l-41 -383q0 -9 -7 -14.5t-16 -5.5h-706zM209 1645q-3 24 18 24h344q9 0 15 -5t6 -13l22 -133q3 -10 -3 -16.5t-17 -6.5h-340q-18 0 -21 16z" />
    <glyph glyph-name="Eacute" unicode="&#xc9;" horiz-adv-x="829" 
d="M-90 0q-19 0 -19 20l148 1393q3 21 22 21h707q9 0 14 -6t4 -15l-41 -381q0 -20 -18 -20h-321q-20 0 -23 -21l-10 -100q0 -21 18 -21h174q9 0 14.5 -5.5t4.5 -14.5l-27 -256q-3 -21 -22 -21h-175q-9 0 -15.5 -5.5t-6.5 -14.5l-12 -109q0 -20 18 -20h322q8 0 12 -6t2 -15
l-41 -383q0 -9 -7 -14.5t-16 -5.5h-706zM264 1518l51 133q7 18 25 18h344q11 0 14.5 -6.5t-0.5 -17.5l-53 -134q-8 -16 -24 -16h-340q-11 0 -15.5 6.5t-1.5 16.5z" />
    <glyph glyph-name="Ecircumflex" unicode="&#xca;" horiz-adv-x="829" 
d="M-90 0q-19 0 -19 20l148 1393q3 21 22 21h707q9 0 14 -6t4 -15l-41 -381q0 -20 -18 -20h-321q-20 0 -23 -21l-10 -100q0 -21 18 -21h174q9 0 14.5 -5.5t4.5 -14.5l-27 -256q-3 -21 -22 -21h-175q-9 0 -15.5 -5.5t-6.5 -14.5l-12 -109q0 -20 18 -20h322q8 0 12 -6t2 -15
l-41 -383q0 -9 -7 -14.5t-16 -5.5h-706zM145 1518l56 135q10 16 26 16h467q20 0 23 -16l26 -135q3 -10 -2 -16.5t-16 -6.5h-236q-17 0 -20 18l-14 95l-35 -95q-9 -18 -25 -18h-235q-22 0 -15 23z" />
    <glyph glyph-name="Edieresis" unicode="&#xcb;" horiz-adv-x="829" 
d="M-90 0q-19 0 -19 20l148 1393q3 21 22 21h707q9 0 14 -6t4 -15l-41 -381q0 -20 -18 -20h-321q-20 0 -23 -21l-10 -100q0 -21 18 -21h174q9 0 14.5 -5.5t4.5 -14.5l-27 -256q-3 -21 -22 -21h-175q-9 0 -15.5 -5.5t-6.5 -14.5l-12 -109q0 -20 18 -20h322q8 0 12 -6t2 -15
l-41 -383q0 -9 -7 -14.5t-16 -5.5h-706zM164 1649q3 20 20 20h246q19 0 16 -20l-24 -133q0 -9 -8 -15t-17 -6h-217q-20 0 -20 21zM471 1649q3 20 21 20h245q20 0 17 -20l-25 -133q0 -9 -7.5 -15t-16.5 -6h-218q-20 0 -20 21z" />
    <glyph glyph-name="Igrave" unicode="&#xcc;" horiz-adv-x="532" 
d="M-90 0q-19 0 -19 20l148 1393q3 21 22 21h410q9 0 14 -6t4 -15l-147 -1393q0 -9 -7 -14.5t-16 -5.5h-409zM41 1645q-3 24 18 24h344q9 0 15 -5t6 -13l22 -133q3 -10 -3 -16.5t-17 -6.5h-340q-17 0 -20 16z" />
    <glyph glyph-name="Iacute" unicode="&#xcd;" horiz-adv-x="532" 
d="M-90 0q-19 0 -19 20l148 1393q3 21 22 21h410q9 0 14 -6t4 -15l-147 -1393q0 -9 -7 -14.5t-16 -5.5h-409zM96 1518l51 133q7 18 25 18h344q11 0 14.5 -6.5t-0.5 -17.5l-53 -134q-8 -16 -24 -16h-340q-11 0 -15.5 6.5t-1.5 16.5z" />
    <glyph glyph-name="Icircumflex" unicode="&#xce;" horiz-adv-x="532" 
d="M-90 0q-19 0 -19 20l148 1393q3 21 22 21h410q9 0 14 -6t4 -15l-147 -1393q0 -9 -7 -14.5t-16 -5.5h-409zM-23 1518l56 135q10 16 26 16h467q20 0 23 -16l26 -135q3 -10 -2 -16.5t-16 -6.5h-235q-18 0 -21 18l-14 95l-35 -95q-9 -18 -25 -18h-235q-22 0 -15 23z" />
    <glyph glyph-name="Idieresis" unicode="&#xcf;" horiz-adv-x="532" 
d="M-90 0q-19 0 -19 20l148 1393q3 21 22 21h410q9 0 14 -6t4 -15l-147 -1393q0 -9 -7 -14.5t-16 -5.5h-409zM-4 1649q3 20 20 20h246q20 0 17 -20l-25 -133q0 -9 -8 -15t-17 -6h-217q-20 0 -20 21zM303 1649q3 20 21 20h245q20 0 17 -20l-25 -133q0 -9 -7.5 -15t-16.5 -6
h-218q-20 0 -20 21z" />
    <glyph glyph-name="Eth" unicode="&#xd0;" 
d="M-96 526q-19 0 -19 21l35 317q0 9 7 15t16 6h41l55 528q3 21 22 21h752q16 0 23 -11l67 -73q8 -13 6 -25l-127 -1216q-3 -16 -12 -25l-82 -74q-10 -10 -26 -10h-752q-19 0 -19 20l54 506h-41zM319 381h82q20 0 23 20l65 631q1 9 -4 15t-14 6h-82l-16 -168h41q18 0 18 -21
l-35 -317q0 -9 -6.5 -15t-15.5 -6h-41z" />
    <glyph glyph-name="Ntilde" unicode="&#xd1;" horiz-adv-x="1003" 
d="M-90 0q-19 0 -19 20l148 1393q3 21 22 21h392q20 0 20 -19l16 -538q0 -9 13 -9h2q8 0 12 11l55 534q3 21 23 21h348q9 0 14.5 -6t4.5 -15l-148 -1393q0 -9 -6.5 -14.5t-15.5 -5.5h-392q-16 0 -20 18l-17 541q0 8 -8 8h-4q-12 0 -12 -10l-57 -537q0 -9 -7 -14.5t-16 -5.5
h-348zM152 1518l55 135q10 16 26 16h406q20 0 23 -16l16 -82l31 80q7 18 24 18h236q23 0 14 -22l-55 -136q-10 -16 -27 -16h-405q-18 0 -21 18l-14 95l-35 -95q-9 -18 -25 -18h-235q-21 0 -14 23z" />
    <glyph glyph-name="Ograve" unicode="&#xd2;" 
d="M-2 0q-13 0 -23 10l-65 74q-11 11 -8 25l127 1216q3 17 14 25l80 73q15 11 27 11h663q16 0 23 -11l67 -73q8 -13 6 -25l-127 -1216q-3 -16 -12 -25l-82 -74q-10 -10 -26 -10h-664zM254 1645q-3 24 18 24h344q9 0 15 -5t6 -13l22 -133q3 -10 -3 -16.5t-17 -6.5h-340
q-17 0 -20 16zM322 401q-3 -20 18 -20h61q20 0 23 20l65 631q1 9 -4 15t-14 6h-61q-20 0 -23 -21z" />
    <glyph glyph-name="Oacute" unicode="&#xd3;" 
d="M-2 0q-13 0 -23 10l-65 74q-11 11 -8 25l127 1216q3 17 14 25l80 73q15 11 27 11h663q16 0 23 -11l67 -73q8 -13 6 -25l-127 -1216q-3 -16 -12 -25l-82 -74q-10 -10 -26 -10h-664zM309 1518l51 133q7 18 25 18h344q11 0 14.5 -6.5t-0.5 -17.5l-53 -134q-8 -16 -24 -16
h-340q-11 0 -15.5 6.5t-1.5 16.5zM322 401q-3 -20 18 -20h61q20 0 23 20l65 631q1 9 -4 15t-14 6h-61q-20 0 -23 -21z" />
    <glyph glyph-name="Ocircumflex" unicode="&#xd4;" 
d="M-2 0q-13 0 -23 10l-65 74q-11 11 -8 25l127 1216q3 17 14 25l80 73q15 11 27 11h663q16 0 23 -11l67 -73q8 -13 6 -25l-127 -1216q-3 -16 -12 -25l-82 -74q-10 -10 -26 -10h-664zM190 1518l56 135q10 16 26 16h467q20 0 23 -16l26 -135q3 -10 -2 -16.5t-16 -6.5h-235
q-18 0 -21 18l-14 95l-35 -95q-9 -18 -25 -18h-235q-22 0 -15 23zM322 401q-3 -20 18 -20h61q20 0 23 20l65 631q1 9 -4 15t-14 6h-61q-20 0 -23 -21z" />
    <glyph glyph-name="Otilde" unicode="&#xd5;" 
d="M-2 0q-13 0 -23 10l-65 74q-11 11 -8 25l127 1216q3 17 14 25l80 73q15 11 27 11h663q16 0 23 -11l67 -73q8 -13 6 -25l-127 -1216q-3 -16 -12 -25l-82 -74q-10 -10 -26 -10h-664zM100 1518l56 135q10 16 26 16h406q19 0 22 -16l17 -82l30 80q7 18 25 18h236q23 0 14 -22
l-55 -136q-10 -16 -27 -16h-406q-17 0 -20 18l-14 95l-35 -95q-9 -18 -25 -18h-235q-22 0 -15 23zM322 401q-3 -20 18 -20h61q20 0 23 20l65 631q1 9 -4 15t-14 6h-61q-20 0 -23 -21z" />
    <glyph glyph-name="Odieresis" unicode="&#xd6;" 
d="M-2 0q-13 0 -23 10l-65 74q-11 11 -8 25l127 1216q3 17 14 25l80 73q15 11 27 11h663q16 0 23 -11l67 -73q8 -13 6 -25l-127 -1216q-3 -16 -12 -25l-82 -74q-10 -10 -26 -10h-664zM209 1649q3 20 20 20h246q20 0 17 -20l-25 -133q0 -9 -8 -15t-17 -6h-217q-20 0 -20 21z
M322 401q-3 -20 18 -20h61q20 0 23 20l65 631q1 9 -4 15t-14 6h-61q-20 0 -23 -21zM516 1649q3 20 21 20h245q20 0 17 -20l-25 -133q0 -9 -7.5 -15t-16.5 -6h-218q-20 0 -20 21z" />
    <glyph glyph-name="multiply" unicode="&#xd7;" horiz-adv-x="870" 
d="M471 362q-6 -8 -14.5 -8t-14.5 8l-108 119l-131 -119q-15 -14 -29 0l-215 240q-12 16 4 29l131 119l-106 118q-14 14 2 29l266 240q6 6 14.5 6t14.5 -6l106 -119l133 121q6 6 14.5 6t14.5 -6l215 -240q12 -16 -4 -29l-133 -120l108 -121q11 -14 -4 -29z" />
    <glyph glyph-name="Oslash" unicode="&#xd8;" 
d="M-2 0q-13 0 -23 10l-65 74q-11 11 -8 25l127 1216q3 17 14 25l80 73q15 11 27 11h663q16 0 23 -11l67 -73q8 -13 6 -25l-127 -1216q-3 -16 -12 -25l-82 -74q-10 -10 -26 -10h-664zM322 401q-3 -20 18 -20h61q20 0 23 20l20 197l-118 -154zM369 846l116 149l4 37
q1 9 -4 15t-14 6h-61q-20 0 -23 -21z" />
    <glyph glyph-name="Ugrave" unicode="&#xd9;" 
d="M-2 0q-13 0 -23 10l-65 74q-11 11 -8 25l137 1304q3 21 22 21h349q9 0 14 -6t4 -15l-106 -1022q-3 -10 8 -10h82q9 0 12 10l106 1022q4 21 23 21h348q9 0 14.5 -6t4.5 -15l-138 -1304q-3 -16 -12 -25l-82 -74q-10 -10 -26 -10h-664zM254 1645q-3 24 18 24h344q9 0 15 -5
t6 -13l22 -133q3 -10 -3 -16.5t-17 -6.5h-340q-17 0 -20 16z" />
    <glyph glyph-name="Uacute" unicode="&#xda;" 
d="M-2 0q-13 0 -23 10l-65 74q-11 11 -8 25l137 1304q3 21 22 21h349q9 0 14 -6t4 -15l-106 -1022q-3 -10 8 -10h82q9 0 12 10l106 1022q4 21 23 21h348q9 0 14.5 -6t4.5 -15l-138 -1304q-3 -16 -12 -25l-82 -74q-10 -10 -26 -10h-664zM309 1518l51 133q7 18 25 18h344
q11 0 14.5 -6.5t-0.5 -17.5l-53 -134q-8 -16 -24 -16h-340q-11 0 -15.5 6.5t-1.5 16.5z" />
    <glyph glyph-name="Ucircumflex" unicode="&#xdb;" 
d="M-2 0q-13 0 -23 10l-65 74q-11 11 -8 25l137 1304q3 21 22 21h349q9 0 14 -6t4 -15l-106 -1022q-3 -10 8 -10h82q9 0 12 10l106 1022q4 21 23 21h348q9 0 14.5 -6t4.5 -15l-138 -1304q-3 -16 -12 -25l-82 -74q-10 -10 -26 -10h-664zM190 1518l56 135q10 16 26 16h467
q20 0 23 -16l26 -135q3 -10 -2 -16.5t-16 -6.5h-235q-18 0 -21 18l-14 95l-35 -95q-9 -18 -25 -18h-235q-22 0 -15 23z" />
    <glyph glyph-name="Udieresis" unicode="&#xdc;" 
d="M-2 0q-13 0 -23 10l-65 74q-11 11 -8 25l137 1304q3 21 22 21h349q9 0 14 -6t4 -15l-106 -1022q-3 -10 8 -10h82q9 0 12 10l106 1022q4 21 23 21h348q9 0 14.5 -6t4.5 -15l-138 -1304q-3 -16 -12 -25l-82 -74q-10 -10 -26 -10h-664zM209 1649q3 20 20 20h246q20 0 17 -20
l-25 -133q0 -9 -8 -15t-17 -6h-217q-20 0 -20 21zM516 1649q3 20 21 20h245q20 0 17 -20l-25 -133q0 -9 -7.5 -15t-16.5 -6h-218q-20 0 -20 21z" />
    <glyph glyph-name="Yacute" unicode="&#xdd;" horiz-adv-x="964" 
d="M-51 465q-9 13 -6 24l96 924q3 21 22 21h349q9 0 14 -6t4 -15l-72 -678h105l71 678q4 21 23 21h348q9 0 14.5 -6t4.5 -15l-97 -924q-4 -17 -14 -24l-80 -74q-13 -10 -26 -10h-134l-36 -358q-3 -21 -23 -21h-348q-9 0 -14.5 6t-4.5 15l37 358h-143q-16 0 -23 10zM311 1518
l51 133q7 18 25 18h344q11 0 14.5 -6.5t-0.5 -17.5l-53 -134q-8 -16 -24 -16h-340q-11 0 -15.5 6.5t-1.5 16.5z" />
    <glyph glyph-name="Thorn" unicode="&#xde;" horiz-adv-x="983" 
d="M-90 0q-19 0 -19 20l148 1393q3 21 22 21h369q9 0 14.5 -6t4.5 -15l-17 -147h383q14 0 25 -11l65 -73q8 -8 8 -25l-92 -881q-3 -16 -14 -24l-80 -74q-13 -10 -27 -10h-383l-16 -148q0 -9 -6.5 -14.5t-15.5 -5.5h-369zM354 516h82q20 0 23 21l37 354q1 9 -4.5 14.5
t-14.5 5.5h-82z" />
    <glyph glyph-name="germandbls" unicode="&#xdf;" horiz-adv-x="1003" 
d="M-90 0q-19 0 -19 20l138 1305q3 17 14 25l80 73q15 11 27 11h663q16 0 23 -11l67 -73q8 -12 4 -25l-94 -369q-3 -9 2 -15.5t14 -6.5h60q9 0 14 -6t4 -15l-84 -804q-3 -16 -12 -25l-82 -74q-10 -10 -27 -10h-342q-18 0 -18 20l37 340q3 21 22 21h41q20 0 23 20l20 195
q0 10 -8 10h-82q-9 0 -15 7t-3 16l115 415q4 11 -7 11h-84q-12 0 -12 -11l-108 -1024q0 -9 -7 -14.5t-16 -5.5h-348z" />
    <glyph glyph-name="agrave" unicode="&#xe0;" horiz-adv-x="983" 
d="M-113 0q-19 0 -16 20l268 1393q6 21 25 21h655q21 0 21 -21l-27 -1393q1 -9 -5 -14.5t-15 -5.5h-349q-17 0 -20 20l6 191h-133l-37 -191q-3 -20 -24 -20h-349zM266 1645q-3 24 19 24h344q20 0 20 -18l23 -133q3 -10 -3.5 -16.5t-17.5 -6.5h-340q-17 0 -20 16zM354 549h92
l21 504h-31z" />
    <glyph glyph-name="aacute" unicode="&#xe1;" horiz-adv-x="983" 
d="M-113 0q-19 0 -16 20l268 1393q6 21 25 21h655q21 0 21 -21l-27 -1393q1 -9 -5 -14.5t-15 -5.5h-349q-17 0 -20 20l6 191h-133l-37 -191q-3 -20 -24 -20h-349zM322 1518l51 133q7 18 24 18h344q11 0 15 -7t0 -17l-54 -134q-8 -16 -24 -16h-340q-23 0 -16 23zM354 549h92
l21 504h-31z" />
    <glyph glyph-name="acircumflex" unicode="&#xe2;" horiz-adv-x="983" 
d="M-113 0q-19 0 -16 20l268 1393q6 21 25 21h655q21 0 21 -21l-27 -1393q1 -9 -5 -14.5t-15 -5.5h-349q-17 0 -20 20l6 191h-133l-37 -191q-3 -20 -24 -20h-349zM203 1518l55 135q10 16 27 16h467q19 0 22 -16l27 -135q3 -10 -2.5 -16.5t-16.5 -6.5h-235q-18 0 -21 18
l-14 95l-35 -95q-9 -18 -24 -18h-236q-21 0 -14 23zM354 549h92l21 504h-31z" />
    <glyph glyph-name="atilde" unicode="&#xe3;" horiz-adv-x="983" 
d="M-113 0q-19 0 -16 20l268 1393q6 21 25 21h655q21 0 21 -21l-27 -1393q1 -9 -5 -14.5t-15 -5.5h-349q-17 0 -20 20l6 191h-133l-37 -191q-3 -20 -24 -20h-349zM113 1518l55 135q10 16 27 16h405q20 0 23 -16l16 -82l31 80q7 18 24 18h236q23 0 14 -22l-55 -136
q-10 -16 -27 -16h-405q-18 0 -21 18l-14 95l-35 -95q-9 -18 -25 -18h-235q-21 0 -14 23zM354 549h92l21 504h-31z" />
    <glyph glyph-name="adieresis" unicode="&#xe4;" horiz-adv-x="983" 
d="M-113 0q-19 0 -16 20l268 1393q6 21 25 21h655q21 0 21 -21l-27 -1393q1 -9 -5 -14.5t-15 -5.5h-349q-17 0 -20 20l6 191h-133l-37 -191q-3 -20 -24 -20h-349zM221 1649q3 20 21 20h245q20 0 17 -20l-25 -133q0 -9 -7.5 -15t-16.5 -6h-217q-9 0 -15 6t-6 15zM354 549h92
l21 504h-31zM528 1649q3 20 21 20h246q19 0 16 -20l-25 -133q0 -9 -7.5 -15t-16.5 -6h-217q-9 0 -15 6t-6 15z" />
    <glyph glyph-name="aring" unicode="&#xe5;" horiz-adv-x="983" 
d="M-113 0q-19 0 -16 20l268 1393q6 21 25 21h655q21 0 21 -21l-27 -1393q1 -9 -5 -14.5t-15 -5.5h-349q-17 0 -20 20l6 191h-133l-37 -191q-3 -20 -24 -20h-349zM283 1649q3 20 20 20h430q20 0 17 -20l-25 -133q0 -9 -8 -15t-17 -6h-401q-20 0 -20 21zM354 549h92l21 504
h-31z" />
    <glyph glyph-name="ae" unicode="&#xe6;" horiz-adv-x="1327" 
d="M-113 0q-19 0 -16 20l268 1393q6 21 25 21h1102q9 0 14 -6t4 -15l-41 -381q0 -20 -18 -20h-322q-19 0 -22 -21l-11 -100q0 -21 19 -21h174q21 0 18 -20l-26 -256q-3 -21 -23 -21h-174q-9 0 -15.5 -5.5t-6.5 -14.5l-13 -109q0 -20 19 -20h321q8 0 12 -6t3 -15l-41 -383
q0 -9 -7 -14.5t-16 -5.5h-706q-19 0 -19 20l21 191h-113l-37 -191q-3 -20 -24 -20h-349zM354 549h92l50 504h-60z" />
    <glyph glyph-name="ccedilla" unicode="&#xe7;" 
d="M-2 0q-13 0 -23 10l-65 74q-11 11 -8 25l127 1216q3 17 14 25l80 73q15 11 27 11h663q16 0 23 -11l67 -73q8 -13 6 -25l-55 -537q-3 -20 -23 -20h-348q-21 0 -18 20l24 244q1 9 -4 15t-14 6h-61q-20 0 -23 -21l-65 -631q-3 -20 18 -20h61q20 0 23 20l27 246q0 9 6.5 15
t15.5 6h348q19 0 19 -21l-58 -538q-3 -16 -12 -25l-82 -74q-10 -10 -26 -10h-332l182 -25q14 -3 14 -24l-18 -180q-2 -8 -8 -16t-13 -9l-344 -41q-11 -2 -16 2t-4 14l12 113q3 20 21 23l178 24l-172 25q-20 3 -17 22l7 72h-154z" />
    <glyph glyph-name="egrave" unicode="&#xe8;" horiz-adv-x="829" 
d="M-90 0q-19 0 -19 20l148 1393q3 21 22 21h707q9 0 14 -6t4 -15l-41 -381q0 -20 -18 -20h-321q-20 0 -23 -21l-10 -100q0 -21 18 -21h174q9 0 14.5 -5.5t4.5 -14.5l-27 -256q-3 -21 -22 -21h-175q-9 0 -15.5 -5.5t-6.5 -14.5l-12 -109q0 -20 18 -20h322q8 0 12 -6t2 -15
l-41 -383q0 -9 -7 -14.5t-16 -5.5h-706zM209 1645q-3 24 18 24h344q9 0 15 -5t6 -13l22 -133q3 -10 -3 -16.5t-17 -6.5h-340q-18 0 -21 16z" />
    <glyph glyph-name="eacute" unicode="&#xe9;" horiz-adv-x="829" 
d="M-90 0q-19 0 -19 20l148 1393q3 21 22 21h707q9 0 14 -6t4 -15l-41 -381q0 -20 -18 -20h-321q-20 0 -23 -21l-10 -100q0 -21 18 -21h174q9 0 14.5 -5.5t4.5 -14.5l-27 -256q-3 -21 -22 -21h-175q-9 0 -15.5 -5.5t-6.5 -14.5l-12 -109q0 -20 18 -20h322q8 0 12 -6t2 -15
l-41 -383q0 -9 -7 -14.5t-16 -5.5h-706zM264 1518l51 133q7 18 25 18h344q11 0 14.5 -6.5t-0.5 -17.5l-53 -134q-8 -16 -24 -16h-340q-11 0 -15.5 6.5t-1.5 16.5z" />
    <glyph glyph-name="ecircumflex" unicode="&#xea;" horiz-adv-x="829" 
d="M-90 0q-19 0 -19 20l148 1393q3 21 22 21h707q9 0 14 -6t4 -15l-41 -381q0 -20 -18 -20h-321q-20 0 -23 -21l-10 -100q0 -21 18 -21h174q9 0 14.5 -5.5t4.5 -14.5l-27 -256q-3 -21 -22 -21h-175q-9 0 -15.5 -5.5t-6.5 -14.5l-12 -109q0 -20 18 -20h322q8 0 12 -6t2 -15
l-41 -383q0 -9 -7 -14.5t-16 -5.5h-706zM145 1518l56 135q10 16 26 16h467q20 0 23 -16l26 -135q3 -10 -2 -16.5t-16 -6.5h-236q-17 0 -20 18l-14 95l-35 -95q-9 -18 -25 -18h-235q-22 0 -15 23z" />
    <glyph glyph-name="edieresis" unicode="&#xeb;" horiz-adv-x="829" 
d="M-90 0q-19 0 -19 20l148 1393q3 21 22 21h707q9 0 14 -6t4 -15l-41 -381q0 -20 -18 -20h-321q-20 0 -23 -21l-10 -100q0 -21 18 -21h174q9 0 14.5 -5.5t4.5 -14.5l-27 -256q-3 -21 -22 -21h-175q-9 0 -15.5 -5.5t-6.5 -14.5l-12 -109q0 -20 18 -20h322q8 0 12 -6t2 -15
l-41 -383q0 -9 -7 -14.5t-16 -5.5h-706zM164 1649q3 20 20 20h246q19 0 16 -20l-24 -133q0 -9 -8 -15t-17 -6h-217q-20 0 -20 21zM471 1649q3 20 21 20h245q20 0 17 -20l-25 -133q0 -9 -7.5 -15t-16.5 -6h-218q-20 0 -20 21z" />
    <glyph glyph-name="igrave" unicode="&#xec;" horiz-adv-x="532" 
d="M-90 0q-19 0 -19 20l148 1393q3 21 22 21h410q9 0 14 -6t4 -15l-147 -1393q0 -9 -7 -14.5t-16 -5.5h-409zM41 1645q-3 24 18 24h344q9 0 15 -5t6 -13l22 -133q3 -10 -3 -16.5t-17 -6.5h-340q-17 0 -20 16z" />
    <glyph glyph-name="iacute" unicode="&#xed;" horiz-adv-x="532" 
d="M-90 0q-19 0 -19 20l148 1393q3 21 22 21h410q9 0 14 -6t4 -15l-147 -1393q0 -9 -7 -14.5t-16 -5.5h-409zM96 1518l51 133q7 18 25 18h344q11 0 14.5 -6.5t-0.5 -17.5l-53 -134q-8 -16 -24 -16h-340q-11 0 -15.5 6.5t-1.5 16.5z" />
    <glyph glyph-name="icircumflex" unicode="&#xee;" horiz-adv-x="532" 
d="M-90 0q-19 0 -19 20l148 1393q3 21 22 21h410q9 0 14 -6t4 -15l-147 -1393q0 -9 -7 -14.5t-16 -5.5h-409zM-23 1518l56 135q10 16 26 16h467q20 0 23 -16l26 -135q3 -10 -2 -16.5t-16 -6.5h-235q-18 0 -21 18l-14 95l-35 -95q-9 -18 -25 -18h-235q-22 0 -15 23z" />
    <glyph glyph-name="idieresis" unicode="&#xef;" horiz-adv-x="532" 
d="M-90 0q-19 0 -19 20l148 1393q3 21 22 21h410q9 0 14 -6t4 -15l-147 -1393q0 -9 -7 -14.5t-16 -5.5h-409zM-4 1649q3 20 20 20h246q20 0 17 -20l-25 -133q0 -9 -8 -15t-17 -6h-217q-20 0 -20 21zM303 1649q3 20 21 20h245q20 0 17 -20l-25 -133q0 -9 -7.5 -15t-16.5 -6
h-218q-20 0 -20 21z" />
    <glyph glyph-name="eth" unicode="&#xf0;" 
d="M-96 526q-19 0 -19 21l35 317q0 9 7 15t16 6h41l55 528q3 21 22 21h752q16 0 23 -11l67 -73q8 -13 6 -25l-127 -1216q-3 -16 -12 -25l-82 -74q-10 -10 -26 -10h-752q-19 0 -19 20l54 506h-41zM319 381h82q20 0 23 20l65 631q1 9 -4 15t-14 6h-82l-16 -168h41q18 0 18 -21
l-35 -317q0 -9 -6.5 -15t-15.5 -6h-41z" />
    <glyph glyph-name="ntilde" unicode="&#xf1;" horiz-adv-x="1003" 
d="M-90 0q-19 0 -19 20l148 1393q3 21 22 21h392q20 0 20 -19l16 -538q0 -9 13 -9h2q8 0 12 11l55 534q3 21 23 21h348q9 0 14.5 -6t4.5 -15l-148 -1393q0 -9 -6.5 -14.5t-15.5 -5.5h-392q-16 0 -20 18l-17 541q0 8 -8 8h-4q-12 0 -12 -10l-57 -537q0 -9 -7 -14.5t-16 -5.5
h-348zM152 1518l55 135q10 16 26 16h406q20 0 23 -16l16 -82l31 80q7 18 24 18h236q23 0 14 -22l-55 -136q-10 -16 -27 -16h-405q-18 0 -21 18l-14 95l-35 -95q-9 -18 -25 -18h-235q-21 0 -14 23z" />
    <glyph glyph-name="ograve" unicode="&#xf2;" 
d="M-2 0q-13 0 -23 10l-65 74q-11 11 -8 25l127 1216q3 17 14 25l80 73q15 11 27 11h663q16 0 23 -11l67 -73q8 -13 6 -25l-127 -1216q-3 -16 -12 -25l-82 -74q-10 -10 -26 -10h-664zM254 1645q-3 24 18 24h344q9 0 15 -5t6 -13l22 -133q3 -10 -3 -16.5t-17 -6.5h-340
q-17 0 -20 16zM322 401q-3 -20 18 -20h61q20 0 23 20l65 631q1 9 -4 15t-14 6h-61q-20 0 -23 -21z" />
    <glyph glyph-name="oacute" unicode="&#xf3;" 
d="M-2 0q-13 0 -23 10l-65 74q-11 11 -8 25l127 1216q3 17 14 25l80 73q15 11 27 11h663q16 0 23 -11l67 -73q8 -13 6 -25l-127 -1216q-3 -16 -12 -25l-82 -74q-10 -10 -26 -10h-664zM309 1518l51 133q7 18 25 18h344q11 0 14.5 -6.5t-0.5 -17.5l-53 -134q-8 -16 -24 -16
h-340q-11 0 -15.5 6.5t-1.5 16.5zM322 401q-3 -20 18 -20h61q20 0 23 20l65 631q1 9 -4 15t-14 6h-61q-20 0 -23 -21z" />
    <glyph glyph-name="ocircumflex" unicode="&#xf4;" 
d="M-2 0q-13 0 -23 10l-65 74q-11 11 -8 25l127 1216q3 17 14 25l80 73q15 11 27 11h663q16 0 23 -11l67 -73q8 -13 6 -25l-127 -1216q-3 -16 -12 -25l-82 -74q-10 -10 -26 -10h-664zM190 1518l56 135q10 16 26 16h467q20 0 23 -16l26 -135q3 -10 -2 -16.5t-16 -6.5h-235
q-18 0 -21 18l-14 95l-35 -95q-9 -18 -25 -18h-235q-22 0 -15 23zM322 401q-3 -20 18 -20h61q20 0 23 20l65 631q1 9 -4 15t-14 6h-61q-20 0 -23 -21z" />
    <glyph glyph-name="otilde" unicode="&#xf5;" 
d="M-2 0q-13 0 -23 10l-65 74q-11 11 -8 25l127 1216q3 17 14 25l80 73q15 11 27 11h663q16 0 23 -11l67 -73q8 -13 6 -25l-127 -1216q-3 -16 -12 -25l-82 -74q-10 -10 -26 -10h-664zM100 1518l56 135q10 16 26 16h406q19 0 22 -16l17 -82l30 80q7 18 25 18h236q23 0 14 -22
l-55 -136q-10 -16 -27 -16h-406q-17 0 -20 18l-14 95l-35 -95q-9 -18 -25 -18h-235q-22 0 -15 23zM322 401q-3 -20 18 -20h61q20 0 23 20l65 631q1 9 -4 15t-14 6h-61q-20 0 -23 -21z" />
    <glyph glyph-name="odieresis" unicode="&#xf6;" 
d="M-2 0q-13 0 -23 10l-65 74q-11 11 -8 25l127 1216q3 17 14 25l80 73q15 11 27 11h663q16 0 23 -11l67 -73q8 -13 6 -25l-127 -1216q-3 -16 -12 -25l-82 -74q-10 -10 -26 -10h-664zM209 1649q3 20 20 20h246q20 0 17 -20l-25 -133q0 -9 -8 -15t-17 -6h-217q-20 0 -20 21z
M322 401q-3 -20 18 -20h61q20 0 23 20l65 631q1 9 -4 15t-14 6h-61q-20 0 -23 -21zM516 1649q3 20 21 20h245q20 0 17 -20l-25 -133q0 -9 -7.5 -15t-16.5 -6h-218q-20 0 -20 21z" />
    <glyph glyph-name="divide" unicode="&#xf7;" horiz-adv-x="819" 
d="M-35 518q-9 0 -14 6t-4 15l35 338q3 20 22 20h696q9 0 14.5 -5.5t4.5 -14.5l-35 -338q-4 -21 -22 -21h-697zM70 102l30 291q2 20 14.5 32.5t32.5 12.5h316q20 0 30.5 -12t8.5 -33l-31 -291q-7 -45 -49 -45h-316q-20 0 -29.5 12t-6.5 33zM166 1024l31 291q2 20 14.5 32.5
t32.5 12.5h315q20 0 30.5 -12t8.5 -33l-31 -291q-2 -20 -14.5 -32.5t-32.5 -12.5h-315q-20 0 -30.5 12t-8.5 33z" />
    <glyph glyph-name="oslash" unicode="&#xf8;" 
d="M-2 0q-13 0 -23 10l-65 74q-11 11 -8 25l127 1216q3 17 14 25l80 73q15 11 27 11h663q16 0 23 -11l67 -73q8 -13 6 -25l-127 -1216q-3 -16 -12 -25l-82 -74q-10 -10 -26 -10h-664zM322 401q-3 -20 18 -20h61q20 0 23 20l20 197l-118 -154zM369 846l116 149l4 37
q1 9 -4 15t-14 6h-61q-20 0 -23 -21z" />
    <glyph glyph-name="ugrave" unicode="&#xf9;" 
d="M-2 0q-13 0 -23 10l-65 74q-11 11 -8 25l137 1304q3 21 22 21h349q9 0 14 -6t4 -15l-106 -1022q-3 -10 8 -10h82q9 0 12 10l106 1022q4 21 23 21h348q9 0 14.5 -6t4.5 -15l-138 -1304q-3 -16 -12 -25l-82 -74q-10 -10 -26 -10h-664zM254 1645q-3 24 18 24h344q9 0 15 -5
t6 -13l22 -133q3 -10 -3 -16.5t-17 -6.5h-340q-17 0 -20 16z" />
    <glyph glyph-name="uacute" unicode="&#xfa;" 
d="M-2 0q-13 0 -23 10l-65 74q-11 11 -8 25l137 1304q3 21 22 21h349q9 0 14 -6t4 -15l-106 -1022q-3 -10 8 -10h82q9 0 12 10l106 1022q4 21 23 21h348q9 0 14.5 -6t4.5 -15l-138 -1304q-3 -16 -12 -25l-82 -74q-10 -10 -26 -10h-664zM309 1518l51 133q7 18 25 18h344
q11 0 14.5 -6.5t-0.5 -17.5l-53 -134q-8 -16 -24 -16h-340q-11 0 -15.5 6.5t-1.5 16.5z" />
    <glyph glyph-name="ucircumflex" unicode="&#xfb;" 
d="M-2 0q-13 0 -23 10l-65 74q-11 11 -8 25l137 1304q3 21 22 21h349q9 0 14 -6t4 -15l-106 -1022q-3 -10 8 -10h82q9 0 12 10l106 1022q4 21 23 21h348q9 0 14.5 -6t4.5 -15l-138 -1304q-3 -16 -12 -25l-82 -74q-10 -10 -26 -10h-664zM190 1518l56 135q10 16 26 16h467
q20 0 23 -16l26 -135q3 -10 -2 -16.5t-16 -6.5h-235q-18 0 -21 18l-14 95l-35 -95q-9 -18 -25 -18h-235q-22 0 -15 23z" />
    <glyph glyph-name="udieresis" unicode="&#xfc;" 
d="M-2 0q-13 0 -23 10l-65 74q-11 11 -8 25l137 1304q3 21 22 21h349q9 0 14 -6t4 -15l-106 -1022q-3 -10 8 -10h82q9 0 12 10l106 1022q4 21 23 21h348q9 0 14.5 -6t4.5 -15l-138 -1304q-3 -16 -12 -25l-82 -74q-10 -10 -26 -10h-664zM209 1649q3 20 20 20h246q20 0 17 -20
l-25 -133q0 -9 -8 -15t-17 -6h-217q-20 0 -20 21zM516 1649q3 20 21 20h245q20 0 17 -20l-25 -133q0 -9 -7.5 -15t-16.5 -6h-218q-20 0 -20 21z" />
    <glyph glyph-name="yacute" unicode="&#xfd;" horiz-adv-x="964" 
d="M-51 465q-9 13 -6 24l96 924q3 21 22 21h349q9 0 14 -6t4 -15l-72 -678h105l71 678q4 21 23 21h348q9 0 14.5 -6t4.5 -15l-97 -924q-4 -17 -14 -24l-80 -74q-13 -10 -26 -10h-134l-36 -358q-3 -21 -23 -21h-348q-9 0 -14.5 6t-4.5 15l37 358h-143q-16 0 -23 10zM311 1518
l51 133q7 18 25 18h344q11 0 14.5 -6.5t-0.5 -17.5l-53 -134q-8 -16 -24 -16h-340q-11 0 -15.5 6.5t-1.5 16.5z" />
    <glyph glyph-name="thorn" unicode="&#xfe;" horiz-adv-x="983" 
d="M-90 0q-19 0 -19 20l148 1393q3 21 22 21h369q9 0 14.5 -6t4.5 -15l-17 -147h383q14 0 25 -11l65 -73q8 -8 8 -25l-92 -881q-3 -16 -14 -24l-80 -74q-13 -10 -27 -10h-383l-16 -148q0 -9 -6.5 -14.5t-15.5 -5.5h-369zM354 516h82q20 0 23 21l37 354q1 9 -4.5 14.5
t-14.5 5.5h-82z" />
    <glyph glyph-name="ydieresis" unicode="&#xff;" horiz-adv-x="964" 
d="M-51 465q-9 13 -6 24l96 924q3 21 22 21h349q9 0 14 -6t4 -15l-72 -678h105l71 678q4 21 23 21h348q9 0 14.5 -6t4.5 -15l-97 -924q-4 -17 -14 -24l-80 -74q-13 -10 -26 -10h-134l-36 -358q-3 -21 -23 -21h-348q-9 0 -14.5 6t-4.5 15l37 358h-143q-16 0 -23 10zM211 1649
q3 20 20 20h246q20 0 17 -20l-25 -133q0 -9 -8 -15t-17 -6h-217q-20 0 -20 21zM518 1649q3 20 21 20h245q20 0 17 -20l-25 -133q0 -9 -7.5 -15t-16.5 -6h-217q-9 0 -15 6t-6 15z" />
    <glyph glyph-name="Amacron" unicode="&#x100;" horiz-adv-x="983" 
d="M-113 0q-19 0 -16 20l268 1393q6 21 25 21h655q21 0 21 -21l-27 -1393q1 -9 -5 -14.5t-15 -5.5h-349q-17 0 -20 20l6 191h-133l-37 -191q-3 -20 -24 -20h-349zM231 1649q3 20 21 20h532q20 0 17 -20l-25 -133q0 -9 -7.5 -15t-16.5 -6h-504q-9 0 -15 6t-6 15zM354 549h92
l21 504h-31z" />
    <glyph glyph-name="amacron" unicode="&#x101;" horiz-adv-x="983" 
d="M-113 0q-19 0 -16 20l268 1393q6 21 25 21h655q21 0 21 -21l-27 -1393q1 -9 -5 -14.5t-15 -5.5h-349q-17 0 -20 20l6 191h-133l-37 -191q-3 -20 -24 -20h-349zM231 1649q3 20 21 20h532q20 0 17 -20l-25 -133q0 -9 -7.5 -15t-16.5 -6h-504q-9 0 -15 6t-6 15zM354 549h92
l21 504h-31z" />
    <glyph glyph-name="Abreve" unicode="&#x102;" horiz-adv-x="983" 
d="M-113 0q-19 0 -16 20l268 1393q6 21 25 21h655q21 0 21 -21l-27 -1393q1 -9 -5 -14.5t-15 -5.5h-349q-17 0 -20 20l6 191h-133l-37 -191q-3 -20 -24 -20h-349zM188 1645q-3 10 2.5 17t16.5 7h235q17 0 23 -14l29 -66q3 -8 12 -8h8q9 0 12 8l41 66q11 14 27 14h235
q11 0 16 -6.5t-1 -17.5l-74 -134q-11 -16 -25 -16h-491q-16 0 -21 16zM354 549h92l21 504h-31z" />
    <glyph glyph-name="abreve" unicode="&#x103;" horiz-adv-x="983" 
d="M-113 0q-19 0 -16 20l268 1393q6 21 25 21h655q21 0 21 -21l-27 -1393q1 -9 -5 -14.5t-15 -5.5h-349q-17 0 -20 20l6 191h-133l-37 -191q-3 -20 -24 -20h-349zM188 1645q-3 10 2.5 17t16.5 7h235q17 0 23 -14l29 -66q3 -8 12 -8h8q9 0 12 8l41 66q11 14 27 14h235
q11 0 16 -6.5t-1 -17.5l-74 -134q-11 -16 -25 -16h-491q-16 0 -21 16zM354 549h92l21 504h-31z" />
    <glyph glyph-name="Aogonek" unicode="&#x104;" horiz-adv-x="983" 
d="M-113 0q-19 0 -16 20l268 1393q6 21 25 21h655q21 0 21 -21l-27 -1393q1 -9 -5 -14.5t-15 -5.5l-7 -72q-3 -19 -20 -22l-180 -25l174 -24q19 -3 16 -23l-12 -113q-3 -19 -25 -16l-336 41q-16 3 -12 25l19 180q0 8 5.5 15.5t12.5 8.5l186 25h-170q-17 0 -20 20l6 191h-133
l-37 -191q-3 -20 -24 -20h-349zM354 549h92l21 504h-31z" />
    <glyph glyph-name="aogonek" unicode="&#x105;" horiz-adv-x="983" 
d="M-113 0q-19 0 -16 20l268 1393q6 21 25 21h655q21 0 21 -21l-27 -1393q1 -9 -5 -14.5t-15 -5.5l-7 -72q-3 -19 -20 -22l-180 -25l174 -24q19 -3 16 -23l-12 -113q-3 -19 -25 -16l-336 41q-16 3 -12 25l19 180q0 8 5.5 15.5t12.5 8.5l186 25h-170q-17 0 -20 20l6 191h-133
l-37 -191q-3 -20 -24 -20h-349zM354 549h92l21 504h-31z" />
    <glyph glyph-name="Cacute" unicode="&#x106;" 
d="M-2 0q-13 0 -23 10l-65 74q-11 11 -8 25l127 1216q3 17 14 25l80 73q15 11 27 11h663q16 0 23 -11l67 -73q8 -13 6 -25l-55 -537q-3 -20 -23 -20h-348q-21 0 -18 20l24 244q1 9 -4 15t-14 6h-61q-20 0 -23 -21l-65 -631q-3 -20 18 -20h61q20 0 23 20l27 246q0 9 6.5 15
t15.5 6h348q19 0 19 -21l-58 -538q-3 -16 -12 -25l-82 -74q-10 -10 -26 -10h-664zM309 1518l51 133q7 18 25 18h344q11 0 14.5 -6.5t-0.5 -17.5l-53 -134q-8 -16 -24 -16h-340q-11 0 -15.5 6.5t-1.5 16.5z" />
    <glyph glyph-name="cacute" unicode="&#x107;" 
d="M-2 0q-13 0 -23 10l-65 74q-11 11 -8 25l127 1216q3 17 14 25l80 73q15 11 27 11h663q16 0 23 -11l67 -73q8 -13 6 -25l-55 -537q-3 -20 -23 -20h-348q-21 0 -18 20l24 244q1 9 -4 15t-14 6h-61q-20 0 -23 -21l-65 -631q-3 -20 18 -20h61q20 0 23 20l27 246q0 9 6.5 15
t15.5 6h348q19 0 19 -21l-58 -538q-3 -16 -12 -25l-82 -74q-10 -10 -26 -10h-664zM309 1518l51 133q7 18 25 18h344q11 0 14.5 -6.5t-0.5 -17.5l-53 -134q-8 -16 -24 -16h-340q-11 0 -15.5 6.5t-1.5 16.5z" />
    <glyph glyph-name="Cdotaccent" unicode="&#x10a;" 
d="M-2 0q-13 0 -23 10l-65 74q-11 11 -8 25l127 1216q3 17 14 25l80 73q15 11 27 11h663q16 0 23 -11l67 -73q8 -13 6 -25l-55 -537q-3 -20 -23 -20h-348q-21 0 -18 20l24 244q1 9 -4 15t-14 6h-61q-20 0 -23 -21l-65 -631q-3 -20 18 -20h61q20 0 23 20l27 246q0 9 6.5 15
t15.5 6h348q19 0 19 -21l-58 -538q-3 -16 -12 -25l-82 -74q-10 -10 -26 -10h-664zM295 1516l14 133q3 20 23 20h348q21 0 18 -20l-14 -133q0 -9 -6.5 -15t-15.5 -6h-349q-18 0 -18 21z" />
    <glyph glyph-name="cdotaccent" unicode="&#x10b;" 
d="M-2 0q-13 0 -23 10l-65 74q-11 11 -8 25l127 1216q3 17 14 25l80 73q15 11 27 11h663q16 0 23 -11l67 -73q8 -13 6 -25l-55 -537q-3 -20 -23 -20h-348q-21 0 -18 20l24 244q1 9 -4 15t-14 6h-61q-20 0 -23 -21l-65 -631q-3 -20 18 -20h61q20 0 23 20l27 246q0 9 6.5 15
t15.5 6h348q19 0 19 -21l-58 -538q-3 -16 -12 -25l-82 -74q-10 -10 -26 -10h-664zM295 1516l14 133q3 20 23 20h348q21 0 18 -20l-14 -133q0 -9 -6.5 -15t-15.5 -6h-349q-18 0 -18 21z" />
    <glyph glyph-name="Ccaron" unicode="&#x10c;" 
d="M-2 0q-13 0 -23 10l-65 74q-11 11 -8 25l127 1216q3 17 14 25l80 73q15 11 27 11h663q16 0 23 -11l67 -73q8 -13 6 -25l-55 -537q-3 -20 -23 -20h-348q-21 0 -18 20l24 244q1 9 -4 15t-14 6h-61q-20 0 -23 -21l-65 -631q-3 -20 18 -20h61q20 0 23 20l27 246q0 9 6.5 15
t15.5 6h348q19 0 19 -21l-58 -538q-3 -16 -12 -25l-82 -74q-10 -10 -26 -10h-664zM205 1647q-3 22 18 22h236q17 0 20 -18l15 -95l34 95q9 18 25 18h235q24 0 15 -22l-55 -136q-10 -16 -27 -16h-467q-20 0 -23 16z" />
    <glyph glyph-name="ccaron" unicode="&#x10d;" 
d="M-2 0q-13 0 -23 10l-65 74q-11 11 -8 25l127 1216q3 17 14 25l80 73q15 11 27 11h663q16 0 23 -11l67 -73q8 -13 6 -25l-55 -537q-3 -20 -23 -20h-348q-21 0 -18 20l24 244q1 9 -4 15t-14 6h-61q-20 0 -23 -21l-65 -631q-3 -20 18 -20h61q20 0 23 20l27 246q0 9 6.5 15
t15.5 6h348q19 0 19 -21l-58 -538q-3 -16 -12 -25l-82 -74q-10 -10 -26 -10h-664zM205 1647q-3 22 18 22h236q17 0 20 -18l15 -95l34 95q9 18 25 18h235q24 0 15 -22l-55 -136q-10 -16 -27 -16h-467q-20 0 -23 16z" />
    <glyph glyph-name="Dcaron" unicode="&#x10e;" 
d="M-90 0q-19 0 -19 20l148 1393q3 21 22 21h752q16 0 23 -11l67 -73q8 -13 6 -25l-127 -1216q-3 -16 -12 -25l-82 -74q-10 -10 -26 -10h-752zM205 1647q-3 22 18 22h236q17 0 20 -18l15 -95l34 95q9 18 25 18h235q24 0 15 -22l-55 -136q-10 -16 -27 -16h-467q-20 0 -23 16z
M319 381h82q20 0 23 20l65 631q1 9 -4 15t-14 6h-82z" />
    <glyph glyph-name="dcaron" unicode="&#x10f;" 
d="M-90 0q-19 0 -19 20l148 1393q3 21 22 21h752q16 0 23 -11l67 -73q8 -13 6 -25l-127 -1216q-3 -16 -12 -25l-82 -74q-10 -10 -26 -10h-752zM205 1647q-3 22 18 22h236q17 0 20 -18l15 -95l34 95q9 18 25 18h235q24 0 15 -22l-55 -136q-10 -16 -27 -16h-467q-20 0 -23 16z
M319 381h82q20 0 23 20l65 631q1 9 -4 15t-14 6h-82z" />
    <glyph glyph-name="Dcroat" unicode="&#x110;" 
d="M-96 526q-19 0 -19 21l35 317q0 9 7 15t16 6h41l55 528q3 21 22 21h752q16 0 23 -11l67 -73q8 -13 6 -25l-127 -1216q-3 -16 -12 -25l-82 -74q-10 -10 -26 -10h-752q-19 0 -19 20l54 506h-41zM319 381h82q20 0 23 20l65 631q1 9 -4 15t-14 6h-82l-16 -168h41q18 0 18 -21
l-35 -317q0 -9 -6.5 -15t-15.5 -6h-41z" />
    <glyph glyph-name="dcroat" unicode="&#x111;" 
d="M-90 0q-19 0 -19 20l148 1393q3 21 22 21h752q16 0 23 -11l67 -73q8 -13 6 -25l-127 -1216q-3 -16 -12 -25l-82 -74q-10 -10 -26 -10h-752zM319 381h82q20 0 23 20l12 125h-102zM375 905h102l12 127q1 9 -4 15t-14 6h-82z" />
    <glyph glyph-name="Emacron" unicode="&#x112;" horiz-adv-x="829" 
d="M-90 0q-19 0 -19 20l148 1393q3 21 22 21h707q9 0 14 -6t4 -15l-41 -381q0 -20 -18 -20h-321q-20 0 -23 -21l-10 -100q0 -21 18 -21h174q9 0 14.5 -5.5t4.5 -14.5l-27 -256q-3 -21 -22 -21h-175q-9 0 -15.5 -5.5t-6.5 -14.5l-12 -109q0 -20 18 -20h322q8 0 12 -6t2 -15
l-41 -383q0 -9 -7 -14.5t-16 -5.5h-706zM174 1649q3 20 21 20h532q19 0 16 -20l-24 -133q0 -9 -8 -15t-17 -6h-504q-20 0 -20 21z" />
    <glyph glyph-name="emacron" unicode="&#x113;" horiz-adv-x="829" 
d="M-90 0q-19 0 -19 20l148 1393q3 21 22 21h707q9 0 14 -6t4 -15l-41 -381q0 -20 -18 -20h-321q-20 0 -23 -21l-10 -100q0 -21 18 -21h174q9 0 14.5 -5.5t4.5 -14.5l-27 -256q-3 -21 -22 -21h-175q-9 0 -15.5 -5.5t-6.5 -14.5l-12 -109q0 -20 18 -20h322q8 0 12 -6t2 -15
l-41 -383q0 -9 -7 -14.5t-16 -5.5h-706zM174 1649q3 20 21 20h532q19 0 16 -20l-24 -133q0 -9 -8 -15t-17 -6h-504q-20 0 -20 21z" />
    <glyph glyph-name="Edotaccent" unicode="&#x116;" horiz-adv-x="829" 
d="M-90 0q-19 0 -19 20l148 1393q3 21 22 21h707q9 0 14 -6t4 -15l-41 -381q0 -20 -18 -20h-321q-20 0 -23 -21l-10 -100q0 -21 18 -21h174q9 0 14.5 -5.5t4.5 -14.5l-27 -256q-3 -21 -22 -21h-175q-9 0 -15.5 -5.5t-6.5 -14.5l-12 -109q0 -20 18 -20h322q8 0 12 -6t2 -15
l-41 -383q0 -9 -7 -14.5t-16 -5.5h-706zM250 1516l14 133q3 20 23 20h348q21 0 18 -20l-14 -133q0 -9 -7 -15t-16 -6h-348q-18 0 -18 21z" />
    <glyph glyph-name="edotaccent" unicode="&#x117;" horiz-adv-x="829" 
d="M-90 0q-19 0 -19 20l148 1393q3 21 22 21h707q9 0 14 -6t4 -15l-41 -381q0 -20 -18 -20h-321q-20 0 -23 -21l-10 -100q0 -21 18 -21h174q9 0 14.5 -5.5t4.5 -14.5l-27 -256q-3 -21 -22 -21h-175q-9 0 -15.5 -5.5t-6.5 -14.5l-12 -109q0 -20 18 -20h322q8 0 12 -6t2 -15
l-41 -383q0 -9 -7 -14.5t-16 -5.5h-706zM250 1516l14 133q3 20 23 20h348q21 0 18 -20l-14 -133q0 -9 -7 -15t-16 -6h-348q-18 0 -18 21z" />
    <glyph glyph-name="Eogonek" unicode="&#x118;" horiz-adv-x="829" 
d="M-90 0q-19 0 -19 20l148 1393q3 21 22 21h707q9 0 14 -6t4 -15l-41 -381q0 -20 -18 -20h-321q-20 0 -23 -21l-10 -100q0 -21 18 -21h174q9 0 14.5 -5.5t4.5 -14.5l-27 -256q-3 -21 -22 -21h-175q-9 0 -15.5 -5.5t-6.5 -14.5l-12 -109q0 -20 18 -20h322q8 0 12 -6t2 -15
l-41 -383q0 -9 -7 -14.5t-16 -5.5l-6 -72q-3 -19 -20 -22l-180 -25l174 -24q19 -3 16 -23l-12 -113q-3 -19 -25 -16l-336 41q-16 3 -12 25l18 180q0 8 6 15.5t13 8.5l186 25h-528z" />
    <glyph glyph-name="eogonek" unicode="&#x119;" horiz-adv-x="829" 
d="M-90 0q-19 0 -19 20l148 1393q3 21 22 21h707q9 0 14 -6t4 -15l-41 -381q0 -20 -18 -20h-321q-20 0 -23 -21l-10 -100q0 -21 18 -21h174q9 0 14.5 -5.5t4.5 -14.5l-27 -256q-3 -21 -22 -21h-175q-9 0 -15.5 -5.5t-6.5 -14.5l-12 -109q0 -20 18 -20h322q8 0 12 -6t2 -15
l-41 -383q0 -9 -7 -14.5t-16 -5.5l-6 -72q-3 -19 -20 -22l-180 -25l174 -24q19 -3 16 -23l-12 -113q-3 -19 -25 -16l-336 41q-16 3 -12 25l18 180q0 8 6 15.5t13 8.5l186 25h-528z" />
    <glyph glyph-name="Ecaron" unicode="&#x11a;" horiz-adv-x="829" 
d="M-90 0q-19 0 -19 20l148 1393q3 21 22 21h707q9 0 14 -6t4 -15l-41 -381q0 -20 -18 -20h-321q-20 0 -23 -21l-10 -100q0 -21 18 -21h174q9 0 14.5 -5.5t4.5 -14.5l-27 -256q-3 -21 -22 -21h-175q-9 0 -15.5 -5.5t-6.5 -14.5l-12 -109q0 -20 18 -20h322q8 0 12 -6t2 -15
l-41 -383q0 -9 -7 -14.5t-16 -5.5h-706zM160 1647q-3 22 18 22h236q17 0 20 -18l15 -95l34 95q9 18 25 18h235q24 0 15 -22l-56 -136q-10 -16 -26 -16h-467q-20 0 -23 16z" />
    <glyph glyph-name="ecaron" unicode="&#x11b;" horiz-adv-x="829" 
d="M-90 0q-19 0 -19 20l148 1393q3 21 22 21h707q9 0 14 -6t4 -15l-41 -381q0 -20 -18 -20h-321q-20 0 -23 -21l-10 -100q0 -21 18 -21h174q9 0 14.5 -5.5t4.5 -14.5l-27 -256q-3 -21 -22 -21h-175q-9 0 -15.5 -5.5t-6.5 -14.5l-12 -109q0 -20 18 -20h322q8 0 12 -6t2 -15
l-41 -383q0 -9 -7 -14.5t-16 -5.5h-706zM160 1647q-3 22 18 22h236q17 0 20 -18l15 -95l34 95q9 18 25 18h235q24 0 15 -22l-56 -136q-10 -16 -26 -16h-467q-20 0 -23 16z" />
    <glyph glyph-name="Gbreve" unicode="&#x11e;" horiz-adv-x="964" 
d="M-2 0q-13 0 -23 10l-65 74q-11 11 -8 25l127 1216q3 17 14 25l80 73q15 11 27 11h661q16 0 23 -11l69 -73q8 -13 6 -25l-41 -393q0 -9 -6.5 -15t-15.5 -6h-348q-19 0 -19 21l10 100q1 9 -4 15t-14 6h-61q-20 0 -23 -21l-65 -631q-3 -20 18 -20h61q20 0 23 20l16 156
q0 10 -8 10h-26q-9 0 -14.5 6t-4.5 15l25 235q0 9 6.5 15t15.5 6h408q18 0 18 -21l-76 -714q-3 -16 -12 -25l-82 -74q-10 -10 -26 -10h-666zM178 1645q-3 10 2.5 17t16.5 7h235q17 0 23 -14l28 -66q3 -8 13 -8h8q9 0 12 8l41 66q11 14 27 14h235q11 0 16 -6.5t-1 -17.5
l-74 -134q-11 -16 -25 -16h-491q-16 0 -21 16z" />
    <glyph glyph-name="gbreve" unicode="&#x11f;" horiz-adv-x="964" 
d="M-2 0q-13 0 -23 10l-65 74q-11 11 -8 25l127 1216q3 17 14 25l80 73q15 11 27 11h661q16 0 23 -11l69 -73q8 -13 6 -25l-41 -393q0 -9 -6.5 -15t-15.5 -6h-348q-19 0 -19 21l10 100q1 9 -4 15t-14 6h-61q-20 0 -23 -21l-65 -631q-3 -20 18 -20h61q20 0 23 20l16 156
q0 10 -8 10h-26q-9 0 -14.5 6t-4.5 15l25 235q0 9 6.5 15t15.5 6h408q18 0 18 -21l-76 -714q-3 -16 -12 -25l-82 -74q-10 -10 -26 -10h-666zM178 1645q-3 10 2.5 17t16.5 7h235q17 0 23 -14l28 -66q3 -8 13 -8h8q9 0 12 8l41 66q11 14 27 14h235q11 0 16 -6.5t-1 -17.5
l-74 -134q-11 -16 -25 -16h-491q-16 0 -21 16z" />
    <glyph glyph-name="Gdotaccent" unicode="&#x120;" horiz-adv-x="964" 
d="M-2 0q-13 0 -23 10l-65 74q-11 11 -8 25l127 1216q3 17 14 25l80 73q15 11 27 11h661q16 0 23 -11l69 -73q8 -13 6 -25l-41 -393q0 -9 -6.5 -15t-15.5 -6h-348q-19 0 -19 21l10 100q1 9 -4 15t-14 6h-61q-20 0 -23 -21l-65 -631q-3 -20 18 -20h61q20 0 23 20l16 156
q0 10 -8 10h-26q-9 0 -14.5 6t-4.5 15l25 235q0 9 6.5 15t15.5 6h408q18 0 18 -21l-76 -714q-3 -16 -12 -25l-82 -74q-10 -10 -26 -10h-666zM297 1516l14 133q3 20 23 20h348q21 0 18 -20l-14 -133q0 -9 -6.5 -15t-15.5 -6h-349q-18 0 -18 21z" />
    <glyph glyph-name="gdotaccent" unicode="&#x121;" horiz-adv-x="964" 
d="M-2 0q-13 0 -23 10l-65 74q-11 11 -8 25l127 1216q3 17 14 25l80 73q15 11 27 11h661q16 0 23 -11l69 -73q8 -13 6 -25l-41 -393q0 -9 -6.5 -15t-15.5 -6h-348q-19 0 -19 21l10 100q1 9 -4 15t-14 6h-61q-20 0 -23 -21l-65 -631q-3 -20 18 -20h61q20 0 23 20l16 156
q0 10 -8 10h-26q-9 0 -14.5 6t-4.5 15l25 235q0 9 6.5 15t15.5 6h408q18 0 18 -21l-76 -714q-3 -16 -12 -25l-82 -74q-10 -10 -26 -10h-666zM297 1516l14 133q3 20 23 20h348q21 0 18 -20l-14 -133q0 -9 -6.5 -15t-15.5 -6h-349q-18 0 -18 21z" />
    <glyph glyph-name="uni0122" unicode="&#x122;" horiz-adv-x="964" 
d="M-2 0q-13 0 -23 10l-65 74q-11 11 -8 25l127 1216q3 17 14 25l80 73q15 11 27 11h661q16 0 23 -11l69 -73q8 -13 6 -25l-41 -393q0 -9 -6.5 -15t-15.5 -6h-348q-19 0 -19 21l10 100q1 9 -4 15t-14 6h-61q-20 0 -23 -21l-65 -631q-3 -20 18 -20h61q20 0 23 20l16 156
q0 10 -8 10h-26q-9 0 -14.5 6t-4.5 15l25 235q0 9 6.5 15t15.5 6h408q18 0 18 -21l-76 -714q-3 -16 -12 -25l-82 -74q-10 -10 -26 -10h-666zM76 -211l49 133q8 19 25 19h344q10 0 14.5 -7.5t-0.5 -17.5l-53 -133q-5 -16 -25 -16h-340q-23 0 -14 22z" />
    <glyph glyph-name="uni0123" unicode="&#x123;" horiz-adv-x="964" 
d="M-2 0q-13 0 -23 10l-65 74q-11 11 -8 25l127 1216q3 17 14 25l80 73q15 11 27 11h661q16 0 23 -11l69 -73q8 -13 6 -25l-41 -393q0 -9 -6.5 -15t-15.5 -6h-348q-19 0 -19 21l10 100q1 9 -4 15t-14 6h-61q-20 0 -23 -21l-65 -631q-3 -20 18 -20h61q20 0 23 20l16 156
q0 10 -8 10h-26q-9 0 -14.5 6t-4.5 15l25 235q0 9 6.5 15t15.5 6h408q18 0 18 -21l-76 -714q-3 -16 -12 -25l-82 -74q-10 -10 -26 -10h-666zM307 1520l53 133q8 16 25 16h340q25 0 16 -22l-51 -134q-4 -18 -24 -18h-344q-22 0 -15 25z" />
    <glyph glyph-name="Hbar" unicode="&#x126;" horiz-adv-x="1005" 
d="M-20 1034q-9 0 -14.5 6t-4.5 15l25 235q0 9 6.5 15t15.5 6h21l10 102q3 21 22 21h349q9 0 14 -6t4 -15l-10 -102h104l10 102q4 21 23 21h348q9 0 14.5 -6t4.5 -15l-11 -102h21q18 0 18 -21l-24 -235q-4 -21 -23 -21h-20l-107 -1011q-4 -21 -22 -21h-348q-9 0 -14.5 6
t-4.5 15l55 528h-104l-57 -531q0 -9 -7 -14.5t-16 -5.5h-348q-19 0 -19 20l109 1014h-20zM375 909h104l15 125h-105z" />
    <glyph glyph-name="hbar" unicode="&#x127;" horiz-adv-x="964" 
d="M-90 0q-19 0 -19 20l148 1393q3 21 22 21h349q9 0 14 -6t4 -15l-51 -491h104l51 491q4 21 23 21h348q9 0 14.5 -6t4.5 -15l-146 -1390q-4 -21 -22 -21h-348q-9 0 -14.5 6t-4.5 15l53 520h-104l-55 -523q0 -9 -7 -14.5t-16 -5.5h-348z" />
    <glyph glyph-name="Imacron" unicode="&#x12a;" horiz-adv-x="532" 
d="M-90 0q-19 0 -19 20l148 1393q3 21 22 21h410q9 0 14 -6t4 -15l-147 -1393q0 -9 -7 -14.5t-16 -5.5h-409zM6 1649q3 20 21 20h532q19 0 16 -20l-24 -133q0 -9 -8 -15t-17 -6h-503q-9 0 -15 6t-6 15z" />
    <glyph glyph-name="imacron" unicode="&#x12b;" horiz-adv-x="532" 
d="M-90 0q-19 0 -19 20l148 1393q3 21 22 21h410q9 0 14 -6t4 -15l-147 -1393q0 -9 -7 -14.5t-16 -5.5h-409zM6 1649q3 20 21 20h532q19 0 16 -20l-24 -133q0 -9 -8 -15t-17 -6h-503q-9 0 -15 6t-6 15z" />
    <glyph glyph-name="Iogonek" unicode="&#x12e;" horiz-adv-x="532" 
d="M-90 0q-19 0 -19 20l148 1393q3 21 22 21h410q9 0 14 -6t4 -15l-147 -1393q0 -9 -7 -14.5t-16 -5.5l-6 -72q-3 -19 -20 -22l-180 -25l174 -24q19 -3 16 -23l-12 -113q-3 -19 -25 -16l-336 41q-16 3 -12 25l19 180q0 8 5.5 15.5t12.5 8.5l186 25h-231z" />
    <glyph glyph-name="iogonek" unicode="&#x12f;" horiz-adv-x="532" 
d="M-90 0q-19 0 -19 20l148 1393q3 21 22 21h410q9 0 14 -6t4 -15l-147 -1393q0 -9 -7 -14.5t-16 -5.5l-6 -72q-3 -19 -20 -22l-180 -25l174 -24q19 -3 16 -23l-12 -113q-3 -19 -25 -16l-336 41q-16 3 -12 25l19 180q0 8 5.5 15.5t12.5 8.5l186 25h-231z" />
    <glyph glyph-name="Idotaccent" unicode="&#x130;" horiz-adv-x="532" 
d="M-90 0q-19 0 -19 20l148 1393q3 21 22 21h410q9 0 14 -6t4 -15l-147 -1393q0 -9 -7 -14.5t-16 -5.5h-409zM82 1516l14 133q3 20 23 20h348q21 0 18 -20l-14 -133q0 -9 -6.5 -15t-15.5 -6h-349q-18 0 -18 21z" />
    <glyph glyph-name="dotlessi" unicode="&#x131;" horiz-adv-x="532" 
d="M-90 0q-19 0 -19 20l148 1393q3 21 22 21h410q9 0 14 -6t4 -15l-147 -1393q0 -9 -7 -14.5t-16 -5.5h-409z" />
    <glyph glyph-name="IJ" unicode="&#x132;" horiz-adv-x="1155" 
d="M-90 0q-19 0 -19 20l148 1393q3 21 22 21h410q9 0 14 -6t4 -15l-110 -1055q0 9 5 15t13 6h197q19 0 22 20l107 1014q3 21 22 21h349q9 0 14 -6t4 -15l-137 -1304q-3 -16 -12 -25l-82 -74q-10 -10 -27 -10h-498q-14 0 -14 20q0 -9 -7 -14.5t-16 -5.5h-409z" />
    <glyph glyph-name="ij" unicode="&#x133;" horiz-adv-x="989" 
d="M-90 0q-19 0 -19 20l148 1393q3 21 22 21h410q9 0 14 -6t4 -15l-108 -1034h47q20 0 23 20l106 1014q3 21 23 21h348q9 0 14 -6t4 -15l-137 -1304q-3 -16 -12 -25l-82 -74q-10 -10 -27 -10h-778z" />
    <glyph glyph-name="uni0136" unicode="&#x136;" horiz-adv-x="1044" 
d="M-90 0q-19 0 -19 20l148 1393q3 21 22 21h349q9 0 14 -6t4 -15l-59 -567l184 569q6 19 25 19h409q18 0 14 -23l-225 -682l119 -706q1 -10 -5.5 -16.5t-17.5 -6.5h-407q-18 0 -21 16l-102 574l-61 -570q0 -9 -7 -14.5t-16 -5.5h-348zM86 -211l49 133q8 19 25 19h344
q10 0 14.5 -7.5t-0.5 -17.5l-53 -133q-5 -16 -25 -16h-340q-23 0 -14 22z" />
    <glyph glyph-name="uni0137" unicode="&#x137;" horiz-adv-x="1044" 
d="M-90 0q-19 0 -19 20l148 1393q3 21 22 21h349q9 0 14 -6t4 -15l-59 -567l184 569q6 19 25 19h409q18 0 14 -23l-225 -682l119 -706q1 -10 -5.5 -16.5t-17.5 -6.5h-407q-18 0 -21 16l-102 574l-61 -570q0 -9 -7 -14.5t-16 -5.5h-348zM86 -211l49 133q8 19 25 19h344
q10 0 14.5 -7.5t-0.5 -17.5l-53 -133q-5 -16 -25 -16h-340q-23 0 -14 22z" />
    <glyph glyph-name="Lacute" unicode="&#x139;" horiz-adv-x="788" 
d="M-90 0q-19 0 -19 20l148 1393q3 21 22 21h390q9 0 14 -6t4 -15l-109 -1032h281q17 0 14 -21l-37 -340q0 -9 -6.5 -14.5t-15.5 -5.5h-686zM90 1518l51 133q7 18 25 18h344q11 0 14.5 -6.5t-0.5 -17.5l-53 -134q-8 -16 -25 -16h-340q-23 0 -16 23z" />
    <glyph glyph-name="lacute" unicode="&#x13a;" horiz-adv-x="788" 
d="M-90 0q-19 0 -19 20l148 1393q3 21 22 21h390q9 0 14 -6t4 -15l-109 -1032h281q17 0 14 -21l-37 -340q0 -9 -6.5 -14.5t-15.5 -5.5h-686zM90 1518l51 133q7 18 25 18h344q11 0 14.5 -6.5t-0.5 -17.5l-53 -134q-8 -16 -25 -16h-340q-23 0 -16 23z" />
    <glyph glyph-name="uni013B" unicode="&#x13b;" horiz-adv-x="788" 
d="M-90 0q-19 0 -19 20l148 1393q3 21 22 21h390q9 0 14 -6t4 -15l-109 -1032h281q17 0 14 -21l-37 -340q0 -9 -6.5 -14.5t-15.5 -5.5h-686zM18 -211l50 133q8 19 24 19h344q11 0 15 -7.5t0 -17.5l-54 -133q-5 -16 -24 -16h-340q-24 0 -15 22z" />
    <glyph glyph-name="uni013C" unicode="&#x13c;" horiz-adv-x="788" 
d="M-90 0q-19 0 -19 20l148 1393q3 21 22 21h390q9 0 14 -6t4 -15l-109 -1032h281q17 0 14 -21l-37 -340q0 -9 -6.5 -14.5t-15.5 -5.5h-686zM18 -211l50 133q8 19 24 19h344q11 0 15 -7.5t0 -17.5l-54 -133q-5 -16 -24 -16h-340q-24 0 -15 22z" />
    <glyph glyph-name="Lcaron" unicode="&#x13d;" horiz-adv-x="788" 
d="M-90 0q-19 0 -19 20l148 1393q3 21 22 21h390q9 0 14 -6t4 -15l-109 -1032h281q17 0 14 -21l-37 -340q0 -9 -6.5 -14.5t-15.5 -5.5h-686zM-14 1647q-3 22 18 22h236q17 0 20 -18l14 -95l35 95q9 18 25 18h235q24 0 15 -22l-56 -136q-10 -16 -26 -16h-467q-20 0 -23 16z
" />
    <glyph glyph-name="lcaron" unicode="&#x13e;" horiz-adv-x="788" 
d="M-90 0q-19 0 -19 20l148 1393q3 21 22 21h390q9 0 14 -6t4 -15l-109 -1032h281q17 0 14 -21l-37 -340q0 -9 -6.5 -14.5t-15.5 -5.5h-686zM-14 1647q-3 22 18 22h236q17 0 20 -18l14 -95l35 95q9 18 25 18h235q24 0 15 -22l-56 -136q-10 -16 -26 -16h-467q-20 0 -23 16z
" />
    <glyph glyph-name="Lslash" unicode="&#x141;" horiz-adv-x="884" 
d="M-35 487q-11 -6 -17 -2.5t-5 15.5l41 395q3 16 18 25l86 51l47 442q3 21 23 21h389q9 0 14 -6t4 -15l-18 -168l76 45q10 7 17 3.5t5 -15.5l-41 -395q-3 -16 -18 -25l-84 -51l-45 -426h280q8 0 12 -6t3 -15l-37 -340q0 -9 -7 -14.5t-16 -5.5h-686q-18 0 -18 20l55 512z
" />
    <glyph glyph-name="lslash" unicode="&#x142;" horiz-adv-x="884" 
d="M-35 487q-11 -6 -17 -2.5t-5 15.5l41 395q3 16 18 25l86 51l47 442q3 21 23 21h389q9 0 14 -6t4 -15l-18 -168l76 45q10 7 17 3.5t5 -15.5l-41 -395q-3 -16 -18 -25l-84 -51l-45 -426h280q8 0 12 -6t3 -15l-37 -340q0 -9 -7 -14.5t-16 -5.5h-686q-18 0 -18 20l55 512z
" />
    <glyph glyph-name="Nacute" unicode="&#x143;" horiz-adv-x="1003" 
d="M-90 0q-19 0 -19 20l148 1393q3 21 22 21h392q20 0 20 -19l16 -538q0 -9 13 -9h2q8 0 12 11l55 534q3 21 23 21h348q9 0 14.5 -6t4.5 -15l-148 -1393q0 -9 -6.5 -14.5t-15.5 -5.5h-392q-16 0 -20 18l-17 541q0 8 -8 8h-4q-12 0 -12 -10l-57 -537q0 -9 -7 -14.5t-16 -5.5
h-348zM360 1518l52 133q7 18 24 18h344q11 0 15 -7t0 -17l-54 -134q-8 -16 -24 -16h-340q-11 0 -15.5 6.5t-1.5 16.5z" />
    <glyph glyph-name="nacute" unicode="&#x144;" horiz-adv-x="1003" 
d="M-90 0q-19 0 -19 20l148 1393q3 21 22 21h392q20 0 20 -19l16 -538q0 -9 13 -9h2q8 0 12 11l55 534q3 21 23 21h348q9 0 14.5 -6t4.5 -15l-148 -1393q0 -9 -6.5 -14.5t-15.5 -5.5h-392q-16 0 -20 18l-17 541q0 8 -8 8h-4q-12 0 -12 -10l-57 -537q0 -9 -7 -14.5t-16 -5.5
h-348zM360 1518l52 133q7 18 24 18h344q11 0 15 -7t0 -17l-54 -134q-8 -16 -24 -16h-340q-11 0 -15.5 6.5t-1.5 16.5z" />
    <glyph glyph-name="uni0145" unicode="&#x145;" horiz-adv-x="1003" 
d="M-90 0q-19 0 -19 20l148 1393q3 21 22 21h392q20 0 20 -19l16 -538q0 -9 13 -9h2q8 0 12 11l55 534q3 21 23 21h348q9 0 14.5 -6t4.5 -15l-148 -1393q0 -9 -6.5 -14.5t-15.5 -5.5h-392q-16 0 -20 18l-17 541q0 8 -8 8h-4q-12 0 -12 -10l-57 -537q0 -9 -7 -14.5t-16 -5.5
h-348zM125 -211l49 133q8 19 25 19h344q10 0 14.5 -7.5t-0.5 -17.5l-53 -133q-5 -16 -25 -16h-340q-23 0 -14 22z" />
    <glyph glyph-name="uni0146" unicode="&#x146;" horiz-adv-x="1003" 
d="M-90 0q-19 0 -19 20l148 1393q3 21 22 21h392q20 0 20 -19l16 -538q0 -9 13 -9h2q8 0 12 11l55 534q3 21 23 21h348q9 0 14.5 -6t4.5 -15l-148 -1393q0 -9 -6.5 -14.5t-15.5 -5.5h-392q-16 0 -20 18l-17 541q0 8 -8 8h-4q-12 0 -12 -10l-57 -537q0 -9 -7 -14.5t-16 -5.5
h-348zM125 -211l49 133q8 19 25 19h344q10 0 14.5 -7.5t-0.5 -17.5l-53 -133q-5 -16 -25 -16h-340q-23 0 -14 22z" />
    <glyph glyph-name="Ncaron" unicode="&#x147;" horiz-adv-x="1003" 
d="M-90 0q-19 0 -19 20l148 1393q3 21 22 21h392q20 0 20 -19l16 -538q0 -9 13 -9h2q8 0 12 11l55 534q3 21 23 21h348q9 0 14.5 -6t4.5 -15l-148 -1393q0 -9 -6.5 -14.5t-15.5 -5.5h-392q-16 0 -20 18l-17 541q0 8 -8 8h-4q-12 0 -12 -10l-57 -537q0 -9 -7 -14.5t-16 -5.5
h-348zM256 1647q-3 22 18 22h236q17 0 20 -18l15 -95l35 95q9 18 24 18h236q23 0 14 -22l-55 -136q-10 -16 -27 -16h-467q-19 0 -22 16z" />
    <glyph glyph-name="ncaron" unicode="&#x148;" horiz-adv-x="1003" 
d="M-90 0q-19 0 -19 20l148 1393q3 21 22 21h392q20 0 20 -19l16 -538q0 -9 13 -9h2q8 0 12 11l55 534q3 21 23 21h348q9 0 14.5 -6t4.5 -15l-148 -1393q0 -9 -6.5 -14.5t-15.5 -5.5h-392q-16 0 -20 18l-17 541q0 8 -8 8h-4q-12 0 -12 -10l-57 -537q0 -9 -7 -14.5t-16 -5.5
h-348zM256 1647q-3 22 18 22h236q17 0 20 -18l15 -95l35 95q9 18 24 18h236q23 0 14 -22l-55 -136q-10 -16 -27 -16h-467q-19 0 -22 16z" />
    <glyph glyph-name="Eng" unicode="&#x14a;" horiz-adv-x="1003" 
d="M143 -264q-14 0 -24 10l-66 74q-8 8 -8 24l12 101q0 9 7 14.5t16 5.5h280q9 0 14 -6t5 -14l-2 -15q-3 -20 18 -20h27q19 0 22 20l7 70l-89 559q-3 8 -8 8h-4q-12 0 -12 -10l-57 -537q0 -9 -7 -14.5t-16 -5.5h-348q-19 0 -19 20l148 1393q3 21 22 21h392q20 0 20 -19
l16 -538q0 -9 13 -9h2q8 0 12 11l55 534q3 21 23 21h348q9 0 14.5 -6t4.5 -15l-166 -1569q0 -11 -13 -24l-82 -74q-10 -10 -24 -10h-533z" />
    <glyph glyph-name="Eng" unicode="&#x14b;" horiz-adv-x="1003" 
d="M143 -264q-14 0 -24 10l-66 74q-8 8 -8 24l12 101q0 9 7 14.5t16 5.5h280q9 0 14 -6t5 -14l-2 -15q-3 -20 18 -20h27q19 0 22 20l7 70l-89 559q-3 8 -8 8h-4q-12 0 -12 -10l-57 -537q0 -9 -7 -14.5t-16 -5.5h-348q-19 0 -19 20l148 1393q3 21 22 21h392q20 0 20 -19
l16 -538q0 -9 13 -9h2q8 0 12 11l55 534q3 21 23 21h348q9 0 14.5 -6t4.5 -15l-166 -1569q0 -11 -13 -24l-82 -74q-10 -10 -24 -10h-533z" />
    <glyph glyph-name="Omacron" unicode="&#x14c;" 
d="M-2 0q-13 0 -23 10l-65 74q-11 11 -8 25l127 1216q3 17 14 25l80 73q15 11 27 11h663q16 0 23 -11l67 -73q8 -13 6 -25l-127 -1216q-3 -16 -12 -25l-82 -74q-10 -10 -26 -10h-664zM219 1649q3 20 21 20h532q19 0 16 -20l-24 -133q0 -9 -8 -15t-17 -6h-503q-9 0 -15 6
t-6 15zM322 401q-3 -20 18 -20h61q20 0 23 20l65 631q1 9 -4 15t-14 6h-61q-20 0 -23 -21z" />
    <glyph glyph-name="omacron" unicode="&#x14d;" 
d="M-2 0q-13 0 -23 10l-65 74q-11 11 -8 25l127 1216q3 17 14 25l80 73q15 11 27 11h663q16 0 23 -11l67 -73q8 -13 6 -25l-127 -1216q-3 -16 -12 -25l-82 -74q-10 -10 -26 -10h-664zM219 1649q3 20 21 20h532q19 0 16 -20l-24 -133q0 -9 -8 -15t-17 -6h-503q-9 0 -15 6
t-6 15zM322 401q-3 -20 18 -20h61q20 0 23 20l65 631q1 9 -4 15t-14 6h-61q-20 0 -23 -21z" />
    <glyph glyph-name="Ohungarumlaut" unicode="&#x150;" 
d="M-2 0q-13 0 -23 10l-65 74q-11 11 -8 25l127 1216q3 17 14 25l80 73q15 11 27 11h663q16 0 23 -11l67 -73q8 -13 6 -25l-127 -1216q-3 -16 -12 -25l-82 -74q-10 -10 -26 -10h-664zM90 1518l51 133q7 18 25 18h344q11 0 14.5 -6.5t-0.5 -17.5l-53 -134q-8 -16 -25 -16
h-340q-23 0 -16 23zM322 401q-3 -20 18 -20h61q20 0 23 20l65 631q1 9 -4 15t-14 6h-61q-20 0 -23 -21zM541 1518l51 133q7 18 24 18h345q11 0 14.5 -6.5t-0.5 -17.5l-53 -134q-8 -16 -25 -16h-340q-23 0 -16 23z" />
    <glyph glyph-name="ohungarumlaut" unicode="&#x151;" 
d="M-2 0q-13 0 -23 10l-65 74q-11 11 -8 25l127 1216q3 17 14 25l80 73q15 11 27 11h663q16 0 23 -11l67 -73q8 -13 6 -25l-127 -1216q-3 -16 -12 -25l-82 -74q-10 -10 -26 -10h-664zM90 1518l51 133q7 18 25 18h344q11 0 14.5 -6.5t-0.5 -17.5l-53 -134q-8 -16 -25 -16
h-340q-23 0 -16 23zM322 401q-3 -20 18 -20h61q20 0 23 20l65 631q1 9 -4 15t-14 6h-61q-20 0 -23 -21zM541 1518l51 133q7 18 24 18h345q11 0 14.5 -6.5t-0.5 -17.5l-53 -134q-8 -16 -25 -16h-340q-23 0 -16 23z" />
    <glyph glyph-name="OE" unicode="&#x152;" horiz-adv-x="1320" 
d="M-2 0q-13 0 -23 10l-65 74q-11 11 -8 25l127 1216q3 17 14 25l80 73q15 11 27 11h1110q9 0 14 -6t4 -15l-41 -381q0 -20 -18 -20h-322q-19 0 -23 -21l-10 -100q0 -21 19 -21h174q21 0 18 -20l-26 -256q-3 -21 -23 -21h-174q-9 0 -16 -5.5t-7 -14.5l-12 -109q0 -20 19 -20
h321q17 0 14 -21l-41 -383q0 -9 -6.5 -14.5t-15.5 -5.5h-1110zM322 401q-3 -20 18 -20h61q20 0 23 20l65 631q1 9 -4 15t-14 6h-61q-20 0 -23 -21z" />
    <glyph glyph-name="oe" unicode="&#x153;" horiz-adv-x="1320" 
d="M-2 0q-13 0 -23 10l-65 74q-11 11 -8 25l127 1216q3 17 14 25l80 73q15 11 27 11h1110q9 0 14 -6t4 -15l-41 -381q0 -20 -18 -20h-322q-19 0 -23 -21l-10 -100q0 -21 19 -21h174q21 0 18 -20l-26 -256q-3 -21 -23 -21h-174q-9 0 -16 -5.5t-7 -14.5l-12 -109q0 -20 19 -20
h321q17 0 14 -21l-41 -383q0 -9 -6.5 -14.5t-15.5 -5.5h-1110zM322 401q-3 -20 18 -20h61q20 0 23 20l65 631q1 9 -4 15t-14 6h-61q-20 0 -23 -21z" />
    <glyph glyph-name="Racute" unicode="&#x154;" 
d="M-90 0q-19 0 -19 20l148 1393q3 21 22 21h752q16 0 23 -11l67 -73q8 -13 6 -25l-65 -635q-4 -21 -13 -26l-77 -43q-6 -5 -7 -14.5t5 -14.5l69 -43q7 -7 4 -25l-53 -504q0 -9 -6.5 -14.5t-15.5 -5.5h-349q-18 0 -18 20l35 330q1 9 -4.5 15t-14.5 6h-82l-36 -351
q0 -9 -7 -14.5t-16 -5.5h-348zM309 1518l51 133q7 18 25 18h344q11 0 14.5 -6.5t-0.5 -17.5l-53 -134q-8 -16 -24 -16h-340q-11 0 -15.5 6.5t-1.5 16.5zM360 776h82q9 0 16 6t7 15l24 235q1 9 -4 15t-14 6h-82z" />
    <glyph glyph-name="racute" unicode="&#x155;" 
d="M-90 0q-19 0 -19 20l148 1393q3 21 22 21h752q16 0 23 -11l67 -73q8 -13 6 -25l-65 -635q-4 -21 -13 -26l-77 -43q-6 -5 -7 -14.5t5 -14.5l69 -43q7 -7 4 -25l-53 -504q0 -9 -6.5 -14.5t-15.5 -5.5h-349q-18 0 -18 20l35 330q1 9 -4.5 15t-14.5 6h-82l-36 -351
q0 -9 -7 -14.5t-16 -5.5h-348zM309 1518l51 133q7 18 25 18h344q11 0 14.5 -6.5t-0.5 -17.5l-53 -134q-8 -16 -24 -16h-340q-11 0 -15.5 6.5t-1.5 16.5zM360 776h82q9 0 16 6t7 15l24 235q1 9 -4 15t-14 6h-82z" />
    <glyph glyph-name="uni0156" unicode="&#x156;" 
d="M-90 0q-19 0 -19 20l148 1393q3 21 22 21h752q16 0 23 -11l67 -73q8 -13 6 -25l-65 -635q-4 -21 -13 -26l-77 -43q-6 -5 -7 -14.5t5 -14.5l69 -43q7 -7 4 -25l-53 -504q0 -9 -6.5 -14.5t-15.5 -5.5h-349q-18 0 -18 20l35 330q1 9 -4.5 15t-14.5 6h-82l-36 -351
q0 -9 -7 -14.5t-16 -5.5h-348zM74 -211l49 133q8 19 24 19h345q10 0 14.5 -7.5t-0.5 -17.5l-53 -133q-5 -16 -25 -16h-340q-23 0 -14 22zM360 776h82q9 0 16 6t7 15l24 235q1 9 -4 15t-14 6h-82z" />
    <glyph glyph-name="uni0157" unicode="&#x157;" 
d="M-90 0q-19 0 -19 20l148 1393q3 21 22 21h752q16 0 23 -11l67 -73q8 -13 6 -25l-65 -635q-4 -21 -13 -26l-77 -43q-6 -5 -7 -14.5t5 -14.5l69 -43q7 -7 4 -25l-53 -504q0 -9 -6.5 -14.5t-15.5 -5.5h-349q-18 0 -18 20l35 330q1 9 -4.5 15t-14.5 6h-82l-36 -351
q0 -9 -7 -14.5t-16 -5.5h-348zM74 -211l49 133q8 19 24 19h345q10 0 14.5 -7.5t-0.5 -17.5l-53 -133q-5 -16 -25 -16h-340q-23 0 -14 22zM360 776h82q9 0 16 6t7 15l24 235q1 9 -4 15t-14 6h-82z" />
    <glyph glyph-name="Rcaron" unicode="&#x158;" 
d="M-90 0q-19 0 -19 20l148 1393q3 21 22 21h752q16 0 23 -11l67 -73q8 -13 6 -25l-65 -635q-4 -21 -13 -26l-77 -43q-6 -5 -7 -14.5t5 -14.5l69 -43q7 -7 4 -25l-53 -504q0 -9 -6.5 -14.5t-15.5 -5.5h-349q-18 0 -18 20l35 330q1 9 -4.5 15t-14.5 6h-82l-36 -351
q0 -9 -7 -14.5t-16 -5.5h-348zM205 1647q-3 22 18 22h236q17 0 20 -18l15 -95l34 95q9 18 25 18h235q24 0 15 -22l-55 -136q-10 -16 -27 -16h-467q-20 0 -23 16zM360 776h82q9 0 16 6t7 15l24 235q1 9 -4 15t-14 6h-82z" />
    <glyph glyph-name="rcaron" unicode="&#x159;" 
d="M-90 0q-19 0 -19 20l148 1393q3 21 22 21h752q16 0 23 -11l67 -73q8 -13 6 -25l-65 -635q-4 -21 -13 -26l-77 -43q-6 -5 -7 -14.5t5 -14.5l69 -43q7 -7 4 -25l-53 -504q0 -9 -6.5 -14.5t-15.5 -5.5h-349q-18 0 -18 20l35 330q1 9 -4.5 15t-14.5 6h-82l-36 -351
q0 -9 -7 -14.5t-16 -5.5h-348zM205 1647q-3 22 18 22h236q17 0 20 -18l15 -95l34 95q9 18 25 18h235q24 0 15 -22l-55 -136q-10 -16 -27 -16h-467q-20 0 -23 16zM360 776h82q9 0 16 6t7 15l24 235q1 9 -4 15t-14 6h-82z" />
    <glyph glyph-name="Sacute" unicode="&#x15a;" 
d="M-2 0q-13 0 -23 10l-65 74q-11 11 -8 25l39 374q3 21 22 21h348q9 0 14.5 -6t4.5 -15l-8 -92q-3 -10 8 -10h82q9 0 12 10l16 158q0 20 -18 20h-363q-13 0 -24 11l-66 73q-8 8 -8 25l68 647q3 17 14 25l80 73q15 11 27 11h661q16 0 23 -11l69 -73q8 -13 6 -25l-39 -373
q0 -9 -6.5 -14.5t-15.5 -5.5h-348q-19 0 -19 20l11 90q0 11 -11 11h-82q-10 0 -10 -11l-16 -151q0 -21 18 -21h363q14 0 24 -10l66 -74q8 -12 8 -24l-70 -653q-3 -16 -12 -25l-84 -74q-10 -10 -27 -10h-661zM309 1518l51 133q7 18 25 18h344q11 0 14.5 -6.5t-0.5 -17.5
l-53 -134q-8 -16 -24 -16h-340q-11 0 -15.5 6.5t-1.5 16.5z" />
    <glyph glyph-name="sacute" unicode="&#x15b;" 
d="M-2 0q-13 0 -23 10l-65 74q-11 11 -8 25l39 374q3 21 22 21h348q9 0 14.5 -6t4.5 -15l-8 -92q-3 -10 8 -10h82q9 0 12 10l16 158q0 20 -18 20h-363q-13 0 -24 11l-66 73q-8 8 -8 25l68 647q3 17 14 25l80 73q15 11 27 11h661q16 0 23 -11l69 -73q8 -13 6 -25l-39 -373
q0 -9 -6.5 -14.5t-15.5 -5.5h-348q-19 0 -19 20l11 90q0 11 -11 11h-82q-10 0 -10 -11l-16 -151q0 -21 18 -21h363q14 0 24 -10l66 -74q8 -12 8 -24l-70 -653q-3 -16 -12 -25l-84 -74q-10 -10 -27 -10h-661zM309 1518l51 133q7 18 25 18h344q11 0 14.5 -6.5t-0.5 -17.5
l-53 -134q-8 -16 -24 -16h-340q-11 0 -15.5 6.5t-1.5 16.5z" />
    <glyph glyph-name="Scedilla" unicode="&#x15e;" 
d="M-2 0q-13 0 -23 10l-65 74q-11 11 -8 25l39 374q3 21 22 21h348q9 0 14.5 -6t4.5 -15l-8 -92q-3 -10 8 -10h82q9 0 12 10l16 158q0 20 -18 20h-363q-13 0 -24 11l-66 73q-8 8 -8 25l68 647q3 17 14 25l80 73q15 11 27 11h661q16 0 23 -11l69 -73q8 -13 6 -25l-39 -373
q0 -9 -6.5 -14.5t-15.5 -5.5h-348q-19 0 -19 20l11 90q0 11 -11 11h-82q-10 0 -10 -11l-16 -151q0 -21 18 -21h363q14 0 24 -10l66 -74q8 -12 8 -24l-70 -653q-3 -16 -12 -25l-84 -74q-10 -10 -27 -10h-329l182 -25q14 -3 14 -24l-18 -180q-2 -8 -8 -16t-13 -9l-344 -41
q-11 -2 -16 2t-4 14l12 113q3 20 21 23l178 24l-172 25q-20 3 -17 22l7 72h-154z" />
    <glyph glyph-name="scedilla" unicode="&#x15f;" 
d="M-2 0q-13 0 -23 10l-65 74q-11 11 -8 25l39 374q3 21 22 21h348q9 0 14.5 -6t4.5 -15l-8 -92q-3 -10 8 -10h82q9 0 12 10l16 158q0 20 -18 20h-363q-13 0 -24 11l-66 73q-8 8 -8 25l68 647q3 17 14 25l80 73q15 11 27 11h661q16 0 23 -11l69 -73q8 -13 6 -25l-39 -373
q0 -9 -6.5 -14.5t-15.5 -5.5h-348q-19 0 -19 20l11 90q0 11 -11 11h-82q-10 0 -10 -11l-16 -151q0 -21 18 -21h363q14 0 24 -10l66 -74q8 -12 8 -24l-70 -653q-3 -16 -12 -25l-84 -74q-10 -10 -27 -10h-329l182 -25q14 -3 14 -24l-18 -180q-2 -8 -8 -16t-13 -9l-344 -41
q-11 -2 -16 2t-4 14l12 113q3 20 21 23l178 24l-172 25q-20 3 -17 22l7 72h-154z" />
    <glyph glyph-name="Scaron" unicode="&#x160;" 
d="M-2 0q-13 0 -23 10l-65 74q-11 11 -8 25l39 374q3 21 22 21h348q9 0 14.5 -6t4.5 -15l-8 -92q-3 -10 8 -10h82q9 0 12 10l16 158q0 20 -18 20h-363q-13 0 -24 11l-66 73q-8 8 -8 25l68 647q3 17 14 25l80 73q15 11 27 11h661q16 0 23 -11l69 -73q8 -13 6 -25l-39 -373
q0 -9 -6.5 -14.5t-15.5 -5.5h-348q-19 0 -19 20l11 90q0 11 -11 11h-82q-10 0 -10 -11l-16 -151q0 -21 18 -21h363q14 0 24 -10l66 -74q8 -12 8 -24l-70 -653q-3 -16 -12 -25l-84 -74q-10 -10 -27 -10h-661zM205 1647q-3 22 18 22h236q17 0 20 -18l15 -95l34 95q9 18 25 18
h235q24 0 15 -22l-55 -136q-10 -16 -27 -16h-467q-20 0 -23 16z" />
    <glyph glyph-name="scaron" unicode="&#x161;" 
d="M-2 0q-13 0 -23 10l-65 74q-11 11 -8 25l39 374q3 21 22 21h348q9 0 14.5 -6t4.5 -15l-8 -92q-3 -10 8 -10h82q9 0 12 10l16 158q0 20 -18 20h-363q-13 0 -24 11l-66 73q-8 8 -8 25l68 647q3 17 14 25l80 73q15 11 27 11h661q16 0 23 -11l69 -73q8 -13 6 -25l-39 -373
q0 -9 -6.5 -14.5t-15.5 -5.5h-348q-19 0 -19 20l11 90q0 11 -11 11h-82q-10 0 -10 -11l-16 -151q0 -21 18 -21h363q14 0 24 -10l66 -74q8 -12 8 -24l-70 -653q-3 -16 -12 -25l-84 -74q-10 -10 -27 -10h-661zM205 1647q-3 22 18 22h236q17 0 20 -18l15 -95l34 95q9 18 25 18
h235q24 0 15 -22l-55 -136q-10 -16 -27 -16h-467q-20 0 -23 16z" />
    <glyph glyph-name="uni0162" unicode="&#x162;" horiz-adv-x="880" 
d="M104 0q-18 0 -18 20l109 1022q0 11 -11 11h-204q-20 0 -17 20l35 340q4 21 22 21h820q9 0 14 -6t4 -15l-35 -340q-3 -20 -24 -20h-205q-10 0 -10 -11l-109 -1022q0 -9 -6.5 -14.5t-15.5 -5.5h-174l182 -25q14 -3 14 -24l-18 -180q-2 -8 -8 -16t-13 -9l-344 -41
q-11 -2 -16 2t-4 14l12 113q3 20 20 23l179 24l-172 25q-20 3 -17 22l6 72h4z" />
    <glyph glyph-name="uni0163" unicode="&#x163;" horiz-adv-x="880" 
d="M104 0q-18 0 -18 20l109 1022q0 11 -11 11h-204q-20 0 -17 20l35 340q4 21 22 21h820q9 0 14 -6t4 -15l-35 -340q-3 -20 -24 -20h-205q-10 0 -10 -11l-109 -1022q0 -9 -6.5 -14.5t-15.5 -5.5h-174l182 -25q14 -3 14 -24l-18 -180q-2 -8 -8 -16t-13 -9l-344 -41
q-11 -2 -16 2t-4 14l12 113q3 20 20 23l179 24l-172 25q-20 3 -17 22l6 72h4z" />
    <glyph glyph-name="Tcaron" unicode="&#x164;" horiz-adv-x="880" 
d="M104 0q-18 0 -18 20l109 1022q0 11 -11 11h-204q-20 0 -17 20l35 340q4 21 22 21h820q9 0 14 -6t4 -15l-35 -340q-3 -20 -24 -20h-205q-10 0 -10 -11l-109 -1022q0 -9 -6.5 -14.5t-15.5 -5.5h-349zM154 1647q-3 22 18 22h236q17 0 20 -18l14 -95l35 95q9 18 25 18h235
q24 0 15 -22l-56 -136q-10 -16 -26 -16h-467q-20 0 -23 16z" />
    <glyph glyph-name="tcaron" unicode="&#x165;" horiz-adv-x="880" 
d="M104 0q-18 0 -18 20l109 1022q0 11 -11 11h-204q-20 0 -17 20l35 340q4 21 22 21h820q9 0 14 -6t4 -15l-35 -340q-3 -20 -24 -20h-205q-10 0 -10 -11l-109 -1022q0 -9 -6.5 -14.5t-15.5 -5.5h-349zM154 1647q-3 22 18 22h236q17 0 20 -18l14 -95l35 95q9 18 25 18h235
q24 0 15 -22l-56 -136q-10 -16 -26 -16h-467q-20 0 -23 16z" />
    <glyph glyph-name="Tbar" unicode="&#x166;" horiz-adv-x="860" 
d="M-31 465q-18 0 -18 20l33 297q0 9 6.5 15t15.5 6h164l25 239q0 11 -11 11h-204q-20 0 -17 20l35 340q4 21 22 21h820q9 0 14 -6t4 -15l-35 -340q-3 -20 -24 -20h-205q-10 0 -10 -11l-25 -239h164q18 0 18 -21l-32 -297q0 -9 -7 -14.5t-16 -5.5h-164l-47 -445
q0 -9 -6.5 -14.5t-15.5 -5.5h-349q-18 0 -18 20l47 445h-164z" />
    <glyph glyph-name="Tbar" unicode="&#x167;" horiz-adv-x="860" 
d="M-31 465q-18 0 -18 20l33 297q0 9 6.5 15t15.5 6h164l25 239q0 11 -11 11h-204q-20 0 -17 20l35 340q4 21 22 21h820q9 0 14 -6t4 -15l-35 -340q-3 -20 -24 -20h-205q-10 0 -10 -11l-25 -239h164q18 0 18 -21l-32 -297q0 -9 -7 -14.5t-16 -5.5h-164l-47 -445
q0 -9 -6.5 -14.5t-15.5 -5.5h-349q-18 0 -18 20l47 445h-164z" />
    <glyph glyph-name="Umacron" unicode="&#x16a;" 
d="M-2 0q-13 0 -23 10l-65 74q-11 11 -8 25l137 1304q3 21 22 21h349q9 0 14 -6t4 -15l-106 -1022q-3 -10 8 -10h82q9 0 12 10l106 1022q4 21 23 21h348q9 0 14.5 -6t4.5 -15l-138 -1304q-3 -16 -12 -25l-82 -74q-10 -10 -26 -10h-664zM219 1649q3 20 21 20h532q19 0 16 -20
l-24 -133q0 -9 -8 -15t-17 -6h-503q-9 0 -15 6t-6 15z" />
    <glyph glyph-name="umacron" unicode="&#x16b;" 
d="M-2 0q-13 0 -23 10l-65 74q-11 11 -8 25l137 1304q3 21 22 21h349q9 0 14 -6t4 -15l-106 -1022q-3 -10 8 -10h82q9 0 12 10l106 1022q4 21 23 21h348q9 0 14.5 -6t4.5 -15l-138 -1304q-3 -16 -12 -25l-82 -74q-10 -10 -26 -10h-664zM219 1649q3 20 21 20h532q19 0 16 -20
l-24 -133q0 -9 -8 -15t-17 -6h-503q-9 0 -15 6t-6 15z" />
    <glyph glyph-name="Uring" unicode="&#x16e;" 
d="M-2 0q-13 0 -23 10l-65 74q-11 11 -8 25l137 1304q3 21 22 21h349q9 0 14 -6t4 -15l-106 -1022q-3 -10 8 -10h82q9 0 12 10l106 1022q4 21 23 21h348q9 0 14.5 -6t4.5 -15l-138 -1304q-3 -16 -12 -25l-82 -74q-10 -10 -26 -10h-664zM270 1649q3 20 21 20h430q19 0 16 -20
l-24 -133q0 -9 -8 -15t-17 -6h-401q-9 0 -15 6t-6 15z" />
    <glyph glyph-name="uring" unicode="&#x16f;" 
d="M-2 0q-13 0 -23 10l-65 74q-11 11 -8 25l137 1304q3 21 22 21h349q9 0 14 -6t4 -15l-106 -1022q-3 -10 8 -10h82q9 0 12 10l106 1022q4 21 23 21h348q9 0 14.5 -6t4.5 -15l-138 -1304q-3 -16 -12 -25l-82 -74q-10 -10 -26 -10h-664zM270 1649q3 20 21 20h430q19 0 16 -20
l-24 -133q0 -9 -8 -15t-17 -6h-401q-9 0 -15 6t-6 15z" />
    <glyph glyph-name="Uhungarumlaut" unicode="&#x170;" 
d="M-2 0q-13 0 -23 10l-65 74q-11 11 -8 25l137 1304q3 21 22 21h349q9 0 14 -6t4 -15l-106 -1022q-3 -10 8 -10h82q9 0 12 10l106 1022q4 21 23 21h348q9 0 14.5 -6t4.5 -15l-138 -1304q-3 -16 -12 -25l-82 -74q-10 -10 -26 -10h-664zM90 1518l51 133q7 18 25 18h344
q11 0 14.5 -6.5t-0.5 -17.5l-53 -134q-8 -16 -25 -16h-340q-23 0 -16 23zM541 1518l51 133q7 18 24 18h345q11 0 14.5 -6.5t-0.5 -17.5l-53 -134q-8 -16 -25 -16h-340q-23 0 -16 23z" />
    <glyph glyph-name="uhungarumlaut" unicode="&#x171;" 
d="M-2 0q-13 0 -23 10l-65 74q-11 11 -8 25l137 1304q3 21 22 21h349q9 0 14 -6t4 -15l-106 -1022q-3 -10 8 -10h82q9 0 12 10l106 1022q4 21 23 21h348q9 0 14.5 -6t4.5 -15l-138 -1304q-3 -16 -12 -25l-82 -74q-10 -10 -26 -10h-664zM90 1518l51 133q7 18 25 18h344
q11 0 14.5 -6.5t-0.5 -17.5l-53 -134q-8 -16 -25 -16h-340q-23 0 -16 23zM541 1518l51 133q7 18 24 18h345q11 0 14.5 -6.5t-0.5 -17.5l-53 -134q-8 -16 -25 -16h-340q-23 0 -16 23z" />
    <glyph glyph-name="Uogonek" unicode="&#x172;" 
d="M-2 0q-13 0 -23 10l-65 74q-11 11 -8 25l137 1304q3 21 22 21h349q9 0 14 -6t4 -15l-106 -1022q-3 -10 8 -10h82q9 0 12 10l106 1022q4 21 23 21h348q9 0 14.5 -6t4.5 -15l-138 -1304q-3 -16 -12 -25l-82 -74q-10 -10 -26 -10h-23l-6 -72q-3 -19 -21 -22l-180 -25
l174 -24q20 -3 17 -23l-13 -113q-3 -19 -24 -16l-336 41q-16 3 -12 25l18 180q0 8 5.5 15.5t12.5 8.5l187 25h-463z" />
    <glyph glyph-name="uogonek" unicode="&#x173;" 
d="M-2 0q-13 0 -23 10l-65 74q-11 11 -8 25l137 1304q3 21 22 21h349q9 0 14 -6t4 -15l-106 -1022q-3 -10 8 -10h82q9 0 12 10l106 1022q4 21 23 21h348q9 0 14.5 -6t4.5 -15l-138 -1304q-3 -16 -12 -25l-82 -74q-10 -10 -26 -10h-23l-6 -72q-3 -19 -21 -22l-180 -25
l174 -24q20 -3 17 -23l-13 -113q-3 -19 -24 -16l-336 41q-16 3 -12 25l18 180q0 8 5.5 15.5t12.5 8.5l187 25h-463z" />
    <glyph glyph-name="Wcircumflex" unicode="&#x174;" horiz-adv-x="1212" 
d="M-18 0q-18 0 -21 20l27 1393q0 21 20 21h328q21 0 18 -21l-35 -651q-3 -10 9 -10h12q10 0 12 10l109 651q3 21 22 21h246q10 0 16 -5.5t5 -15.5l-25 -653q0 -10 10 -10h13q10 0 10 10l96 653q3 21 23 21h327q23 0 17 -21l-269 -1393q-3 -20 -24 -20h-410q-18 0 -18 20
l26 517q0 10 -10 10h-8q-10 0 -10 -10l-84 -517q0 -20 -23 -20h-409zM326 1518l55 135q10 16 27 16h466q20 0 23 -16l27 -135q3 -10 -2.5 -16.5t-16.5 -6.5h-235q-18 0 -21 18l-14 95l-35 -95q-9 -18 -25 -18h-235q-21 0 -14 23z" />
    <glyph glyph-name="wcircumflex" unicode="&#x175;" horiz-adv-x="1212" 
d="M-18 0q-18 0 -21 20l27 1393q0 21 20 21h328q21 0 18 -21l-35 -651q-3 -10 9 -10h12q10 0 12 10l109 651q3 21 22 21h246q10 0 16 -5.5t5 -15.5l-25 -653q0 -10 10 -10h13q10 0 10 10l96 653q3 21 23 21h327q23 0 17 -21l-269 -1393q-3 -20 -24 -20h-410q-18 0 -18 20
l26 517q0 10 -10 10h-8q-10 0 -10 -10l-84 -517q0 -20 -23 -20h-409zM326 1518l55 135q10 16 27 16h466q20 0 23 -16l27 -135q3 -10 -2.5 -16.5t-16.5 -6.5h-235q-18 0 -21 18l-14 95l-35 -95q-9 -18 -25 -18h-235q-21 0 -14 23z" />
    <glyph glyph-name="Ycircumflex" unicode="&#x176;" horiz-adv-x="964" 
d="M-51 465q-9 13 -6 24l96 924q3 21 22 21h349q9 0 14 -6t4 -15l-72 -678h105l71 678q4 21 23 21h348q9 0 14.5 -6t4.5 -15l-97 -924q-4 -17 -14 -24l-80 -74q-13 -10 -26 -10h-134l-36 -358q-3 -21 -23 -21h-348q-9 0 -14.5 6t-4.5 15l37 358h-143q-16 0 -23 10zM193 1518
l55 135q10 16 26 16h467q20 0 23 -16l27 -135q3 -10 -2.5 -16.5t-16.5 -6.5h-235q-18 0 -21 18l-14 95l-35 -95q-9 -18 -25 -18h-235q-21 0 -14 23z" />
    <glyph glyph-name="ycircumflex" unicode="&#x177;" horiz-adv-x="964" 
d="M-51 465q-9 13 -6 24l96 924q3 21 22 21h349q9 0 14 -6t4 -15l-72 -678h105l71 678q4 21 23 21h348q9 0 14.5 -6t4.5 -15l-97 -924q-4 -17 -14 -24l-80 -74q-13 -10 -26 -10h-134l-36 -358q-3 -21 -23 -21h-348q-9 0 -14.5 6t-4.5 15l37 358h-143q-16 0 -23 10zM193 1518
l55 135q10 16 26 16h467q20 0 23 -16l27 -135q3 -10 -2.5 -16.5t-16.5 -6.5h-235q-18 0 -21 18l-14 95l-35 -95q-9 -18 -25 -18h-235q-21 0 -14 23z" />
    <glyph glyph-name="Ydieresis" unicode="&#x178;" horiz-adv-x="964" 
d="M-51 465q-9 13 -6 24l96 924q3 21 22 21h349q9 0 14 -6t4 -15l-72 -678h105l71 678q4 21 23 21h348q9 0 14.5 -6t4.5 -15l-97 -924q-4 -17 -14 -24l-80 -74q-13 -10 -26 -10h-134l-36 -358q-3 -21 -23 -21h-348q-9 0 -14.5 6t-4.5 15l37 358h-143q-16 0 -23 10zM211 1649
q3 20 20 20h246q20 0 17 -20l-25 -133q0 -9 -8 -15t-17 -6h-217q-20 0 -20 21zM518 1649q3 20 21 20h245q20 0 17 -20l-25 -133q0 -9 -7.5 -15t-16.5 -6h-217q-9 0 -15 6t-6 15z" />
    <glyph glyph-name="Zacute" unicode="&#x179;" horiz-adv-x="788" 
d="M-129 0q-10 0 -13.5 6.5t-0.5 16.5l360 1019q3 11 -10 11h-197q-19 0 -16 20l35 340q3 21 22 21h715q20 0 16 -23l-360 -1022q-2 -10 10 -10h195q18 0 18 -21l-37 -338q0 -9 -6.5 -14.5t-15.5 -5.5h-715zM258 1518l51 133q7 18 25 18h344q11 0 14.5 -6.5t-0.5 -17.5
l-53 -134q-8 -16 -25 -16h-340q-23 0 -16 23z" />
    <glyph glyph-name="zacute" unicode="&#x17a;" horiz-adv-x="788" 
d="M-129 0q-10 0 -13.5 6.5t-0.5 16.5l360 1019q3 11 -10 11h-197q-19 0 -16 20l35 340q3 21 22 21h715q20 0 16 -23l-360 -1022q-2 -10 10 -10h195q18 0 18 -21l-37 -338q0 -9 -6.5 -14.5t-15.5 -5.5h-715zM258 1518l51 133q7 18 25 18h344q11 0 14.5 -6.5t-0.5 -17.5
l-53 -134q-8 -16 -25 -16h-340q-23 0 -16 23z" />
    <glyph glyph-name="Zdotaccent" unicode="&#x17b;" horiz-adv-x="788" 
d="M-129 0q-10 0 -13.5 6.5t-0.5 16.5l360 1019q3 11 -10 11h-197q-19 0 -16 20l35 340q3 21 22 21h715q20 0 16 -23l-360 -1022q-2 -10 10 -10h195q18 0 18 -21l-37 -338q0 -9 -6.5 -14.5t-15.5 -5.5h-715zM244 1516l14 133q3 20 23 20h348q21 0 18 -20l-14 -133
q0 -9 -7 -15t-16 -6h-348q-18 0 -18 21z" />
    <glyph glyph-name="zdotaccent" unicode="&#x17c;" horiz-adv-x="788" 
d="M-129 0q-10 0 -13.5 6.5t-0.5 16.5l360 1019q3 11 -10 11h-197q-19 0 -16 20l35 340q3 21 22 21h715q20 0 16 -23l-360 -1022q-2 -10 10 -10h195q18 0 18 -21l-37 -338q0 -9 -6.5 -14.5t-15.5 -5.5h-715zM244 1516l14 133q3 20 23 20h348q21 0 18 -20l-14 -133
q0 -9 -7 -15t-16 -6h-348q-18 0 -18 21z" />
    <glyph glyph-name="Zcaron" unicode="&#x17d;" horiz-adv-x="788" 
d="M-129 0q-10 0 -13.5 6.5t-0.5 16.5l360 1019q3 11 -10 11h-197q-19 0 -16 20l35 340q3 21 22 21h715q20 0 16 -23l-360 -1022q-2 -10 10 -10h195q18 0 18 -21l-37 -338q0 -9 -6.5 -14.5t-15.5 -5.5h-715zM154 1647q-3 22 18 22h236q17 0 20 -18l14 -95l35 95q9 18 25 18
h235q24 0 15 -22l-56 -136q-10 -16 -26 -16h-467q-20 0 -23 16z" />
    <glyph glyph-name="zcaron" unicode="&#x17e;" horiz-adv-x="788" 
d="M-129 0q-10 0 -13.5 6.5t-0.5 16.5l360 1019q3 11 -10 11h-197q-19 0 -16 20l35 340q3 21 22 21h715q20 0 16 -23l-360 -1022q-2 -10 10 -10h195q18 0 18 -21l-37 -338q0 -9 -6.5 -14.5t-15.5 -5.5h-715zM154 1647q-3 22 18 22h236q17 0 20 -18l14 -95l35 95q9 18 25 18
h235q24 0 15 -22l-56 -136q-10 -16 -26 -16h-467q-20 0 -23 16z" />
    <glyph glyph-name="uni0218" unicode="&#x218;" 
d="M-2 0q-13 0 -23 10l-65 74q-11 11 -8 25l39 374q3 21 22 21h348q9 0 14.5 -6t4.5 -15l-8 -92q-3 -10 8 -10h82q9 0 12 10l16 158q0 20 -18 20h-363q-13 0 -24 11l-66 73q-8 8 -8 25l68 647q3 17 14 25l80 73q15 11 27 11h661q16 0 23 -11l69 -73q8 -13 6 -25l-39 -373
q0 -9 -6.5 -14.5t-15.5 -5.5h-348q-19 0 -19 20l11 90q0 11 -11 11h-82q-10 0 -10 -11l-16 -151q0 -21 18 -21h363q14 0 24 -10l66 -74q8 -12 8 -24l-70 -653q-3 -16 -12 -25l-84 -74q-10 -10 -27 -10h-661zM74 -211l49 133q8 19 24 19h345q10 0 14.5 -7.5t-0.5 -17.5
l-53 -133q-5 -16 -25 -16h-340q-23 0 -14 22z" />
    <glyph glyph-name="uni0219" unicode="&#x219;" 
d="M-2 0q-13 0 -23 10l-65 74q-11 11 -8 25l39 374q3 21 22 21h348q9 0 14.5 -6t4.5 -15l-8 -92q-3 -10 8 -10h82q9 0 12 10l16 158q0 20 -18 20h-363q-13 0 -24 11l-66 73q-8 8 -8 25l68 647q3 17 14 25l80 73q15 11 27 11h661q16 0 23 -11l69 -73q8 -13 6 -25l-39 -373
q0 -9 -6.5 -14.5t-15.5 -5.5h-348q-19 0 -19 20l11 90q0 11 -11 11h-82q-10 0 -10 -11l-16 -151q0 -21 18 -21h363q14 0 24 -10l66 -74q8 -12 8 -24l-70 -653q-3 -16 -12 -25l-84 -74q-10 -10 -27 -10h-661zM74 -211l49 133q8 19 24 19h345q10 0 14.5 -7.5t-0.5 -17.5
l-53 -133q-5 -16 -25 -16h-340q-23 0 -14 22z" />
    <glyph glyph-name="uni021A" unicode="&#x21a;" horiz-adv-x="880" 
d="M104 0q-18 0 -18 20l109 1022q0 11 -11 11h-204q-20 0 -17 20l35 340q4 21 22 21h820q9 0 14 -6t4 -15l-35 -340q-3 -20 -24 -20h-205q-10 0 -10 -11l-109 -1022q0 -9 -6.5 -14.5t-15.5 -5.5h-349zM23 -211l49 133q8 19 24 19h344q11 0 15 -7.5t0 -17.5l-54 -133
q-5 -16 -24 -16h-340q-23 0 -14 22z" />
    <glyph glyph-name="uni021B" unicode="&#x21b;" horiz-adv-x="880" 
d="M104 0q-18 0 -18 20l109 1022q0 11 -11 11h-204q-20 0 -17 20l35 340q4 21 22 21h820q9 0 14 -6t4 -15l-35 -340q-3 -20 -24 -20h-205q-10 0 -10 -11l-109 -1022q0 -9 -6.5 -14.5t-15.5 -5.5h-349zM23 -211l49 133q8 19 24 19h344q11 0 15 -7.5t0 -17.5l-54 -133
q-5 -16 -24 -16h-340q-23 0 -14 22z" />
    <glyph glyph-name="uni0237" unicode="&#x237;" horiz-adv-x="704" 
d="M-94 0q-15 0 -15 20l37 338q0 9 5.5 15t13.5 6h196q20 0 23 20l106 1014q4 21 23 21h348q9 0 14.5 -6t4.5 -15l-138 -1304q-3 -16 -12 -25l-82 -74q-10 -10 -27 -10h-497z" />
    <glyph glyph-name="gravecomb" unicode="&#x300;" horiz-adv-x="0" 
d="M166 1434q-18 0 -21 16l-24 133q-3 10 2 17.5t16 7.5h344q9 0 15 -5.5t6 -13.5l22 -133q3 -22 -20 -22h-340z" />
    <glyph glyph-name="acutecomb" unicode="&#x301;" horiz-adv-x="0" 
d="M25 1434q-11 0 -16 6t-1 16l51 133q8 19 25 19h344q21 0 14 -25l-53 -133q-8 -16 -24 -16h-340z" />
    <glyph glyph-name="uni0302" unicode="&#x302;" horiz-adv-x="0" 
d="M25 1434q-24 0 -15 22l56 135q10 17 26 17h467q8 0 15 -5t8 -12l26 -135q3 -22 -18 -22h-236q-17 0 -20 18l-15 94l-34 -94q-9 -18 -25 -18h-235z" />
    <glyph glyph-name="tildecomb" unicode="&#x303;" horiz-adv-x="0" 
d="M59 1434q-23 0 -14 22l55 135q10 17 27 17h405q8 0 15 -5t8 -12l16 -82l31 80q8 19 25 19h235q11 0 15 -6.5t0 -16.5l-56 -135q-10 -16 -26 -16h-406q-17 0 -20 18l-15 94l-35 -94q-9 -18 -24 -18h-236z" />
    <glyph glyph-name="uni0304" unicode="&#x304;" horiz-adv-x="0" 
d="M35 1434q-9 0 -15.5 5.5t-5.5 14.5l4 133q4 21 21 21h532q9 0 14 -6t3 -15l-25 -133q-3 -20 -24 -20h-504z" />
    <glyph glyph-name="uni0306" unicode="&#x306;" horiz-adv-x="0" 
d="M92 1434q-15 0 -20 16l-45 133q-4 10 1.5 17.5t16.5 7.5h236q16 0 22 -15l29 -65q3 -8 10 -8h8q12 0 15 8l41 65q12 15 26 15h236q10 0 14.5 -7t-0.5 -18l-74 -133q-11 -16 -24 -16h-492z" />
    <glyph glyph-name="uni0307" unicode="&#x307;" horiz-adv-x="0" 
d="M61 1434q-21 0 -18 20l14 133q3 21 23 21h348q9 0 14 -6t4 -15l-14 -133q-3 -20 -22 -20h-349z" />
    <glyph glyph-name="uni0308" unicode="&#x308;" horiz-adv-x="0" 
d="M342 1434q-9 0 -15 5.5t-5 14.5l4 133q4 21 20 21h246q20 0 16 -21l-24 -133q-3 -20 -25 -20h-217zM18 1587q4 21 21 21h246q19 0 16 -21l-25 -133q-3 -20 -24 -20h-217q-9 0 -15.5 5.5t-5.5 14.5z" />
    <glyph glyph-name="uni030A" unicode="&#x30a;" horiz-adv-x="0" 
d="M74 1434q-9 0 -15.5 5.5t-5.5 14.5l4 133q3 21 21 21h430q20 0 16 -21l-24 -133q-3 -20 -25 -20h-401z" />
    <glyph glyph-name="uni030B" unicode="&#x30b;" horiz-adv-x="0" 
d="M475 1434q-25 0 -16 22l51 133q8 19 25 19h344q21 0 14 -25l-53 -133q-8 -16 -25 -16h-340zM8 1456l51 133q8 19 25 19h344q21 0 14 -25l-53 -133q-8 -16 -24 -16h-340q-11 0 -16 6t-1 16z" />
    <glyph glyph-name="uni030C" unicode="&#x30c;" horiz-adv-x="0" 
d="M74 1434q-20 0 -23 16l-26 135q-3 23 18 23h236q17 0 20 -19l14 -94l35 94q10 19 25 19h235q11 0 15 -6.5t0 -16.5l-56 -135q-10 -16 -26 -16h-467z" />
    <glyph glyph-name="uni0312" unicode="&#x312;" horiz-adv-x="0" 
d="M121 1434q-22 0 -15 24l54 133q8 17 24 17h340q11 0 16 -6.5t1 -16.5l-52 -133q-7 -18 -24 -18h-344z" />
    <glyph glyph-name="uni0326" unicode="&#x326;" horiz-adv-x="0" 
d="M-156 -233q-23 0 -14 22l49 133q8 19 25 19h344q10 0 14.5 -7.5t-0.5 -17.5l-53 -133q-5 -16 -25 -16h-340z" />
    <glyph glyph-name="uni0327" unicode="&#x327;" horiz-adv-x="0" 
d="M-119 -295q-11 -2 -16 2t-4 14l12 113q3 20 21 23l178 24l-172 25q-20 3 -17 22l6 72h179l182 -25q14 -3 14 -24l-18 -180q-2 -8 -8 -16t-13 -9z" />
    <glyph glyph-name="uni0328" unicode="&#x328;" horiz-adv-x="0" 
d="M-121 -254q-16 3 -12 25l18 180q0 8 6 15.5t13 8.5l186 25h178l-6 -72q-3 -19 -20 -22l-181 -25l175 -24q19 -3 16 -23l-12 -113q-3 -19 -25 -16z" />
    <glyph glyph-name="uni0335" unicode="&#x335;" horiz-adv-x="0" 
d="M-88 395q-9 0 -14 6t-4 15l34 338q3 20 23 20h676q21 0 18 -20l-35 -338q-4 -21 -22 -21h-676z" />
    <glyph glyph-name="uni0336" unicode="&#x336;" horiz-adv-x="0" 
d="M-88 395q-9 0 -14 6t-4 15l34 338q3 20 23 20h676q21 0 18 -20l-35 -338q-4 -21 -22 -21h-676z" />
    <glyph glyph-name="uni0337" unicode="&#x337;" horiz-adv-x="0" 
d="M-133 0q-11 0 -14.5 7t2.5 18l600 1048q6 14 22 14h395q11 0 16 -6.5t-1 -17.5l-600 -1049q-6 -14 -25 -14h-395z" />
    <glyph glyph-name="uni0338" unicode="&#x338;" horiz-adv-x="0" 
d="M-92 0q-11 0 -14.5 7t2.5 18l792 1394q9 15 25 15h395q10 0 14.5 -7t-0.5 -18l-794 -1395q-6 -14 -25 -14h-395z" />
    <glyph glyph-name="Wgrave" unicode="&#x1e80;" horiz-adv-x="1212" 
d="M-18 0q-18 0 -21 20l27 1393q0 21 20 21h328q21 0 18 -21l-35 -651q-3 -10 9 -10h12q10 0 12 10l109 651q3 21 22 21h246q10 0 16 -5.5t5 -15.5l-25 -653q0 -10 10 -10h13q10 0 10 10l96 653q3 21 23 21h327q23 0 17 -21l-269 -1393q-3 -20 -24 -20h-410q-18 0 -18 20
l26 517q0 10 -10 10h-8q-10 0 -10 -10l-84 -517q0 -20 -23 -20h-409zM389 1645q-3 24 19 24h344q20 0 20 -18l23 -133q3 -10 -3.5 -16.5t-17.5 -6.5h-340q-17 0 -20 16z" />
    <glyph glyph-name="wgrave" unicode="&#x1e81;" horiz-adv-x="1212" 
d="M-18 0q-18 0 -21 20l27 1393q0 21 20 21h328q21 0 18 -21l-35 -651q-3 -10 9 -10h12q10 0 12 10l109 651q3 21 22 21h246q10 0 16 -5.5t5 -15.5l-25 -653q0 -10 10 -10h13q10 0 10 10l96 653q3 21 23 21h327q23 0 17 -21l-269 -1393q-3 -20 -24 -20h-410q-18 0 -18 20
l26 517q0 10 -10 10h-8q-10 0 -10 -10l-84 -517q0 -20 -23 -20h-409zM389 1645q-3 24 19 24h344q20 0 20 -18l23 -133q3 -10 -3.5 -16.5t-17.5 -6.5h-340q-17 0 -20 16z" />
    <glyph glyph-name="Wacute" unicode="&#x1e82;" horiz-adv-x="1212" 
d="M-18 0q-18 0 -21 20l27 1393q0 21 20 21h328q21 0 18 -21l-35 -651q-3 -10 9 -10h12q10 0 12 10l109 651q3 21 22 21h246q10 0 16 -5.5t5 -15.5l-25 -653q0 -10 10 -10h13q10 0 10 10l96 653q3 21 23 21h327q23 0 17 -21l-269 -1393q-3 -20 -24 -20h-410q-18 0 -18 20
l26 517q0 10 -10 10h-8q-10 0 -10 -10l-84 -517q0 -20 -23 -20h-409zM444 1518l52 133q7 18 24 18h344q11 0 15 -7t0 -17l-54 -134q-8 -16 -24 -16h-340q-11 0 -15.5 6.5t-1.5 16.5z" />
    <glyph glyph-name="wacute" unicode="&#x1e83;" horiz-adv-x="1212" 
d="M-18 0q-18 0 -21 20l27 1393q0 21 20 21h328q21 0 18 -21l-35 -651q-3 -10 9 -10h12q10 0 12 10l109 651q3 21 22 21h246q10 0 16 -5.5t5 -15.5l-25 -653q0 -10 10 -10h13q10 0 10 10l96 653q3 21 23 21h327q23 0 17 -21l-269 -1393q-3 -20 -24 -20h-410q-18 0 -18 20
l26 517q0 10 -10 10h-8q-10 0 -10 -10l-84 -517q0 -20 -23 -20h-409zM444 1518l52 133q7 18 24 18h344q11 0 15 -7t0 -17l-54 -134q-8 -16 -24 -16h-340q-11 0 -15.5 6.5t-1.5 16.5z" />
    <glyph glyph-name="Wdieresis" unicode="&#x1e84;" horiz-adv-x="1212" 
d="M-18 0q-18 0 -21 20l27 1393q0 21 20 21h328q21 0 18 -21l-35 -651q-3 -10 9 -10h12q10 0 12 10l109 651q3 21 22 21h246q10 0 16 -5.5t5 -15.5l-25 -653q0 -10 10 -10h13q10 0 10 10l96 653q3 21 23 21h327q23 0 17 -21l-269 -1393q-3 -20 -24 -20h-410q-18 0 -18 20
l26 517q0 10 -10 10h-8q-10 0 -10 -10l-84 -517q0 -20 -23 -20h-409zM344 1649q3 20 21 20h245q20 0 17 -20l-25 -133q0 -9 -7.5 -15t-16.5 -6h-218q-20 0 -20 21zM651 1649q3 20 21 20h246q19 0 16 -20l-25 -133q0 -9 -7.5 -15t-16.5 -6h-217q-9 0 -15 6t-6 15z" />
    <glyph glyph-name="wdieresis" unicode="&#x1e85;" horiz-adv-x="1212" 
d="M-18 0q-18 0 -21 20l27 1393q0 21 20 21h328q21 0 18 -21l-35 -651q-3 -10 9 -10h12q10 0 12 10l109 651q3 21 22 21h246q10 0 16 -5.5t5 -15.5l-25 -653q0 -10 10 -10h13q10 0 10 10l96 653q3 21 23 21h327q23 0 17 -21l-269 -1393q-3 -20 -24 -20h-410q-18 0 -18 20
l26 517q0 10 -10 10h-8q-10 0 -10 -10l-84 -517q0 -20 -23 -20h-409zM344 1649q3 20 21 20h245q20 0 17 -20l-25 -133q0 -9 -7.5 -15t-16.5 -6h-218q-20 0 -20 21zM651 1649q3 20 21 20h246q19 0 16 -20l-25 -133q0 -9 -7.5 -15t-16.5 -6h-217q-9 0 -15 6t-6 15z" />
    <glyph glyph-name="uni1E9E" unicode="&#x1e9e;" horiz-adv-x="1003" 
d="M-90 0q-19 0 -19 20l138 1305q3 17 14 25l80 73q15 11 27 11h663q16 0 23 -11l67 -73q8 -12 4 -25l-94 -369q-3 -9 2 -15.5t14 -6.5h60q9 0 14 -6t4 -15l-84 -804q-3 -16 -12 -25l-82 -74q-10 -10 -27 -10h-342q-18 0 -18 20l37 340q3 21 22 21h41q20 0 23 20l20 195
q0 10 -8 10h-82q-9 0 -15 7t-3 16l115 415q4 11 -7 11h-84q-12 0 -12 -11l-108 -1024q0 -9 -7 -14.5t-16 -5.5h-348z" />
    <glyph glyph-name="Ygrave" unicode="&#x1ef2;" horiz-adv-x="964" 
d="M-51 465q-9 13 -6 24l96 924q3 21 22 21h349q9 0 14 -6t4 -15l-72 -678h105l71 678q4 21 23 21h348q9 0 14.5 -6t4.5 -15l-97 -924q-4 -17 -14 -24l-80 -74q-13 -10 -26 -10h-134l-36 -358q-3 -21 -23 -21h-348q-9 0 -14.5 6t-4.5 15l37 358h-143q-16 0 -23 10zM256 1645
q-3 24 18 24h344q9 0 15 -5t6 -13l23 -133q3 -10 -3.5 -16.5t-17.5 -6.5h-340q-17 0 -20 16z" />
    <glyph glyph-name="ygrave" unicode="&#x1ef3;" horiz-adv-x="964" 
d="M-51 465q-9 13 -6 24l96 924q3 21 22 21h349q9 0 14 -6t4 -15l-72 -678h105l71 678q4 21 23 21h348q9 0 14.5 -6t4.5 -15l-97 -924q-4 -17 -14 -24l-80 -74q-13 -10 -26 -10h-134l-36 -358q-3 -21 -23 -21h-348q-9 0 -14.5 6t-4.5 15l37 358h-143q-16 0 -23 10zM256 1645
q-3 24 18 24h344q9 0 15 -5t6 -13l23 -133q3 -10 -3.5 -16.5t-17.5 -6.5h-340q-17 0 -20 16z" />
    <glyph glyph-name="endash" unicode="&#x2013;" horiz-adv-x="655" 
d="M-37 498q-21 0 -18 20l35 338q4 21 22 21h533q9 0 14 -6t4 -15l-35 -338q-3 -20 -22 -20h-533z" />
    <glyph glyph-name="emdash" unicode="&#x2014;" horiz-adv-x="778" 
d="M-37 498q-21 0 -18 20l35 338q4 21 22 21h655q9 0 14.5 -6t4.5 -15l-35 -338q-3 -20 -23 -20h-655z" />
    <glyph glyph-name="quoteleft" unicode="&#x2018;" horiz-adv-x="471" 
d="M25 1087q-19 0 -19 21l33 305q3 21 22 21h349q9 0 14 -6t4 -15l-33 -305q0 -9 -6.5 -15t-15.5 -6h-348z" />
    <glyph glyph-name="quoteright" unicode="&#x2019;" horiz-adv-x="471" 
d="M25 1087q-19 0 -19 21l33 305q3 21 22 21h349q9 0 14 -6t4 -15l-33 -305q0 -9 -6.5 -15t-15.5 -6h-348z" />
    <glyph glyph-name="quotesinglbase" unicode="&#x201a;" horiz-adv-x="354" 
d="M-168 -172q-25 0 -16 22l121 306q7 18 24 18h344q11 0 15.5 -7t-1.5 -17l-145 -306q-5 -16 -22 -16h-320z" />
    <glyph glyph-name="quotedblleft" unicode="&#x201c;" horiz-adv-x="1013" 
d="M498 1434q11 0 15.5 -6.5t0.5 -16.5l-123 -305q-4 -19 -24 -19h-344q-11 0 -15 7.5t0 17.5l146 305q8 17 24 17h320zM463 1112l145 305q8 17 25 17h319q11 0 16 -6.5t1 -16.5l-123 -305q-4 -19 -25 -19h-344q-10 0 -14.5 7.5t0.5 17.5z" />
    <glyph glyph-name="quotedblright" unicode="&#x201d;" horiz-adv-x="1013" 
d="M479 1087q-23 0 -16 23l123 305q8 19 24 19h344q11 0 15 -7.5t0 -17.5l-146 -305q-9 -17 -24 -17h-320zM8 1110l123 305q8 19 25 19h344q10 0 14.5 -7t-0.5 -18l-145 -305q-9 -17 -25 -17h-319q-11 0 -15.5 6.5t-1.5 16.5z" />
    <glyph glyph-name="quotedblbase" unicode="&#x201e;" horiz-adv-x="931" 
d="M307 -172q-25 0 -16 22l121 306q7 18 24 18h344q11 0 16 -7t-1 -17l-146 -306q-5 -16 -22 -16h-320zM-164 -150l121 306q7 18 25 18h344q11 0 15.5 -7t-1.5 -17l-145 -306q-5 -16 -23 -16h-319q-11 0 -16 6t-1 16z" />
    <glyph glyph-name="dagger" unicode="&#x2020;" horiz-adv-x="690" 
d="M186 600q-18 0 -18 21l49 456h-192q-9 0 -14.5 6t-4.5 15l14 143q4 21 23 21h193l16 151q4 21 22 21h144q9 0 14 -6t4 -15l-16 -151h190q9 0 14.5 -6t4.5 -15l-15 -143q-4 -21 -22 -21h-191l-49 -456q0 -9 -6.5 -15t-15.5 -6h-144z" />
    <glyph glyph-name="bullet" unicode="&#x2022;" horiz-adv-x="565" 
d="M12 360q-20 0 -30.5 12.5t-8.5 33.5l31 290q7 45 47 45h316q20 0 31 -12.5t8 -32.5l-31 -290q-2 -21 -14.5 -33.5t-32.5 -12.5h-316z" />
    <glyph glyph-name="ellipsis" unicode="&#x2026;" horiz-adv-x="1449" 
d="M416 0q-20 0 -30 12.5t-7 32.5l31 291q2 20 14.5 32.5t32.5 12.5h315q20 0 30.5 -12t8.5 -33l-31 -291q-7 -45 -49 -45h-315zM-104 45l30 291q2 20 14.5 32.5t32.5 12.5h316q20 0 30.5 -12t8.5 -33l-31 -291q-7 -45 -49 -45h-316q-20 0 -29.5 12t-6.5 33zM862 45l31 291
q2 20 14.5 32.5t32.5 12.5h315q20 0 30.5 -12t8.5 -33l-30 -291q-3 -20 -16.5 -32.5t-33.5 -12.5h-315q-20 0 -30 12.5t-7 32.5z" />
    <glyph glyph-name="guilsinglleft" unicode="&#x2039;" horiz-adv-x="587" 
d="M74 207q-20 0 -23 16l-94 379q-3 15 4 29l172 379q8 16 27 16h325q24 0 15 -22l-170 -373q-4 -8 -4 -29l92 -373q3 -22 -19 -22h-325z" />
    <glyph glyph-name="guilsinglright" unicode="&#x203a;" horiz-adv-x="589" 
d="M-70 207q-23 0 -14 22l170 373q4 8 4 29l-92 373q-3 22 18 22h326q20 0 23 -16l94 -379q3 -17 -4 -29l-172 -379q-8 -16 -27 -16h-326z" />
    <glyph glyph-name="Euro" unicode="&#x20ac;" 
d="M412 756q0 -7 -7 -13t-16 -6h-33l-4 -39h33q8 0 13.5 -5.5t4.5 -12.5l-18 -191q-4 -18 -23 -18h-32l-8 -70q-3 -20 18 -20h61q20 0 23 20l27 246q0 9 6.5 15t15.5 6h348q19 0 19 -21l-58 -538q-3 -16 -12 -25l-82 -74q-10 -10 -26 -10h-664q-13 0 -23 10l-65 74
q-11 11 -8 25l39 362h-93q-8 0 -13.5 5.5t-4.5 12.5l18 191q4 18 23 18h92l4 39h-92q-7 0 -12.5 5.5t-5.5 13.5l20 190q4 19 23 19h92l37 360q3 17 14 25l80 73q15 11 27 11h663q16 0 23 -11l67 -73q8 -13 6 -25l-55 -537q-3 -20 -23 -20h-348q-21 0 -18 20l24 244
q1 9 -4 15t-14 6h-61q-20 0 -23 -21l-6 -67h33q8 0 13.5 -6t4.5 -13z" />
    <glyph glyph-name="minus" unicode="&#x2212;" horiz-adv-x="634" 
d="M-37 498q-21 0 -18 20l35 338q4 21 22 21h512q9 0 14 -6t4 -15l-34 -338q-3 -20 -23 -20h-512z" />
    <glyph glyph-name="uni004A0301" horiz-adv-x="704" 
d="M-94 0q-15 0 -15 20l37 338q0 9 5.5 15t13.5 6h196q20 0 23 20l106 1014q4 21 23 21h348q9 0 14.5 -6t4.5 -15l-138 -1304q-3 -16 -12 -25l-82 -74q-10 -10 -27 -10h-497zM299 1518l51 133q7 18 25 18h344q11 0 14.5 -6.5t-0.5 -17.5l-53 -134q-8 -16 -25 -16h-340
q-23 0 -16 23z" />
    <glyph glyph-name="N_o" horiz-adv-x="1884" 
d="M1044 399q-13 0 -24 11l-66 73q-8 12 -8 25l86 813q3 16 12 25l82 73q15 11 27 11h541q15 0 22 -11l66 -73q11 -11 8 -25l-86 -813q0 -16 -12 -25l-82 -73q-11 -11 -25 -11h-541zM-109 20l148 1393q3 21 22 21h392q20 0 20 -19l16 -538q0 -9 13 -9h2q8 0 12 11l55 534
q3 21 23 21h348q9 0 14.5 -6t4.5 -15l-148 -1393q0 -9 -6.5 -14.5t-15.5 -5.5h-392q-16 0 -20 18l-17 541q0 8 -8 8h-4q-12 0 -12 -10l-57 -537q0 -9 -7 -14.5t-16 -5.5h-348q-19 0 -19 20zM895 20l31 277q0 9 6.5 14.5t15.5 5.5h717q18 0 18 -20l-30 -277q0 -9 -7 -14.5
t-16 -5.5h-717q-18 0 -18 20zM1296 707q-1 -4 1.5 -7.5t7.5 -3.5h81q9 0 13 11l43 415q0 11 -8 11h-82q-13 0 -13 -11z" />
    <glyph glyph-name="O_Z" horiz-adv-x="1445" 
d="M672 399q-11 0 -16 7t-1 16l320 684q5 10 -8 10h-191q-9 0 -14 6t-4 15l28 276q4 21 23 21h612q10 0 15 -7t2 -16l-318 -684q-5 -10 8 -10h189q9 0 14 -6t4 -15l-28 -276q-3 -21 -23 -21h-612zM-109 20l29 256q0 9 7 15t16 6h1331q18 0 18 -21l-28 -256q0 -9 -7 -14.5
t-16 -5.5h-1331q-19 0 -19 20zM-57 508l86 817q3 17 14 25l80 73q15 11 27 11h458q16 0 23 -11l67 -73q9 -14 7 -25l-87 -817q0 -16 -12 -25l-82 -73q-11 -11 -24 -11h-459q-14 0 -25 11l-65 73q-8 12 -8 25zM252 707q-1 -4 1 -7.5t7 -3.5h82q8 0 12 11l41 399q0 10 -8 10
h-82q-12 0 -12 -10z" />
    <glyph glyph-name="i.loclTRK" horiz-adv-x="532" 
d="M-90 0q-19 0 -19 20l148 1393q3 21 22 21h410q9 0 14 -6t4 -15l-147 -1393q0 -9 -7 -14.5t-16 -5.5h-409zM82 1516l14 133q3 20 23 20h348q21 0 18 -20l-14 -133q0 -9 -6.5 -15t-15.5 -6h-349q-18 0 -18 21z" />
    <glyph glyph-name="uni006A0301" horiz-adv-x="704" 
d="M-94 0q-15 0 -15 20l37 338q0 9 5.5 15t13.5 6h196q20 0 23 20l106 1014q4 21 23 21h348q9 0 14.5 -6t4.5 -15l-138 -1304q-3 -16 -12 -25l-82 -74q-10 -10 -27 -10h-497zM299 1518l51 133q7 18 25 18h344q11 0 14.5 -6.5t-0.5 -17.5l-53 -134q-8 -16 -25 -16h-340
q-23 0 -16 23z" />
    <glyph glyph-name="uni030C.alt" horiz-adv-x="1228" 
 />
    </font>
</defs>
</svg>
