<?xml version="1.0" standalone="no"?>
<!DOCTYPE svg PUBLIC "-//W3C//DTD SVG 1.1//EN" "http://www.w3.org/Graphics/SVG/1.1/DTD/svg11.dtd" >
<svg xmlns="http://www.w3.org/2000/svg" xmlns:xlink="http://www.w3.org/1999/xlink" version="1.1">
<metadata>
Created by FontForge 20201107 at Sat Jul  6 14:50:01 2024
 By 
Copyright (c) 2019 by Daniel Feldt. All rights reserved.
</metadata>
<defs>
<font id="Mazement-Regular" horiz-adv-x="962" >
  <font-face 
    font-family="Mazement"
    font-weight="400"
    font-stretch="normal"
    units-per-em="2048"
    panose-1="0 0 0 0 0 0 0 0 0 0"
    ascent="1638"
    descent="-410"
    x-height="1434"
    cap-height="1434"
    bbox="-164 -328 1802 1679"
    underline-thickness="102"
    underline-position="-255"
    unicode-range="U+0020-2212"
  />
<missing-glyph horiz-adv-x="1003" 
d="M823 1679v-2007h-637v2007h637zM336 -188h332v65h-205l141 94h64v66h-332v-66h139l-139 -94v-65zM336 84h332v227h-332v-227zM336 430h332v227h-201v-112h70v47h65v-94h-201v159h-65v-227zM336 702h332v201h-66v-133h-266v-68zM336 817h201v139h131v68h-332v-68h131v-73
h-131v-66zM336 1077h332v68h-131v141h-201v-209zM336 1337h332v68h-131v74h131v65h-330v-65h129v-74h-131v-68zM401 150v94h201v-94h-201zM401 1145v74h66v-74h-66z" />
    <glyph glyph-name=".notdef" horiz-adv-x="1003" 
d="M823 1679v-2007h-637v2007h637zM336 -188h332v65h-205l141 94h64v66h-332v-66h139l-139 -94v-65zM336 84h332v227h-332v-227zM336 430h332v227h-201v-112h70v47h65v-94h-201v159h-65v-227zM336 702h332v201h-66v-133h-266v-68zM336 817h201v139h131v68h-332v-68h131v-73
h-131v-66zM336 1077h332v68h-131v141h-201v-209zM336 1337h332v68h-131v74h131v65h-330v-65h129v-74h-131v-68zM401 150v94h201v-94h-201zM401 1145v74h66v-74h-66z" />
    <glyph glyph-name=".null" horiz-adv-x="0" 
 />
    <glyph glyph-name="nonmarkingreturn" horiz-adv-x="682" 
 />
    <glyph glyph-name="space" unicode=" " horiz-adv-x="204" 
 />
    <glyph glyph-name="space" unicode="&#xa0;" horiz-adv-x="204" 
 />
    <glyph glyph-name="exclam" unicode="!" horiz-adv-x="471" 
d="M61 467q-20 0 -20 20v926q0 21 20 21h349q20 0 20 -21v-926q0 -20 -20 -20h-349zM41 20v340q0 21 20 21h349q20 0 20 -21v-340q0 -20 -20 -20h-349q-20 0 -20 20z" />
    <glyph glyph-name="quotedbl" unicode="&#x22;" horiz-adv-x="921" 
d="M532 1087q-20 0 -20 21v305q0 21 20 21h328q9 0 15 -6t6 -15v-305q0 -9 -6 -15t-15 -6h-328zM41 1108v305q0 21 20 21h328q9 0 15 -6t6 -15v-305q0 -9 -6 -15t-15 -6h-328q-20 0 -20 21z" />
    <glyph glyph-name="numbersign" unicode="#" horiz-adv-x="1052" 
d="M66 0q-9 0 -14.5 5.5t-4.5 14.5l21 246h-50q-9 0 -14 6t-4 15l25 278q3 21 22 21h49l21 260h-54q-21 0 -18 20l27 281q3 20 22 20h53l21 246q3 21 22 21h349q9 0 14 -6t4 -15l-20 -246h63l21 246q3 21 22 21h348q9 0 14.5 -6t4.5 -15l-21 -246h45q9 0 14.5 -5.5
t4.5 -14.5l-27 -281q-3 -20 -22 -20h-46l-20 -260h49q9 0 14.5 -6t4.5 -15l-25 -278q-3 -21 -23 -21h-49l-20 -246q-3 -20 -23 -20h-348q-21 0 -18 20l20 246h-63l-21 -246q-3 -20 -22 -20h-348zM485 586h64l20 260h-63z" />
    <glyph glyph-name="dollar" unicode="$" 
d="M307 -125q-8 0 -13 6t-5 15v104h-139q-15 0 -25 10l-74 74q-10 10 -10 25v374q0 21 20 21h349q20 0 20 -21v-92q0 -10 10 -10h82q10 0 10 10v158q0 20 -20 20h-362q-14 0 -25 11l-74 73q-10 10 -10 25v647q0 15 10 25l74 73q11 11 25 11h139v104q0 8 5.5 14.5t12.5 6.5
h350q8 0 13.5 -6t5.5 -15v-104h135q14 0 25 -11l75 -73q11 -11 11 -25v-373q0 -20 -21 -20h-348q-21 0 -21 20v90q0 11 -10 11h-82q-10 0 -10 -11v-151q0 -9 6 -15t15 -6h362q15 0 25 -10l73 -74q11 -11 11 -24v-653q0 -14 -11 -25l-75 -74q-10 -10 -25 -10h-135v-104
q0 -8 -6 -14.5t-13 -6.5h-350z" />
    <glyph glyph-name="percent" unicode="%" horiz-adv-x="1107" 
d="M997 1352q11 0 16 -6.5t1 -16.5l-486 -1214q-8 -19 -20 -19h-395q-11 0 -18 6.5t-3 16.5l486 1214q8 19 24 19h395zM41 1051v260q0 18 10.5 28.5t28.5 10.5h282q17 0 27 -11t10 -28v-260q0 -19 -10 -30t-27 -11h-282q-39 0 -39 41zM709 137v260q0 18 10.5 28.5t28.5 10.5
h282q17 0 27 -11t10 -28v-260q0 -19 -10 -30t-27 -11h-282q-39 0 -39 41z" />
    <glyph glyph-name="ampersand" unicode="&#x26;" horiz-adv-x="1093" 
d="M150 0q-15 0 -25 10l-74 74q-10 10 -10 25v522q0 11 10 24l80 95q10 12 4 26l-47 92q-6 15 -6 27v430q0 15 10 25l74 73q11 11 24 11h580q14 0 25 -11l75 -73q11 -11 11 -25v-375q0 -9 -11 -24l-149 -172l41 -80l92 106q10 13 25 13h69q18 0 21 -21l84 -360
q1 -9 -5.5 -15t-15.5 -6h-35l-41 -61l31 -49h33q20 0 20 -21v-237q0 -21 -20 -21h-150q-16 0 -24 14l-31 43l-47 -49q-10 -10 -25 -10h-593zM410 369q0 -11 10 -11h55q10 0 10 11v53l-73 108l-2 -4v-157zM451 942l51 59q10 13 10 25v80q0 10 -10 10h-41q-10 0 -10 -10v-164z
" />
    <glyph glyph-name="quotesingle" unicode="'" horiz-adv-x="450" 
d="M61 1087q-20 0 -20 21v305q0 21 20 21h328q9 0 15 -6t6 -15v-305q0 -9 -6 -15t-15 -6h-328z" />
    <glyph glyph-name="parenleft" unicode="(" horiz-adv-x="552" 
d="M176 -68q-19 -3 -24 11q-47 133 -79 334.5t-32 437.5q0 217 32.5 422t78.5 354q2 10 24 6l342 -45q19 -3 12 -25q-46 -153 -73 -341.5t-27 -370.5q0 -198 26.5 -386t71.5 -321q7 -21 -12 -24z" />
    <glyph glyph-name="parenright" unicode=")" horiz-adv-x="573" 
d="M57 -16q-19 3 -12 24q45 133 71.5 321t26.5 386q0 182 -27 370.5t-73 341.5q-7 22 12 25l342 45q23 4 25 -6q46 -148 78 -353t32 -423q0 -237 -32 -438.5t-78 -333.5q-5 -14 -25 -11z" />
    <glyph glyph-name="asterisk" unicode="*" horiz-adv-x="686" 
d="M266 838q-20 0 -20 20l10 133l-113 -73q-15 -12 -28 8l-70 123q-13 16 6 28l121 60l-121 57q-8 3 -10 12t4 17l70 123q13 20 28 8l113 -78l-10 137q0 21 20 21h154q20 0 20 -21l-10 -137l113 78q15 12 28 -8l70 -123q6 -8 4 -17t-10 -12l-121 -57l121 -60q19 -12 6 -28
l-70 -123q-13 -20 -28 -8l-113 73l10 -133q0 -20 -20 -20h-154z" />
    <glyph glyph-name="plus" unicode="+" horiz-adv-x="839" 
d="M250 305q-9 0 -15 6t-6 15v170h-168q-20 0 -20 20v338q0 20 20 20h168v168q0 9 6 15t15 6h338q20 0 20 -21v-168h170q21 0 21 -20v-338q0 -20 -21 -20h-170v-170q0 -21 -20 -21h-338z" />
    <glyph glyph-name="comma" unicode="," horiz-adv-x="497" 
d="M0 -172q-24 0 -18 22l90 306q4 18 22 18h344q11 0 16 -7t1 -17l-113 -306q-5 -16 -23 -16h-319z" />
    <glyph glyph-name="hyphen" unicode="-" horiz-adv-x="430" 
d="M61 498q-20 0 -20 20v338q0 21 20 21h308q20 0 20 -21v-338q0 -20 -20 -20h-308z" />
    <glyph glyph-name="period" unicode="." horiz-adv-x="483" 
d="M84 0q-20 0 -31.5 12.5t-11.5 32.5v291q0 20 11.5 32.5t31.5 12.5h315q20 0 31.5 -12.5t11.5 -32.5v-291q0 -20 -11.5 -32.5t-31.5 -12.5h-315z" />
    <glyph glyph-name="slash" unicode="/" horiz-adv-x="847" 
d="M45 2q-11 0 -16 6.5t-2 16.5l366 1390q4 19 23 19h366q11 0 16.5 -6.5t2.5 -16.5l-367 -1391q-4 -18 -22 -18h-367z" />
    <glyph glyph-name="zero" unicode="0" 
d="M150 0q-15 0 -25 10l-74 74q-10 10 -10 25v1216q0 15 10 25l74 73q11 11 25 11h663q14 0 25 -11l73 -73q11 -11 11 -25v-1216q0 -14 -11 -25l-73 -74q-10 -10 -25 -10h-663zM430 401q0 -20 21 -20h61q20 0 20 20v631q0 21 -20 21h-61q-9 0 -15 -6t-6 -15v-631z" />
    <glyph glyph-name="one" unicode="1" horiz-adv-x="542" 
d="M133 0q-20 0 -20 20v1012q0 9 -6 15t-15 6h-51q-21 0 -21 20v340q0 9 6 15t15 6h440q9 0 15 -6t6 -15v-1393q0 -20 -21 -20h-348z" />
    <glyph glyph-name="two" unicode="2" horiz-adv-x="964" 
d="M924 20q0 -20 -21 -20h-751q-15 0 -25 10l-76 74q-10 10 -10 25v632q0 15 10 25l74 74q10 10 25 10h362q20 0 20 20v162q0 21 -20 21h-61q-9 0 -15 -6t-6 -15v-80q0 -20 -20 -20h-349q-20 0 -20 20v373q0 15 10 25l76 73q11 11 25 11h661q14 0 25 -11l73 -73
q11 -11 11 -25v-754q0 -13 -11 -24l-73 -74q-10 -10 -25 -10h-362q-9 0 -15 -6t-6 -15v-41q0 -20 21 -20h452q9 0 15 -6t6 -15v-340z" />
    <glyph glyph-name="three" unicode="3" 
d="M152 2q-15 0 -25 10l-76 74q-10 10 -10 25v393q0 20 20 20h349q20 0 20 -20v-103q0 -20 21 -20h61q20 0 20 20v164q0 21 -20 21h-215q-21 0 -21 20v223q0 9 6 15t15 6h215q20 0 20 20v160q0 21 -20 21h-61q-9 0 -15 -6t-6 -15v-98q0 -21 -20 -21h-349q-20 0 -20 21v393
q0 15 10 25l76 73q11 11 25 11h661q14 0 25 -11l73 -73q11 -11 11 -25v-508q0 -14 -9 -26l-43 -58l43 -55q9 -12 9 -27v-540q0 -14 -11 -25l-73 -74q-10 -10 -25 -10h-661z" />
    <glyph glyph-name="four" unicode="4" horiz-adv-x="1017" 
d="M537 0q-21 0 -21 20v132q0 20 -20 20h-435q-20 0 -20 21v243q0 15 2 25l252 954q6 19 22 19h568q20 0 20 -21v-944q0 -20 21 -20h51q20 0 20 -21v-235q0 -21 -20 -21h-51q-21 0 -21 -20v-132q0 -20 -20 -20h-348zM414 459q-2 -10 8 -10h74q20 0 20 20v530z" />
    <glyph glyph-name="five" unicode="5" 
d="M150 0q-15 0 -25 10l-74 74q-10 10 -10 25v319q0 21 20 21h349q20 0 20 -21v-29q0 -20 21 -20h61q20 0 20 20v101q0 20 -20 20h-451q-20 0 -20 21v872q0 21 20 21h840q9 0 15 -6t6 -15v-481q0 -9 -6 -15t-15 -6h-348q-9 0 -15 6t-6 15v110q0 11 -10 11h-82q-10 0 -10 -11
v-194q0 -10 10 -10h373q14 0 25 -11l73 -73q11 -11 11 -25v-620q0 -14 -11 -25l-73 -74q-10 -10 -25 -10h-663z" />
    <glyph glyph-name="six" unicode="6" 
d="M150 0q-15 0 -25 10l-74 74q-10 10 -10 25v1216q0 15 10 25l74 73q11 11 25 11h663q14 0 25 -11l73 -73q11 -11 11 -25v-393q0 -9 -6 -15t-15 -6h-348q-9 0 -15 6t-6 15v110q0 11 -10 11h-82q-10 0 -10 -11v-178q0 -20 21 -20h362q15 0 25 -10l73 -74q11 -11 11 -25v-626
q0 -14 -11 -25l-73 -74q-10 -10 -25 -10h-663zM430 401q0 -20 21 -20h61q20 0 20 20v131q0 21 -20 21h-61q-9 0 -15 -6t-6 -15v-131z" />
    <glyph glyph-name="seven" unicode="7" horiz-adv-x="843" 
d="M135 0q-10 0 -15 6.5t-3 16.5l215 1019q3 11 -8 11h-304q-20 0 -20 20v340q0 21 20 21h805q10 0 15.5 -7t3.5 -16l-291 -1393q-3 -18 -23 -18h-395z" />
    <glyph glyph-name="eight" unicode="8" 
d="M150 0q-15 0 -25 10l-74 74q-10 10 -10 25v542q0 16 8 27l43 55l-43 58q-8 11 -8 26v508q0 15 10 25l74 73q11 11 25 11h663q14 0 25 -11l73 -73q11 -11 11 -25v-508q0 -14 -9 -26l-43 -58l43 -55q9 -12 9 -27v-542q0 -14 -11 -25l-73 -74q-10 -10 -25 -10h-663zM430 391
q0 -10 10 -10h82q10 0 10 10v184q0 11 -10 11h-82q-10 0 -10 -11v-184zM430 893q0 -10 10 -10h82q10 0 10 10v149q0 11 -10 11h-82q-10 0 -10 -11v-149z" />
    <glyph glyph-name="nine" unicode="9" 
d="M813 1434q14 0 25 -11l73 -73q11 -11 11 -25v-1216q0 -14 -11 -25l-73 -74q-10 -10 -25 -10h-663q-15 0 -25 10l-74 74q-10 10 -10 25v393q0 20 20 20h349q20 0 20 -20v-111q0 -10 10 -10h82q10 0 10 10v178q0 21 -20 21h-362q-15 0 -25 10l-74 74q-10 10 -10 24v627
q0 15 10 25l74 73q11 11 25 11h663zM430 901q0 -20 21 -20h61q20 0 20 20v131q0 21 -20 21h-61q-9 0 -15 -6t-6 -15v-131z" />
    <glyph glyph-name="colon" unicode=":" horiz-adv-x="483" 
d="M84 788q-20 0 -31.5 12.5t-11.5 33.5v290q0 20 11.5 32.5t31.5 12.5h315q20 0 31.5 -12.5t11.5 -32.5v-290q0 -21 -11.5 -33.5t-31.5 -12.5h-315zM41 242v290q0 21 11.5 33.5t31.5 12.5h315q20 0 31.5 -12.5t11.5 -33.5v-290q0 -20 -11.5 -32.5t-31.5 -12.5h-315
q-20 0 -31.5 12.5t-11.5 32.5z" />
    <glyph glyph-name="semicolon" unicode=";" horiz-adv-x="321" 
d="M119 446q-20 0 -31.5 12.5t-11.5 33.5v290q0 20 11.5 32.5t31.5 12.5h315q20 0 31.5 -12.5t11.5 -32.5v-290q0 -21 -11.5 -33.5t-31.5 -12.5h-315zM-18 -150l90 306q4 18 22 18h344q11 0 16 -7t1 -17l-113 -306q-5 -16 -23 -16h-319q-24 0 -18 22z" />
    <glyph glyph-name="equal" unicode="=" horiz-adv-x="763" 
d="M82 733q-41 0 -41 21v338q0 20 41 20h600q41 0 41 -20v-338q0 -21 -41 -21h-600zM41 317v338q0 21 41 21h600q41 0 41 -21v-338q0 -20 -41 -20h-600q-41 0 -41 20z" />
    <glyph glyph-name="question" unicode="?" horiz-adv-x="921" 
d="M256 463q-20 0 -20 20v97q0 14 6 24l239 334q11 16 11 29v67q0 9 -6 15t-15 6h-61q-9 0 -15 -6t-6 -15v-102q0 -21 -20 -21h-308q-20 0 -20 21v393q0 15 10 25l76 73q11 11 25 11h620q14 0 25 -11l73 -73q11 -11 11 -25v-426q0 -12 -11 -27l-233 -335q-6 -10 -6 -25v-29
q0 -20 -21 -20h-354zM236 20v340q0 21 20 21h348q9 0 15 -6t6 -15v-340q0 -20 -21 -20h-348q-20 0 -20 20z" />
    <glyph glyph-name="at" unicode="@" horiz-adv-x="1392" 
d="M150 0q-15 0 -25 10l-74 74q-10 10 -10 25v1216q0 15 10 25l74 73q11 11 25 11h1093q14 0 25 -11l73 -73q11 -11 11 -25v-848q0 -13 -11 -24l-73 -74q-10 -10 -25 -10h-301l-74 84l-71 -84h-258q-15 0 -25 10l-74 74q-10 10 -10 24v449q0 14 10 24l74 74q10 10 25 10h315
q15 0 25 -10l73 -74q11 -11 11 -24v-355l26 -28h25q10 0 10 10v532q0 11 -10 11h-635q-10 0 -10 -11v-768q0 -10 10 -10h885q20 0 20 -20v-267q0 -20 -20 -20h-1114zM676 655q0 -10 10 -10h31v123q0 10 -10 10h-21q-10 0 -10 -10v-113z" />
    <glyph glyph-name="A" unicode="A" horiz-adv-x="983" 
d="M39 0q-9 0 -14.5 5.5t-4.5 14.5l121 1393q3 21 23 21h655q20 0 23 -21l121 -1393q1 -9 -4.5 -14.5t-14.5 -5.5h-348q-20 0 -23 20l-14 191h-133l-16 -191q-3 -20 -23 -20h-348zM446 549h93l-31 504h-31z" />
    <glyph glyph-name="B" unicode="B" 
d="M61 0q-20 0 -20 20v1393q0 21 20 21h752q14 0 25 -11l73 -73q11 -11 11 -25v-528q0 -20 -9 -27l-73 -43q-6 -5 -6 -15t6 -14l73 -43q9 -7 9 -24v-522q0 -14 -11 -25l-73 -74q-10 -10 -25 -10h-752zM430 381h82q20 0 20 20v205q0 21 -20 21h-82v-246zM430 801h82
q20 0 20 20v211q0 21 -20 21h-82v-252z" />
    <glyph glyph-name="C" unicode="C" 
d="M150 0q-15 0 -25 10l-74 74q-10 10 -10 25v1216q0 15 10 25l74 73q11 11 25 11h663q14 0 25 -11l73 -73q11 -11 11 -25v-537q0 -20 -21 -20h-348q-21 0 -21 20v244q0 21 -20 21h-61q-9 0 -15 -6t-6 -15v-631q0 -20 21 -20h61q20 0 20 20v246q0 9 6 15t15 6h348q9 0 15 -6
t6 -15v-538q0 -14 -11 -25l-73 -74q-10 -10 -25 -10h-663z" />
    <glyph glyph-name="D" unicode="D" 
d="M61 0q-20 0 -20 20v1393q0 21 20 21h752q14 0 25 -11l73 -73q11 -11 11 -25v-1216q0 -14 -11 -25l-73 -74q-10 -10 -25 -10h-752zM430 381h82q20 0 20 20v631q0 21 -20 21h-82v-672z" />
    <glyph glyph-name="E" unicode="E" horiz-adv-x="829" 
d="M61 0q-20 0 -20 20v1393q0 21 20 21h707q20 0 20 -21v-381q0 -20 -16 -20h-321q-9 0 -15 -6t-6 -15v-100q0 -9 6 -15t15 -6h174q20 0 20 -20v-256q0 -21 -20 -21h-174q-21 0 -21 -20v-109q0 -20 21 -20h321q16 0 16 -21v-383q0 -20 -20 -20h-707z" />
    <glyph glyph-name="F" unicode="F" horiz-adv-x="829" 
d="M61 0q-20 0 -20 20v1393q0 21 20 21h707q20 0 20 -21v-383q0 -20 -20 -20h-317q-9 0 -15 -6t-6 -15v-117q0 -20 21 -20h174q20 0 20 -21v-296q0 -21 -20 -21h-174q-21 0 -21 -20v-474q0 -20 -20 -20h-349z" />
    <glyph glyph-name="G" unicode="G" horiz-adv-x="964" 
d="M150 0q-15 0 -25 10l-74 74q-10 10 -10 25v1216q0 15 10 25l74 73q11 11 25 11h661q14 0 25 -11l75 -73q11 -11 11 -25v-393q0 -9 -6 -15t-15 -6h-348q-9 0 -15 6t-6 15v100q0 21 -20 21h-61q-9 0 -15 -6t-6 -15v-631q0 -20 21 -20h61q20 0 20 20v156q0 10 -10 10h-26
q-9 0 -15 6t-6 15v235q0 9 6 15t15 6h407q9 0 15 -6t6 -15v-714q0 -14 -11 -25l-73 -74q-10 -10 -25 -10h-665z" />
    <glyph glyph-name="H" unicode="H" horiz-adv-x="964" 
d="M61 0q-20 0 -20 20v1393q0 21 20 21h349q20 0 20 -21v-504h105v504q0 21 20 21h348q9 0 15 -6t6 -15v-1390q0 -9 -6 -15t-15 -6h-348q-20 0 -20 21v528h-105v-531q0 -20 -20 -20h-349z" />
    <glyph glyph-name="I" unicode="I" horiz-adv-x="532" 
d="M61 0q-20 0 -20 20v1393q0 21 20 21h410q9 0 15 -6t6 -15v-1393q0 -20 -21 -20h-410z" />
    <glyph glyph-name="J" unicode="J" horiz-adv-x="704" 
d="M57 0q-16 0 -16 20v338q0 21 16 21h197q20 0 20 20v1014q0 9 6 15t15 6h348q9 0 15 -6t6 -15v-1304q0 -14 -11 -25l-73 -74q-10 -10 -25 -10h-498z" />
    <glyph glyph-name="K" unicode="K" horiz-adv-x="1044" 
d="M61 0q-20 0 -20 20v1393q0 21 20 21h349q20 0 20 -21v-567l125 569q3 19 23 19h409q21 0 17 -23l-154 -682l192 -706q3 -10 -2 -16.5t-16 -6.5h-408q-19 0 -22 16l-164 574v-570q0 -20 -20 -20h-349z" />
    <glyph glyph-name="L" unicode="L" horiz-adv-x="788" 
d="M61 0q-20 0 -20 20v1393q0 21 20 21h390q20 0 20 -21v-1032h281q16 0 16 -21v-340q0 -20 -20 -20h-687z" />
    <glyph glyph-name="M" unicode="M" horiz-adv-x="1044" 
d="M41 1413q0 21 20 21h336q15 0 26.5 -9.5t14.5 -23.5l84 -531l84 531q3 14 14.5 23.5t26.5 9.5h336q9 0 15 -6t6 -15v-1393q0 -20 -21 -20h-350q-21 0 -21 20v361l-90 -221l-90 221v-361q0 -20 -20 -20h-351q-20 0 -20 20v1393z" />
    <glyph glyph-name="N" unicode="N" horiz-adv-x="1003" 
d="M61 0q-20 0 -20 20v1393q0 21 20 21h392q19 0 22 -19l74 -538q0 -9 12 -9h2q10 0 10 11v534q0 9 6 15t15 6h348q9 0 15 -6t6 -15v-1393q0 -20 -21 -20h-391q-19 0 -23 18l-73 541q0 8 -11 8h-4q-10 0 -10 -10v-537q0 -20 -20 -20h-349z" />
    <glyph glyph-name="O" unicode="O" 
d="M150 0q-15 0 -25 10l-74 74q-10 10 -10 25v1216q0 15 10 25l74 73q11 11 25 11h663q14 0 25 -11l73 -73q11 -11 11 -25v-1216q0 -14 -11 -25l-73 -74q-10 -10 -25 -10h-663zM430 401q0 -20 21 -20h61q20 0 20 20v631q0 21 -20 21h-61q-9 0 -15 -6t-6 -15v-631z" />
    <glyph glyph-name="P" unicode="P" 
d="M61 0q-20 0 -20 20v1393q0 21 20 21h752q14 0 25 -11l73 -73q11 -11 11 -25v-919q0 -14 -11 -25l-73 -74q-10 -10 -25 -10h-373q-10 0 -10 -10v-267q0 -20 -20 -20h-349zM430 684h82q20 0 20 21v327q0 21 -20 21h-82v-369z" />
    <glyph glyph-name="Q" unicode="Q" 
d="M332 -129q-21 0 -21 20v99q0 10 -10 10h-151q-15 0 -25 10l-74 74q-10 10 -10 25v1216q0 15 10 25l74 73q11 11 25 11h663q14 0 25 -11l73 -73q11 -11 11 -25v-1216q0 -14 -11 -25l-73 -74q-10 -10 -25 -10h-149q-11 0 -11 -10v-99q0 -20 -20 -20h-301zM430 377
q0 -9 6 -15t15 -6h61q20 0 20 21v655q0 21 -20 21h-61q-9 0 -15 -6t-6 -15v-655z" />
    <glyph glyph-name="R" unicode="R" 
d="M61 0q-20 0 -20 20v1393q0 21 20 21h752q14 0 25 -11l73 -73q11 -11 11 -25v-635q0 -19 -9 -26l-73 -43q-6 -5 -6 -15t6 -14l73 -43q9 -7 9 -25v-504q0 -20 -21 -20h-348q-21 0 -21 20v330q0 21 -20 21h-82v-351q0 -20 -20 -20h-349zM430 776h82q20 0 20 21v235
q0 21 -20 21h-82v-277z" />
    <glyph glyph-name="S" unicode="S" 
d="M150 0q-15 0 -25 10l-74 74q-10 10 -10 25v374q0 21 20 21h349q20 0 20 -21v-92q0 -10 10 -10h82q10 0 10 10v158q0 20 -20 20h-362q-14 0 -25 11l-74 73q-10 10 -10 25v647q0 15 10 25l74 73q11 11 25 11h661q14 0 25 -11l75 -73q11 -11 11 -25v-373q0 -20 -21 -20h-348
q-21 0 -21 20v90q0 11 -10 11h-82q-10 0 -10 -11v-151q0 -9 6 -15t15 -6h362q15 0 25 -10l73 -74q11 -11 11 -24v-653q0 -14 -11 -25l-75 -74q-10 -10 -25 -10h-661z" />
    <glyph glyph-name="T" unicode="T" horiz-adv-x="880" 
d="M256 0q-20 0 -20 20v1022q0 11 -11 11h-205q-20 0 -20 20v340q0 21 20 21h820q20 0 20 -21v-340q0 -20 -20 -20h-205q-10 0 -10 -11v-1022q0 -20 -21 -20h-348z" />
    <glyph glyph-name="U" unicode="U" 
d="M150 0q-15 0 -25 10l-74 74q-10 10 -10 25v1304q0 21 20 21h349q20 0 20 -21v-1022q0 -10 10 -10h82q10 0 10 10v1022q0 9 6 15t15 6h348q9 0 15 -6t6 -15v-1304q0 -14 -11 -25l-73 -74q-10 -10 -25 -10h-663z" />
    <glyph glyph-name="V" unicode="V" horiz-adv-x="983" 
d="M164 0q-20 0 -23 20l-141 1393q-1 9 5 15t15 6h398q22 0 22 -21l41 -891q0 -10 11 -10h4q10 0 10 10l37 891q0 21 22 21h398q9 0 15 -6t5 -15l-141 -1393q-3 -20 -23 -20h-655z" />
    <glyph glyph-name="W" unicode="W" horiz-adv-x="1212" 
d="M133 0q-19 0 -22 20l-121 1393q-3 21 18 21h328q20 0 20 -21l33 -651q0 -10 10 -10h13q10 0 10 10l41 651q0 21 20 21h246q23 0 23 -21l45 -653q0 -10 10 -10h12q10 0 10 10l27 653q0 21 21 21h327q22 0 19 -21l-121 -1393q-3 -20 -23 -20h-409q-21 0 -21 20l-28 517
q0 10 -11 10h-8q-10 0 -10 -10l-29 -517q0 -20 -20 -20h-410z" />
    <glyph glyph-name="X" unicode="X" horiz-adv-x="1017" 
d="M27 0q-21 0 -17 23l156 675q3 12 0 25l-143 688q-2 10 3 16.5t15 6.5h362q18 0 21 -19l74 -373q0 -10 12 -10h10q12 0 12 10l76 373q3 19 21 19h348q10 0 15 -6.5t3 -16.5l-143 -688q-3 -13 0 -25l156 -675q4 -23 -17 -23h-356q-17 0 -23 18l-92 357q0 10 -12 10h-6
q-13 0 -13 -10l-88 -357q-6 -18 -22 -18h-352z" />
    <glyph glyph-name="Y" unicode="Y" horiz-adv-x="964" 
d="M51 465q-10 10 -10 24v924q0 21 20 21h349q20 0 20 -21v-678h105v678q0 21 20 21h348q9 0 15 -6t6 -15v-924q0 -13 -11 -24l-73 -74q-10 -10 -25 -10h-133v-358q0 -21 -20 -21h-349q-20 0 -20 21v358h-143q-15 0 -25 10z" />
    <glyph glyph-name="Z" unicode="Z" horiz-adv-x="788" 
d="M23 0q-10 0 -15.5 7t-3.5 16l254 1019q3 11 -10 11h-197q-20 0 -20 20v340q0 21 20 21h715q10 0 15 -6.5t3 -16.5l-252 -1022q-1 -4 0.5 -6t4.5 -3t6 -1h194q9 0 15 -6t6 -15v-338q0 -20 -21 -20h-714z" />
    <glyph glyph-name="bracketleft" unicode="[" horiz-adv-x="645" 
d="M61 0q-20 0 -20 20v1393q0 21 20 21h523q20 0 20 -21v-340q0 -20 -20 -20h-154v-672h154q20 0 20 -21v-340q0 -20 -20 -20h-523z" />
    <glyph glyph-name="backslash" unicode="\" horiz-adv-x="827" 
d="M416 2q-19 0 -23 18l-366 1391q-3 10 2 16.5t16 6.5h367q18 0 22 -19l367 -1390q3 -10 -2.5 -16.5t-16.5 -6.5h-366z" />
    <glyph glyph-name="bracketright" unicode="]" horiz-adv-x="645" 
d="M61 0q-20 0 -20 20v340q0 21 20 21h154v672h-154q-20 0 -20 20v340q0 21 20 21h523q20 0 20 -21v-1393q0 -20 -20 -20h-523z" />
    <glyph glyph-name="asciicircum" unicode="^" horiz-adv-x="528" 
d="M66 934q-25 -14 -25 10v340q0 20 10 25l199 125q14 9 29 0l198 -125q10 -5 10 -25v-340q0 -24 -24 -10l-199 119z" />
    <glyph glyph-name="underscore" unicode="_" horiz-adv-x="655" 
d="M61 -303q-20 0 -20 20v230q0 20 20 20h533q20 0 20 -20v-230q0 -20 -20 -20h-533z" />
    <glyph glyph-name="a" unicode="a" horiz-adv-x="983" 
d="M39 0q-9 0 -14.5 5.5t-4.5 14.5l121 1393q3 21 23 21h655q20 0 23 -21l121 -1393q1 -9 -4.5 -14.5t-14.5 -5.5h-348q-20 0 -23 20l-14 191h-133l-16 -191q-3 -20 -23 -20h-348zM446 549h93l-31 504h-31z" />
    <glyph glyph-name="b" unicode="b" 
d="M61 0q-20 0 -20 20v1393q0 21 20 21h752q14 0 25 -11l73 -73q11 -11 11 -25v-528q0 -20 -9 -27l-73 -43q-6 -5 -6 -15t6 -14l73 -43q9 -7 9 -24v-522q0 -14 -11 -25l-73 -74q-10 -10 -25 -10h-752zM430 381h82q20 0 20 20v205q0 21 -20 21h-82v-246zM430 801h82
q20 0 20 20v211q0 21 -20 21h-82v-252z" />
    <glyph glyph-name="c" unicode="c" 
d="M150 0q-15 0 -25 10l-74 74q-10 10 -10 25v1216q0 15 10 25l74 73q11 11 25 11h663q14 0 25 -11l73 -73q11 -11 11 -25v-537q0 -20 -21 -20h-348q-21 0 -21 20v244q0 21 -20 21h-61q-9 0 -15 -6t-6 -15v-631q0 -20 21 -20h61q20 0 20 20v246q0 9 6 15t15 6h348q9 0 15 -6
t6 -15v-538q0 -14 -11 -25l-73 -74q-10 -10 -25 -10h-663z" />
    <glyph glyph-name="d" unicode="d" 
d="M61 0q-20 0 -20 20v1393q0 21 20 21h752q14 0 25 -11l73 -73q11 -11 11 -25v-1216q0 -14 -11 -25l-73 -74q-10 -10 -25 -10h-752zM430 381h82q20 0 20 20v631q0 21 -20 21h-82v-672z" />
    <glyph glyph-name="e" unicode="e" horiz-adv-x="829" 
d="M61 0q-20 0 -20 20v1393q0 21 20 21h707q20 0 20 -21v-381q0 -20 -16 -20h-321q-9 0 -15 -6t-6 -15v-100q0 -9 6 -15t15 -6h174q20 0 20 -20v-256q0 -21 -20 -21h-174q-21 0 -21 -20v-109q0 -20 21 -20h321q16 0 16 -21v-383q0 -20 -20 -20h-707z" />
    <glyph glyph-name="f" unicode="f" horiz-adv-x="829" 
d="M61 0q-20 0 -20 20v1393q0 21 20 21h707q20 0 20 -21v-383q0 -20 -20 -20h-317q-9 0 -15 -6t-6 -15v-117q0 -20 21 -20h174q20 0 20 -21v-296q0 -21 -20 -21h-174q-21 0 -21 -20v-474q0 -20 -20 -20h-349z" />
    <glyph glyph-name="g" unicode="g" horiz-adv-x="964" 
d="M150 0q-15 0 -25 10l-74 74q-10 10 -10 25v1216q0 15 10 25l74 73q11 11 25 11h661q14 0 25 -11l75 -73q11 -11 11 -25v-393q0 -9 -6 -15t-15 -6h-348q-9 0 -15 6t-6 15v100q0 21 -20 21h-61q-9 0 -15 -6t-6 -15v-631q0 -20 21 -20h61q20 0 20 20v156q0 10 -10 10h-26
q-9 0 -15 6t-6 15v235q0 9 6 15t15 6h407q9 0 15 -6t6 -15v-714q0 -14 -11 -25l-73 -74q-10 -10 -25 -10h-665z" />
    <glyph glyph-name="h" unicode="h" horiz-adv-x="964" 
d="M61 0q-20 0 -20 20v1393q0 21 20 21h349q20 0 20 -21v-504h105v504q0 21 20 21h348q9 0 15 -6t6 -15v-1390q0 -9 -6 -15t-15 -6h-348q-20 0 -20 21v528h-105v-531q0 -20 -20 -20h-349z" />
    <glyph glyph-name="i" unicode="i" horiz-adv-x="532" 
d="M61 0q-20 0 -20 20v1393q0 21 20 21h410q9 0 15 -6t6 -15v-1393q0 -20 -21 -20h-410z" />
    <glyph glyph-name="j" unicode="j" horiz-adv-x="704" 
d="M57 0q-16 0 -16 20v338q0 21 16 21h197q20 0 20 20v1014q0 9 6 15t15 6h348q9 0 15 -6t6 -15v-1304q0 -14 -11 -25l-73 -74q-10 -10 -25 -10h-498z" />
    <glyph glyph-name="k" unicode="k" horiz-adv-x="1044" 
d="M61 0q-20 0 -20 20v1393q0 21 20 21h349q20 0 20 -21v-567l125 569q3 19 23 19h409q21 0 17 -23l-154 -682l192 -706q3 -10 -2 -16.5t-16 -6.5h-408q-19 0 -22 16l-164 574v-570q0 -20 -20 -20h-349z" />
    <glyph glyph-name="l" unicode="l" horiz-adv-x="788" 
d="M61 0q-20 0 -20 20v1393q0 21 20 21h390q20 0 20 -21v-1032h281q16 0 16 -21v-340q0 -20 -20 -20h-687z" />
    <glyph glyph-name="m" unicode="m" horiz-adv-x="1044" 
d="M41 1413q0 21 20 21h336q15 0 26.5 -9.5t14.5 -23.5l84 -531l84 531q3 14 14.5 23.5t26.5 9.5h336q9 0 15 -6t6 -15v-1393q0 -20 -21 -20h-350q-21 0 -21 20v361l-90 -221l-90 221v-361q0 -20 -20 -20h-351q-20 0 -20 20v1393z" />
    <glyph glyph-name="n" unicode="n" horiz-adv-x="1003" 
d="M61 0q-20 0 -20 20v1393q0 21 20 21h392q19 0 22 -19l74 -538q0 -9 12 -9h2q10 0 10 11v534q0 9 6 15t15 6h348q9 0 15 -6t6 -15v-1393q0 -20 -21 -20h-391q-19 0 -23 18l-73 541q0 8 -11 8h-4q-10 0 -10 -10v-537q0 -20 -20 -20h-349z" />
    <glyph glyph-name="o" unicode="o" 
d="M150 0q-15 0 -25 10l-74 74q-10 10 -10 25v1216q0 15 10 25l74 73q11 11 25 11h663q14 0 25 -11l73 -73q11 -11 11 -25v-1216q0 -14 -11 -25l-73 -74q-10 -10 -25 -10h-663zM430 401q0 -20 21 -20h61q20 0 20 20v631q0 21 -20 21h-61q-9 0 -15 -6t-6 -15v-631z" />
    <glyph glyph-name="p" unicode="p" 
d="M61 0q-20 0 -20 20v1393q0 21 20 21h752q14 0 25 -11l73 -73q11 -11 11 -25v-919q0 -14 -11 -25l-73 -74q-10 -10 -25 -10h-373q-10 0 -10 -10v-267q0 -20 -20 -20h-349zM430 684h82q20 0 20 21v327q0 21 -20 21h-82v-369z" />
    <glyph glyph-name="q" unicode="q" 
d="M332 -129q-21 0 -21 20v99q0 10 -10 10h-151q-15 0 -25 10l-74 74q-10 10 -10 25v1216q0 15 10 25l74 73q11 11 25 11h663q14 0 25 -11l73 -73q11 -11 11 -25v-1216q0 -14 -11 -25l-73 -74q-10 -10 -25 -10h-149q-11 0 -11 -10v-99q0 -20 -20 -20h-301zM430 377
q0 -9 6 -15t15 -6h61q20 0 20 21v655q0 21 -20 21h-61q-9 0 -15 -6t-6 -15v-655z" />
    <glyph glyph-name="r" unicode="r" 
d="M61 0q-20 0 -20 20v1393q0 21 20 21h752q14 0 25 -11l73 -73q11 -11 11 -25v-635q0 -19 -9 -26l-73 -43q-6 -5 -6 -15t6 -14l73 -43q9 -7 9 -25v-504q0 -20 -21 -20h-348q-21 0 -21 20v330q0 21 -20 21h-82v-351q0 -20 -20 -20h-349zM430 776h82q20 0 20 21v235
q0 21 -20 21h-82v-277z" />
    <glyph glyph-name="s" unicode="s" 
d="M150 0q-15 0 -25 10l-74 74q-10 10 -10 25v374q0 21 20 21h349q20 0 20 -21v-92q0 -10 10 -10h82q10 0 10 10v158q0 20 -20 20h-362q-14 0 -25 11l-74 73q-10 10 -10 25v647q0 15 10 25l74 73q11 11 25 11h661q14 0 25 -11l75 -73q11 -11 11 -25v-373q0 -20 -21 -20h-348
q-21 0 -21 20v90q0 11 -10 11h-82q-10 0 -10 -11v-151q0 -9 6 -15t15 -6h362q15 0 25 -10l73 -74q11 -11 11 -24v-653q0 -14 -11 -25l-75 -74q-10 -10 -25 -10h-661z" />
    <glyph glyph-name="t" unicode="t" horiz-adv-x="880" 
d="M256 0q-20 0 -20 20v1022q0 11 -11 11h-205q-20 0 -20 20v340q0 21 20 21h820q20 0 20 -21v-340q0 -20 -20 -20h-205q-10 0 -10 -11v-1022q0 -20 -21 -20h-348z" />
    <glyph glyph-name="u" unicode="u" 
d="M150 0q-15 0 -25 10l-74 74q-10 10 -10 25v1304q0 21 20 21h349q20 0 20 -21v-1022q0 -10 10 -10h82q10 0 10 10v1022q0 9 6 15t15 6h348q9 0 15 -6t6 -15v-1304q0 -14 -11 -25l-73 -74q-10 -10 -25 -10h-663z" />
    <glyph glyph-name="v" unicode="v" horiz-adv-x="983" 
d="M164 0q-20 0 -23 20l-141 1393q-1 9 5 15t15 6h398q22 0 22 -21l41 -891q0 -10 11 -10h4q10 0 10 10l37 891q0 21 22 21h398q9 0 15 -6t5 -15l-141 -1393q-3 -20 -23 -20h-655z" />
    <glyph glyph-name="w" unicode="w" horiz-adv-x="1212" 
d="M133 0q-19 0 -22 20l-121 1393q-3 21 18 21h328q20 0 20 -21l33 -651q0 -10 10 -10h13q10 0 10 10l41 651q0 21 20 21h246q23 0 23 -21l45 -653q0 -10 10 -10h12q10 0 10 10l27 653q0 21 21 21h327q22 0 19 -21l-121 -1393q-3 -20 -23 -20h-409q-21 0 -21 20l-28 517
q0 10 -11 10h-8q-10 0 -10 -10l-29 -517q0 -20 -20 -20h-410z" />
    <glyph glyph-name="x" unicode="x" horiz-adv-x="1017" 
d="M27 0q-21 0 -17 23l156 675q3 12 0 25l-143 688q-2 10 3 16.5t15 6.5h362q18 0 21 -19l74 -373q0 -10 12 -10h10q12 0 12 10l76 373q3 19 21 19h348q10 0 15 -6.5t3 -16.5l-143 -688q-3 -13 0 -25l156 -675q4 -23 -17 -23h-356q-17 0 -23 18l-92 357q0 10 -12 10h-6
q-13 0 -13 -10l-88 -357q-6 -18 -22 -18h-352z" />
    <glyph glyph-name="y" unicode="y" horiz-adv-x="964" 
d="M51 465q-10 10 -10 24v924q0 21 20 21h349q20 0 20 -21v-678h105v678q0 21 20 21h348q9 0 15 -6t6 -15v-924q0 -13 -11 -24l-73 -74q-10 -10 -25 -10h-133v-358q0 -21 -20 -21h-349q-20 0 -20 21v358h-143q-15 0 -25 10z" />
    <glyph glyph-name="z" unicode="z" horiz-adv-x="788" 
d="M23 0q-10 0 -15.5 7t-3.5 16l254 1019q3 11 -10 11h-197q-20 0 -20 20v340q0 21 20 21h715q10 0 15 -6.5t3 -16.5l-252 -1022q-1 -4 0.5 -6t4.5 -3t6 -1h194q9 0 15 -6t6 -15v-338q0 -20 -21 -20h-714z" />
    <glyph glyph-name="braceleft" unicode="{" horiz-adv-x="679" 
d="M639 -2q-93 0 -180 23.5t-157.5 67.5t-108.5 116.5t-27 161.5q15 124 -9 168.5t-116 44.5v272q31 0 50.5 2.5t36.5 11t25 23t13 40t4 61t-6 87.5q-8 77 32 145.5t110 114t158 71.5t175 26v-424q-30 0 -49.5 -7.5t-28.5 -18.5t-12 -30.5t-1.5 -35t3.5 -40.5t2 -40
q0 -51 -31 -85t-84 -34v-6q58 0 87.5 -24t29.5 -83q0 -14 -1.5 -41t-2 -43t2.5 -37.5t12 -33.5t27 -20.5t46 -8.5v-424z" />
    <glyph glyph-name="bar" unicode="|" horiz-adv-x="471" 
d="M61 0q-20 0 -20 20v1393q0 21 20 21h349q20 0 20 -21v-1393q0 -20 -20 -20h-349z" />
    <glyph glyph-name="braceright" unicode="}" horiz-adv-x="475" 
d="M-164 422q28 0 46 8.5t27 20.5t12 33.5t2.5 37.5t-2 43t-1.5 41q0 59 29.5 83t87.5 24v6q-53 0 -84 34t-31 85q0 15 2 40t3.5 40.5t-1.5 35t-12 30.5t-28.5 18.5t-49.5 7.5v424q87 0 175 -26t158 -71.5t110 -114t32 -145.5q-5 -52 -6 -87.5t4 -61t13 -40t25 -23t36.5 -11
t50.5 -2.5v-272q-92 0 -116 -44.5t-9 -168.5q11 -89 -27 -161.5t-108.5 -116.5t-157.5 -67.5t-180 -23.5v424z" />
    <glyph glyph-name="exclamdown" unicode="&#xa1;" horiz-adv-x="471" 
d="M410 760q20 0 20 -21v-925q0 -21 -20 -21h-349q-20 0 -20 21v925q0 21 20 21h349zM41 866v340q0 21 20 21h349q20 0 20 -21v-340q0 -20 -20 -20h-349q-20 0 -20 20z" />
    <glyph glyph-name="cent" unicode="&#xa2;" horiz-adv-x="1132" 
d="M459 2q-9 0 -15 6t-6 15v81h-288q-14 0 -25 11l-74 73q-10 10 -10 25v1010q0 14 10 24l74 74q10 10 25 10h288v82q0 9 6 15t15 6h215q20 0 20 -21v-82h289q15 0 25 -10l73 -74q11 -11 11 -24v-340q0 -9 -6 -15t-15 -6h-287q-20 0 -20 21v121q0 10 -10 10h-60v-592h60
q10 0 10 10v121q0 20 20 20h287q21 0 21 -20v-340q0 -14 -11 -25l-73 -73q-11 -11 -25 -11h-289v-81q0 -21 -20 -21h-215zM369 432q0 -10 10 -10h59v592h-59q-10 0 -10 -10v-572z" />
    <glyph glyph-name="sterling" unicode="&#xa3;" horiz-adv-x="806" 
d="M676 600q0 -8 -6 -13t-15 -5h-123v-201h213q8 0 14.5 -6t6.5 -13v-344q0 -8 -6 -13t-15 -5h-725q-8 0 -14 5.5t-6 12.5v344q0 8 5.5 13.5t14.5 5.5h123v201h-123q-8 0 -14 5.5t-6 12.5v252q0 18 20 18h123v455q0 14 11 25l73 73q11 11 25 11h498q16 0 16 -21v-338
q0 -20 -16 -20h-197q-9 0 -15 -6t-6 -15v-164h123q8 0 14.5 -5.5t6.5 -12.5v-252z" />
    <glyph glyph-name="currency" unicode="&#xa4;" horiz-adv-x="1034" 
d="M47 315q-6 6 -6 14.5t6 14.5l107 107q-68 108 -68 233q0 126 68 234l-107 106q-6 6 -6 14.5t6 14.5l100 102q6 6 14.5 6t14.5 -6l109 -108q106 67 231 67q126 0 232 -67l108 108q6 6 14.5 6t14.5 -6l102 -100q6 -6 6 -14.5t-6 -14.5l-108 -111q67 -103 67 -231
q0 -125 -67 -231l108 -109q6 -6 6 -14.5t-6 -14.5l-102 -100q-6 -6 -14.5 -6t-14.5 6l-106 107q-108 -68 -234 -68q-127 0 -231 68l-107 -107q-14 -14 -28 0zM385 684q0 -54 38.5 -92.5t92.5 -38.5t92.5 38.5t38.5 92.5t-38.5 92.5t-92.5 38.5t-92.5 -38.5t-38.5 -92.5z" />
    <glyph glyph-name="yen" unicode="&#xa5;" horiz-adv-x="964" 
d="M152 289q-21 0 -21 20v113q0 20 21 20h141v62h-143q-15 0 -25 10l-74 74q-10 10 -10 24v801q0 21 20 21h349q20 0 20 -21v-555h105v555q0 21 20 21h348q9 0 15 -6t6 -15v-801q0 -13 -11 -24l-73 -74q-10 -10 -25 -10h-133v-62h133q21 0 21 -20v-113q0 -20 -21 -20h-133
v-51h133q9 0 15 -6t6 -15v-113q0 -20 -21 -20h-133v-61q0 -21 -20 -21h-349q-20 0 -20 21v61h-141q-21 0 -21 20v113q0 9 6 15t15 6h141v51h-141z" />
    <glyph glyph-name="section" unicode="&#xa7;" horiz-adv-x="512" 
d="M150 0q-15 0 -25 10l-74 74q-10 10 -10 25v217q0 20 20 20h144q20 0 20 -20v-142q0 -10 11 -10h40q11 0 11 10v142q0 9 -11 24l-225 260q-10 13 -10 25v239q0 15 10 25l55 55l-55 66q-10 13 -10 24v281q0 15 10 25l74 73q11 11 25 11h210q14 0 25 -11l76 -73
q10 -10 10 -25v-215q0 -20 -20 -20h-144q-20 0 -20 20v139q0 11 -11 11h-40q-11 0 -11 -11v-143q0 -10 11 -25l225 -260q10 -13 10 -24v-238q0 -14 -10 -24l-58 -56l58 -67q10 -13 10 -25v-278q0 -15 -10 -25l-76 -74q-10 -10 -25 -10h-210zM225 696q0 -9 11 -24l40 -47
q11 0 11 10v100q0 10 -11 25l-43 49q-8 0 -8 -10v-103z" />
    <glyph glyph-name="copyright" unicode="&#xa9;" horiz-adv-x="874" 
d="M92 440q-6 0 -12 6l-35 33q-4 4 -4 13v890q0 9 4 13l35 35q4 4 12 4h692q7 0 11 -4l34 -35q5 -5 5 -13v-890q0 -8 -5 -13l-34 -33q-6 -6 -11 -6h-692zM229 629q0 -4 4 -4h408q4 0 4 4v616q0 6 -4 6h-408q-4 0 -4 -6v-616zM276 723v430q0 5 5 10l34 35q4 4 11 4h223
q6 0 10 -4l35 -35q4 -4 4 -10v-182q0 -8 -8 -8h-129q-8 0 -8 8v86q0 4 -7 4h-18q-4 0 -4 -4v-238q0 -6 4 -6h18q7 0 7 6v84q0 10 8 10h129q8 0 8 -10v-180q0 -8 -4 -12l-35 -35q-4 -4 -10 -4h-223q-7 0 -11 4l-34 35q-5 5 -5 12z" />
    <glyph glyph-name="guillemotleft" unicode="&#xab;" horiz-adv-x="1058" 
d="M674 207q-20 0 -25 16l-133 379q-5 13 0 29l133 379q5 16 25 16h325q23 0 17 -22l-131 -373q-4 -15 0 -29l131 -373q6 -22 -17 -22h-325zM45 602q-5 13 0 29l133 379q5 16 25 16h325q23 0 17 -22l-131 -373q-4 -15 0 -29l131 -373q6 -22 -17 -22h-325q-20 0 -25 16z" />
    <glyph glyph-name="registered" unicode="&#xae;" horiz-adv-x="862" 
d="M102 432q-8 0 -14 6l-41 41q-6 6 -6 15v878q0 8 6 14l41 41q7 7 14 7h658q8 0 12 -7l43 -41q6 -6 6 -14v-878q0 -9 -6 -15l-43 -41q-3 -6 -12 -6h-658zM205 596q0 -6 6 -6h440q6 0 6 6v674q0 6 -6 6h-440q-6 0 -6 -6v-674zM262 659v547q0 13 12 13h265q9 0 12 -7l43 -43
q6 -6 6 -12v-223q0 -8 -4 -12l-18 -27q-8 -8 0 -16l18 -23q4 -4 4 -14v-183q0 -12 -12 -12h-117q-10 0 -10 12v168q0 13 -12 13h-48v-181q0 -12 -12 -12h-115q-12 0 -12 12zM401 936h48q12 0 12 12v125q0 12 -12 12h-48v-149z" />
    <glyph glyph-name="degree" unicode="&#xb0;" horiz-adv-x="694" 
d="M348 842q-128 0 -217.5 90t-89.5 217q0 126 90 215.5t217 89.5q126 0 215.5 -89.5t89.5 -215.5q0 -127 -89.5 -217t-215.5 -90z" />
    <glyph glyph-name="periodcentered" unicode="&#xb7;" horiz-adv-x="483" 
d="M84 360q-20 0 -31.5 12.5t-11.5 33.5v290q0 20 11.5 32.5t31.5 12.5h315q20 0 31.5 -12.5t11.5 -32.5v-290q0 -21 -11.5 -33.5t-31.5 -12.5h-315z" />
    <glyph glyph-name="guillemotright" unicode="&#xbb;" horiz-adv-x="1056" 
d="M59 207q-22 0 -16 22l131 373q4 14 0 29l-131 373q-6 22 16 22h326q20 0 25 -16l133 -379q5 -16 0 -29l-133 -379q-5 -16 -25 -16h-326zM514 229l131 373q4 14 0 29l-131 373q-6 22 16 22h326q20 0 25 -16l133 -379q5 -16 0 -29l-133 -379q-5 -16 -25 -16h-326
q-22 0 -16 22z" />
    <glyph glyph-name="questiondown" unicode="&#xbf;" horiz-adv-x="921" 
d="M666 766q20 0 20 -21v-96q0 -14 -6 -24l-240 -334q-10 -15 -10 -29v-67q0 -9 6 -15t15 -6h61q20 0 20 21v102q0 20 21 20h307q21 0 21 -20v-393q0 -14 -11 -25l-75 -74q-10 -10 -25 -10h-620q-15 0 -25 10l-74 74q-10 10 -10 25v426q0 13 10 26l234 336q6 10 6 25v28
q0 21 20 21h355zM297 868v340q0 21 20 21h349q20 0 20 -21v-340q0 -20 -20 -20h-349q-20 0 -20 20z" />
    <glyph glyph-name="Agrave" unicode="&#xc0;" horiz-adv-x="983" 
d="M39 0q-9 0 -14.5 5.5t-4.5 14.5l121 1393q3 21 23 21h655q20 0 23 -21l121 -1393q1 -9 -4.5 -14.5t-14.5 -5.5h-348q-20 0 -23 20l-14 191h-133l-16 -191q-3 -20 -23 -20h-348zM244 1645q-7 24 16 24h344q19 0 23 -18l37 -133q3 -10 -2.5 -16.5t-16.5 -6.5h-340
q-17 0 -22 16zM446 549h93l-31 504h-31z" />
    <glyph glyph-name="Aacute" unicode="&#xc1;" horiz-adv-x="983" 
d="M39 0q-9 0 -14.5 5.5t-4.5 14.5l121 1393q3 21 23 21h655q20 0 23 -21l121 -1393q1 -9 -4.5 -14.5t-14.5 -5.5h-348q-20 0 -23 20l-14 191h-133l-16 -191q-3 -20 -23 -20h-348zM313 1518l37 133q4 18 23 18h344q23 0 16 -24l-39 -134q-5 -16 -22 -16h-340
q-11 0 -16.5 6.5t-2.5 16.5zM446 549h93l-31 504h-31z" />
    <glyph glyph-name="Acircumflex" unicode="&#xc2;" horiz-adv-x="983" 
d="M39 0q-9 0 -14.5 5.5t-4.5 14.5l121 1393q3 21 23 21h655q20 0 23 -21l121 -1393q1 -9 -4.5 -14.5t-14.5 -5.5h-348q-20 0 -23 20l-14 191h-133l-16 -191q-3 -20 -23 -20h-348zM195 1518l41 135q6 16 24 16h467q19 0 25 -16l41 -135q3 -10 -1.5 -16.5t-15.5 -6.5h-235
q-17 0 -23 18l-24 95l-25 -95q-6 -18 -23 -18h-235q-23 0 -16 23zM446 549h93l-31 504h-31z" />
    <glyph glyph-name="Atilde" unicode="&#xc3;" horiz-adv-x="983" 
d="M39 0q-9 0 -14.5 5.5t-4.5 14.5l121 1393q3 21 23 21h655q20 0 23 -21l121 -1393q1 -9 -4.5 -14.5t-14.5 -5.5h-348q-20 0 -23 20l-14 191h-133l-16 -191q-3 -20 -23 -20h-348zM104 1518l41 135q6 16 25 16h405q19 0 25 -16l25 -82l22 80q4 18 23 18h235q23 0 17 -22
l-41 -136q-6 -16 -25 -16h-405q-17 0 -23 18l-25 95l-24 -95q-6 -18 -23 -18h-235q-11 0 -15.5 6.5t-1.5 16.5zM446 549h93l-31 504h-31z" />
    <glyph glyph-name="Adieresis" unicode="&#xc4;" horiz-adv-x="983" 
d="M39 0q-9 0 -14.5 5.5t-4.5 14.5l121 1393q3 21 23 21h655q20 0 23 -21l121 -1393q1 -9 -4.5 -14.5t-14.5 -5.5h-348q-20 0 -23 20l-14 191h-133l-16 -191q-3 -20 -23 -20h-348zM199 1649q0 20 18 20h246q18 0 18 -20l-10 -133q0 -9 -6.5 -15t-15.5 -6h-218q-9 0 -15.5 6
t-6.5 15zM446 549h93l-31 504h-31zM506 1649q0 20 18 20h246q18 0 18 -20l-10 -133q0 -9 -6.5 -15t-15.5 -6h-217q-9 0 -16 6t-7 15z" />
    <glyph glyph-name="Aring" unicode="&#xc5;" horiz-adv-x="983" 
d="M39 0q-9 0 -14.5 5.5t-4.5 14.5l121 1393q3 21 23 21h655q20 0 23 -21l121 -1393q1 -9 -4.5 -14.5t-14.5 -5.5h-348q-20 0 -23 20l-14 191h-133l-16 -191q-3 -20 -23 -20h-348zM260 1649q0 20 19 20h430q18 0 18 -20l-10 -133q0 -9 -7 -15t-16 -6h-401q-9 0 -16 6t-7 15z
M446 549h93l-31 504h-31z" />
    <glyph glyph-name="AE" unicode="&#xc6;" horiz-adv-x="1327" 
d="M39 0q-9 0 -14.5 5.5t-4.5 14.5l121 1393q3 21 23 21h1102q20 0 20 -21v-381q0 -20 -16 -20h-322q-20 0 -20 -21v-100q0 -21 20 -21h174q21 0 21 -20v-256q0 -9 -6 -15t-15 -6h-174q-20 0 -20 -20v-109q0 -20 20 -20h322q16 0 16 -21v-383q0 -20 -20 -20h-707
q-20 0 -20 20v191h-113l-16 -191q-3 -20 -23 -20h-348zM446 549h93l-2 504h-60z" />
    <glyph glyph-name="Ccedilla" unicode="&#xc7;" 
d="M150 0q-15 0 -25 10l-74 74q-10 10 -10 25v1216q0 15 10 25l74 73q11 11 25 11h663q14 0 25 -11l73 -73q11 -11 11 -25v-537q0 -20 -21 -20h-348q-21 0 -21 20v244q0 21 -20 21h-61q-9 0 -15 -6t-6 -15v-631q0 -20 21 -20h61q20 0 20 20v246q0 9 6 15t15 6h348q9 0 15 -6
t6 -15v-538q0 -14 -11 -25l-73 -74q-10 -10 -25 -10h-332l185 -25q16 -3 16 -24v-180q0 -22 -16 -25l-340 -41q-23 -3 -23 16v113q0 20 19 23l176 24l-176 25q-19 3 -19 22v72h-153z" />
    <glyph glyph-name="Egrave" unicode="&#xc8;" horiz-adv-x="829" 
d="M61 0q-20 0 -20 20v1393q0 21 20 21h707q20 0 20 -21v-381q0 -20 -16 -20h-321q-9 0 -15 -6t-6 -15v-100q0 -9 6 -15t15 -6h174q20 0 20 -20v-256q0 -21 -20 -21h-174q-21 0 -21 -20v-109q0 -20 21 -20h321q16 0 16 -21v-383q0 -20 -20 -20h-707zM186 1645q-3 11 2 17.5
t15 6.5h344q18 0 22 -18l37 -133q3 -10 -2 -16.5t-16 -6.5h-340q-18 0 -23 16z" />
    <glyph glyph-name="Eacute" unicode="&#xc9;" horiz-adv-x="829" 
d="M61 0q-20 0 -20 20v1393q0 21 20 21h707q20 0 20 -21v-381q0 -20 -16 -20h-321q-9 0 -15 -6t-6 -15v-100q0 -9 6 -15t15 -6h174q20 0 20 -20v-256q0 -21 -20 -21h-174q-21 0 -21 -20v-109q0 -20 21 -20h321q16 0 16 -21v-383q0 -20 -20 -20h-707zM256 1518l37 133
q4 18 22 18h344q10 0 15 -6.5t2 -17.5l-39 -134q-5 -16 -23 -16h-340q-11 0 -16 6.5t-2 16.5z" />
    <glyph glyph-name="Ecircumflex" unicode="&#xca;" horiz-adv-x="829" 
d="M61 0q-20 0 -20 20v1393q0 21 20 21h707q20 0 20 -21v-381q0 -20 -16 -20h-321q-9 0 -15 -6t-6 -15v-100q0 -9 6 -15t15 -6h174q20 0 20 -20v-256q0 -21 -20 -21h-174q-21 0 -21 -20v-109q0 -20 21 -20h321q16 0 16 -21v-383q0 -20 -20 -20h-707zM137 1518l41 135
q6 16 25 16h467q18 0 24 -16l41 -135q7 -23 -16 -23h-236q-16 0 -22 18l-25 95l-24 -95q-6 -18 -23 -18h-235q-11 0 -15.5 6.5t-1.5 16.5z" />
    <glyph glyph-name="Edieresis" unicode="&#xcb;" horiz-adv-x="829" 
d="M61 0q-20 0 -20 20v1393q0 21 20 21h707q20 0 20 -21v-381q0 -20 -16 -20h-321q-9 0 -15 -6t-6 -15v-100q0 -9 6 -15t15 -6h174q20 0 20 -20v-256q0 -21 -20 -21h-174q-21 0 -21 -20v-109q0 -20 21 -20h321q16 0 16 -21v-383q0 -20 -20 -20h-707zM141 1649q0 20 19 20
h246q18 0 18 -20l-10 -133q0 -9 -7 -15t-16 -6h-217q-9 0 -15.5 6t-6.5 15zM449 1649q0 20 18 20h246q18 0 18 -20l-10 -133q0 -9 -7 -15t-16 -6h-217q-9 0 -15.5 6t-6.5 15z" />
    <glyph glyph-name="Igrave" unicode="&#xcc;" horiz-adv-x="532" 
d="M61 0q-20 0 -20 20v1393q0 21 20 21h410q9 0 15 -6t6 -15v-1393q0 -20 -21 -20h-410zM18 1645q-3 11 2 17.5t15 6.5h344q18 0 22 -18l37 -133q3 -10 -2 -16.5t-16 -6.5h-340q-18 0 -23 16z" />
    <glyph glyph-name="Iacute" unicode="&#xcd;" horiz-adv-x="532" 
d="M61 0q-20 0 -20 20v1393q0 21 20 21h410q9 0 15 -6t6 -15v-1393q0 -20 -21 -20h-410zM88 1518l37 133q4 18 22 18h345q23 0 16 -24l-39 -134q-5 -16 -23 -16h-340q-11 0 -16 6.5t-2 16.5z" />
    <glyph glyph-name="Icircumflex" unicode="&#xce;" horiz-adv-x="532" 
d="M61 0q-20 0 -20 20v1393q0 21 20 21h410q9 0 15 -6t6 -15v-1393q0 -20 -21 -20h-410zM-31 1518l41 135q6 16 25 16h467q18 0 24 -16l41 -135q7 -23 -16 -23h-236q-16 0 -22 18l-25 95l-24 -95q-6 -18 -23 -18h-235q-11 0 -15.5 6.5t-1.5 16.5z" />
    <glyph glyph-name="Idieresis" unicode="&#xcf;" horiz-adv-x="532" 
d="M61 0q-20 0 -20 20v1393q0 21 20 21h410q9 0 15 -6t6 -15v-1393q0 -20 -21 -20h-410zM-27 1649q0 20 19 20h246q18 0 18 -20l-10 -133q0 -9 -7 -15t-16 -6h-217q-9 0 -15.5 6t-6.5 15zM281 1649q0 20 18 20h246q18 0 18 -20l-10 -133q0 -9 -7 -15t-16 -6h-217
q-9 0 -15.5 6t-6.5 15z" />
    <glyph glyph-name="Eth" unicode="&#xd0;" 
d="M0 526q-20 0 -20 21v317q0 21 20 21h41v528q0 21 20 21h752q14 0 25 -11l73 -73q11 -11 11 -25v-1216q0 -14 -11 -25l-73 -74q-10 -10 -25 -10h-752q-20 0 -20 20v506h-41zM430 381h82q20 0 20 20v631q0 21 -20 21h-82v-168h41q9 0 15 -6t6 -15v-317q0 -9 -6 -15t-15 -6
h-41v-145z" />
    <glyph glyph-name="Ntilde" unicode="&#xd1;" horiz-adv-x="1003" 
d="M61 0q-20 0 -20 20v1393q0 21 20 21h392q19 0 22 -19l74 -538q0 -9 12 -9h2q10 0 10 11v534q0 9 6 15t15 6h348q9 0 15 -6t6 -15v-1393q0 -20 -21 -20h-391q-19 0 -23 18l-73 541q0 8 -11 8h-4q-10 0 -10 -10v-537q0 -20 -20 -20h-349zM143 1518l41 135q6 16 25 16h405
q19 0 25 -16l25 -82l22 80q4 18 23 18h235q23 0 17 -22l-41 -136q-6 -16 -25 -16h-406q-16 0 -22 18l-25 95l-24 -95q-6 -18 -23 -18h-235q-11 0 -15.5 6.5t-1.5 16.5z" />
    <glyph glyph-name="Ograve" unicode="&#xd2;" 
d="M150 0q-15 0 -25 10l-74 74q-10 10 -10 25v1216q0 15 10 25l74 73q11 11 25 11h663q14 0 25 -11l73 -73q11 -11 11 -25v-1216q0 -14 -11 -25l-73 -74q-10 -10 -25 -10h-663zM231 1645q-3 11 2 17.5t15 6.5h344q18 0 22 -18l37 -133q3 -10 -2 -16.5t-16 -6.5h-340
q-18 0 -23 16zM430 401q0 -20 21 -20h61q20 0 20 20v631q0 21 -20 21h-61q-9 0 -15 -6t-6 -15v-631z" />
    <glyph glyph-name="Oacute" unicode="&#xd3;" 
d="M150 0q-15 0 -25 10l-74 74q-10 10 -10 25v1216q0 15 10 25l74 73q11 11 25 11h663q14 0 25 -11l73 -73q11 -11 11 -25v-1216q0 -14 -11 -25l-73 -74q-10 -10 -25 -10h-663zM301 1518l37 133q4 18 22 18h345q23 0 16 -24l-39 -134q-5 -16 -23 -16h-340q-11 0 -16 6.5
t-2 16.5zM430 401q0 -20 21 -20h61q20 0 20 20v631q0 21 -20 21h-61q-9 0 -15 -6t-6 -15v-631z" />
    <glyph glyph-name="Ocircumflex" unicode="&#xd4;" 
d="M150 0q-15 0 -25 10l-74 74q-10 10 -10 25v1216q0 15 10 25l74 73q11 11 25 11h663q14 0 25 -11l73 -73q11 -11 11 -25v-1216q0 -14 -11 -25l-73 -74q-10 -10 -25 -10h-663zM182 1518l41 135q6 16 25 16h467q18 0 24 -16l41 -135q7 -23 -16 -23h-236q-16 0 -22 18l-25 95
l-24 -95q-6 -18 -23 -18h-235q-11 0 -15.5 6.5t-1.5 16.5zM430 401q0 -20 21 -20h61q20 0 20 20v631q0 21 -20 21h-61q-9 0 -15 -6t-6 -15v-631z" />
    <glyph glyph-name="Otilde" unicode="&#xd5;" 
d="M150 0q-15 0 -25 10l-74 74q-10 10 -10 25v1216q0 15 10 25l74 73q11 11 25 11h663q14 0 25 -11l73 -73q11 -11 11 -25v-1216q0 -14 -11 -25l-73 -74q-10 -10 -25 -10h-663zM92 1518l41 135q6 16 25 16h405q19 0 25 -16l24 -82l23 80q4 18 22 18h236q22 0 16 -22
l-41 -136q-6 -16 -24 -16h-406q-16 0 -22 18l-25 95l-24 -95q-6 -18 -23 -18h-235q-11 0 -15.5 6.5t-1.5 16.5zM430 401q0 -20 21 -20h61q20 0 20 20v631q0 21 -20 21h-61q-9 0 -15 -6t-6 -15v-631z" />
    <glyph glyph-name="Odieresis" unicode="&#xd6;" 
d="M150 0q-15 0 -25 10l-74 74q-10 10 -10 25v1216q0 15 10 25l74 73q11 11 25 11h663q14 0 25 -11l73 -73q11 -11 11 -25v-1216q0 -14 -11 -25l-73 -74q-10 -10 -25 -10h-663zM186 1649q0 20 19 20h246q18 0 18 -20l-10 -133q0 -9 -7 -15t-16 -6h-217q-9 0 -15.5 6t-6.5 15
zM430 401q0 -20 21 -20h61q20 0 20 20v631q0 21 -20 21h-61q-9 0 -15 -6t-6 -15v-631zM494 1649q0 20 18 20h246q18 0 18 -20l-10 -133q0 -9 -7 -15t-16 -6h-217q-9 0 -15.5 6t-6.5 15z" />
    <glyph glyph-name="multiply" unicode="&#xd7;" horiz-adv-x="870" 
d="M584 362q-6 -8 -14.5 -8t-14.5 8l-121 119l-119 -119q-14 -14 -28 0l-240 240q-6 6 -6 14.5t6 14.5l119 119l-119 118q-6 6 -6 14.5t6 14.5l240 240q14 14 28 0l119 -119l121 121q6 6 14.5 6t14.5 -6l239 -240q6 -6 6 -14.5t-6 -14.5l-121 -120l121 -121q13 -13 0 -29z
" />
    <glyph glyph-name="Oslash" unicode="&#xd8;" 
d="M150 0q-15 0 -25 10l-74 74q-10 10 -10 25v1216q0 15 10 25l74 73q11 11 25 11h663q14 0 25 -11l73 -73q11 -11 11 -25v-1216q0 -14 -11 -25l-73 -74q-10 -10 -25 -10h-663zM430 401q0 -20 21 -20h61q20 0 20 20v197l-102 -154v-43zM430 846l102 149v37q0 21 -20 21h-61
q-9 0 -15 -6t-6 -15v-186z" />
    <glyph glyph-name="Ugrave" unicode="&#xd9;" 
d="M150 0q-15 0 -25 10l-74 74q-10 10 -10 25v1304q0 21 20 21h349q20 0 20 -21v-1022q0 -10 10 -10h82q10 0 10 10v1022q0 9 6 15t15 6h348q9 0 15 -6t6 -15v-1304q0 -14 -11 -25l-73 -74q-10 -10 -25 -10h-663zM231 1645q-3 11 2 17.5t15 6.5h344q18 0 22 -18l37 -133
q3 -10 -2 -16.5t-16 -6.5h-340q-18 0 -23 16z" />
    <glyph glyph-name="Uacute" unicode="&#xda;" 
d="M150 0q-15 0 -25 10l-74 74q-10 10 -10 25v1304q0 21 20 21h349q20 0 20 -21v-1022q0 -10 10 -10h82q10 0 10 10v1022q0 9 6 15t15 6h348q9 0 15 -6t6 -15v-1304q0 -14 -11 -25l-73 -74q-10 -10 -25 -10h-663zM301 1518l37 133q4 18 22 18h345q23 0 16 -24l-39 -134
q-5 -16 -23 -16h-340q-11 0 -16 6.5t-2 16.5z" />
    <glyph glyph-name="Ucircumflex" unicode="&#xdb;" 
d="M150 0q-15 0 -25 10l-74 74q-10 10 -10 25v1304q0 21 20 21h349q20 0 20 -21v-1022q0 -10 10 -10h82q10 0 10 10v1022q0 9 6 15t15 6h348q9 0 15 -6t6 -15v-1304q0 -14 -11 -25l-73 -74q-10 -10 -25 -10h-663zM182 1518l41 135q6 16 25 16h467q18 0 24 -16l41 -135
q7 -23 -16 -23h-236q-16 0 -22 18l-25 95l-24 -95q-6 -18 -23 -18h-235q-11 0 -15.5 6.5t-1.5 16.5z" />
    <glyph glyph-name="Udieresis" unicode="&#xdc;" 
d="M150 0q-15 0 -25 10l-74 74q-10 10 -10 25v1304q0 21 20 21h349q20 0 20 -21v-1022q0 -10 10 -10h82q10 0 10 10v1022q0 9 6 15t15 6h348q9 0 15 -6t6 -15v-1304q0 -14 -11 -25l-73 -74q-10 -10 -25 -10h-663zM186 1649q0 20 19 20h246q18 0 18 -20l-10 -133q0 -9 -7 -15
t-16 -6h-217q-9 0 -15.5 6t-6.5 15zM494 1649q0 20 18 20h246q18 0 18 -20l-10 -133q0 -9 -7 -15t-16 -6h-217q-9 0 -15.5 6t-6.5 15z" />
    <glyph glyph-name="Yacute" unicode="&#xdd;" horiz-adv-x="964" 
d="M51 465q-10 10 -10 24v924q0 21 20 21h349q20 0 20 -21v-678h105v678q0 21 20 21h348q9 0 15 -6t6 -15v-924q0 -13 -11 -24l-73 -74q-10 -10 -25 -10h-133v-358q0 -21 -20 -21h-349q-20 0 -20 21v358h-143q-15 0 -25 10zM303 1518l37 133q4 18 22 18h345q23 0 16 -24
l-39 -134q-5 -16 -22 -16h-340q-11 0 -16.5 6.5t-2.5 16.5z" />
    <glyph glyph-name="Thorn" unicode="&#xde;" horiz-adv-x="983" 
d="M61 0q-20 0 -20 20v1393q0 21 20 21h369q9 0 15 -6t6 -15v-147h383q13 0 24 -11l74 -73q10 -10 10 -25v-881q0 -14 -10 -24l-74 -74q-10 -10 -24 -10h-383v-148q0 -20 -21 -20h-369zM451 516h81q9 0 15 6t6 15v354q0 20 -21 20h-81v-395z" />
    <glyph glyph-name="germandbls" unicode="&#xdf;" horiz-adv-x="1003" 
d="M61 0q-20 0 -20 20v1305q0 15 10 25l74 73q11 11 25 11h663q14 0 25 -11l73 -73q11 -11 9 -25l-58 -369q-1 -9 5.5 -15.5t15.5 -6.5h59q9 0 15 -6t6 -15v-804q0 -14 -11 -25l-73 -74q-10 -10 -25 -10h-342q-20 0 -20 20v340q0 21 20 21h41q20 0 20 20v195q0 10 -10 10
h-82q-9 0 -15 7t-5 16l71 415q1 4 -1 7.5t-7 3.5h-84q-10 0 -10 -11v-1024q0 -20 -20 -20h-349z" />
    <glyph glyph-name="agrave" unicode="&#xe0;" horiz-adv-x="983" 
d="M39 0q-9 0 -14.5 5.5t-4.5 14.5l121 1393q3 21 23 21h655q20 0 23 -21l121 -1393q1 -9 -4.5 -14.5t-14.5 -5.5h-348q-20 0 -23 20l-14 191h-133l-16 -191q-3 -20 -23 -20h-348zM244 1645q-7 24 16 24h344q19 0 23 -18l37 -133q3 -10 -2.5 -16.5t-16.5 -6.5h-340
q-17 0 -22 16zM446 549h93l-31 504h-31z" />
    <glyph glyph-name="aacute" unicode="&#xe1;" horiz-adv-x="983" 
d="M39 0q-9 0 -14.5 5.5t-4.5 14.5l121 1393q3 21 23 21h655q20 0 23 -21l121 -1393q1 -9 -4.5 -14.5t-14.5 -5.5h-348q-20 0 -23 20l-14 191h-133l-16 -191q-3 -20 -23 -20h-348zM313 1518l37 133q4 18 23 18h344q23 0 16 -24l-39 -134q-5 -16 -22 -16h-340
q-11 0 -16.5 6.5t-2.5 16.5zM446 549h93l-31 504h-31z" />
    <glyph glyph-name="acircumflex" unicode="&#xe2;" horiz-adv-x="983" 
d="M39 0q-9 0 -14.5 5.5t-4.5 14.5l121 1393q3 21 23 21h655q20 0 23 -21l121 -1393q1 -9 -4.5 -14.5t-14.5 -5.5h-348q-20 0 -23 20l-14 191h-133l-16 -191q-3 -20 -23 -20h-348zM195 1518l41 135q6 16 24 16h467q19 0 25 -16l41 -135q3 -10 -1.5 -16.5t-15.5 -6.5h-235
q-17 0 -23 18l-24 95l-25 -95q-6 -18 -23 -18h-235q-23 0 -16 23zM446 549h93l-31 504h-31z" />
    <glyph glyph-name="atilde" unicode="&#xe3;" horiz-adv-x="983" 
d="M39 0q-9 0 -14.5 5.5t-4.5 14.5l121 1393q3 21 23 21h655q20 0 23 -21l121 -1393q1 -9 -4.5 -14.5t-14.5 -5.5h-348q-20 0 -23 20l-14 191h-133l-16 -191q-3 -20 -23 -20h-348zM104 1518l41 135q6 16 25 16h405q19 0 25 -16l25 -82l22 80q4 18 23 18h235q23 0 17 -22
l-41 -136q-6 -16 -25 -16h-405q-17 0 -23 18l-25 95l-24 -95q-6 -18 -23 -18h-235q-11 0 -15.5 6.5t-1.5 16.5zM446 549h93l-31 504h-31z" />
    <glyph glyph-name="adieresis" unicode="&#xe4;" horiz-adv-x="983" 
d="M39 0q-9 0 -14.5 5.5t-4.5 14.5l121 1393q3 21 23 21h655q20 0 23 -21l121 -1393q1 -9 -4.5 -14.5t-14.5 -5.5h-348q-20 0 -23 20l-14 191h-133l-16 -191q-3 -20 -23 -20h-348zM199 1649q0 20 18 20h246q18 0 18 -20l-10 -133q0 -9 -6.5 -15t-15.5 -6h-218q-9 0 -15.5 6
t-6.5 15zM446 549h93l-31 504h-31zM506 1649q0 20 18 20h246q18 0 18 -20l-10 -133q0 -9 -6.5 -15t-15.5 -6h-217q-9 0 -16 6t-7 15z" />
    <glyph glyph-name="aring" unicode="&#xe5;" horiz-adv-x="983" 
d="M39 0q-9 0 -14.5 5.5t-4.5 14.5l121 1393q3 21 23 21h655q20 0 23 -21l121 -1393q1 -9 -4.5 -14.5t-14.5 -5.5h-348q-20 0 -23 20l-14 191h-133l-16 -191q-3 -20 -23 -20h-348zM260 1649q0 20 19 20h430q18 0 18 -20l-10 -133q0 -9 -7 -15t-16 -6h-401q-9 0 -16 6t-7 15z
M446 549h93l-31 504h-31z" />
    <glyph glyph-name="ae" unicode="&#xe6;" horiz-adv-x="1327" 
d="M39 0q-9 0 -14.5 5.5t-4.5 14.5l121 1393q3 21 23 21h1102q20 0 20 -21v-381q0 -20 -16 -20h-322q-20 0 -20 -21v-100q0 -21 20 -21h174q21 0 21 -20v-256q0 -9 -6 -15t-15 -6h-174q-20 0 -20 -20v-109q0 -20 20 -20h322q16 0 16 -21v-383q0 -20 -20 -20h-707
q-20 0 -20 20v191h-113l-16 -191q-3 -20 -23 -20h-348zM446 549h93l-2 504h-60z" />
    <glyph glyph-name="ccedilla" unicode="&#xe7;" 
d="M150 0q-15 0 -25 10l-74 74q-10 10 -10 25v1216q0 15 10 25l74 73q11 11 25 11h663q14 0 25 -11l73 -73q11 -11 11 -25v-537q0 -20 -21 -20h-348q-21 0 -21 20v244q0 21 -20 21h-61q-9 0 -15 -6t-6 -15v-631q0 -20 21 -20h61q20 0 20 20v246q0 9 6 15t15 6h348q9 0 15 -6
t6 -15v-538q0 -14 -11 -25l-73 -74q-10 -10 -25 -10h-332l185 -25q16 -3 16 -24v-180q0 -22 -16 -25l-340 -41q-23 -3 -23 16v113q0 20 19 23l176 24l-176 25q-19 3 -19 22v72h-153z" />
    <glyph glyph-name="egrave" unicode="&#xe8;" horiz-adv-x="829" 
d="M61 0q-20 0 -20 20v1393q0 21 20 21h707q20 0 20 -21v-381q0 -20 -16 -20h-321q-9 0 -15 -6t-6 -15v-100q0 -9 6 -15t15 -6h174q20 0 20 -20v-256q0 -21 -20 -21h-174q-21 0 -21 -20v-109q0 -20 21 -20h321q16 0 16 -21v-383q0 -20 -20 -20h-707zM186 1645q-3 11 2 17.5
t15 6.5h344q18 0 22 -18l37 -133q3 -10 -2 -16.5t-16 -6.5h-340q-18 0 -23 16z" />
    <glyph glyph-name="eacute" unicode="&#xe9;" horiz-adv-x="829" 
d="M61 0q-20 0 -20 20v1393q0 21 20 21h707q20 0 20 -21v-381q0 -20 -16 -20h-321q-9 0 -15 -6t-6 -15v-100q0 -9 6 -15t15 -6h174q20 0 20 -20v-256q0 -21 -20 -21h-174q-21 0 -21 -20v-109q0 -20 21 -20h321q16 0 16 -21v-383q0 -20 -20 -20h-707zM256 1518l37 133
q4 18 22 18h344q10 0 15 -6.5t2 -17.5l-39 -134q-5 -16 -23 -16h-340q-11 0 -16 6.5t-2 16.5z" />
    <glyph glyph-name="ecircumflex" unicode="&#xea;" horiz-adv-x="829" 
d="M61 0q-20 0 -20 20v1393q0 21 20 21h707q20 0 20 -21v-381q0 -20 -16 -20h-321q-9 0 -15 -6t-6 -15v-100q0 -9 6 -15t15 -6h174q20 0 20 -20v-256q0 -21 -20 -21h-174q-21 0 -21 -20v-109q0 -20 21 -20h321q16 0 16 -21v-383q0 -20 -20 -20h-707zM137 1518l41 135
q6 16 25 16h467q18 0 24 -16l41 -135q7 -23 -16 -23h-236q-16 0 -22 18l-25 95l-24 -95q-6 -18 -23 -18h-235q-11 0 -15.5 6.5t-1.5 16.5z" />
    <glyph glyph-name="edieresis" unicode="&#xeb;" horiz-adv-x="829" 
d="M61 0q-20 0 -20 20v1393q0 21 20 21h707q20 0 20 -21v-381q0 -20 -16 -20h-321q-9 0 -15 -6t-6 -15v-100q0 -9 6 -15t15 -6h174q20 0 20 -20v-256q0 -21 -20 -21h-174q-21 0 -21 -20v-109q0 -20 21 -20h321q16 0 16 -21v-383q0 -20 -20 -20h-707zM141 1649q0 20 19 20
h246q18 0 18 -20l-10 -133q0 -9 -7 -15t-16 -6h-217q-9 0 -15.5 6t-6.5 15zM449 1649q0 20 18 20h246q18 0 18 -20l-10 -133q0 -9 -7 -15t-16 -6h-217q-9 0 -15.5 6t-6.5 15z" />
    <glyph glyph-name="igrave" unicode="&#xec;" horiz-adv-x="532" 
d="M61 0q-20 0 -20 20v1393q0 21 20 21h410q9 0 15 -6t6 -15v-1393q0 -20 -21 -20h-410zM18 1645q-3 11 2 17.5t15 6.5h344q18 0 22 -18l37 -133q3 -10 -2 -16.5t-16 -6.5h-340q-18 0 -23 16z" />
    <glyph glyph-name="iacute" unicode="&#xed;" horiz-adv-x="532" 
d="M61 0q-20 0 -20 20v1393q0 21 20 21h410q9 0 15 -6t6 -15v-1393q0 -20 -21 -20h-410zM88 1518l37 133q4 18 22 18h345q23 0 16 -24l-39 -134q-5 -16 -23 -16h-340q-11 0 -16 6.5t-2 16.5z" />
    <glyph glyph-name="icircumflex" unicode="&#xee;" horiz-adv-x="532" 
d="M61 0q-20 0 -20 20v1393q0 21 20 21h410q9 0 15 -6t6 -15v-1393q0 -20 -21 -20h-410zM-31 1518l41 135q6 16 25 16h467q18 0 24 -16l41 -135q7 -23 -16 -23h-236q-16 0 -22 18l-25 95l-24 -95q-6 -18 -23 -18h-235q-11 0 -15.5 6.5t-1.5 16.5z" />
    <glyph glyph-name="idieresis" unicode="&#xef;" horiz-adv-x="532" 
d="M61 0q-20 0 -20 20v1393q0 21 20 21h410q9 0 15 -6t6 -15v-1393q0 -20 -21 -20h-410zM-27 1649q0 20 19 20h246q18 0 18 -20l-10 -133q0 -9 -7 -15t-16 -6h-217q-9 0 -15.5 6t-6.5 15zM281 1649q0 20 18 20h246q18 0 18 -20l-10 -133q0 -9 -7 -15t-16 -6h-217
q-9 0 -15.5 6t-6.5 15z" />
    <glyph glyph-name="eth" unicode="&#xf0;" 
d="M0 526q-20 0 -20 21v317q0 21 20 21h41v528q0 21 20 21h752q14 0 25 -11l73 -73q11 -11 11 -25v-1216q0 -14 -11 -25l-73 -74q-10 -10 -25 -10h-752q-20 0 -20 20v506h-41zM430 381h82q20 0 20 20v631q0 21 -20 21h-82v-168h41q9 0 15 -6t6 -15v-317q0 -9 -6 -15t-15 -6
h-41v-145z" />
    <glyph glyph-name="ntilde" unicode="&#xf1;" horiz-adv-x="1003" 
d="M61 0q-20 0 -20 20v1393q0 21 20 21h392q19 0 22 -19l74 -538q0 -9 12 -9h2q10 0 10 11v534q0 9 6 15t15 6h348q9 0 15 -6t6 -15v-1393q0 -20 -21 -20h-391q-19 0 -23 18l-73 541q0 8 -11 8h-4q-10 0 -10 -10v-537q0 -20 -20 -20h-349zM143 1518l41 135q6 16 25 16h405
q19 0 25 -16l25 -82l22 80q4 18 23 18h235q23 0 17 -22l-41 -136q-6 -16 -25 -16h-406q-16 0 -22 18l-25 95l-24 -95q-6 -18 -23 -18h-235q-11 0 -15.5 6.5t-1.5 16.5z" />
    <glyph glyph-name="ograve" unicode="&#xf2;" 
d="M150 0q-15 0 -25 10l-74 74q-10 10 -10 25v1216q0 15 10 25l74 73q11 11 25 11h663q14 0 25 -11l73 -73q11 -11 11 -25v-1216q0 -14 -11 -25l-73 -74q-10 -10 -25 -10h-663zM231 1645q-3 11 2 17.5t15 6.5h344q18 0 22 -18l37 -133q3 -10 -2 -16.5t-16 -6.5h-340
q-18 0 -23 16zM430 401q0 -20 21 -20h61q20 0 20 20v631q0 21 -20 21h-61q-9 0 -15 -6t-6 -15v-631z" />
    <glyph glyph-name="oacute" unicode="&#xf3;" 
d="M150 0q-15 0 -25 10l-74 74q-10 10 -10 25v1216q0 15 10 25l74 73q11 11 25 11h663q14 0 25 -11l73 -73q11 -11 11 -25v-1216q0 -14 -11 -25l-73 -74q-10 -10 -25 -10h-663zM301 1518l37 133q4 18 22 18h345q23 0 16 -24l-39 -134q-5 -16 -23 -16h-340q-11 0 -16 6.5
t-2 16.5zM430 401q0 -20 21 -20h61q20 0 20 20v631q0 21 -20 21h-61q-9 0 -15 -6t-6 -15v-631z" />
    <glyph glyph-name="ocircumflex" unicode="&#xf4;" 
d="M150 0q-15 0 -25 10l-74 74q-10 10 -10 25v1216q0 15 10 25l74 73q11 11 25 11h663q14 0 25 -11l73 -73q11 -11 11 -25v-1216q0 -14 -11 -25l-73 -74q-10 -10 -25 -10h-663zM182 1518l41 135q6 16 25 16h467q18 0 24 -16l41 -135q7 -23 -16 -23h-236q-16 0 -22 18l-25 95
l-24 -95q-6 -18 -23 -18h-235q-11 0 -15.5 6.5t-1.5 16.5zM430 401q0 -20 21 -20h61q20 0 20 20v631q0 21 -20 21h-61q-9 0 -15 -6t-6 -15v-631z" />
    <glyph glyph-name="otilde" unicode="&#xf5;" 
d="M150 0q-15 0 -25 10l-74 74q-10 10 -10 25v1216q0 15 10 25l74 73q11 11 25 11h663q14 0 25 -11l73 -73q11 -11 11 -25v-1216q0 -14 -11 -25l-73 -74q-10 -10 -25 -10h-663zM92 1518l41 135q6 16 25 16h405q19 0 25 -16l24 -82l23 80q4 18 22 18h236q22 0 16 -22
l-41 -136q-6 -16 -24 -16h-406q-16 0 -22 18l-25 95l-24 -95q-6 -18 -23 -18h-235q-11 0 -15.5 6.5t-1.5 16.5zM430 401q0 -20 21 -20h61q20 0 20 20v631q0 21 -20 21h-61q-9 0 -15 -6t-6 -15v-631z" />
    <glyph glyph-name="odieresis" unicode="&#xf6;" 
d="M150 0q-15 0 -25 10l-74 74q-10 10 -10 25v1216q0 15 10 25l74 73q11 11 25 11h663q14 0 25 -11l73 -73q11 -11 11 -25v-1216q0 -14 -11 -25l-73 -74q-10 -10 -25 -10h-663zM186 1649q0 20 19 20h246q18 0 18 -20l-10 -133q0 -9 -7 -15t-16 -6h-217q-9 0 -15.5 6t-6.5 15
zM430 401q0 -20 21 -20h61q20 0 20 20v631q0 21 -20 21h-61q-9 0 -15 -6t-6 -15v-631zM494 1649q0 20 18 20h246q18 0 18 -20l-10 -133q0 -9 -7 -15t-16 -6h-217q-9 0 -15.5 6t-6.5 15z" />
    <glyph glyph-name="divide" unicode="&#xf7;" horiz-adv-x="819" 
d="M61 518q-20 0 -20 21v338q0 20 20 20h697q20 0 20 -20v-338q0 -21 -20 -21h-697zM209 102v291q0 20 11.5 32.5t31.5 12.5h315q20 0 31.5 -12.5t11.5 -32.5v-291q0 -20 -11.5 -32.5t-31.5 -12.5h-315q-20 0 -31.5 12.5t-11.5 32.5zM209 1024v291q0 20 11.5 32.5t31.5 12.5
h315q20 0 31.5 -12.5t11.5 -32.5v-291q0 -20 -11.5 -32.5t-31.5 -12.5h-315q-20 0 -31.5 12.5t-11.5 32.5z" />
    <glyph glyph-name="oslash" unicode="&#xf8;" 
d="M150 0q-15 0 -25 10l-74 74q-10 10 -10 25v1216q0 15 10 25l74 73q11 11 25 11h663q14 0 25 -11l73 -73q11 -11 11 -25v-1216q0 -14 -11 -25l-73 -74q-10 -10 -25 -10h-663zM430 401q0 -20 21 -20h61q20 0 20 20v197l-102 -154v-43zM430 846l102 149v37q0 21 -20 21h-61
q-9 0 -15 -6t-6 -15v-186z" />
    <glyph glyph-name="ugrave" unicode="&#xf9;" 
d="M150 0q-15 0 -25 10l-74 74q-10 10 -10 25v1304q0 21 20 21h349q20 0 20 -21v-1022q0 -10 10 -10h82q10 0 10 10v1022q0 9 6 15t15 6h348q9 0 15 -6t6 -15v-1304q0 -14 -11 -25l-73 -74q-10 -10 -25 -10h-663zM231 1645q-3 11 2 17.5t15 6.5h344q18 0 22 -18l37 -133
q3 -10 -2 -16.5t-16 -6.5h-340q-18 0 -23 16z" />
    <glyph glyph-name="uacute" unicode="&#xfa;" 
d="M150 0q-15 0 -25 10l-74 74q-10 10 -10 25v1304q0 21 20 21h349q20 0 20 -21v-1022q0 -10 10 -10h82q10 0 10 10v1022q0 9 6 15t15 6h348q9 0 15 -6t6 -15v-1304q0 -14 -11 -25l-73 -74q-10 -10 -25 -10h-663zM301 1518l37 133q4 18 22 18h345q23 0 16 -24l-39 -134
q-5 -16 -23 -16h-340q-11 0 -16 6.5t-2 16.5z" />
    <glyph glyph-name="ucircumflex" unicode="&#xfb;" 
d="M150 0q-15 0 -25 10l-74 74q-10 10 -10 25v1304q0 21 20 21h349q20 0 20 -21v-1022q0 -10 10 -10h82q10 0 10 10v1022q0 9 6 15t15 6h348q9 0 15 -6t6 -15v-1304q0 -14 -11 -25l-73 -74q-10 -10 -25 -10h-663zM182 1518l41 135q6 16 25 16h467q18 0 24 -16l41 -135
q7 -23 -16 -23h-236q-16 0 -22 18l-25 95l-24 -95q-6 -18 -23 -18h-235q-11 0 -15.5 6.5t-1.5 16.5z" />
    <glyph glyph-name="udieresis" unicode="&#xfc;" 
d="M150 0q-15 0 -25 10l-74 74q-10 10 -10 25v1304q0 21 20 21h349q20 0 20 -21v-1022q0 -10 10 -10h82q10 0 10 10v1022q0 9 6 15t15 6h348q9 0 15 -6t6 -15v-1304q0 -14 -11 -25l-73 -74q-10 -10 -25 -10h-663zM186 1649q0 20 19 20h246q18 0 18 -20l-10 -133q0 -9 -7 -15
t-16 -6h-217q-9 0 -15.5 6t-6.5 15zM494 1649q0 20 18 20h246q18 0 18 -20l-10 -133q0 -9 -7 -15t-16 -6h-217q-9 0 -15.5 6t-6.5 15z" />
    <glyph glyph-name="yacute" unicode="&#xfd;" horiz-adv-x="964" 
d="M51 465q-10 10 -10 24v924q0 21 20 21h349q20 0 20 -21v-678h105v678q0 21 20 21h348q9 0 15 -6t6 -15v-924q0 -13 -11 -24l-73 -74q-10 -10 -25 -10h-133v-358q0 -21 -20 -21h-349q-20 0 -20 21v358h-143q-15 0 -25 10zM303 1518l37 133q4 18 22 18h345q23 0 16 -24
l-39 -134q-5 -16 -22 -16h-340q-11 0 -16.5 6.5t-2.5 16.5z" />
    <glyph glyph-name="thorn" unicode="&#xfe;" horiz-adv-x="983" 
d="M61 0q-20 0 -20 20v1393q0 21 20 21h369q9 0 15 -6t6 -15v-147h383q13 0 24 -11l74 -73q10 -10 10 -25v-881q0 -14 -10 -24l-74 -74q-10 -10 -24 -10h-383v-148q0 -20 -21 -20h-369zM451 516h81q9 0 15 6t6 15v354q0 20 -21 20h-81v-395z" />
    <glyph glyph-name="ydieresis" unicode="&#xff;" horiz-adv-x="964" 
d="M51 465q-10 10 -10 24v924q0 21 20 21h349q20 0 20 -21v-678h105v678q0 21 20 21h348q9 0 15 -6t6 -15v-924q0 -13 -11 -24l-73 -74q-10 -10 -25 -10h-133v-358q0 -21 -20 -21h-349q-20 0 -20 21v358h-143q-15 0 -25 10zM188 1649q0 20 19 20h246q18 0 18 -20l-10 -133
q0 -9 -7 -15t-16 -6h-217q-9 0 -15.5 6t-6.5 15zM496 1649q0 20 18 20h246q18 0 18 -20l-10 -133q0 -9 -7 -15t-16 -6h-217q-9 0 -15.5 6t-6.5 15z" />
    <glyph glyph-name="Amacron" unicode="&#x100;" horiz-adv-x="983" 
d="M39 0q-9 0 -14.5 5.5t-4.5 14.5l121 1393q3 21 23 21h655q20 0 23 -21l121 -1393q1 -9 -4.5 -14.5t-14.5 -5.5h-348q-20 0 -23 20l-14 191h-133l-16 -191q-3 -20 -23 -20h-348zM209 1649q0 20 18 20h533q18 0 18 -20l-10 -133q0 -9 -7 -15t-16 -6h-503q-9 0 -16 6t-7 15z
M446 549h93l-31 504h-31z" />
    <glyph glyph-name="amacron" unicode="&#x101;" horiz-adv-x="983" 
d="M39 0q-9 0 -14.5 5.5t-4.5 14.5l121 1393q3 21 23 21h655q20 0 23 -21l121 -1393q1 -9 -4.5 -14.5t-14.5 -5.5h-348q-20 0 -23 20l-14 191h-133l-16 -191q-3 -20 -23 -20h-348zM209 1649q0 20 18 20h533q18 0 18 -20l-10 -133q0 -9 -7 -15t-16 -6h-503q-9 0 -16 6t-7 15z
M446 549h93l-31 504h-31z" />
    <glyph glyph-name="Abreve" unicode="&#x102;" horiz-adv-x="983" 
d="M39 0q-9 0 -14.5 5.5t-4.5 14.5l121 1393q3 21 23 21h655q20 0 23 -21l121 -1393q1 -9 -4.5 -14.5t-14.5 -5.5h-348q-20 0 -23 20l-14 191h-133l-16 -191q-3 -20 -23 -20h-348zM166 1645q-4 10 0.5 17t15.5 7h236q16 0 24 -14l35 -66q3 -8 12 -8h9q9 0 12 8l35 66
q8 14 24 14h236q11 0 15.5 -7t0.5 -17l-59 -134q-8 -16 -23 -16h-491q-15 0 -23 16zM446 549h93l-31 504h-31z" />
    <glyph glyph-name="abreve" unicode="&#x103;" horiz-adv-x="983" 
d="M39 0q-9 0 -14.5 5.5t-4.5 14.5l121 1393q3 21 23 21h655q20 0 23 -21l121 -1393q1 -9 -4.5 -14.5t-14.5 -5.5h-348q-20 0 -23 20l-14 191h-133l-16 -191q-3 -20 -23 -20h-348zM166 1645q-4 10 0.5 17t15.5 7h236q16 0 24 -14l35 -66q3 -8 12 -8h9q9 0 12 8l35 66
q8 14 24 14h236q11 0 15.5 -7t0.5 -17l-59 -134q-8 -16 -23 -16h-491q-15 0 -23 16zM446 549h93l-31 504h-31z" />
    <glyph glyph-name="Aogonek" unicode="&#x104;" horiz-adv-x="983" 
d="M39 0q-9 0 -14.5 5.5t-4.5 14.5l121 1393q3 21 23 21h655q20 0 23 -21l121 -1393q1 -9 -4.5 -14.5t-14.5 -5.5v-72q0 -19 -18 -22l-176 -25l176 -24q18 -3 18 -23v-113q0 -19 -22 -16l-340 41q-7 1 -12 9t-5 16v180q0 8 5 15.5t12 8.5l184 25h-170q-20 0 -23 20l-14 191
h-133l-16 -191q-3 -20 -23 -20h-348zM446 549h93l-31 504h-31z" />
    <glyph glyph-name="aogonek" unicode="&#x105;" horiz-adv-x="983" 
d="M39 0q-9 0 -14.5 5.5t-4.5 14.5l121 1393q3 21 23 21h655q20 0 23 -21l121 -1393q1 -9 -4.5 -14.5t-14.5 -5.5v-72q0 -19 -18 -22l-176 -25l176 -24q18 -3 18 -23v-113q0 -19 -22 -16l-340 41q-7 1 -12 9t-5 16v180q0 8 5 15.5t12 8.5l184 25h-170q-20 0 -23 20l-14 191
h-133l-16 -191q-3 -20 -23 -20h-348zM446 549h93l-31 504h-31z" />
    <glyph glyph-name="Cacute" unicode="&#x106;" 
d="M150 0q-15 0 -25 10l-74 74q-10 10 -10 25v1216q0 15 10 25l74 73q11 11 25 11h663q14 0 25 -11l73 -73q11 -11 11 -25v-537q0 -20 -21 -20h-348q-21 0 -21 20v244q0 21 -20 21h-61q-9 0 -15 -6t-6 -15v-631q0 -20 21 -20h61q20 0 20 20v246q0 9 6 15t15 6h348q9 0 15 -6
t6 -15v-538q0 -14 -11 -25l-73 -74q-10 -10 -25 -10h-663zM301 1518l37 133q4 18 22 18h345q23 0 16 -24l-39 -134q-5 -16 -23 -16h-340q-11 0 -16 6.5t-2 16.5z" />
    <glyph glyph-name="cacute" unicode="&#x107;" 
d="M150 0q-15 0 -25 10l-74 74q-10 10 -10 25v1216q0 15 10 25l74 73q11 11 25 11h663q14 0 25 -11l73 -73q11 -11 11 -25v-537q0 -20 -21 -20h-348q-21 0 -21 20v244q0 21 -20 21h-61q-9 0 -15 -6t-6 -15v-631q0 -20 21 -20h61q20 0 20 20v246q0 9 6 15t15 6h348q9 0 15 -6
t6 -15v-538q0 -14 -11 -25l-73 -74q-10 -10 -25 -10h-663zM301 1518l37 133q4 18 22 18h345q23 0 16 -24l-39 -134q-5 -16 -23 -16h-340q-11 0 -16 6.5t-2 16.5z" />
    <glyph glyph-name="Cdotaccent" unicode="&#x10a;" 
d="M150 0q-15 0 -25 10l-74 74q-10 10 -10 25v1216q0 15 10 25l74 73q11 11 25 11h663q14 0 25 -11l73 -73q11 -11 11 -25v-537q0 -20 -21 -20h-348q-21 0 -21 20v244q0 21 -20 21h-61q-9 0 -15 -6t-6 -15v-631q0 -20 21 -20h61q20 0 20 20v246q0 9 6 15t15 6h348q9 0 15 -6
t6 -15v-538q0 -14 -11 -25l-73 -74q-10 -10 -25 -10h-663zM287 1516v133q0 20 20 20h348q21 0 21 -20v-133q0 -9 -6 -15t-15 -6h-348q-20 0 -20 21z" />
    <glyph glyph-name="cdotaccent" unicode="&#x10b;" 
d="M150 0q-15 0 -25 10l-74 74q-10 10 -10 25v1216q0 15 10 25l74 73q11 11 25 11h663q14 0 25 -11l73 -73q11 -11 11 -25v-537q0 -20 -21 -20h-348q-21 0 -21 20v244q0 21 -20 21h-61q-9 0 -15 -6t-6 -15v-631q0 -20 21 -20h61q20 0 20 20v246q0 9 6 15t15 6h348q9 0 15 -6
t6 -15v-538q0 -14 -11 -25l-73 -74q-10 -10 -25 -10h-663zM287 1516v133q0 20 20 20h348q21 0 21 -20v-133q0 -9 -6 -15t-15 -6h-348q-20 0 -20 21z" />
    <glyph glyph-name="Ccaron" unicode="&#x10c;" 
d="M150 0q-15 0 -25 10l-74 74q-10 10 -10 25v1216q0 15 10 25l74 73q11 11 25 11h663q14 0 25 -11l73 -73q11 -11 11 -25v-537q0 -20 -21 -20h-348q-21 0 -21 20v244q0 21 -20 21h-61q-9 0 -15 -6t-6 -15v-631q0 -20 21 -20h61q20 0 20 20v246q0 9 6 15t15 6h348q9 0 15 -6
t6 -15v-538q0 -14 -11 -25l-73 -74q-10 -10 -25 -10h-663zM182 1647q-6 22 17 22h235q17 0 23 -18l24 -95l25 95q6 18 22 18h236q22 0 16 -22l-41 -136q-6 -16 -24 -16h-467q-19 0 -25 16z" />
    <glyph glyph-name="ccaron" unicode="&#x10d;" 
d="M150 0q-15 0 -25 10l-74 74q-10 10 -10 25v1216q0 15 10 25l74 73q11 11 25 11h663q14 0 25 -11l73 -73q11 -11 11 -25v-537q0 -20 -21 -20h-348q-21 0 -21 20v244q0 21 -20 21h-61q-9 0 -15 -6t-6 -15v-631q0 -20 21 -20h61q20 0 20 20v246q0 9 6 15t15 6h348q9 0 15 -6
t6 -15v-538q0 -14 -11 -25l-73 -74q-10 -10 -25 -10h-663zM182 1647q-6 22 17 22h235q17 0 23 -18l24 -95l25 95q6 18 22 18h236q22 0 16 -22l-41 -136q-6 -16 -24 -16h-467q-19 0 -25 16z" />
    <glyph glyph-name="Dcaron" unicode="&#x10e;" 
d="M61 0q-20 0 -20 20v1393q0 21 20 21h752q14 0 25 -11l73 -73q11 -11 11 -25v-1216q0 -14 -11 -25l-73 -74q-10 -10 -25 -10h-752zM182 1647q-6 22 17 22h235q17 0 23 -18l24 -95l25 95q6 18 22 18h236q22 0 16 -22l-41 -136q-6 -16 -24 -16h-467q-19 0 -25 16zM430 381
h82q20 0 20 20v631q0 21 -20 21h-82v-672z" />
    <glyph glyph-name="dcaron" unicode="&#x10f;" 
d="M61 0q-20 0 -20 20v1393q0 21 20 21h752q14 0 25 -11l73 -73q11 -11 11 -25v-1216q0 -14 -11 -25l-73 -74q-10 -10 -25 -10h-752zM182 1647q-6 22 17 22h235q17 0 23 -18l24 -95l25 95q6 18 22 18h236q22 0 16 -22l-41 -136q-6 -16 -24 -16h-467q-19 0 -25 16zM430 381
h82q20 0 20 20v631q0 21 -20 21h-82v-672z" />
    <glyph glyph-name="Dcroat" unicode="&#x110;" 
d="M0 526q-20 0 -20 21v317q0 21 20 21h41v528q0 21 20 21h752q14 0 25 -11l73 -73q11 -11 11 -25v-1216q0 -14 -11 -25l-73 -74q-10 -10 -25 -10h-752q-20 0 -20 20v506h-41zM430 381h82q20 0 20 20v631q0 21 -20 21h-82v-168h41q9 0 15 -6t6 -15v-317q0 -9 -6 -15t-15 -6
h-41v-145z" />
    <glyph glyph-name="dcroat" unicode="&#x111;" 
d="M61 0q-20 0 -20 20v1393q0 21 20 21h752q14 0 25 -11l73 -73q11 -11 11 -25v-1216q0 -14 -11 -25l-73 -74q-10 -10 -25 -10h-752zM430 381h82q20 0 20 20v125h-102v-145zM430 905h102v127q0 21 -20 21h-82v-148z" />
    <glyph glyph-name="Emacron" unicode="&#x112;" horiz-adv-x="829" 
d="M61 0q-20 0 -20 20v1393q0 21 20 21h707q20 0 20 -21v-381q0 -20 -16 -20h-321q-9 0 -15 -6t-6 -15v-100q0 -9 6 -15t15 -6h174q20 0 20 -20v-256q0 -21 -20 -21h-174q-21 0 -21 -20v-109q0 -20 21 -20h321q16 0 16 -21v-383q0 -20 -20 -20h-707zM152 1649q0 20 18 20
h532q19 0 19 -20l-10 -133q0 -9 -7 -15t-16 -6h-504q-9 0 -15.5 6t-6.5 15z" />
    <glyph glyph-name="emacron" unicode="&#x113;" horiz-adv-x="829" 
d="M61 0q-20 0 -20 20v1393q0 21 20 21h707q20 0 20 -21v-381q0 -20 -16 -20h-321q-9 0 -15 -6t-6 -15v-100q0 -9 6 -15t15 -6h174q20 0 20 -20v-256q0 -21 -20 -21h-174q-21 0 -21 -20v-109q0 -20 21 -20h321q16 0 16 -21v-383q0 -20 -20 -20h-707zM152 1649q0 20 18 20
h532q19 0 19 -20l-10 -133q0 -9 -7 -15t-16 -6h-504q-9 0 -15.5 6t-6.5 15z" />
    <glyph glyph-name="Edotaccent" unicode="&#x116;" horiz-adv-x="829" 
d="M61 0q-20 0 -20 20v1393q0 21 20 21h707q20 0 20 -21v-381q0 -20 -16 -20h-321q-9 0 -15 -6t-6 -15v-100q0 -9 6 -15t15 -6h174q20 0 20 -20v-256q0 -21 -20 -21h-174q-21 0 -21 -20v-109q0 -20 21 -20h321q16 0 16 -21v-383q0 -20 -20 -20h-707zM242 1516v133
q0 20 20 20h348q21 0 21 -20v-133q0 -9 -6 -15t-15 -6h-348q-20 0 -20 21z" />
    <glyph glyph-name="edotaccent" unicode="&#x117;" horiz-adv-x="829" 
d="M61 0q-20 0 -20 20v1393q0 21 20 21h707q20 0 20 -21v-381q0 -20 -16 -20h-321q-9 0 -15 -6t-6 -15v-100q0 -9 6 -15t15 -6h174q20 0 20 -20v-256q0 -21 -20 -21h-174q-21 0 -21 -20v-109q0 -20 21 -20h321q16 0 16 -21v-383q0 -20 -20 -20h-707zM242 1516v133
q0 20 20 20h348q21 0 21 -20v-133q0 -9 -6 -15t-15 -6h-348q-20 0 -20 21z" />
    <glyph glyph-name="Eogonek" unicode="&#x118;" horiz-adv-x="829" 
d="M61 0q-20 0 -20 20v1393q0 21 20 21h707q20 0 20 -21v-381q0 -20 -16 -20h-321q-9 0 -15 -6t-6 -15v-100q0 -9 6 -15t15 -6h174q20 0 20 -20v-256q0 -21 -20 -21h-174q-21 0 -21 -20v-109q0 -20 21 -20h321q16 0 16 -21v-383q0 -20 -20 -20v-72q0 -19 -18 -22l-177 -25
l177 -24q18 -3 18 -23v-113q0 -19 -23 -16l-339 41q-7 1 -12 9t-5 16v180q0 8 5 15.5t12 8.5l184 25h-529z" />
    <glyph glyph-name="eogonek" unicode="&#x119;" horiz-adv-x="829" 
d="M61 0q-20 0 -20 20v1393q0 21 20 21h707q20 0 20 -21v-381q0 -20 -16 -20h-321q-9 0 -15 -6t-6 -15v-100q0 -9 6 -15t15 -6h174q20 0 20 -20v-256q0 -21 -20 -21h-174q-21 0 -21 -20v-109q0 -20 21 -20h321q16 0 16 -21v-383q0 -20 -20 -20v-72q0 -19 -18 -22l-177 -25
l177 -24q18 -3 18 -23v-113q0 -19 -23 -16l-339 41q-7 1 -12 9t-5 16v180q0 8 5 15.5t12 8.5l184 25h-529z" />
    <glyph glyph-name="Ecaron" unicode="&#x11a;" horiz-adv-x="829" 
d="M61 0q-20 0 -20 20v1393q0 21 20 21h707q20 0 20 -21v-381q0 -20 -16 -20h-321q-9 0 -15 -6t-6 -15v-100q0 -9 6 -15t15 -6h174q20 0 20 -20v-256q0 -21 -20 -21h-174q-21 0 -21 -20v-109q0 -20 21 -20h321q16 0 16 -21v-383q0 -20 -20 -20h-707zM137 1647q-6 22 17 22
h235q17 0 23 -18l24 -95l25 95q6 18 22 18h236q22 0 16 -22l-41 -136q-6 -16 -24 -16h-467q-19 0 -25 16z" />
    <glyph glyph-name="ecaron" unicode="&#x11b;" horiz-adv-x="829" 
d="M61 0q-20 0 -20 20v1393q0 21 20 21h707q20 0 20 -21v-381q0 -20 -16 -20h-321q-9 0 -15 -6t-6 -15v-100q0 -9 6 -15t15 -6h174q20 0 20 -20v-256q0 -21 -20 -21h-174q-21 0 -21 -20v-109q0 -20 21 -20h321q16 0 16 -21v-383q0 -20 -20 -20h-707zM137 1647q-6 22 17 22
h235q17 0 23 -18l24 -95l25 95q6 18 22 18h236q22 0 16 -22l-41 -136q-6 -16 -24 -16h-467q-19 0 -25 16z" />
    <glyph glyph-name="Gbreve" unicode="&#x11e;" horiz-adv-x="964" 
d="M150 0q-15 0 -25 10l-74 74q-10 10 -10 25v1216q0 15 10 25l74 73q11 11 25 11h661q14 0 25 -11l75 -73q11 -11 11 -25v-393q0 -9 -6 -15t-15 -6h-348q-9 0 -15 6t-6 15v100q0 21 -20 21h-61q-9 0 -15 -6t-6 -15v-631q0 -20 21 -20h61q20 0 20 20v156q0 10 -10 10h-26
q-9 0 -15 6t-6 15v235q0 9 6 15t15 6h407q9 0 15 -6t6 -15v-714q0 -14 -11 -25l-73 -74q-10 -10 -25 -10h-665zM156 1645q-4 10 0.5 17t15.5 7h236q16 0 24 -14l35 -66q3 -8 12 -8h8q10 0 13 8l35 66q8 14 24 14h236q11 0 15.5 -7t0.5 -17l-59 -134q-8 -16 -23 -16h-491
q-15 0 -23 16z" />
    <glyph glyph-name="gbreve" unicode="&#x11f;" horiz-adv-x="964" 
d="M150 0q-15 0 -25 10l-74 74q-10 10 -10 25v1216q0 15 10 25l74 73q11 11 25 11h661q14 0 25 -11l75 -73q11 -11 11 -25v-393q0 -9 -6 -15t-15 -6h-348q-9 0 -15 6t-6 15v100q0 21 -20 21h-61q-9 0 -15 -6t-6 -15v-631q0 -20 21 -20h61q20 0 20 20v156q0 10 -10 10h-26
q-9 0 -15 6t-6 15v235q0 9 6 15t15 6h407q9 0 15 -6t6 -15v-714q0 -14 -11 -25l-73 -74q-10 -10 -25 -10h-665zM156 1645q-4 10 0.5 17t15.5 7h236q16 0 24 -14l35 -66q3 -8 12 -8h8q10 0 13 8l35 66q8 14 24 14h236q11 0 15.5 -7t0.5 -17l-59 -134q-8 -16 -23 -16h-491
q-15 0 -23 16z" />
    <glyph glyph-name="Gdotaccent" unicode="&#x120;" horiz-adv-x="964" 
d="M150 0q-15 0 -25 10l-74 74q-10 10 -10 25v1216q0 15 10 25l74 73q11 11 25 11h661q14 0 25 -11l75 -73q11 -11 11 -25v-393q0 -9 -6 -15t-15 -6h-348q-9 0 -15 6t-6 15v100q0 21 -20 21h-61q-9 0 -15 -6t-6 -15v-631q0 -20 21 -20h61q20 0 20 20v156q0 10 -10 10h-26
q-9 0 -15 6t-6 15v235q0 9 6 15t15 6h407q9 0 15 -6t6 -15v-714q0 -14 -11 -25l-73 -74q-10 -10 -25 -10h-665zM289 1516v133q0 20 20 20h348q21 0 21 -20v-133q0 -9 -6 -15t-15 -6h-348q-20 0 -20 21z" />
    <glyph glyph-name="gdotaccent" unicode="&#x121;" horiz-adv-x="964" 
d="M150 0q-15 0 -25 10l-74 74q-10 10 -10 25v1216q0 15 10 25l74 73q11 11 25 11h661q14 0 25 -11l75 -73q11 -11 11 -25v-393q0 -9 -6 -15t-15 -6h-348q-9 0 -15 6t-6 15v100q0 21 -20 21h-61q-9 0 -15 -6t-6 -15v-631q0 -20 21 -20h61q20 0 20 20v156q0 10 -10 10h-26
q-9 0 -15 6t-6 15v235q0 9 6 15t15 6h407q9 0 15 -6t6 -15v-714q0 -14 -11 -25l-73 -74q-10 -10 -25 -10h-665zM289 1516v133q0 20 20 20h348q21 0 21 -20v-133q0 -9 -6 -15t-15 -6h-348q-20 0 -20 21z" />
    <glyph glyph-name="uni0122" unicode="&#x122;" horiz-adv-x="964" 
d="M150 0q-15 0 -25 10l-74 74q-10 10 -10 25v1216q0 15 10 25l74 73q11 11 25 11h661q14 0 25 -11l75 -73q11 -11 11 -25v-393q0 -9 -6 -15t-15 -6h-348q-9 0 -15 6t-6 15v100q0 21 -20 21h-61q-9 0 -15 -6t-6 -15v-631q0 -20 21 -20h61q20 0 20 20v156q0 10 -10 10h-26
q-9 0 -15 6t-6 15v235q0 9 6 15t15 6h407q9 0 15 -6t6 -15v-714q0 -14 -11 -25l-73 -74q-10 -10 -25 -10h-665zM248 -211l37 133q4 19 22 19h344q10 0 15 -7t2 -18l-39 -133q-5 -16 -23 -16h-340q-24 0 -18 22z" />
    <glyph glyph-name="uni0123" unicode="&#x123;" horiz-adv-x="964" 
d="M150 0q-15 0 -25 10l-74 74q-10 10 -10 25v1216q0 15 10 25l74 73q11 11 25 11h661q14 0 25 -11l75 -73q11 -11 11 -25v-393q0 -9 -6 -15t-15 -6h-348q-9 0 -15 6t-6 15v100q0 21 -20 21h-61q-9 0 -15 -6t-6 -15v-631q0 -20 21 -20h61q20 0 20 20v156q0 10 -10 10h-26
q-9 0 -15 6t-6 15v235q0 9 6 15t15 6h407q9 0 15 -6t6 -15v-714q0 -14 -11 -25l-73 -74q-10 -10 -25 -10h-665zM299 1520l39 133q5 16 22 16h340q25 0 19 -22l-37 -134q-4 -18 -23 -18h-344q-10 0 -14.5 7t-1.5 18z" />
    <glyph glyph-name="Hbar" unicode="&#x126;" horiz-adv-x="1005" 
d="M20 1034q-20 0 -20 21v235q0 21 20 21h21v102q0 21 20 21h349q20 0 20 -21v-102h105v102q0 21 20 21h348q9 0 15 -6t6 -15v-102h20q9 0 15 -6t6 -15v-235q0 -9 -6 -15t-15 -6h-20v-1011q0 -9 -6 -15t-15 -6h-348q-20 0 -20 21v528h-105v-531q0 -20 -20 -20h-349
q-20 0 -20 20v1014h-21zM430 909h105v125h-105v-125z" />
    <glyph glyph-name="hbar" unicode="&#x127;" horiz-adv-x="964" 
d="M61 0q-20 0 -20 20v1393q0 21 20 21h349q20 0 20 -21v-491h105v491q0 21 20 21h348q9 0 15 -6t6 -15v-1390q0 -9 -6 -15t-15 -6h-348q-20 0 -20 21v520h-105v-523q0 -20 -20 -20h-349z" />
    <glyph glyph-name="Imacron" unicode="&#x12a;" horiz-adv-x="532" 
d="M61 0q-20 0 -20 20v1393q0 21 20 21h410q9 0 15 -6t6 -15v-1393q0 -20 -21 -20h-410zM-16 1649q0 20 18 20h533q18 0 18 -20l-10 -133q0 -9 -7 -15t-16 -6h-504q-9 0 -15.5 6t-6.5 15z" />
    <glyph glyph-name="imacron" unicode="&#x12b;" horiz-adv-x="532" 
d="M61 0q-20 0 -20 20v1393q0 21 20 21h410q9 0 15 -6t6 -15v-1393q0 -20 -21 -20h-410zM-16 1649q0 20 18 20h533q18 0 18 -20l-10 -133q0 -9 -7 -15t-16 -6h-504q-9 0 -15.5 6t-6.5 15z" />
    <glyph glyph-name="Iogonek" unicode="&#x12e;" horiz-adv-x="532" 
d="M61 0q-20 0 -20 20v1393q0 21 20 21h410q9 0 15 -6t6 -15v-1393q0 -20 -21 -20v-72q0 -19 -18 -22l-177 -25l177 -24q18 -3 18 -23v-113q0 -19 -22 -16l-340 41q-7 1 -12 9t-5 16v180q0 8 5 15.5t12 8.5l184 25h-232z" />
    <glyph glyph-name="iogonek" unicode="&#x12f;" horiz-adv-x="532" 
d="M61 0q-20 0 -20 20v1393q0 21 20 21h410q9 0 15 -6t6 -15v-1393q0 -20 -21 -20v-72q0 -19 -18 -22l-177 -25l177 -24q18 -3 18 -23v-113q0 -19 -22 -16l-340 41q-7 1 -12 9t-5 16v180q0 8 5 15.5t12 8.5l184 25h-232z" />
    <glyph glyph-name="Idotaccent" unicode="&#x130;" horiz-adv-x="532" 
d="M61 0q-20 0 -20 20v1393q0 21 20 21h410q9 0 15 -6t6 -15v-1393q0 -20 -21 -20h-410zM74 1516v133q0 20 20 20h348q21 0 21 -20v-133q0 -9 -6 -15t-15 -6h-348q-20 0 -20 21z" />
    <glyph glyph-name="dotlessi" unicode="&#x131;" horiz-adv-x="532" 
d="M61 0q-20 0 -20 20v1393q0 21 20 21h410q9 0 15 -6t6 -15v-1393q0 -20 -21 -20h-410z" />
    <glyph glyph-name="IJ" unicode="&#x132;" horiz-adv-x="1155" 
d="M61 0q-20 0 -20 20v1393q0 21 20 21h410q9 0 15 -6t6 -15v-1055q0 21 16 21h197q20 0 20 20v1014q0 21 20 21h349q20 0 20 -21v-1304q0 -15 -10 -25l-74 -74q-10 -10 -24 -10h-498q-16 0 -16 20q0 -20 -21 -20h-410z" />
    <glyph glyph-name="ij" unicode="&#x133;" horiz-adv-x="989" 
d="M61 0q-20 0 -20 20v1393q0 21 20 21h410q9 0 15 -6t6 -15v-1034h47q20 0 20 20v1014q0 9 6 15t15 6h348q20 0 20 -21v-1304q0 -15 -10 -25l-74 -74q-10 -10 -24 -10h-779z" />
    <glyph glyph-name="uni0136" unicode="&#x136;" horiz-adv-x="1044" 
d="M61 0q-20 0 -20 20v1393q0 21 20 21h349q20 0 20 -21v-567l125 569q3 19 23 19h409q21 0 17 -23l-154 -682l192 -706q3 -10 -2 -16.5t-16 -6.5h-408q-19 0 -22 16l-164 574v-570q0 -20 -20 -20h-349zM258 -211l37 133q4 19 22 19h345q10 0 14.5 -7t1.5 -18l-39 -133
q-5 -16 -23 -16h-340q-24 0 -18 22z" />
    <glyph glyph-name="uni0137" unicode="&#x137;" horiz-adv-x="1044" 
d="M61 0q-20 0 -20 20v1393q0 21 20 21h349q20 0 20 -21v-567l125 569q3 19 23 19h409q21 0 17 -23l-154 -682l192 -706q3 -10 -2 -16.5t-16 -6.5h-408q-19 0 -22 16l-164 574v-570q0 -20 -20 -20h-349zM258 -211l37 133q4 19 22 19h345q10 0 14.5 -7t1.5 -18l-39 -133
q-5 -16 -23 -16h-340q-24 0 -18 22z" />
    <glyph glyph-name="Lacute" unicode="&#x139;" horiz-adv-x="788" 
d="M61 0q-20 0 -20 20v1393q0 21 20 21h390q20 0 20 -21v-1032h281q16 0 16 -21v-340q0 -20 -20 -20h-687zM82 1518l37 133q4 18 22 18h344q10 0 15 -6.5t2 -17.5l-39 -134q-5 -16 -23 -16h-340q-11 0 -16 6.5t-2 16.5z" />
    <glyph glyph-name="lacute" unicode="&#x13a;" horiz-adv-x="788" 
d="M61 0q-20 0 -20 20v1393q0 21 20 21h390q20 0 20 -21v-1032h281q16 0 16 -21v-340q0 -20 -20 -20h-687zM82 1518l37 133q4 18 22 18h344q10 0 15 -6.5t2 -17.5l-39 -134q-5 -16 -23 -16h-340q-11 0 -16 6.5t-2 16.5z" />
    <glyph glyph-name="uni013B" unicode="&#x13b;" horiz-adv-x="788" 
d="M61 0q-20 0 -20 20v1393q0 21 20 21h390q20 0 20 -21v-1032h281q16 0 16 -21v-340q0 -20 -20 -20h-687zM190 -211l37 133q4 19 23 19h344q10 0 14.5 -7t1.5 -18l-39 -133q-5 -16 -22 -16h-340q-25 0 -19 22z" />
    <glyph glyph-name="uni013C" unicode="&#x13c;" horiz-adv-x="788" 
d="M61 0q-20 0 -20 20v1393q0 21 20 21h390q20 0 20 -21v-1032h281q16 0 16 -21v-340q0 -20 -20 -20h-687zM190 -211l37 133q4 19 23 19h344q10 0 14.5 -7t1.5 -18l-39 -133q-5 -16 -22 -16h-340q-25 0 -19 22z" />
    <glyph glyph-name="Lcaron" unicode="&#x13d;" horiz-adv-x="788" 
d="M61 0q-20 0 -20 20v1393q0 21 20 21h390q20 0 20 -21v-1032h281q16 0 16 -21v-340q0 -20 -20 -20h-687zM-37 1647q-6 22 17 22h235q17 0 23 -18l24 -95l25 95q6 18 22 18h236q22 0 16 -22l-41 -136q-6 -16 -24 -16h-467q-19 0 -25 16z" />
    <glyph glyph-name="lcaron" unicode="&#x13e;" horiz-adv-x="788" 
d="M61 0q-20 0 -20 20v1393q0 21 20 21h390q20 0 20 -21v-1032h281q16 0 16 -21v-340q0 -20 -20 -20h-687zM-37 1647q-6 22 17 22h235q17 0 23 -18l24 -95l25 95q6 18 22 18h236q22 0 16 -22l-41 -136q-6 -16 -24 -16h-467q-19 0 -25 16z" />
    <glyph glyph-name="Lslash" unicode="&#x141;" horiz-adv-x="884" 
d="M66 487q-10 -6 -17.5 -2.5t-7.5 15.5v395q0 14 14 25l82 51v442q0 9 6 15t15 6h389q20 0 20 -21v-168l70 45q11 7 18 3.5t7 -15.5v-395q0 -14 -15 -25l-80 -51v-426h281q16 0 16 -21v-340q0 -20 -20 -20h-686q-21 0 -21 20v512z" />
    <glyph glyph-name="lslash" unicode="&#x142;" horiz-adv-x="884" 
d="M66 487q-10 -6 -17.5 -2.5t-7.5 15.5v395q0 14 14 25l82 51v442q0 9 6 15t15 6h389q20 0 20 -21v-168l70 45q11 7 18 3.5t7 -15.5v-395q0 -14 -15 -25l-80 -51v-426h281q16 0 16 -21v-340q0 -20 -20 -20h-686q-21 0 -21 20v512z" />
    <glyph glyph-name="Nacute" unicode="&#x143;" horiz-adv-x="1003" 
d="M61 0q-20 0 -20 20v1393q0 21 20 21h392q19 0 22 -19l74 -538q0 -9 12 -9h2q10 0 10 11v534q0 9 6 15t15 6h348q9 0 15 -6t6 -15v-1393q0 -20 -21 -20h-391q-19 0 -23 18l-73 541q0 8 -11 8h-4q-10 0 -10 -10v-537q0 -20 -20 -20h-349zM352 1518l37 133q4 18 23 18h344
q23 0 16 -24l-39 -134q-5 -16 -22 -16h-340q-11 0 -16.5 6.5t-2.5 16.5z" />
    <glyph glyph-name="nacute" unicode="&#x144;" horiz-adv-x="1003" 
d="M61 0q-20 0 -20 20v1393q0 21 20 21h392q19 0 22 -19l74 -538q0 -9 12 -9h2q10 0 10 11v534q0 9 6 15t15 6h348q9 0 15 -6t6 -15v-1393q0 -20 -21 -20h-391q-19 0 -23 18l-73 541q0 8 -11 8h-4q-10 0 -10 -10v-537q0 -20 -20 -20h-349zM352 1518l37 133q4 18 23 18h344
q23 0 16 -24l-39 -134q-5 -16 -22 -16h-340q-11 0 -16.5 6.5t-2.5 16.5z" />
    <glyph glyph-name="uni0145" unicode="&#x145;" horiz-adv-x="1003" 
d="M61 0q-20 0 -20 20v1393q0 21 20 21h392q19 0 22 -19l74 -538q0 -9 12 -9h2q10 0 10 11v534q0 9 6 15t15 6h348q9 0 15 -6t6 -15v-1393q0 -20 -21 -20h-391q-19 0 -23 18l-73 541q0 8 -11 8h-4q-10 0 -10 -10v-537q0 -20 -20 -20h-349zM297 -211l37 133q4 19 22 19h344
q10 0 15 -7t2 -18l-39 -133q-5 -16 -23 -16h-340q-24 0 -18 22z" />
    <glyph glyph-name="uni0146" unicode="&#x146;" horiz-adv-x="1003" 
d="M61 0q-20 0 -20 20v1393q0 21 20 21h392q19 0 22 -19l74 -538q0 -9 12 -9h2q10 0 10 11v534q0 9 6 15t15 6h348q9 0 15 -6t6 -15v-1393q0 -20 -21 -20h-391q-19 0 -23 18l-73 541q0 8 -11 8h-4q-10 0 -10 -10v-537q0 -20 -20 -20h-349zM297 -211l37 133q4 19 22 19h344
q10 0 15 -7t2 -18l-39 -133q-5 -16 -23 -16h-340q-24 0 -18 22z" />
    <glyph glyph-name="Ncaron" unicode="&#x147;" horiz-adv-x="1003" 
d="M61 0q-20 0 -20 20v1393q0 21 20 21h392q19 0 22 -19l74 -538q0 -9 12 -9h2q10 0 10 11v534q0 9 6 15t15 6h348q9 0 15 -6t6 -15v-1393q0 -20 -21 -20h-391q-19 0 -23 18l-73 541q0 8 -11 8h-4q-10 0 -10 -10v-537q0 -20 -20 -20h-349zM233 1647q-6 22 17 22h235
q17 0 23 -18l24 -95l25 95q6 18 23 18h235q22 0 16 -22l-40 -136q-6 -16 -25 -16h-467q-19 0 -25 16z" />
    <glyph glyph-name="ncaron" unicode="&#x148;" horiz-adv-x="1003" 
d="M61 0q-20 0 -20 20v1393q0 21 20 21h392q19 0 22 -19l74 -538q0 -9 12 -9h2q10 0 10 11v534q0 9 6 15t15 6h348q9 0 15 -6t6 -15v-1393q0 -20 -21 -20h-391q-19 0 -23 18l-73 541q0 8 -11 8h-4q-10 0 -10 -10v-537q0 -20 -20 -20h-349zM233 1647q-6 22 17 22h235
q17 0 23 -18l24 -95l25 95q6 18 23 18h235q22 0 16 -22l-40 -136q-6 -16 -25 -16h-467q-19 0 -25 16z" />
    <glyph glyph-name="Eng" unicode="&#x14a;" horiz-adv-x="1003" 
d="M322 -264q-15 0 -25 10l-74 74q-10 10 -10 24v101q0 20 20 20h281q9 0 15 -6t6 -14v-15q0 -20 20 -20h27q20 0 20 20v70l-147 559q-3 8 -11 8h-4q-10 0 -10 -10v-537q0 -20 -20 -20h-349q-20 0 -20 20v1393q0 21 20 21h392q19 0 22 -19l74 -538q0 -9 12 -9h2q10 0 10 11
v534q0 9 6 15t15 6h348q9 0 15 -6t6 -15v-1569q0 -13 -11 -24l-73 -74q-10 -10 -25 -10h-532z" />
    <glyph glyph-name="Eng" unicode="&#x14b;" horiz-adv-x="1003" 
d="M322 -264q-15 0 -25 10l-74 74q-10 10 -10 24v101q0 20 20 20h281q9 0 15 -6t6 -14v-15q0 -20 20 -20h27q20 0 20 20v70l-147 559q-3 8 -11 8h-4q-10 0 -10 -10v-537q0 -20 -20 -20h-349q-20 0 -20 20v1393q0 21 20 21h392q19 0 22 -19l74 -538q0 -9 12 -9h2q10 0 10 11
v534q0 9 6 15t15 6h348q9 0 15 -6t6 -15v-1569q0 -13 -11 -24l-73 -74q-10 -10 -25 -10h-532z" />
    <glyph glyph-name="Omacron" unicode="&#x14c;" 
d="M150 0q-15 0 -25 10l-74 74q-10 10 -10 25v1216q0 15 10 25l74 73q11 11 25 11h663q14 0 25 -11l73 -73q11 -11 11 -25v-1216q0 -14 -11 -25l-73 -74q-10 -10 -25 -10h-663zM197 1649q0 20 18 20h533q18 0 18 -20l-10 -133q0 -9 -7 -15t-16 -6h-504q-9 0 -15.5 6t-6.5 15
zM430 401q0 -20 21 -20h61q20 0 20 20v631q0 21 -20 21h-61q-9 0 -15 -6t-6 -15v-631z" />
    <glyph glyph-name="omacron" unicode="&#x14d;" 
d="M150 0q-15 0 -25 10l-74 74q-10 10 -10 25v1216q0 15 10 25l74 73q11 11 25 11h663q14 0 25 -11l73 -73q11 -11 11 -25v-1216q0 -14 -11 -25l-73 -74q-10 -10 -25 -10h-663zM197 1649q0 20 18 20h533q18 0 18 -20l-10 -133q0 -9 -7 -15t-16 -6h-504q-9 0 -15.5 6t-6.5 15
zM430 401q0 -20 21 -20h61q20 0 20 20v631q0 21 -20 21h-61q-9 0 -15 -6t-6 -15v-631z" />
    <glyph glyph-name="Ohungarumlaut" unicode="&#x150;" 
d="M150 0q-15 0 -25 10l-74 74q-10 10 -10 25v1216q0 15 10 25l74 73q11 11 25 11h663q14 0 25 -11l73 -73q11 -11 11 -25v-1216q0 -14 -11 -25l-73 -74q-10 -10 -25 -10h-663zM82 1518l37 133q4 18 22 18h344q10 0 15 -6.5t2 -17.5l-39 -134q-5 -16 -23 -16h-340
q-11 0 -16 6.5t-2 16.5zM430 401q0 -20 21 -20h61q20 0 20 20v631q0 21 -20 21h-61q-9 0 -15 -6t-6 -15v-631zM532 1518l37 133q4 18 23 18h344q23 0 16 -24l-39 -134q-5 -16 -22 -16h-340q-11 0 -16.5 6.5t-2.5 16.5z" />
    <glyph glyph-name="ohungarumlaut" unicode="&#x151;" 
d="M150 0q-15 0 -25 10l-74 74q-10 10 -10 25v1216q0 15 10 25l74 73q11 11 25 11h663q14 0 25 -11l73 -73q11 -11 11 -25v-1216q0 -14 -11 -25l-73 -74q-10 -10 -25 -10h-663zM82 1518l37 133q4 18 22 18h344q10 0 15 -6.5t2 -17.5l-39 -134q-5 -16 -23 -16h-340
q-11 0 -16 6.5t-2 16.5zM430 401q0 -20 21 -20h61q20 0 20 20v631q0 21 -20 21h-61q-9 0 -15 -6t-6 -15v-631zM532 1518l37 133q4 18 23 18h344q23 0 16 -24l-39 -134q-5 -16 -22 -16h-340q-11 0 -16.5 6.5t-2.5 16.5z" />
    <glyph glyph-name="OE" unicode="&#x152;" horiz-adv-x="1320" 
d="M150 0q-15 0 -25 10l-74 74q-10 10 -10 25v1216q0 15 10 25l74 73q11 11 25 11h1110q20 0 20 -21v-381q0 -20 -16 -20h-322q-20 0 -20 -21v-100q0 -21 20 -21h174q21 0 21 -20v-256q0 -9 -6 -15t-15 -6h-174q-20 0 -20 -20v-109q0 -20 20 -20h322q16 0 16 -21v-383
q0 -20 -20 -20h-1110zM430 401q0 -20 21 -20h61q20 0 20 20v631q0 21 -20 21h-61q-9 0 -15 -6t-6 -15v-631z" />
    <glyph glyph-name="oe" unicode="&#x153;" horiz-adv-x="1320" 
d="M150 0q-15 0 -25 10l-74 74q-10 10 -10 25v1216q0 15 10 25l74 73q11 11 25 11h1110q20 0 20 -21v-381q0 -20 -16 -20h-322q-20 0 -20 -21v-100q0 -21 20 -21h174q21 0 21 -20v-256q0 -9 -6 -15t-15 -6h-174q-20 0 -20 -20v-109q0 -20 20 -20h322q16 0 16 -21v-383
q0 -20 -20 -20h-1110zM430 401q0 -20 21 -20h61q20 0 20 20v631q0 21 -20 21h-61q-9 0 -15 -6t-6 -15v-631z" />
    <glyph glyph-name="Racute" unicode="&#x154;" 
d="M61 0q-20 0 -20 20v1393q0 21 20 21h752q14 0 25 -11l73 -73q11 -11 11 -25v-635q0 -19 -9 -26l-73 -43q-6 -5 -6 -15t6 -14l73 -43q9 -7 9 -25v-504q0 -20 -21 -20h-348q-21 0 -21 20v330q0 21 -20 21h-82v-351q0 -20 -20 -20h-349zM301 1518l37 133q4 18 22 18h345
q23 0 16 -24l-39 -134q-5 -16 -23 -16h-340q-11 0 -16 6.5t-2 16.5zM430 776h82q20 0 20 21v235q0 21 -20 21h-82v-277z" />
    <glyph glyph-name="racute" unicode="&#x155;" 
d="M61 0q-20 0 -20 20v1393q0 21 20 21h752q14 0 25 -11l73 -73q11 -11 11 -25v-635q0 -19 -9 -26l-73 -43q-6 -5 -6 -15t6 -14l73 -43q9 -7 9 -25v-504q0 -20 -21 -20h-348q-21 0 -21 20v330q0 21 -20 21h-82v-351q0 -20 -20 -20h-349zM301 1518l37 133q4 18 22 18h345
q23 0 16 -24l-39 -134q-5 -16 -23 -16h-340q-11 0 -16 6.5t-2 16.5zM430 776h82q20 0 20 21v235q0 21 -20 21h-82v-277z" />
    <glyph glyph-name="uni0156" unicode="&#x156;" 
d="M61 0q-20 0 -20 20v1393q0 21 20 21h752q14 0 25 -11l73 -73q11 -11 11 -25v-635q0 -19 -9 -26l-73 -43q-6 -5 -6 -15t6 -14l73 -43q9 -7 9 -25v-504q0 -20 -21 -20h-348q-21 0 -21 20v330q0 21 -20 21h-82v-351q0 -20 -20 -20h-349zM246 -211l37 133q4 19 22 19h344
q10 0 15 -7t2 -18l-39 -133q-5 -16 -23 -16h-340q-24 0 -18 22zM430 776h82q20 0 20 21v235q0 21 -20 21h-82v-277z" />
    <glyph glyph-name="uni0157" unicode="&#x157;" 
d="M61 0q-20 0 -20 20v1393q0 21 20 21h752q14 0 25 -11l73 -73q11 -11 11 -25v-635q0 -19 -9 -26l-73 -43q-6 -5 -6 -15t6 -14l73 -43q9 -7 9 -25v-504q0 -20 -21 -20h-348q-21 0 -21 20v330q0 21 -20 21h-82v-351q0 -20 -20 -20h-349zM246 -211l37 133q4 19 22 19h344
q10 0 15 -7t2 -18l-39 -133q-5 -16 -23 -16h-340q-24 0 -18 22zM430 776h82q20 0 20 21v235q0 21 -20 21h-82v-277z" />
    <glyph glyph-name="Rcaron" unicode="&#x158;" 
d="M61 0q-20 0 -20 20v1393q0 21 20 21h752q14 0 25 -11l73 -73q11 -11 11 -25v-635q0 -19 -9 -26l-73 -43q-6 -5 -6 -15t6 -14l73 -43q9 -7 9 -25v-504q0 -20 -21 -20h-348q-21 0 -21 20v330q0 21 -20 21h-82v-351q0 -20 -20 -20h-349zM182 1647q-6 22 17 22h235
q17 0 23 -18l24 -95l25 95q6 18 22 18h236q22 0 16 -22l-41 -136q-6 -16 -24 -16h-467q-19 0 -25 16zM430 776h82q20 0 20 21v235q0 21 -20 21h-82v-277z" />
    <glyph glyph-name="rcaron" unicode="&#x159;" 
d="M61 0q-20 0 -20 20v1393q0 21 20 21h752q14 0 25 -11l73 -73q11 -11 11 -25v-635q0 -19 -9 -26l-73 -43q-6 -5 -6 -15t6 -14l73 -43q9 -7 9 -25v-504q0 -20 -21 -20h-348q-21 0 -21 20v330q0 21 -20 21h-82v-351q0 -20 -20 -20h-349zM182 1647q-6 22 17 22h235
q17 0 23 -18l24 -95l25 95q6 18 22 18h236q22 0 16 -22l-41 -136q-6 -16 -24 -16h-467q-19 0 -25 16zM430 776h82q20 0 20 21v235q0 21 -20 21h-82v-277z" />
    <glyph glyph-name="Sacute" unicode="&#x15a;" 
d="M150 0q-15 0 -25 10l-74 74q-10 10 -10 25v374q0 21 20 21h349q20 0 20 -21v-92q0 -10 10 -10h82q10 0 10 10v158q0 20 -20 20h-362q-14 0 -25 11l-74 73q-10 10 -10 25v647q0 15 10 25l74 73q11 11 25 11h661q14 0 25 -11l75 -73q11 -11 11 -25v-373q0 -20 -21 -20h-348
q-21 0 -21 20v90q0 11 -10 11h-82q-10 0 -10 -11v-151q0 -9 6 -15t15 -6h362q15 0 25 -10l73 -74q11 -11 11 -24v-653q0 -14 -11 -25l-75 -74q-10 -10 -25 -10h-661zM301 1518l37 133q4 18 22 18h345q23 0 16 -24l-39 -134q-5 -16 -23 -16h-340q-11 0 -16 6.5t-2 16.5z" />
    <glyph glyph-name="sacute" unicode="&#x15b;" 
d="M150 0q-15 0 -25 10l-74 74q-10 10 -10 25v374q0 21 20 21h349q20 0 20 -21v-92q0 -10 10 -10h82q10 0 10 10v158q0 20 -20 20h-362q-14 0 -25 11l-74 73q-10 10 -10 25v647q0 15 10 25l74 73q11 11 25 11h661q14 0 25 -11l75 -73q11 -11 11 -25v-373q0 -20 -21 -20h-348
q-21 0 -21 20v90q0 11 -10 11h-82q-10 0 -10 -11v-151q0 -9 6 -15t15 -6h362q15 0 25 -10l73 -74q11 -11 11 -24v-653q0 -14 -11 -25l-75 -74q-10 -10 -25 -10h-661zM301 1518l37 133q4 18 22 18h345q23 0 16 -24l-39 -134q-5 -16 -23 -16h-340q-11 0 -16 6.5t-2 16.5z" />
    <glyph glyph-name="Scedilla" unicode="&#x15e;" 
d="M150 0q-15 0 -25 10l-74 74q-10 10 -10 25v374q0 21 20 21h349q20 0 20 -21v-92q0 -10 10 -10h82q10 0 10 10v158q0 20 -20 20h-362q-14 0 -25 11l-74 73q-10 10 -10 25v647q0 15 10 25l74 73q11 11 25 11h661q14 0 25 -11l75 -73q11 -11 11 -25v-373q0 -20 -21 -20h-348
q-21 0 -21 20v90q0 11 -10 11h-82q-10 0 -10 -11v-151q0 -9 6 -15t15 -6h362q15 0 25 -10l73 -74q11 -11 11 -24v-653q0 -14 -11 -25l-75 -74q-10 -10 -25 -10h-330l185 -25q16 -3 16 -24v-180q0 -22 -16 -25l-340 -41q-23 -3 -23 16v113q0 20 19 23l176 24l-176 25
q-19 3 -19 22v72h-153z" />
    <glyph glyph-name="scedilla" unicode="&#x15f;" 
d="M150 0q-15 0 -25 10l-74 74q-10 10 -10 25v374q0 21 20 21h349q20 0 20 -21v-92q0 -10 10 -10h82q10 0 10 10v158q0 20 -20 20h-362q-14 0 -25 11l-74 73q-10 10 -10 25v647q0 15 10 25l74 73q11 11 25 11h661q14 0 25 -11l75 -73q11 -11 11 -25v-373q0 -20 -21 -20h-348
q-21 0 -21 20v90q0 11 -10 11h-82q-10 0 -10 -11v-151q0 -9 6 -15t15 -6h362q15 0 25 -10l73 -74q11 -11 11 -24v-653q0 -14 -11 -25l-75 -74q-10 -10 -25 -10h-330l185 -25q16 -3 16 -24v-180q0 -22 -16 -25l-340 -41q-23 -3 -23 16v113q0 20 19 23l176 24l-176 25
q-19 3 -19 22v72h-153z" />
    <glyph glyph-name="Scaron" unicode="&#x160;" 
d="M150 0q-15 0 -25 10l-74 74q-10 10 -10 25v374q0 21 20 21h349q20 0 20 -21v-92q0 -10 10 -10h82q10 0 10 10v158q0 20 -20 20h-362q-14 0 -25 11l-74 73q-10 10 -10 25v647q0 15 10 25l74 73q11 11 25 11h661q14 0 25 -11l75 -73q11 -11 11 -25v-373q0 -20 -21 -20h-348
q-21 0 -21 20v90q0 11 -10 11h-82q-10 0 -10 -11v-151q0 -9 6 -15t15 -6h362q15 0 25 -10l73 -74q11 -11 11 -24v-653q0 -14 -11 -25l-75 -74q-10 -10 -25 -10h-661zM182 1647q-6 22 17 22h235q17 0 23 -18l24 -95l25 95q6 18 22 18h236q22 0 16 -22l-41 -136
q-6 -16 -24 -16h-467q-19 0 -25 16z" />
    <glyph glyph-name="scaron" unicode="&#x161;" 
d="M150 0q-15 0 -25 10l-74 74q-10 10 -10 25v374q0 21 20 21h349q20 0 20 -21v-92q0 -10 10 -10h82q10 0 10 10v158q0 20 -20 20h-362q-14 0 -25 11l-74 73q-10 10 -10 25v647q0 15 10 25l74 73q11 11 25 11h661q14 0 25 -11l75 -73q11 -11 11 -25v-373q0 -20 -21 -20h-348
q-21 0 -21 20v90q0 11 -10 11h-82q-10 0 -10 -11v-151q0 -9 6 -15t15 -6h362q15 0 25 -10l73 -74q11 -11 11 -24v-653q0 -14 -11 -25l-75 -74q-10 -10 -25 -10h-661zM182 1647q-6 22 17 22h235q17 0 23 -18l24 -95l25 95q6 18 22 18h236q22 0 16 -22l-41 -136
q-6 -16 -24 -16h-467q-19 0 -25 16z" />
    <glyph glyph-name="uni0162" unicode="&#x162;" horiz-adv-x="880" 
d="M256 0q-20 0 -20 20v1022q0 11 -11 11h-205q-20 0 -20 20v340q0 21 20 21h820q20 0 20 -21v-340q0 -20 -20 -20h-205q-10 0 -10 -11v-1022q0 -20 -21 -20h-174l184 -25q7 -1 12 -8.5t5 -15.5v-180q0 -8 -5 -16t-12 -9l-340 -41q-22 -3 -22 16v113q0 20 18 23l176 24
l-176 25q-18 3 -18 22v72h4z" />
    <glyph glyph-name="uni0163" unicode="&#x163;" horiz-adv-x="880" 
d="M256 0q-20 0 -20 20v1022q0 11 -11 11h-205q-20 0 -20 20v340q0 21 20 21h820q20 0 20 -21v-340q0 -20 -20 -20h-205q-10 0 -10 -11v-1022q0 -20 -21 -20h-174l184 -25q7 -1 12 -8.5t5 -15.5v-180q0 -8 -5 -16t-12 -9l-340 -41q-22 -3 -22 16v113q0 20 18 23l176 24
l-176 25q-18 3 -18 22v72h4z" />
    <glyph glyph-name="Tcaron" unicode="&#x164;" horiz-adv-x="880" 
d="M256 0q-20 0 -20 20v1022q0 11 -11 11h-205q-20 0 -20 20v340q0 21 20 21h820q20 0 20 -21v-340q0 -20 -20 -20h-205q-10 0 -10 -11v-1022q0 -20 -21 -20h-348zM131 1647q-6 22 16 22h236q17 0 23 -18l24 -95l25 95q6 18 22 18h236q22 0 16 -22l-41 -136q-6 -16 -24 -16
h-467q-19 0 -25 16z" />
    <glyph glyph-name="tcaron" unicode="&#x165;" horiz-adv-x="880" 
d="M256 0q-20 0 -20 20v1022q0 11 -11 11h-205q-20 0 -20 20v340q0 21 20 21h820q20 0 20 -21v-340q0 -20 -20 -20h-205q-10 0 -10 -11v-1022q0 -20 -21 -20h-348zM131 1647q-6 22 16 22h236q17 0 23 -18l24 -95l25 95q6 18 22 18h236q22 0 16 -22l-41 -136q-6 -16 -24 -16
h-467q-19 0 -25 16z" />
    <glyph glyph-name="Tbar" unicode="&#x166;" horiz-adv-x="860" 
d="M72 465q-21 0 -21 20v297q0 9 6 15t15 6h164v239q0 11 -11 11h-205q-20 0 -20 20v340q0 21 20 21h820q20 0 20 -21v-340q0 -20 -20 -20h-205q-10 0 -10 -11v-239h163q9 0 15 -6t6 -15v-297q0 -20 -21 -20h-163v-445q0 -20 -21 -20h-348q-20 0 -20 20v445h-164z" />
    <glyph glyph-name="Tbar" unicode="&#x167;" horiz-adv-x="860" 
d="M72 465q-21 0 -21 20v297q0 9 6 15t15 6h164v239q0 11 -11 11h-205q-20 0 -20 20v340q0 21 20 21h820q20 0 20 -21v-340q0 -20 -20 -20h-205q-10 0 -10 -11v-239h163q9 0 15 -6t6 -15v-297q0 -20 -21 -20h-163v-445q0 -20 -21 -20h-348q-20 0 -20 20v445h-164z" />
    <glyph glyph-name="Umacron" unicode="&#x16a;" 
d="M150 0q-15 0 -25 10l-74 74q-10 10 -10 25v1304q0 21 20 21h349q20 0 20 -21v-1022q0 -10 10 -10h82q10 0 10 10v1022q0 9 6 15t15 6h348q9 0 15 -6t6 -15v-1304q0 -14 -11 -25l-73 -74q-10 -10 -25 -10h-663zM197 1649q0 20 18 20h533q18 0 18 -20l-10 -133q0 -9 -7 -15
t-16 -6h-504q-9 0 -15.5 6t-6.5 15z" />
    <glyph glyph-name="umacron" unicode="&#x16b;" 
d="M150 0q-15 0 -25 10l-74 74q-10 10 -10 25v1304q0 21 20 21h349q20 0 20 -21v-1022q0 -10 10 -10h82q10 0 10 10v1022q0 9 6 15t15 6h348q9 0 15 -6t6 -15v-1304q0 -14 -11 -25l-73 -74q-10 -10 -25 -10h-663zM197 1649q0 20 18 20h533q18 0 18 -20l-10 -133q0 -9 -7 -15
t-16 -6h-504q-9 0 -15.5 6t-6.5 15z" />
    <glyph glyph-name="Uring" unicode="&#x16e;" 
d="M150 0q-15 0 -25 10l-74 74q-10 10 -10 25v1304q0 21 20 21h349q20 0 20 -21v-1022q0 -10 10 -10h82q10 0 10 10v1022q0 9 6 15t15 6h348q9 0 15 -6t6 -15v-1304q0 -14 -11 -25l-73 -74q-10 -10 -25 -10h-663zM248 1649q0 20 18 20h430q19 0 19 -20l-10 -133q0 -9 -7 -15
t-16 -6h-401q-9 0 -16 6t-7 15z" />
    <glyph glyph-name="uring" unicode="&#x16f;" 
d="M150 0q-15 0 -25 10l-74 74q-10 10 -10 25v1304q0 21 20 21h349q20 0 20 -21v-1022q0 -10 10 -10h82q10 0 10 10v1022q0 9 6 15t15 6h348q9 0 15 -6t6 -15v-1304q0 -14 -11 -25l-73 -74q-10 -10 -25 -10h-663zM248 1649q0 20 18 20h430q19 0 19 -20l-10 -133q0 -9 -7 -15
t-16 -6h-401q-9 0 -16 6t-7 15z" />
    <glyph glyph-name="Uhungarumlaut" unicode="&#x170;" 
d="M150 0q-15 0 -25 10l-74 74q-10 10 -10 25v1304q0 21 20 21h349q20 0 20 -21v-1022q0 -10 10 -10h82q10 0 10 10v1022q0 9 6 15t15 6h348q9 0 15 -6t6 -15v-1304q0 -14 -11 -25l-73 -74q-10 -10 -25 -10h-663zM82 1518l37 133q4 18 22 18h344q10 0 15 -6.5t2 -17.5
l-39 -134q-5 -16 -23 -16h-340q-11 0 -16 6.5t-2 16.5zM532 1518l37 133q4 18 23 18h344q23 0 16 -24l-39 -134q-5 -16 -22 -16h-340q-11 0 -16.5 6.5t-2.5 16.5z" />
    <glyph glyph-name="uhungarumlaut" unicode="&#x171;" 
d="M150 0q-15 0 -25 10l-74 74q-10 10 -10 25v1304q0 21 20 21h349q20 0 20 -21v-1022q0 -10 10 -10h82q10 0 10 10v1022q0 9 6 15t15 6h348q9 0 15 -6t6 -15v-1304q0 -14 -11 -25l-73 -74q-10 -10 -25 -10h-663zM82 1518l37 133q4 18 22 18h344q10 0 15 -6.5t2 -17.5
l-39 -134q-5 -16 -23 -16h-340q-11 0 -16 6.5t-2 16.5zM532 1518l37 133q4 18 23 18h344q23 0 16 -24l-39 -134q-5 -16 -22 -16h-340q-11 0 -16.5 6.5t-2.5 16.5z" />
    <glyph glyph-name="Uogonek" unicode="&#x172;" 
d="M150 0q-15 0 -25 10l-74 74q-10 10 -10 25v1304q0 21 20 21h349q20 0 20 -21v-1022q0 -10 10 -10h82q10 0 10 10v1022q0 9 6 15t15 6h348q9 0 15 -6t6 -15v-1304q0 -14 -11 -25l-73 -74q-10 -10 -25 -10h-22v-72q0 -19 -19 -22l-176 -25l176 -24q19 -3 19 -23v-113
q0 -19 -23 -16l-340 41q-16 3 -16 25v180q0 21 16 24l184 25h-462z" />
    <glyph glyph-name="uogonek" unicode="&#x173;" 
d="M150 0q-15 0 -25 10l-74 74q-10 10 -10 25v1304q0 21 20 21h349q20 0 20 -21v-1022q0 -10 10 -10h82q10 0 10 10v1022q0 9 6 15t15 6h348q9 0 15 -6t6 -15v-1304q0 -14 -11 -25l-73 -74q-10 -10 -25 -10h-22v-72q0 -19 -19 -22l-176 -25l176 -24q19 -3 19 -23v-113
q0 -19 -23 -16l-340 41q-16 3 -16 25v180q0 21 16 24l184 25h-462z" />
    <glyph glyph-name="Wcircumflex" unicode="&#x174;" horiz-adv-x="1212" 
d="M133 0q-19 0 -22 20l-121 1393q-3 21 18 21h328q20 0 20 -21l33 -651q0 -10 10 -10h13q10 0 10 10l41 651q0 21 20 21h246q23 0 23 -21l45 -653q0 -10 10 -10h12q10 0 10 10l27 653q0 21 21 21h327q22 0 19 -21l-121 -1393q-3 -20 -23 -20h-409q-21 0 -21 20l-28 517
q0 10 -11 10h-8q-10 0 -10 -10l-29 -517q0 -20 -20 -20h-410zM317 1518l41 135q6 16 25 16h467q18 0 24 -16l41 -135q7 -23 -16 -23h-235q-17 0 -23 18l-25 95l-24 -95q-6 -18 -23 -18h-235q-11 0 -15.5 6.5t-1.5 16.5z" />
    <glyph glyph-name="wcircumflex" unicode="&#x175;" horiz-adv-x="1212" 
d="M133 0q-19 0 -22 20l-121 1393q-3 21 18 21h328q20 0 20 -21l33 -651q0 -10 10 -10h13q10 0 10 10l41 651q0 21 20 21h246q23 0 23 -21l45 -653q0 -10 10 -10h12q10 0 10 10l27 653q0 21 21 21h327q22 0 19 -21l-121 -1393q-3 -20 -23 -20h-409q-21 0 -21 20l-28 517
q0 10 -11 10h-8q-10 0 -10 -10l-29 -517q0 -20 -20 -20h-410zM317 1518l41 135q6 16 25 16h467q18 0 24 -16l41 -135q7 -23 -16 -23h-235q-17 0 -23 18l-25 95l-24 -95q-6 -18 -23 -18h-235q-11 0 -15.5 6.5t-1.5 16.5z" />
    <glyph glyph-name="Ycircumflex" unicode="&#x176;" horiz-adv-x="964" 
d="M51 465q-10 10 -10 24v924q0 21 20 21h349q20 0 20 -21v-678h105v678q0 21 20 21h348q9 0 15 -6t6 -15v-924q0 -13 -11 -24l-73 -74q-10 -10 -25 -10h-133v-358q0 -21 -20 -21h-349q-20 0 -20 21v358h-143q-15 0 -25 10zM184 1518l41 135q6 16 25 16h467q18 0 24 -16
l41 -135q7 -23 -16 -23h-236q-16 0 -22 18l-25 95l-24 -95q-6 -18 -23 -18h-235q-11 0 -15.5 6.5t-1.5 16.5z" />
    <glyph glyph-name="ycircumflex" unicode="&#x177;" horiz-adv-x="964" 
d="M51 465q-10 10 -10 24v924q0 21 20 21h349q20 0 20 -21v-678h105v678q0 21 20 21h348q9 0 15 -6t6 -15v-924q0 -13 -11 -24l-73 -74q-10 -10 -25 -10h-133v-358q0 -21 -20 -21h-349q-20 0 -20 21v358h-143q-15 0 -25 10zM184 1518l41 135q6 16 25 16h467q18 0 24 -16
l41 -135q7 -23 -16 -23h-236q-16 0 -22 18l-25 95l-24 -95q-6 -18 -23 -18h-235q-11 0 -15.5 6.5t-1.5 16.5z" />
    <glyph glyph-name="Ydieresis" unicode="&#x178;" horiz-adv-x="964" 
d="M51 465q-10 10 -10 24v924q0 21 20 21h349q20 0 20 -21v-678h105v678q0 21 20 21h348q9 0 15 -6t6 -15v-924q0 -13 -11 -24l-73 -74q-10 -10 -25 -10h-133v-358q0 -21 -20 -21h-349q-20 0 -20 21v358h-143q-15 0 -25 10zM188 1649q0 20 19 20h246q18 0 18 -20l-10 -133
q0 -9 -7 -15t-16 -6h-217q-9 0 -15.5 6t-6.5 15zM496 1649q0 20 18 20h246q18 0 18 -20l-10 -133q0 -9 -7 -15t-16 -6h-217q-9 0 -15.5 6t-6.5 15z" />
    <glyph glyph-name="Zacute" unicode="&#x179;" horiz-adv-x="788" 
d="M23 0q-10 0 -15.5 7t-3.5 16l254 1019q3 11 -10 11h-197q-20 0 -20 20v340q0 21 20 21h715q10 0 15 -6.5t3 -16.5l-252 -1022q-1 -4 0.5 -6t4.5 -3t6 -1h194q9 0 15 -6t6 -15v-338q0 -20 -21 -20h-714zM250 1518l37 133q4 18 22 18h344q10 0 15 -6.5t2 -17.5l-39 -134
q-5 -16 -23 -16h-340q-11 0 -16 6.5t-2 16.5z" />
    <glyph glyph-name="zacute" unicode="&#x17a;" horiz-adv-x="788" 
d="M23 0q-10 0 -15.5 7t-3.5 16l254 1019q3 11 -10 11h-197q-20 0 -20 20v340q0 21 20 21h715q10 0 15 -6.5t3 -16.5l-252 -1022q-1 -4 0.5 -6t4.5 -3t6 -1h194q9 0 15 -6t6 -15v-338q0 -20 -21 -20h-714zM250 1518l37 133q4 18 22 18h344q10 0 15 -6.5t2 -17.5l-39 -134
q-5 -16 -23 -16h-340q-11 0 -16 6.5t-2 16.5z" />
    <glyph glyph-name="Zdotaccent" unicode="&#x17b;" horiz-adv-x="788" 
d="M23 0q-10 0 -15.5 7t-3.5 16l254 1019q3 11 -10 11h-197q-20 0 -20 20v340q0 21 20 21h715q10 0 15 -6.5t3 -16.5l-252 -1022q-1 -4 0.5 -6t4.5 -3t6 -1h194q9 0 15 -6t6 -15v-338q0 -20 -21 -20h-714zM236 1516v133q0 20 20 20h348q21 0 21 -20v-133q0 -9 -6 -15t-15 -6
h-348q-20 0 -20 21z" />
    <glyph glyph-name="zdotaccent" unicode="&#x17c;" horiz-adv-x="788" 
d="M23 0q-10 0 -15.5 7t-3.5 16l254 1019q3 11 -10 11h-197q-20 0 -20 20v340q0 21 20 21h715q10 0 15 -6.5t3 -16.5l-252 -1022q-1 -4 0.5 -6t4.5 -3t6 -1h194q9 0 15 -6t6 -15v-338q0 -20 -21 -20h-714zM236 1516v133q0 20 20 20h348q21 0 21 -20v-133q0 -9 -6 -15t-15 -6
h-348q-20 0 -20 21z" />
    <glyph glyph-name="Zcaron" unicode="&#x17d;" horiz-adv-x="788" 
d="M23 0q-10 0 -15.5 7t-3.5 16l254 1019q3 11 -10 11h-197q-20 0 -20 20v340q0 21 20 21h715q10 0 15 -6.5t3 -16.5l-252 -1022q-1 -4 0.5 -6t4.5 -3t6 -1h194q9 0 15 -6t6 -15v-338q0 -20 -21 -20h-714zM131 1647q-6 22 16 22h236q17 0 23 -18l24 -95l25 95q6 18 22 18
h236q22 0 16 -22l-41 -136q-6 -16 -24 -16h-467q-19 0 -25 16z" />
    <glyph glyph-name="zcaron" unicode="&#x17e;" horiz-adv-x="788" 
d="M23 0q-10 0 -15.5 7t-3.5 16l254 1019q3 11 -10 11h-197q-20 0 -20 20v340q0 21 20 21h715q10 0 15 -6.5t3 -16.5l-252 -1022q-1 -4 0.5 -6t4.5 -3t6 -1h194q9 0 15 -6t6 -15v-338q0 -20 -21 -20h-714zM131 1647q-6 22 16 22h236q17 0 23 -18l24 -95l25 95q6 18 22 18
h236q22 0 16 -22l-41 -136q-6 -16 -24 -16h-467q-19 0 -25 16z" />
    <glyph glyph-name="uni0218" unicode="&#x218;" 
d="M150 0q-15 0 -25 10l-74 74q-10 10 -10 25v374q0 21 20 21h349q20 0 20 -21v-92q0 -10 10 -10h82q10 0 10 10v158q0 20 -20 20h-362q-14 0 -25 11l-74 73q-10 10 -10 25v647q0 15 10 25l74 73q11 11 25 11h661q14 0 25 -11l75 -73q11 -11 11 -25v-373q0 -20 -21 -20h-348
q-21 0 -21 20v90q0 11 -10 11h-82q-10 0 -10 -11v-151q0 -9 6 -15t15 -6h362q15 0 25 -10l73 -74q11 -11 11 -24v-653q0 -14 -11 -25l-75 -74q-10 -10 -25 -10h-661zM246 -211l37 133q4 19 22 19h344q10 0 15 -7t2 -18l-39 -133q-5 -16 -23 -16h-340q-24 0 -18 22z" />
    <glyph glyph-name="uni0219" unicode="&#x219;" 
d="M150 0q-15 0 -25 10l-74 74q-10 10 -10 25v374q0 21 20 21h349q20 0 20 -21v-92q0 -10 10 -10h82q10 0 10 10v158q0 20 -20 20h-362q-14 0 -25 11l-74 73q-10 10 -10 25v647q0 15 10 25l74 73q11 11 25 11h661q14 0 25 -11l75 -73q11 -11 11 -25v-373q0 -20 -21 -20h-348
q-21 0 -21 20v90q0 11 -10 11h-82q-10 0 -10 -11v-151q0 -9 6 -15t15 -6h362q15 0 25 -10l73 -74q11 -11 11 -24v-653q0 -14 -11 -25l-75 -74q-10 -10 -25 -10h-661zM246 -211l37 133q4 19 22 19h344q10 0 15 -7t2 -18l-39 -133q-5 -16 -23 -16h-340q-24 0 -18 22z" />
    <glyph glyph-name="uni021A" unicode="&#x21a;" horiz-adv-x="880" 
d="M256 0q-20 0 -20 20v1022q0 11 -11 11h-205q-20 0 -20 20v340q0 21 20 21h820q20 0 20 -21v-340q0 -20 -20 -20h-205q-10 0 -10 -11v-1022q0 -20 -21 -20h-348zM195 -211l36 133q4 19 23 19h344q10 0 14.5 -7t1.5 -18l-39 -133q-5 -16 -22 -16h-340q-24 0 -18 22z" />
    <glyph glyph-name="uni021B" unicode="&#x21b;" horiz-adv-x="880" 
d="M256 0q-20 0 -20 20v1022q0 11 -11 11h-205q-20 0 -20 20v340q0 21 20 21h820q20 0 20 -21v-340q0 -20 -20 -20h-205q-10 0 -10 -11v-1022q0 -20 -21 -20h-348zM195 -211l36 133q4 19 23 19h344q10 0 14.5 -7t1.5 -18l-39 -133q-5 -16 -22 -16h-340q-24 0 -18 22z" />
    <glyph glyph-name="uni0237" unicode="&#x237;" horiz-adv-x="704" 
d="M57 0q-16 0 -16 20v338q0 21 16 21h197q20 0 20 20v1014q0 9 6 15t15 6h348q9 0 15 -6t6 -15v-1304q0 -14 -11 -25l-73 -74q-10 -10 -25 -10h-498z" />
    <glyph glyph-name="gravecomb" unicode="&#x300;" horiz-adv-x="0" 
d="M166 1434q-18 0 -23 16l-39 133q-3 11 2 18t15 7h344q18 0 22 -19l37 -133q6 -22 -18 -22h-340z" />
    <glyph glyph-name="acutecomb" unicode="&#x301;" horiz-adv-x="0" 
d="M25 1434q-25 0 -19 22l37 133q4 19 23 19h344q10 0 14.5 -7t1.5 -18l-39 -133q-5 -16 -22 -16h-340z" />
    <glyph glyph-name="uni0302" unicode="&#x302;" horiz-adv-x="0" 
d="M25 1434q-23 0 -17 22l41 135q7 17 25 17h467q17 0 24 -17l41 -135q6 -22 -16 -22h-236q-16 0 -22 18l-25 94l-24 -94q-6 -18 -23 -18h-235z" />
    <glyph glyph-name="tildecomb" unicode="&#x303;" horiz-adv-x="0" 
d="M59 1434q-22 0 -16 22l41 135q7 17 25 17h405q18 0 25 -17l24 -82l23 80q4 19 22 19h236q23 0 16 -23l-41 -135q-6 -16 -24 -16h-406q-16 0 -22 18l-25 94l-25 -94q-6 -18 -22 -18h-236z" />
    <glyph glyph-name="uni0304" unicode="&#x304;" horiz-adv-x="0" 
d="M35 1434q-9 0 -16 5.5t-7 14.5l-10 133q0 21 18 21h533q18 0 18 -21l-10 -133q0 -9 -6.5 -14.5t-15.5 -5.5h-504z" />
    <glyph glyph-name="uni0306" unicode="&#x306;" horiz-adv-x="0" 
d="M92 1434q-14 0 -22 16l-60 133q-4 10 1 17.5t16 7.5h235q16 0 25 -15l35 -65q3 -8 12 -8h8q9 0 12 8l35 65q9 15 25 15h235q11 0 16 -7.5t1 -17.5l-60 -133q-8 -16 -22 -16h-492z" />
    <glyph glyph-name="uni0307" unicode="&#x307;" horiz-adv-x="0" 
d="M61 1434q-20 0 -20 20v133q0 21 20 21h349q20 0 20 -21v-133q0 -20 -20 -20h-349z" />
    <glyph glyph-name="uni0308" unicode="&#x308;" horiz-adv-x="0" 
d="M342 1434q-9 0 -16 5.5t-7 14.5l-10 133q0 21 19 21h245q19 0 19 -21l-10 -133q0 -9 -7 -14.5t-16 -5.5h-217zM2 1587q0 21 18 21h246q19 0 19 -21l-11 -133q0 -9 -6.5 -14.5t-15.5 -5.5h-217q-9 0 -16 5.5t-7 14.5z" />
    <glyph glyph-name="uni030A" unicode="&#x30a;" horiz-adv-x="0" 
d="M74 1434q-9 0 -16 5.5t-7 14.5l-10 133q0 21 18 21h430q19 0 19 -21l-10 -133q0 -9 -7 -14.5t-16 -5.5h-401z" />
    <glyph glyph-name="uni030B" unicode="&#x30b;" horiz-adv-x="0" 
d="M475 1434q-24 0 -18 22l37 133q4 19 22 19h344q10 0 15 -7t2 -18l-39 -133q-5 -16 -23 -16h-340zM6 1456l37 133q4 19 23 19h344q10 0 14.5 -7t1.5 -18l-39 -133q-5 -16 -22 -16h-340q-25 0 -19 22z" />
    <glyph glyph-name="uni030C" unicode="&#x30c;" horiz-adv-x="0" 
d="M74 1434q-19 0 -25 16l-41 135q-3 10 1.5 16.5t15.5 6.5h235q17 0 23 -19l24 -94l25 94q6 19 22 19h236q23 0 16 -23l-41 -135q-6 -16 -24 -16h-467z" />
    <glyph glyph-name="uni0312" unicode="&#x312;" horiz-adv-x="0" 
d="M121 1434q-10 0 -15 6.5t-2 17.5l39 133q6 17 23 17h340q11 0 16 -6.5t2 -16.5l-37 -133q-4 -18 -22 -18h-344z" />
    <glyph glyph-name="uni0326" unicode="&#x326;" horiz-adv-x="0" 
d="M20 -233q-24 0 -18 22l37 133q4 19 22 19h345q10 0 14.5 -7t1.5 -18l-39 -133q-5 -16 -23 -16h-340z" />
    <glyph glyph-name="uni0327" unicode="&#x327;" horiz-adv-x="0" 
d="M63 -295q-22 -3 -22 16v113q0 20 18 23l177 24l-177 25q-18 3 -18 22v72h178l184 -25q7 -1 12 -8.5t5 -15.5v-180q0 -8 -5 -16t-12 -9z" />
    <glyph glyph-name="uni0328" unicode="&#x328;" horiz-adv-x="0" 
d="M57 -254q-16 3 -16 25v180q0 21 16 24l185 25h178v-72q0 -19 -19 -22l-176 -25l176 -24q19 -3 19 -23v-113q0 -19 -23 -16z" />
    <glyph glyph-name="uni0335" unicode="&#x335;" horiz-adv-x="0" 
d="M20 395q-20 0 -20 21v338q0 20 20 20h676q21 0 21 -20v-338q0 -9 -6 -15t-15 -6h-676z" />
    <glyph glyph-name="uni0336" unicode="&#x336;" horiz-adv-x="0" 
d="M20 395q-20 0 -20 21v338q0 20 20 20h676q21 0 21 -20v-338q0 -9 -6 -15t-15 -6h-676z" />
    <glyph glyph-name="uni0337" unicode="&#x337;" horiz-adv-x="0" 
d="M18 0q-11 0 -15.5 7.5t-0.5 17.5l490 1048q6 14 22 14h395q11 0 16 -7t1 -17l-490 -1049q-6 -14 -22 -14h-396z" />
    <glyph glyph-name="uni0338" unicode="&#x338;" horiz-adv-x="0" 
d="M59 0q-11 0 -15.5 7.5t-0.5 17.5l647 1394q6 15 23 15h395q11 0 15.5 -7.5t0.5 -17.5l-647 -1395q-6 -14 -22 -14h-396z" />
    <glyph glyph-name="Wgrave" unicode="&#x1e80;" horiz-adv-x="1212" 
d="M133 0q-19 0 -22 20l-121 1393q-3 21 18 21h328q20 0 20 -21l33 -651q0 -10 10 -10h13q10 0 10 10l41 651q0 21 20 21h246q23 0 23 -21l45 -653q0 -10 10 -10h12q10 0 10 10l27 653q0 21 21 21h327q22 0 19 -21l-121 -1393q-3 -20 -23 -20h-409q-21 0 -21 20l-28 517
q0 10 -11 10h-8q-10 0 -10 -10l-29 -517q0 -20 -20 -20h-410zM367 1645q-7 24 16 24h344q19 0 23 -18l36 -133q3 -10 -2 -16.5t-16 -6.5h-340q-17 0 -22 16z" />
    <glyph glyph-name="wgrave" unicode="&#x1e81;" horiz-adv-x="1212" 
d="M133 0q-19 0 -22 20l-121 1393q-3 21 18 21h328q20 0 20 -21l33 -651q0 -10 10 -10h13q10 0 10 10l41 651q0 21 20 21h246q23 0 23 -21l45 -653q0 -10 10 -10h12q10 0 10 10l27 653q0 21 21 21h327q22 0 19 -21l-121 -1393q-3 -20 -23 -20h-409q-21 0 -21 20l-28 517
q0 10 -11 10h-8q-10 0 -10 -10l-29 -517q0 -20 -20 -20h-410zM367 1645q-7 24 16 24h344q19 0 23 -18l36 -133q3 -10 -2 -16.5t-16 -6.5h-340q-17 0 -22 16z" />
    <glyph glyph-name="Wacute" unicode="&#x1e82;" horiz-adv-x="1212" 
d="M133 0q-19 0 -22 20l-121 1393q-3 21 18 21h328q20 0 20 -21l33 -651q0 -10 10 -10h13q10 0 10 10l41 651q0 21 20 21h246q23 0 23 -21l45 -653q0 -10 10 -10h12q10 0 10 10l27 653q0 21 21 21h327q22 0 19 -21l-121 -1393q-3 -20 -23 -20h-409q-21 0 -21 20l-28 517
q0 10 -11 10h-8q-10 0 -10 -10l-29 -517q0 -20 -20 -20h-410zM436 1518l37 133q4 18 23 18h344q23 0 16 -24l-39 -134q-5 -16 -22 -16h-340q-11 0 -16.5 6.5t-2.5 16.5z" />
    <glyph glyph-name="wacute" unicode="&#x1e83;" horiz-adv-x="1212" 
d="M133 0q-19 0 -22 20l-121 1393q-3 21 18 21h328q20 0 20 -21l33 -651q0 -10 10 -10h13q10 0 10 10l41 651q0 21 20 21h246q23 0 23 -21l45 -653q0 -10 10 -10h12q10 0 10 10l27 653q0 21 21 21h327q22 0 19 -21l-121 -1393q-3 -20 -23 -20h-409q-21 0 -21 20l-28 517
q0 10 -11 10h-8q-10 0 -10 -10l-29 -517q0 -20 -20 -20h-410zM436 1518l37 133q4 18 23 18h344q23 0 16 -24l-39 -134q-5 -16 -22 -16h-340q-11 0 -16.5 6.5t-2.5 16.5z" />
    <glyph glyph-name="Wdieresis" unicode="&#x1e84;" horiz-adv-x="1212" 
d="M133 0q-19 0 -22 20l-121 1393q-3 21 18 21h328q20 0 20 -21l33 -651q0 -10 10 -10h13q10 0 10 10l41 651q0 21 20 21h246q23 0 23 -21l45 -653q0 -10 10 -10h12q10 0 10 10l27 653q0 21 21 21h327q22 0 19 -21l-121 -1393q-3 -20 -23 -20h-409q-21 0 -21 20l-28 517
q0 10 -11 10h-8q-10 0 -10 -10l-29 -517q0 -20 -20 -20h-410zM322 1649q0 20 18 20h246q18 0 18 -20l-10 -133q0 -9 -7 -15t-16 -6h-217q-9 0 -15.5 6t-6.5 15zM629 1649q0 20 18 20h246q18 0 18 -20l-10 -133q0 -9 -6.5 -15t-15.5 -6h-217q-9 0 -16 6t-7 15z" />
    <glyph glyph-name="wdieresis" unicode="&#x1e85;" horiz-adv-x="1212" 
d="M133 0q-19 0 -22 20l-121 1393q-3 21 18 21h328q20 0 20 -21l33 -651q0 -10 10 -10h13q10 0 10 10l41 651q0 21 20 21h246q23 0 23 -21l45 -653q0 -10 10 -10h12q10 0 10 10l27 653q0 21 21 21h327q22 0 19 -21l-121 -1393q-3 -20 -23 -20h-409q-21 0 -21 20l-28 517
q0 10 -11 10h-8q-10 0 -10 -10l-29 -517q0 -20 -20 -20h-410zM322 1649q0 20 18 20h246q18 0 18 -20l-10 -133q0 -9 -7 -15t-16 -6h-217q-9 0 -15.5 6t-6.5 15zM629 1649q0 20 18 20h246q18 0 18 -20l-10 -133q0 -9 -6.5 -15t-15.5 -6h-217q-9 0 -16 6t-7 15z" />
    <glyph glyph-name="uni1E9E" unicode="&#x1e9e;" horiz-adv-x="1003" 
d="M61 0q-20 0 -20 20v1305q0 15 10 25l74 73q11 11 25 11h663q14 0 25 -11l73 -73q11 -11 9 -25l-58 -369q-1 -9 5.5 -15.5t15.5 -6.5h59q9 0 15 -6t6 -15v-804q0 -14 -11 -25l-73 -74q-10 -10 -25 -10h-342q-20 0 -20 20v340q0 21 20 21h41q20 0 20 20v195q0 10 -10 10
h-82q-9 0 -15 7t-5 16l71 415q1 4 -1 7.5t-7 3.5h-84q-10 0 -10 -11v-1024q0 -20 -20 -20h-349z" />
    <glyph glyph-name="Ygrave" unicode="&#x1ef2;" horiz-adv-x="964" 
d="M51 465q-10 10 -10 24v924q0 21 20 21h349q20 0 20 -21v-678h105v678q0 21 20 21h348q9 0 15 -6t6 -15v-924q0 -13 -11 -24l-73 -74q-10 -10 -25 -10h-133v-358q0 -21 -20 -21h-349q-20 0 -20 21v358h-143q-15 0 -25 10zM233 1645q-3 11 2 17.5t15 6.5h344q18 0 22 -18
l37 -133q3 -10 -2 -16.5t-16 -6.5h-340q-18 0 -23 16z" />
    <glyph glyph-name="ygrave" unicode="&#x1ef3;" horiz-adv-x="964" 
d="M51 465q-10 10 -10 24v924q0 21 20 21h349q20 0 20 -21v-678h105v678q0 21 20 21h348q9 0 15 -6t6 -15v-924q0 -13 -11 -24l-73 -74q-10 -10 -25 -10h-133v-358q0 -21 -20 -21h-349q-20 0 -20 21v358h-143q-15 0 -25 10zM233 1645q-3 11 2 17.5t15 6.5h344q18 0 22 -18
l37 -133q3 -10 -2 -16.5t-16 -6.5h-340q-18 0 -23 16z" />
    <glyph glyph-name="endash" unicode="&#x2013;" horiz-adv-x="655" 
d="M61 498q-20 0 -20 20v338q0 21 20 21h533q20 0 20 -21v-338q0 -20 -20 -20h-533z" />
    <glyph glyph-name="emdash" unicode="&#x2014;" horiz-adv-x="778" 
d="M61 498q-20 0 -20 20v338q0 21 20 21h656q20 0 20 -21v-338q0 -20 -20 -20h-656z" />
    <glyph glyph-name="quoteleft" unicode="&#x2018;" horiz-adv-x="471" 
d="M61 1087q-20 0 -20 21v305q0 21 20 21h349q20 0 20 -21v-305q0 -21 -20 -21h-349z" />
    <glyph glyph-name="quoteright" unicode="&#x2019;" horiz-adv-x="471" 
d="M61 1087q-20 0 -20 21v305q0 21 20 21h349q20 0 20 -21v-305q0 -21 -20 -21h-349z" />
    <glyph glyph-name="quotesinglbase" unicode="&#x201a;" horiz-adv-x="354" 
d="M0 -172q-24 0 -18 22l90 306q4 18 22 18h344q11 0 16 -7t1 -17l-113 -306q-5 -16 -23 -16h-319z" />
    <glyph glyph-name="quotedblleft" unicode="&#x201c;" horiz-adv-x="1013" 
d="M498 1434q11 0 16 -6.5t2 -16.5l-90 -305q-4 -19 -23 -19h-344q-11 0 -15.5 7.5t-0.5 17.5l113 305q6 17 22 17h320zM498 1112l112 305q6 17 23 17h319q11 0 16.5 -6.5t2.5 -16.5l-90 -305q-4 -19 -23 -19h-344q-11 0 -15.5 7.5t-0.5 17.5z" />
    <glyph glyph-name="quotedblright" unicode="&#x201d;" horiz-adv-x="1013" 
d="M516 1087q-11 0 -16 6.5t-2 16.5l90 305q4 19 22 19h344q11 0 16 -7.5t1 -17.5l-113 -305q-6 -17 -22 -17h-320zM43 1110l90 305q4 19 23 19h344q11 0 15.5 -7.5t0.5 -17.5l-113 -305q-6 -17 -22 -17h-320q-11 0 -16 6.5t-2 16.5z" />
    <glyph glyph-name="quotedblbase" unicode="&#x201e;" horiz-adv-x="931" 
d="M475 -172q-24 0 -18 22l90 306q4 18 22 18h344q11 0 16 -7t1 -17l-113 -306q-5 -16 -22 -16h-320zM2 -150l90 306q4 18 23 18h344q11 0 15.5 -7t0.5 -17l-113 -306q-5 -16 -22 -16h-320q-24 0 -18 22z" />
    <glyph glyph-name="dagger" unicode="&#x2020;" horiz-adv-x="690" 
d="M274 600q-20 0 -20 21v456h-193q-20 0 -20 21v143q0 21 20 21h193v151q0 21 20 21h144q20 0 20 -21v-151h191q20 0 20 -21v-143q0 -21 -20 -21h-191v-456q0 -21 -20 -21h-144z" />
    <glyph glyph-name="bullet" unicode="&#x2022;" horiz-adv-x="565" 
d="M125 360q-20 0 -31.5 12.5t-11.5 33.5v290q0 20 11.5 32.5t31.5 12.5h315q20 0 31.5 -12.5t11.5 -32.5v-290q0 -21 -11.5 -33.5t-31.5 -12.5h-315z" />
    <glyph glyph-name="ellipsis" unicode="&#x2026;" horiz-adv-x="1449" 
d="M567 0q-20 0 -31.5 12.5t-11.5 32.5v291q0 20 11.5 32.5t31.5 12.5h316q20 0 31.5 -12.5t11.5 -32.5v-291q0 -20 -11.5 -32.5t-31.5 -12.5h-316zM41 45v291q0 20 11.5 32.5t31.5 12.5h315q20 0 31.5 -12.5t11.5 -32.5v-291q0 -20 -11.5 -32.5t-31.5 -12.5h-315
q-20 0 -31.5 12.5t-11.5 32.5zM1008 45v291q0 20 11.5 32.5t31.5 12.5h315q20 0 31.5 -12.5t11.5 -32.5v-291q0 -20 -11.5 -32.5t-31.5 -12.5h-315q-20 0 -31.5 12.5t-11.5 32.5z" />
    <glyph glyph-name="guilsinglleft" unicode="&#x2039;" horiz-adv-x="587" 
d="M203 207q-20 0 -25 16l-133 379q-5 13 0 29l133 379q5 16 25 16h325q23 0 17 -22l-131 -373q-4 -15 0 -29l131 -373q6 -22 -17 -22h-325z" />
    <glyph glyph-name="guilsinglright" unicode="&#x203a;" horiz-adv-x="589" 
d="M59 207q-22 0 -16 22l131 373q4 14 0 29l-131 373q-6 22 16 22h326q20 0 25 -16l133 -379q5 -16 0 -29l-133 -379q-5 -16 -25 -16h-326z" />
    <glyph glyph-name="Euro" unicode="&#x20ac;" 
d="M483 756q0 -8 -5.5 -13.5t-14.5 -5.5h-33v-39h33q8 0 14 -5.5t6 -12.5v-191q0 -18 -20 -18h-33v-70q0 -20 21 -20h61q20 0 20 20v246q0 9 6 15t15 6h348q9 0 15 -6t6 -15v-538q0 -14 -11 -25l-73 -74q-10 -10 -25 -10h-663q-15 0 -25 10l-74 74q-10 10 -10 25v362h-92
q-8 0 -14.5 5.5t-6.5 12.5v191q0 8 6 13t15 5h92v39h-92q-8 0 -14.5 6t-6.5 13v190q0 8 6 13.5t15 5.5h92v360q0 15 10 25l74 73q11 11 25 11h663q14 0 25 -11l73 -73q11 -11 11 -25v-537q0 -20 -21 -20h-348q-21 0 -21 20v244q0 21 -20 21h-61q-9 0 -15 -6t-6 -15v-67h33
q8 0 14 -6t6 -13v-190z" />
    <glyph glyph-name="minus" unicode="&#x2212;" horiz-adv-x="634" 
d="M61 498q-20 0 -20 20v338q0 21 20 21h512q9 0 15 -6t6 -15v-338q0 -20 -21 -20h-512z" />
    <glyph glyph-name="uni004A0301" horiz-adv-x="704" 
d="M57 0q-16 0 -16 20v338q0 21 16 21h197q20 0 20 20v1014q0 9 6 15t15 6h348q9 0 15 -6t6 -15v-1304q0 -14 -11 -25l-73 -74q-10 -10 -25 -10h-498zM291 1518l37 133q4 18 22 18h344q10 0 15 -6.5t2 -17.5l-39 -134q-5 -16 -23 -16h-340q-11 0 -16 6.5t-2 16.5z" />
    <glyph glyph-name="N_o" horiz-adv-x="1884" 
d="M1153 399q-14 0 -25 11l-73 73q-11 11 -11 25v813q0 14 11 25l73 73q11 11 25 11h541q13 0 24 -11l74 -73q10 -10 10 -25v-813q0 -15 -10 -25l-74 -73q-11 -11 -24 -11h-541zM41 20v1393q0 21 20 21h392q19 0 22 -19l74 -538q0 -9 12 -9h2q10 0 10 11v534q0 9 6 15t15 6
h348q9 0 15 -6t6 -15v-1393q0 -20 -21 -20h-391q-19 0 -23 18l-73 541q0 8 -11 8h-4q-10 0 -10 -10v-537q0 -20 -20 -20h-349q-20 0 -20 20zM1044 20v277q0 20 21 20h717q20 0 20 -20v-277q0 -20 -20 -20h-717q-21 0 -21 20zM1372 707q0 -11 10 -11h82q11 0 11 11v415
q0 11 -11 11h-82q-10 0 -10 -11v-415z" />
    <glyph glyph-name="O_Z" horiz-adv-x="1445" 
d="M780 399q-10 0 -15.5 7t-2.5 16l248 684q1 4 -0.5 6t-4.5 3t-6 1h-190q-9 0 -15 6t-6 15v276q0 9 6 15t15 6h612q10 0 16 -7t3 -16l-246 -684q-2 -10 10 -10h189q20 0 20 -21v-276q0 -21 -20 -21h-613zM41 20v256q0 21 20 21h1332q20 0 20 -21v-256q0 -20 -20 -20h-1332
q-20 0 -20 20zM41 508v817q0 15 10 25l74 73q11 11 25 11h458q14 0 25 -11l74 -73q10 -10 10 -25v-817q0 -15 -10 -25l-74 -73q-11 -11 -25 -11h-458q-14 0 -25 11l-74 73q-10 10 -10 25zM328 707q0 -11 10 -11h82q10 0 10 11v399q0 10 -10 10h-82q-10 0 -10 -10v-399z" />
    <glyph glyph-name="i.loclTRK" horiz-adv-x="532" 
d="M61 0q-20 0 -20 20v1393q0 21 20 21h410q9 0 15 -6t6 -15v-1393q0 -20 -21 -20h-410zM74 1516v133q0 20 20 20h348q21 0 21 -20v-133q0 -9 -6 -15t-15 -6h-348q-20 0 -20 21z" />
    <glyph glyph-name="uni006A0301" horiz-adv-x="704" 
d="M57 0q-16 0 -16 20v338q0 21 16 21h197q20 0 20 20v1014q0 9 6 15t15 6h348q9 0 15 -6t6 -15v-1304q0 -14 -11 -25l-73 -74q-10 -10 -25 -10h-498zM291 1518l37 133q4 18 22 18h344q10 0 15 -6.5t2 -17.5l-39 -134q-5 -16 -23 -16h-340q-11 0 -16 6.5t-2 16.5z" />
    <glyph glyph-name="uni030C.alt" horiz-adv-x="1228" 
 />
    </font>
</defs>
</svg>
