<?xml version="1.0" standalone="no"?>
<!DOCTYPE svg PUBLIC "-//W3C//DTD SVG 1.1//EN" "http://www.w3.org/Graphics/SVG/1.1/DTD/svg11.dtd" >
<svg xmlns="http://www.w3.org/2000/svg" xmlns:xlink="http://www.w3.org/1999/xlink" version="1.1">
<metadata>
Created by FontForge 20201107 at Tue Aug 16 11:27:17 2022
 By 
Copyright (c) 2022 by Pentagonistudio. All rights reserved.
</metadata>
<defs>
<font id="Montage" horiz-adv-x="358" >
  <font-face 
    font-family="Montage"
    font-weight="400"
    font-stretch="normal"
    units-per-em="1000"
    panose-1="2 0 5 4 0 0 0 2 0 4"
    ascent="750"
    descent="-250"
    x-height="550"
    cap-height="709"
    bbox="-180 -235.5 876 917"
    underline-thickness="50"
    underline-position="-100"
    unicode-range="U+000D-2122"
  />
<missing-glyph horiz-adv-x="180" 
 />
    <glyph glyph-name=".notdef" horiz-adv-x="180" 
 />
    <glyph glyph-name=".null" horiz-adv-x="0" 
 />
    <glyph glyph-name="nonmarkingreturn" unicode="&#xd;" horiz-adv-x="180" 
 />
    <glyph glyph-name="NULL" horiz-adv-x="0" 
 />
    <glyph glyph-name="NULL" horiz-adv-x="0" 
 />
    <glyph glyph-name="space" unicode=" " horiz-adv-x="180" 
 />
    <glyph glyph-name="exclam" unicode="!" horiz-adv-x="182" 
d="M62 182l-29 527h116l-30 -527h-57zM91 135q29 0 50 -20.5t21 -49.5t-21 -50t-50 -21t-50 21t-21 50t21 49.5t50 20.5z" />
    <glyph glyph-name="quotedbl" unicode="&#x22;" horiz-adv-x="230" 
d="M39 530l-19 193h89l-21 -193h-49zM121 723h89l-20 -193h-50z" />
    <glyph glyph-name="numbersign" unicode="#" horiz-adv-x="504" 
d="M425 709l-21 -184h80l-7 -67h-81l-20 -174h87l-8 -67h-87l-25 -218h-75l26 218h-116l-25 -218h-74l25 218h-84l7 67h85l20 174h-91l8 67h91l21 184h75l-22 -184h115l22 184h74zM301 284l21 174h-115l-21 -174h115z" />
    <glyph glyph-name="dollar" unicode="$" 
d="M213 713q27 -6 50 -20t39.5 -34.5t26 -46.5t9.5 -54v-97h-115v109q0 18 -13 31t-31 13t-31 -13t-13 -31v-64q0 -28 15 -48.5t37.5 -39t49 -36t49 -39.5t37.5 -50.5t15 -66.5v-73q0 -29 -9.5 -54.5t-26 -45.5t-39 -34.5t-49.5 -20.5l9 -98h-88l10 98q-27 6 -50 20
t-39.5 34.5t-26 46t-9.5 54.5v99h115v-111q0 -18 13 -31t31 -13t31 13t13 31v60q0 33 -15 56t-37.5 42.5t-49 37t-49 39t-37.5 50.5t-15 70v62q0 28 9.5 54t26 46t39 34.5t49.5 20.5l-9 96h88l-10 -96v0z" />
    <glyph glyph-name="percent" unicode="%" horiz-adv-x="626" 
d="M484 709l-276 -710h-70l276 710h70zM247 430q0 -24 -9 -44.5t-24.5 -35.5t-36 -24t-43.5 -9q-24 0 -44.5 9t-36 24t-24.5 35.5t-9 44.5v176q0 24 9 44.5t24.5 36t36 24.5t44.5 9q23 0 43.5 -9t36 -24.5t24.5 -36t9 -44.5v-176zM165 615q0 13 -9 22t-22 9q-14 0 -22.5 -9
t-8.5 -22v-194q0 -13 8.5 -22t22.5 -9q13 0 22 9t9 22v194zM492 397q24 0 44.5 -9t36 -24t24.5 -35.5t9 -44.5v-176q0 -24 -9 -44.5t-24.5 -36t-36 -24.5t-44.5 -9q-23 0 -43.5 9t-36 24.5t-24.5 36t-9 44.5v176q0 24 9 44.5t24.5 35.5t36 24t43.5 9zM523 293q0 13 -9 22
t-22 9t-22 -9t-9 -22v-194q0 -13 9 -22t22 -9t22 9t9 22v194z" />
    <glyph glyph-name="ampersand" unicode="&#x26;" horiz-adv-x="482" 
d="M346 0q0 24 -12 54q-29 -30 -67.5 -47t-87.5 -17q-33 0 -62 15.5t-50.5 40t-34 56.5t-12.5 65v51q0 28 7.5 51t20.5 42.5t30.5 35.5t36.5 30q-23 38 -37 74t-14 70v34q0 33 12.5 62t34 50.5t50.5 34t62 12.5t62 -12.5t51 -34t34.5 -50.5t12.5 -62v-46q0 -27 -9.5 -49
t-25.5 -40.5t-36 -34.5t-42 -31q15 -21 31 -43.5t32 -45.5q8 46 8 102h86q0 -56 -7 -106t-22 -94q28 -46 46 -88.5t18 -78.5h-116zM180 531q0 -17 9 -40t24 -49q23 17 38.5 36t15.5 43v46q0 18 -13 31t-31 13t-30.5 -13t-12.5 -31v-36zM214 94q14 0 33 10t38 36
q-24 35 -52 71.5t-56 74.5q-19 -17 -30 -37t-11 -46v-36q0 -9 4 -21.5t13.5 -24t24.5 -19.5t36 -8z" />
    <glyph glyph-name="quotesingle" unicode="'" horiz-adv-x="128" 
d="M108 723l-20 -193h-49l-19 193h88v0z" />
    <glyph glyph-name="parenleft" unicode="(" horiz-adv-x="180" 
d="M20 723q0 33 12.5 62t34 50.5t50.5 34t62 12.5h41v-62h-41q-18 0 -31 -12.5t-13 -30.5v-844q0 -18 13 -30.5t31 -12.5h41v-62h-41q-33 0 -62 12.5t-50.5 34t-34 50.5t-12.5 62v736v0z" />
    <glyph glyph-name="parenright" unicode=")" horiz-adv-x="180" 
d="M1 882q33 0 62 -12.5t50.5 -34t34 -50.5t12.5 -62v-736q0 -33 -12.5 -62t-34 -50.5t-50.5 -34t-62 -12.5h-41v62h41q18 0 30.5 12.5t12.5 30.5v844q0 18 -12.5 30.5t-30.5 12.5h-41v62h41v0z" />
    <glyph glyph-name="asterisk" unicode="*" horiz-adv-x="312" 
d="M176 619l87 51l29 -79l-98 -15l75 -70l-68 -50l-45 97l-45 -97l-68 50l74 70l-97 15l29 79l87 -52l-21 105h84l-23 -104v0z" />
    <glyph glyph-name="plus" unicode="+" horiz-adv-x="344" 
d="M324 309h-114v-114h-76v114h-114v76h114v114h76v-114h114v-76v0z" />
    <glyph glyph-name="comma" unicode="," horiz-adv-x="182" 
d="M73 -54q8 8 12 21t6 27q-29 0 -50 21t-21 50t21 49.5t50 20.5t50 -20.5t21 -49.5q0 -32 -13 -56t-29 -39q-18 -18 -42 -30z" />
    <glyph glyph-name="hyphen" unicode="-" horiz-adv-x="344" 
d="M324 386v-76h-304v76h304v0z" />
    <glyph glyph-name="period" unicode="." horiz-adv-x="182" 
d="M20 65q0 29 21 49.5t50 20.5t50 -20.5t21 -49.5t-21 -50t-50 -21t-50 21t-21 50z" />
    <glyph glyph-name="slash" unicode="/" horiz-adv-x="332" 
d="M20 1l193 709h99l-193 -709h-99v0z" />
    <glyph glyph-name="zero" unicode="0" 
d="M179 -7q-33 0 -62 12.5t-50.5 34.5t-34 51t-12.5 62v404q0 33 12.5 62t34 51t50.5 34.5t62 12.5t62 -12.5t50.5 -34.5t34 -51t12.5 -62v-404q0 -33 -12.5 -62t-34 -51t-50.5 -34.5t-62 -12.5zM135 140q0 -18 13 -30.5t31 -12.5t31 12.5t13 30.5v430q0 18 -13 30.5
t-31 12.5t-31 -12.5t-13 -30.5v-430z" />
    <glyph glyph-name="one" unicode="1" horiz-adv-x="197" 
d="M62 585h-42v71q24 0 39 8t23 18q10 11 14 27l81 1v-710h-115v585z" />
    <glyph glyph-name="two" unicode="2" 
d="M135 0v-1l-115 1v210q0 38 15 66.5t37.5 50t49 39.5t49 36.5t37.5 39t15 48.5v81q0 18 -13 31t-31 13t-31 -13t-13 -31v-110h-115v97q0 33 12.5 62t34 51t50.5 34.5t62 12.5t62 -12.5t50.5 -34.5t34 -51t12.5 -62v-78q0 -41 -15 -70t-37.5 -50.5t-49 -39t-49 -37
t-37.5 -42.5t-15 -56v-82h188v-103h-188z" />
    <glyph glyph-name="three" unicode="3" 
d="M179 718q33 0 62 -12.5t50.5 -34.5t34 -51t12.5 -62v-78q0 -80 -41 -124q20 -21 30.5 -52t10.5 -73v-78q0 -33 -12.5 -62t-34 -50.5t-50.5 -34t-62 -12.5t-62 12.5t-50.5 34t-34 50.5t-12.5 62v97h115v-109q0 -19 13 -31.5t31 -12.5t31 12.5t13 31.5v80q0 42 -6 63.5
t-38 21.5h-45v3v93v4h45q32 0 38 21.5t6 62.5v81q0 18 -13 31t-31 13t-31 -13t-13 -31v-110h-115v97q0 33 12.5 62t34 51t50.5 34.5t62 12.5z" />
    <glyph glyph-name="four" unicode="4" horiz-adv-x="346" 
d="M208 709l118 1v-710h-116v137h-190v91zM135 228h75v218z" />
    <glyph glyph-name="five" unicode="5" 
d="M179 478q70 0 114.5 -41t44.5 -129v-155q0 -33 -12.5 -62t-34 -50.5t-50.5 -34t-62 -12.5t-62 12.5t-50.5 34t-34 50.5t-12.5 62v97h115v-109q0 -19 13 -31.5t31 -12.5t31 12.5t13 31.5v157q0 42 -6 65.5t-38 23.5q-17 0 -26.5 -5.5t-14.5 -14.5t-6.5 -20t-1.5 -22h-110
v386h303v-104h-193v-136q11 3 23 5t26 2z" />
    <glyph glyph-name="six" unicode="6" horiz-adv-x="360" 
d="M339 153q0 -33 -12.5 -62t-34 -50.5t-50.5 -34t-62 -12.5t-62 12.5t-51 34t-34.5 50.5t-12.5 62l1 405q0 33 12.5 62t34 51t50.5 34.5t62 12.5t62 -12.5t51 -34.5t34.5 -51t12.5 -62v-39h-116v52q0 18 -13 31t-31 13t-30.5 -13t-12.5 -31v-99q19 6 42 6q35 0 64.5 -10
t50.5 -31t33 -53t12 -76v-155zM180 97q18 0 30.5 12.5t12.5 31.5v157q0 21 -0.5 37.5t-4.5 28t-13 17.5t-25 6q-19 0 -28.5 -6.5t-14.5 -17.5l-1 -222q0 -19 13 -31.5t31 -12.5z" />
    <glyph glyph-name="seven" unicode="7" horiz-adv-x="344" 
d="M324 717v0l-169 -718l-119 1l147 614h-163v103l304 1v-1v0v0z" />
    <glyph glyph-name="eight" unicode="8" 
d="M338 153q0 -25 -8 -53t-27 -51.5t-49 -39t-75 -15.5t-75 15.5t-49 39t-27 51.5t-8 53v120q0 35 12 61t29 44q-17 19 -29 45.5t-12 60.5v74q0 25 8 53t27 52t49 39.5t75 15.5t75 -15.5t49 -39.5t27 -52t8 -53v-74q0 -35 -12 -61t-29 -45q17 -18 28 -44t13 -61v-120z
M223 571q0 18 -13.5 31t-30.5 13q-18 0 -31 -13t-13 -31v-58q0 -42 6 -63t38 -21t38 21t6 63v58zM135 141q0 -19 13 -31.5t31 -12.5q17 0 30.5 12.5t13.5 31.5v103q0 41 -6 62.5t-38 21.5t-38 -21.5t-6 -62.5v-103z" />
    <glyph glyph-name="nine" unicode="9" horiz-adv-x="360" 
d="M339 153q0 -33 -12.5 -62t-34 -50.5t-50.5 -34t-62 -12.5t-62 12.5t-51 34t-34.5 50.5t-12.5 62v39h116v-51q0 -19 13 -31.5t31 -12.5t30.5 12.5t12.5 31.5v98q-10 -2 -20.5 -4t-22.5 -2q-70 0 -114.5 41.5t-44.5 129.5v154q0 33 12.5 62t34 51t50.5 34.5t62 12.5
t62 -12.5t51 -34.5t34.5 -51t12.5 -62zM180 325q19 0 28.5 6t14.5 17l1 223q0 18 -13 31t-31 13t-30.5 -13t-12.5 -31v-157q0 -21 0.5 -37.5t4.5 -28t13 -17.5t25 -6z" />
    <glyph glyph-name="colon" unicode=":" horiz-adv-x="182" 
d="M20 476q0 29 21 49.5t50 20.5t50 -20.5t21 -49.5t-21 -50t-50 -21t-50 21t-21 50zM20 65q0 29 21 49.5t50 20.5t50 -20.5t21 -49.5t-21 -50t-50 -21t-50 21t-21 50z" />
    <glyph glyph-name="semicolon" unicode=";" horiz-adv-x="182" 
d="M20 476q0 29 21 49.5t50 20.5t50 -20.5t21 -49.5t-21 -50t-50 -21t-50 21t-21 50zM73 -54q8 8 12 21t6 27q-29 0 -50 21t-21 50t21 49.5t50 20.5t50 -20.5t21 -49.5q0 -32 -13 -56t-29 -39q-18 -18 -42 -30z" />
    <glyph glyph-name="less" unicode="&#x3c;" horiz-adv-x="276" 
d="M20 339v33l236 93v-53l-142 -57l142 -56v-53l-236 93v0z" />
    <glyph glyph-name="equal" unicode="=" horiz-adv-x="344" 
d="M20 448h304v-76h-304v76zM20 254v76h304v-76h-304z" />
    <glyph glyph-name="greater" unicode="&#x3e;" horiz-adv-x="276" 
d="M20 412v53l236 -93v-33l-236 -93v53l142 56l-142 57v0z" />
    <glyph glyph-name="question" unicode="?" 
d="M179 719q33 0 62 -12.5t50.5 -34t34 -50.5t12.5 -62v-62q0 -42 -10.5 -71t-26.5 -51.5t-34 -41.5t-34 -40t-26.5 -47.5t-10.5 -63.5l-67 -1q0 51 7 85.5t17.5 59t22.5 43t22.5 38t17.5 42.5t7 58v64q0 18 -13 31t-31 13t-31 -13t-13 -31v-110h-115v98q0 33 12.5 62
t34 50.5t50.5 34t62 12.5zM170 135q29 0 49.5 -20.5t20.5 -49.5t-20.5 -50t-49.5 -21t-50 21t-21 50t21 49.5t50 20.5z" />
    <glyph glyph-name="at" unicode="@" horiz-adv-x="788" 
d="M394 740q78 0 146 -29.5t118.5 -80t80 -118.5t29.5 -146v-110q0 -74 -16 -122.5t-40.5 -77t-55.5 -40t-61 -11.5q-42 0 -73.5 16t-52.5 43.5t-31.5 65t-10.5 80.5q-4 -35 -15 -61q-10 -23 -29 -42t-51 -19t-52.5 13t-32.5 34.5t-17 50.5t-5 61v159q0 47 13.5 77.5t37 49
t54 26t64.5 9t69 -1.5t68 -7v-326q0 -89 25.5 -131t73.5 -42q57 0 79 49t22 153v99q0 70 -26.5 131t-72.5 107t-107 72.5t-131 26.5t-131.5 -26.5t-107.5 -72.5t-72.5 -107t-26.5 -131v-99q0 -70 26.5 -131.5t72.5 -107.5t107.5 -72.5t131.5 -26.5q32 0 59.5 4.5t47.5 10.5
q23 6 42 15l11 -39q-29 -13 -69 -23t-91 -10q-78 0 -146 29.5t-118.5 80.5t-80 119t-29.5 145v110q0 78 29.5 146t80 118.5t118.5 80t146 29.5zM420 486q-17 2 -32 0.5t-26.5 -8.5t-18.5 -21t-7 -37v-181q0 -26 13 -39t28.5 -12.5t29 13.5t13.5 38v247z" />
    <glyph glyph-name="A" unicode="A" horiz-adv-x="372" 
d="M138 86l-11 -87h-117l109 710h137l106 -710h-117l-10 87h-97zM222 189l-35 299l-36 -299h71z" />
    <glyph glyph-name="B" unicode="B" 
d="M338 159q0 -33 -12.5 -62t-34 -51t-50.5 -34.5t-62 -12.5h-159v710h159q33 0 62 -12.5t50.5 -34t34 -50.5t12.5 -62v-60q0 -32 -11 -59.5t-31 -48.5q20 -21 31 -48.5t11 -58.5v-116zM135 434h35q22 0 37.5 15.5t15.5 38.5v64q0 23 -16 38.5t-38 15.5h-34v-172zM169 103
q22 0 38 15.5t16 38.5v120q0 22 -15.5 37t-36.5 16h-36v-227h34z" />
    <glyph glyph-name="C" unicode="C" 
d="M179 -7q-33 0 -62 12.5t-50.5 34t-34 50.5t-12.5 62v405q0 33 12.5 62t34 51t50.5 34.5t62 12.5t62 -12.5t50.5 -34.5t34 -51t12.5 -62v-121h-115v134q0 18 -13 30.5t-31 12.5t-31 -12.5t-13 -30.5v-430q0 -18 13 -31t31 -13t31 13t13 31v133h115v-121q0 -33 -12.5 -62
t-34 -50.5t-50.5 -34t-62 -12.5z" />
    <glyph glyph-name="D" unicode="D" 
d="M338 159q0 -33 -12.5 -62t-34 -50.5t-50.5 -34t-62 -12.5h-159v709h159q33 0 62 -12.5t50.5 -34t34 -50.5t12.5 -62v-391zM169 103q22 0 38 15.5t16 38.5v395q0 23 -16 38.5t-38 15.5h-34v-503h34z" />
    <glyph glyph-name="E" unicode="E" horiz-adv-x="322" 
d="M302 103v-104h-282v710h277v-103h-161v-115h135v-104h-135v-284h166v0z" />
    <glyph glyph-name="F" unicode="F" horiz-adv-x="318" 
d="M136 387v-388h-116v710h278v-103h-162v-115h135v-104h-135v0z" />
    <glyph glyph-name="G" unicode="G" 
d="M166 -7q-33 0 -60 12.5t-46 34t-29.5 50.5t-10.5 62v405q0 33 12.5 62t34 51t50.5 34.5t62 12.5t62 -12.5t50.5 -34.5t34 -51t12.5 -62v-100h-115v113q0 18 -13 30.5t-31 12.5t-31 -12.5t-13 -30.5v-430q0 -18 13 -31t31 -13t31 13t13 31l-1 162h-44v103h160v-406h-56
l-15 41q-17 -22 -42 -34.5t-59 -12.5z" />
    <glyph glyph-name="H" unicode="H" 
d="M136 296v-297h-116v710h116v-310h86v310h116v-710h-116v297h-86v0z" />
    <glyph glyph-name="I" unicode="I" horiz-adv-x="156" 
d="M136 709v-710h-116v710h116v0z" />
    <glyph glyph-name="J" unicode="J" 
d="M179 -7q-33 0 -62 12.5t-50.5 34t-34 50.5t-12.5 62v162h115v-174q0 -18 13 -31t31 -13t31 13t13 31v569h115v-557q0 -33 -12.5 -62t-34 -50.5t-50.5 -34t-62 -12.5z" />
    <glyph glyph-name="K" unicode="K" horiz-adv-x="370" 
d="M136 432v-433h-116v710h116v-250l102 250h116l-107 -260v0l113 -450h-116l-108 433v0z" />
    <glyph glyph-name="L" unicode="L" horiz-adv-x="304" 
d="M284 103v-104h-264v710h116v-606h148v0z" />
    <glyph glyph-name="M" unicode="M" horiz-adv-x="506" 
d="M122 422l14 -423h-116v710h141l92 -460l92 460h141v-710h-116l14 423l-78 -423h-3h-100h-3l-78 423v0z" />
    <glyph glyph-name="N" unicode="N" 
d="M128 353l8 -354h-116v710h120l91 -358l-9 358h116v-710h-121l-89 354v0z" />
    <glyph glyph-name="O" unicode="O" 
d="M179 -7q-33 0 -62 12.5t-50.5 34t-34 50.5t-12.5 62v405q0 33 12.5 62t34 51t50.5 34.5t62 12.5t62 -12.5t50.5 -34.5t34 -51t12.5 -62v-405q0 -33 -12.5 -62t-34 -50.5t-50.5 -34t-62 -12.5zM135 140q0 -18 13 -31t31 -13t31 13t13 31v430q0 18 -13 30.5t-31 12.5
t-31 -12.5t-13 -30.5v-430z" />
    <glyph glyph-name="P" unicode="P" 
d="M135 -1h-115v290v145v275h159q33 0 62 -12.5t50.5 -34t34 -50.5t12.5 -62v-102q0 -33 -12.5 -62t-34 -50.5t-50.5 -34t-62 -12.5h-44v-290zM135 392h34q22 0 38 15.5t16 38.5v106q0 23 -16 38.5t-38 15.5h-34v-214z" />
    <glyph glyph-name="Q" unicode="Q" horiz-adv-x="378" 
d="M345 -7l-55 45q-22 -21 -50.5 -33t-60.5 -12q-33 0 -62 12.5t-50.5 34t-34 50.5t-12.5 62v405q0 33 12.5 62t34 51t50.5 34.5t62 12.5t62 -12.5t50.5 -34.5t34 -51t12.5 -62v-405q0 -12 -2 -23t-5 -22l45 -17zM179 96q8 0 14.5 3t12.5 7l-38 31l14 27l41 -15v421
q0 18 -13 30.5t-31 12.5t-31 -12.5t-13 -30.5v-430q0 -18 13 -31t31 -13z" />
    <glyph glyph-name="R" unicode="R" horiz-adv-x="367" 
d="M328 98q0 -26 3 -44.5t8 -30.5q4 -14 11 -24l-116 1l-3.5 4.5t-7 16t-7 30.5t-3.5 47v155q0 21 -15 36.5t-37 16.5h-25v-307h-116v307v104v299h159q33 0 62 -12.5t51 -34t34.5 -50.5t12.5 -62v-85q0 -33 -13 -62t-35 -51q17 -21 27 -47t10 -55v-152zM136 410h33h1
q22 0 37.5 15.5t15.5 37.5v89q0 23 -15.5 38.5t-38.5 15.5h-33v-196z" />
    <glyph glyph-name="S" unicode="S" 
d="M179 -7q-33 0 -62 12.5t-50.5 34t-34 50.5t-12.5 62v99h115v-111q0 -18 13 -31t31 -13t31 13t13 31v60q0 33 -15 56.5t-37.5 42.5t-49 36.5t-49 39t-37.5 50.5t-15 70v62q0 33 12.5 62t34 51t50.5 34.5t62 12.5t62 -12.5t50.5 -34.5t34 -51t12.5 -62v-97h-115v110
q0 18 -13 30.5t-31 12.5t-31 -12.5t-13 -30.5v-65q0 -28 15 -48.5t37.5 -38.5t49 -36t49 -40t37.5 -50t15 -67v-73q0 -33 -12.5 -62t-34 -50.5t-50.5 -34t-62 -12.5z" />
    <glyph glyph-name="T" unicode="T" horiz-adv-x="336" 
d="M110 -1v607h-90v103h296v-103h-90v-607h-116v0z" />
    <glyph glyph-name="U" unicode="U" 
d="M179 -7q-33 0 -62 12.5t-50.5 34t-34 50.5t-12.5 62v557h115v-569q0 -18 13 -31t31 -13t31 13t13 31v569h115v-557q0 -33 -12.5 -62t-34 -50.5t-50.5 -34t-62 -12.5z" />
    <glyph glyph-name="V" unicode="V" horiz-adv-x="356" 
d="M246 -1h-137l-99 710h117l50 -482l52 482h117l-100 -710v0z" />
    <glyph glyph-name="W" unicode="W" horiz-adv-x="548" 
d="M233 -1h-137l-86 710h117l37 -482l52 482h117l51 -482l36 482h118l-86 -710h-137l-42 394l-40 -394v0z" />
    <glyph glyph-name="X" unicode="X" horiz-adv-x="394" 
d="M126 -1h-116l129 369l-119 341h115l62 -206l61 206h116l-119 -341l129 -369h-116l-71 236l-71 -236v0z" />
    <glyph glyph-name="Y" unicode="Y" horiz-adv-x="356" 
d="M120 247v0l-110 462h117l52 -316l50 316h117l-110 -461v-249h-116v248v0z" />
    <glyph glyph-name="Z" unicode="Z" horiz-adv-x="319" 
d="M20 83l154 523h-154v103h277v-77l-155 -529h160v-104h-282v84v0z" />
    <glyph glyph-name="bracketleft" unicode="[" horiz-adv-x="180" 
d="M20 -172v1054h200v-62h-85v-930h85v-62h-200v0z" />
    <glyph glyph-name="backslash" unicode="\" horiz-adv-x="332" 
d="M20 710h99l193 -709h-99l-193 709v0z" />
    <glyph glyph-name="bracketright" unicode="]" horiz-adv-x="180" 
d="M-40 820v62h200v-1054h-200v62h84v930h-84v0z" />
    <glyph glyph-name="asciicircum" unicode="^" horiz-adv-x="306" 
d="M126 723h54l106 -269l-82 -19l-51 165l-51 -165l-82 19l106 269v0z" />
    <glyph glyph-name="underscore" unicode="_" horiz-adv-x="344" 
d="M20 -113v76h304v-76h-304v0z" />
    <glyph glyph-name="grave" unicode="`" horiz-adv-x="172" 
d="M20 673l55 50l77 -111l-30 -28l-102 89v0z" />
    <glyph glyph-name="a" unicode="a" horiz-adv-x="360" 
d="M340 -1h-63l-33 63q-12 -32 -36.5 -51t-66.5 -19q-33 0 -56 15t-37.5 41t-21 61t-6.5 75q0 64 11.5 101.5t36.5 57t63.5 24.5t92.5 5q0 41 -10 62.5t-24.5 29t-32.5 4.5t-33.5 -11t-27 -18.5t-14.5 -16.5l-40 55q14 23 36 41q19 15 48 28t70 13q39 0 66 -12.5t44.5 -34
t25.5 -50t8 -61.5v-402zM224 291q-15 0 -30 -0.5t-28 -8.5t-21 -27.5t-8 -57.5q0 -51 11 -76t40 -25q18 0 27 12.5t9 30.5v152z" />
    <glyph glyph-name="b" unicode="b" 
d="M20 -1v483v243h115v-176q40 12 76.5 8.5t64.5 -23t45 -55t17 -89.5v-232q0 -33 -10 -63t-29 -53t-45.5 -36.5t-59.5 -13.5q-32 0 -55 12.5t-38 30.5l-18 -36h-63zM223 416q0 21 -8.5 33.5t-21 17.5t-28 2t-30.5 -14v-305q0 -26 13.5 -39.5t30 -14t30.5 13t14 40.5v266z
" />
    <glyph glyph-name="c" unicode="c" 
d="M179 559q33 0 62 -12.5t50.5 -34.5t34 -51t12.5 -62v-79h-115v92q0 18 -13 30.5t-31 12.5t-31 -12.5t-13 -30.5v-272q0 -18 13 -31t31 -13t31 13t13 31v91h115v-79q0 -33 -12.5 -62t-34 -51t-50.5 -34.5t-62 -12.5t-62 12.5t-50.5 34.5t-34 51t-12.5 62v247q0 33 12.5 62
t34 51t50.5 34.5t62 12.5z" />
    <glyph glyph-name="d" unicode="d" 
d="M257 35q-16 -18 -38.5 -30.5t-54.5 -12.5q-33 0 -59.5 13.5t-45.5 36.5t-29 53t-10 63v232q0 54 17 89.5t45 55t64.5 23t76.5 -8.5v176h115v-243v-483h-63zM135 150q0 -27 13.5 -40.5t30 -13t30.5 14t14 39.5v305q-15 11 -30.5 14t-28 -2t-21 -17.5t-8.5 -33.5v-266z" />
    <glyph glyph-name="e" unicode="e" 
d="M179 -8q-33 0 -62 12.5t-50.5 34.5t-34 51t-12.5 62v247q0 33 12.5 62t34 51t50.5 34.5t62 12.5t62 -12.5t50.5 -34.5t34 -51t12.5 -62v-79v-48h-203v-132q0 -18 13 -31t31 -13t31 13t13 31v91h115v-79q0 -33 -12.5 -62t-34 -51t-50.5 -34.5t-62 -12.5zM179 455
q-18 0 -31 -12.5t-13 -30.5v-69h88v69q0 18 -13 30.5t-31 12.5z" />
    <glyph glyph-name="f" unicode="f" horiz-adv-x="302" 
d="M67 -1v480h-57v71h57v60q0 25 9.5 46.5t25.5 37.5t37.5 25.5t46.5 9.5h92v-76l-50 1q-19 0 -32 -13t-13 -32v-59h99v-71h-99v-480h-116z" />
    <glyph glyph-name="g" unicode="g" 
d="M73 -100q17 -17 42.5 -25.5t49.5 -4t41 24.5t17 61v46q-40 -12 -76.5 -8.5t-64.5 23t-45 55t-17 89.5v232q0 33 10 63t29 52.5t45.5 36t59.5 13.5q32 0 54.5 -11.5t37.5 -30.5l19 33h63v-581q0 -86 -33.5 -133.5t-82 -62.5t-103 0t-97.5 53zM135 135q0 -21 8.5 -33.5
t21 -17.5t28 -2t30.5 14v74v231q0 26 -14 39.5t-30.5 14t-30 -13t-13.5 -40.5v-266z" />
    <glyph glyph-name="h" unicode="h" 
d="M223 -1v417q0 21 -8.5 33.5t-21 17.5t-28 2t-30.5 -14v-456h-115v726h115v-176q40 12 76.5 8.5t64.5 -23t45 -55t17 -89.5v-391h-115z" />
    <glyph glyph-name="i" unicode="i" horiz-adv-x="156" 
d="M20 550h116v-551h-116v551zM78 590q-29 0 -50 20.5t-21 49.5t21 50t50 21t50 -21t21 -50t-21 -49.5t-50 -20.5z" />
    <glyph glyph-name="j" unicode="j" horiz-adv-x="155" 
d="M20 549h116v-581q0 -57 -15.5 -97t-41.5 -64.5t-59 -34t-68 -6.5t-69.5 18t-62.5 41l50 75q17 -17 42.5 -25.5t49.5 -4t41 24.5t17 61v593zM78 590q-29 0 -50 20.5t-21 49.5t21 50t50 21t49.5 -21t20.5 -50t-20.5 -49.5t-49.5 -20.5z" />
    <glyph glyph-name="k" unicode="k" horiz-adv-x="380" 
d="M20 709h116v-353l102 194h116l-106 -197l112 -354h-116l-108 339v-339h-116v710v0z" />
    <glyph glyph-name="l" unicode="l" horiz-adv-x="156" 
d="M20 -1v710h116v-710h-116v0z" />
    <glyph glyph-name="m" unicode="m" horiz-adv-x="562" 
d="M542 -1h-116v402q0 27 -13.5 40.5t-30 13t-30 -14t-13.5 -39.5v-402h-116v402q0 27 -13.5 40.5t-30 13t-30 -14t-13.5 -39.5v-402h-116v550h63l19 -33q15 19 38 30.5t55 11.5q33 0 59 -13t45 -36q16 21 40 35t59 14q33 0 59.5 -13.5t45.5 -36t29 -52.5t10 -63v-394z" />
    <glyph glyph-name="n" unicode="n" 
d="M102 516q15 19 37.5 30.5t54.5 11.5q33 0 59.5 -13.5t45.5 -36t29 -52.5t10 -63v-394h-115v402q0 27 -14 40.5t-30.5 13t-30 -14t-13.5 -39.5v-402h-115v550h63l19 -33v0z" />
    <glyph glyph-name="o" unicode="o" 
d="M179 559q33 0 62 -12.5t50.5 -34.5t34 -51t12.5 -62v-247q0 -33 -12.5 -62t-34 -51t-50.5 -34.5t-62 -12.5t-62 12.5t-50.5 34.5t-34 51t-12.5 62v247q0 33 12.5 62t34 51t50.5 34.5t62 12.5zM223 412q0 18 -13 30.5t-31 12.5t-31 -12.5t-13 -30.5v-272q0 -18 13 -31
t31 -13t31 13t13 31v272z" />
    <glyph glyph-name="p" unicode="p" 
d="M101 515q15 20 38 32t55 12q33 0 59.5 -13.5t45.5 -36.5t29 -53t10 -63v-232q0 -53 -17 -89t-45 -55.5t-64.5 -22.5t-76.5 9v-238h-115v304v481h63zM223 401q0 28 -14 41t-30.5 13t-30 -14t-13.5 -40v-305q15 -11 30.5 -14t28 2t21 17.5t8.5 33.5v266z" />
    <glyph glyph-name="q" unicode="q" 
d="M164 559q32 0 55 -12t38 -32l18 35h63v-785h-115v238q-40 -12 -76.5 -9t-64.5 22.5t-45 55.5t-17 89v232q0 33 10 63t29 53t45.5 36.5t59.5 13.5zM135 135q0 -21 8.5 -33.5t21 -17.5t28 -2t30.5 14v305q0 26 -14 40t-30.5 14t-30 -13t-13.5 -41v-266z" />
    <glyph glyph-name="r" unicode="r" horiz-adv-x="294" 
d="M136 -1h-116v550l116 1v-63q18 28 51 45.5t87 17.5v-110q-40 0 -66.5 -1.5t-42.5 -15t-22.5 -43t-6.5 -85.5v-296z" />
    <glyph glyph-name="s" unicode="s" 
d="M179 559q33 0 62 -12.5t50.5 -34.5t34 -51t12.5 -62v-35h-115v48q0 18 -13 30.5t-31 12.5t-31 -12.5t-13 -30.5v-27q0 -20 15 -33.5t37.5 -25.5t49 -24.5t49 -30t37.5 -41.5t15 -60v-18q0 -33 -12.5 -62t-34 -51t-50.5 -34.5t-62 -12.5t-62 12.5t-50.5 34.5t-34 51
t-12.5 62v45h115v-57q0 -18 13 -31t31 -13t31 13t13 31v22q0 20 -15 34t-37.5 26t-49 24t-49 29.5t-37.5 42t-15 60.5v21q0 33 12.5 62t34 51t50.5 34.5t62 12.5z" />
    <glyph glyph-name="t" unicode="t" horiz-adv-x="292" 
d="M281 49q-14 -18 -40.5 -37.5t-69.5 -19.5q-25 0 -44 9.5t-32.5 26t-20.5 38t-7 46.5v367h-57v71h58l71 124h44v-124h99v-71h-99v-373q0 -19 11.5 -32t30.5 -13q10 0 19.5 4.5t17.5 10.5l19 -27v0z" />
    <glyph glyph-name="u" unicode="u" 
d="M243 57q-13 -26 -37.5 -45.5t-66.5 -19.5q-33 0 -55.5 13.5t-37 36.5t-20.5 53t-6 63v392h115v-400q0 -27 13.5 -40.5t30 -13t30.5 14t14 39.5v400h115v-551h-63l-32 58v0z" />
    <glyph glyph-name="v" unicode="v" horiz-adv-x="316" 
d="M306 550l-97 -551h-103l-96 551h101l47 -323l45 323h103v0z" />
    <glyph glyph-name="w" unicode="w" horiz-adv-x="516" 
d="M210 -1h-103l-97 551h101l47 -323l45 323h108l47 -323l44 323h104l-97 -551h-103l-48 275l-48 -275v0z" />
    <glyph glyph-name="x" unicode="x" horiz-adv-x="348" 
d="M121 -1h-108l99 294l-102 257h110l49 -124l38 124h108l-93 -258l116 -293h-110l-63 161l-44 -161v0z" />
    <glyph glyph-name="y" unicode="y" horiz-adv-x="360" 
d="M339 -32q0 -57 -15.5 -97t-41 -64.5t-58.5 -34t-68 -6.5t-69.5 18t-62.5 41l50 75q17 -17 42.5 -25.5t49.5 -4t41 24.5t17 61v71q-14 -15 -34.5 -25t-49.5 -10q-33 0 -56 13.5t-37 36.5t-20.5 53t-6.5 63v392h116v-400q0 -27 13.5 -40.5t30 -13t30 14t13.5 39.5h1v399
h116l-1 -581v0z" />
    <glyph glyph-name="z" unicode="z" horiz-adv-x="312" 
d="M292 102v-103h-272v83l151 364h-151v104h267v-77l-147 -371h152v0z" />
    <glyph glyph-name="braceleft" unicode="{" horiz-adv-x="266" 
d="M105 723q0 33 12.5 62t34 50.5t50.5 34t62 12.5h42v-62h-42q-18 0 -30.5 -12.5t-12.5 -30.5v-307q0 -35 -16.5 -65t-43.5 -50q27 -19 43.5 -49t16.5 -66v-306q0 -18 12.5 -31t30.5 -13h42v-62h-42q-33 0 -62 12.5t-50.5 34.5t-34 51t-12.5 62v288q0 19 -12.5 31.5
t-31.5 12.5h-41v9v53v9h41q19 0 31.5 12.5t12.5 30.5v289v0z" />
    <glyph glyph-name="bar" unicode="|" horiz-adv-x="86" 
d="M20 -172v1054h46v-1054h-46v0z" />
    <glyph glyph-name="braceright" unicode="}" horiz-adv-x="266" 
d="M161 434q0 -18 12.5 -30.5t30.5 -12.5h42v-9v-53v-9h-42q-18 0 -30.5 -12.5t-12.5 -31.5v-288q0 -33 -12.5 -62t-34 -51t-51 -34.5t-62.5 -12.5h-41v62h41q19 0 31.5 13t12.5 31v306q0 36 16.5 66t43.5 49q-27 20 -43.5 50t-16.5 65v307q0 18 -12.5 30.5t-31.5 12.5h-41
v62h41q33 0 62.5 -12.5t51 -34t34 -50.5t12.5 -62v-289v0z" />
    <glyph glyph-name="asciitilde" unicode="~" horiz-adv-x="424" 
d="M404 406q0 -39 -10.5 -65.5t-26.5 -43t-36 -24t-39 -7.5q-28 0 -51.5 14t-43 31.5t-35.5 31.5t-29 14q-17 0 -23.5 -15t-6.5 -50h-83q0 40 7 68t19.5 46t29.5 26t36 8q38 0 63.5 -14t44.5 -31.5t35 -31.5t37 -14q9 0 15 6t9 14.5t4 18.5t1 18h83z" />
    <glyph glyph-name="exclamdown" unicode="&#xa1;" horiz-adv-x="182" 
d="M120 520l29 -527h-116l30 527h57zM91 567q-29 0 -50 20.5t-21 49.5t21 50t50 21t50 -21t21 -50t-21 -49.5t-50 -20.5z" />
    <glyph glyph-name="cent" unicode="&#xa2;" 
d="M213 556q27 -6 50 -20t39.5 -34.5t26 -46.5t9.5 -54v-80h-115v92q0 18 -13 31t-31 13t-31 -13t-13 -31v-272q0 -18 13 -30.5t31 -12.5t31 12.5t13 30.5v91h115v-79q0 -29 -9.5 -54.5t-26 -45.5t-39 -34.5t-49.5 -20.5l9 -98h-88l10 98q-27 6 -50 20t-39.5 34.5t-26 46
t-9.5 54.5v248q0 28 9.5 54t26 46.5t39.5 34.5t50 20l-10 101h88l-10 -101v0z" />
    <glyph glyph-name="sterling" unicode="&#xa3;" horiz-adv-x="392" 
d="M256 479v92q0 18 -12.5 31t-30.5 13t-31 -13t-13 -31v-49q0 -46 7 -99t12 -106h184v-88h-181q-2 -40 -13.5 -72.5t-37.5 -52.5h231v-104h-347v104q36 14 49.5 47t14.5 78h-68v88h61q-8 55 -17.5 109.5t-9.5 97.5v35q0 32 12 61.5t34 50.5q22 22 51 34.5t62 12.5t62 -12.5
t50.5 -34t34 -50.5t12.5 -62v-80h-116z" />
    <glyph glyph-name="yen" unicode="&#xa5;" horiz-adv-x="376" 
d="M239 710h117l-109 -457h93v-64h-94v-31h94v-63h-94v-95h-116v95h-94v63h94v31h-94v64h93l-109 457h117l52 -316l50 316v0z" />
    <glyph glyph-name="brokenbar" unicode="&#xa6;" horiz-adv-x="86" 
d="M20 237h46v-383h-46v383zM20 723h46v-383h-46v383z" />
    <glyph glyph-name="section" unicode="&#xa7;" horiz-adv-x="288" 
d="M144 630q26 0 48.5 -10t39.5 -27t26.5 -39.5t9.5 -48.5v-27h-90v37q0 14 -10 24t-24 10t-24 -10t-10 -24v-20q0 -14 9.5 -24t24 -18.5t32 -16.5t34.5 -18q1 -1 5 -3q22 -14 37.5 -35t15.5 -54v-13q0 -29 -12 -53.5t-32 -41.5q19 -14 31.5 -33t12.5 -49v-16
q0 -26 -9.5 -48.5t-26.5 -39.5t-39.5 -26.5t-48.5 -9.5t-48.5 9.5t-39.5 26.5t-26.5 39.5t-9.5 48.5v28h90v-38q0 -14 10 -24t24 -10t24 10t10 24v21q0 13 -9.5 23t-24 18.5t-32 16.5t-34.5 19q-2 1 -2.5 1.5t-2.5 1.5q-22 14 -37.5 34.5t-15.5 53.5v14q0 29 12 53t32 41
q-19 14 -31.5 33.5t-12.5 48.5v16q0 26 9.5 48.5t26.5 39.5t39.5 27t48.5 10zM176 332q-3 10 -12 17t-20 7q-14 0 -24 -10t-10 -24v-17q0 -2 0.5 -4t0.5 -4q0 -1 0.5 -2t0.5 -2q3 -8 12 -16q8 -8 20 -8q14 0 24 10t10 24v18q0 2 -0.5 3.5t-0.5 3.5q-1 2 -1 4z" />
    <glyph glyph-name="dieresis" unicode="&#xa8;" horiz-adv-x="361" 
d="M199 653q0 29 21 49.5t50 20.5t50 -20.5t21 -49.5t-21 -50t-50 -21t-50 21t-21 50zM20 653q0 29 21 49.5t50 20.5t50 -20.5t21 -49.5t-21 -50t-50 -21t-50 21t-21 50z" />
    <glyph glyph-name="copyright" unicode="&#xa9;" horiz-adv-x="604" 
d="M302 573q25 0 47 -9.5t38.5 -26t26 -38.5t9.5 -47v-60h-88v70q0 14 -9.5 23.5t-23.5 9.5t-23.5 -9.5t-9.5 -23.5v-206q0 -14 9.5 -23.5t23.5 -9.5t23.5 9.5t9.5 23.5v69h88v-60q0 -25 -9.5 -47t-26 -38.5t-38.5 -26t-47 -9.5t-47 9.5t-38.5 26t-26 38.5t-9.5 47v187
q0 25 9.5 47t26 38.5t38.5 26t47 9.5zM302 733q58 0 109.5 -22.5t90 -60.5t60.5 -90t22 -110v-183q0 -59 -22 -110.5t-60.5 -89.5t-90 -60.5t-109.5 -22.5q-59 0 -110 22.5t-89.5 60.5t-60.5 89.5t-22 110.5v183q0 58 22 110t60.5 90t89.5 60.5t110 22.5zM553 450
q0 52 -19.5 98t-53.5 80t-80 54t-98 20t-98 -20t-80 -54t-53.5 -80t-19.5 -98v-183q0 -52 19.5 -98t53.5 -80t80 -54t98 -20t98 20t80 54t53.5 80t19.5 98v183z" />
    <glyph glyph-name="ordfeminine" unicode="&#xaa;" horiz-adv-x="262" 
d="M20 605q0 51 21.5 76.5t54.5 34.5t72 6.5t74 -6.5v-384h-44l-13 26q-11 -14 -26.5 -22t-38.5 -8t-41.5 9.5t-31.5 25t-20 36.5t-7 44v162zM101 438q0 -19 9.5 -28.5t20.5 -9t20.5 10t9.5 27.5v225q-24 4 -42 -5.5t-18 -42.5v-177z" />
    <glyph glyph-name="guillemotleft" unicode="&#xab;" horiz-adv-x="324" 
d="M191 578l-98 -223l98 -222h-71l-100 222v0v0l100 223h71zM304 578l-99 -223l99 -222h-71l-100 222v0v0l100 223h71z" />
    <glyph glyph-name="registered" unicode="&#xae;" horiz-adv-x="604" 
d="M310 603q22 0 41 -8.5t33.5 -23t23 -33.5t8.5 -41v-41q0 -44 -32 -76q25 -28 25 -67v-118q0 -33 3 -66h-77q-3 33 -3 66v119q0 14 -10.5 24.5t-24.5 11.5h-17v-221h-77v474h107zM339 498q0 15 -10.5 25.5t-25.5 10.5h-23v-115h23q15 0 25.5 10.5t10.5 25.5v43zM302 733
q58 0 109.5 -22.5t90 -60.5t60.5 -90t22 -110v-183q0 -59 -22 -110.5t-60.5 -89.5t-90 -60.5t-109.5 -22.5q-59 0 -110 22.5t-89.5 60.5t-60.5 89.5t-22 110.5v183q0 58 22 110t60.5 90t89.5 60.5t110 22.5zM553 450q0 52 -19.5 98t-53.5 80t-80 54t-98 20t-98 -20t-80 -54
t-53.5 -80t-19.5 -98v-183q0 -52 19.5 -98t53.5 -80t80 -54t98 -20t98 20t80 54t53.5 80t19.5 98v183z" />
    <glyph glyph-name="degree" unicode="&#xb0;" horiz-adv-x="188" 
d="M94 723q31 0 52.5 -22t21.5 -53t-21.5 -52.5t-52.5 -21.5t-52.5 21.5t-21.5 52.5t21.5 53t52.5 22zM94 621q11 0 19 8t8 19t-8 19t-19 8t-19 -8t-8 -19t8 -19t19 -8z" />
    <glyph glyph-name="plusminus" unicode="&#xb1;" horiz-adv-x="344" 
d="M210 309v-114h-76v114h-114v76h114v114h76v-114h114v-76h-114zM324 0h-304v76h304v-76z" />
    <glyph glyph-name="twosuperior" unicode="&#xb2;" horiz-adv-x="262" 
d="M131 723q23 0 43 -9t35 -24t24 -35t9 -43v-55q0 -29 -10.5 -49t-26 -35t-34 -27.5t-34 -26t-26 -29.5t-10.5 -39v-57h130v-72h-211v146q0 40 22 65t48.5 44.5t48.5 38.5t22 48v56q0 13 -8.5 22t-21.5 9t-21.5 -9t-8.5 -22v-76h-81v68q0 23 9 43t24 35t35 24t43 9z" />
    <glyph glyph-name="threesuperior" unicode="&#xb3;" horiz-adv-x="262" 
d="M131 723q23 0 43 -9t35 -24t24 -35t9 -43v-55q0 -29 -7.5 -50.5t-21.5 -36.5q14 -14 21.5 -35.5t7.5 -50.5v-55q0 -23 -9 -43t-24 -35t-35 -24t-43 -9t-43 9t-35 24t-24 35t-9 43v68h81v-77q0 -13 8.5 -21.5t21.5 -8.5t21.5 8.5t8.5 21.5v57q0 29 -3.5 43.5t-26.5 14.5
h-31v3v65v2h31q23 0 26.5 15t3.5 44v56q0 13 -8.5 22t-21.5 9t-21.5 -9t-8.5 -22v-76h-81v68q0 23 9 43t24 35t35 24t43 9z" />
    <glyph glyph-name="acute" unicode="&#xb4;" horiz-adv-x="172" 
d="M20 612l77 111l55 -50l-102 -89l-30 28v0z" />
    <glyph glyph-name="periodcentered" unicode="&#xb7;" horiz-adv-x="131" 
d="M66 401q19 0 32 -13t13 -32q0 -20 -13 -33t-32 -13t-32.5 13t-13.5 33q0 19 13.5 32t32.5 13z" />
    <glyph glyph-name="cedilla" unicode="&#xb8;" horiz-adv-x="94" 
d="M39 -50q40 0 59.5 -19t19.5 -63v-7q0 -35 -17.5 -60.5t-56.5 -25.5q-31 0 -52.5 21.5t-21.5 52.5v27h47v-27q0 -11 8 -19t19 -8q14 0 20.5 10.5t6.5 27.5v8q0 22 -7.5 28t-24.5 6h-32l-8 29l24 85l52 -1l-36 -65v0z" />
    <glyph glyph-name="onesuperior" unicode="&#xb9;" horiz-adv-x="150" 
d="M130 723v-495h-81v408h-29v50q17 0 27 5.5t16 12.5q7 8 10 18z" />
    <glyph glyph-name="ordmasculine" unicode="&#xba;" horiz-adv-x="262" 
d="M131 723q23 0 43 -9t35 -24t24 -35t9 -43v-283q0 -23 -9 -43t-24 -35t-35 -24t-43 -9t-43 9t-35 24t-24 35t-9 43v283q0 23 9 43t24 35t35 24t43 9zM161 620q0 13 -8.5 22t-21.5 9t-21.5 -9t-8.5 -22v-299q0 -13 8.5 -22t21.5 -9t21.5 9t8.5 22v299z" />
    <glyph glyph-name="guillemotright" unicode="&#xbb;" horiz-adv-x="324" 
d="M304 355v0v0l-100 -222h-71l98 222l-98 223h71zM191 355v0l-100 -222h-71l99 222l-99 223h71l100 -223v0z" />
    <glyph glyph-name="questiondown" unicode="&#xbf;" 
d="M179 -7q-33 0 -62 12.5t-50.5 34t-34 50.5t-12.5 62v62q0 42 10.5 71t26.5 51.5t34 41.5t34 40t26.5 47.5t10.5 63.5l67 1q0 -51 -7 -85.5t-17.5 -59t-22.5 -43t-22.5 -38t-17.5 -43t-7 -57.5v-64q0 -18 13 -31t31 -13t31 13t13 31v110h115v-98q0 -33 -12.5 -62
t-34 -50.5t-50.5 -34t-62 -12.5zM188 577q-29 0 -49.5 20.5t-20.5 49.5t20.5 50t49.5 21t50 -21t21 -50t-21 -49.5t-50 -20.5z" />
    <glyph glyph-name="Agrave" unicode="&#xc0;" horiz-adv-x="372" 
d="M138 86l-11 -87h-117l109 710h137l106 -710h-117l-10 87h-97zM222 189l-35 299l-36 -299h71zM121 847l55 50l77 -111l-30 -28z" />
    <glyph glyph-name="Aacute" unicode="&#xc1;" horiz-adv-x="372" 
d="M138 86l-11 -87h-117l109 710h137l106 -710h-117l-10 87h-97zM222 189l-35 299l-36 -299h71zM128 776l77 111l55 -50l-102 -89z" />
    <glyph glyph-name="Acircumflex" unicode="&#xc2;" horiz-adv-x="372" 
d="M138 86l-11 -87h-117l109 710h137l106 -710h-117l-10 87h-97zM222 189l-35 299l-36 -299h71zM178 890h23l97 -106l-27 -27l-81 49l-82 -49l-26 27z" />
    <glyph glyph-name="Atilde" unicode="&#xc3;" horiz-adv-x="372" 
d="M127 -1h-117l109 710h137l106 -710h-117l-10 87h-97zM187 488l-36 -299h71zM237 817q12 0 15.5 8t3.5 18h52q0 -24 -6.5 -41t-16.5 -27.5t-23 -15t-25 -4.5q-18 0 -32.5 7.5t-26.5 16t-22 16t-19 7.5q-11 0 -15 -8.5t-4 -22.5h-52q0 51 19.5 72.5t43.5 21.5t39 -7.5
t26 -16.5t20.5 -16.5t22.5 -7.5z" />
    <glyph glyph-name="Adieresis" unicode="&#xc4;" horiz-adv-x="372" 
d="M127 -1h-117l109 710h137l106 -710h-117l-10 87h-97zM187 488l-36 -299h71zM209 830q0 29 21 49.5t50 20.5t50 -20.5t21 -49.5t-21 -50t-50 -21t-50 21t-21 50zM30 830q0 29 21 49.5t50 20.5t50 -20.5t21 -49.5t-21 -50t-50 -21t-50 21t-21 50z" />
    <glyph glyph-name="Aring" unicode="&#xc5;" horiz-adv-x="372" 
d="M127 -1h-117l109 710h137l106 -710h-117l-10 87h-97zM187 488l-36 -299h71zM190 865q23 0 38.5 -16t15.5 -39t-15.5 -38.5t-38.5 -15.5t-39 15.5t-16 38.5t16 39t39 16zM190 783q11 0 19 8t8 19t-8 19t-19 8t-19 -8t-8 -19t8 -19t19 -8z" />
    <glyph glyph-name="AE" unicode="&#xc6;" horiz-adv-x="498" 
d="M312 104h166v-104h-282v87h-48l-11 -87h-117l109 710h67h70h207v-103h-161v-115h135v-104h-135v-284zM161 190h35v291z" />
    <glyph glyph-name="Ccedilla" unicode="&#xc7;" 
d="M185 -50q40 0 59.5 -19t19.5 -63v-7q0 -35 -17.5 -60.5t-56.5 -25.5q-31 0 -52.5 21.5t-21.5 52.5v27h47v-27q0 -11 8 -19t19 -8q14 0 20.5 10.5t6.5 27.5v8q0 22 -7.5 28t-24.5 6h-32l-8 29l17 63q-30 3 -56 16.5t-45 34.5t-30 48.5t-11 58.5v405q0 33 12.5 62t34 51
t50.5 34.5t62 12.5t62 -12.5t50.5 -34.5t34 -51t12.5 -62v-121h-115v134q0 18 -13 30.5t-31 12.5t-31 -12.5t-13 -30.5v-430q0 -18 13 -31t31 -13t31 13t13 31v133h115v-121q0 -29 -9.5 -55t-27 -46.5t-41 -35t-50.5 -19.5l-25 -46v0z" />
    <glyph glyph-name="Egrave" unicode="&#xc8;" horiz-adv-x="322" 
d="M302 103v-104h-282v710h277v-103h-161v-115h135v-104h-135v-284h166zM105 859l55 50l77 -111l-30 -28z" />
    <glyph glyph-name="Eacute" unicode="&#xc9;" horiz-adv-x="322" 
d="M302 103v-104h-282v710h277v-103h-161v-115h135v-104h-135v-284h166zM112 788l77 111l55 -50l-102 -89z" />
    <glyph glyph-name="Ecircumflex" unicode="&#xca;" horiz-adv-x="322" 
d="M302 103v-104h-282v710h277v-103h-161v-115h135v-104h-135v-284h166zM162 902h23l97 -106l-27 -27l-81 49l-82 -49l-26 27z" />
    <glyph glyph-name="Edieresis" unicode="&#xcb;" horiz-adv-x="322" 
d="M302 -1h-282v710h277v-103h-161v-115h135v-104h-135v-284h166v-104zM193 842q0 29 21 49.5t50 20.5t50 -20.5t21 -49.5t-21 -50t-50 -21t-50 21t-21 50zM14 842q0 29 21 49.5t50 20.5t50 -20.5t21 -49.5t-21 -50t-50 -21t-50 21t-21 50z" />
    <glyph glyph-name="Igrave" unicode="&#xcc;" horiz-adv-x="156" 
d="M136 709v-710h-116v710h116zM10 854l55 50l77 -111l-30 -28z" />
    <glyph glyph-name="Iacute" unicode="&#xcd;" horiz-adv-x="156" 
d="M136 709v-710h-116v710h116zM17 783l77 111l55 -50l-102 -89z" />
    <glyph glyph-name="Icircumflex" unicode="&#xce;" horiz-adv-x="156" 
d="M136 709v-710h-116v710h116zM67 897h23l97 -106l-27 -27l-81 49l-82 -49l-26 27z" />
    <glyph glyph-name="Idieresis" unicode="&#xcf;" horiz-adv-x="156" 
d="M136 -1h-116v710h116v-710zM98 837q0 29 21 49.5t50 20.5t50 -20.5t21 -49.5t-21 -50t-50 -21t-50 21t-21 50zM-81 837q0 29 21 49.5t50 20.5t50 -20.5t21 -49.5t-21 -50t-50 -21t-50 21t-21 50z" />
    <glyph glyph-name="Ntilde" unicode="&#xd1;" 
d="M136 -1h-116v710h120l91 -358l-9 358h116v-710h-121l-89 354zM231 817q12 0 15.5 8t3.5 18h52q0 -24 -6.5 -41t-16.5 -27.5t-23 -15t-25 -4.5q-18 0 -32.5 7.5t-26.5 16t-22 16t-19 7.5q-11 0 -15 -8.5t-4 -22.5h-52q0 51 19.5 72.5t43.5 21.5t39 -7.5t26 -16.5
t20.5 -16.5t22.5 -7.5z" />
    <glyph glyph-name="Ograve" unicode="&#xd2;" 
d="M179 -7q-33 0 -62 12.5t-50.5 34t-34 50.5t-12.5 62v405q0 33 12.5 62t34 51t50.5 34.5t62 12.5t62 -12.5t50.5 -34.5t34 -51t12.5 -62v-405q0 -33 -12.5 -62t-34 -50.5t-50.5 -34t-62 -12.5zM135 140q0 -18 13 -31t31 -13t31 13t13 31v430q0 18 -13 30.5t-31 12.5
t-31 -12.5t-13 -30.5v-430zM162 914l77 -111l-30 -28l-102 89z" />
    <glyph glyph-name="Oacute" unicode="&#xd3;" 
d="M179 -7q-33 0 -62 12.5t-50.5 34t-34 50.5t-12.5 62v405q0 33 12.5 62t34 51t50.5 34.5t62 12.5t62 -12.5t50.5 -34.5t34 -51t12.5 -62v-405q0 -33 -12.5 -62t-34 -50.5t-50.5 -34t-62 -12.5zM135 140q0 -18 13 -31t31 -13t31 13t13 31v430q0 18 -13 30.5t-31 12.5
t-31 -12.5t-13 -30.5v-430zM191 904l55 -50l-102 -89l-30 28z" />
    <glyph glyph-name="Ocircumflex" unicode="&#xd4;" 
d="M179 -7q-33 0 -62 12.5t-50.5 34t-34 50.5t-12.5 62v405q0 33 12.5 62t34 51t50.5 34.5t62 12.5t62 -12.5t50.5 -34.5t34 -51t12.5 -62v-405q0 -33 -12.5 -62t-34 -50.5t-50.5 -34t-62 -12.5zM135 140q0 -18 13 -31t31 -13t31 13t13 31v430q0 18 -13 30.5t-31 12.5
t-31 -12.5t-13 -30.5v-430zM187 907l97 -106l-27 -27l-81 49l-82 -49l-26 27l96 106h23z" />
    <glyph glyph-name="Otilde" unicode="&#xd5;" 
d="M179 -7q-33 0 -62 12.5t-50.5 34t-34 50.5t-12.5 62v405q0 33 12.5 62t34 51t50.5 34.5t62 12.5t62 -12.5t50.5 -34.5t34 -51t12.5 -62v-405q0 -33 -12.5 -62t-34 -50.5t-50.5 -34t-62 -12.5zM135 140q0 -18 13 -31t31 -13t31 13t13 31v430q0 18 -13 30.5t-31 12.5
t-31 -12.5t-13 -30.5v-430zM223 834q12 0 15.5 8t3.5 18h52q0 -24 -6.5 -41t-16.5 -27.5t-23 -15t-25 -4.5q-18 0 -32.5 7.5t-26.5 16t-22 16t-19 7.5q-11 0 -15 -8.5t-4 -22.5h-52q0 51 19.5 72.5t43.5 21.5t39 -7.5t26 -16.5t20.5 -16.5t22.5 -7.5z" />
    <glyph glyph-name="Odieresis" unicode="&#xd6;" 
d="M179 -7q-33 0 -62 12.5t-50.5 34t-34 50.5t-12.5 62v405q0 33 12.5 62t34 51t50.5 34.5t62 12.5t62 -12.5t50.5 -34.5t34 -51t12.5 -62v-405q0 -33 -12.5 -62t-34 -50.5t-50.5 -34t-62 -12.5zM135 140q0 -18 13 -31t31 -13t31 13t13 31v430q0 18 -13 30.5t-31 12.5
t-31 -12.5t-13 -30.5v-430zM195 847q0 29 21 49.5t50 20.5t50 -20.5t21 -49.5t-21 -50t-50 -21t-50 21t-21 50zM16 847q0 29 21 49.5t50 20.5t50 -20.5t21 -49.5t-21 -50t-50 -21t-50 21t-21 50z" />
    <glyph glyph-name="multiply" unicode="&#xd7;" horiz-adv-x="308" 
d="M73 218l-53 53l80 81l-80 81l53 53l81 -80l81 80l53 -53l-80 -81l80 -81l-53 -53l-81 80l-81 -80v0z" />
    <glyph glyph-name="Oslash" unicode="&#xd8;" 
d="M49 60q-29 40 -29 92v405q0 33 12.5 62t34 51t50.5 34.5t62 12.5q12 0 24 -2t23 -5h99l-17 -60q30 -41 30 -93v-405q0 -33 -12.5 -62t-34 -50.5t-50.5 -34t-62 -12.5q-25 0 -51 8h-95zM179 96q18 0 31 13t13 31v195l-64 -235q8 -4 20 -4zM135 376l63 232q-10 5 -19 5
q-18 0 -31 -12.5t-13 -30.5v-194z" />
    <glyph glyph-name="Ugrave" unicode="&#xd9;" 
d="M179 -7q-33 0 -62 12.5t-50.5 34t-34 50.5t-12.5 62v557h115v-569q0 -18 13 -31t31 -13t31 13t13 31v569h115v-557q0 -33 -12.5 -62t-34 -50.5t-50.5 -34t-62 -12.5zM165 899l77 -111l-30 -28l-102 89z" />
    <glyph glyph-name="Uacute" unicode="&#xda;" 
d="M179 -7q-33 0 -62 12.5t-50.5 34t-34 50.5t-12.5 62v557h115v-569q0 -18 13 -31t31 -13t31 13t13 31v569h115v-557q0 -33 -12.5 -62t-34 -50.5t-50.5 -34t-62 -12.5zM194 889l55 -50l-102 -89l-30 28z" />
    <glyph glyph-name="Ucircumflex" unicode="&#xdb;" 
d="M179 -7q-33 0 -62 12.5t-50.5 34t-34 50.5t-12.5 62v557h115v-569q0 -18 13 -31t31 -13t31 13t13 31v569h115v-557q0 -33 -12.5 -62t-34 -50.5t-50.5 -34t-62 -12.5zM190 892l97 -106l-27 -27l-81 49l-82 -49l-26 27l96 106h23z" />
    <glyph glyph-name="Udieresis" unicode="&#xdc;" 
d="M179 -7q-33 0 -62 12.5t-50.5 34t-34 50.5t-12.5 62v557h115v-569q0 -18 13 -31t31 -13t31 13t13 31v569h115v-557q0 -33 -12.5 -62t-34 -50.5t-50.5 -34t-62 -12.5zM198 832q0 29 21 49.5t50 20.5t50 -20.5t21 -49.5t-21 -50t-50 -21t-50 21t-21 50zM19 832
q0 29 21 49.5t50 20.5t50 -20.5t21 -49.5t-21 -50t-50 -21t-50 21t-21 50z" />
    <glyph glyph-name="Yacute" unicode="&#xdd;" horiz-adv-x="356" 
d="M120 247v0l-110 462h117l52 -316l50 316h117l-110 -461v-249h-116v248zM119 771l77 111l55 -50l-102 -89z" />
    <glyph glyph-name="germandbls" unicode="&#xdf;" 
d="M338 490q0 -31 -11 -58.5t-31 -48.5q20 -22 31 -49t11 -59v-116q0 -33 -7.5 -62t-23 -50.5t-39.5 -34t-57 -12.5q-26 0 -44 8.5t-32 23.5l1 -137h-116v655q0 33 12.5 62.5t34 51t50.5 34t62 12.5t62 -12.5t50.5 -34t34 -51t12.5 -62.5v-60zM223 563q0 18 -13 31t-31 13
t-31 -13t-13 -31v-128v-104v-168q1 -18 7 -29t13.5 -17.5t15.5 -9t14 -2.5q19 4 28.5 18t9.5 34v121q0 20 -13 34t-32 17v107q19 4 32 18t13 34v75z" />
    <glyph glyph-name="agrave" unicode="&#xe0;" horiz-adv-x="360" 
d="M340 -1h-63l-33 63q-12 -32 -36.5 -51t-66.5 -19q-33 0 -56 15t-37.5 41t-21 61t-6.5 75q0 64 11.5 101.5t36.5 57t63.5 24.5t92.5 5q0 41 -10 62.5t-24.5 29t-32.5 4.5t-33.5 -11t-27 -18.5t-14.5 -16.5l-40 55q14 23 36 41q19 15 48 28t70 13q39 0 66 -12.5t44.5 -34
t25.5 -50t8 -61.5v-402zM224 291q-15 0 -30 -0.5t-28 -8.5t-21 -27.5t-8 -57.5q0 -51 11 -76t40 -25q18 0 27 12.5t9 30.5v152zM177 755l77 -111l-30 -28l-102 89z" />
    <glyph glyph-name="aacute" unicode="&#xe1;" horiz-adv-x="360" 
d="M340 -1h-63l-33 63q-12 -32 -36.5 -51t-66.5 -19q-33 0 -56 15t-37.5 41t-21 61t-6.5 75q0 64 11.5 101.5t36.5 57t63.5 24.5t92.5 5q0 41 -10 62.5t-24.5 29t-32.5 4.5t-33.5 -11t-27 -18.5t-14.5 -16.5l-40 55q14 23 36 41q19 15 48 28t70 13q39 0 66 -12.5t44.5 -34
t25.5 -50t8 -61.5v-402zM224 291q-15 0 -30 -0.5t-28 -8.5t-21 -27.5t-8 -57.5q0 -51 11 -76t40 -25q18 0 27 12.5t9 30.5v152zM206 745l55 -50l-102 -89l-30 28z" />
    <glyph glyph-name="acircumflex" unicode="&#xe2;" horiz-adv-x="360" 
d="M340 -1h-63l-33 63q-12 -32 -36.5 -51t-66.5 -19q-33 0 -56 15t-37.5 41t-21 61t-6.5 75q0 64 11.5 101.5t36.5 57t63.5 24.5t92.5 5q0 41 -10 62.5t-24.5 29t-32.5 4.5t-33.5 -11t-27 -18.5t-14.5 -16.5l-40 55q14 23 36 41q19 15 48 28t70 13q39 0 66 -12.5t44.5 -34
t25.5 -50t8 -61.5v-402zM224 291q-15 0 -30 -0.5t-28 -8.5t-21 -27.5t-8 -57.5q0 -51 11 -76t40 -25q18 0 27 12.5t9 30.5v152zM202 748l97 -106l-27 -27l-81 49l-82 -49l-26 27l96 106h23z" />
    <glyph glyph-name="atilde" unicode="&#xe3;" horiz-adv-x="360" 
d="M340 -1h-63l-33 63q-12 -32 -36.5 -51t-66.5 -19q-33 0 -56 15t-37.5 41t-21 61t-6.5 75q0 64 11.5 101.5t36.5 57t63.5 24.5t92.5 5q0 41 -10 62.5t-24.5 29t-32.5 4.5t-33.5 -11t-27 -18.5t-14.5 -16.5l-40 55q14 23 36 41q19 15 48 28t70 13q39 0 66 -12.5t44.5 -34
t25.5 -50t8 -61.5v-402zM224 291q-15 0 -30 -0.5t-28 -8.5t-21 -27.5t-8 -57.5q0 -51 11 -76t40 -25q18 0 27 12.5t9 30.5v152zM238 675q12 0 15.5 8t3.5 18h52q0 -24 -6.5 -41t-16.5 -27.5t-23 -15t-25 -4.5q-18 0 -32.5 7.5t-26.5 16t-22 16t-19 7.5q-11 0 -15 -8.5
t-4 -22.5h-52q0 51 19.5 72.5t43.5 21.5t39 -7.5t26 -16.5t20.5 -16.5t22.5 -7.5z" />
    <glyph glyph-name="adieresis" unicode="&#xe4;" horiz-adv-x="360" 
d="M340 -1h-63l-33 63q-12 -32 -36.5 -51t-66.5 -19q-33 0 -56 15t-37.5 41t-21 61t-6.5 75q0 64 11.5 101.5t36.5 57t63.5 24.5t92.5 5q0 41 -10 62.5t-24.5 29t-32.5 4.5t-33.5 -11t-27 -18.5t-14.5 -16.5l-40 55q14 23 36 41q19 15 48 28t70 13q39 0 66 -12.5t44.5 -34
t25.5 -50t8 -61.5v-402zM224 291q-15 0 -30 -0.5t-28 -8.5t-21 -27.5t-8 -57.5q0 -51 11 -76t40 -25q18 0 27 12.5t9 30.5v152zM210 688q0 29 21 49.5t50 20.5t50 -20.5t21 -49.5t-21 -50t-50 -21t-50 21t-21 50zM31 688q0 29 21 49.5t50 20.5t50 -20.5t21 -49.5t-21 -50
t-50 -21t-50 21t-21 50z" />
    <glyph glyph-name="aring" unicode="&#xe5;" horiz-adv-x="360" 
d="M340 -1h-63l-33 63q-12 -32 -36.5 -51t-66.5 -19q-33 0 -56 15t-37.5 41t-21 61t-6.5 75q0 64 11.5 101.5t36.5 57t63.5 24.5t92.5 5q0 41 -10 62.5t-24.5 29t-32.5 4.5t-33.5 -11t-27 -18.5t-14.5 -16.5l-40 55q14 23 36 41q19 15 48 28t70 13q39 0 66 -12.5t44.5 -34
t25.5 -50t8 -61.5v-402zM224 291q-15 0 -30 -0.5t-28 -8.5t-21 -27.5t-8 -57.5q0 -51 11 -76t40 -25q18 0 27 12.5t9 30.5v152zM191 723q23 0 38.5 -16t15.5 -39t-15.5 -38.5t-38.5 -15.5t-39 15.5t-16 38.5t16 39t39 16zM191 641q11 0 19 8t8 19t-8 19t-19 8t-19 -8t-8 -19
t8 -19t19 -8z" />
    <glyph glyph-name="ae" unicode="&#xe6;" horiz-adv-x="571" 
d="M392 -8q-26 0 -52 8v-1h-63l-33 63q-12 -32 -36.5 -51t-66.5 -19q-33 0 -56 15t-37.5 41t-21 61t-6.5 75q0 64 11.5 101.5t36.5 57t63.5 24.5t92.5 5q0 41 -10 62.5t-24.5 29t-32.5 4.5t-33.5 -11t-27 -18.5t-14.5 -16.5l-40 55q14 23 36 41q19 15 48 28t70 13
q32 0 56.5 -9t41.5 -25q20 16 45 25t53 9q33 0 62 -12.5t50.5 -34.5t34 -51t12.5 -62v-127h-203v-132q0 -18 13 -31t31 -13t31 13t13 31v91h115v-79q0 -33 -12.5 -62t-34 -51t-50.5 -34.5t-62 -12.5zM224 291q-15 0 -30 -0.5t-28 -8.5t-21 -27.5t-8 -57.5q0 -51 11 -76
t40 -25q18 0 27 12.5t9 30.5v152zM392 455q-18 0 -31 -12.5t-13 -30.5v-69h88v69q0 18 -13 30.5t-31 12.5z" />
    <glyph glyph-name="ccedilla" unicode="&#xe7;" 
d="M192 -50q40 0 59.5 -19t19.5 -63v-7q0 -35 -17.5 -60.5t-56.5 -25.5q-31 0 -52.5 21.5t-21.5 52.5v27h47v-27q0 -11 8 -19t19 -8q14 0 20.5 10.5t6.5 27.5v8q0 22 -7.5 28t-24.5 6h-32l-8 29l17 61q-31 2 -58 15t-47.5 35t-32 50t-11.5 60v247q0 33 12.5 62t34 51
t50.5 34.5t62 12.5t62 -12.5t50.5 -34.5t34 -51t12.5 -62v-79h-115v92q0 18 -13 30.5t-31 12.5t-31 -12.5t-13 -30.5v-272q0 -18 13 -31t31 -13t31 13t13 31v91h115v-79q0 -57 -34 -99.5t-86 -55.5l-26 -47v0z" />
    <glyph glyph-name="egrave" unicode="&#xe8;" 
d="M179 -8q-33 0 -62 12.5t-50.5 34.5t-34 51t-12.5 62v247q0 33 12.5 62t34 51t50.5 34.5t62 12.5t62 -12.5t50.5 -34.5t34 -51t12.5 -62v-79v-48h-203v-132q0 -18 13 -31t31 -13t31 13t13 31v91h115v-79q0 -33 -12.5 -62t-34 -51t-50.5 -34.5t-62 -12.5zM179 455
q-18 0 -31 -12.5t-13 -30.5v-69h88v69q0 18 -13 30.5t-31 12.5zM167 755l77 -111l-30 -28l-102 89z" />
    <glyph glyph-name="eacute" unicode="&#xe9;" 
d="M179 -8q-33 0 -62 12.5t-50.5 34.5t-34 51t-12.5 62v247q0 33 12.5 62t34 51t50.5 34.5t62 12.5t62 -12.5t50.5 -34.5t34 -51t12.5 -62v-79v-48h-203v-132q0 -18 13 -31t31 -13t31 13t13 31v91h115v-79q0 -33 -12.5 -62t-34 -51t-50.5 -34.5t-62 -12.5zM179 455
q-18 0 -31 -12.5t-13 -30.5v-69h88v69q0 18 -13 30.5t-31 12.5zM196 745l55 -50l-102 -89l-30 28z" />
    <glyph glyph-name="ecircumflex" unicode="&#xea;" 
d="M179 -8q-33 0 -62 12.5t-50.5 34.5t-34 51t-12.5 62v247q0 33 12.5 62t34 51t50.5 34.5t62 12.5t62 -12.5t50.5 -34.5t34 -51t12.5 -62v-79v-48h-203v-132q0 -18 13 -31t31 -13t31 13t13 31v91h115v-79q0 -33 -12.5 -62t-34 -51t-50.5 -34.5t-62 -12.5zM179 455
q-18 0 -31 -12.5t-13 -30.5v-69h88v69q0 18 -13 30.5t-31 12.5zM192 748l97 -106l-27 -27l-81 49l-82 -49l-26 27l96 106h23z" />
    <glyph glyph-name="edieresis" unicode="&#xeb;" 
d="M179 -8q-33 0 -62 12.5t-50.5 34.5t-34 51t-12.5 62v247q0 33 12.5 62t34 51t50.5 34.5t62 12.5t62 -12.5t50.5 -34.5t34 -51t12.5 -62v-79v-48h-203v-132q0 -18 13 -31t31 -13t31 13t13 31v91h115v-79q0 -33 -12.5 -62t-34 -51t-50.5 -34.5t-62 -12.5zM179 455
q-18 0 -31 -12.5t-13 -30.5v-69h88v69q0 18 -13 30.5t-31 12.5zM200 688q0 29 21 49.5t50 20.5t50 -20.5t21 -49.5t-21 -50t-50 -21t-50 21t-21 50zM21 688q0 29 21 49.5t50 20.5t50 -20.5t21 -49.5t-21 -50t-50 -21t-50 21t-21 50z" />
    <glyph glyph-name="igrave" unicode="&#xec;" horiz-adv-x="156" 
d="M20 550h116v-551h-116v551zM12 692l55 50l77 -111l-30 -28z" />
    <glyph glyph-name="iacute" unicode="&#xed;" horiz-adv-x="156" 
d="M20 550h116v-551h-116v551zM19 621l77 111l55 -50l-102 -89z" />
    <glyph glyph-name="icircumflex" unicode="&#xee;" horiz-adv-x="156" 
d="M20 550h116v-551h-116v551zM69 735h23l97 -106l-27 -27l-81 49l-82 -49l-26 27z" />
    <glyph glyph-name="idieresis" unicode="&#xef;" horiz-adv-x="156" 
d="M20 550h116v-551h-116v551zM100 675q0 29 21 49.5t50 20.5t50 -20.5t21 -49.5t-21 -50t-50 -21t-50 21t-21 50zM-79 675q0 29 21 49.5t50 20.5t50 -20.5t21 -49.5t-21 -50t-50 -21t-50 21t-21 50z" />
    <glyph glyph-name="ntilde" unicode="&#xf1;" 
d="M102 516q15 19 37.5 30.5t54.5 11.5q33 0 59.5 -13.5t45.5 -36t29 -52.5t10 -63v-394h-115v402q0 27 -14 40.5t-30.5 13t-30 -14t-13.5 -39.5v-402h-115v550h63zM228 673q12 0 15.5 8t3.5 18h52q0 -24 -6.5 -41t-16.5 -27.5t-23 -15t-25 -4.5q-18 0 -32.5 7.5t-26.5 16
t-22 16t-19 7.5q-11 0 -15 -8.5t-4 -22.5h-52q0 51 19.5 72.5t43.5 21.5t39 -7.5t26 -16.5t20.5 -16.5t22.5 -7.5z" />
    <glyph glyph-name="ograve" unicode="&#xf2;" 
d="M179 559q33 0 62 -12.5t50.5 -34.5t34 -51t12.5 -62v-247q0 -33 -12.5 -62t-34 -51t-50.5 -34.5t-62 -12.5t-62 12.5t-50.5 34.5t-34 51t-12.5 62v247q0 33 12.5 62t34 51t50.5 34.5t62 12.5zM223 412q0 18 -13 30.5t-31 12.5t-31 -12.5t-13 -30.5v-272q0 -18 13 -31
t31 -13t31 13t13 31v272zM165 750l77 -111l-30 -28l-102 89z" />
    <glyph glyph-name="oacute" unicode="&#xf3;" 
d="M179 559q33 0 62 -12.5t50.5 -34.5t34 -51t12.5 -62v-247q0 -33 -12.5 -62t-34 -51t-50.5 -34.5t-62 -12.5t-62 12.5t-50.5 34.5t-34 51t-12.5 62v247q0 33 12.5 62t34 51t50.5 34.5t62 12.5zM223 412q0 18 -13 30.5t-31 12.5t-31 -12.5t-13 -30.5v-272q0 -18 13 -31
t31 -13t31 13t13 31v272zM194 740l55 -50l-102 -89l-30 28z" />
    <glyph glyph-name="ocircumflex" unicode="&#xf4;" 
d="M179 559q33 0 62 -12.5t50.5 -34.5t34 -51t12.5 -62v-247q0 -33 -12.5 -62t-34 -51t-50.5 -34.5t-62 -12.5t-62 12.5t-50.5 34.5t-34 51t-12.5 62v247q0 33 12.5 62t34 51t50.5 34.5t62 12.5zM223 412q0 18 -13 30.5t-31 12.5t-31 -12.5t-13 -30.5v-272q0 -18 13 -31
t31 -13t31 13t13 31v272zM190 743l97 -106l-27 -27l-81 49l-82 -49l-26 27l96 106h23z" />
    <glyph glyph-name="otilde" unicode="&#xf5;" 
d="M179 559q33 0 62 -12.5t50.5 -34.5t34 -51t12.5 -62v-247q0 -33 -12.5 -62t-34 -51t-50.5 -34.5t-62 -12.5t-62 12.5t-50.5 34.5t-34 51t-12.5 62v247q0 33 12.5 62t34 51t50.5 34.5t62 12.5zM223 412q0 18 -13 30.5t-31 12.5t-31 -12.5t-13 -30.5v-272q0 -18 13 -31
t31 -13t31 13t13 31v272zM226 670q12 0 15.5 8t3.5 18h52q0 -24 -6.5 -41t-16.5 -27.5t-23 -15t-25 -4.5q-18 0 -32.5 7.5t-26.5 16t-22 16t-19 7.5q-11 0 -15 -8.5t-4 -22.5h-52q0 51 19.5 72.5t43.5 21.5t39 -7.5t26 -16.5t20.5 -16.5t22.5 -7.5z" />
    <glyph glyph-name="odieresis" unicode="&#xf6;" 
d="M179 559q33 0 62 -12.5t50.5 -34.5t34 -51t12.5 -62v-247q0 -33 -12.5 -62t-34 -51t-50.5 -34.5t-62 -12.5t-62 12.5t-50.5 34.5t-34 51t-12.5 62v247q0 33 12.5 62t34 51t50.5 34.5t62 12.5zM223 412q0 18 -13 30.5t-31 12.5t-31 -12.5t-13 -30.5v-272q0 -18 13 -31
t31 -13t31 13t13 31v272zM198 683q0 29 21 49.5t50 20.5t50 -20.5t21 -49.5t-21 -50t-50 -21t-50 21t-21 50zM19 683q0 29 21 49.5t50 20.5t50 -20.5t21 -49.5t-21 -50t-50 -21t-50 21t-21 50z" />
    <glyph glyph-name="divide" unicode="&#xf7;" horiz-adv-x="344" 
d="M324 310h-304v76h304v-76zM100 530q0 29 21 49.5t50 20.5t50 -20.5t21 -49.5t-21 -50t-50 -21t-50 21t-21 50zM100 171q0 29 21 49.5t50 20.5t50 -20.5t21 -49.5t-21 -50t-50 -21t-50 21t-21 50z" />
    <glyph glyph-name="oslash" unicode="&#xf8;" 
d="M61 44q-20 22 -30.5 49t-10.5 59v247q0 33 12.5 62t34 51t50.5 34.5t62 12.5q5 0 11 -0.5t11 -1.5l17 63h99l-29 -105q23 -22 36.5 -52t13.5 -64v-247q0 -33 -12.5 -62t-34 -51t-50.5 -34.5t-62 -12.5q-17 0 -32 3l-23 -84h-99zM179 96q18 0 31 13t13 31v134l-49 -178h5z
M135 315l38 139q-16 -2 -27 -13.5t-11 -28.5v-97z" />
    <glyph glyph-name="ugrave" unicode="&#xf9;" 
d="M243 57q-13 -26 -37.5 -45.5t-66.5 -19.5q-33 0 -55.5 13.5t-37 36.5t-20.5 53t-6 63v392h115v-400q0 -27 13.5 -40.5t30 -13t30.5 14t14 39.5v400h115v-551h-63zM167 738l77 -111l-30 -28l-102 89z" />
    <glyph glyph-name="uacute" unicode="&#xfa;" 
d="M243 57q-13 -26 -37.5 -45.5t-66.5 -19.5q-33 0 -55.5 13.5t-37 36.5t-20.5 53t-6 63v392h115v-400q0 -27 13.5 -40.5t30 -13t30.5 14t14 39.5v400h115v-551h-63zM196 728l55 -50l-102 -89l-30 28z" />
    <glyph glyph-name="ucircumflex" unicode="&#xfb;" 
d="M243 57q-13 -26 -37.5 -45.5t-66.5 -19.5q-33 0 -55.5 13.5t-37 36.5t-20.5 53t-6 63v392h115v-400q0 -27 13.5 -40.5t30 -13t30.5 14t14 39.5v400h115v-551h-63zM192 731l97 -106l-27 -27l-81 49l-82 -49l-26 27l96 106h23z" />
    <glyph glyph-name="udieresis" unicode="&#xfc;" 
d="M243 57q-13 -26 -37.5 -45.5t-66.5 -19.5q-33 0 -55.5 13.5t-37 36.5t-20.5 53t-6 63v392h115v-400q0 -27 13.5 -40.5t30 -13t30.5 14t14 39.5v400h115v-551h-63zM200 671q0 29 21 49.5t50 20.5t50 -20.5t21 -49.5t-21 -50t-50 -21t-50 21t-21 50zM21 671q0 29 21 49.5
t50 20.5t50 -20.5t21 -49.5t-21 -50t-50 -21t-50 21t-21 50z" />
    <glyph glyph-name="yacute" unicode="&#xfd;" horiz-adv-x="360" 
d="M339 -32q0 -57 -15.5 -97t-41 -64.5t-58.5 -34t-68 -6.5t-69.5 18t-62.5 41l50 75q17 -17 42.5 -25.5t49.5 -4t41 24.5t17 61v71q-14 -15 -34.5 -25t-49.5 -10q-33 0 -56 13.5t-37 36.5t-20.5 53t-6.5 63v392h116v-400q0 -27 13.5 -40.5t30 -13t30 14t13.5 39.5h1v399
h116zM196 725l55 -50l-102 -89l-30 28z" />
    <glyph glyph-name="ydieresis" unicode="&#xff;" horiz-adv-x="360" 
d="M339 -32q0 -57 -15.5 -97t-41 -64.5t-58.5 -34t-68 -6.5t-69.5 18t-62.5 41l50 75q17 -17 42.5 -25.5t49.5 -4t41 24.5t17 61v71q-14 -15 -34.5 -25t-49.5 -10q-33 0 -56 13.5t-37 36.5t-20.5 53t-6.5 63v392h116v-400q0 -27 13.5 -40.5t30 -13t30 14t13.5 39.5h1v399
h116zM200 668q0 29 21 49.5t50 20.5t50 -20.5t21 -49.5t-21 -50t-50 -21t-50 21t-21 50zM21 668q0 29 21 49.5t50 20.5t50 -20.5t21 -49.5t-21 -50t-50 -21t-50 21t-21 50z" />
    <glyph glyph-name="dotlessi" unicode="&#x131;" horiz-adv-x="156" 
d="M20 550h116v-551h-116v551z" />
    <glyph glyph-name="Lslash" unicode="&#x141;" horiz-adv-x="434" 
d="M20 389h130v320h116v-320h141v-76h-141v-210h148v-104h-264v314h-130v76z" />
    <glyph glyph-name="lslash" unicode="&#x142;" horiz-adv-x="427" 
d="M20 388h132v321h116v-321h139v-76h-139v-313h-116v313h-132v76z" />
    <glyph glyph-name="OE" unicode="&#x152;" horiz-adv-x="531" 
d="M511 -1h-282v2q-26 -8 -50 -8q-33 0 -62 12.5t-50.5 34t-34 50.5t-12.5 62v405q0 33 12.5 62t34 51t50.5 34.5t62 12.5q24 0 50 -8h277v-103h-161v-115h135v-104h-135v-284h166v-104zM135 140q0 -18 13 -31t31 -13t31 13t13 31v430q0 18 -13 30.5t-31 12.5t-31 -12.5
t-13 -30.5v-430z" />
    <glyph glyph-name="oe" unicode="&#x153;" horiz-adv-x="567" 
d="M388 -8q-30 0 -57 10.5t-48 28.5q-21 -18 -47.5 -28.5t-56.5 -10.5q-33 0 -62 12.5t-50.5 34.5t-34 51t-12.5 62v247q0 33 12.5 62t34 51t50.5 34.5t62 12.5q30 0 56.5 -10.5t47.5 -29.5q21 19 48 29.5t57 10.5q33 0 62 -12.5t50.5 -34.5t34 -51t12.5 -62v-127h-203v-132
q0 -18 13 -31t31 -13t31 13t13 31v91h115v-79q0 -33 -12.5 -62t-34 -51t-50.5 -34.5t-62 -12.5zM223 412q0 18 -13 30.5t-31 12.5t-31 -12.5t-13 -30.5v-272q0 -18 13 -31t31 -13t31 13t13 31v272zM388 455q-18 0 -31 -12.5t-13 -30.5v-69h88v69q0 18 -13 30.5t-31 12.5z
" />
    <glyph glyph-name="Scaron" unicode="&#x160;" 
d="M179 -7q-33 0 -62 12.5t-50.5 34t-34 50.5t-12.5 62v99h115v-111q0 -18 13 -31t31 -13t31 13t13 31v60q0 33 -15 56.5t-37.5 42.5t-49 36.5t-49 39t-37.5 50.5t-15 70v62q0 33 12.5 62t34 51t50.5 34.5t62 12.5t62 -12.5t50.5 -34.5t34 -51t12.5 -62v-97h-115v110
q0 18 -13 30.5t-31 12.5t-31 -12.5t-13 -30.5v-65q0 -28 15 -48.5t37.5 -38.5t49 -36t49 -40t37.5 -50t15 -67v-73q0 -33 -12.5 -62t-34 -50.5t-50.5 -34t-62 -12.5zM260 910l27 -28l-96 -105h-23l-97 105l26 28l82 -50z" />
    <glyph glyph-name="scaron" unicode="&#x161;" 
d="M179 559q33 0 62 -12.5t50.5 -34.5t34 -51t12.5 -62v-35h-115v48q0 18 -13 30.5t-31 12.5t-31 -12.5t-13 -30.5v-27q0 -20 15 -33.5t37.5 -25.5t49 -24.5t49 -30t37.5 -41.5t15 -60v-18q0 -33 -12.5 -62t-34 -51t-50.5 -34.5t-62 -12.5t-62 12.5t-50.5 34.5t-34 51
t-12.5 62v45h115v-57q0 -18 13 -31t31 -13t31 13t13 31v22q0 20 -15 34t-37.5 26t-49 24t-49 29.5t-37.5 42t-15 60.5v21q0 33 12.5 62t34 51t50.5 34.5t62 12.5zM260 743l27 -28l-96 -105h-23l-97 105l26 28l82 -50z" />
    <glyph glyph-name="Ydieresis" unicode="&#x178;" horiz-adv-x="356" 
d="M10 709h117l52 -316l50 316h117l-110 -461v-249h-116v248zM200 825q0 29 21 49.5t50 20.5t50 -20.5t21 -49.5t-21 -50t-50 -21t-50 21t-21 50zM21 825q0 29 21 49.5t50 20.5t50 -20.5t21 -49.5t-21 -50t-50 -21t-50 21t-21 50z" />
    <glyph glyph-name="Zcaron" unicode="&#x17d;" horiz-adv-x="319" 
d="M20 83l154 523h-154v103h277v-77l-155 -529h160v-104h-282v84zM166 857l81 50l27 -28l-96 -105h-23l-97 105l26 28z" />
    <glyph glyph-name="zcaron" unicode="&#x17e;" horiz-adv-x="312" 
d="M292 102v-103h-272v83l151 364h-151v104h267v-77l-147 -371h152zM161 693l81 50l27 -28l-96 -105h-23l-97 105l26 28z" />
    <glyph glyph-name="circumflex" unicode="&#x2c6;" horiz-adv-x="256" 
d="M116 723h23l97 -106l-27 -27l-81 49l-82 -49l-26 27l96 106v0z" />
    <glyph glyph-name="caron" unicode="&#x2c7;" horiz-adv-x="256" 
d="M128 673l81 50l27 -28l-96 -105h-23l-97 105l26 28l82 -50v0z" />
    <glyph glyph-name="breve" unicode="&#x2d8;" horiz-adv-x="188" 
d="M168 723q0 -31 -21.5 -52.5t-52.5 -21.5t-52.5 21.5t-21.5 52.5h47q0 -11 8 -19t19 -8t19 8t8 19h47v0z" />
    <glyph glyph-name="dotaccent" unicode="&#x2d9;" horiz-adv-x="182" 
d="M20 653q0 29 21 49.5t50 20.5t50 -20.5t21 -49.5t-21 -50t-50 -21t-50 21t-21 50z" />
    <glyph glyph-name="ring" unicode="&#x2da;" horiz-adv-x="149" 
d="M75 723q23 0 38.5 -16t15.5 -39t-15.5 -38.5t-38.5 -15.5t-39 15.5t-16 38.5t16 39t39 16zM75 641q11 0 19 8t8 19t-8 19t-19 8t-19 -8t-8 -19t8 -19t19 -8z" />
    <glyph glyph-name="ogonek" unicode="&#x2db;" horiz-adv-x="99" 
d="M18 15l52 1l24 -85l-8 -29h-32q-17 0 -24.5 -6t-7.5 -28v-8q0 -17 6.5 -27.5t20.5 -10.5q11 0 19 8t8 19v27h47v-27q0 -31 -21.5 -52.5t-52.5 -21.5q-39 0 -56.5 25.5t-17.5 60.5v7q0 44 19.5 63t59.5 19z" />
    <glyph glyph-name="tilde" unicode="&#x2dc;" horiz-adv-x="282" 
d="M191 675q12 0 15.5 8t3.5 18h52q0 -24 -6.5 -41t-16.5 -27.5t-23 -15t-25 -4.5q-18 0 -32.5 7.5t-26.5 16t-22 16t-19 7.5q-11 0 -15 -8.5t-4 -22.5h-52q0 51 19.5 72.5t43.5 21.5t39 -7.5t26 -16.5t20.5 -16.5t22.5 -7.5z" />
    <glyph glyph-name="hungarumlaut" unicode="&#x2dd;" horiz-adv-x="283" 
d="M208 723l55 -50l-102 -89l-30 28zM97 723l55 -50l-102 -89l-30 28z" />
    <glyph glyph-name="endash" unicode="&#x2013;" horiz-adv-x="427" 
d="M20 313v76h387v-76h-387v0z" />
    <glyph glyph-name="emdash" unicode="&#x2014;" horiz-adv-x="510" 
d="M20 316v76h470v-76h-470v0z" />
    <glyph glyph-name="quoteleft" unicode="&#x2018;" horiz-adv-x="182" 
d="M109 716q-8 -8 -12 -21t-6 -27q29 0 50 -20.5t21 -49.5t-21 -50t-50 -21t-50 21t-21 50q0 32 13 55t29 39q18 18 42 31z" />
    <glyph glyph-name="quoteright" unicode="&#x2019;" horiz-adv-x="182" 
d="M162 652q0 -32 -13 -56t-29 -39q-18 -18 -42 -30l-5 7q8 8 12 20.5t6 26.5q-29 0 -50 21t-21 50t21 50t50 21t50 -21t21 -50z" />
    <glyph glyph-name="quotesinglbase" unicode="&#x201a;" horiz-adv-x="182" 
d="M73 -54q8 8 12 21t6 27q-29 0 -50 21t-21 50t21 49.5t50 20.5t50 -20.5t21 -49.5q0 -32 -13 -56t-29 -39q-18 -18 -42 -30z" />
    <glyph glyph-name="quotedblleft" unicode="&#x201c;" horiz-adv-x="334" 
d="M244 668q29 0 49.5 -20.5t20.5 -49.5t-21 -50t-50 -21t-49.5 21t-20.5 50q0 32 12.5 55t28.5 39q18 18 42 31l6 -7q-8 -8 -12 -21t-6 -27zM91 668q29 0 49.5 -20.5t20.5 -49.5t-21 -50t-50 -21t-49.5 21t-20.5 50q0 32 12.5 55t28.5 39q18 18 42 31l6 -7q-8 -8 -12 -21
t-6 -27z" />
    <glyph glyph-name="quotedblright" unicode="&#x201d;" horiz-adv-x="334" 
d="M90 723q29 0 50 -21t21 -50q0 -32 -13 -56t-29 -39q-18 -18 -41 -30l-6 7q8 8 12 20.5t6 26.5q-29 0 -49.5 21t-20.5 50t20.5 50t49.5 21zM243 723q29 0 50 -21t21 -50q0 -32 -13 -56t-29 -39q-18 -18 -41 -30l-6 7q8 8 12 20.5t6 26.5q-29 0 -49.5 21t-20.5 50t20.5 50
t49.5 21z" />
    <glyph glyph-name="quotedblbase" unicode="&#x201e;" horiz-adv-x="336" 
d="M91 135q29 0 49.5 -20.5t20.5 -49.5q0 -32 -13 -56t-29 -39q-18 -18 -41 -30l-6 6q8 8 12.5 21t6.5 27q-29 0 -50 21t-21 50t21 49.5t50 20.5zM245 135q29 0 50 -20.5t21 -49.5q0 -32 -13 -56t-29 -39q-18 -18 -41 -30l-6 6q8 8 12 21t6 27q-29 0 -49.5 21t-20.5 50
t20.5 49.5t49.5 20.5z" />
    <glyph glyph-name="dagger" unicode="&#x2020;" horiz-adv-x="344" 
d="M324 524h-129v-696h-46v696h-129v76h129v123h46v-123h129v-76z" />
    <glyph glyph-name="daggerdbl" unicode="&#x2021;" horiz-adv-x="344" 
d="M324 0h-129v-172h-46v172h-129v76h129v448h-129v76h129v123h46v-123h129v-76h-129v-448h129v-76z" />
    <glyph glyph-name="bullet" unicode="&#x2022;" horiz-adv-x="250" 
d="M125 461q22 0 41 -8.5t33 -22.5t22.5 -33t8.5 -41t-8.5 -41.5t-22.5 -33.5t-33 -22.5t-41 -8.5t-41 8.5t-33.5 22.5t-22.5 33.5t-8 41.5t8 41t22.5 33t33.5 22.5t41 8.5z" />
    <glyph glyph-name="ellipsis" unicode="&#x2026;" horiz-adv-x="666" 
d="M20 65q0 29 21 49.5t50 20.5t50 -20.5t21 -49.5t-21 -50t-50 -21t-50 21t-21 50zM262 65q0 29 21 49.5t50 20.5t50 -20.5t21 -49.5t-21 -50t-50 -21t-50 21t-21 50zM504 65q0 29 21 49.5t50 20.5t50 -20.5t21 -49.5t-21 -50t-50 -21t-50 21t-21 50z" />
    <glyph glyph-name="perthousand" unicode="&#x2030;" horiz-adv-x="896" 
d="M485 709l-276 -710h-70l276 710h70zM247 430q0 -24 -9 -44.5t-24 -35.5t-35.5 -24t-44.5 -9t-44.5 9t-36 24t-24.5 35.5t-9 44.5v176q0 24 9 44.5t24.5 36t36 24.5t44.5 9t44.5 -9t35.5 -24.5t24 -36t9 -44.5v-176zM165 615q0 13 -9 22t-22 9t-22 -9t-9 -22v-194
q0 -13 9 -22t22 -9t22 9t9 22v194zM493 397q23 0 43.5 -9t36 -24t24.5 -35.5t9 -44.5v-176q0 -24 -9 -44.5t-24.5 -36t-36 -24.5t-43.5 -9q-24 0 -44.5 9t-36 24.5t-24.5 36t-9 44.5v176q0 24 9 44.5t24.5 35.5t36 24t44.5 9zM524 293q0 13 -9 22t-22 9q-14 0 -22.5 -9
t-8.5 -22v-194q0 -13 8.5 -22t22.5 -9q13 0 22 9t9 22v194zM762 397q24 0 44.5 -9t36 -24t24.5 -35.5t9 -44.5v-176q0 -24 -9 -44.5t-24.5 -36t-36 -24.5t-44.5 -9t-44.5 9t-36 24.5t-24.5 36t-9 44.5v176q0 24 9 44.5t24.5 35.5t36 24t44.5 9zM793 293q0 13 -9 22t-22 9
t-22 -9t-9 -22v-194q0 -13 9 -22t22 -9t22 9t9 22v194z" />
    <glyph glyph-name="guilsinglleft" unicode="&#x2039;" horiz-adv-x="211" 
d="M121 578h70l-98 -223l98 -222h-70l-101 222v0v0l101 223v0z" />
    <glyph glyph-name="guilsinglright" unicode="&#x203a;" horiz-adv-x="211" 
d="M91 578l100 -223v0v0l-100 -222h-71l99 222l-99 223h71v0z" />
    <glyph glyph-name="Euro" unicode="&#x20ac;" horiz-adv-x="413" 
d="M234 717q33 0 62 -12.5t50.5 -34t34 -50.5t12.5 -62v-80h-115v92q0 18 -13 31t-31 13t-30.5 -13t-12.5 -31v-135h202v-63h-202v-32h202v-63h-202v-136q0 -18 12.5 -31t30.5 -13t31 13t13 31v91h115v-79q0 -33 -12.5 -62t-34 -50.5t-50.5 -34t-62 -12.5t-62 12.5t-50.5 34
t-34 50.5t-12.5 62v124h-55v63h55v32h-55v63h55v123q0 33 12.5 62t34 50.5t50.5 34t62 12.5z" />
    <glyph glyph-name="trademark" unicode="&#x2122;" horiz-adv-x="526" 
d="M75 316v348h-55v59h181v-59h-55v-348h-71zM283 558l8 -242h-71v407h87l56 -264l56 264h87v-407h-71l8 242l-48 -242h-1h-62h-2z" />
    </font>
</defs>
</svg>
