<?xml version="1.0" standalone="no"?>
<!DOCTYPE svg PUBLIC "-//W3C//DTD SVG 1.1//EN" "http://www.w3.org/Graphics/SVG/1.1/DTD/svg11.dtd" >
<svg xmlns="http://www.w3.org/2000/svg" xmlns:xlink="http://www.w3.org/1999/xlink" version="1.1">
<metadata>
Created by FontForge 20201107 at Wed Sep  3 10:04:45 2025
 By 
Copyright (c) 2011-2015, Julieta Ulanovsky (julieta.ulanovsky@gmail.com)
</metadata>
<defs>
<font id="Montserrat-SemiBold" horiz-adv-x="1570" >
  <font-face 
    font-family="Montserrat Semi Bold"
    font-weight="600"
    font-stretch="normal"
    units-per-em="2048"
    panose-1="0 0 7 0 0 0 0 0 0 0"
    ascent="1638"
    descent="-410"
    x-height="1100"
    cap-height="1434"
    bbox="-565 -582 2916 1995"
    underline-thickness="102"
    underline-position="-204"
    unicode-range="U+0020-FB02"
  />
<missing-glyph horiz-adv-x="958" 
d="M786 1520v-1917h-608v1917h608zM639 1391h-317v-64h124v-70h-127v-63h320v63h-127v70h127v64zM512 1145h-193v-201h320v66h-127v135zM446 1079v-69h-63v69h63zM639 893h-320v-64h127v-71h-127v-62h193v133h127v64zM639 778h-64v-127h-256v-65h320v192zM639 545h-193v-109
h66v45h63v-90h-192v154h-64v-217h320v217zM639 213h-320v-217h320v217zM575 150v-91h-192v91h192zM639 -49h-320v-64h136l-136 -90v-61h320v61h-197l136 90h61v64z" />
    <glyph glyph-name="fi" unicode="fi" horiz-adv-x="1380" 
d="M1071 1239q-75 0 -122.5 49.5t-47.5 126.5t47.5 126.5t122.5 49.5t122.5 -49.5t47.5 -126.5t-47.5 -126.5t-122.5 -49.5zM211 1157q0 179 116.5 278t288.5 99q122 0 213 -43l-12 -262q-84 43 -162 43q-60 2 -95.5 -30t-35.5 -97v-84h260v-217h-260v-844h-313v844h-148
v217h148v96zM915 0v1102h314v-1102h-314z" />
    <glyph glyph-name="fl" unicode="fl" horiz-adv-x="1419" 
d="M211 1176q0 164 112 264.5t295 99.5q128 -3 211 -41l-8 -264q-60 45 -139 49q-69 2 -113.5 -43t-44.5 -115v-65h262l-2 -217h-260v-844h-313v844h-148l3 217h145v115zM942 1520h315v-1520h-315v1520z" />
    <glyph glyph-name=".notdef" horiz-adv-x="958" 
d="M786 1520v-1917h-608v1917h608zM639 1391h-317v-64h124v-70h-127v-63h320v63h-127v70h127v64zM512 1145h-193v-201h320v66h-127v135zM446 1079v-69h-63v69h63zM639 893h-320v-64h127v-71h-127v-62h193v133h127v64zM639 778h-64v-127h-256v-65h320v192zM639 545h-193v-109
h66v45h63v-90h-192v154h-64v-217h320v217zM639 213h-320v-217h320v217zM575 150v-91h-192v91h192zM639 -49h-320v-64h136l-136 -90v-61h320v61h-197l136 90h61v64z" />
    <glyph glyph-name=".null" horiz-adv-x="0" 
 />
    <glyph glyph-name="nonmarkingreturn" horiz-adv-x="682" 
 />
    <glyph glyph-name="space" unicode=" " horiz-adv-x="493" 
 />
    <glyph glyph-name="exclam" unicode="!" horiz-adv-x="491" 
d="M414 1423v-362l-54 -578h-192l-53 578v362h299zM260 307q70 0 115 -45.5t45 -116.5q0 -70 -45.5 -116.5t-114.5 -46.5q-67 0 -111.5 46t-44.5 117q0 72 44 117t112 45z" />
    <glyph glyph-name="quotedbl" unicode="&#x22;" horiz-adv-x="847" 
d="M360 1434v-545h-237v545h237zM725 1434v-545h-238v545h238z" />
    <glyph glyph-name="numbersign" unicode="#" horiz-adv-x="1499" 
d="M1436 864h-285l-39 -309h279l-25 -227h-281l-41 -328h-227l41 328h-313l-39 -328h-230l41 328h-278l24 227h283l39 309h-279l25 228h281l43 342h227l-41 -342h311l41 342h230l-43 -342h278zM885 555l39 309h-312l-39 -309h312z" />
    <glyph glyph-name="dollar" unicode="$" horiz-adv-x="1304" 
d="M473 1055q0 -42 26 -74t70.5 -53t101.5 -39.5t120.5 -37t126.5 -40t120.5 -55t101.5 -76.5t69.5 -109t25.5 -149q0 -181 -124 -291.5t-329 -134.5v-305h-245v309q-139 20 -268 76.5t-228 140.5l129 264q109 -97 250.5 -156t257.5 -59q100 0 156.5 35.5t56.5 101.5
q0 43 -26 75.5t-70.5 53.5t-101.5 38.5t-120.5 35.5t-127 38.5t-120.5 53t-101.5 74.5t-70.5 106.5t-26 145.5q0 164 110 273.5t300 140.5v295h245v-289q250 -24 445 -152l-125 -268q-113 67 -236.5 107t-210.5 40q-84 0 -133 -29.5t-49 -86.5z" />
    <glyph glyph-name="percent" unicode="%" horiz-adv-x="2062" 
d="M461 1440q183 0 288 -115t105 -315q0 -201 -105 -318t-288 -117q-181 0 -286 117t-105 318q0 200 105 315t286 115zM657 0h-299l1037 1434h295zM461 1264q-89 0 -139 -67.5t-50 -186.5q0 -121 50 -188.5t139 -67.5q91 0 140.5 67t49.5 189q0 119 -50 186.5t-140 67.5z
M1599 858q183 0 288.5 -116t105.5 -316q0 -201 -105.5 -316.5t-288.5 -115.5q-182 0 -286.5 115.5t-104.5 316.5q0 200 105 316t286 116zM1599 682q-89 0 -138.5 -68t-49.5 -188t49.5 -188t138.5 -68q90 0 140.5 68t50.5 188t-50.5 188t-140.5 68z" />
    <glyph glyph-name="ampersand" unicode="&#x26;" horiz-adv-x="1388" 
d="M1374 104l-160 -159q-114 111 -208 205q-190 -164 -416 -164q-205 0 -341 116.5t-136 296.5q0 70 23 129.5t67 106.5t91 81.5t112 69.5q-65 93 -95 170t-30 154q0 153 108 245.5t289 92.5q174 0 284.5 -88.5t110.5 -226.5q0 -72 -27 -132t-81 -108.5t-104.5 -80.5
t-127.5 -73q117 -127 248 -256q67 108 109 240l200 -150q-56 -144 -135 -258q143 -139 219 -211zM528 1110q0 -97 84 -217q104 55 158.5 108.5t54.5 128.5q0 59 -39.5 95.5t-103.5 36.5q-70 0 -112 -42.5t-42 -109.5zM602 215q122 0 238 96q-187 187 -310 322
q-157 -94 -157 -211q0 -91 65 -149t164 -58z" />
    <glyph glyph-name="quotesingle" unicode="'" horiz-adv-x="483" 
d="M360 1434v-545h-237v545h237z" />
    <glyph glyph-name="parenleft" unicode="(" horiz-adv-x="690" 
d="M676 1520q-115 -184 -179.5 -413t-64.5 -474q0 -246 64.5 -475.5t179.5 -411.5h-281q-125 178 -191.5 406.5t-66.5 480.5q0 251 66 479t192 408h281z" />
    <glyph glyph-name="parenright" unicode=")" horiz-adv-x="724" 
d="M150 1520h282q126 -180 192 -408t66 -479q0 -252 -66.5 -480.5t-191.5 -406.5h-282q115 183 180 412.5t65 474.5t-65 473.5t-180 413.5z" />
    <glyph glyph-name="asterisk" unicode="*" horiz-adv-x="753" 
d="M627 895l-174 102l4 -198h-160l4 200l-174 -102l-80 141l176 99l-176 96l80 145l174 -104l-4 201h160l-2 -201l172 102l80 -143l-179 -96l179 -99z" />
    <glyph glyph-name="plus" unicode="+" horiz-adv-x="1036" 
d="M969 772v-209h-351v-346h-200v346h-350v209h350v348h200v-348h351z" />
    <glyph glyph-name="comma" unicode="," horiz-adv-x="475" 
d="M242 305q64 0 108.5 -43t44.5 -117q0 -68 -43 -127l-137 -206h-154l86 206q-63 45 -63 127q0 70 45 115t113 45z" />
    <glyph glyph-name="hyphen" unicode="-" horiz-adv-x="761" 
d="M645 731v-209h-528v209h528z" />
    <glyph glyph-name="period" unicode="." horiz-adv-x="481" 
d="M240 307q69 0 113 -45t44 -117q0 -71 -44 -117t-113 -46q-68 0 -113 46.5t-45 116.5q0 71 45 116.5t113 45.5z" />
    <glyph glyph-name="slash" unicode="/" horiz-adv-x="708" 
d="M860 1663l-659 -1892h-264l657 1892h266z" />
    <glyph glyph-name="zero" unicode="0" horiz-adv-x="1431" 
d="M717 1444q301 0 462.5 -187.5t161.5 -537.5q0 -352 -161.5 -540.5t-462.5 -188.5q-304 0 -465.5 188.5t-161.5 540.5q0 351 161.5 538t465.5 187zM717 1196q-153 0 -224 -113t-71 -364q0 -252 71 -366.5t224 -114.5q152 0 222.5 114.5t70.5 366.5q0 250 -70.5 363.5
t-222.5 113.5z" />
    <glyph glyph-name="one" unicode="1" horiz-adv-x="827" 
d="M612 1434v-1434h-323v1161h-271v273h594z" />
    <glyph glyph-name="two" unicode="2" horiz-adv-x="1220" 
d="M614 1448q213 0 346.5 -102t133.5 -269q0 -199 -269 -475l-317 -332h635v-270h-1055v221l518 549q68 70 109 139.5t41 120.5q0 68 -50 106t-139 38q-88 0 -191 -48.5t-200 -132.5l-125 242q279 213 563 213z" />
    <glyph glyph-name="three" unicode="3" horiz-adv-x="1130" 
d="M686 840q168 -24 269.5 -126t101.5 -265q0 -206 -147 -334.5t-392 -128.5q-141 0 -280.5 46t-237.5 122l131 256q161 -166 363 -166q118 0 182.5 53t62.5 147q0 96 -63 145.5t-184 49.5h-220v180l336 350h-538v263h921v-193l-375 -391z" />
    <glyph glyph-name="four" unicode="4" horiz-adv-x="1273" 
d="M834 1434l-439 -848h344v315h301v-315h199v-262h-199v-324h-301v324h-682v229l465 881h312z" />
    <glyph glyph-name="five" unicode="5" horiz-adv-x="1206" 
d="M1071 1434v-271h-620v-252l149 2q241 0 387 -120.5t146 -313.5q0 -224 -152 -357.5t-406 -133.5q-136 0 -282 47.5t-256 126.5l129 256q83 -83 179.5 -126.5t193.5 -43.5q117 0 182 55.5t65 153.5q0 92 -65 142t-182 50q-234 0 -387 -10l2 795h917z" />
    <glyph glyph-name="six" unicode="6" horiz-adv-x="1284" 
d="M737 1448q116 0 239 -31.5t212 -83.5l-123 -237q-134 92 -307 92q-181 0 -271.5 -110.5t-85.5 -305.5q54 80 145.5 124t213.5 44q212 0 336.5 -126t124.5 -337q0 -226 -143 -358.5t-382 -132.5q-283 0 -445.5 189t-162.5 519q0 343 176.5 548.5t472.5 205.5zM690 692
q-117 0 -184.5 -62t-65.5 -157q-2 -90 61 -153.5t181 -63.5q110 0 174 58.5t64 164.5q0 100 -61 156.5t-169 56.5z" />
    <glyph glyph-name="seven" unicode="7" horiz-adv-x="1200" 
d="M1163 1434v-232l-545 -1202h-342l529 1163h-449v-200h-286v471h1093z" />
    <glyph glyph-name="eight" unicode="8" horiz-adv-x="1304" 
d="M651 1448q230 0 367 -103t137 -278q0 -95 -51 -175t-139 -124q122 -47 193 -145t71 -220q0 -192 -156.5 -304.5t-419.5 -112.5q-266 0 -421.5 111.5t-155.5 301.5q0 124 75.5 223t204.5 146q-96 50 -151 131t-55 176q0 171 136 272t365 101zM653 1225
q-110 0 -170.5 -45.5t-60.5 -130.5q0 -83 60.5 -129t170.5 -46q109 0 168.5 46t59.5 129q0 85 -59.5 130.5t-168.5 45.5zM651 631q-129 0 -198.5 -51.5t-69.5 -145.5q0 -98 69.5 -150.5t200.5 -52.5q128 0 199.5 52.5t71.5 148.5q0 95 -71 147t-202 52z" />
    <glyph glyph-name="nine" unicode="9" horiz-adv-x="1284" 
d="M555 -14q-116 0 -239 31t-212 83l123 238q134 -92 308 -92q180 0 270.5 110.5t85.5 305.5q-54 -80 -145.5 -124t-213.5 -44q-212 0 -336 125.5t-124 336.5q0 226 142.5 359t381.5 133q283 0 445.5 -189.5t162.5 -519.5q0 -343 -176.5 -548t-472.5 -205zM602 741
q117 0 184.5 62.5t65.5 157.5q2 90 -61 153.5t-181 63.5q-110 0 -173.5 -59t-63.5 -165q0 -100 60.5 -156.5t168.5 -56.5z" />
    <glyph glyph-name="colon" unicode=":" horiz-adv-x="473" 
d="M240 915q69 0 113 -44.5t44 -116.5q0 -71 -44 -117.5t-113 -46.5q-68 0 -113 47t-45 117q0 71 45 116t113 45zM240 307q69 0 113 -45t44 -117q0 -71 -44 -117t-113 -46q-68 0 -113 46.5t-45 116.5q0 71 45 116.5t113 45.5z" />
    <glyph glyph-name="semicolon" unicode=";" horiz-adv-x="477" 
d="M240 590q-68 0 -113 47t-45 117q0 71 45 116t113 45q69 0 113 -44.5t44 -116.5q0 -71 -44 -117.5t-113 -46.5zM242 305q64 0 108.5 -43t44.5 -117q0 -68 -43 -127l-137 -206h-154l86 206q-63 45 -63 127q0 70 45 115t113 45z" />
    <glyph glyph-name="less" unicode="&#x3c;" horiz-adv-x="1036" 
d="M969 1178v-234l-695 -278l695 -281v-233l-901 380v265z" />
    <glyph glyph-name="equal" unicode="=" horiz-adv-x="1036" 
d="M969 991v-209h-901v209h901zM969 553v-209h-901v209h901z" />
    <glyph glyph-name="greater" unicode="&#x3e;" horiz-adv-x="1036" 
d="M68 166v233l694 279l-694 280v234l899 -381v-264z" />
    <glyph glyph-name="question" unicode="?" horiz-adv-x="946" 
d="M6 985q4 213 124.5 332t330.5 119q199 0 314.5 -92.5t115.5 -260.5q0 -64 -17.5 -118.5t-45.5 -94t-62 -75.5t-68 -69t-62 -67.5t-45.5 -79.5t-17.5 -96h-237q0 65 14.5 120t38 92.5t51.5 70.5t56 61.5t51.5 57.5t38 66.5t14.5 80.5q0 72 -44 108t-124 36
q-173 0 -182 -193zM453 307q68 0 112.5 -45.5t44.5 -116.5q0 -70 -44.5 -116.5t-112.5 -46.5q-69 0 -113.5 46t-44.5 117q0 72 44.5 117t113.5 45z" />
    <glyph glyph-name="at" unicode="@" horiz-adv-x="1916" 
d="M971 1434q189 0 354 -66t282.5 -181t185 -277.5t67.5 -348.5q0 -228 -109.5 -367t-282.5 -139q-200 0 -239 160l-4 31q-115 -168 -324 -168q-88 0 -170.5 34.5t-145.5 95.5t-101 151t-38 194q0 132 52.5 241.5t151.5 175.5t227 66q58 0 113.5 -17t91.5 -41.5t58.5 -45
t28.5 -33.5v115h240v-697q0 -102 84 -102q70 0 123 97t53 243q0 197 -83 355t-243 251.5t-372 93.5q-197 0 -363.5 -94.5t-263 -257.5t-96.5 -356q0 -190 91.5 -344.5t251 -241t353.5 -86.5q95 0 201 31.5t188 91.5l92 -158q-89 -66 -224.5 -106.5t-256.5 -40.5
q-187 0 -352 65t-283 178t-186 272t-68 339q0 184 71.5 349t194 282.5t292 186.5t358.5 69zM924 813q-95 0 -155 -72.5t-60 -177.5q0 -111 61 -188.5t158 -77.5q103 0 164 76t61 188q0 107 -63 179.5t-166 72.5z" />
    <glyph glyph-name="A" unicode="A" horiz-adv-x="1554" 
d="M1217 0l-113 279h-662l-114 -279h-334l622 1434h334l613 -1434h-346zM547 539h452l-225 557z" />
    <glyph glyph-name="B" unicode="B" horiz-adv-x="1458" 
d="M817 1434q236 0 374 -96.5t138 -262.5q0 -117 -66.5 -201.5t-181.5 -113.5q138 -26 218.5 -124t80.5 -239q0 -184 -144.5 -290.5t-395.5 -106.5h-682v1434h659zM801 1169h-320v-313h320q91 0 143.5 42.5t52.5 117.5q0 73 -52 113t-144 40zM801 606h-320v-342h320
q116 0 181 45.5t65 128.5q0 78 -65.5 123t-180.5 45z" />
    <glyph glyph-name="C" unicode="C" horiz-adv-x="1421" 
d="M819 1444q155 0 307 -64.5t258 -173.5l-188 -229q-74 85 -174 135.5t-199 50.5q-185 0 -310.5 -126.5t-125.5 -313.5t125.5 -314.5t310.5 -127.5q96 0 196 45.5t177 122.5l190 -207q-115 -118 -269.5 -187t-309.5 -69q-211 0 -383.5 96t-270.5 264t-98 373
q0 153 58.5 287.5t160 230.5t243.5 151.5t302 55.5z" />
    <glyph glyph-name="D" unicode="D" horiz-adv-x="1574" 
d="M766 1434q220 0 391.5 -90.5t267 -254t95.5 -372.5t-96.5 -372t-271 -254t-398.5 -91h-596v1434h608zM760 1161h-279v-889h293q181 0 298.5 124t117.5 319q0 196 -122 321t-308 125z" />
    <glyph glyph-name="E" unicode="E" horiz-adv-x="1368" 
d="M1249 1434v-269h-768v-311h693v-268h-693v-318h791v-268h-1114v1434h1091z" />
    <glyph glyph-name="F" unicode="F" horiz-adv-x="1218" 
d="M1188 1434l-2 -269h-705v-352h647v-270h-647v-543h-323v1434h1030z" />
    <glyph glyph-name="G" unicode="G" horiz-adv-x="1525" 
d="M1120 346v377h281v-551q-115 -84 -274 -135t-308 -51q-214 0 -389 95.5t-275 263t-100 372.5q0 204 102 370.5t281.5 261.5t399.5 95q158 0 311.5 -56.5t263.5 -152.5l-182 -231q-80 74 -184.5 116.5t-208.5 42.5q-191 0 -321 -128.5t-130 -317.5q0 -190 131 -319.5
t322 -129.5q134 0 280 78z" />
    <glyph glyph-name="H" unicode="H" horiz-adv-x="1611" 
d="M1454 1434v-1434h-324v565h-649v-565h-323v1434h323v-598h649v598h324z" />
    <glyph glyph-name="I" unicode="I" horiz-adv-x="641" 
d="M481 1434v-1434h-323v1434h323z" />
    <glyph glyph-name="J" unicode="J" horiz-adv-x="1073" 
d="M942 1434v-975q0 -224 -128.5 -348.5t-352.5 -124.5q-278 0 -469 223l149 229q73 -77 153.5 -118t149.5 -41q81 0 126.5 48.5t45.5 139.5v692h-493v275h819z" />
    <glyph glyph-name="K" unicode="K" horiz-adv-x="1509" 
d="M1489 0h-389l-412 584l-207 -230v-354h-323v1434h323v-652l596 652h375l-539 -598z" />
    <glyph glyph-name="L" unicode="L" horiz-adv-x="1130" 
d="M481 1434v-1151h615v-283h-938v1434h323z" />
    <glyph glyph-name="M" unicode="M" horiz-adv-x="1873" 
d="M1714 1434v-1434h-291v967l-381 -822h-211l-380 822v-967h-293v1434h362l418 -877l416 877h360z" />
    <glyph glyph-name="N" unicode="N" horiz-adv-x="1613" 
d="M1456 1434v-1434h-295l-694 920v-920h-309v1434h295l696 -922v922h307z" />
    <glyph glyph-name="O" unicode="O" horiz-adv-x="1650" 
d="M825 1444q216 0 392.5 -94.5t277 -261t100.5 -371.5q0 -204 -100.5 -371.5t-277 -263.5t-392.5 -96t-392.5 95.5t-277 263t-100.5 372.5q0 206 100.5 372.5t277 260.5t392.5 94zM829 1161q-183 0 -312.5 -128.5t-129.5 -315.5q0 -93 35.5 -176.5t95 -143t141 -94.5
t170.5 -35q181 0 308 130.5t127 318.5t-127 316t-308 128z" />
    <glyph glyph-name="P" unicode="P" horiz-adv-x="1388" 
d="M766 1434q274 0 423.5 -130t149.5 -368q0 -251 -149.5 -388.5t-423.5 -137.5h-285v-410h-323v1434h608zM750 1165h-269v-485h269q136 0 209 62t73 184q0 119 -72.5 179t-209.5 60z" />
    <glyph glyph-name="Q" unicode="Q" horiz-adv-x="1669" 
d="M1554 37l117 -211q-83 -73 -192 -115.5t-213 -42.5q-145 0 -265 84t-196 234q-158 4 -297.5 61.5t-238.5 154.5t-156.5 230.5t-57.5 284.5q0 206 100.5 372.5t277 260.5t392.5 94t392.5 -94.5t277 -261t100.5 -371.5q0 -237 -133 -421t-354 -263q95 -109 195 -109
q106 0 251 113zM387 717q0 -93 35.5 -176.5t95 -143t141 -94.5t170.5 -35q181 0 308 130.5t127 318.5t-127 316t-308 128q-183 0 -312.5 -128.5t-129.5 -315.5z" />
    <glyph glyph-name="R" unicode="R" horiz-adv-x="1482" 
d="M1405 0h-367l-227 412q-5 0 -15.5 -1t-15.5 -1h-299v-410h-323v1434h622q281 0 434.5 -130t153.5 -368q0 -165 -68.5 -283t-199.5 -180zM481 680h299q135 0 208 62t73 184q0 118 -73 178.5t-208 60.5h-299v-485z" />
    <glyph glyph-name="S" unicode="S" horiz-adv-x="1304" 
d="M682 1448q148 0 292 -42t253 -114l-125 -268q-113 67 -236.5 107t-210.5 40q-84 0 -133 -29.5t-49 -86.5q0 -42 26 -74t70.5 -53t101.5 -39.5t120.5 -37t126.5 -40t120.5 -55t101.5 -76.5t69.5 -109t25.5 -149q0 -137 -75 -236t-200 -147.5t-286 -48.5q-174 0 -341.5 61
t-291.5 166l129 264q109 -97 250.5 -156t257.5 -59q100 0 156.5 35.5t56.5 101.5q0 43 -26 75.5t-70.5 53.5t-101.5 38.5t-120.5 35.5t-127 38.5t-120.5 53t-101.5 74.5t-70.5 106.5t-26 145.5q0 194 152 309t403 115z" />
    <glyph glyph-name="T" unicode="T" horiz-adv-x="1230" 
d="M1214 1434v-275h-438v-1159h-323v1159h-437v275h1198z" />
    <glyph glyph-name="U" unicode="U" horiz-adv-x="1556" 
d="M1425 1434v-834q0 -284 -173 -449t-470 -165q-299 0 -475 165.5t-176 448.5v834h324v-834q0 -153 90 -242.5t237 -89.5q146 0 233 89t87 243v834h323z" />
    <glyph glyph-name="V" unicode="V" horiz-adv-x="1466" 
d="M1466 1434l-569 -1434h-334l-563 1434h348l391 -1082l394 1082h333z" />
    <glyph glyph-name="W" unicode="W" horiz-adv-x="2183" 
d="M2200 1434l-476 -1434h-333l-289 1022l-295 -1022h-334l-473 1434h348l301 -1082l299 1082h318l303 -1082l299 1082h332z" />
    <glyph glyph-name="X" unicode="X" horiz-adv-x="1476" 
d="M1411 1434l-477 -686l518 -748h-387l-338 477l-332 -477h-379l514 733l-479 701h377l299 -439l301 439h383z" />
    <glyph glyph-name="Y" unicode="Y" horiz-adv-x="1363" 
d="M1370 1434l-522 -971v-463h-324v453l-530 981h325l367 -643l358 643h326z" />
    <glyph glyph-name="Z" unicode="Z" horiz-adv-x="1376" 
d="M1300 1434v-217l-800 -947h813l-2 -270h-1248v219l803 944h-776v271h1210z" />
    <glyph glyph-name="bracketleft" unicode="[" horiz-adv-x="729" 
d="M688 1520v-244h-250v-1286h250v-244h-530v1774h530z" />
    <glyph glyph-name="backslash" unicode="\" horiz-adv-x="991" 
d="M104 1663h267l657 -1892h-266z" />
    <glyph glyph-name="bracketright" unicode="]" horiz-adv-x="913" 
d="M225 1520h531v-1774h-531v244h250v1286h-250v244z" />
    <glyph glyph-name="asciicircum" unicode="^" horiz-adv-x="1153" 
d="M1087 276h-231l-281 617l-280 -617h-232l379 799h267z" />
    <glyph glyph-name="underscore" unicode="_" horiz-adv-x="1181" 
d="M1182 -238v-180h-1182v180h1182z" />
    <glyph glyph-name="grave" unicode="`" horiz-adv-x="716" 
d="M387 1567l219 -334h-252l-260 225z" />
    <glyph glyph-name="a" unicode="a" horiz-adv-x="1220" 
d="M1100 0h-309v129q-113 -143 -347 -143q-174 0 -276 95.5t-102 248.5q0 156 109 243.5t310 88.5h303v20q0 89 -58 136.5t-171 47.5q-153 0 -328 -96l-98 217q131 65 245.5 96t252.5 31q221 0 343 -104t124 -291zM532 211q99 0 171.5 48t84.5 120v96h-247q-92 0 -136.5 -30
t-44.5 -95q0 -63 46.5 -101t125.5 -38z" />
    <glyph glyph-name="b" unicode="b" horiz-adv-x="1398" 
d="M825 1112q232 0 375 -156t143 -411q0 -251 -140.5 -404t-371.5 -153q-230 0 -354 172v-160h-315v1520h315v-580q121 172 348 172zM752 250q121 0 196.5 85t75.5 220q0 133 -75.5 218t-196.5 85t-198 -84.5t-77 -218.5q0 -136 76.5 -220.5t198.5 -84.5z" />
    <glyph glyph-name="c" unicode="c" horiz-adv-x="1153" 
d="M623 1112q157 0 280 -60t197 -171l-213 -154q-96 120 -252 117q-116 0 -189 -81.5t-73 -213.5q0 -133 73 -216t189 -83q173 0 256 129l217 -148q-70 -116 -196 -179.5t-294 -63.5q-251 0 -406 154.5t-155 404.5q0 253 156 409t410 156z" />
    <glyph glyph-name="d" unicode="d" horiz-adv-x="1402" 
d="M926 1520h313v-1520h-313v160q-121 -172 -348 -172q-235 0 -378 156t-143 411q0 252 141 405.5t371 153.5q232 0 357 -174v580zM651 242q122 0 198.5 85t76.5 220t-76.5 220t-198.5 85t-199 -85.5t-79 -219.5q2 -136 78 -220.5t200 -84.5z" />
    <glyph glyph-name="e" unicode="e" horiz-adv-x="1222" 
d="M625 1112q285 0 423 -175t117 -482h-790q28 -105 102.5 -163.5t181.5 -58.5q162 0 279 117l166 -168q-175 -194 -471 -194q-263 0 -419.5 153.5t-156.5 405.5q0 254 157.5 409.5t410.5 155.5zM369 641h501q-3 109 -69 174.5t-174 65.5q-103 0 -171 -65t-87 -175z" />
    <glyph glyph-name="f" unicode="f" horiz-adv-x="761" 
d="M655 1274q-58 0 -94.5 -33t-36.5 -96v-92h260v-219h-260v-834h-313v834h-148v219h148v104q0 119 55.5 206t146 129t203.5 42q170 0 289 -78l-112 -229q-62 47 -138 47z" />
    <glyph glyph-name="g" unicode="g" horiz-adv-x="1320" 
d="M870 1102h314v-1000q0 -234 -161.5 -373t-426.5 -139q-263 0 -479 146l116 221q154 -111 342 -111q135 0 215 66.5t80 179.5v125q-116 -160 -331 -160q-214 0 -348 147t-134 386q0 233 131 377.5t342 144.5q219 3 340 -160v150zM612 297q115 0 186.5 79.5t71.5 205.5
q0 128 -71.5 207t-186.5 79t-186.5 -79.5t-73.5 -206.5q2 -127 73 -206t187 -79z" />
    <glyph glyph-name="h" unicode="h" horiz-adv-x="1382" 
d="M858 1114q186 0 296 -114.5t110 -307.5v-692h-316v600q0 104 -58 164.5t-159 60.5q-117 -1 -185.5 -79.5t-68.5 -202.5v-543h-315v1520h315v-613q118 207 381 207z" />
    <glyph glyph-name="i" unicode="i" horiz-adv-x="618" 
d="M309 1591q75 0 122.5 -49.5t47.5 -126.5t-47.5 -126.5t-122.5 -49.5t-122.5 49.5t-47.5 126.5t47.5 126.5t122.5 49.5zM467 1102v-1102h-315v1102h315z" />
    <glyph glyph-name="j" unicode="j" horiz-adv-x="630" 
d="M311 1591q82 0 132.5 -49t50.5 -127q0 -77 -51 -126.5t-132 -49.5q-78 0 -130 50t-52 126q0 77 51.5 126.5t130.5 49.5zM469 1102v-1135q0 -91 -31 -164t-84 -119.5t-122 -71t-148 -24.5q-147 0 -260 74l86 232q67 -44 129 -44q53 0 85 32.5t32 97.5v1122h313z" />
    <glyph glyph-name="k" unicode="k" horiz-adv-x="1267" 
d="M885 0l-267 449l-141 -148v-301h-315v1520h315v-834l404 414h358l-405 -424l423 -676h-372z" />
    <glyph glyph-name="l" unicode="l" horiz-adv-x="641" 
d="M477 1520v-1520h-315v1520h315z" />
    <glyph glyph-name="m" unicode="m" horiz-adv-x="2127" 
d="M1610 1114q183 0 290 -114t107 -308v-692h-313v600q0 105 -57 165t-156 60q-112 -1 -178 -79.5t-66 -200.5v-545h-313v600q0 105 -57 165t-154 60q-113 -1 -179.5 -79.5t-66.5 -200.5v-545h-315v1102h315v-193q114 205 373 205q138 0 235 -67t137 -187q53 126 155 190
t243 64z" />
    <glyph glyph-name="n" unicode="n" horiz-adv-x="1372" 
d="M848 1114q185 0 294 -114.5t109 -307.5v-692h-315v600q0 104 -58 164.5t-159 60.5q-107 -1 -175 -70.5t-77 -179.5v-575h-315v1102h315v-193q117 205 381 205z" />
    <glyph glyph-name="o" unicode="o" horiz-adv-x="1296" 
d="M649 1112q265 0 427.5 -154t162.5 -407q0 -252 -163 -407.5t-427 -155.5q-265 0 -428.5 155.5t-163.5 407.5q0 253 163 407t429 154zM649 850q-123 0 -198.5 -84t-75.5 -219t75.5 -219t198.5 -84q122 0 198.5 84t76.5 219t-76.5 219t-198.5 84z" />
    <glyph glyph-name="p" unicode="p" horiz-adv-x="1400" 
d="M825 1112q232 0 375 -156t143 -411q0 -251 -140.5 -404t-371.5 -153q-230 0 -354 172v-557h-315v1499h315v-162q121 172 348 172zM752 250q121 0 196.5 85t75.5 220q0 133 -75.5 218t-196.5 85t-198 -84.5t-77 -218.5q0 -136 76.5 -220.5t198.5 -84.5z" />
    <glyph glyph-name="q" unicode="q" horiz-adv-x="1402" 
d="M926 1102h313v-1499h-313v557q-121 -172 -348 -172q-235 0 -378 156t-143 411q0 252 141 405.5t371 153.5q232 0 357 -174v162zM651 242q122 0 198.5 85t76.5 220t-76.5 220t-198.5 85t-199 -85.5t-79 -219.5q2 -136 78 -220.5t200 -84.5z" />
    <glyph glyph-name="r" unicode="r" horiz-adv-x="851" 
d="M467 903q57 103 150 157t214 54v-297q-158 13 -255.5 -57.5t-108.5 -198.5v-561h-315v1102h315v-199z" />
    <glyph glyph-name="s" unicode="s" horiz-adv-x="1021" 
d="M524 1116q236 0 430 -123l-108 -215q-190 107 -336 107q-58 0 -92.5 -20.5t-34.5 -61.5q0 -29 25 -52t66 -37t93 -30.5t106.5 -32t106.5 -43t93 -62t65.5 -89.5t24.5 -125q0 -109 -60.5 -188t-161 -117.5t-227.5 -38.5q-135 0 -259.5 39.5t-217.5 113.5l102 213
q85 -65 187.5 -101t195.5 -36q63 0 101.5 21.5t38.5 64.5q0 31 -24.5 55t-65 38t-91.5 30.5t-105 31.5t-105 42t-91.5 60t-65 88t-24.5 124q0 110 59 189t156 117t219 38z" />
    <glyph glyph-name="t" unicode="t" horiz-adv-x="872" 
d="M768 293l66 -232q-131 -75 -287 -75q-154 0 -250 88t-96 252v510h-154v217h154v303h313v-303h299v-219l-299 2v-457q0 -67 27.5 -98t79.5 -29q60 0 147 41z" />
    <glyph glyph-name="u" unicode="u" horiz-adv-x="1351" 
d="M885 1102h313v-1102h-313v193q-114 -205 -369 -205q-183 0 -290 113.5t-107 308.5v692h315v-602q0 -104 55.5 -164t151.5 -60q112 1 178 80t66 201v545z" />
    <glyph glyph-name="v" unicode="v" horiz-adv-x="1138" 
d="M1151 1102l-416 -1102h-323l-418 1100l325 2l261 -803l258 803h313z" />
    <glyph glyph-name="w" unicode="w" horiz-adv-x="1890" 
d="M1903 1102l-402 -1102h-315l-238 727l-235 -727h-316l-403 1100l321 2l246 -789l238 789h309l242 -789l241 789h312z" />
    <glyph glyph-name="x" unicode="x" horiz-adv-x="1206" 
d="M401 1102l203 -334l215 334h344l-350 -537l375 -565h-363l-221 360l-242 -360h-348l381 563l-354 539h360z" />
    <glyph glyph-name="y" unicode="y" horiz-adv-x="1155" 
d="M1169 1102l-483 -1225q-116 -289 -403 -289q-169 0 -299 107l133 227q71 -59 143 -59q100 0 146 98l30 62l-456 1079h325l289 -758l260 758h315z" />
    <glyph glyph-name="z" unicode="z" horiz-adv-x="1122" 
d="M1038 1100v-199l-567 -653h586v-250l-979 2v199l567 653l-547 2v246h940z" />
    <glyph glyph-name="braceleft" unicode="{" horiz-adv-x="710" 
d="M492 872q0 -107 -36 -162.5t-124 -76.5q88 -23 124 -78.5t36 -163.5v-270q0 -75 40 -105t146 -30v-244h-121q-191 0 -268.5 63t-77.5 218v389q0 52 -18.5 74t-61.5 22h-74v250h74q43 0 61.5 21.5t18.5 72.5v391q0 154 77.5 216.5t268.5 62.5h121v-244q-106 0 -146 -30
t-40 -105v-271z" />
    <glyph glyph-name="bar" unicode="|" horiz-adv-x="591" 
d="M414 1649v-1876h-236v1876h236z" />
    <glyph glyph-name="braceright" unicode="}" horiz-adv-x="808" 
d="M725 758h74v-250h-74q-43 0 -61.5 -22t-18.5 -74v-389q0 -155 -77.5 -218t-268.5 -63h-121v244q104 0 144 30t40 105v270q0 108 36.5 163.5t125.5 78.5q-89 22 -125.5 76.5t-36.5 162.5v271q0 75 -40 105t-144 30v244h121q191 0 268.5 -62.5t77.5 -216.5v-391
q0 -51 18.5 -72.5t61.5 -21.5z" />
    <glyph glyph-name="asciitilde" unicode="~" horiz-adv-x="1036" 
d="M342 836q46 0 92 -17t77 -37.5t65 -37.5t57 -17q69 0 69 98h213q0 -333 -219 -333q-48 0 -94.5 16.5t-76 36.5t-62.5 36.5t-57 16.5q-70 0 -70 -96h-213q0 334 219 334z" />
    <glyph glyph-name="uni00A0" unicode="&#xa0;" horiz-adv-x="493" 
 />
    <glyph glyph-name="exclamdown" unicode="&#xa1;" horiz-adv-x="489" 
d="M266 793q-70 0 -115 45t-45 116t45.5 117.5t114.5 46.5q67 0 111.5 -46.5t44.5 -117.5t-44 -116t-112 -45zM113 -324v363l53 577h192l54 -577v-363h-299z" />
    <glyph glyph-name="cent" unicode="&#xa2;" horiz-adv-x="1142" 
d="M1108 231q-112 -185 -348 -229v-311h-252v307q-205 32 -328 180.5t-123 368.5q0 223 122.5 372t328.5 183v323h252v-325q225 -44 340 -219l-213 -154q-96 120 -252 117q-116 0 -189 -81.5t-73 -213.5q0 -133 73 -216t189 -83q173 0 256 129z" />
    <glyph glyph-name="sterling" unicode="&#xa3;" horiz-adv-x="1134" 
d="M549 584v-328h543v-256h-869h-160v256h160v328h-160v225h160v166q0 226 123.5 349.5t347.5 123.5q123 0 233 -46t193 -132l-123 -246q-135 141 -268 141q-180 0 -180 -196v-160h348v-225h-348z" />
    <glyph glyph-name="currency" unicode="&#xa4;" horiz-adv-x="1443" 
d="M1262 657q0 -152 -84 -282l208 -207l-178 -184l-215 215q-128 -72 -272 -72t-272 72l-216 -215l-176 184l207 207q-82 132 -82 282q0 144 76 273l-201 203l176 184l207 -207q129 80 281 80t283 -78l204 205l178 -184l-202 -201q78 -127 78 -275zM721 383q122 0 208.5 80
t86.5 194t-87 195.5t-208 81.5t-206 -81.5t-85 -195.5t85 -194t206 -80z" />
    <glyph glyph-name="yen" unicode="&#xa5;" horiz-adv-x="1337" 
d="M1370 1434l-401 -748h252v-125h-320l-51 -98v-45h371v-127h-371v-291h-326v291h-379v127h379v35l-57 108h-322v125h254l-405 748h325l367 -643l358 643h326z" />
    <glyph glyph-name="brokenbar" unicode="&#xa6;" horiz-adv-x="591" 
d="M414 1649v-705h-236v705h236zM414 475v-702h-236v702h236z" />
    <glyph glyph-name="section" unicode="&#xa7;" horiz-adv-x="1085" 
d="M563 1421q227 0 432 -121l-96 -200q-198 106 -334 106q-70 0 -111.5 -25t-41.5 -65q0 -33 26.5 -59t70 -43t99 -35.5t113.5 -35.5t113.5 -45t99 -61.5t70 -87t26.5 -120.5q0 -89 -58 -163t-151 -108q79 -42 113.5 -89t34.5 -126q0 -141 -122.5 -231t-324.5 -90
q-131 0 -257.5 41t-227.5 117l90 200q195 -139 387 -139q75 0 120.5 26.5t45.5 67.5q0 36 -33.5 63.5t-87 47t-118.5 38.5t-130 46t-118.5 62t-87 93t-33.5 133q0 94 60 163.5t167 105.5q-94 44 -131 94t-37 121q0 141 118 230t314 89zM518 735q-80 0 -123 -26t-43 -70
q0 -56 64 -91.5t159 -35.5q81 0 124.5 27t43.5 71q0 55 -64.5 90t-160.5 35z" />
    <glyph glyph-name="dieresis" unicode="&#xa8;" horiz-adv-x="768" 
d="M166 1575q66 0 107.5 -43t41.5 -111q0 -66 -41.5 -109.5t-107.5 -43.5q-64 0 -106 43.5t-42 109.5q0 67 41.5 110.5t106.5 43.5zM551 1575q65 0 107 -43.5t42 -110.5q0 -66 -42.5 -109.5t-106.5 -43.5t-106 43.5t-42 109.5q0 67 41.5 110.5t106.5 43.5z" />
    <glyph glyph-name="copyright" unicode="&#xa9;" horiz-adv-x="1499" 
d="M750 1411q143 0 271.5 -55t220.5 -148.5t146 -221.5t54 -269q0 -187 -92 -348t-253 -256t-352 -95q-143 0 -271.5 55.5t-220 149.5t-145 222t-53.5 268q0 187 91.5 347.5t252 255.5t351.5 95zM750 1257q-114 0 -215.5 -43.5t-174 -117t-115 -173.5t-42.5 -210
q0 -147 71 -271t196 -197t275 -73q152 0 279 74t198.5 199t71.5 272t-71.5 271t-196.5 196.5t-276 72.5zM762 1057q73 0 145 -30t125 -83l-90 -108q-37 41 -84.5 64.5t-93.5 23.5q-88 0 -147.5 -59.5t-59.5 -147.5t59.5 -148.5t147.5 -60.5q44 0 92.5 21.5t85.5 58.5l90 -99
q-54 -56 -127.5 -88t-148.5 -32q-152 0 -254.5 99t-102.5 247q0 146 104.5 244t258.5 98z" />
    <glyph glyph-name="ordfeminine" unicode="&#xaa;" horiz-adv-x="798" 
d="M715 938h-213l-2 90q-68 -100 -219 -100q-106 0 -168 56t-62 149q0 92 68.5 142t195.5 50h185v14q0 48 -35 74.5t-103 26.5q-96 0 -217 -51l-51 145q173 70 320 70q141 0 220.5 -63t78.5 -175zM354 1069q101 0 146 80v72h-140q-104 0 -104 -72q0 -37 26 -58.5t72 -21.5z
" />
    <glyph glyph-name="guillemotleft" unicode="&#xab;" horiz-adv-x="997" 
d="M944 913l-217 -370l217 -373h-256l-244 373l244 370h256zM520 913l-219 -370l219 -373h-258l-244 373l244 370h258z" />
    <glyph glyph-name="logicalnot" unicode="&#xac;" horiz-adv-x="1173" 
d="M1034 862v-577h-227v368h-739v209h966z" />
    <glyph glyph-name="uni00AD" unicode="&#xad;" horiz-adv-x="761" 
d="M645 731v-209h-528v209h528z" />
    <glyph glyph-name="registered" unicode="&#xae;" horiz-adv-x="1499" 
d="M750 1411q143 0 271.5 -55t220.5 -148.5t146 -221.5t54 -269q0 -187 -92 -348t-253 -256t-352 -95q-143 0 -271.5 55.5t-220 149.5t-145 222t-53.5 268q0 187 91.5 347.5t252 255.5t351.5 95zM745 172q152 0 279 74t198.5 199t71.5 272t-71.5 271t-196.5 196.5t-276 72.5
q-114 0 -215.5 -43.5t-174 -117t-115 -173.5t-42.5 -210q0 -147 71 -271t196 -197t275 -73zM1042 840q0 -157 -127 -217l146 -220h-170l-109 193h-14h-135v-193h-148v666h283q132 0 203 -60t71 -169zM633 950v-235h135q63 0 98 31t35 88q0 56 -34.5 86t-98.5 30h-135z" />
    <glyph glyph-name="macron" unicode="&#xaf;" horiz-adv-x="716" 
d="M637 1520v-222h-555v222h555z" />
    <glyph glyph-name="degree" unicode="&#xb0;" horiz-adv-x="747" 
d="M410 1669q100 0 171.5 -70.5t71.5 -168.5t-71.5 -169t-171.5 -71q-98 0 -169 71t-71 169t71 168.5t169 70.5zM410 1540q-47 0 -81 -33t-34 -77q0 -46 34 -78.5t81 -32.5q49 0 83.5 32.5t34.5 78.5q0 45 -34.5 77.5t-83.5 32.5z" />
    <glyph glyph-name="plusminus" unicode="&#xb1;" horiz-adv-x="1036" 
d="M618 918h351v-203h-351v-336h-200v336h-350v203h350v335h200v-335zM68 14v209h901v-209h-901z" />
    <glyph glyph-name="uni00B2" unicode="&#xb2;" horiz-adv-x="792" 
d="M406 1442q132 0 216.5 -61.5t84.5 -161.5q0 -125 -168 -283l-185 -180h379v-174h-663v143l317 322q86 86 86 141q0 35 -26.5 54.5t-75.5 19.5q-54 0 -118 -29t-124 -80l-86 162q179 127 363 127z" />
    <glyph glyph-name="uni00B3" unicode="&#xb3;" horiz-adv-x="739" 
d="M463 1081q100 -14 160.5 -74.5t60.5 -156.5q0 -124 -93 -201.5t-247 -77.5q-91 0 -180 28.5t-150 76.5l90 170q101 -107 222 -107q67 0 103 29t36 80q0 102 -139 102h-142v119l205 199h-332v164h586v-127l-223 -215z" />
    <glyph glyph-name="acute" unicode="&#xb4;" horiz-adv-x="716" 
d="M319 1567l293 -111l-260 -223h-250z" />
    <glyph glyph-name="uni00B5" unicode="&#xb5;" horiz-adv-x="1394" 
d="M928 1102h315v-1102h-315v193q-114 -205 -369 -205q-41 0 -82 6v-391h-315v774v33v692h315v-619q4 -97 60.5 -152t148.5 -55q112 1 177 79.5t65 201.5v545z" />
    <glyph glyph-name="paragraph" unicode="&#xb6;" horiz-adv-x="1308" 
d="M1149 1520v-1739h-236v1552h-225v-1552h-235v901h-58q-92 0 -165 27.5t-116.5 70t-72 99t-39 109t-10.5 104.5q0 85 27.5 159t83 135.5t152 97.5t222.5 36h672z" />
    <glyph glyph-name="periodcentered" unicode="&#xb7;" horiz-adv-x="473" 
d="M236 748q66 0 109.5 -43.5t43.5 -112.5q0 -70 -43.5 -115t-109.5 -45t-110 45t-44 115q0 68 44 112t110 44z" />
    <glyph glyph-name="cedilla" unicode="&#xb8;" horiz-adv-x="716" 
d="M434 -102q64 -18 101.5 -61t37.5 -105q0 -94 -67 -150.5t-174 -56.5q-104 0 -191 61l60 138q48 -41 106 -41q40 0 64 22.5t24 54.5t-25 53t-69 21q-24 0 -74 -8l95 203h178z" />
    <glyph glyph-name="uni00B9" unicode="&#xb9;" horiz-adv-x="552" 
d="M412 582h-222v673h-165v179h387v-852z" />
    <glyph glyph-name="ordmasculine" unicode="&#xba;" horiz-adv-x="841" 
d="M420 1604q168 0 270.5 -92.5t102.5 -243.5q0 -152 -102 -244t-271 -92q-167 0 -269 92t-102 244q0 151 102 243.5t269 92.5zM420 1430q-68 0 -111 -46t-43 -120q0 -73 43 -118.5t111 -45.5q69 0 111 45t42 119q0 75 -42 120.5t-111 45.5z" />
    <glyph glyph-name="guillemotright" unicode="&#xbb;" horiz-adv-x="1013" 
d="M98 170l219 371l-219 372h258l244 -372l-244 -371h-258zM524 170l219 371l-219 372h258l244 -372l-244 -371h-258z" />
    <glyph glyph-name="onequarter" unicode="&#xbc;" horiz-adv-x="1759" 
d="M412 582h-222v673h-165v179h387v-852zM424 0h-299l1036 1434h295zM1202 344h195v188h209v-188h120v-160h-120v-184h-209v184h-420v150l280 518h213z" />
    <glyph glyph-name="onehalf" unicode="&#xbd;" horiz-adv-x="1806" 
d="M412 582h-222v673h-165v179h387v-852zM424 0h-299l1036 1434h295zM1419 860q132 0 216.5 -61.5t84.5 -161.5q0 -125 -168 -283l-184 -182h379v-172h-664v143l318 320q86 86 86 143q0 35 -27 54.5t-76 19.5q-109 0 -241 -109l-86 160q178 129 362 129z" />
    <glyph glyph-name="threequarters" unicode="&#xbe;" horiz-adv-x="1884" 
d="M549 0h-299l1036 1434h295zM463 1081q100 -14 160.5 -74.5t60.5 -156.5q0 -124 -93 -201.5t-247 -77.5q-91 0 -180 28.5t-150 76.5l90 170q101 -107 222 -107q67 0 103 29t36 80q0 102 -139 102h-142v119l205 199h-332v164h586v-127l-223 -215zM1327 344h195v188h209
v-188h120v-160h-120v-184h-209v184h-420v150l280 518h213z" />
    <glyph glyph-name="questiondown" unicode="&#xbf;" horiz-adv-x="946" 
d="M494 793q-68 0 -113 45t-45 116q0 70 45 117t113 47q69 0 113 -46.5t44 -117.5q0 -72 -44 -116.5t-113 -44.5zM940 115q-4 -213 -124.5 -332t-330.5 -119q-199 0 -314.5 92t-115.5 260q0 64 17.5 118.5t45.5 94t62 75.5t68 69t62 67.5t45.5 79.5t17.5 96h237
q0 -65 -14.5 -120t-38 -92.5t-51.5 -70t-56 -61t-51.5 -57.5t-38 -66.5t-14.5 -80.5q0 -72 44.5 -108t123.5 -36q176 0 182 193z" />
    <glyph glyph-name="Agrave" unicode="&#xc0;" horiz-adv-x="1554" 
d="M942 1567h-252l-260 225l293 109zM1217 0l-113 279h-662l-114 -279h-334l622 1434h334l613 -1434h-346zM547 539h452l-225 557z" />
    <glyph glyph-name="Aacute" unicode="&#xc1;" horiz-adv-x="1554" 
d="M1124 1790l-260 -223h-250l217 334zM1217 0l-113 279h-662l-114 -279h-334l622 1434h334l613 -1434h-346zM547 539h452l-225 557z" />
    <glyph glyph-name="Acircumflex" unicode="&#xc2;" horiz-adv-x="1554" 
d="M778 1757l-123 -174h-231l223 303h262l224 -303h-232zM1217 0l-113 279h-662l-114 -279h-334l622 1434h334l613 -1434h-346zM547 539h452l-225 557z" />
    <glyph glyph-name="Atilde" unicode="&#xc3;" horiz-adv-x="1554" 
d="M688 1700q-67 0 -67 -92h-195q0 309 205 309q51 0 97.5 -25.5t82 -51t59.5 -25.5q68 0 68 90h195q0 -306 -205 -306q-54 0 -100.5 25.5t-80.5 50.5t-59 25zM1217 0l-113 279h-662l-114 -279h-334l622 1434h334l613 -1434h-346zM547 539h452l-225 557z" />
    <glyph glyph-name="Adieresis" unicode="&#xc4;" horiz-adv-x="1554" 
d="M586 1604q-65 0 -106.5 42.5t-41.5 108.5q0 67 41.5 110.5t106.5 43.5t107 -43.5t42 -110.5q0 -66 -42 -108.5t-107 -42.5zM971 1604q-65 0 -106.5 42.5t-41.5 108.5q0 67 41.5 110.5t106.5 43.5t107 -43.5t42 -110.5q0 -66 -42 -108.5t-107 -42.5zM1217 0l-113 279h-662
l-114 -279h-334l622 1434h334l613 -1434h-346zM547 539h452l-225 557z" />
    <glyph glyph-name="Aring" unicode="&#xc5;" horiz-adv-x="1554" 
d="M1217 0l-113 279h-662l-114 -279h-334l606 1395q-76 73 -76 180t76.5 182.5t183.5 75.5t182.5 -75.5t75.5 -182.5q0 -106 -73 -182l594 -1393h-346zM784 1692q-51 0 -86.5 -34t-35.5 -83q0 -47 35.5 -81t86.5 -34t87 34t36 81q0 49 -36 83t-87 34zM547 539h452l-225 557z
" />
    <glyph glyph-name="AE" unicode="&#xc6;" horiz-adv-x="2222" 
d="M1335 270h791v-270h-1112v315h-512l-170 -315h-338l821 1434h199h1089v-269h-768v-311h693v-268h-693v-316zM635 561h379v615h-45z" />
    <glyph glyph-name="Ccedilla" unicode="&#xc7;" horiz-adv-x="1421" 
d="M1386 242q-97 -100 -225.5 -165.5t-263.5 -84.5l-47 -94q64 -18 101.5 -61t37.5 -105q0 -94 -67 -150.5t-174 -56.5q-104 0 -191 61l59 138q48 -41 107 -41q40 0 64 22.5t24 54.5t-25 53t-69 21q-24 0 -74 -8l76 164q-142 15 -265 77t-211 157.5t-138 223.5t-50 271
q0 153 58.5 287.5t160 230.5t243.5 151.5t302 55.5q155 0 307 -64.5t258 -173.5l-188 -229q-74 85 -174 135.5t-199 50.5q-185 0 -310.5 -126.5t-125.5 -313.5t125.5 -314.5t310.5 -127.5q96 0 196 45.5t177 122.5z" />
    <glyph glyph-name="Egrave" unicode="&#xc8;" horiz-adv-x="1368" 
d="M651 1901l219 -334h-252l-260 225zM1249 1434v-269h-768v-311h693v-268h-693v-318h791v-268h-1114v1434h1091z" />
    <glyph glyph-name="Eacute" unicode="&#xc9;" horiz-adv-x="1368" 
d="M760 1901l293 -111l-260 -223h-250zM1249 1434v-269h-768v-311h693v-268h-693v-318h791v-268h-1114v1434h1091z" />
    <glyph glyph-name="Ecircumflex" unicode="&#xca;" horiz-adv-x="1368" 
d="M840 1886l223 -303h-232l-122 174l-123 -174h-232l224 303h262zM1249 1434v-269h-768v-311h693v-268h-693v-318h791v-268h-1114v1434h1091z" />
    <glyph glyph-name="Edieresis" unicode="&#xcb;" horiz-adv-x="1368" 
d="M516 1909q65 0 107.5 -43.5t42.5 -110.5q0 -66 -42.5 -108.5t-107.5 -42.5q-64 0 -105.5 42.5t-41.5 108.5q0 68 41.5 111t105.5 43zM901 1909q65 0 107.5 -43.5t42.5 -110.5q0 -66 -42.5 -108.5t-107.5 -42.5q-64 0 -105.5 42.5t-41.5 108.5q0 68 41.5 111t105.5 43z
M1249 1434v-269h-768v-311h693v-268h-693v-318h791v-268h-1114v1434h1091z" />
    <glyph glyph-name="Igrave" unicode="&#xcc;" horiz-adv-x="641" 
d="M264 1901l219 -334h-252l-260 225zM481 1434v-1434h-323v1434h323z" />
    <glyph glyph-name="Iacute" unicode="&#xcd;" horiz-adv-x="641" 
d="M373 1901l293 -111l-260 -223h-250zM481 1434v-1434h-323v1434h323z" />
    <glyph glyph-name="Icircumflex" unicode="&#xce;" horiz-adv-x="641" 
d="M451 1886l223 -303h-232l-123 174l-122 -174h-232l223 303h263zM481 1434v-1434h-323v1434h323z" />
    <glyph glyph-name="Idieresis" unicode="&#xcf;" horiz-adv-x="641" 
d="M127 1909q65 0 107 -43.5t42 -110.5q0 -66 -42 -108.5t-107 -42.5q-64 0 -105.5 42.5t-41.5 108.5q0 68 41.5 111t105.5 43zM512 1909q65 0 107.5 -43.5t42.5 -110.5q0 -66 -42.5 -108.5t-107.5 -42.5q-64 0 -105.5 42.5t-41.5 108.5q0 68 41.5 111t105.5 43zM481 1434
v-1434h-323v1434h323z" />
    <glyph glyph-name="Eth" unicode="&#xd0;" horiz-adv-x="1632" 
d="M823 1434q220 0 391.5 -90.5t267 -254t95.5 -372.5t-96.5 -372t-271 -254t-398.5 -91h-596v629h-215v180h215v625h608zM831 272q181 0 298.5 124t117.5 319q0 196 -122 321t-308 125h-278v-352h352v-180h-352v-357h292z" />
    <glyph glyph-name="Ntilde" unicode="&#xd1;" horiz-adv-x="1613" 
d="M659 1917q40 0 79 -16t63 -35t51 -35t47 -16q68 0 68 90h194q0 -306 -205 -306q-54 0 -100 25.5t-80 50.5t-59 25q-68 0 -68 -92h-194q0 309 204 309zM1456 1434v-1434h-295l-694 920v-920h-309v1434h295l696 -922v922h307z" />
    <glyph glyph-name="Ograve" unicode="&#xd2;" horiz-adv-x="1650" 
d="M756 1901l219 -334h-252l-260 225zM825 1444q216 0 392.5 -94.5t277 -261t100.5 -371.5q0 -204 -100.5 -371.5t-277 -263.5t-392.5 -96t-392.5 95.5t-277 263t-100.5 372.5q0 206 100.5 372.5t277 260.5t392.5 94zM829 1161q-183 0 -312.5 -128.5t-129.5 -315.5
q0 -93 35.5 -176.5t95 -143t141 -94.5t170.5 -35q181 0 308 130.5t127 318.5t-127 316t-308 128z" />
    <glyph glyph-name="Oacute" unicode="&#xd3;" horiz-adv-x="1650" 
d="M864 1901l293 -111l-260 -223h-250zM825 1444q216 0 392.5 -94.5t277 -261t100.5 -371.5q0 -204 -100.5 -371.5t-277 -263.5t-392.5 -96t-392.5 95.5t-277 263t-100.5 372.5q0 206 100.5 372.5t277 260.5t392.5 94zM829 1161q-183 0 -312.5 -128.5t-129.5 -315.5
q0 -93 35.5 -176.5t95 -143t141 -94.5t170.5 -35q181 0 308 130.5t127 318.5t-127 316t-308 128z" />
    <glyph glyph-name="Ocircumflex" unicode="&#xd4;" horiz-adv-x="1650" 
d="M942 1886l223 -303h-231l-123 174l-123 -174h-231l223 303h262zM825 1444q216 0 392.5 -94.5t277 -261t100.5 -371.5q0 -204 -100.5 -371.5t-277 -263.5t-392.5 -96t-392.5 95.5t-277 263t-100.5 372.5q0 206 100.5 372.5t277 260.5t392.5 94zM829 1161
q-183 0 -312.5 -128.5t-129.5 -315.5q0 -93 35.5 -176.5t95 -143t141 -94.5t170.5 -35q181 0 308 130.5t127 318.5t-127 316t-308 128z" />
    <glyph glyph-name="Otilde" unicode="&#xd5;" horiz-adv-x="1650" 
d="M664 1917q51 0 97.5 -25.5t82 -51t59.5 -25.5q68 0 68 90h194q0 -306 -204 -306q-54 0 -100.5 25.5t-80.5 50.5t-59 25q-68 0 -68 -92h-194q0 309 205 309zM825 1444q216 0 392.5 -94.5t277 -261t100.5 -371.5q0 -204 -100.5 -371.5t-277 -263.5t-392.5 -96t-392.5 95.5
t-277 263t-100.5 372.5q0 206 100.5 372.5t277 260.5t392.5 94zM829 1161q-183 0 -312.5 -128.5t-129.5 -315.5q0 -93 35.5 -176.5t95 -143t141 -94.5t170.5 -35q181 0 308 130.5t127 318.5t-127 316t-308 128z" />
    <glyph glyph-name="Odieresis" unicode="&#xd6;" horiz-adv-x="1650" 
d="M618 1909q65 0 107.5 -43.5t42.5 -110.5q0 -66 -42.5 -108.5t-107.5 -42.5q-64 0 -105.5 42.5t-41.5 108.5q0 68 41.5 111t105.5 43zM1004 1909q65 0 107 -43.5t42 -110.5q0 -66 -42 -108.5t-107 -42.5t-106.5 42.5t-41.5 108.5q0 67 41.5 110.5t106.5 43.5zM825 1444
q216 0 392.5 -94.5t277 -261t100.5 -371.5q0 -204 -100.5 -371.5t-277 -263.5t-392.5 -96t-392.5 95.5t-277 263t-100.5 372.5q0 206 100.5 372.5t277 260.5t392.5 94zM829 1161q-183 0 -312.5 -128.5t-129.5 -315.5q0 -93 35.5 -176.5t95 -143t141 -94.5t170.5 -35
q181 0 308 130.5t127 318.5t-127 316t-308 128z" />
    <glyph glyph-name="multiply" unicode="&#xd7;" horiz-adv-x="1036" 
d="M907 913l-243 -245l243 -246l-143 -148l-246 248l-246 -248l-143 148l246 246l-246 245l143 148l246 -248l246 248z" />
    <glyph glyph-name="Oslash" unicode="&#xd8;" horiz-adv-x="1650" 
d="M1137 1386q209 -83 333.5 -261.5t124.5 -407.5q0 -204 -100.5 -371.5t-277 -263.5t-392.5 -96q-85 0 -170 16l-84 -240h-182l100 293q-198 88 -316 264.5t-118 397.5q0 206 100.5 372.5t277 260.5t392.5 94q67 0 142 -10l77 223h185zM387 717q0 -117 55 -216t148 -161
l282 819q-14 2 -43 2q-183 0 -312.5 -128.5t-129.5 -315.5zM829 268q181 0 308 130.5t127 318.5q0 126 -61 229.5t-165 161.5l-288 -832q36 -8 79 -8z" />
    <glyph glyph-name="Ugrave" unicode="&#xd9;" horiz-adv-x="1556" 
d="M723 1901l219 -334h-252l-260 225zM1425 1434v-834q0 -284 -173 -449t-470 -165q-299 0 -475 165.5t-176 448.5v834h324v-834q0 -153 90 -242.5t237 -89.5q146 0 233 89t87 243v834h323z" />
    <glyph glyph-name="Uacute" unicode="&#xda;" horiz-adv-x="1556" 
d="M831 1901l293 -111l-260 -223h-250zM1425 1434v-834q0 -284 -173 -449t-470 -165q-299 0 -475 165.5t-176 448.5v834h324v-834q0 -153 90 -242.5t237 -89.5q146 0 233 89t87 243v834h323z" />
    <glyph glyph-name="Ucircumflex" unicode="&#xdb;" horiz-adv-x="1556" 
d="M909 1886l224 -303h-232l-123 174l-123 -174h-231l223 303h262zM1425 1434v-834q0 -284 -173 -449t-470 -165q-299 0 -475 165.5t-176 448.5v834h324v-834q0 -153 90 -242.5t237 -89.5q146 0 233 89t87 243v834h323z" />
    <glyph glyph-name="Udieresis" unicode="&#xdc;" horiz-adv-x="1556" 
d="M586 1909q65 0 107 -43.5t42 -110.5q0 -66 -42 -108.5t-107 -42.5t-106.5 42.5t-41.5 108.5q0 67 41.5 110.5t106.5 43.5zM971 1909q65 0 107 -43.5t42 -110.5q0 -66 -42 -108.5t-107 -42.5t-106.5 42.5t-41.5 108.5q0 67 41.5 110.5t106.5 43.5zM1425 1434v-834
q0 -284 -173 -449t-470 -165q-299 0 -475 165.5t-176 448.5v834h324v-834q0 -153 90 -242.5t237 -89.5q146 0 233 89t87 243v834h323z" />
    <glyph glyph-name="Yacute" unicode="&#xdd;" horiz-adv-x="1363" 
d="M1028 1790l-260 -223h-250l217 334zM1370 1434l-522 -971v-463h-324v453l-530 981h325l367 -643l358 643h326z" />
    <glyph glyph-name="Thorn" unicode="&#xde;" horiz-adv-x="1404" 
d="M750 1241q286 0 446 -129.5t160 -359.5q0 -243 -160 -379.5t-446 -136.5h-269v-236h-323v1434h323v-193h269zM735 494q141 0 215 63.5t74 183.5q0 117 -74 179.5t-215 62.5h-254v-489h254z" />
    <glyph glyph-name="germandbls" unicode="&#xdf;" horiz-adv-x="1351" 
d="M676 1534q230 0 371 -111t141 -295q0 -111 -57.5 -204.5t-153.5 -139.5q135 -35 216 -126t81 -222q0 -195 -153 -315.5t-406 -120.5h-103v233h97q120 0 189 55t69 148q0 96 -76.5 147.5t-214.5 51.5h-35v231q115 0 178.5 56.5t63.5 158.5q0 98 -55 152.5t-152 54.5
q-109 0 -169.5 -68.5t-60.5 -191.5v-1028h-313v1006q0 242 146 385t397 143z" />
    <glyph glyph-name="agrave" unicode="&#xe0;" horiz-adv-x="1220" 
d="M770 1233h-252l-260 225l293 109zM1100 0h-309v129q-113 -143 -347 -143q-174 0 -276 95.5t-102 248.5q0 156 109 243.5t310 88.5h303v20q0 89 -58 136.5t-171 47.5q-153 0 -328 -96l-98 217q131 65 245.5 96t252.5 31q221 0 343 -104t124 -291zM532 211q99 0 171.5 48
t84.5 120v96h-247q-92 0 -136.5 -30t-44.5 -95q0 -63 46.5 -101t125.5 -38z" />
    <glyph glyph-name="aacute" unicode="&#xe1;" horiz-adv-x="1220" 
d="M952 1456l-260 -223h-250l217 334zM1100 0h-309v129q-113 -143 -347 -143q-174 0 -276 95.5t-102 248.5q0 156 109 243.5t310 88.5h303v20q0 89 -58 136.5t-171 47.5q-153 0 -328 -96l-98 217q131 65 245.5 96t252.5 31q221 0 343 -104t124 -291zM532 211q99 0 171.5 48
t84.5 120v96h-247q-92 0 -136.5 -30t-44.5 -95q0 -63 46.5 -101t125.5 -38z" />
    <glyph glyph-name="acircumflex" unicode="&#xe2;" horiz-adv-x="1220" 
d="M606 1423l-123 -174h-231l223 303h262l224 -303h-232zM1100 0h-309v129q-113 -143 -347 -143q-174 0 -276 95.5t-102 248.5q0 156 109 243.5t310 88.5h303v20q0 89 -58 136.5t-171 47.5q-153 0 -328 -96l-98 217q131 65 245.5 96t252.5 31q221 0 343 -104t124 -291z
M532 211q99 0 171.5 48t84.5 120v96h-247q-92 0 -136.5 -30t-44.5 -95q0 -63 46.5 -101t125.5 -38z" />
    <glyph glyph-name="atilde" unicode="&#xe3;" horiz-adv-x="1220" 
d="M516 1366q-67 0 -67 -92h-195q0 309 205 309q51 0 97.5 -25.5t82 -51t59.5 -25.5q68 0 68 90h195q0 -305 -205 -305q-42 0 -81 15.5t-62.5 34.5t-50 34.5t-46.5 15.5zM1100 0h-309v129q-113 -143 -347 -143q-174 0 -276 95.5t-102 248.5q0 156 109 243.5t310 88.5h303v20
q0 89 -58 136.5t-171 47.5q-153 0 -328 -96l-98 217q131 65 245.5 96t252.5 31q221 0 343 -104t124 -291zM532 211q99 0 171.5 48t84.5 120v96h-247q-92 0 -136.5 -30t-44.5 -95q0 -63 46.5 -101t125.5 -38z" />
    <glyph glyph-name="adieresis" unicode="&#xe4;" horiz-adv-x="1220" 
d="M414 1270q-65 0 -106.5 42.5t-41.5 108.5q0 67 41.5 110.5t106.5 43.5t107 -43.5t42 -110.5q0 -66 -42 -108.5t-107 -42.5zM799 1270q-65 0 -106.5 42.5t-41.5 108.5q0 67 41.5 110.5t106.5 43.5t107 -43.5t42 -110.5q0 -66 -42 -108.5t-107 -42.5zM1100 0h-309v129
q-113 -143 -347 -143q-174 0 -276 95.5t-102 248.5q0 156 109 243.5t310 88.5h303v20q0 89 -58 136.5t-171 47.5q-153 0 -328 -96l-98 217q131 65 245.5 96t252.5 31q221 0 343 -104t124 -291zM532 211q99 0 171.5 48t84.5 120v96h-247q-92 0 -136.5 -30t-44.5 -95
q0 -63 46.5 -101t125.5 -38z" />
    <glyph glyph-name="aring" unicode="&#xe5;" horiz-adv-x="1220" 
d="M606 1174q-102 0 -174 71t-72 172q0 100 72.5 172t173.5 72t173.5 -72t72.5 -172q0 -101 -72 -172t-174 -71zM606 1528q-49 0 -83 -32.5t-34 -78.5q0 -47 34 -79.5t83 -32.5q50 0 84.5 32.5t34.5 79.5q0 46 -35 78.5t-84 32.5zM1100 0h-309v129q-113 -143 -347 -143
q-174 0 -276 95.5t-102 248.5q0 156 109 243.5t310 88.5h303v20q0 89 -58 136.5t-171 47.5q-153 0 -328 -96l-98 217q131 65 245.5 96t252.5 31q221 0 343 -104t124 -291zM532 211q99 0 171.5 48t84.5 120v96h-247q-92 0 -136.5 -30t-44.5 -95q0 -63 46.5 -101t125.5 -38z
" />
    <glyph glyph-name="ae" unicode="&#xe6;" horiz-adv-x="1982" 
d="M1366 1112q269 0 421 -173t140 -460h-815q22 -115 99 -180.5t190 -65.5q164 0 280 119l166 -172q-176 -192 -471 -192q-159 0 -276 62.5t-182 178.5q-134 -243 -457 -243q-183 0 -289 93t-106 245q0 153 109 235t312 84h306v39q0 88 -59.5 136t-172.5 48q-167 0 -354 -96
l-74 221q262 123 498 123q253 0 377 -133q140 131 358 131zM1110 639h504q-2 110 -70 181t-174 71q-104 0 -173 -69.5t-87 -182.5zM535 199q184 0 266 163l-6 3v120h-244q-91 0 -141 -34.5t-50 -100.5q0 -69 47.5 -110t127.5 -41zM834 354l38 -26l-6 18z" />
    <glyph glyph-name="ccedilla" unicode="&#xe7;" horiz-adv-x="1153" 
d="M1108 231q-59 -98 -158 -159t-231 -78l-49 -96q64 -18 101.5 -61t37.5 -105q0 -94 -67.5 -150.5t-174.5 -56.5q-103 0 -190 61l59 138q48 -41 107 -41q40 0 64 22.5t24 54.5t-25 53t-69 21q-24 0 -74 -8l78 166q-219 25 -351.5 175.5t-132.5 379.5q0 253 156 409t410 156
q157 0 280 -60t197 -171l-213 -154q-96 120 -252 117q-116 0 -189 -81.5t-73 -213.5q0 -133 73 -216t189 -83q173 0 256 129z" />
    <glyph glyph-name="egrave" unicode="&#xe8;" horiz-adv-x="1222" 
d="M778 1233h-252l-260 225l293 109zM625 1112q285 0 423 -175t117 -482h-790q28 -105 102.5 -163.5t181.5 -58.5q162 0 279 117l166 -168q-175 -194 -471 -194q-263 0 -419.5 153.5t-156.5 405.5q0 254 157.5 409.5t410.5 155.5zM369 641h501q-3 109 -69 174.5t-174 65.5
q-103 0 -171 -65t-87 -175z" />
    <glyph glyph-name="eacute" unicode="&#xe9;" horiz-adv-x="1222" 
d="M961 1456l-261 -223h-249l217 334zM625 1112q285 0 423 -175t117 -482h-790q28 -105 102.5 -163.5t181.5 -58.5q162 0 279 117l166 -168q-175 -194 -471 -194q-263 0 -419.5 153.5t-156.5 405.5q0 254 157.5 409.5t410.5 155.5zM369 641h501q-3 109 -69 174.5t-174 65.5
q-103 0 -171 -65t-87 -175z" />
    <glyph glyph-name="ecircumflex" unicode="&#xea;" horiz-adv-x="1222" 
d="M614 1423l-122 -174h-232l223 303h262l224 -303h-232zM625 1112q285 0 423 -175t117 -482h-790q28 -105 102.5 -163.5t181.5 -58.5q162 0 279 117l166 -168q-175 -194 -471 -194q-263 0 -419.5 153.5t-156.5 405.5q0 254 157.5 409.5t410.5 155.5zM369 641h501
q-3 109 -69 174.5t-174 65.5q-103 0 -171 -65t-87 -175z" />
    <glyph glyph-name="edieresis" unicode="&#xeb;" horiz-adv-x="1222" 
d="M422 1270q-65 0 -106.5 42.5t-41.5 108.5q0 67 41.5 110.5t106.5 43.5t107 -43.5t42 -110.5q0 -66 -42 -108.5t-107 -42.5zM807 1270q-65 0 -106.5 42.5t-41.5 108.5q0 67 41.5 110.5t106.5 43.5t107 -43.5t42 -110.5q0 -66 -42 -108.5t-107 -42.5zM625 1112
q285 0 423 -175t117 -482h-790q28 -105 102.5 -163.5t181.5 -58.5q162 0 279 117l166 -168q-175 -194 -471 -194q-263 0 -419.5 153.5t-156.5 405.5q0 254 157.5 409.5t410.5 155.5zM369 641h501q-3 109 -69 174.5t-174 65.5q-103 0 -171 -65t-87 -175z" />
    <glyph glyph-name="igrave" unicode="&#xec;" horiz-adv-x="618" 
d="M254 1567l219 -334h-252l-260 225zM467 1102v-1102h-315v1102h315z" />
    <glyph glyph-name="iacute" unicode="&#xed;" horiz-adv-x="618" 
d="M362 1567l293 -111l-260 -223h-250zM467 1102v-1102h-315v1102h315z" />
    <glyph glyph-name="icircumflex" unicode="&#xee;" horiz-adv-x="618" 
d="M440 1552l224 -303h-232l-123 174l-123 -174h-231l223 303h262zM467 1102v-1102h-315v1102h315z" />
    <glyph glyph-name="idieresis" unicode="&#xef;" horiz-adv-x="618" 
d="M117 1575q65 0 107 -43.5t42 -110.5q0 -66 -42 -108.5t-107 -42.5t-106.5 42.5t-41.5 108.5q0 67 41.5 110.5t106.5 43.5zM502 1575q65 0 107 -43.5t42 -110.5q0 -66 -42 -108.5t-107 -42.5t-106.5 42.5t-41.5 108.5q0 67 41.5 110.5t106.5 43.5zM467 1102v-1102h-315
v1102h315z" />
    <glyph glyph-name="eth" unicode="&#xf0;" horiz-adv-x="1228" 
d="M897 1219q132 -139 203 -306t71 -342q0 -267 -160.5 -426t-430.5 -159q-239 0 -382 129t-143 346q0 204 126.5 327t338.5 123q106 0 198 -36.5t142 -98.5q-58 178 -237 350l-328 -110l-49 151l233 80q-135 96 -256 150l211 137q185 -78 328 -191l285 97l47 -154zM594 256
q110 0 176 59t66 156q0 100 -66 160.5t-176 60.5q-109 0 -173.5 -58t-64.5 -155q0 -101 65.5 -162t172.5 -61z" />
    <glyph glyph-name="ntilde" unicode="&#xf1;" horiz-adv-x="1372" 
d="M629 1366q-68 0 -68 -92h-194q0 309 204 309q40 0 79 -16t63 -35t51 -35t47 -16q68 0 68 90h194q0 -305 -205 -305q-54 0 -100 25t-80 50t-59 25zM848 1114q185 0 294 -114.5t109 -307.5v-692h-315v600q0 104 -58 164.5t-159 60.5q-107 -1 -175 -70.5t-77 -179.5v-575
h-315v1102h315v-193q117 205 381 205z" />
    <glyph glyph-name="ograve" unicode="&#xf2;" horiz-adv-x="1296" 
d="M592 1567l219 -334h-252l-260 225zM649 1112q265 0 427.5 -154t162.5 -407q0 -252 -163 -407.5t-427 -155.5q-265 0 -428.5 155.5t-163.5 407.5q0 253 163 407t429 154zM649 850q-123 0 -198.5 -84t-75.5 -219t75.5 -219t198.5 -84q122 0 198.5 84t76.5 219t-76.5 219
t-198.5 84z" />
    <glyph glyph-name="oacute" unicode="&#xf3;" horiz-adv-x="1296" 
d="M700 1567l293 -111l-260 -223h-250zM649 1112q265 0 427.5 -154t162.5 -407q0 -252 -163 -407.5t-427 -155.5q-265 0 -428.5 155.5t-163.5 407.5q0 253 163 407t429 154zM649 850q-123 0 -198.5 -84t-75.5 -219t75.5 -219t198.5 -84q122 0 198.5 84t76.5 219t-76.5 219
t-198.5 84z" />
    <glyph glyph-name="ocircumflex" unicode="&#xf4;" horiz-adv-x="1296" 
d="M780 1552l224 -303h-232l-123 174l-123 -174h-231l223 303h262zM649 1112q265 0 427.5 -154t162.5 -407q0 -252 -163 -407.5t-427 -155.5q-265 0 -428.5 155.5t-163.5 407.5q0 253 163 407t429 154zM649 850q-123 0 -198.5 -84t-75.5 -219t75.5 -219t198.5 -84
q122 0 198.5 84t76.5 219t-76.5 219t-198.5 84z" />
    <glyph glyph-name="otilde" unicode="&#xf5;" horiz-adv-x="1296" 
d="M502 1583q51 0 97.5 -25.5t82 -51t59.5 -25.5q68 0 68 90h195q0 -305 -205 -305q-42 0 -81 15.5t-62.5 34.5t-50 34.5t-46.5 15.5q-67 0 -67 -92h-195q0 309 205 309zM649 1112q265 0 427.5 -154t162.5 -407q0 -252 -163 -407.5t-427 -155.5q-265 0 -428.5 155.5
t-163.5 407.5q0 253 163 407t429 154zM649 850q-123 0 -198.5 -84t-75.5 -219t75.5 -219t198.5 -84q122 0 198.5 84t76.5 219t-76.5 219t-198.5 84z" />
    <glyph glyph-name="odieresis" unicode="&#xf6;" horiz-adv-x="1296" 
d="M457 1575q65 0 107 -43.5t42 -110.5q0 -66 -42 -108.5t-107 -42.5t-106.5 42.5t-41.5 108.5q0 67 41.5 110.5t106.5 43.5zM842 1575q65 0 107 -43.5t42 -110.5q0 -66 -42 -108.5t-107 -42.5t-106.5 42.5t-41.5 108.5q0 67 41.5 110.5t106.5 43.5zM649 1112
q265 0 427.5 -154t162.5 -407q0 -252 -163 -407.5t-427 -155.5q-265 0 -428.5 155.5t-163.5 407.5q0 253 163 407t429 154zM649 850q-123 0 -198.5 -84t-75.5 -219t75.5 -219t198.5 -84q122 0 198.5 84t76.5 219t-76.5 219t-198.5 84z" />
    <glyph glyph-name="divide" unicode="&#xf7;" horiz-adv-x="1036" 
d="M504 1198q64 0 105.5 -43t41.5 -111q0 -66 -41.5 -109.5t-105.5 -43.5q-65 0 -107.5 43.5t-42.5 109.5q0 67 42.5 110.5t107.5 43.5zM969 772v-209h-901v209h901zM504 467q64 0 105.5 -43t41.5 -111q0 -66 -41.5 -109.5t-105.5 -43.5q-65 0 -107.5 43.5t-42.5 109.5
q0 67 42.5 110.5t107.5 43.5z" />
    <glyph glyph-name="oslash" unicode="&#xf8;" horiz-adv-x="1296" 
d="M885 1073q166 -59 260 -196t94 -326q0 -252 -163 -407.5t-427 -155.5q-42 0 -112 8l-95 -289h-133l105 320q-166 59 -261.5 197t-95.5 327q0 253 163 407t429 154q66 0 113 -8l88 266h131zM354 547q0 -96 35.5 -169.5t99.5 -115.5l199 612q-18 3 -39 3q-131 0 -213 -91
t-82 -239zM649 217q131 0 212 91t81 239q0 96 -35.5 170t-99.5 114l-199 -612q12 -2 41 -2z" />
    <glyph glyph-name="ugrave" unicode="&#xf9;" horiz-adv-x="1351" 
d="M829 1233h-251l-261 225l293 109zM885 1102h313v-1102h-313v193q-114 -205 -369 -205q-183 0 -290 113.5t-107 308.5v692h315v-602q0 -104 55.5 -164t151.5 -60q112 1 178 80t66 201v545z" />
    <glyph glyph-name="uacute" unicode="&#xfa;" horiz-adv-x="1351" 
d="M1012 1456l-260 -223h-250l217 334zM885 1102h313v-1102h-313v193q-114 -205 -369 -205q-183 0 -290 113.5t-107 308.5v692h315v-602q0 -104 55.5 -164t151.5 -60q112 1 178 80t66 201v545z" />
    <glyph glyph-name="ucircumflex" unicode="&#xfb;" horiz-adv-x="1351" 
d="M666 1423l-123 -174h-232l224 303h262l223 -303h-232zM885 1102h313v-1102h-313v193q-114 -205 -369 -205q-183 0 -290 113.5t-107 308.5v692h315v-602q0 -104 55.5 -164t151.5 -60q112 1 178 80t66 201v545z" />
    <glyph glyph-name="udieresis" unicode="&#xfc;" horiz-adv-x="1351" 
d="M473 1270q-64 0 -105.5 42.5t-41.5 108.5q0 68 41.5 111t105.5 43q65 0 107.5 -43.5t42.5 -110.5q0 -66 -42.5 -108.5t-107.5 -42.5zM858 1270q-64 0 -105.5 42.5t-41.5 108.5q0 68 41.5 111t105.5 43q65 0 107.5 -43.5t42.5 -110.5q0 -66 -42.5 -108.5t-107.5 -42.5z
M885 1102h313v-1102h-313v193q-114 -205 -369 -205q-183 0 -290 113.5t-107 308.5v692h315v-602q0 -104 55.5 -164t151.5 -60q112 1 178 80t66 201v545z" />
    <glyph glyph-name="yacute" unicode="&#xfd;" horiz-adv-x="1155" 
d="M633 1567l293 -111l-260 -223h-250zM1169 1102l-483 -1225q-116 -289 -403 -289q-169 0 -299 107l133 227q71 -59 143 -59q100 0 146 98l30 62l-456 1079h325l289 -758l260 758h315z" />
    <glyph glyph-name="thorn" unicode="&#xfe;" horiz-adv-x="1400" 
d="M825 1112q232 0 375 -156t143 -411q0 -251 -140.5 -404t-371.5 -153q-230 0 -354 172v-557h-315v1499v418h315v-580q121 172 348 172zM752 250q121 0 196.5 85t75.5 220q0 133 -75.5 218t-196.5 85t-198 -84.5t-77 -218.5q0 -136 76.5 -220.5t198.5 -84.5z" />
    <glyph glyph-name="ydieresis" unicode="&#xff;" horiz-adv-x="1155" 
d="M387 1575q65 0 107.5 -43.5t42.5 -110.5q0 -66 -42.5 -108.5t-107.5 -42.5q-64 0 -105.5 42.5t-41.5 108.5q0 68 41.5 111t105.5 43zM772 1575q65 0 107.5 -43.5t42.5 -110.5q0 -66 -42.5 -108.5t-107.5 -42.5q-64 0 -105.5 42.5t-41.5 108.5q0 68 41.5 111t105.5 43z
M1169 1102l-483 -1225q-116 -289 -403 -289q-169 0 -299 107l133 227q71 -59 143 -59q100 0 146 98l30 62l-456 1079h325l289 -758l260 758h315z" />
    <glyph glyph-name="Amacron" unicode="&#x100;" horiz-adv-x="1554" 
d="M1057 1853v-221h-555v221h555zM1217 0l-113 279h-662l-114 -279h-334l622 1434h334l613 -1434h-346zM547 539h452l-225 557z" />
    <glyph glyph-name="amacron" unicode="&#x101;" horiz-adv-x="1220" 
d="M885 1520v-222h-555v222h555zM1100 0h-309v129q-113 -143 -347 -143q-174 0 -276 95.5t-102 248.5q0 156 109 243.5t310 88.5h303v20q0 89 -58 136.5t-171 47.5q-153 0 -328 -96l-98 217q131 65 245.5 96t252.5 31q221 0 343 -104t124 -291zM532 211q99 0 171.5 48
t84.5 120v96h-247q-92 0 -136.5 -30t-44.5 -95q0 -63 46.5 -101t125.5 -38z" />
    <glyph glyph-name="Abreve" unicode="&#x102;" horiz-adv-x="1554" 
d="M778 1567q-138 0 -225.5 86.5t-93.5 228.5h200q3 -55 36 -89t83 -34t83 34t36 89h201q-6 -142 -94 -228.5t-226 -86.5zM1217 0l-113 279h-662l-114 -279h-334l622 1434h334l613 -1434h-346zM547 539h452l-225 557z" />
    <glyph glyph-name="abreve" unicode="&#x103;" horiz-adv-x="1220" 
d="M606 1233q-138 0 -225.5 86.5t-93.5 228.5h200q3 -55 36 -89t83 -34t83 34t36 89h201q-6 -142 -94 -228.5t-226 -86.5zM1100 0h-309v129q-113 -143 -347 -143q-174 0 -276 95.5t-102 248.5q0 156 109 243.5t310 88.5h303v20q0 89 -58 136.5t-171 47.5q-153 0 -328 -96
l-98 217q131 65 245.5 96t252.5 31q221 0 343 -104t124 -291zM532 211q99 0 171.5 48t84.5 120v96h-247q-92 0 -136.5 -30t-44.5 -95q0 -63 46.5 -101t125.5 -38z" />
    <glyph glyph-name="Aogonek" unicode="&#x104;" horiz-adv-x="1554" 
d="M950 1434l613 -1434h-93q-92 -130 -92 -197q0 -51 49 -51q45 0 93 64l82 -99q-36 -64 -91.5 -97.5t-119.5 -33.5q-71 0 -122.5 40.5t-51.5 125.5q0 102 98 248h-98l-115 279h-658l-114 -279h-336l624 1434h332zM776 1098l-231 -559h461z" />
    <glyph glyph-name="aogonek" unicode="&#x105;" horiz-adv-x="1228" 
d="M633 1114q222 0 344.5 -104t124.5 -291v-719h-78q-94 -128 -94 -197q0 -24 13.5 -37.5t37.5 -13.5q46 0 90 64l84 -99q-38 -64 -93.5 -97.5t-119.5 -33.5q-71 0 -122.5 40.5t-51.5 125.5q0 109 102 248h-77v129q-113 -143 -347 -143q-176 0 -278 95.5t-102 248.5
q0 156 109 243.5t310 88.5h308v22q-3 88 -61.5 135t-172.5 47q-153 0 -328 -96l-98 217q133 66 247 96.5t253 30.5zM793 475h-250q-94 0 -138.5 -29.5t-44.5 -95.5q0 -63 47 -101t128 -38q96 0 171 47.5t87 114.5v102z" />
    <glyph glyph-name="Cacute" unicode="&#x106;" horiz-adv-x="1421" 
d="M829 1901l293 -111l-260 -223h-250zM819 1444q155 0 307 -64.5t258 -173.5l-188 -229q-74 85 -174 135.5t-199 50.5q-185 0 -310.5 -126.5t-125.5 -313.5t125.5 -314.5t310.5 -127.5q96 0 196 45.5t177 122.5l190 -207q-115 -118 -269.5 -187t-309.5 -69
q-211 0 -383.5 96t-270.5 264t-98 373q0 153 58.5 287.5t160 230.5t243.5 151.5t302 55.5z" />
    <glyph glyph-name="cacute" unicode="&#x107;" horiz-adv-x="1153" 
d="M649 1567l293 -111l-260 -223h-250zM623 1112q157 0 280 -60t197 -171l-213 -154q-96 120 -252 117q-116 0 -189 -81.5t-73 -213.5q0 -133 73 -216t189 -83q173 0 256 129l217 -148q-70 -116 -196 -179.5t-294 -63.5q-251 0 -406 154.5t-155 404.5q0 253 156 409t410 156
z" />
    <glyph glyph-name="Ccircumflex" unicode="&#x108;" horiz-adv-x="1421" 
d="M909 1886l224 -303h-232l-123 174l-123 -174h-231l223 303h262zM819 1444q155 0 307 -64.5t258 -173.5l-188 -229q-74 85 -174 135.5t-199 50.5q-185 0 -310.5 -126.5t-125.5 -313.5t125.5 -314.5t310.5 -127.5q96 0 196 45.5t177 122.5l190 -207q-115 -118 -269.5 -187
t-309.5 -69q-211 0 -383.5 96t-270.5 264t-98 373q0 153 58.5 287.5t160 230.5t243.5 151.5t302 55.5z" />
    <glyph glyph-name="ccircumflex" unicode="&#x109;" horiz-adv-x="1153" 
d="M727 1552l223 -303h-231l-123 174l-123 -174h-231l223 303h262zM623 1112q157 0 280 -60t197 -171l-213 -154q-96 120 -252 117q-116 0 -189 -81.5t-73 -213.5q0 -133 73 -216t189 -83q173 0 256 129l217 -148q-70 -116 -196 -179.5t-294 -63.5q-251 0 -406 154.5
t-155 404.5q0 253 156 409t410 156z" />
    <glyph glyph-name="Cdotaccent" unicode="&#x10a;" horiz-adv-x="1421" 
d="M778 1925q75 0 122.5 -49.5t47.5 -126.5t-47.5 -126.5t-122.5 -49.5t-122.5 49.5t-47.5 126.5t47.5 126.5t122.5 49.5zM819 1444q155 0 307 -64.5t258 -173.5l-188 -229q-74 85 -174 135.5t-199 50.5q-185 0 -310.5 -126.5t-125.5 -313.5t125.5 -314.5t310.5 -127.5
q96 0 196 45.5t177 122.5l190 -207q-115 -118 -269.5 -187t-309.5 -69q-211 0 -383.5 96t-270.5 264t-98 373q0 153 58.5 287.5t160 230.5t243.5 151.5t302 55.5z" />
    <glyph glyph-name="cdotaccent" unicode="&#x10b;" horiz-adv-x="1153" 
d="M596 1591q75 0 122.5 -49.5t47.5 -126.5t-47.5 -126.5t-122.5 -49.5t-122.5 49.5t-47.5 126.5t47.5 126.5t122.5 49.5zM623 1112q157 0 280 -60t197 -171l-213 -154q-96 120 -252 117q-116 0 -189 -81.5t-73 -213.5q0 -133 73 -216t189 -83q173 0 256 129l217 -148
q-70 -116 -196 -179.5t-294 -63.5q-251 0 -406 154.5t-155 404.5q0 253 156 409t410 156z" />
    <glyph glyph-name="Ccaron" unicode="&#x10c;" horiz-adv-x="1421" 
d="M629 1559l-240 327h254l127 -188l127 188h254l-240 -327h-282zM819 1444q155 0 307 -64.5t258 -173.5l-188 -229q-74 85 -174 135.5t-199 50.5q-185 0 -310.5 -126.5t-125.5 -313.5t125.5 -314.5t310.5 -127.5q96 0 196 45.5t177 122.5l190 -207q-115 -118 -269.5 -187
t-309.5 -69q-211 0 -383.5 96t-270.5 264t-98 373q0 153 58.5 287.5t160 230.5t243.5 151.5t302 55.5z" />
    <glyph glyph-name="ccaron" unicode="&#x10d;" horiz-adv-x="1153" 
d="M446 1225l-239 327h254l127 -188l127 188h254l-240 -327h-283zM623 1112q157 0 280 -60t197 -171l-213 -154q-96 120 -252 117q-116 0 -189 -81.5t-73 -213.5q0 -133 73 -216t189 -83q173 0 256 129l217 -148q-70 -116 -196 -179.5t-294 -63.5q-251 0 -406 154.5
t-155 404.5q0 253 156 409t410 156z" />
    <glyph glyph-name="Dcaron" unicode="&#x10e;" horiz-adv-x="1574" 
d="M588 1559l-240 327h254l127 -188l127 188h254l-240 -327h-282zM766 1434q220 0 391.5 -90.5t267 -254t95.5 -372.5t-96.5 -372t-271 -254t-398.5 -91h-596v1434h608zM760 1161h-279v-889h293q181 0 298.5 124t117.5 319q0 196 -122 321t-308 125z" />
    <glyph glyph-name="dcaron" unicode="&#x10f;" horiz-adv-x="1562" 
d="M926 940v580h313v-1520h-313v160q-121 -172 -348 -172q-235 0 -378 156t-143 411q0 252 141 405.5t371 153.5q232 0 357 -174zM1505 1407q64 0 109 -43t45 -117q0 -68 -43 -127l-137 -207h-154l86 207q-63 45 -63 127q0 70 44.5 115t112.5 45zM651 242q122 0 198.5 85
t76.5 220t-76.5 220t-198.5 85t-199 -85.5t-79 -219.5q2 -136 78 -220.5t200 -84.5z" />
    <glyph glyph-name="Dcroat" unicode="&#x110;" horiz-adv-x="1574" 
d="M1016 1853v-221h-555v221h555zM766 1434q220 0 391.5 -90.5t267 -254t95.5 -372.5t-96.5 -372t-271 -254t-398.5 -91h-596v1434h608zM760 1161h-279v-889h293q181 0 298.5 124t117.5 319q0 196 -122 321t-308 125z" />
    <glyph glyph-name="dcroat" unicode="&#x111;" horiz-adv-x="1409" 
d="M1376 1401v-172h-137v-1229h-313v160q-121 -172 -348 -172q-235 0 -378 156t-143 411q0 252 141 405.5t371 153.5q232 0 357 -174v289h-185v172h185v119h313v-119h137zM651 242q122 0 198.5 85t76.5 220t-76.5 220t-198.5 85t-199 -85.5t-79 -219.5q2 -136 78 -220.5
t200 -84.5z" />
    <glyph glyph-name="Emacron" unicode="&#x112;" horiz-adv-x="1368" 
d="M985 1853v-221h-555v221h555zM1249 1434v-269h-768v-311h693v-268h-693v-318h791v-268h-1114v1434h1091z" />
    <glyph glyph-name="emacron" unicode="&#x113;" horiz-adv-x="1222" 
d="M893 1520v-222h-555v222h555zM625 1112q285 0 423 -175t117 -482h-790q28 -105 102.5 -163.5t181.5 -58.5q162 0 279 117l166 -168q-175 -194 -471 -194q-263 0 -419.5 153.5t-156.5 405.5q0 254 157.5 409.5t410.5 155.5zM369 641h501q-3 109 -69 174.5t-174 65.5
q-103 0 -171 -65t-87 -175z" />
    <glyph glyph-name="Ebreve" unicode="&#x114;" horiz-adv-x="1368" 
d="M1028 1882q-6 -142 -93.5 -228.5t-225.5 -86.5t-226 86.5t-94 228.5h201q3 -55 36 -89t83 -34t82.5 34t35.5 89h201zM1249 1434v-269h-768v-311h693v-268h-693v-318h791v-268h-1114v1434h1091z" />
    <glyph glyph-name="ebreve" unicode="&#x115;" horiz-adv-x="1222" 
d="M614 1233q-138 0 -225.5 86.5t-93.5 228.5h201q3 -55 35.5 -89t82.5 -34t83 34t36 89h201q-6 -142 -94 -228.5t-226 -86.5zM625 1112q285 0 423 -175t117 -482h-790q28 -105 102.5 -163.5t181.5 -58.5q162 0 279 117l166 -168q-175 -194 -471 -194q-263 0 -419.5 153.5
t-156.5 405.5q0 254 157.5 409.5t410.5 155.5zM369 641h501q-3 109 -69 174.5t-174 65.5q-103 0 -171 -65t-87 -175z" />
    <glyph glyph-name="Edotaccent" unicode="&#x116;" horiz-adv-x="1368" 
d="M709 1925q75 0 122.5 -49.5t47.5 -126.5t-47.5 -126.5t-122.5 -49.5t-122.5 49.5t-47.5 126.5t47.5 126.5t122.5 49.5zM1249 1434v-269h-768v-311h693v-268h-693v-318h791v-268h-1114v1434h1091z" />
    <glyph glyph-name="edotaccent" unicode="&#x117;" horiz-adv-x="1222" 
d="M614 1239q-75 0 -122.5 49.5t-47.5 126.5t47.5 126.5t122.5 49.5t122.5 -49.5t47.5 -126.5t-47.5 -126.5t-122.5 -49.5zM625 1112q285 0 423 -175t117 -482h-790q28 -105 102.5 -163.5t181.5 -58.5q162 0 279 117l166 -168q-175 -194 -471 -194q-263 0 -419.5 153.5
t-156.5 405.5q0 254 157.5 409.5t410.5 155.5zM369 641h501q-3 109 -69 174.5t-174 65.5q-103 0 -171 -65t-87 -175z" />
    <glyph glyph-name="Eogonek" unicode="&#x118;" horiz-adv-x="1380" 
d="M1262 1434v-258h-781v-322h703v-258h-703v-338h803v-258h-143q-94 -134 -94 -197q0 -24 14.5 -37.5t36.5 -13.5q48 0 92 64l84 -99q-38 -64 -93.5 -97.5t-119.5 -33.5q-71 0 -122.5 40.5t-51.5 125.5q0 105 100 248h-829v1434h1104z" />
    <glyph glyph-name="eogonek" unicode="&#x119;" horiz-adv-x="1222" 
d="M625 1112q277 4 419 -172t123 -485h-792q27 -104 100.5 -163t183.5 -59q163 0 279 119l166 -172q-91 -104 -156 -207t-65 -166q0 -55 51 -55q43 0 90 64l82 -99q-37 -62 -91 -96.5t-118 -34.5q-72 0 -123 40.5t-51 127.5q0 129 117 287q-97 -53 -213 -53
q-258 0 -414 154.5t-156 408.5q0 247 152 402t416 159zM629 881q-105 0 -176.5 -66.5t-83.5 -173.5h501q-3 106 -69.5 173t-171.5 67z" />
    <glyph glyph-name="Ecaron" unicode="&#x11a;" horiz-adv-x="1368" 
d="M559 1559l-240 327h254l127 -188l127 188h254l-239 -327h-283zM1249 1434v-269h-768v-311h693v-268h-693v-318h791v-268h-1114v1434h1091z" />
    <glyph glyph-name="ecaron" unicode="&#x11b;" horiz-adv-x="1222" 
d="M748 1225h-283l-240 327h254l127 -188l127 188h254zM625 1112q285 0 423 -175t117 -482h-790q28 -105 102.5 -163.5t181.5 -58.5q162 0 279 117l166 -168q-175 -194 -471 -194q-263 0 -419.5 153.5t-156.5 405.5q0 254 157.5 409.5t410.5 155.5zM369 641h501
q-3 109 -69 174.5t-174 65.5q-103 0 -171 -65t-87 -175z" />
    <glyph glyph-name="Gcircumflex" unicode="&#x11c;" horiz-adv-x="1525" 
d="M799 1757l-123 -174h-232l224 303h262l223 -303h-231zM1120 346v377h281v-551q-115 -84 -274 -135t-308 -51q-214 0 -389 95.5t-275 263t-100 372.5q0 204 102 370.5t281.5 261.5t399.5 95q158 0 311.5 -56.5t263.5 -152.5l-182 -231q-80 74 -184.5 116.5t-208.5 42.5
q-191 0 -321 -128.5t-130 -317.5q0 -190 131 -319.5t322 -129.5q134 0 280 78z" />
    <glyph glyph-name="gcircumflex" unicode="&#x11d;" horiz-adv-x="1320" 
d="M659 1423l-122 -174h-232l223 303h263l223 -303h-232zM870 1102h314v-1000q0 -234 -161.5 -373t-426.5 -139q-263 0 -479 146l116 221q154 -111 342 -111q135 0 215 66.5t80 179.5v125q-116 -160 -331 -160q-214 0 -348 147t-134 386q0 233 131 377.5t342 144.5
q219 3 340 -160v150zM612 297q115 0 186.5 79.5t71.5 205.5q0 128 -71.5 207t-186.5 79t-186.5 -79.5t-73.5 -206.5q2 -127 73 -206t187 -79z" />
    <glyph glyph-name="Gbreve" unicode="&#x11e;" horiz-adv-x="1525" 
d="M799 1567q-138 0 -226 86.5t-94 228.5h201q3 -55 36 -89t83 -34t83 34t36 89h200q-6 -142 -93.5 -228.5t-225.5 -86.5zM1120 346v377h281v-551q-115 -84 -274 -135t-308 -51q-214 0 -389 95.5t-275 263t-100 372.5q0 204 102 370.5t281.5 261.5t399.5 95
q158 0 311.5 -56.5t263.5 -152.5l-182 -231q-80 74 -184.5 116.5t-208.5 42.5q-191 0 -321 -128.5t-130 -317.5q0 -190 131 -319.5t322 -129.5q134 0 280 78z" />
    <glyph glyph-name="gbreve" unicode="&#x11f;" horiz-adv-x="1320" 
d="M659 1233q-138 0 -225.5 86.5t-93.5 228.5h201q3 -55 35.5 -89t82.5 -34t83 34t36 89h201q-6 -142 -94 -228.5t-226 -86.5zM870 1102h314v-1000q0 -234 -161.5 -373t-426.5 -139q-263 0 -479 146l116 221q154 -111 342 -111q135 0 215 66.5t80 179.5v125
q-116 -160 -331 -160q-214 0 -348 147t-134 386q0 233 131 377.5t342 144.5q219 3 340 -160v150zM612 297q115 0 186.5 79.5t71.5 205.5q0 128 -71.5 207t-186.5 79t-186.5 -79.5t-73.5 -206.5q2 -127 73 -206t187 -79z" />
    <glyph glyph-name="Gdotaccent" unicode="&#x120;" horiz-adv-x="1525" 
d="M799 1573q-75 0 -122.5 49.5t-47.5 126.5t47.5 126.5t122.5 49.5t122.5 -49.5t47.5 -126.5t-47.5 -126.5t-122.5 -49.5zM1120 346v377h281v-551q-115 -84 -274 -135t-308 -51q-214 0 -389 95.5t-275 263t-100 372.5q0 204 102 370.5t281.5 261.5t399.5 95
q158 0 311.5 -56.5t263.5 -152.5l-182 -231q-80 74 -184.5 116.5t-208.5 42.5q-191 0 -321 -128.5t-130 -317.5q0 -190 131 -319.5t322 -129.5q134 0 280 78z" />
    <glyph glyph-name="gdotaccent" unicode="&#x121;" horiz-adv-x="1320" 
d="M659 1239q-75 0 -122.5 49.5t-47.5 126.5t47.5 126.5t122.5 49.5t122.5 -49.5t47.5 -126.5t-47.5 -126.5t-122.5 -49.5zM870 1102h314v-1000q0 -234 -161.5 -373t-426.5 -139q-263 0 -479 146l116 221q154 -111 342 -111q135 0 215 66.5t80 179.5v125
q-116 -160 -331 -160q-214 0 -348 147t-134 386q0 233 131 377.5t342 144.5q219 3 340 -160v150zM612 297q115 0 186.5 79.5t71.5 205.5q0 128 -71.5 207t-186.5 79t-186.5 -79.5t-73.5 -206.5q2 -127 73 -206t187 -79z" />
    <glyph glyph-name="Gcommaaccent" unicode="&#x122;" horiz-adv-x="1525" 
d="M1120 346v377h281v-551q-115 -84 -274 -135t-308 -51q-214 0 -389 95.5t-275 263t-100 372.5q0 204 102 370.5t281.5 261.5t399.5 95q158 0 311.5 -56.5t263.5 -152.5l-182 -231q-80 74 -184.5 116.5t-208.5 42.5q-191 0 -321 -128.5t-130 -317.5q0 -190 131 -319.5
t322 -129.5q134 0 280 78zM813 -88q64 0 109 -43t45 -115q0 -67 -43 -129l-138 -207h-153l86 207q-64 46 -64 127q0 69 45 114.5t113 45.5z" />
    <glyph glyph-name="gcommaaccent" unicode="&#x123;" horiz-adv-x="1320" 
d="M647 1190q-64 0 -108.5 43t-44.5 115q0 67 43 129l137 206h153l-86 -206q64 -46 64 -127q0 -69 -45 -114.5t-113 -45.5zM870 1102h314v-1000q0 -234 -161.5 -373t-426.5 -139q-263 0 -479 146l116 221q154 -111 342 -111q135 0 215 66.5t80 179.5v125
q-116 -160 -331 -160q-214 0 -348 147t-134 386q0 233 131 377.5t342 144.5q219 3 340 -160v150zM612 297q115 0 186.5 79.5t71.5 205.5q0 128 -71.5 207t-186.5 79t-186.5 -79.5t-73.5 -206.5q2 -127 73 -206t187 -79z" />
    <glyph glyph-name="Hcircumflex" unicode="&#x124;" horiz-adv-x="1611" 
d="M952 1886l224 -303h-232l-123 174l-123 -174h-231l223 303h262zM1454 1434v-1434h-324v565h-649v-565h-323v1434h323v-598h649v598h324z" />
    <glyph glyph-name="hcircumflex" unicode="&#x125;" horiz-adv-x="1382" 
d="M313 1843l-123 -174h-231l223 303h262l224 -303h-232zM858 1114q186 0 296 -114.5t110 -307.5v-692h-316v600q0 104 -58 164.5t-159 60.5q-117 -1 -185.5 -79.5t-68.5 -202.5v-543h-315v1520h315v-613q118 207 381 207z" />
    <glyph glyph-name="Hbar" unicode="&#x126;" horiz-adv-x="1765" 
d="M1708 1247v-196h-178v-1051h-324v565h-649v-565h-324v1051h-176v196h176v187h324v-187h649v187h324v-187h178zM1206 836v215h-649v-215h649z" />
    <glyph glyph-name="hbar" unicode="&#x127;" horiz-adv-x="1568" 
d="M858 1114q186 0 296 -114.5t110 -307.5v-692h-316v600q0 104 -58 164.5t-159 60.5q-117 -1 -185.5 -79.5t-68.5 -202.5v-543h-315v1188h-166v178h166v154h315v-154h258v-178h-258v-281q118 207 381 207z" />
    <glyph glyph-name="Itilde" unicode="&#x128;" horiz-adv-x="641" 
d="M172 1917q40 0 79 -16t63 -35t51 -35t47 -16q67 0 67 90h195q0 -306 -205 -306q-54 0 -100.5 25.5t-80.5 50.5t-59 25q-67 0 -67 -92h-195q0 309 205 309zM481 1434v-1434h-323v1434h323z" />
    <glyph glyph-name="itilde" unicode="&#x129;" horiz-adv-x="618" 
d="M162 1583q51 0 97.5 -25.5t82 -51t59.5 -25.5q68 0 68 90h195q0 -305 -205 -305q-42 0 -81 15.5t-62.5 34.5t-50 34.5t-46.5 15.5q-67 0 -67 -92h-195q0 309 205 309zM467 1102v-1102h-315v1102h315z" />
    <glyph glyph-name="Imacron" unicode="&#x12a;" horiz-adv-x="641" 
d="M598 1853v-221h-555v221h555zM481 1434v-1434h-323v1434h323z" />
    <glyph glyph-name="imacron" unicode="&#x12b;" horiz-adv-x="618" 
d="M588 1520v-222h-555v222h555zM467 1102v-1102h-315v1102h315z" />
    <glyph glyph-name="Ibreve" unicode="&#x12c;" horiz-adv-x="641" 
d="M639 1882q-6 -142 -94 -228.5t-226 -86.5t-225.5 86.5t-93.5 228.5h201q3 -55 35.5 -89t82.5 -34t83 34t36 89h201zM481 1434v-1434h-323v1434h323z" />
    <glyph glyph-name="ibreve" unicode="&#x12d;" horiz-adv-x="618" 
d="M629 1548q-6 -142 -94 -228.5t-226 -86.5t-225.5 86.5t-93.5 228.5h200q3 -55 36 -89t83 -34t83 34t36 89h201zM467 1102v-1102h-315v1102h315z" />
    <glyph glyph-name="Iogonek" unicode="&#x12e;" horiz-adv-x="641" 
d="M547 -283q-38 -64 -93.5 -97.5t-119.5 -33.5q-71 0 -122.5 40.5t-51.5 125.5q0 104 100 248h-102v1434h323v-1434h-67q-92 -130 -92 -197q0 -24 13 -37.5t34 -13.5q46 0 94 64z" />
    <glyph glyph-name="iogonek" unicode="&#x12f;" horiz-adv-x="579" 
d="M291 1591q75 0 123.5 -49t48.5 -127q0 -77 -48.5 -126.5t-123.5 -49.5q-74 0 -122 50t-48 126q0 78 48 127t122 49zM449 1102v-1102h-72q-92 -130 -92 -197q0 -24 13.5 -37.5t35.5 -13.5q48 0 92 64l84 -99q-38 -64 -93.5 -97.5t-119.5 -33.5q-71 0 -122.5 40.5
t-51.5 125.5q0 104 100 248h-88v1102h314z" />
    <glyph glyph-name="Idotaccent" unicode="&#x130;" horiz-adv-x="641" 
d="M319 1925q75 0 122.5 -49.5t47.5 -126.5t-47.5 -126.5t-122.5 -49.5t-122 49.5t-47 126.5t47 126.5t122 49.5zM481 1434v-1434h-323v1434h323z" />
    <glyph glyph-name="dotlessi" unicode="&#x131;" horiz-adv-x="618" 
d="M467 1102v-1102h-315v1102h315z" />
    <glyph glyph-name="IJ" unicode="&#x132;" horiz-adv-x="1712" 
d="M481 1434v-1434h-323v1434h323zM1583 1434v-975q0 -224 -128.5 -348.5t-352.5 -124.5q-278 0 -469 223l149 229q73 -77 153.5 -118t149.5 -41q81 0 126.5 48.5t45.5 139.5v692h-493v275h819z" />
    <glyph glyph-name="ij" unicode="&#x133;" horiz-adv-x="1249" 
d="M309 1591q75 0 122.5 -49.5t47.5 -126.5t-47.5 -126.5t-122.5 -49.5t-122.5 49.5t-47.5 126.5t47.5 126.5t122.5 49.5zM930 1591q81 0 131.5 -49t50.5 -127q0 -77 -50.5 -126.5t-131.5 -49.5q-78 0 -130 50t-52 126q0 77 51.5 126.5t130.5 49.5zM1087 1102v-1135
q0 -91 -31 -164t-84 -119.5t-122 -71t-148 -24.5q-147 0 -260 74l86 232q67 -44 129 -44q53 0 85 32.5t32 97.5v1122h313zM467 1102v-1102h-315v1102h315z" />
    <glyph glyph-name="Jcircumflex" unicode="&#x134;" horiz-adv-x="1073" 
d="M657 1886l224 -303h-232l-123 174l-123 -174h-231l223 303h262zM942 1434v-975q0 -224 -128.5 -348.5t-352.5 -124.5q-278 0 -469 223l149 229q73 -77 153.5 -118t149.5 -41q81 0 126.5 48.5t45.5 139.5v692h-493v275h819z" />
    <glyph glyph-name="jcircumflex" unicode="&#x135;" horiz-adv-x="608" 
d="M432 1552l223 -303h-231l-123 174l-123 -174h-231l223 303h262zM469 1102v-1145q0 -173 -99.5 -271t-273.5 -96q-161 3 -280 72l73 225q63 -38 138 -41q63 -1 96 39.5t33 118.5v1098h313z" />
    <glyph glyph-name="Kcommaaccent" unicode="&#x136;" horiz-adv-x="1509" 
d="M913 836l576 -836h-389l-412 584l-207 -230v-354h-323v1434h323v-652l596 652h375zM750 -88q64 0 108.5 -43t44.5 -115q0 -67 -43 -129l-137 -207h-154l86 207q-63 45 -63 127q0 69 45 114.5t113 45.5z" />
    <glyph glyph-name="kcommaaccent" unicode="&#x137;" horiz-adv-x="1267" 
d="M885 0l-267 449l-141 -148v-301h-315v1520h315v-834l404 414h358l-405 -424l423 -676h-372zM281 -88q64 0 108.5 -43t44.5 -115q0 -67 -43 -129l-137 -207h-154l86 207q-63 45 -63 127q0 69 45 114.5t113 45.5z" />
    <glyph glyph-name="kgreenlandic" unicode="&#x138;" horiz-adv-x="1255" 
d="M872 0l-266 449l-139 -146v-303h-315v1102h315v-416l401 416h359l-404 -426l422 -676h-373z" />
    <glyph glyph-name="Lacute" unicode="&#x139;" horiz-adv-x="1130" 
d="M371 1901l293 -111l-261 -223h-249zM481 1434v-1151h615v-283h-938v1434h323z" />
    <glyph glyph-name="lacute" unicode="&#x13a;" horiz-adv-x="641" 
d="M375 1987l293 -111l-260 -223h-250zM477 1520v-1520h-315v1520h315z" />
    <glyph glyph-name="Lcommaaccent" unicode="&#x13b;" horiz-adv-x="1130" 
d="M1096 283v-283h-938v1434h323v-1151h615zM608 -88q64 0 109 -43t45 -115q0 -67 -43 -129l-137 -207h-154l86 207q-63 45 -63 127q0 69 44.5 114.5t112.5 45.5z" />
    <glyph glyph-name="lcommaaccent" unicode="&#x13c;" horiz-adv-x="641" 
d="M477 1520v-1520h-315v1520h315zM334 -88q64 0 108.5 -43t44.5 -115q0 -67 -43 -129l-137 -207h-153l86 207q-64 46 -64 127q0 69 45 114.5t113 45.5z" />
    <glyph glyph-name="Lcaron" unicode="&#x13d;" horiz-adv-x="1130" 
d="M1096 283v-283h-938v1434h323v-1151h615zM889 877h-154l86 206q-63 45 -63 127q0 70 44.5 115t112.5 45q64 0 109 -43t45 -117q0 -68 -43 -127z" />
    <glyph glyph-name="lcaron" unicode="&#x13e;" horiz-adv-x="776" 
d="M162 0v1520h315v-1520h-315zM715 1391q64 0 108.5 -43t44.5 -117q0 -68 -43 -127l-137 -207h-153l86 207q-64 46 -64 127q0 70 45 115t113 45z" />
    <glyph glyph-name="Ldot" unicode="&#x13f;" horiz-adv-x="1130" 
d="M481 1434v-1151h615v-283h-938v1434h323zM834 1133q66 0 108.5 -44.5t42.5 -113.5t-42.5 -113.5t-108.5 -44.5q-67 0 -110.5 44.5t-43.5 113.5t43.5 113.5t110.5 44.5z" />
    <glyph glyph-name="ldot" unicode="&#x140;" horiz-adv-x="768" 
d="M477 1520v-1520h-315v1520h315zM688 799q68 0 112 -46t44 -116q0 -69 -44.5 -114.5t-111.5 -45.5q-69 0 -112.5 45.5t-43.5 114.5q0 71 43.5 116.5t112.5 45.5z" />
    <glyph glyph-name="Lslash" unicode="&#x141;" horiz-adv-x="1167" 
d="M520 283h613v-283h-936v700l-156 -45l-55 199l211 61v519h323v-422l305 88l54 -201l-359 -104v-512z" />
    <glyph glyph-name="lslash" unicode="&#x142;" horiz-adv-x="743" 
d="M778 899l-229 -68v-831h-316v741l-208 -61l-56 199l264 77v564h316v-471l176 53z" />
    <glyph glyph-name="Nacute" unicode="&#x143;" horiz-adv-x="1613" 
d="M860 1901l293 -111l-260 -223h-250zM1456 1434v-1434h-295l-694 920v-920h-309v1434h295l696 -922v922h307z" />
    <glyph glyph-name="nacute" unicode="&#x144;" horiz-adv-x="1372" 
d="M1065 1456l-260 -223h-250l217 334zM848 1114q185 0 294 -114.5t109 -307.5v-692h-315v600q0 104 -58 164.5t-159 60.5q-107 -1 -175 -70.5t-77 -179.5v-575h-315v1102h315v-193q117 205 381 205z" />
    <glyph glyph-name="Ncommaaccent" unicode="&#x145;" horiz-adv-x="1613" 
d="M1149 1434h307v-1434h-295l-694 920v-920h-309v1434h295l696 -922v922zM821 -88q64 0 109 -43t45 -115q0 -67 -43 -129l-137 -207h-154l86 207q-63 45 -63 127q0 69 44.5 114.5t112.5 45.5z" />
    <glyph glyph-name="ncommaaccent" unicode="&#x146;" horiz-adv-x="1372" 
d="M848 1114q185 0 294 -114.5t109 -307.5v-692h-315v600q0 104 -58 164.5t-159 60.5q-107 -1 -175 -70.5t-77 -179.5v-575h-315v1102h315v-193q117 205 381 205zM709 -88q64 0 108.5 -43t44.5 -115q0 -67 -43 -129l-137 -207h-154l86 207q-63 45 -63 127q0 69 45 114.5
t113 45.5z" />
    <glyph glyph-name="Ncaron" unicode="&#x147;" horiz-adv-x="1613" 
d="M657 1559l-239 327h254l127 -188l127 188h254l-240 -327h-283zM1456 1434v-1434h-295l-694 920v-920h-309v1434h295l696 -922v922h307z" />
    <glyph glyph-name="ncaron" unicode="&#x148;" horiz-adv-x="1372" 
d="M852 1225h-283l-239 327h254l127 -188l127 188h254zM848 1114q185 0 294 -114.5t109 -307.5v-692h-315v600q0 104 -58 164.5t-159 60.5q-107 -1 -175 -70.5t-77 -179.5v-575h-315v1102h315v-193q117 205 381 205z" />
    <glyph glyph-name="Eng" unicode="&#x14a;" horiz-adv-x="1613" 
d="M1456 1434v-1434h-2q-4 -201 -133.5 -317.5t-345.5 -116.5q-225 0 -381 131l127 250q131 -88 252 -88q76 0 121.5 41t52.5 118l-680 902v-920h-309v1434h295l696 -922v922h307z" />
    <glyph glyph-name="eng" unicode="&#x14b;" horiz-adv-x="1372" 
d="M848 1114q185 0 294 -114.5t109 -307.5v-729q0 -177 -111 -276t-276 -99q-147 0 -260 74l86 232q70 -44 131 -44q52 0 83.5 32.5t31.5 97.5v620q0 104 -58 164.5t-159 60.5q-107 -1 -175 -70.5t-77 -179.5v-575h-315v1102h315v-193q117 205 381 205z" />
    <glyph glyph-name="Omacron" unicode="&#x14c;" horiz-adv-x="1650" 
d="M1090 1853v-221h-555v221h555zM825 1444q216 0 392.5 -94.5t277 -261t100.5 -371.5q0 -204 -100.5 -371.5t-277 -263.5t-392.5 -96t-392.5 95.5t-277 263t-100.5 372.5q0 206 100.5 372.5t277 260.5t392.5 94zM829 1161q-183 0 -312.5 -128.5t-129.5 -315.5
q0 -93 35.5 -176.5t95 -143t141 -94.5t170.5 -35q181 0 308 130.5t127 318.5t-127 316t-308 128z" />
    <glyph glyph-name="omacron" unicode="&#x14d;" horiz-adv-x="1296" 
d="M928 1520v-222h-555v222h555zM649 1112q265 0 427.5 -154t162.5 -407q0 -252 -163 -407.5t-427 -155.5q-265 0 -428.5 155.5t-163.5 407.5q0 253 163 407t429 154zM649 850q-123 0 -198.5 -84t-75.5 -219t75.5 -219t198.5 -84q122 0 198.5 84t76.5 219t-76.5 219
t-198.5 84z" />
    <glyph glyph-name="Obreve" unicode="&#x14e;" horiz-adv-x="1650" 
d="M1130 1882q-6 -142 -93.5 -228.5t-225.5 -86.5t-225.5 86.5t-93.5 228.5h200q3 -55 36 -89t83 -34t83 34t36 89h200zM825 1444q216 0 392.5 -94.5t277 -261t100.5 -371.5q0 -204 -100.5 -371.5t-277 -263.5t-392.5 -96t-392.5 95.5t-277 263t-100.5 372.5
q0 206 100.5 372.5t277 260.5t392.5 94zM829 1161q-183 0 -312.5 -128.5t-129.5 -315.5q0 -93 35.5 -176.5t95 -143t141 -94.5t170.5 -35q181 0 308 130.5t127 318.5t-127 316t-308 128z" />
    <glyph glyph-name="obreve" unicode="&#x14f;" horiz-adv-x="1296" 
d="M969 1548q-6 -142 -94 -228.5t-226 -86.5t-225.5 86.5t-93.5 228.5h200q3 -55 36 -89t83 -34t83 34t36 89h201zM649 1112q265 0 427.5 -154t162.5 -407q0 -252 -163 -407.5t-427 -155.5q-265 0 -428.5 155.5t-163.5 407.5q0 253 163 407t429 154zM649 850
q-123 0 -198.5 -84t-75.5 -219t75.5 -219t198.5 -84q122 0 198.5 84t76.5 219t-76.5 219t-198.5 84z" />
    <glyph glyph-name="Ohungarumlaut" unicode="&#x150;" horiz-adv-x="1650" 
d="M647 1905l246 -97l-186 -245h-234zM1024 1905l248 -97l-187 -245h-233zM825 1444q216 0 392.5 -94.5t277 -261t100.5 -371.5q0 -204 -100.5 -371.5t-277 -263.5t-392.5 -96t-392.5 95.5t-277 263t-100.5 372.5q0 206 100.5 372.5t277 260.5t392.5 94zM829 1161
q-183 0 -312.5 -128.5t-129.5 -315.5q0 -93 35.5 -176.5t95 -143t141 -94.5t170.5 -35q181 0 308 130.5t127 318.5t-127 316t-308 128z" />
    <glyph glyph-name="ohungarumlaut" unicode="&#x151;" horiz-adv-x="1296" 
d="M483 1571l246 -96l-186 -246h-234zM860 1571l248 -96l-186 -246h-234zM649 1112q265 0 427.5 -154t162.5 -407q0 -252 -163 -407.5t-427 -155.5q-265 0 -428.5 155.5t-163.5 407.5q0 253 163 407t429 154zM649 850q-123 0 -198.5 -84t-75.5 -219t75.5 -219t198.5 -84
q122 0 198.5 84t76.5 219t-76.5 219t-198.5 84z" />
    <glyph glyph-name="OE" unicode="&#x152;" horiz-adv-x="2269" 
d="M1382 270h791v-270h-1114h-236q-214 0 -390 93t-277 257.5t-101 366.5q0 200 100 364.5t276 258.5t392 94h310h1017v-269h-768v-311h691v-268h-691v-316zM825 274l234 2v879h-234q-187 0 -312.5 -125.5t-125.5 -314.5t126 -315t312 -126z" />
    <glyph glyph-name="oe" unicode="&#x153;" horiz-adv-x="2101" 
d="M1481 1112q269 0 422 -173t141 -460h-821q23 -115 101 -180.5t192 -65.5q162 0 282 117l166 -168q-178 -194 -475 -194q-140 0 -246 52.5t-170 149.5q-69 -97 -177 -149.5t-247 -52.5q-265 0 -428.5 155.5t-163.5 407.5q0 253 163 407t429 154q140 0 248.5 -53
t175.5 -150q66 97 170.5 150t237.5 53zM1221 639h510q-2 109 -70.5 179.5t-175.5 70.5q-104 0 -174.5 -69t-89.5 -181zM649 244q122 0 198.5 84t76.5 219t-76.5 219t-198.5 84q-123 0 -198.5 -84t-75.5 -219t75.5 -219t198.5 -84z" />
    <glyph glyph-name="Racute" unicode="&#x154;" horiz-adv-x="1482" 
d="M1085 1790l-260 -223h-250l218 334zM1405 0h-367l-227 412q-5 0 -15.5 -1t-15.5 -1h-299v-410h-323v1434h622q281 0 434.5 -130t153.5 -368q0 -165 -68.5 -283t-199.5 -180zM481 680h299q135 0 208 62t73 184q0 118 -73 178.5t-208 60.5h-299v-485z" />
    <glyph glyph-name="racute" unicode="&#x155;" horiz-adv-x="851" 
d="M793 1456l-261 -223h-249l217 334zM467 903q57 103 150 157t214 54v-297q-158 13 -255.5 -57.5t-108.5 -198.5v-561h-315v1102h315v-199z" />
    <glyph glyph-name="Rcommaaccent" unicode="&#x156;" horiz-adv-x="1482" 
d="M1100 473l305 -473h-367l-227 412q-5 0 -15.5 -1t-15.5 -1h-299v-410h-323v1434h622q281 0 434.5 -130t153.5 -368q0 -165 -68.5 -283t-199.5 -180zM481 680h299q135 0 208 62t73 184q0 118 -73 178.5t-208 60.5h-299v-485zM750 -88q64 0 108.5 -43t44.5 -115
q0 -67 -43 -129l-137 -207h-154l86 207q-63 45 -63 127q0 69 45 114.5t113 45.5z" />
    <glyph glyph-name="rcommaaccent" unicode="&#x157;" horiz-adv-x="851" 
d="M467 903q57 103 150 157t214 54v-297q-158 13 -255.5 -57.5t-108.5 -198.5v-561h-315v1102h315v-199zM315 -88q64 0 109 -43t45 -115q0 -67 -43 -129l-137 -207h-154l86 207q-63 45 -63 127q0 69 44.5 114.5t112.5 45.5z" />
    <glyph glyph-name="Rcaron" unicode="&#x158;" horiz-adv-x="1482" 
d="M872 1559h-282l-240 327h254l127 -188l127 188h254zM1405 0h-367l-227 412q-5 0 -15.5 -1t-15.5 -1h-299v-410h-323v1434h622q281 0 434.5 -130t153.5 -368q0 -165 -68.5 -283t-199.5 -180zM481 680h299q135 0 208 62t73 184q0 118 -73 178.5t-208 60.5h-299v-485z" />
    <glyph glyph-name="rcaron" unicode="&#x159;" horiz-adv-x="851" 
d="M580 1225h-283l-240 327h254l127 -188l127 188h254zM467 903q57 103 150 157t214 54v-297q-158 13 -255.5 -57.5t-108.5 -198.5v-561h-315v1102h315v-199z" />
    <glyph glyph-name="Sacute" unicode="&#x15a;" horiz-adv-x="1304" 
d="M735 1901l293 -111l-260 -223h-250zM682 1448q148 0 292 -42t253 -114l-125 -268q-113 67 -236.5 107t-210.5 40q-84 0 -133 -29.5t-49 -86.5q0 -42 26 -74t70.5 -53t101.5 -39.5t120.5 -37t126.5 -40t120.5 -55t101.5 -76.5t69.5 -109t25.5 -149q0 -137 -75 -236
t-200 -147.5t-286 -48.5q-174 0 -341.5 61t-291.5 166l129 264q109 -97 250.5 -156t257.5 -59q100 0 156.5 35.5t56.5 101.5q0 43 -26 75.5t-70.5 53.5t-101.5 38.5t-120.5 35.5t-127 38.5t-120.5 53t-101.5 74.5t-70.5 106.5t-26 145.5q0 194 152 309t403 115z" />
    <glyph glyph-name="sacute" unicode="&#x15b;" horiz-adv-x="1021" 
d="M582 1567l292 -111l-260 -223h-249zM524 1116q236 0 430 -123l-108 -215q-190 107 -336 107q-58 0 -92.5 -20.5t-34.5 -61.5q0 -29 25 -52t66 -37t93 -30.5t106.5 -32t106.5 -43t93 -62t65.5 -89.5t24.5 -125q0 -109 -60.5 -188t-161 -117.5t-227.5 -38.5
q-135 0 -259.5 39.5t-217.5 113.5l102 213q85 -65 187.5 -101t195.5 -36q63 0 101.5 21.5t38.5 64.5q0 31 -24.5 55t-65 38t-91.5 30.5t-105 31.5t-105 42t-91.5 60t-65 88t-24.5 124q0 110 59 189t156 117t219 38z" />
    <glyph glyph-name="Scircumflex" unicode="&#x15c;" horiz-adv-x="1304" 
d="M813 1886l223 -303h-231l-123 174l-123 -174h-231l223 303h262zM682 1448q148 0 292 -42t253 -114l-125 -268q-113 67 -236.5 107t-210.5 40q-84 0 -133 -29.5t-49 -86.5q0 -42 26 -74t70.5 -53t101.5 -39.5t120.5 -37t126.5 -40t120.5 -55t101.5 -76.5t69.5 -109
t25.5 -149q0 -137 -75 -236t-200 -147.5t-286 -48.5q-174 0 -341.5 61t-291.5 166l129 264q109 -97 250.5 -156t257.5 -59q100 0 156.5 35.5t56.5 101.5q0 43 -26 75.5t-70.5 53.5t-101.5 38.5t-120.5 35.5t-127 38.5t-120.5 53t-101.5 74.5t-70.5 106.5t-26 145.5
q0 194 152 309t403 115z" />
    <glyph glyph-name="scircumflex" unicode="&#x15d;" horiz-adv-x="1021" 
d="M659 1552l224 -303h-232l-123 174l-122 -174h-232l223 303h262zM524 1116q236 0 430 -123l-108 -215q-190 107 -336 107q-58 0 -92.5 -20.5t-34.5 -61.5q0 -29 25 -52t66 -37t93 -30.5t106.5 -32t106.5 -43t93 -62t65.5 -89.5t24.5 -125q0 -109 -60.5 -188t-161 -117.5
t-227.5 -38.5q-135 0 -259.5 39.5t-217.5 113.5l102 213q85 -65 187.5 -101t195.5 -36q63 0 101.5 21.5t38.5 64.5q0 31 -24.5 55t-65 38t-91.5 30.5t-105 31.5t-105 42t-91.5 60t-65 88t-24.5 124q0 110 59 189t156 117t219 38z" />
    <glyph glyph-name="Scedilla" unicode="&#x15e;" horiz-adv-x="1304" 
d="M473 1055q0 -42 26 -74t70.5 -53t101.5 -39.5t120.5 -37t126.5 -40t120.5 -55t101.5 -76.5t69.5 -109t25.5 -149q0 -178 -121 -288t-321 -136l-50 -100q65 -18 102.5 -61t37.5 -105q0 -94 -67.5 -150.5t-174.5 -56.5q-103 0 -190 61l59 138q48 -41 106 -41
q40 0 64.5 22.5t24.5 54.5t-25.5 53t-69.5 21q-23 0 -73 -8l77 166q-160 9 -311 69t-262 156l129 264q109 -97 250.5 -156t257.5 -59q100 0 156.5 35.5t56.5 101.5q0 43 -26 75.5t-70.5 53.5t-101.5 38.5t-120.5 35.5t-127 38.5t-120.5 53t-101.5 74.5t-70.5 106.5
t-26 145.5q0 194 152 309t403 115q148 0 292 -42t253 -114l-125 -268q-113 67 -236.5 107t-210.5 40q-84 0 -133 -29.5t-49 -86.5z" />
    <glyph glyph-name="scedilla" unicode="&#x15f;" horiz-adv-x="1021" 
d="M383 803q0 -29 25 -52t66 -37t93 -30.5t106.5 -32t106.5 -43t93 -62t65.5 -89.5t24.5 -125q0 -137 -90 -223.5t-240 -112.5l-49 -98q64 -18 101.5 -61t37.5 -105q0 -94 -67.5 -150.5t-174.5 -56.5q-103 0 -190 61l59 138q48 -41 107 -41q40 0 64 22.5t24 54.5t-25 53
t-69 21q-24 0 -74 -8l76 164q-249 16 -416 151l102 213q85 -65 187.5 -101t195.5 -36q63 0 101.5 21.5t38.5 64.5q0 31 -24.5 55t-65 38t-91.5 30.5t-105 31.5t-105 42t-91.5 60t-65 88t-24.5 124q0 110 59 189t156 117t219 38q236 0 430 -123l-108 -215q-190 107 -336 107
q-58 0 -92.5 -20.5t-34.5 -61.5z" />
    <glyph glyph-name="Scaron" unicode="&#x160;" horiz-adv-x="1304" 
d="M532 1559l-239 327h254l127 -188l127 188h254l-240 -327h-283zM682 1448q148 0 292 -42t253 -114l-125 -268q-113 67 -236.5 107t-210.5 40q-84 0 -133 -29.5t-49 -86.5q0 -42 26 -74t70.5 -53t101.5 -39.5t120.5 -37t126.5 -40t120.5 -55t101.5 -76.5t69.5 -109
t25.5 -149q0 -137 -75 -236t-200 -147.5t-286 -48.5q-174 0 -341.5 61t-291.5 166l129 264q109 -97 250.5 -156t257.5 -59q100 0 156.5 35.5t56.5 101.5q0 43 -26 75.5t-70.5 53.5t-101.5 38.5t-120.5 35.5t-127 38.5t-120.5 53t-101.5 74.5t-70.5 106.5t-26 145.5
q0 194 152 309t403 115z" />
    <glyph glyph-name="scaron" unicode="&#x161;" horiz-adv-x="1021" 
d="M379 1225l-240 327h254l127 -188l127 188h254l-239 -327h-283zM524 1116q236 0 430 -123l-108 -215q-190 107 -336 107q-58 0 -92.5 -20.5t-34.5 -61.5q0 -29 25 -52t66 -37t93 -30.5t106.5 -32t106.5 -43t93 -62t65.5 -89.5t24.5 -125q0 -109 -60.5 -188t-161 -117.5
t-227.5 -38.5q-135 0 -259.5 39.5t-217.5 113.5l102 213q85 -65 187.5 -101t195.5 -36q63 0 101.5 21.5t38.5 64.5q0 31 -24.5 55t-65 38t-91.5 30.5t-105 31.5t-105 42t-91.5 60t-65 88t-24.5 124q0 110 59 189t156 117t219 38z" />
    <glyph glyph-name="uni0162" unicode="&#x162;" horiz-adv-x="1230" 
d="M776 0h-59l-51 -102q64 -18 101.5 -61t37.5 -105q0 -94 -67.5 -150.5t-174.5 -56.5q-103 0 -190 61l59 138q48 -41 107 -41q40 0 64 22.5t24 54.5t-25.5 53t-69.5 21q-23 0 -73 -8l80 174h-86v1159h-437v275h1198v-275h-438v-1159z" />
    <glyph glyph-name="uni0163" unicode="&#x163;" horiz-adv-x="872" 
d="M596 -102q64 -18 101.5 -61t37.5 -105q0 -94 -67 -150.5t-174 -56.5q-104 0 -191 61l59 138q48 -41 107 -41q40 0 64 22.5t24 54.5t-25 53t-69 21q-24 0 -74 -8l78 166q-122 21 -194 106.5t-72 227.5v510h-154v217h154v303h313v-303h299v-219l-299 2v-457q0 -67 27.5 -98
t79.5 -29q60 0 147 41l66 -232q-79 -48 -189 -67z" />
    <glyph glyph-name="Tcaron" unicode="&#x164;" horiz-adv-x="1230" 
d="M487 1559l-239 327h254l127 -188l127 188h254l-240 -327h-283zM1214 1434v-275h-438v-1159h-323v1159h-437v275h1198z" />
    <glyph glyph-name="tcaron" unicode="&#x165;" horiz-adv-x="845" 
d="M788 1683q65 0 109.5 -42.5t44.5 -116.5q0 -68 -43 -127l-137 -207h-154l86 207q-63 45 -63 127q0 70 44.5 114.5t112.5 44.5zM621 252q60 0 147 41l66 -232q-131 -75 -287 -75q-154 0 -250 88t-96 252v510h-154v217h154v303h313v-303h299v-219l-299 2v-457
q0 -67 27.5 -98t79.5 -29z" />
    <glyph glyph-name="Tbar" unicode="&#x166;" horiz-adv-x="1230" 
d="M915 1853v-221h-555v221h555zM1214 1434v-275h-438v-1159h-323v1159h-437v275h1198z" />
    <glyph glyph-name="tbar" unicode="&#x167;" horiz-adv-x="872" 
d="M768 293l66 -232q-131 -75 -287 -75q-154 0 -250 88t-96 252v172h-154v196h154v162h-154v197h154v303h313v-303h299v-197h-299v-162h299v-196h-299v-119q0 -67 27.5 -98t79.5 -29q60 0 147 41z" />
    <glyph glyph-name="Utilde" unicode="&#x168;" horiz-adv-x="1556" 
d="M631 1917q51 0 97.5 -25.5t82 -51t59.5 -25.5q68 0 68 90h195q0 -306 -205 -306q-54 0 -100.5 25.5t-80.5 50.5t-59 25q-67 0 -67 -92h-195q0 309 205 309zM1425 1434v-834q0 -284 -173 -449t-470 -165q-299 0 -475 165.5t-176 448.5v834h324v-834q0 -153 90 -242.5
t237 -89.5q146 0 233 89t87 243v834h323z" />
    <glyph glyph-name="utilde" unicode="&#x169;" horiz-adv-x="1351" 
d="M575 1366q-67 0 -67 -92h-195q0 309 205 309q40 0 79 -16t63 -35t51 -35t47 -16q67 0 67 90h195q0 -305 -205 -305q-42 0 -81 15.5t-62.5 34.5t-50 34.5t-46.5 15.5zM885 1102h313v-1102h-313v193q-114 -205 -369 -205q-183 0 -290 113.5t-107 308.5v692h315v-602
q0 -104 55.5 -164t151.5 -60q112 1 178 80t66 201v545z" />
    <glyph glyph-name="Umacron" unicode="&#x16a;" horiz-adv-x="1556" 
d="M1057 1853v-221h-555v221h555zM1425 1434v-834q0 -284 -173 -449t-470 -165q-299 0 -475 165.5t-176 448.5v834h324v-834q0 -153 90 -242.5t237 -89.5q146 0 233 89t87 243v834h323z" />
    <glyph glyph-name="umacron" unicode="&#x16b;" horiz-adv-x="1351" 
d="M944 1520v-222h-555v222h555zM885 1102h313v-1102h-313v193q-114 -205 -369 -205q-183 0 -290 113.5t-107 308.5v692h315v-602q0 -104 55.5 -164t151.5 -60q112 1 178 80t66 201v545z" />
    <glyph glyph-name="Ubreve" unicode="&#x16c;" horiz-adv-x="1556" 
d="M1098 1882q-6 -142 -94 -228.5t-226 -86.5t-225.5 86.5t-93.5 228.5h200q3 -55 36 -89t83 -34t83 34t36 89h201zM1425 1434v-834q0 -284 -173 -449t-470 -165q-299 0 -475 165.5t-176 448.5v834h324v-834q0 -153 90 -242.5t237 -89.5q146 0 233 89t87 243v834h323z" />
    <glyph glyph-name="ubreve" unicode="&#x16d;" horiz-adv-x="1351" 
d="M666 1233q-138 0 -226 86.5t-94 228.5h201q3 -55 36 -89t83 -34t82.5 34t35.5 89h201q-6 -142 -93.5 -228.5t-225.5 -86.5zM885 1102h313v-1102h-313v193q-114 -205 -369 -205q-183 0 -290 113.5t-107 308.5v692h315v-602q0 -104 55.5 -164t151.5 -60q112 1 178 80
t66 201v545z" />
    <glyph glyph-name="Uring" unicode="&#x16e;" horiz-adv-x="1556" 
d="M778 1995q101 0 173.5 -72t72.5 -172q0 -101 -72.5 -172.5t-173.5 -71.5t-173.5 71.5t-72.5 172.5q0 100 72.5 172t173.5 72zM778 1862q-49 0 -82.5 -32.5t-33.5 -78.5q0 -47 33.5 -80t82.5 -33q50 0 84.5 33t34.5 80q0 46 -35 78.5t-84 32.5zM1425 1434v-834
q0 -284 -173 -449t-470 -165q-299 0 -475 165.5t-176 448.5v834h324v-834q0 -153 90 -242.5t237 -89.5q146 0 233 89t87 243v834h323z" />
    <glyph glyph-name="uring" unicode="&#x16f;" horiz-adv-x="1351" 
d="M666 1174q-102 0 -174 71t-72 172q0 100 72.5 172t173.5 72t173 -72t72 -172q0 -101 -72 -172t-173 -71zM666 1528q-49 0 -83 -32.5t-34 -78.5q0 -47 34 -79.5t83 -32.5q50 0 84 32.5t34 79.5q0 46 -34.5 78.5t-83.5 32.5zM885 1102h313v-1102h-313v193
q-114 -205 -369 -205q-183 0 -290 113.5t-107 308.5v692h315v-602q0 -104 55.5 -164t151.5 -60q112 1 178 80t66 201v545z" />
    <glyph glyph-name="Uhungarumlaut" unicode="&#x170;" horiz-adv-x="1556" 
d="M614 1905l246 -97l-186 -245h-234zM991 1905l248 -97l-186 -245h-234zM1425 1434v-834q0 -284 -173 -449t-470 -165q-299 0 -475 165.5t-176 448.5v834h324v-834q0 -153 90 -242.5t237 -89.5q146 0 233 89t87 243v834h323z" />
    <glyph glyph-name="uhungarumlaut" unicode="&#x171;" horiz-adv-x="1351" 
d="M748 1475l-187 -246h-233l174 342zM940 1229h-233l172 342l247 -96zM885 1102h313v-1102h-313v193q-114 -205 -369 -205q-183 0 -290 113.5t-107 308.5v692h315v-602q0 -104 55.5 -164t151.5 -60q112 1 178 80t66 201v545z" />
    <glyph glyph-name="Uogonek" unicode="&#x172;" horiz-adv-x="1558" 
d="M1102 1434h323v-834q0 -220 -106.5 -371.5t-298.5 -210.5q-105 -148 -105 -215q0 -24 14 -37.5t36 -13.5q44 0 92 64l84 -99q-38 -64 -93.5 -97.5t-119.5 -33.5q-71 0 -122.5 40.5t-51.5 125.5q0 102 90 236q-20 -2 -62 -2q-299 0 -474 165.5t-175 448.5v834h322v-834
q0 -152 90.5 -242t238.5 -90q146 0 232 89t86 243v834z" />
    <glyph glyph-name="uogonek" unicode="&#x173;" horiz-adv-x="1343" 
d="M1204 1102v-1102h-74q-94 -122 -94 -197q0 -24 13.5 -37.5t35.5 -13.5q45 0 93 64l84 -99q-38 -64 -93.5 -97.5t-119.5 -33.5q-71 0 -123 40.5t-52 125.5q0 102 101 248h-84v188q-113 -200 -373 -200q-183 0 -290 113.5t-107 308.5v692h313v-602q0 -104 57.5 -164
t155.5 -60q105 1 170.5 72t73.5 182v572h313z" />
    <glyph glyph-name="Wcircumflex" unicode="&#x174;" horiz-adv-x="2183" 
d="M1190 1886l223 -303h-231l-123 174l-123 -174h-231l223 303h262zM2200 1434l-476 -1434h-333l-289 1022l-295 -1022h-334l-473 1434h348l301 -1082l299 1082h318l303 -1082l299 1082h332z" />
    <glyph glyph-name="wcircumflex" unicode="&#x175;" horiz-adv-x="1890" 
d="M1077 1552l223 -303h-231l-123 174l-123 -174h-231l223 303h262zM1903 1102l-402 -1102h-315l-238 727l-235 -727h-316l-403 1100l321 2l246 -789l238 789h309l242 -789l241 789h312z" />
    <glyph glyph-name="Ycircumflex" unicode="&#x176;" horiz-adv-x="1363" 
d="M682 1757l-123 -174h-231l223 303h262l223 -303h-231zM1370 1434l-522 -971v-463h-324v453l-530 981h325l367 -643l358 643h326z" />
    <glyph glyph-name="ycircumflex" unicode="&#x177;" horiz-adv-x="1155" 
d="M711 1552l223 -303h-232l-122 174l-123 -174h-232l224 303h262zM1169 1102l-483 -1225q-116 -289 -403 -289q-169 0 -299 107l133 227q71 -59 143 -59q100 0 146 98l30 62l-456 1079h325l289 -758l260 758h315z" />
    <glyph glyph-name="Ydieresis" unicode="&#x178;" horiz-adv-x="1363" 
d="M489 1604q-64 0 -105.5 42.5t-41.5 108.5q0 68 41.5 111t105.5 43q65 0 107.5 -43.5t42.5 -110.5q0 -66 -42.5 -108.5t-107.5 -42.5zM874 1604q-64 0 -105.5 42.5t-41.5 108.5q0 68 41.5 111t105.5 43q65 0 107.5 -43.5t42.5 -110.5q0 -66 -42.5 -108.5t-107.5 -42.5z
M1370 1434l-522 -971v-463h-324v453l-530 981h325l367 -643l358 643h326z" />
    <glyph glyph-name="Zacute" unicode="&#x179;" horiz-adv-x="1376" 
d="M768 1901l293 -111l-260 -223h-250zM1300 1434v-217l-800 -947h813l-2 -270h-1248v219l803 944h-776v271h1210z" />
    <glyph glyph-name="zacute" unicode="&#x17a;" horiz-adv-x="1122" 
d="M614 1567l293 -111l-260 -223h-250zM1038 1100v-199l-567 -653h586v-250l-979 2v199l567 653l-547 2v246h940z" />
    <glyph glyph-name="Zdotaccent" unicode="&#x17b;" horiz-adv-x="1376" 
d="M715 1925q75 0 122.5 -49.5t47.5 -126.5t-47.5 -126.5t-122.5 -49.5t-122.5 49.5t-47.5 126.5t47.5 126.5t122.5 49.5zM1300 1434v-217l-800 -947h813l-2 -270h-1248v219l803 944h-776v271h1210z" />
    <glyph glyph-name="zdotaccent" unicode="&#x17c;" horiz-adv-x="1122" 
d="M561 1591q75 0 122.5 -49.5t47.5 -126.5t-47.5 -126.5t-122.5 -49.5t-122.5 49.5t-47.5 126.5t47.5 126.5t122.5 49.5zM1038 1100v-199l-567 -653h586v-250l-979 2v199l567 653l-547 2v246h940z" />
    <glyph glyph-name="Zcaron" unicode="&#x17d;" horiz-adv-x="1376" 
d="M565 1559l-239 327h254l127 -188l127 188h253l-239 -327h-283zM1300 1434v-217l-800 -947h813l-2 -270h-1248v219l803 944h-776v271h1210z" />
    <glyph glyph-name="zcaron" unicode="&#x17e;" horiz-adv-x="1122" 
d="M412 1225l-240 327h254l127 -188l127 188h254l-240 -327h-282zM1038 1100v-199l-567 -653h586v-250l-979 2v199l567 653l-547 2v246h940z" />
    <glyph glyph-name="florin" unicode="&#x192;" horiz-adv-x="813" 
d="M725 1284q-66 1 -110.5 -39.5t-53.5 -109.5l-22 -183h262l-25 -211h-264l-96 -794q-20 -166 -129.5 -263t-280.5 -96q-64 2 -131 23.5t-111 54.5l82 228q52 -46 123 -50q60 -1 95.5 39t44.5 113l92 745h-146l25 211h145l29 230q20 164 135.5 261.5t288.5 96.5
q78 -1 156.5 -22.5t132.5 -55.5l-109 -227q-54 45 -133 49z" />
    <glyph glyph-name="Scommaaccent" unicode="&#x218;" horiz-adv-x="1304" 
d="M473 1055q0 -42 26 -74t70.5 -53t101.5 -39.5t120.5 -37t126.5 -40t120.5 -55t101.5 -76.5t69.5 -109t25.5 -149q0 -137 -75 -236t-200 -147.5t-286 -48.5q-174 0 -341.5 61t-291.5 166l129 264q109 -97 250.5 -156t257.5 -59q100 0 156.5 35.5t56.5 101.5q0 43 -26 75.5
t-70.5 53.5t-101.5 38.5t-120.5 35.5t-127 38.5t-120.5 53t-101.5 74.5t-70.5 106.5t-26 145.5q0 194 152 309t403 115q148 0 292 -42t253 -114l-125 -268q-113 67 -236.5 107t-210.5 40q-84 0 -133 -29.5t-49 -86.5zM682 -88q64 0 109 -43t45 -115q0 -67 -43 -129
l-138 -207h-153l86 207q-64 46 -64 127q0 69 45 114.5t113 45.5z" />
    <glyph glyph-name="scommaaccent" unicode="&#x219;" horiz-adv-x="1021" 
d="M383 803q0 -29 25 -52t66 -37t93 -30.5t106.5 -32t106.5 -43t93 -62t65.5 -89.5t24.5 -125q0 -109 -60.5 -188t-161 -117.5t-227.5 -38.5q-135 0 -259.5 39.5t-217.5 113.5l102 213q85 -65 187.5 -101t195.5 -36q63 0 101.5 21.5t38.5 64.5q0 31 -24.5 55t-65 38
t-91.5 30.5t-105 31.5t-105 42t-91.5 60t-65 88t-24.5 124q0 110 59 189t156 117t219 38q236 0 430 -123l-108 -215q-190 107 -336 107q-58 0 -92.5 -20.5t-34.5 -61.5zM522 -88q64 0 109 -43t45 -115q0 -67 -43 -129l-137 -207h-154l86 207q-63 45 -63 127q0 69 44.5 114.5
t112.5 45.5z" />
    <glyph glyph-name="uni021A" unicode="&#x21a;" horiz-adv-x="1230" 
d="M16 1434h1198v-275h-438v-1159h-323v1159h-437v275zM602 -88q64 0 109 -43t45 -115q0 -67 -43 -129l-138 -207h-153l86 207q-64 46 -64 127q0 69 45 114.5t113 45.5z" />
    <glyph glyph-name="uni021B" unicode="&#x21b;" horiz-adv-x="872" 
d="M547 -14q-154 0 -250 88t-96 252v510h-154v217h154v303h313v-303h299v-219l-299 2v-457q0 -67 27.5 -98t79.5 -29q60 0 147 41l66 -232q-131 -75 -287 -75zM535 -88q64 0 108.5 -43t44.5 -115q0 -67 -43 -129l-137 -207h-154l86 207q-63 45 -63 127q0 69 45 114.5
t113 45.5z" />
    <glyph glyph-name="uni0237" unicode="&#x237;" horiz-adv-x="608" 
d="M469 1102v-1145q0 -173 -99.5 -271t-273.5 -96q-161 3 -280 72l73 225q63 -38 138 -41q63 -1 96 39.5t33 118.5v1098h313z" />
    <glyph glyph-name="circumflex" unicode="&#x2c6;" horiz-adv-x="716" 
d="M489 1556l224 -303h-232l-123 174l-122 -174h-232l223 303h262z" />
    <glyph glyph-name="caron" unicode="&#x2c7;" horiz-adv-x="716" 
d="M217 1229l-240 327h254l127 -188l127 188h254l-239 -327h-283z" />
    <glyph glyph-name="uni02C9" unicode="&#x2c9;" horiz-adv-x="716" 
d="M637 1520v-222h-555v222h555z" />
    <glyph glyph-name="breve" unicode="&#x2d8;" horiz-adv-x="716" 
d="M678 1550q-6 -142 -94 -228.5t-226 -86.5t-225.5 86.5t-93.5 228.5h201q3 -55 35.5 -89t82.5 -34t83 34t36 89h201z" />
    <glyph glyph-name="dotaccent" unicode="&#x2d9;" horiz-adv-x="716" 
d="M358 1591q75 0 122.5 -49.5t47.5 -126.5t-47.5 -126.5t-122.5 -49.5t-122.5 49.5t-47.5 126.5t47.5 126.5t122.5 49.5z" />
    <glyph glyph-name="ring" unicode="&#x2da;" horiz-adv-x="716" 
d="M358 1661q101 0 173.5 -72t72.5 -172q0 -101 -72 -172t-174 -71q-101 0 -173 71t-72 172q0 100 72 172t173 72zM358 1528q-49 0 -82.5 -32.5t-33.5 -78.5q0 -47 33.5 -79.5t82.5 -32.5q50 0 84.5 32.5t34.5 79.5q0 46 -35 78.5t-84 32.5z" />
    <glyph glyph-name="ogonek" unicode="&#x2db;" horiz-adv-x="716" 
d="M444 33q-114 -153 -114 -230q0 -24 13.5 -37.5t35.5 -13.5q48 0 92 64l84 -99q-38 -64 -93.5 -97.5t-119.5 -33.5q-71 0 -122.5 40.5t-51.5 125.5q0 121 123 281h153z" />
    <glyph glyph-name="tilde" unicode="&#x2dc;" horiz-adv-x="716" 
d="M211 1583q40 0 79 -16t63 -35t51 -35t47 -16q67 0 67 90h195q0 -305 -205 -305q-42 0 -81 15.5t-62.5 34.5t-50 34.5t-46.5 15.5q-67 0 -67 -92h-195q0 309 205 309z" />
    <glyph glyph-name="hungarumlaut" unicode="&#x2dd;" horiz-adv-x="716" 
d="M133 1575l246 -96l-186 -246h-234zM510 1575l248 -96l-187 -246h-233z" />
    <glyph glyph-name="uni0326" unicode="&#x326;" horiz-adv-x="0" 
d="M-231 -88q64 0 108.5 -43t44.5 -115q0 -67 -43 -129l-137 -207h-154l86 209q-63 42 -63 125q0 69 45 114.5t113 45.5z" />
    <glyph glyph-name="uni0394" unicode="&#x394;" horiz-adv-x="1556" 
d="M950 1434l613 -1434h-346h-947h-276l622 1434h334zM428 246h690l-344 850z" />
    <glyph glyph-name="uni03A9" unicode="&#x3a9;" horiz-adv-x="1771" 
d="M885 1450q210 0 379 -87t264.5 -241t95.5 -346q0 -136 -70.5 -279t-179.5 -233h381v-264h-702v246q123 78 202.5 220t79.5 282q0 186 -127.5 306t-322.5 120q-194 0 -321.5 -120.5t-127.5 -305.5q0 -140 80.5 -282.5t204.5 -221.5v-244h-705v264h383q-109 88 -179 231.5
t-70 280.5q0 192 94.5 346t263 241t377.5 87z" />
    <glyph glyph-name="pi" unicode="&#x3c0;" horiz-adv-x="1490" 
d="M1468 870h-272v-870h-260v870h-221l-97 -870h-260l95 870h-78q-69 0 -114 -40t-44 -101q0 -70 47 -143l-217 -80q-34 62 -55 137.5t-21 140.5q-2 136 101.5 227t261.5 91h1132z" />
    <glyph glyph-name="Wgrave" unicode="&#x1e80;" horiz-adv-x="2183" 
d="M1004 1901l219 -334h-252l-260 225zM2200 1434l-476 -1434h-333l-289 1022l-295 -1022h-334l-473 1434h348l301 -1082l299 1082h318l303 -1082l299 1082h332z" />
    <glyph glyph-name="wgrave" unicode="&#x1e81;" horiz-adv-x="1890" 
d="M891 1567l219 -334h-252l-260 225zM1903 1102l-402 -1102h-315l-238 727l-235 -727h-316l-403 1100l321 2l246 -789l238 789h309l242 -789l241 789h312z" />
    <glyph glyph-name="Wacute" unicode="&#x1e82;" horiz-adv-x="2183" 
d="M1112 1901l293 -111l-260 -223h-250zM2200 1434l-476 -1434h-333l-289 1022l-295 -1022h-334l-473 1434h348l301 -1082l299 1082h318l303 -1082l299 1082h332z" />
    <glyph glyph-name="wacute" unicode="&#x1e83;" horiz-adv-x="1890" 
d="M999 1567l293 -111l-260 -223h-250zM1903 1102l-402 -1102h-315l-238 727l-235 -727h-316l-403 1100l321 2l246 -789l238 789h309l242 -789l241 789h312z" />
    <glyph glyph-name="Wdieresis" unicode="&#x1e84;" horiz-adv-x="2183" 
d="M866 1909q65 0 107.5 -43.5t42.5 -110.5q0 -66 -42.5 -108.5t-107.5 -42.5q-64 0 -105.5 42.5t-41.5 108.5q0 68 41.5 111t105.5 43zM1251 1909q65 0 107.5 -43.5t42.5 -110.5q0 -66 -42.5 -108.5t-107.5 -42.5q-64 0 -105.5 42.5t-41.5 108.5q0 68 41.5 111t105.5 43z
M2200 1434l-476 -1434h-333l-289 1022l-295 -1022h-334l-473 1434h348l301 -1082l299 1082h318l303 -1082l299 1082h332z" />
    <glyph glyph-name="wdieresis" unicode="&#x1e85;" horiz-adv-x="1890" 
d="M754 1575q65 0 107 -43.5t42 -110.5q0 -66 -42 -108.5t-107 -42.5t-106.5 42.5t-41.5 108.5q0 67 41.5 110.5t106.5 43.5zM1139 1575q65 0 107 -43.5t42 -110.5q0 -66 -42 -108.5t-107 -42.5t-106.5 42.5t-41.5 108.5q0 67 41.5 110.5t106.5 43.5zM1903 1102l-402 -1102
h-315l-238 727l-235 -727h-316l-403 1100l321 2l246 -789l238 789h309l242 -789l241 789h312z" />
    <glyph glyph-name="Ygrave" unicode="&#x1ef2;" horiz-adv-x="1363" 
d="M846 1567h-252l-260 225l293 109zM1370 1434l-522 -971v-463h-324v453l-530 981h325l367 -643l358 643h326z" />
    <glyph glyph-name="ygrave" unicode="&#x1ef3;" horiz-adv-x="1155" 
d="M524 1567l219 -334h-251l-261 225zM1169 1102l-483 -1225q-116 -289 -403 -289q-169 0 -299 107l133 227q71 -59 143 -59q100 0 146 98l30 62l-456 1079h325l289 -758l260 758h315z" />
    <glyph glyph-name="endash" unicode="&#x2013;" horiz-adv-x="833" 
d="M834 657v-208h-834v208h834z" />
    <glyph glyph-name="emdash" unicode="&#x2014;" horiz-adv-x="1355" 
d="M1356 657v-208h-1356v208h1356z" />
    <glyph glyph-name="quoteleft" unicode="&#x2018;" horiz-adv-x="475" 
d="M309 1233q62 -44 62 -125q0 -70 -44 -115t-112 -45q-64 0 -109 43t-45 115q0 67 43 129l138 207h153z" />
    <glyph glyph-name="quoteright" unicode="&#x2019;" horiz-adv-x="475" 
d="M242 1436q64 0 108.5 -43t44.5 -117q0 -68 -43 -127l-137 -207h-154l86 207q-63 45 -63 127q0 69 45 114.5t113 45.5z" />
    <glyph glyph-name="quotesinglbase" unicode="&#x201a;" horiz-adv-x="475" 
d="M242 305q64 0 108.5 -43t44.5 -117q0 -68 -43 -127l-137 -206h-154l86 206q-63 45 -63 127q0 70 45 115t113 45z" />
    <glyph glyph-name="quotedblleft" unicode="&#x201c;" horiz-adv-x="741" 
d="M242 1442h153l-86 -207q64 -46 64 -127q0 -70 -45 -115t-113 -45q-64 0 -109 43t-45 117q0 68 43 127zM664 1235q63 -45 63 -127q0 -70 -45 -115t-113 -45q-64 0 -108.5 43t-44.5 117q0 68 43 127l137 207h154z" />
    <glyph glyph-name="quotedblright" unicode="&#x201d;" horiz-adv-x="790" 
d="M242 1436q64 0 108.5 -43t44.5 -117q0 -68 -43 -127l-137 -207h-154l86 207q-63 45 -63 127q0 70 45 115t113 45zM596 1436q64 0 109 -43t45 -117q0 -68 -43 -127l-138 -207h-153l86 207q-64 46 -64 127q0 70 45 115t113 45z" />
    <glyph glyph-name="quotedblbase" unicode="&#x201e;" horiz-adv-x="829" 
d="M596 305q64 0 109 -43t45 -117q0 -68 -43 -127l-138 -206h-153l86 206q-64 46 -64 127q0 70 45 115t113 45zM242 305q64 0 108.5 -43t44.5 -117q0 -68 -43 -127l-137 -206h-154l86 206q-63 45 -63 127q0 70 45 115t113 45z" />
    <glyph glyph-name="dagger" unicode="&#x2020;" horiz-adv-x="1148" 
d="M723 1432v-424h393v-269h-393v-1124h-305v1124h-383v269h383v424h305z" />
    <glyph glyph-name="daggerdbl" unicode="&#x2021;" horiz-adv-x="1148" 
d="M1116 739h-393v-401h393v-268h-393v-455h-305v455h-383v268h383v401h-383v269h383v424h305v-424h393v-269z" />
    <glyph glyph-name="bullet" unicode="&#x2022;" horiz-adv-x="638" 
d="M317 803q104 0 171 -68t67 -174q0 -107 -67 -176.5t-171 -69.5q-103 0 -169 69.5t-66 176.5q0 106 66 174t169 68z" />
    <glyph glyph-name="ellipsis" unicode="&#x2026;" horiz-adv-x="1343" 
d="M236 299q66 0 109.5 -44.5t43.5 -113.5t-43.5 -113t-109.5 -44t-110 44t-44 113t44 113.5t110 44.5zM672 299q66 0 109.5 -44.5t43.5 -113.5t-43.5 -113t-109.5 -44t-110 44t-44 113t44 113.5t110 44.5zM1108 299q66 0 109 -44.5t43 -113.5t-43 -113t-109 -44
q-68 0 -111 44t-43 113t43.5 113.5t110.5 44.5z" />
    <glyph glyph-name="perthousand" unicode="&#x2030;" horiz-adv-x="2985" 
d="M461 1440q183 0 288 -115t105 -315q0 -201 -105 -318t-288 -117q-181 0 -286 117t-105 318q0 200 105 315t286 115zM657 0h-299l1037 1434h295zM461 1264q-89 0 -139 -67.5t-50 -186.5q0 -121 50 -188.5t139 -67.5q91 0 140.5 67t49.5 189q0 119 -50 186.5t-140 67.5z
M1599 858q183 0 288.5 -116t105.5 -316q0 -201 -105.5 -316.5t-288.5 -115.5q-182 0 -286.5 115.5t-104.5 316.5q0 200 105 316t286 116zM2523 858q183 0 288 -116t105 -316q0 -201 -105 -316.5t-288 -115.5q-182 0 -286.5 115.5t-104.5 316.5q0 200 105 316t286 116z
M1599 682q-89 0 -138.5 -68t-49.5 -188t49.5 -188t138.5 -68q90 0 140.5 68t50.5 188t-50.5 188t-140.5 68zM2523 682q-89 0 -138.5 -68t-49.5 -188t49.5 -188t138.5 -68q90 0 140.5 68t50.5 188t-50.5 188t-140.5 68z" />
    <glyph glyph-name="guilsinglleft" unicode="&#x2039;" horiz-adv-x="571" 
d="M520 913l-219 -370l219 -373h-258l-244 373l244 370h258z" />
    <glyph glyph-name="guilsinglright" unicode="&#x203a;" horiz-adv-x="587" 
d="M98 170l219 373l-219 370h258l244 -370l-244 -373h-258z" />
    <glyph glyph-name="fraction" unicode="&#x2044;" horiz-adv-x="215" 
d="M-266 0h-299l1036 1434h295z" />
    <glyph glyph-name="Euro" unicode="&#x20ac;" horiz-adv-x="1605" 
d="M1382 449l189 -207q-114 -118 -268.5 -187t-311.5 -69q-256 0 -450 138.5t-265 364.5h-213v152h183q-4 27 -4 78q0 30 4 88h-183v151h218q76 219 272 352.5t453 133.5q156 0 307.5 -64t257.5 -174l-189 -229q-74 86 -174 136t-200 50q-117 0 -215 -55t-156 -150h473v-151
h-530q-9 -61 -9 -84q0 -21 9 -82h530v-152h-473q58 -97 155.5 -152.5t215.5 -55.5q96 0 195.5 45.5t178.5 122.5z" />
    <glyph glyph-name="uni2113" unicode="&#x2113;" horiz-adv-x="964" 
d="M662 1450q111 0 175 -71.5t64 -200.5q0 -86 -31.5 -174.5t-77.5 -160t-116 -149t-128 -130t-134 -115.5q-20 -123 8.5 -181.5t105.5 -58.5q71 0 131.5 44.5t124.5 121.5l99 -119q-172 -266 -424 -266q-270 0 -283 315l-98 -63l-49 137l170 121l82 501q40 225 141.5 337
t239.5 112zM653 1276q-46 0 -83.5 -59t-59.5 -187l-57 -340q114 106 192 237t78 247q0 47 -19 74.5t-51 27.5z" />
    <glyph glyph-name="trademark" unicode="&#x2122;" horiz-adv-x="1839" 
d="M686 1434v-191h-237v-670h-230v670h-233v191h700zM1749 1434v-861h-207v529l-199 -443h-155l-197 443v-529h-209v861h256l228 -490l227 490h256z" />
    <glyph glyph-name="estimated" unicode="&#x212e;" horiz-adv-x="1656" 
d="M403 639q-10 0 -10 -8v-336q0 -18 17 -39q79 -86 188.5 -134t232.5 -48q130 0 246 54t195 148h100q-94 -109 -238 -174t-305 -65q-186 0 -344 82.5t-250 224.5t-92 309q0 168 92 310.5t250 225.5t344 83t344.5 -83t250.5 -225.5t92 -310.5v-14h-1113zM1266 1020
q0 22 -19 41q-81 81 -189 127.5t-227 46.5q-122 0 -230 -47.5t-189 -132.5q-19 -19 -19 -41v-332q0 -10 10 -10h852q11 0 11 10v338z" />
    <glyph glyph-name="oneeighth" unicode="&#x215b;" horiz-adv-x="1792" 
d="M412 582h-222v673h-165v179h387v-852zM424 0h-299l1036 1434h295zM1368 860q147 0 233.5 -62t86.5 -167q0 -53 -30.5 -99.5t-82.5 -76.5q72 -28 115 -85.5t43 -127.5q0 -117 -98.5 -184.5t-264.5 -67.5q-167 0 -265.5 67t-98.5 181q0 72 46 130.5t124 86.5
q-58 31 -91.5 80t-33.5 104q0 101 86 161t231 60zM1370 715q-63 0 -97 -25.5t-34 -71.5q0 -44 34 -68t97 -24q62 0 95.5 24t33.5 68q0 46 -34 71.5t-95 25.5zM1368 367q-72 0 -110.5 -28t-38.5 -79q0 -106 151 -106q73 0 112.5 27t39.5 79q0 51 -39.5 79t-114.5 28z" />
    <glyph glyph-name="threeeighths" unicode="&#x215c;" horiz-adv-x="1914" 
d="M549 0h-299l1036 1434h295zM463 1081q100 -14 160.5 -74.5t60.5 -156.5q0 -124 -93 -201.5t-247 -77.5q-91 0 -180 28.5t-150 76.5l90 170q101 -107 222 -107q67 0 103 29t36 80q0 102 -139 102h-142v119l205 199h-332v164h586v-127l-223 -215zM1491 860q147 0 233 -61.5
t86 -167.5q0 -53 -30 -99.5t-82 -76.5q72 -28 114.5 -85.5t42.5 -127.5q0 -117 -98 -184.5t-264 -67.5q-167 0 -266 67t-99 181q0 72 46 130.5t124 86.5q-57 31 -90.5 80t-33.5 104q0 101 86 161t231 60zM1493 715q-63 0 -97 -25.5t-34 -71.5q0 -44 34 -68t97 -24
q62 0 95.5 24t33.5 68q0 46 -34 71.5t-95 25.5zM1491 367q-72 0 -111 -28t-39 -79q0 -106 152 -106q73 0 112.5 27t39.5 79q0 51 -39.5 79t-114.5 28z" />
    <glyph glyph-name="fiveeighths" unicode="&#x215d;" horiz-adv-x="1947" 
d="M690 1262h-377v-150q30 6 80 6q154 0 245 -67.5t91 -182.5q0 -134 -96 -214.5t-256 -80.5q-87 0 -179.5 28.5t-162.5 76.5l88 172q105 -111 227 -111q66 0 102.5 30t36.5 85q0 47 -36.5 73.5t-102.5 26.5q-172 0 -241 -10v490h581v-172zM580 0h-299l1036 1434h295z
M1524 860q147 0 233 -61.5t86 -167.5q0 -53 -30 -99.5t-82 -76.5q72 -28 114.5 -85.5t42.5 -127.5q0 -117 -98 -184.5t-264 -67.5q-167 0 -266 67t-99 181q0 72 46 130.5t124 86.5q-58 31 -91.5 80t-33.5 104q0 101 86.5 161t231.5 60zM1526 715q-63 0 -97 -25.5t-34 -71.5
q0 -44 34 -68t97 -24q62 0 95.5 24t33.5 68q0 46 -34 71.5t-95 25.5zM1524 367q-72 0 -111 -28t-39 -79q0 -106 152 -106q73 0 112 27t39 79q0 51 -39.5 79t-113.5 28z" />
    <glyph glyph-name="seveneighths" unicode="&#x215e;" horiz-adv-x="1886" 
d="M750 1280l-330 -698h-238l322 680h-250v-123h-197v295h693v-154zM520 0h-299l1036 1434h295zM1462 860q147 0 233.5 -62t86.5 -167q0 -53 -30.5 -99.5t-82.5 -76.5q72 -28 115 -85.5t43 -127.5q0 -117 -98.5 -184.5t-264.5 -67.5q-167 0 -265.5 67t-98.5 181
q0 72 46 130.5t124 86.5q-58 31 -91.5 80t-33.5 104q0 101 86 161t231 60zM1464 715q-63 0 -97 -25.5t-34 -71.5q0 -44 34 -68t97 -24q62 0 95.5 24t33.5 68q0 46 -34 71.5t-95 25.5zM1462 367q-72 0 -110.5 -28t-38.5 -79q0 -106 151 -106q73 0 112.5 27t39.5 79
q0 51 -39.5 79t-114.5 28z" />
    <glyph glyph-name="partialdiff" unicode="&#x2202;" horiz-adv-x="1284" 
d="M559 1448q290 0 462.5 -202t172.5 -537q0 -337 -161.5 -530t-444.5 -193q-239 0 -383 132t-144 357q0 211 128.5 337t342.5 126q129 0 219.5 -52.5t131.5 -142.5q12 212 -77.5 327.5t-264.5 115.5q-187 0 -322 -111l-125 238q96 62 221 98.5t244 36.5zM594 692
q-109 0 -170.5 -56t-61.5 -157q0 -106 64 -164.5t176 -58.5q117 0 179.5 63t62.5 152q0 98 -66.5 159.5t-183.5 61.5z" />
    <glyph glyph-name="product" unicode="&#x220f;" horiz-adv-x="1523" 
d="M1366 1520v-1917h-315v1659h-578v-1659h-315v1917h1208z" />
    <glyph glyph-name="summation" unicode="&#x2211;" horiz-adv-x="1259" 
d="M1229 1524v-283h-776l512 -618l-514 -623h798v-283h-1190v236l562 668l-543 661v242h1151z" />
    <glyph glyph-name="minus" unicode="&#x2212;" horiz-adv-x="1036" 
d="M969 772v-209h-901v209h901z" />
    <glyph glyph-name="uni2215" unicode="&#x2215;" horiz-adv-x="708" 
d="M860 1663l-659 -1892h-264l657 1892h266z" />
    <glyph glyph-name="uni2219" unicode="&#x2219;" horiz-adv-x="638" 
d="M317 803q104 0 171 -68t67 -174q0 -107 -67 -176.5t-171 -69.5q-103 0 -169 69.5t-66 176.5q0 106 66 174t169 68z" />
    <glyph glyph-name="radical" unicode="&#x221a;" horiz-adv-x="1437" 
d="M10 831h473l242 -823l426 1522h301l-559 -1849h-336l-291 892h-256v258z" />
    <glyph glyph-name="infinity" unicode="&#x221e;" horiz-adv-x="1763" 
d="M1296 1047q177 0 293.5 -123.5t116.5 -309.5q0 -187 -116.5 -309.5t-293.5 -122.5q-77 0 -140.5 20t-113 58.5t-85 80t-72.5 99.5q-37 -58 -73 -99.5t-86.5 -80.5t-115.5 -59.5t-143 -20.5q-177 0 -293.5 123t-116.5 309q0 188 116.5 311.5t293.5 123.5q76 0 139.5 -20.5
t113 -60t85.5 -81t74 -99.5q37 59 72.5 100.5t85.5 81t115 59.5t144 20zM1296 403q85 0 141 60t56 151t-56 150t-141 59q-105 0 -175 -55t-134 -158q32 -48 60 -81.5t65.5 -64t83.5 -46t100 -15.5zM467 403q103 0 172.5 55t134.5 158q-64 99 -134.5 153t-172.5 54
q-85 0 -140 -60t-55 -151t55 -150t140 -59z" />
    <glyph glyph-name="integral" unicode="&#x222b;" horiz-adv-x="765" 
d="M754 1485q-59 22 -111 22q-88 0 -124 -51.5t-36 -175.5q0 -100 24.5 -526.5t24.5 -542.5q0 -264 -82.5 -377t-277.5 -113q-122 0 -205 52l39 211q75 -37 127 -37q91 0 129.5 55.5t38.5 185.5q0 115 -26.5 537.5t-26.5 525.5q0 264 82 376t276 112q81 0 180 -45z" />
    <glyph glyph-name="approxequal" unicode="&#x2248;" horiz-adv-x="1036" 
d="M342 1073q46 0 92 -16.5t77 -36.5t65 -36.5t57 -16.5q69 0 69 96h213q0 -334 -219 -334q-61 0 -117.5 27.5t-100 54.5t-72.5 27q-70 0 -70 -97h-213q0 332 219 332zM342 606q46 0 92 -16.5t77 -36.5t65 -36.5t57 -16.5q69 0 69 96h213q0 -332 -219 -332q-61 0 -117.5 27
t-100 53.5t-72.5 26.5q-70 0 -70 -97h-213q0 332 219 332z" />
    <glyph glyph-name="notequal" unicode="&#x2260;" horiz-adv-x="1036" 
d="M969 782h-305l-72 -229h377v-209h-443l-94 -295h-237l94 295h-221v209h286l72 229h-358v209h424l90 285h237l-90 -285h240v-209z" />
    <glyph glyph-name="lessequal" unicode="&#x2264;" horiz-adv-x="1036" 
d="M969 1309v-226l-695 -270l695 -270v-226l-901 367v258zM969 223v-209h-901v209h901z" />
    <glyph glyph-name="greaterequal" unicode="&#x2265;" horiz-adv-x="1036" 
d="M68 330v227l694 268l-694 273v225l899 -369v-256zM969 223v-209h-901v209h901z" />
    <glyph glyph-name="lozenge" unicode="&#x25ca;" horiz-adv-x="1058" 
d="M530 1376l471 -700l-475 -707l-469 707zM528 1008l-227 -332l227 -334l230 334z" />
    <glyph glyph-name="A.ss01" horiz-adv-x="1564" 
d="M778 1448q302 0 479 -167t177 -450v-831h-324v354h-655v-354h-324v831q0 283 175 450t472 167zM782 1165q-152 0 -239.5 -90t-87.5 -244v-215h655v215q-2 154 -89 244t-239 90z" />
    <glyph glyph-name="Aacute.ss01" horiz-adv-x="1564" 
d="M836 1901l292 -111l-260 -223h-250zM778 1448q302 0 479 -167t177 -450v-831h-324v354h-655v-354h-324v831q0 283 175 450t472 167zM782 1165q-152 0 -239.5 -90t-87.5 -244v-215h655v215q-2 154 -89 244t-239 90z" />
    <glyph glyph-name="Abreve.ss01" horiz-adv-x="1564" 
d="M1102 1882q-6 -142 -94 -228.5t-226 -86.5t-225.5 86.5t-93.5 228.5h201q3 -55 35.5 -89t82.5 -34t83 34t36 89h201zM778 1448q302 0 479 -167t177 -450v-831h-324v354h-655v-354h-324v831q0 283 175 450t472 167zM782 1165q-152 0 -239.5 -90t-87.5 -244v-215h655v215
q-2 154 -89 244t-239 90z" />
    <glyph glyph-name="Acircumflex.ss01" horiz-adv-x="1564" 
d="M913 1886l224 -303h-232l-123 174l-123 -174h-231l223 303h262zM778 1448q302 0 479 -167t177 -450v-831h-324v354h-655v-354h-324v831q0 283 175 450t472 167zM782 1165q-152 0 -239.5 -90t-87.5 -244v-215h655v215q-2 154 -89 244t-239 90z" />
    <glyph glyph-name="Adieresis.ss01" horiz-adv-x="1564" 
d="M590 1909q65 0 107 -43.5t42 -110.5q0 -66 -42 -108.5t-107 -42.5t-106.5 42.5t-41.5 108.5q0 67 41.5 110.5t106.5 43.5zM975 1909q65 0 107 -43.5t42 -110.5q0 -66 -42 -108.5t-107 -42.5t-106.5 42.5t-41.5 108.5q0 67 41.5 110.5t106.5 43.5zM778 1448
q302 0 479 -167t177 -450v-831h-324v354h-655v-354h-324v831q0 283 175 450t472 167zM782 1165q-152 0 -239.5 -90t-87.5 -244v-215h655v215q-2 154 -89 244t-239 90z" />
    <glyph glyph-name="Agrave.ss01" horiz-adv-x="1564" 
d="M727 1901l219 -334h-252l-260 225zM778 1448q302 0 479 -167t177 -450v-831h-324v354h-655v-354h-324v831q0 283 175 450t472 167zM782 1165q-152 0 -239.5 -90t-87.5 -244v-215h655v215q-2 154 -89 244t-239 90z" />
    <glyph glyph-name="Amacron.ss01" horiz-adv-x="1564" 
d="M1061 1853v-221h-555v221h555zM778 1448q302 0 479 -167t177 -450v-831h-324v354h-655v-354h-324v831q0 283 175 450t472 167zM782 1165q-152 0 -239.5 -90t-87.5 -244v-215h655v215q-2 154 -89 244t-239 90z" />
    <glyph glyph-name="Aogonek.ss01" horiz-adv-x="1574" 
d="M778 1448q302 0 479 -167t177 -450v-831h-78q-92 -130 -92 -197q0 -24 13.5 -37.5t35.5 -13.5q44 0 92 64l84 -99q-38 -64 -93.5 -97.5t-119.5 -33.5q-71 0 -122.5 40.5t-51.5 125.5q0 104 100 248h-92v354h-655v-354h-324v831q0 283 175 450t472 167zM782 1165
q-152 0 -239.5 -90t-87.5 -244v-215h655v215q-2 154 -89 244t-239 90z" />
    <glyph glyph-name="Aring.ss01" horiz-adv-x="1564" 
d="M782 1995q101 0 173.5 -72t72.5 -172q0 -101 -72.5 -172.5t-173.5 -71.5t-173 71.5t-72 172.5q0 100 72 172t173 72zM782 1862q-49 0 -82.5 -32.5t-33.5 -78.5q0 -47 33.5 -80t82.5 -33q50 0 84.5 33t34.5 80q0 46 -35 78.5t-84 32.5zM778 1448q302 0 479 -167t177 -450
v-831h-324v354h-655v-354h-324v831q0 283 175 450t472 167zM782 1165q-152 0 -239.5 -90t-87.5 -244v-215h655v215q-2 154 -89 244t-239 90z" />
    <glyph glyph-name="Atilde.ss01" horiz-adv-x="1564" 
d="M635 1917q51 0 97.5 -25.5t82 -51t59.5 -25.5q68 0 68 90h195q0 -306 -205 -306q-54 0 -100.5 25.5t-80.5 50.5t-59 25q-67 0 -67 -92h-195q0 309 205 309zM778 1448q302 0 479 -167t177 -450v-831h-324v354h-655v-354h-324v831q0 283 175 450t472 167zM782 1165
q-152 0 -239.5 -90t-87.5 -244v-215h655v215q-2 154 -89 244t-239 90z" />
    <glyph glyph-name="E.ss01" horiz-adv-x="1230" 
d="M686 1448q121 0 250.5 -28t210.5 -72l-105 -246q-160 72 -327 72q-114 0 -186 -39.5t-72 -112.5q0 -66 56.5 -110t145.5 -44h322v-262h-322q-108 0 -178.5 -48t-70.5 -122q0 -80 78 -127t198 -47q97 0 210.5 34t180.5 75l123 -246q-97 -61 -247 -100t-300 -39
q-254 0 -415.5 112.5t-161.5 292.5q0 126 82 227.5t217 139.5q-100 34 -161.5 120.5t-61.5 194.5q0 167 148 271t386 104z" />
    <glyph glyph-name="Eacute.ss01" horiz-adv-x="1230" 
d="M670 1901l293 -111l-261 -223h-249zM686 1448q121 0 250.5 -28t210.5 -72l-105 -246q-160 72 -327 72q-114 0 -186 -39.5t-72 -112.5q0 -66 56.5 -110t145.5 -44h322v-262h-322q-108 0 -178.5 -48t-70.5 -122q0 -80 78 -127t198 -47q97 0 210.5 34t180.5 75l123 -246
q-97 -61 -247 -100t-300 -39q-254 0 -415.5 112.5t-161.5 292.5q0 126 82 227.5t217 139.5q-100 34 -161.5 120.5t-61.5 194.5q0 167 148 271t386 104z" />
    <glyph glyph-name="Ebreve.ss01" horiz-adv-x="1230" 
d="M936 1882q-6 -142 -94 -228.5t-226 -86.5t-225.5 86.5t-93.5 228.5h201q3 -55 35.5 -89t82.5 -34t83 34t36 89h201zM686 1448q121 0 250.5 -28t210.5 -72l-105 -246q-160 72 -327 72q-114 0 -186 -39.5t-72 -112.5q0 -66 56.5 -110t145.5 -44h322v-262h-322
q-108 0 -178.5 -48t-70.5 -122q0 -80 78 -127t198 -47q97 0 210.5 34t180.5 75l123 -246q-97 -61 -247 -100t-300 -39q-254 0 -415.5 112.5t-161.5 292.5q0 126 82 227.5t217 139.5q-100 34 -161.5 120.5t-61.5 194.5q0 167 148 271t386 104z" />
    <glyph glyph-name="Ecaron.ss01" horiz-adv-x="1230" 
d="M467 1559l-240 327h254l127 -188l127 188h254l-239 -327h-283zM686 1448q121 0 250.5 -28t210.5 -72l-105 -246q-160 72 -327 72q-114 0 -186 -39.5t-72 -112.5q0 -66 56.5 -110t145.5 -44h322v-262h-322q-108 0 -178.5 -48t-70.5 -122q0 -80 78 -127t198 -47
q97 0 210.5 34t180.5 75l123 -246q-97 -61 -247 -100t-300 -39q-254 0 -415.5 112.5t-161.5 292.5q0 126 82 227.5t217 139.5q-100 34 -161.5 120.5t-61.5 194.5q0 167 148 271t386 104z" />
    <glyph glyph-name="Ecircumflex.ss01" horiz-adv-x="1230" 
d="M748 1886l223 -303h-232l-123 174l-122 -174h-232l223 303h263zM686 1448q121 0 250.5 -28t210.5 -72l-105 -246q-160 72 -327 72q-114 0 -186 -39.5t-72 -112.5q0 -66 56.5 -110t145.5 -44h322v-262h-322q-108 0 -178.5 -48t-70.5 -122q0 -80 78 -127t198 -47
q97 0 210.5 34t180.5 75l123 -246q-97 -61 -247 -100t-300 -39q-254 0 -415.5 112.5t-161.5 292.5q0 126 82 227.5t217 139.5q-100 34 -161.5 120.5t-61.5 194.5q0 167 148 271t386 104z" />
    <glyph glyph-name="Edieresis.ss01" horiz-adv-x="1230" 
d="M424 1909q65 0 107 -43.5t42 -110.5q0 -66 -42 -108.5t-107 -42.5t-106.5 42.5t-41.5 108.5q0 67 41.5 110.5t106.5 43.5zM809 1909q65 0 107 -43.5t42 -110.5q0 -66 -42 -108.5t-107 -42.5q-64 0 -105.5 42.5t-41.5 108.5q0 68 41.5 111t105.5 43zM686 1448
q121 0 250.5 -28t210.5 -72l-105 -246q-160 72 -327 72q-114 0 -186 -39.5t-72 -112.5q0 -66 56.5 -110t145.5 -44h322v-262h-322q-108 0 -178.5 -48t-70.5 -122q0 -80 78 -127t198 -47q97 0 210.5 34t180.5 75l123 -246q-97 -61 -247 -100t-300 -39q-254 0 -415.5 112.5
t-161.5 292.5q0 126 82 227.5t217 139.5q-100 34 -161.5 120.5t-61.5 194.5q0 167 148 271t386 104z" />
    <glyph glyph-name="Edotaccent.ss01" horiz-adv-x="1230" 
d="M616 1925q75 0 122.5 -49.5t47.5 -126.5t-47.5 -126.5t-122.5 -49.5t-122.5 49.5t-47.5 126.5t47.5 126.5t122.5 49.5zM686 1448q121 0 250.5 -28t210.5 -72l-105 -246q-160 72 -327 72q-114 0 -186 -39.5t-72 -112.5q0 -66 56.5 -110t145.5 -44h322v-262h-322
q-108 0 -178.5 -48t-70.5 -122q0 -80 78 -127t198 -47q97 0 210.5 34t180.5 75l123 -246q-97 -61 -247 -100t-300 -39q-254 0 -415.5 112.5t-161.5 292.5q0 126 82 227.5t217 139.5q-100 34 -161.5 120.5t-61.5 194.5q0 167 148 271t386 104z" />
    <glyph glyph-name="Egrave.ss01" horiz-adv-x="1230" 
d="M561 1901l219 -334h-252l-260 225zM686 1448q121 0 250.5 -28t210.5 -72l-105 -246q-160 72 -327 72q-114 0 -186 -39.5t-72 -112.5q0 -66 56.5 -110t145.5 -44h322v-262h-322q-108 0 -178.5 -48t-70.5 -122q0 -80 78 -127t198 -47q97 0 210.5 34t180.5 75l123 -246
q-97 -61 -247 -100t-300 -39q-254 0 -415.5 112.5t-161.5 292.5q0 126 82 227.5t217 139.5q-100 34 -161.5 120.5t-61.5 194.5q0 167 148 271t386 104z" />
    <glyph glyph-name="Emacron.ss01" horiz-adv-x="1230" 
d="M895 1853v-221h-555v221h555zM686 1448q121 0 250.5 -28t210.5 -72l-105 -246q-160 72 -327 72q-114 0 -186 -39.5t-72 -112.5q0 -66 56.5 -110t145.5 -44h322v-262h-322q-108 0 -178.5 -48t-70.5 -122q0 -80 78 -127t198 -47q97 0 210.5 34t180.5 75l123 -246
q-97 -61 -247 -100t-300 -39q-254 0 -415.5 112.5t-161.5 292.5q0 126 82 227.5t217 139.5q-100 34 -161.5 120.5t-61.5 194.5q0 167 148 271t386 104z" />
    <glyph glyph-name="Eogonek.ss01" horiz-adv-x="1230" 
d="M932 -248q48 0 92 64l84 -99q-38 -64 -93.5 -97.5t-119.5 -33.5q-71 0 -122.5 40.5t-51.5 125.5q0 106 98 246q-83 -12 -166 -12q-254 0 -415.5 112.5t-161.5 292.5q0 126 82 227.5t217 139.5q-100 34 -161.5 120.5t-61.5 194.5q0 167 148 271t386 104q121 0 250.5 -28
t210.5 -72l-105 -246q-160 72 -327 72q-114 0 -186 -39.5t-72 -112.5q0 -66 56.5 -110t145.5 -44h322v-262h-322q-108 0 -178.5 -48t-70.5 -122q0 -80 78 -127t198 -47q97 0 210.5 34t180.5 75l123 -246q-68 -44 -196 -86q-121 -157 -121 -236q0 -24 13.5 -37.5t35.5 -13.5z
" />
    <glyph glyph-name="F.ss01" horiz-adv-x="1124" 
d="M672 1165q-97 0 -156 -57.5t-59 -153.5v-161h544v-269h-544v-524h-326v961q0 223 139.5 355t372.5 132q131 0 261 -25t222 -67l-75 -279q-90 38 -193.5 63t-185.5 25z" />
    <glyph glyph-name="G.ss01" horiz-adv-x="1527" 
d="M1120 406v333h281v-739h-240v119q-180 -133 -377 -133q-204 0 -371 95.5t-262.5 263t-95.5 372.5q0 153 60 288t163.5 231t248 152t307.5 56q159 0 314.5 -56.5t266.5 -152.5l-184 -231q-80 74 -184.5 116.5t-208.5 42.5q-191 0 -321 -128.5t-130 -317.5q0 -191 125 -320
t309 -129q85 0 164 37t135 101z" />
    <glyph glyph-name="Gbreve.ss01" horiz-adv-x="1527" 
d="M768 1567q-138 0 -225.5 86.5t-93.5 228.5h200q3 -55 36 -89t83 -34t83 34t36 89h200q-6 -142 -93.5 -228.5t-225.5 -86.5zM1120 406v333h281v-739h-240v119q-180 -133 -377 -133q-204 0 -371 95.5t-262.5 263t-95.5 372.5q0 153 60 288t163.5 231t248 152t307.5 56
q159 0 314.5 -56.5t266.5 -152.5l-184 -231q-80 74 -184.5 116.5t-208.5 42.5q-191 0 -321 -128.5t-130 -317.5q0 -191 125 -320t309 -129q85 0 164 37t135 101z" />
    <glyph glyph-name="Gcircumflex.ss01" horiz-adv-x="1527" 
d="M768 1757l-123 -174h-231l223 303h262l223 -303h-231zM1120 406v333h281v-739h-240v119q-180 -133 -377 -133q-204 0 -371 95.5t-262.5 263t-95.5 372.5q0 153 60 288t163.5 231t248 152t307.5 56q159 0 314.5 -56.5t266.5 -152.5l-184 -231q-80 74 -184.5 116.5
t-208.5 42.5q-191 0 -321 -128.5t-130 -317.5q0 -191 125 -320t309 -129q85 0 164 37t135 101z" />
    <glyph glyph-name="Gcommaaccent.ss01" horiz-adv-x="1527" 
d="M1120 406v333h281v-739h-240v119q-180 -133 -377 -133q-204 0 -371 95.5t-262.5 263t-95.5 372.5q0 153 60 288t163.5 231t248 152t307.5 56q159 0 314.5 -56.5t266.5 -152.5l-184 -231q-80 74 -184.5 116.5t-208.5 42.5q-191 0 -321 -128.5t-130 -317.5q0 -191 125 -320
t309 -129q85 0 164 37t135 101zM780 -88q64 0 109 -43t45 -115q0 -67 -43 -129l-137 -207h-154l86 207q-63 45 -63 127q0 69 44.5 114.5t112.5 45.5z" />
    <glyph glyph-name="Gdotaccent.ss01" horiz-adv-x="1527" 
d="M768 1573q-75 0 -122.5 49.5t-47.5 126.5t47.5 126.5t122.5 49.5t122.5 -49.5t47.5 -126.5t-47.5 -126.5t-122.5 -49.5zM1120 406v333h281v-739h-240v119q-180 -133 -377 -133q-204 0 -371 95.5t-262.5 263t-95.5 372.5q0 153 60 288t163.5 231t248 152t307.5 56
q159 0 314.5 -56.5t266.5 -152.5l-184 -231q-80 74 -184.5 116.5t-208.5 42.5q-191 0 -321 -128.5t-130 -317.5q0 -191 125 -320t309 -129q85 0 164 37t135 101z" />
    <glyph glyph-name="I.ss01" horiz-adv-x="1019" 
d="M924 1165h-252v-895h252v-270h-576h-252v270h252v895h-252v269h576h252v-269z" />
    <glyph glyph-name="IJ.ss01" horiz-adv-x="2093" 
d="M924 1434v-269h-252v-895h252v-270h-576h-252v270h252v895h-252v269h828zM1143 1434h819v-1180q0 -224 -128.5 -348.5t-352.5 -124.5q-278 0 -469 223l149 229q73 -77 153.5 -118t149.5 -41q81 0 126.5 48.5t45.5 139.5v897h-493v275z" />
    <glyph glyph-name="Iacute.ss01" horiz-adv-x="1019" 
d="M856 1790l-260 -223h-250l217 334zM924 1165h-252v-895h252v-270h-576h-252v270h252v895h-252v269h576h252v-269z" />
    <glyph glyph-name="Ibreve.ss01" horiz-adv-x="1019" 
d="M510 1567q-138 0 -226 86.5t-94 228.5h201q3 -55 36 -89t83 -34t83 34t36 89h200q-6 -142 -93.5 -228.5t-225.5 -86.5zM924 1165h-252v-895h252v-270h-576h-252v270h252v895h-252v269h576h252v-269z" />
    <glyph glyph-name="Icircumflex.ss01" horiz-adv-x="1019" 
d="M510 1757l-123 -174h-231l223 303h262l223 -303h-231zM924 1165h-252v-895h252v-270h-576h-252v270h252v895h-252v269h576h252v-269z" />
    <glyph glyph-name="Idieresis.ss01" horiz-adv-x="1019" 
d="M317 1604q-64 0 -105.5 42.5t-41.5 108.5q0 68 41.5 111t105.5 43q65 0 107.5 -43.5t42.5 -110.5q0 -66 -42.5 -108.5t-107.5 -42.5zM702 1604q-64 0 -105.5 42.5t-41.5 108.5q0 68 41.5 111t105.5 43q65 0 107.5 -43.5t42.5 -110.5q0 -66 -42.5 -108.5t-107.5 -42.5z
M924 1165h-252v-895h252v-270h-576h-252v270h252v895h-252v269h576h252v-269z" />
    <glyph glyph-name="Idotaccent.ss01" horiz-adv-x="1019" 
d="M510 1573q-75 0 -122.5 49.5t-47.5 126.5t47.5 126.5t122.5 49.5t122.5 -49.5t47.5 -126.5t-47.5 -126.5t-122.5 -49.5zM924 1165h-252v-895h252v-270h-576h-252v270h252v895h-252v269h576h252v-269z" />
    <glyph glyph-name="Igrave.ss01" horiz-adv-x="1019" 
d="M674 1567h-252l-260 225l293 109zM924 1165h-252v-895h252v-270h-576h-252v270h252v895h-252v269h576h252v-269z" />
    <glyph glyph-name="Imacron.ss01" horiz-adv-x="1019" 
d="M788 1853v-221h-555v221h555zM924 1165h-252v-895h252v-270h-576h-252v270h252v895h-252v269h576h252v-269z" />
    <glyph glyph-name="Iogonek.ss01" horiz-adv-x="1019" 
d="M924 1165h-252v-895h252v-270h-142q-90 -131 -90 -197q0 -24 13.5 -37.5t35.5 -13.5q49 0 93 64l84 -99q-38 -64 -93.5 -97.5t-119.5 -33.5q-71 0 -123 40.5t-52 125.5q0 107 99 248h-533v270h252v895h-252v269h576h252v-269z" />
    <glyph glyph-name="Itilde.ss01" horiz-adv-x="1019" 
d="M420 1700q-68 0 -68 -92h-194q0 309 204 309q40 0 79 -16t63 -35t51 -35t47 -16q68 0 68 90h194q0 -306 -205 -306q-54 0 -100 25.5t-80 50.5t-59 25zM924 1165h-252v-895h252v-270h-576h-252v270h252v895h-252v269h576h252v-269z" />
    <glyph glyph-name="J.ss01" horiz-adv-x="1073" 
d="M942 1434v-1180q0 -224 -128.5 -348.5t-352.5 -124.5q-278 0 -469 223l149 229q73 -77 153.5 -118t149.5 -41q81 0 126.5 48.5t45.5 139.5v897h-493v275h819z" />
    <glyph glyph-name="M.ss01" horiz-adv-x="2422" 
d="M1823 1434q206 0 337.5 -145.5t131.5 -379.5v-909h-328v829q0 136 -72.5 218.5t-193.5 82.5q-136 -1 -224 -103t-88 -255v-772h-327v829q0 136 -72.5 218.5t-193.5 82.5q-131 -1 -218.5 -96.5t-93.5 -240.5v-793h-323v1434h323v-228q71 109 184.5 168.5t254.5 59.5
q150 0 262.5 -79.5t165.5 -219.5q67 141 190 220t285 79z" />
    <glyph glyph-name="N.ss01" 
d="M944 1434q220 0 357 -144.5t137 -380.5v-909h-328v831q0 133 -79.5 216t-207.5 83q-145 -1 -240.5 -96t-101.5 -241v-793h-323v1434h323v-236q76 112 195.5 174t267.5 62z" />
    <glyph glyph-name="Nacute.ss01" 
d="M1145 1790l-260 -223h-250l217 334zM944 1434q220 0 357 -144.5t137 -380.5v-909h-328v831q0 133 -79.5 216t-207.5 83q-145 -1 -240.5 -96t-101.5 -241v-793h-323v1434h323v-236q76 112 195.5 174t267.5 62z" />
    <glyph glyph-name="Ncaron.ss01" 
d="M934 1559h-283l-239 327h254l127 -188l127 188h254zM944 1434q220 0 357 -144.5t137 -380.5v-909h-328v831q0 133 -79.5 216t-207.5 83q-145 -1 -240.5 -96t-101.5 -241v-793h-323v1434h323v-236q76 112 195.5 174t267.5 62z" />
    <glyph glyph-name="Ncommaaccent.ss01" 
d="M944 1434q220 0 357 -144.5t137 -380.5v-909h-328v831q0 133 -79.5 216t-207.5 83q-145 -1 -240.5 -96t-101.5 -241v-793h-323v1434h323v-236q76 112 195.5 174t267.5 62zM799 -88q64 0 108.5 -43t44.5 -115q0 -67 -43 -129l-137 -207h-154l87 207q-64 46 -64 127
q0 69 45 114.5t113 45.5z" />
    <glyph glyph-name="Eng.ss01" 
d="M944 1434q220 0 357 -144.5t137 -380.5v-909q-4 -202 -134 -318t-346 -116q-224 0 -380 131l124 250q122 -88 242 -88q76 0 120.5 44t45.5 126v802q0 133 -79.5 216t-207.5 83q-145 -1 -240.5 -96t-101.5 -241v-793h-323v1434h323v-236q76 112 195.5 174t267.5 62z" />
    <glyph glyph-name="Ntilde.ss01" 
d="M709 1700q-68 0 -68 -92h-195q0 309 205 309q40 0 79 -16t63 -35t51 -35t47 -16q67 0 67 90h195q0 -306 -205 -306q-54 0 -100 25.5t-80 50.5t-59 25zM944 1434q220 0 357 -144.5t137 -380.5v-909h-328v831q0 133 -79.5 216t-207.5 83q-145 -1 -240.5 -96t-101.5 -241
v-793h-323v1434h323v-236q76 112 195.5 174t267.5 62z" />
    <glyph glyph-name="Q.ss01" horiz-adv-x="1650" 
d="M1595 717q0 -141 -49.5 -267t-137 -221t-210.5 -157.5t-266 -79.5v-242h-234v244q-185 27 -331.5 127.5t-229 256t-82.5 339.5q0 206 100.5 372.5t277 260.5t392.5 94t392.5 -94.5t277 -261t100.5 -371.5zM932 281q145 36 238.5 156.5t93.5 279.5q0 188 -127 316
t-308 128q-183 0 -312.5 -128.5t-129.5 -315.5q0 -151 87.5 -268.5t223.5 -159.5v295h234v-303z" />
    <glyph glyph-name="T.ss01" horiz-adv-x="1380" 
d="M1323 1288l-96 -260q-180 92 -381 119v-1147h-324v1147q-206 -27 -383 -119l-96 262q285 158 639 158q352 0 641 -160z" />
    <glyph glyph-name="Tbar.ss01" horiz-adv-x="1380" 
d="M969 1853v-221h-555v221h555zM1323 1288l-96 -260q-180 92 -381 119v-1147h-324v1147q-206 -27 -383 -119l-96 262q285 158 639 158q352 0 641 -160z" />
    <glyph glyph-name="Tcaron.ss01" horiz-adv-x="1380" 
d="M823 1559h-282l-240 327h254l127 -188l127 188h254zM1323 1288l-96 -260q-180 92 -381 119v-1147h-324v1147q-206 -27 -383 -119l-96 262q285 158 639 158q352 0 641 -160z" />
    <glyph glyph-name="uni0162.ss01" horiz-adv-x="1380" 
d="M846 0h-62l-51 -102q64 -18 101.5 -61t37.5 -105q0 -94 -67 -150.5t-174 -56.5q-104 0 -191 61l60 138q48 -41 106 -41q40 0 64 22.5t24 54.5t-25 53t-69 21q-24 0 -74 -8l80 174h-84v1147q-206 -27 -383 -119l-96 262q285 158 639 158q352 0 641 -160l-96 -260
q-180 92 -381 119v-1147z" />
    <glyph glyph-name="uni021A.ss01" horiz-adv-x="1380" 
d="M1323 1288l-96 -260q-180 92 -381 119v-1147h-324v1147q-206 -27 -383 -119l-96 262q285 158 639 158q352 0 641 -160zM672 -88q64 0 108.5 -43t44.5 -115q0 -67 -43 -129l-137 -207h-153l86 207q-64 46 -64 127q0 69 45 114.5t113 45.5z" />
    <glyph glyph-name="U.ss01" 
d="M1090 1434h323v-1434h-323v236q-74 -112 -193 -173.5t-270 -62.5q-220 0 -357 144t-137 380v910h328v-832q0 -133 79.5 -216t207.5 -83q151 1 246.5 103t95.5 256v772z" />
    <glyph glyph-name="Uacute.ss01" 
d="M1139 1790l-260 -223h-250l217 334zM1090 1434h323v-1434h-323v236q-74 -112 -193 -173.5t-270 -62.5q-220 0 -357 144t-137 380v910h328v-832q0 -133 79.5 -216t207.5 -83q151 1 246.5 103t95.5 256v772z" />
    <glyph glyph-name="Ubreve.ss01" 
d="M793 1567q-138 0 -226 86.5t-94 228.5h201q3 -55 36 -89t83 -34t82.5 34t35.5 89h201q-6 -142 -93.5 -228.5t-225.5 -86.5zM1090 1434h323v-1434h-323v236q-74 -112 -193 -173.5t-270 -62.5q-220 0 -357 144t-137 380v910h328v-832q0 -133 79.5 -216t207.5 -83
q151 1 246.5 103t95.5 256v772z" />
    <glyph glyph-name="Ucircumflex.ss01" 
d="M793 1757l-123 -174h-232l224 303h262l223 -303h-232zM1090 1434h323v-1434h-323v236q-74 -112 -193 -173.5t-270 -62.5q-220 0 -357 144t-137 380v910h328v-832q0 -133 79.5 -216t207.5 -83q151 1 246.5 103t95.5 256v772z" />
    <glyph glyph-name="Udieresis.ss01" 
d="M600 1604q-64 0 -105.5 42.5t-41.5 108.5q0 68 41.5 111t105.5 43q65 0 107.5 -43.5t42.5 -110.5q0 -66 -42.5 -108.5t-107.5 -42.5zM985 1604q-64 0 -105.5 42.5t-41.5 108.5q0 68 41.5 111t105.5 43q65 0 107.5 -43.5t42.5 -110.5q0 -66 -42.5 -108.5t-107.5 -42.5z
M1090 1434h323v-1434h-323v236q-74 -112 -193 -173.5t-270 -62.5q-220 0 -357 144t-137 380v910h328v-832q0 -133 79.5 -216t207.5 -83q151 1 246.5 103t95.5 256v772z" />
    <glyph glyph-name="Ugrave.ss01" 
d="M956 1567h-251l-261 225l293 109zM1090 1434h323v-1434h-323v236q-74 -112 -193 -173.5t-270 -62.5q-220 0 -357 144t-137 380v910h328v-832q0 -133 79.5 -216t207.5 -83q151 1 246.5 103t95.5 256v772z" />
    <glyph glyph-name="Uhungarumlaut.ss01" 
d="M874 1808l-186 -245h-233l174 342zM1067 1563h-233l172 342l247 -97zM1090 1434h323v-1434h-323v236q-74 -112 -193 -173.5t-270 -62.5q-220 0 -357 144t-137 380v910h328v-832q0 -133 79.5 -216t207.5 -83q151 1 246.5 103t95.5 256v772z" />
    <glyph glyph-name="Umacron.ss01" 
d="M1071 1853v-221h-555v221h555zM1090 1434h323v-1434h-323v236q-74 -112 -193 -173.5t-270 -62.5q-220 0 -357 144t-137 380v910h328v-832q0 -133 79.5 -216t207.5 -83q151 1 246.5 103t95.5 256v772z" />
    <glyph glyph-name="Uogonek.ss01" 
d="M1378 -184l84 -99q-38 -64 -93.5 -97.5t-119.5 -33.5q-71 0 -122.5 40.5t-51.5 125.5q0 107 99 248h-84v236q-74 -112 -193 -173.5t-270 -62.5q-220 0 -357 144t-137 380v910h328v-832q0 -133 79.5 -216t207.5 -83q151 1 246.5 103t95.5 256v772h323v-1434h-86
q-90 -131 -90 -197q0 -24 13.5 -37.5t35.5 -13.5q48 0 92 64z" />
    <glyph glyph-name="Uring.ss01" 
d="M793 1507q-101 0 -173.5 71.5t-72.5 172.5q0 100 72.5 172t173.5 72t173 -72t72 -172q0 -101 -72 -172.5t-173 -71.5zM793 1862q-49 0 -83 -32.5t-34 -78.5q0 -47 34 -80t83 -33t83.5 33t34.5 80q0 46 -34.5 78.5t-83.5 32.5zM1090 1434h323v-1434h-323v236
q-74 -112 -193 -173.5t-270 -62.5q-220 0 -357 144t-137 380v910h328v-832q0 -133 79.5 -216t207.5 -83q151 1 246.5 103t95.5 256v772z" />
    <glyph glyph-name="Utilde.ss01" 
d="M702 1700q-67 0 -67 -92h-195q0 309 205 309q40 0 79 -16t63 -35t51 -35t47 -16q67 0 67 90h195q0 -306 -205 -306q-54 0 -100.5 25.5t-80.5 50.5t-59 25zM1090 1434h323v-1434h-323v236q-74 -112 -193 -173.5t-270 -62.5q-220 0 -357 144t-137 380v910h328v-832
q0 -133 79.5 -216t207.5 -83q151 1 246.5 103t95.5 256v772z" />
    <glyph glyph-name="W.ss01" horiz-adv-x="2398" 
d="M2265 1434v-881q0 -249 -155.5 -408t-401.5 -159q-166 0 -304.5 73.5t-203.5 192.5q-64 -119 -201 -192.5t-305 -73.5q-247 0 -405 159t-158 408v881h324v-881q0 -126 81 -205.5t209 -79.5q130 0 210.5 79t82.5 206v881h324v-881q0 -126 83 -205.5t214 -79.5
q127 0 205 79t78 206v881h323z" />
    <glyph glyph-name="Wacute.ss01" horiz-adv-x="2398" 
d="M1251 1901l293 -111l-260 -223h-250zM2265 1434v-881q0 -249 -155.5 -408t-401.5 -159q-166 0 -304.5 73.5t-203.5 192.5q-64 -119 -201 -192.5t-305 -73.5q-247 0 -405 159t-158 408v881h324v-881q0 -126 81 -205.5t209 -79.5q130 0 210.5 79t82.5 206v881h324v-881
q0 -126 83 -205.5t214 -79.5q127 0 205 79t78 206v881h323z" />
    <glyph glyph-name="Wcircumflex.ss01" horiz-adv-x="2398" 
d="M1329 1886l223 -303h-231l-123 174l-123 -174h-231l223 303h262zM2265 1434v-881q0 -249 -155.5 -408t-401.5 -159q-166 0 -304.5 73.5t-203.5 192.5q-64 -119 -201 -192.5t-305 -73.5q-247 0 -405 159t-158 408v881h324v-881q0 -126 81 -205.5t209 -79.5q130 0 210.5 79
t82.5 206v881h324v-881q0 -126 83 -205.5t214 -79.5q127 0 205 79t78 206v881h323z" />
    <glyph glyph-name="Wdieresis.ss01" horiz-adv-x="2398" 
d="M1006 1909q65 0 107 -43.5t42 -110.5q0 -66 -42 -108.5t-107 -42.5t-106.5 42.5t-41.5 108.5q0 67 41.5 110.5t106.5 43.5zM1391 1909q65 0 107 -43.5t42 -110.5q0 -66 -42 -108.5t-107 -42.5t-106.5 42.5t-41.5 108.5q0 67 41.5 110.5t106.5 43.5zM2265 1434v-881
q0 -249 -155.5 -408t-401.5 -159q-166 0 -304.5 73.5t-203.5 192.5q-64 -119 -201 -192.5t-305 -73.5q-247 0 -405 159t-158 408v881h324v-881q0 -126 81 -205.5t209 -79.5q130 0 210.5 79t82.5 206v881h324v-881q0 -126 83 -205.5t214 -79.5q127 0 205 79t78 206v881h323z
" />
    <glyph glyph-name="Wgrave.ss01" horiz-adv-x="2398" 
d="M1143 1901l219 -334h-252l-260 225zM2265 1434v-881q0 -249 -155.5 -408t-401.5 -159q-166 0 -304.5 73.5t-203.5 192.5q-64 -119 -201 -192.5t-305 -73.5q-247 0 -405 159t-158 408v881h324v-881q0 -126 81 -205.5t209 -79.5q130 0 210.5 79t82.5 206v881h324v-881
q0 -126 83 -205.5t214 -79.5q127 0 205 79t78 206v881h323z" />
    <glyph glyph-name="Y.ss01" horiz-adv-x="1517" 
d="M1065 1434h321v-1063q0 -264 -176 -427t-462 -163q-169 0 -334 60t-267 157l138 225q80 -71 197 -115.5t225 -44.5q158 0 258 88t100 228v158q-70 -105 -176.5 -163t-239.5 -59q-230 0 -374 151t-144 394v574h324v-543q0 -126 81.5 -205.5t211.5 -79.5q132 1 219 88.5
t98 227.5v512z" />
    <glyph glyph-name="Yacute.ss01" horiz-adv-x="1517" 
d="M1106 1790l-260 -223h-250l217 334zM1065 1434h321v-1063q0 -264 -176 -427t-462 -163q-169 0 -334 60t-267 157l138 225q80 -71 197 -115.5t225 -44.5q158 0 258 88t100 228v158q-70 -105 -176.5 -163t-239.5 -59q-230 0 -374 151t-144 394v574h324v-543
q0 -126 81.5 -205.5t211.5 -79.5q132 1 219 88.5t98 227.5v512z" />
    <glyph glyph-name="Ycircumflex.ss01" horiz-adv-x="1517" 
d="M760 1757l-123 -174h-231l223 303h262l223 -303h-231zM1065 1434h321v-1063q0 -264 -176 -427t-462 -163q-169 0 -334 60t-267 157l138 225q80 -71 197 -115.5t225 -44.5q158 0 258 88t100 228v158q-70 -105 -176.5 -163t-239.5 -59q-230 0 -374 151t-144 394v574h324
v-543q0 -126 81.5 -205.5t211.5 -79.5q132 1 219 88.5t98 227.5v512z" />
    <glyph glyph-name="Ydieresis.ss01" horiz-adv-x="1517" 
d="M567 1604q-64 0 -105.5 42.5t-41.5 108.5q0 68 41.5 111t105.5 43q65 0 107.5 -43.5t42.5 -110.5q0 -66 -42.5 -108.5t-107.5 -42.5zM952 1604q-64 0 -105.5 42.5t-41.5 108.5q0 68 41.5 111t105.5 43q65 0 107.5 -43.5t42.5 -110.5q0 -66 -42.5 -108.5t-107.5 -42.5z
M1065 1434h321v-1063q0 -264 -176 -427t-462 -163q-169 0 -334 60t-267 157l138 225q80 -71 197 -115.5t225 -44.5q158 0 258 88t100 228v158q-70 -105 -176.5 -163t-239.5 -59q-230 0 -374 151t-144 394v574h324v-543q0 -126 81.5 -205.5t211.5 -79.5q132 1 219 88.5
t98 227.5v512z" />
    <glyph glyph-name="Ygrave.ss01" horiz-adv-x="1517" 
d="M924 1567h-252l-260 225l293 109zM1065 1434h321v-1063q0 -264 -176 -427t-462 -163q-169 0 -334 60t-267 157l138 225q80 -71 197 -115.5t225 -44.5q158 0 258 88t100 228v158q-70 -105 -176.5 -163t-239.5 -59q-230 0 -374 151t-144 394v574h324v-543
q0 -126 81.5 -205.5t211.5 -79.5q132 1 219 88.5t98 227.5v512z" />
    <glyph glyph-name="Z.ss01" horiz-adv-x="1376" 
d="M500 270h813l-2 -270h-1248v219l324 381h-8v227h98v11h113l276 325h-776v271h1210v-217l-321 -379h6v-228h-115v-10h-92z" />
    <glyph glyph-name="Zacute.ss01" horiz-adv-x="1376" 
d="M1034 1790l-260 -223h-250l217 334zM500 270h813l-2 -270h-1248v219l324 381h-8v227h98v11h113l276 325h-776v271h1210v-217l-321 -379h6v-228h-115v-10h-92z" />
    <glyph glyph-name="Zcaron.ss01" horiz-adv-x="1376" 
d="M821 1559h-282l-240 327h254l127 -188l127 188h254zM500 270h813l-2 -270h-1248v219l324 381h-8v227h98v11h113l276 325h-776v271h1210v-217l-321 -379h6v-228h-115v-10h-92z" />
    <glyph glyph-name="Zdotaccent.ss01" horiz-adv-x="1376" 
d="M688 1573q-75 0 -122.5 49.5t-47.5 126.5t47.5 126.5t122.5 49.5t122.5 -49.5t47.5 -126.5t-47.5 -126.5t-122.5 -49.5zM500 270h813l-2 -270h-1248v219l324 381h-8v227h98v11h113l276 325h-776v271h1210v-217l-321 -379h6v-228h-115v-10h-92z" />
    <glyph glyph-name="a.ss01" horiz-adv-x="1390" 
d="M924 1102h313v-1102h-313v158q-119 -170 -346 -170q-235 0 -378 156t-143 411q0 251 140 404.5t370 154.5q233 0 357 -172v160zM651 242q114 0 189 75.5t84 198.5v62q-9 123 -84 198.5t-189 75.5q-122 0 -199 -85.5t-79 -219.5q2 -136 78 -220.5t200 -84.5z" />
    <glyph glyph-name="aacute.ss01" horiz-adv-x="1390" 
d="M1030 1456l-260 -223h-250l217 334zM924 1102h313v-1102h-313v158q-119 -170 -346 -170q-235 0 -378 156t-143 411q0 251 140 404.5t370 154.5q233 0 357 -172v160zM651 242q114 0 189 75.5t84 198.5v62q-9 123 -84 198.5t-189 75.5q-122 0 -199 -85.5t-79 -219.5
q2 -136 78 -220.5t200 -84.5z" />
    <glyph glyph-name="abreve.ss01" horiz-adv-x="1390" 
d="M684 1233q-138 0 -225.5 86.5t-93.5 228.5h200q3 -55 36 -89t83 -34t83 34t36 89h201q-6 -142 -94 -228.5t-226 -86.5zM924 1102h313v-1102h-313v158q-119 -170 -346 -170q-235 0 -378 156t-143 411q0 251 140 404.5t370 154.5q233 0 357 -172v160zM651 242
q114 0 189 75.5t84 198.5v62q-9 123 -84 198.5t-189 75.5q-122 0 -199 -85.5t-79 -219.5q2 -136 78 -220.5t200 -84.5z" />
    <glyph glyph-name="acircumflex.ss01" horiz-adv-x="1390" 
d="M684 1423l-123 -174h-231l223 303h262l223 -303h-231zM924 1102h313v-1102h-313v158q-119 -170 -346 -170q-235 0 -378 156t-143 411q0 251 140 404.5t370 154.5q233 0 357 -172v160zM651 242q114 0 189 75.5t84 198.5v62q-9 123 -84 198.5t-189 75.5q-122 0 -199 -85.5
t-79 -219.5q2 -136 78 -220.5t200 -84.5z" />
    <glyph glyph-name="adieresis.ss01" horiz-adv-x="1390" 
d="M492 1270q-65 0 -106.5 42.5t-41.5 108.5q0 67 41.5 110.5t106.5 43.5t107 -43.5t42 -110.5q0 -66 -42 -108.5t-107 -42.5zM877 1270q-65 0 -106.5 42.5t-41.5 108.5q0 67 41.5 110.5t106.5 43.5t107 -43.5t42 -110.5q0 -66 -42 -108.5t-107 -42.5zM924 1102h313v-1102
h-313v158q-119 -170 -346 -170q-235 0 -378 156t-143 411q0 251 140 404.5t370 154.5q233 0 357 -172v160zM651 242q114 0 189 75.5t84 198.5v62q-9 123 -84 198.5t-189 75.5q-122 0 -199 -85.5t-79 -219.5q2 -136 78 -220.5t200 -84.5z" />
    <glyph glyph-name="agrave.ss01" horiz-adv-x="1390" 
d="M848 1233h-252l-260 225l293 109zM924 1102h313v-1102h-313v158q-119 -170 -346 -170q-235 0 -378 156t-143 411q0 251 140 404.5t370 154.5q233 0 357 -172v160zM651 242q114 0 189 75.5t84 198.5v62q-9 123 -84 198.5t-189 75.5q-122 0 -199 -85.5t-79 -219.5
q2 -136 78 -220.5t200 -84.5z" />
    <glyph glyph-name="amacron.ss01" horiz-adv-x="1390" 
d="M963 1520v-222h-555v222h555zM924 1102h313v-1102h-313v158q-119 -170 -346 -170q-235 0 -378 156t-143 411q0 251 140 404.5t370 154.5q233 0 357 -172v160zM651 242q114 0 189 75.5t84 198.5v62q-9 123 -84 198.5t-189 75.5q-122 0 -199 -85.5t-79 -219.5
q2 -136 78 -220.5t200 -84.5z" />
    <glyph glyph-name="aogonek.ss01" horiz-adv-x="1390" 
d="M1212 -184l84 -99q-38 -64 -93.5 -97.5t-119.5 -33.5q-71 0 -122.5 40.5t-51.5 125.5q0 107 99 248h-84v158q-119 -170 -346 -170q-235 0 -378 156t-143 411q0 251 140 404.5t370 154.5q233 0 357 -172v160h313v-1102h-76q-90 -131 -90 -197q0 -24 13.5 -37.5t35.5 -13.5
q48 0 92 64zM651 242q114 0 189 75.5t84 198.5v62q-9 123 -84 198.5t-189 75.5q-122 0 -199 -85.5t-79 -219.5q2 -136 78 -220.5t200 -84.5z" />
    <glyph glyph-name="aring.ss01" horiz-adv-x="1390" 
d="M684 1174q-102 0 -174 71t-72 172q0 100 72.5 172t173.5 72t173.5 -72t72.5 -172q0 -101 -72 -172t-174 -71zM684 1528q-49 0 -83 -32.5t-34 -78.5q0 -47 34 -79.5t83 -32.5q50 0 84.5 32.5t34.5 79.5q0 46 -35 78.5t-84 32.5zM924 1102h313v-1102h-313v158
q-119 -170 -346 -170q-235 0 -378 156t-143 411q0 251 140 404.5t370 154.5q233 0 357 -172v160zM651 242q114 0 189 75.5t84 198.5v62q-9 123 -84 198.5t-189 75.5q-122 0 -199 -85.5t-79 -219.5q2 -136 78 -220.5t200 -84.5z" />
    <glyph glyph-name="atilde.ss01" horiz-adv-x="1390" 
d="M594 1366q-68 0 -68 -92h-194q0 309 205 309q51 0 97.5 -25.5t82 -51t59.5 -25.5q68 0 68 90h194q0 -305 -204 -305q-42 0 -81 15.5t-62.5 34.5t-50 34.5t-46.5 15.5zM924 1102h313v-1102h-313v158q-119 -170 -346 -170q-235 0 -378 156t-143 411q0 251 140 404.5
t370 154.5q233 0 357 -172v160zM651 242q114 0 189 75.5t84 198.5v62q-9 123 -84 198.5t-189 75.5q-122 0 -199 -85.5t-79 -219.5q2 -136 78 -220.5t200 -84.5z" />
    <glyph glyph-name="ae.ss01" horiz-adv-x="1968" 
d="M1415 233q161 0 293 144l180 -164q-188 -225 -493 -225q-156 0 -277.5 61.5t-193.5 171.5q-137 -235 -461 -235q-183 0 -290 95.5t-107 250.5q0 154 109 241.5t310 88.5h308v18q-2 90 -61 138t-173 48q-153 0 -328 -96l-98 217q133 66 247 96.5t253 30.5q251 0 375 -133
q147 131 374 131q237 1 380.5 -137.5t152.5 -376.5l-762 -199q36 -79 104 -122.5t158 -43.5zM1386 879q-119 0 -189.5 -76t-76.5 -215l492 131q-52 160 -226 160zM535 211q98 0 170.5 47t87.5 119v98h-250q-93 0 -138 -30t-45 -95q0 -63 47 -101t128 -38z" />
    <glyph glyph-name="e.ss01" horiz-adv-x="1239" 
d="M666 233q163 0 292 144l181 -164q-191 -225 -496 -225q-263 0 -424.5 154.5t-161.5 406.5q0 165 69 292t197.5 198.5t299.5 72.5q240 2 386.5 -135t155.5 -373l-762 -201q36 -80 104.5 -125t158.5 -45zM639 879q-118 0 -188.5 -74t-77.5 -211l483 129q-52 156 -217 156z
" />
    <glyph glyph-name="eacute.ss01" horiz-adv-x="1239" 
d="M969 1456l-260 -223h-250l217 334zM666 233q163 0 292 144l181 -164q-191 -225 -496 -225q-263 0 -424.5 154.5t-161.5 406.5q0 165 69 292t197.5 198.5t299.5 72.5q240 2 386.5 -135t155.5 -373l-762 -201q36 -80 104.5 -125t158.5 -45zM639 879q-118 0 -188.5 -74
t-77.5 -211l483 129q-52 156 -217 156z" />
    <glyph glyph-name="ebreve.ss01" horiz-adv-x="1239" 
d="M623 1233q-138 0 -226 86.5t-94 228.5h201q3 -55 36 -89t83 -34t82.5 34t35.5 89h201q-6 -142 -93.5 -228.5t-225.5 -86.5zM666 233q163 0 292 144l181 -164q-191 -225 -496 -225q-263 0 -424.5 154.5t-161.5 406.5q0 165 69 292t197.5 198.5t299.5 72.5
q240 2 386.5 -135t155.5 -373l-762 -201q36 -80 104.5 -125t158.5 -45zM639 879q-118 0 -188.5 -74t-77.5 -211l483 129q-52 156 -217 156z" />
    <glyph glyph-name="ecaron.ss01" horiz-adv-x="1239" 
d="M756 1225h-283l-240 327h254l127 -188l127 188h254zM666 233q163 0 292 144l181 -164q-191 -225 -496 -225q-263 0 -424.5 154.5t-161.5 406.5q0 165 69 292t197.5 198.5t299.5 72.5q240 2 386.5 -135t155.5 -373l-762 -201q36 -80 104.5 -125t158.5 -45zM639 879
q-118 0 -188.5 -74t-77.5 -211l483 129q-52 156 -217 156z" />
    <glyph glyph-name="ecircumflex.ss01" horiz-adv-x="1239" 
d="M623 1423l-123 -174h-232l224 303h262l223 -303h-232zM666 233q163 0 292 144l181 -164q-191 -225 -496 -225q-263 0 -424.5 154.5t-161.5 406.5q0 165 69 292t197.5 198.5t299.5 72.5q240 2 386.5 -135t155.5 -373l-762 -201q36 -80 104.5 -125t158.5 -45zM639 879
q-118 0 -188.5 -74t-77.5 -211l483 129q-52 156 -217 156z" />
    <glyph glyph-name="edieresis.ss01" horiz-adv-x="1239" 
d="M430 1270q-64 0 -105.5 42.5t-41.5 108.5q0 68 41.5 111t105.5 43q65 0 107.5 -43.5t42.5 -110.5q0 -66 -42.5 -108.5t-107.5 -42.5zM815 1270q-64 0 -105.5 42.5t-41.5 108.5q0 68 41.5 111t105.5 43q65 0 107.5 -43.5t42.5 -110.5q0 -66 -42.5 -108.5t-107.5 -42.5z
M666 233q163 0 292 144l181 -164q-191 -225 -496 -225q-263 0 -424.5 154.5t-161.5 406.5q0 165 69 292t197.5 198.5t299.5 72.5q240 2 386.5 -135t155.5 -373l-762 -201q36 -80 104.5 -125t158.5 -45zM639 879q-118 0 -188.5 -74t-77.5 -211l483 129q-52 156 -217 156z" />
    <glyph glyph-name="edotaccent.ss01" horiz-adv-x="1239" 
d="M623 1239q-75 0 -122.5 49.5t-47.5 126.5t47.5 126.5t122.5 49.5t122.5 -49.5t47.5 -126.5t-47.5 -126.5t-122.5 -49.5zM666 233q163 0 292 144l181 -164q-191 -225 -496 -225q-263 0 -424.5 154.5t-161.5 406.5q0 165 69 292t197.5 198.5t299.5 72.5q240 2 386.5 -135
t155.5 -373l-762 -201q36 -80 104.5 -125t158.5 -45zM639 879q-118 0 -188.5 -74t-77.5 -211l483 129q-52 156 -217 156z" />
    <glyph glyph-name="egrave.ss01" horiz-adv-x="1239" 
d="M786 1233h-251l-261 225l293 109zM666 233q163 0 292 144l181 -164q-191 -225 -496 -225q-263 0 -424.5 154.5t-161.5 406.5q0 165 69 292t197.5 198.5t299.5 72.5q240 2 386.5 -135t155.5 -373l-762 -201q36 -80 104.5 -125t158.5 -45zM639 879q-118 0 -188.5 -74
t-77.5 -211l483 129q-52 156 -217 156z" />
    <glyph glyph-name="emacron.ss01" horiz-adv-x="1239" 
d="M901 1520v-222h-555v222h555zM666 233q163 0 292 144l181 -164q-191 -225 -496 -225q-263 0 -424.5 154.5t-161.5 406.5q0 165 69 292t197.5 198.5t299.5 72.5q240 2 386.5 -135t155.5 -373l-762 -201q36 -80 104.5 -125t158.5 -45zM639 879q-118 0 -188.5 -74
t-77.5 -211l483 129q-52 156 -217 156z" />
    <glyph glyph-name="eogonek.ss01" horiz-adv-x="1239" 
d="M944 -248q46 0 90 64l84 -99q-78 -131 -211 -131q-71 0 -122.5 40.5t-51.5 125.5q0 130 119 289q-101 -53 -209 -53q-263 0 -424.5 154.5t-161.5 406.5q0 165 69 292t197.5 198.5t299.5 72.5q240 2 386.5 -135t155.5 -373l-762 -201q36 -80 104.5 -125t158.5 -45
q165 0 284 119l164 -172q-219 -256 -219 -377q0 -24 13.5 -37.5t35.5 -13.5zM639 879q-118 0 -188.5 -74t-77.5 -211l483 129q-52 156 -217 156z" />
    <glyph glyph-name="f.ss01" horiz-adv-x="698" 
d="M575 1274q-58 0 -94.5 -33t-36.5 -96v-92h261v-219h-261v-834h-313v1157q0 177 116 277t290 100q169 0 288 -78l-112 -229q-62 47 -138 47z" />
    <glyph glyph-name="g.ss01" horiz-adv-x="1320" 
d="M870 1102h312v-1000q0 -235 -160.5 -374.5t-429.5 -137.5q-153 2 -287 68.5t-205 181.5l152 183q61 -81 145 -128.5t181 -48.5q132 -1 212 66t80 180v125q-116 -160 -327 -160q-218 0 -352 147t-134 386q0 233 131.5 377t346.5 145q217 0 335 -162v152zM612 297
q115 0 185.5 79t72.5 206q-2 128 -72.5 206t-185.5 78t-186.5 -79t-73.5 -205q2 -127 73 -206t187 -79z" />
    <glyph glyph-name="gbreve.ss01" horiz-adv-x="1320" 
d="M649 1233q-138 0 -225.5 86.5t-93.5 228.5h200q3 -55 36 -89t83 -34t83 34t36 89h201q-6 -142 -94 -228.5t-226 -86.5zM870 1102h312v-1000q0 -235 -160.5 -374.5t-429.5 -137.5q-153 2 -287 68.5t-205 181.5l152 183q61 -81 145 -128.5t181 -48.5q132 -1 212 66t80 180
v125q-116 -160 -327 -160q-218 0 -352 147t-134 386q0 233 131.5 377t346.5 145q217 0 335 -162v152zM612 297q115 0 185.5 79t72.5 206q-2 128 -72.5 206t-185.5 78t-186.5 -79t-73.5 -205q2 -127 73 -206t187 -79z" />
    <glyph glyph-name="gcircumflex.ss01" horiz-adv-x="1320" 
d="M649 1423l-123 -174h-231l223 303h262l224 -303h-232zM870 1102h312v-1000q0 -235 -160.5 -374.5t-429.5 -137.5q-153 2 -287 68.5t-205 181.5l152 183q61 -81 145 -128.5t181 -48.5q132 -1 212 66t80 180v125q-116 -160 -327 -160q-218 0 -352 147t-134 386
q0 233 131.5 377t346.5 145q217 0 335 -162v152zM612 297q115 0 185.5 79t72.5 206q-2 128 -72.5 206t-185.5 78t-186.5 -79t-73.5 -205q2 -127 73 -206t187 -79z" />
    <glyph glyph-name="gcommaaccent.ss01" horiz-adv-x="1454" 
d="M639 1190q-64 0 -109 43t-45 115q0 67 43 129l138 204h153l-86 -206q62 -47 62 -127q0 -69 -44 -113.5t-112 -44.5zM870 1102h312v-1000q0 -235 -160.5 -374.5t-429.5 -137.5q-153 2 -287 68.5t-205 181.5l152 183q61 -81 145 -128.5t181 -48.5q132 -1 212 66t80 180v125
q-116 -160 -327 -160q-218 0 -352 147t-134 386q0 233 131.5 377t346.5 145q217 0 335 -162v152zM612 297q115 0 185.5 79t72.5 206q-2 128 -72.5 206t-185.5 78t-186.5 -79t-73.5 -205q2 -127 73 -206t187 -79z" />
    <glyph glyph-name="gdotaccent.ss01" horiz-adv-x="1320" 
d="M649 1239q-75 0 -122.5 49.5t-47.5 126.5t47.5 126.5t122.5 49.5t122.5 -49.5t47.5 -126.5t-47.5 -126.5t-122.5 -49.5zM870 1102h312v-1000q0 -235 -160.5 -374.5t-429.5 -137.5q-153 2 -287 68.5t-205 181.5l152 183q61 -81 145 -128.5t181 -48.5q132 -1 212 66t80 180
v125q-116 -160 -327 -160q-218 0 -352 147t-134 386q0 233 131.5 377t346.5 145q217 0 335 -162v152zM612 297q115 0 185.5 79t72.5 206q-2 128 -72.5 206t-185.5 78t-186.5 -79t-73.5 -205q2 -127 73 -206t187 -79z" />
    <glyph glyph-name="l.ss01" horiz-adv-x="679" 
d="M133 1520h313v-1135q0 -59 27 -89t72 -30q39 0 106 31l31 -262q-104 -49 -209 -49q-147 0 -243.5 98t-96.5 281v1155z" />
    <glyph glyph-name="oe.ss01" horiz-adv-x="2105" 
d="M1532 233q164 0 293 144l180 -164q-190 -225 -494 -225q-144 0 -254.5 55t-179.5 156q-67 -101 -176 -156t-252 -55q-265 0 -428.5 155.5t-163.5 407.5q0 253 163 407t429 154q141 0 250 -54t176 -153q66 99 172 153t244 54q239 2 385.5 -135.5t155.5 -372.5l-762 -201
q36 -80 104 -125t158 -45zM1505 879q-118 0 -188.5 -74t-77.5 -211l483 129q-52 156 -217 156zM649 244q122 0 198.5 84t76.5 219t-76.5 219t-198.5 84q-123 0 -199.5 -84t-76.5 -219t76.5 -219t199.5 -84z" />
    <glyph glyph-name="t.ss01" horiz-adv-x="798" 
d="M694 293l66 -232q-131 -75 -281 -75q-157 0 -254.5 96t-97.5 268v1006h313v-303h301v-219h-301v-431q0 -77 29 -115t82 -36q59 0 143 41z" />
    <glyph glyph-name="tbar.ss01" horiz-adv-x="798" 
d="M694 293l66 -232q-131 -75 -281 -75q-157 0 -254.5 96t-97.5 268v1006h313v-303h299v-197h-299v-162h299v-196h-299v-95q0 -77 29 -115t82 -36q59 0 143 41z" />
    <glyph glyph-name="tcaron.ss01" horiz-adv-x="798" 
d="M788 1683q65 0 109.5 -42.5t44.5 -116.5q0 -68 -43 -127l-137 -207h-154l86 207q-63 45 -63 127q0 70 44.5 114.5t112.5 44.5zM551 252q59 0 143 41l66 -232q-131 -75 -281 -75q-157 0 -254.5 96t-97.5 268v1006h313v-303h301v-219h-301v-431q0 -77 29 -115t82 -36z" />
    <glyph glyph-name="uni0163.ss01" horiz-adv-x="798" 
d="M494 -102q64 -18 101.5 -61t37.5 -105q0 -94 -67.5 -150.5t-174.5 -56.5q-103 0 -190 61l59 138q48 -41 107 -41q40 0 64 22.5t24 54.5t-25.5 53t-69.5 21q-23 0 -73 -8l80 174q-109 30 -174.5 121t-65.5 229v1006h313v-303h301v-219h-301v-431q0 -77 29 -115t82 -36
q59 0 143 41l66 -232q-100 -59 -221 -71z" />
    <glyph glyph-name="uni021B.ss01" horiz-adv-x="798" 
d="M479 -14q-157 0 -254.5 96t-97.5 268v1006h313v-303h301v-219h-301v-431q0 -77 29 -115t82 -36q59 0 143 41l66 -232q-131 -75 -281 -75zM432 -88q64 0 109 -43t45 -115q0 -67 -43 -129l-137 -207h-154l86 207q-64 46 -64 127q0 69 45 114.5t113 45.5z" />
    <glyph glyph-name="w.ss01" horiz-adv-x="1998" 
d="M1884 1102v-633q0 -218 -128 -350.5t-339 -132.5q-127 0 -242.5 62t-173.5 163q-55 -101 -170 -163t-243 -62q-211 0 -341 132.5t-130 350.5v633h313v-619q0 -95 57.5 -153t151.5 -58q93 0 149 57.5t56 153.5v619h311v-619q0 -95 59 -153t156 -58q90 0 145.5 58t55.5 153
v619h313z" />
    <glyph glyph-name="wacute.ss01" horiz-adv-x="1998" 
d="M1053 1567l293 -111l-261 -223h-249zM1884 1102v-633q0 -218 -128 -350.5t-339 -132.5q-127 0 -242.5 62t-173.5 163q-55 -101 -170 -163t-243 -62q-211 0 -341 132.5t-130 350.5v633h313v-619q0 -95 57.5 -153t151.5 -58q93 0 149 57.5t56 153.5v619h311v-619
q0 -95 59 -153t156 -58q90 0 145.5 58t55.5 153v619h313z" />
    <glyph glyph-name="wcircumflex.ss01" horiz-adv-x="1998" 
d="M1130 1552l224 -303h-232l-123 174l-122 -174h-232l223 303h262zM1884 1102v-633q0 -218 -128 -350.5t-339 -132.5q-127 0 -242.5 62t-173.5 163q-55 -101 -170 -163t-243 -62q-211 0 -341 132.5t-130 350.5v633h313v-619q0 -95 57.5 -153t151.5 -58q93 0 149 57.5
t56 153.5v619h311v-619q0 -95 59 -153t156 -58q90 0 145.5 58t55.5 153v619h313z" />
    <glyph glyph-name="wdieresis.ss01" horiz-adv-x="1998" 
d="M807 1575q65 0 107 -43.5t42 -110.5q0 -66 -42 -108.5t-107 -42.5t-106.5 42.5t-41.5 108.5q0 67 41.5 110.5t106.5 43.5zM1192 1575q65 0 107 -43.5t42 -110.5q0 -66 -42 -108.5t-107 -42.5t-106.5 42.5t-41.5 108.5q0 67 41.5 110.5t106.5 43.5zM1884 1102v-633
q0 -218 -128 -350.5t-339 -132.5q-127 0 -242.5 62t-173.5 163q-55 -101 -170 -163t-243 -62q-211 0 -341 132.5t-130 350.5v633h313v-619q0 -95 57.5 -153t151.5 -58q93 0 149 57.5t56 153.5v619h311v-619q0 -95 59 -153t156 -58q90 0 145.5 58t55.5 153v619h313z" />
    <glyph glyph-name="wgrave.ss01" horiz-adv-x="1998" 
d="M944 1567l219 -334h-252l-260 225zM1884 1102v-633q0 -218 -128 -350.5t-339 -132.5q-127 0 -242.5 62t-173.5 163q-55 -101 -170 -163t-243 -62q-211 0 -341 132.5t-130 350.5v633h313v-619q0 -95 57.5 -153t151.5 -58q93 0 149 57.5t56 153.5v619h311v-619
q0 -95 59 -153t156 -58q90 0 145.5 58t55.5 153v619h313z" />
    <glyph glyph-name="y.ss01" horiz-adv-x="1355" 
d="M905 1102h312v-987q0 -235 -157.5 -380.5t-412.5 -144.5q-125 2 -259 44.5t-226 109.5l80 223q77 -53 179 -86.5t191 -34.5q133 0 213 75t80 200v166q-122 -194 -385 -197q-184 0 -291.5 115t-107.5 309v588h315v-496q0 -104 57.5 -164.5t157.5 -60.5q118 1 186 80
t68 213v428z" />
    <glyph glyph-name="yacute.ss01" horiz-adv-x="1355" 
d="M1014 1456l-260 -223h-250l217 334zM905 1102h312v-987q0 -235 -157.5 -380.5t-412.5 -144.5q-125 2 -259 44.5t-226 109.5l80 223q77 -53 179 -86.5t191 -34.5q133 0 213 75t80 200v166q-122 -194 -385 -197q-184 0 -291.5 115t-107.5 309v588h315v-496
q0 -104 57.5 -164.5t157.5 -60.5q118 1 186 80t68 213v428z" />
    <glyph glyph-name="ycircumflex.ss01" horiz-adv-x="1355" 
d="M668 1423l-123 -174h-232l224 303h262l223 -303h-231zM905 1102h312v-987q0 -235 -157.5 -380.5t-412.5 -144.5q-125 2 -259 44.5t-226 109.5l80 223q77 -53 179 -86.5t191 -34.5q133 0 213 75t80 200v166q-122 -194 -385 -197q-184 0 -291.5 115t-107.5 309v588h315
v-496q0 -104 57.5 -164.5t157.5 -60.5q118 1 186 80t68 213v428z" />
    <glyph glyph-name="ydieresis.ss01" horiz-adv-x="1355" 
d="M475 1270q-64 0 -105.5 42.5t-41.5 108.5q0 68 41.5 111t105.5 43q65 0 107.5 -43.5t42.5 -110.5q0 -66 -42.5 -108.5t-107.5 -42.5zM860 1270q-64 0 -105.5 42.5t-41.5 108.5q0 68 41.5 111t105.5 43q65 0 107.5 -43.5t42.5 -110.5q0 -66 -42.5 -108.5t-107.5 -42.5z
M905 1102h312v-987q0 -235 -157.5 -380.5t-412.5 -144.5q-125 2 -259 44.5t-226 109.5l80 223q77 -53 179 -86.5t191 -34.5q133 0 213 75t80 200v166q-122 -194 -385 -197q-184 0 -291.5 115t-107.5 309v588h315v-496q0 -104 57.5 -164.5t157.5 -60.5q118 1 186 80t68 213
v428z" />
    <glyph glyph-name="ygrave.ss01" horiz-adv-x="1355" 
d="M831 1233h-251l-261 225l293 109zM905 1102h312v-987q0 -235 -157.5 -380.5t-412.5 -144.5q-125 2 -259 44.5t-226 109.5l80 223q77 -53 179 -86.5t191 -34.5q133 0 213 75t80 200v166q-122 -194 -385 -197q-184 0 -291.5 115t-107.5 309v588h315v-496
q0 -104 57.5 -164.5t157.5 -60.5q118 1 186 80t68 213v428z" />
    <glyph glyph-name="z.ss01" horiz-adv-x="1122" 
d="M471 248h586v-250l-979 2v199l231 266h-157v194h327l166 193l-547 2v246h940v-199l-223 -258h150v-194h-320z" />
    <glyph glyph-name="zacute.ss01" horiz-adv-x="1122" 
d="M907 1456l-260 -223h-250l217 334zM471 248h586v-250l-979 2v199l231 266h-157v194h327l166 193l-547 2v246h940v-199l-223 -258h150v-194h-320z" />
    <glyph glyph-name="zcaron.ss01" horiz-adv-x="1122" 
d="M694 1225h-282l-240 327h254l127 -188l127 188h254zM471 248h586v-250l-979 2v199l231 266h-157v194h327l166 193l-547 2v246h940v-199l-223 -258h150v-194h-320z" />
    <glyph glyph-name="zdotaccent.ss01" horiz-adv-x="1122" 
d="M561 1239q-75 0 -122.5 49.5t-47.5 126.5t47.5 126.5t122.5 49.5t122.5 -49.5t47.5 -126.5t-47.5 -126.5t-122.5 -49.5zM471 248h586v-250l-979 2v199l231 266h-157v194h327l166 193l-547 2v246h940v-199l-223 -258h150v-194h-320z" />
    <glyph glyph-name="fi.ss01" horiz-adv-x="1314" 
d="M1006 1239q-75 0 -122.5 49.5t-47.5 126.5t47.5 126.5t122.5 49.5t122.5 -49.5t47.5 -126.5t-47.5 -126.5t-122.5 -49.5zM131 1157q0 120 57 207.5t147.5 128.5t201.5 41q122 0 213 -43l-13 -262q-84 43 -162 43q-60 2 -95.5 -30t-35.5 -97v-92h261v-219h-261v-834h-313
v1157zM850 0v1102h313v-1102h-313z" />
    <glyph glyph-name="fl.ss01" horiz-adv-x="1464" 
d="M1460 -170q-104 -49 -209 -49q-147 0 -243.5 98t-96.5 281v950q0 78 -51 120.5t-149 43.5q-90 1 -138.5 -34t-48.5 -101v-119h213v-219h-213v-801h-313v801h-148v219h148v141q0 179 134.5 275.5t381.5 95.5q239 0 368.5 -107.5t129.5 -302.5v-942q0 -59 26.5 -89
t71.5 -30q40 0 107 31z" />
    <glyph glyph-name="zero.ss01" horiz-adv-x="1431" 
d="M717 1239q280 0 452 -171.5t172 -451.5q0 -281 -172 -453.5t-452 -172.5q-281 0 -454 172.5t-173 453.5q0 280 173 451.5t454 171.5zM717 985q-133 0 -214 -100t-81 -269q0 -172 81 -272t214 -100t213 100t80 272q0 169 -80 269t-213 100z" />
    <glyph glyph-name="one.ss01" horiz-adv-x="827" 
d="M612 1229v-1229h-323v954h-271v275h594z" />
    <glyph glyph-name="two.ss01" horiz-adv-x="1124" 
d="M573 1247q191 0 314 -89.5t123 -235.5q0 -173 -242 -412l-258 -240h537v-270h-959v217l459 459q123 120 123 196q0 48 -38.5 75.5t-107.5 27.5q-77 0 -168.5 -42t-181.5 -116l-123 242q256 188 522 188z" />
    <glyph glyph-name="three.ss01" horiz-adv-x="1130" 
d="M686 635q169 -24 270 -126.5t101 -264.5q0 -206 -147 -334.5t-392 -128.5q-141 0 -280.5 46t-237.5 122l131 258q77 -83 171.5 -126.5t191.5 -43.5q117 0 181 54t64 149q0 96 -63.5 145t-183.5 49h-220v180l336 351h-538v262h921v-195l-375 -387z" />
    <glyph glyph-name="four.ss01" horiz-adv-x="1273" 
d="M834 1229l-439 -848h344v315h301v-315h199v-262h-199v-324h-301v324h-682v229l465 881h312z" />
    <glyph glyph-name="five.ss01" horiz-adv-x="1206" 
d="M1071 1229l2 -271h-622v-251l149 2q241 0 387 -120.5t146 -314.5q0 -223 -152.5 -357t-405.5 -134q-135 0 -281 47.5t-257 126.5l129 256q83 -83 179.5 -126.5t193.5 -43.5q117 0 182 55.5t65 155.5q0 91 -65 140.5t-182 49.5q-235 0 -385 -10v795h917z" />
    <glyph glyph-name="six.ss01" horiz-adv-x="1284" 
d="M737 1448q116 0 239 -31.5t212 -83.5l-123 -237q-134 92 -307 92q-181 0 -271.5 -110.5t-85.5 -305.5q54 80 145.5 124t213.5 44q212 0 336.5 -126t124.5 -337q0 -226 -143 -358.5t-382 -132.5q-283 0 -445.5 189t-162.5 519q0 343 176.5 548.5t472.5 205.5zM690 692
q-117 0 -184.5 -62t-65.5 -157q-2 -90 61 -153.5t181 -63.5q110 0 174 58.5t64 164.5q0 100 -61 156.5t-169 56.5z" />
    <glyph glyph-name="seven.ss01" horiz-adv-x="1202" 
d="M1163 1229v-232l-545 -1202h-342l529 1163h-449l-2 -200h-284v471h1093z" />
    <glyph glyph-name="eight.ss01" horiz-adv-x="1304" 
d="M651 1448q230 0 367 -103t137 -278q0 -95 -51 -175t-139 -124q122 -47 193 -145t71 -220q0 -192 -156.5 -304.5t-419.5 -112.5q-266 0 -421.5 111.5t-155.5 301.5q0 124 75.5 223t204.5 146q-96 50 -151 131t-55 176q0 171 136 272t365 101zM653 1225
q-110 0 -170.5 -45.5t-60.5 -130.5q0 -83 60.5 -129t170.5 -46q109 0 168.5 46t59.5 129q0 85 -59.5 130.5t-168.5 45.5zM651 631q-129 0 -198.5 -51.5t-69.5 -145.5q0 -98 69.5 -150.5t200.5 -52.5q128 0 199.5 52.5t71.5 148.5q0 95 -71 147t-202 52z" />
    <glyph glyph-name="nine.ss01" horiz-adv-x="1284" 
d="M555 -219q-116 0 -239 31.5t-212 83.5l123 237q134 -92 308 -92q180 0 270.5 110.5t85.5 305.5q-54 -80 -145.5 -124t-213.5 -44q-212 0 -336 126t-124 337q0 226 142.5 358.5t381.5 132.5q283 0 445.5 -189t162.5 -519q0 -343 -176.5 -548.5t-472.5 -205.5zM602 537
q117 0 184.5 62t65.5 157q2 90 -61 153.5t-181 63.5q-110 0 -173.5 -58.5t-63.5 -164.5q0 -100 60.5 -156.5t168.5 -56.5z" />
    <glyph glyph-name="zero.dnom" horiz-adv-x="923" 
d="M461 858q183 0 288 -116t105 -316q0 -201 -105 -316.5t-288 -115.5q-182 0 -286.5 115.5t-104.5 316.5q0 200 105 316t286 116zM461 682q-89 0 -139 -68t-50 -188t50 -188t139 -68q90 0 140 67.5t50 188.5t-50 188.5t-140 67.5z" />
    <glyph glyph-name="one.dnom" horiz-adv-x="552" 
d="M412 0h-222v674h-165v178h387v-852z" />
    <glyph glyph-name="two.dnom" horiz-adv-x="792" 
d="M406 860q132 0 216.5 -61.5t84.5 -161.5q0 -125 -168 -283l-185 -182h379v-172h-663v143l317 320q86 86 86 143q0 35 -26.5 54.5t-75.5 19.5q-110 0 -242 -109l-86 160q178 129 363 129z" />
    <glyph glyph-name="three.dnom" horiz-adv-x="739" 
d="M463 500q100 -14 160.5 -75t60.5 -157q0 -124 -93 -201t-247 -77q-92 0 -181 28t-149 76l90 170q97 -106 222 -106q68 0 103.5 28t35.5 80q0 50 -36 76.5t-103 26.5h-142v118l205 199h-332v164h586v-129l-223 -213z" />
    <glyph glyph-name="four.dnom" horiz-adv-x="833" 
d="M276 344h195v188h209v-188h121v-160h-121v-184h-209v184h-420v150l281 518h213z" />
    <glyph glyph-name="five.dnom" horiz-adv-x="784" 
d="M690 680h-377v-150q35 7 80 7q154 0 245 -67.5t91 -182.5q0 -134 -96.5 -215.5t-255.5 -81.5q-87 0 -179.5 29t-162.5 77l88 172q101 -110 227 -110q66 0 102.5 29.5t36.5 84.5q0 47 -36.5 74t-102.5 27q-140 0 -241 -11v490h581v-172z" />
    <glyph glyph-name="six.dnom" horiz-adv-x="833" 
d="M479 860q75 0 152.5 -18.5t132.5 -50.5l-84 -158q-79 55 -188 55q-106 0 -159.5 -59.5t-47.5 -169.5q27 47 82 73.5t131 26.5q129 0 206.5 -75t77.5 -199q0 -135 -90 -215t-241 -80q-178 0 -279.5 113.5t-101.5 310.5q0 203 111 324.5t298 121.5zM446 397q-65 0 -101 -31
t-36 -83q0 -49 33.5 -81t99.5 -32q62 0 97.5 30.5t35.5 86.5q0 52 -33.5 81t-95.5 29z" />
    <glyph glyph-name="seven.dnom" horiz-adv-x="786" 
d="M750 698l-330 -698h-238l322 680h-250v-123h-197v295h693v-154z" />
    <glyph glyph-name="eight.dnom" horiz-adv-x="845" 
d="M422 860q147 0 233 -61.5t86 -167.5q0 -53 -30 -99.5t-82 -76.5q72 -28 114.5 -85.5t42.5 -127.5q0 -117 -98 -184.5t-264 -67.5q-167 0 -266 67t-99 181q0 72 46 130.5t124 86.5q-58 31 -91.5 80t-33.5 104q0 101 86.5 161t231.5 60zM424 715q-63 0 -97 -25.5t-34 -71.5
q0 -44 34 -68t97 -24q62 0 95.5 24t33.5 68q0 46 -34 71.5t-95 25.5zM422 367q-72 0 -111 -28t-39 -79q0 -106 152 -106q73 0 112 27t39 79q0 51 -39.5 79t-113.5 28z" />
    <glyph glyph-name="nine.dnom" horiz-adv-x="837" 
d="M358 -10q-74 0 -151.5 19.5t-134.5 51.5l86 156q77 -53 188 -53q106 0 159.5 58.5t47.5 168.5q-28 -45 -82.5 -72.5t-130.5 -27.5q-130 0 -207.5 75.5t-77.5 200.5q0 135 90.5 214t241.5 79q178 0 279.5 -113t101.5 -309q0 -203 -111.5 -325.5t-298.5 -122.5zM391 455
q65 0 101 31t36 83q0 49 -33.5 81t-99.5 32q-62 0 -96.5 -30.5t-34.5 -86.5q0 -53 33 -81.5t94 -28.5z" />
    <glyph glyph-name="zero.numr" horiz-adv-x="923" 
d="M461 1440q183 0 288 -115t105 -315q0 -201 -105 -318t-288 -117q-181 0 -286 117t-105 318q0 200 105 315t286 115zM461 1264q-89 0 -139 -67.5t-50 -186.5q0 -121 50 -188.5t139 -67.5q91 0 140.5 67t49.5 189q0 119 -50 186.5t-140 67.5z" />
    <glyph glyph-name="one.numr" horiz-adv-x="552" 
d="M412 582h-222v673h-165v179h387v-852z" />
    <glyph glyph-name="two.numr" horiz-adv-x="792" 
d="M406 1442q132 0 216.5 -61.5t84.5 -161.5q0 -125 -168 -283l-185 -180h379v-174h-663v143l317 322q86 86 86 141q0 35 -26.5 54.5t-75.5 19.5q-54 0 -118 -29t-124 -80l-86 162q179 127 363 127z" />
    <glyph glyph-name="three.numr" horiz-adv-x="739" 
d="M463 1081q100 -14 160.5 -74.5t60.5 -156.5q0 -124 -93 -201.5t-247 -77.5q-91 0 -180 28.5t-150 76.5l90 170q101 -107 222 -107q67 0 103 29t36 80q0 102 -139 102h-142v119l205 199h-332v164h586v-127l-223 -215z" />
    <glyph glyph-name="four.numr" horiz-adv-x="833" 
d="M276 928h195v186h209v-186h121v-162h-121v-184h-209v184h-420v149l281 519h213z" />
    <glyph glyph-name="five.numr" horiz-adv-x="784" 
d="M690 1262h-377v-150q30 6 80 6q154 0 245 -67.5t91 -182.5q0 -134 -96 -214.5t-256 -80.5q-87 0 -179.5 28.5t-162.5 76.5l88 172q105 -111 227 -111q66 0 102.5 30t36.5 85q0 47 -36.5 73.5t-102.5 26.5q-172 0 -241 -10v490h581v-172z" />
    <glyph glyph-name="six.numr" horiz-adv-x="833" 
d="M479 1442q74 0 152 -19t133 -51l-84 -158q-80 56 -188 56q-106 0 -159.5 -60t-47.5 -170q27 47 82 75t131 28q129 0 206.5 -76t77.5 -201q0 -135 -90 -215t-241 -80q-178 0 -279.5 113.5t-101.5 310.5q0 203 111 325t298 122zM446 979q-65 0 -101 -31.5t-36 -83.5
q0 -49 33.5 -80.5t99.5 -31.5q62 0 97.5 30t35.5 86q0 54 -33.5 82.5t-95.5 28.5z" />
    <glyph glyph-name="seven.numr" horiz-adv-x="786" 
d="M750 1280l-330 -698h-238l322 680h-250v-123h-197v295h693v-154z" />
    <glyph glyph-name="eight.numr" horiz-adv-x="845" 
d="M422 1442q146 0 232.5 -62t86.5 -168q0 -53 -30 -99.5t-82 -74.5q72 -29 114.5 -87t42.5 -128q0 -117 -98 -184.5t-264 -67.5q-167 0 -266 67t-99 181q0 72 46 131t124 88q-57 29 -91 78.5t-34 104.5q0 101 86.5 161t231.5 60zM424 1296q-63 0 -97 -25t-34 -71
q0 -43 34 -66.5t97 -23.5q61 0 95 23.5t34 66.5q0 46 -34 71t-95 25zM422 948q-72 0 -111 -27.5t-39 -78.5q0 -52 39 -79.5t113 -27.5q73 0 112 27.5t39 79.5q0 51 -39 78.5t-114 27.5z" />
    <glyph glyph-name="nine.numr" horiz-adv-x="837" 
d="M358 571q-74 0 -151 19.5t-135 52.5l86 158q77 -56 188 -56q106 0 159.5 59t47.5 169q-28 -45 -82.5 -73t-130.5 -28q-130 0 -207.5 76t-77.5 201q0 135 90.5 214t241.5 79q178 0 279.5 -112.5t101.5 -309.5q0 -203 -111.5 -326t-298.5 -123zM391 1036q65 0 101 31.5
t36 83.5q0 49 -33.5 81t-99.5 32q-62 0 -96.5 -30.5t-34.5 -86.5q0 -53 33 -82t94 -29z" />
    </font>
</defs>
</svg>
