<?xml version="1.0" standalone="no"?>
<!DOCTYPE svg PUBLIC "-//W3C//DTD SVG 1.1//EN" "http://www.w3.org/Graphics/SVG/1.1/DTD/svg11.dtd" >
<svg xmlns="http://www.w3.org/2000/svg" xmlns:xlink="http://www.w3.org/1999/xlink" version="1.1">
<metadata>
Created by FontForge 20201107 at Thu Oct 23 17:01:11 2025
 By 
Pangram Pangram
</metadata>
<defs>
<font id="MonumentExtended-Ultrabold" horiz-adv-x="0" >
  <font-face 
    font-family="Monument Extended Ultrabold"
    font-weight="800"
    font-stretch="normal"
    units-per-em="2048"
    panose-1="0 0 9 0 0 0 0 0 0 0"
    ascent="1638"
    descent="-410"
    x-height="1229"
    cap-height="1434"
    bbox="-2130 -676 4659 2216"
    underline-thickness="102"
    underline-position="-204"
    unicode-range="U+0020-25CA"
  />
<missing-glyph horiz-adv-x="1126" 
d="M924 1638v-2252h-715v2252h715zM750 1487h-371v-74h145v-84h-147v-74h373v74h-148v84h148v74zM602 1196h-225v-233h373v75h-148v158zM524 1120v-82h-73v82h73zM750 901h-373v-74h147v-84h-147v-73h225v157h148v74zM750 766h-74v-148h-299v-77h373v225zM750 492h-226v-125
h78v51h74v-107h-225v181h-74v-254h373v254zM750 102h-373v-254h373v254zM676 29v-107h-225v107h225zM750 -205h-373v-74h158l-158 -106v-74h373v74h-230l158 106h72v74z" />
    <glyph glyph-name=".notdef" horiz-adv-x="1126" 
d="M924 1638v-2252h-715v2252h715zM750 1487h-371v-74h145v-84h-147v-74h373v74h-148v84h148v74zM602 1196h-225v-233h373v75h-148v158zM524 1120v-82h-73v82h73zM750 901h-373v-74h147v-84h-147v-73h225v157h148v74zM750 766h-74v-148h-299v-77h373v225zM750 492h-226v-125
h78v51h74v-107h-225v181h-74v-254h373v254zM750 102h-373v-254h373v254zM676 29v-107h-225v107h225zM750 -205h-373v-74h158l-158 -106v-74h373v74h-230l158 106h72v74z" />
    <glyph glyph-name=".null" 
 />
    <glyph glyph-name="nonmarkingreturn" horiz-adv-x="682" 
 />
    <glyph glyph-name="space" unicode=" " horiz-adv-x="819" 
 />
    <glyph glyph-name="exclam" unicode="!" horiz-adv-x="614" 
d="M573 1434l-20 -942h-492l-20 942h532zM61 369h492v-369h-492v369z" />
    <glyph glyph-name="quotedbl" unicode="&#x22;" horiz-adv-x="1228" 
d="M573 1475l-41 -656h-450l-41 656h532zM1188 1475l-41 -656h-451l-41 656h533z" />
    <glyph glyph-name="numbersign" unicode="#" horiz-adv-x="2570" 
d="M2488 778h-413l-97 -327h306v-410h-429l-104 -348h-512l104 348h-440l-104 -348h-512l104 348h-309v410h432l96 327h-323v410h446l86 287h512l-86 -287h441l86 287h512l-86 -287h290v-410zM1466 451l97 327h-441l-96 -327h440z" />
    <glyph glyph-name="dollar" unicode="$" horiz-adv-x="1994" 
d="M1913 475q0 -108 -33 -189t-94.5 -136.5t-158.5 -91.5t-215 -53.5t-273 -22.5v-187h-246v187q-163 4 -285.5 21t-224.5 54t-166.5 95.5t-99.5 147t-35 206.5h532q0 -32 21 -54t84.5 -38.5t173.5 -22.5v156q-433 22 -612 123t-179 334q0 220 200 329.5t591 118.5v186h246
v-188q355 -19 533.5 -138t178.5 -360h-532q0 39 -43.5 58.5t-136.5 27.5v-133q111 -6 195 -14t168.5 -22.5t144 -35.5t112.5 -53t85 -74.5t50.5 -100.5t18.5 -130zM635 977q0 -19 8 -29t40.5 -17t75.5 -10t134 -6v129q-158 -1 -208 -14.5t-50 -52.5zM1139 391
q101 2 154.5 11t70 22.5t16.5 38.5q0 27 -17 40.5t-67.5 22t-156.5 13.5v-148z" />
    <glyph glyph-name="percent" unicode="%" horiz-adv-x="3366" 
d="M707 530q-137 0 -244 29t-178 79.5t-117 123t-66 155t-20 179.5t20 178.5t66 153.5t117 122.5t178 79.5t244 29t244.5 -29t178.5 -79.5t117.5 -122.5t66 -153.5t19.5 -178.5t-19.5 -179.5t-66 -155t-117.5 -123t-178.5 -79.5t-244.5 -29zM2206 1638l-533 -1781h-512
l533 1781h512zM707 940q56 0 82 9.5t39.5 43t13.5 103.5q0 53 -6 83.5t-24 46t-40 19.5t-65 4q-56 0 -81 -8.5t-39 -41.5t-14 -103q0 -53 6 -84t24 -47t40.5 -20.5t63.5 -4.5zM2658 -164q-137 0 -244 29t-177.5 79.5t-117 123t-66 154.5t-19.5 179t19.5 178.5t66 154
t117 123t177.5 79.5t244 29q170 0 294.5 -43.5t195.5 -122.5t104 -177.5t33 -220.5q0 -97 -20 -179t-66 -154.5t-117 -123t-179 -79.5t-245 -29zM2658 246q42 0 64.5 4.5t40.5 20.5t24 46.5t6 83.5t-6 83.5t-24 46.5t-40 20t-65 4q-55 0 -80.5 -9t-39 -42t-13.5 -103
q0 -53 6 -83.5t23.5 -46.5t39.5 -20.5t64 -4.5z" />
    <glyph glyph-name="ampersand" unicode="&#x26;" horiz-adv-x="2160" 
d="M2120 332l-205 -332q-74 34 -200.5 95.5t-153.5 74.5q-296 -190 -756 -190q-380 0 -572 106.5t-192 308.5q0 68 18 123.5t53 96t76 71t96.5 52t104 35.5t109.5 26q-144 147 -144 307q0 348 623 348q175 0 312 -36.5t219.5 -112t82.5 -179.5q0 -116 -109.5 -200
t-326.5 -154q155 -80 264 -131q76 85 142 188l438 -167q-65 -116 -144 -218q27 -12 119 -50.5t146 -61.5zM977 1126q-131 0 -131 -90q0 -62 104 -139q150 54 150 139q0 90 -123 90zM842 389q117 0 227 29q-249 133 -381 225q-80 -29 -118 -59.5t-38 -71.5q0 -123 310 -123z
" />
    <glyph glyph-name="quotesingle" unicode="'" horiz-adv-x="614" 
d="M573 1475l-41 -656h-450l-41 656h532z" />
    <glyph glyph-name="parenleft" unicode="(" horiz-adv-x="1249" 
d="M41 616q0 200 23.5 348t80 265t143 192.5t219.5 125t302.5 70.5t398.5 21v-450q-88 0 -159 -4t-130.5 -14t-104.5 -22.5t-81 -35t-61 -46t-43 -60.5t-29 -73t-17 -89.5t-8 -105t-2 -122.5q0 -90 3.5 -151.5t14.5 -123.5t30 -101t52 -76t79 -57.5t112.5 -37t150 -22.5
t193.5 -6v-451q-229 0 -398.5 21t-302.5 71t-219.5 126t-143 193t-80 265.5t-23.5 349.5z" />
    <glyph glyph-name="parenright" unicode=")" horiz-adv-x="1249" 
d="M1208 616q0 -201 -23.5 -349.5t-80 -265.5t-143 -193t-219.5 -126t-302.5 -71t-398.5 -21v451q110 0 193.5 6t150 22.5t112.5 37t79 57.5t52 76t30 101t14.5 123.5t3.5 151.5q0 71 -2 122.5t-8 105t-17 89.5t-29 73t-43 60.5t-61 46t-81 35t-104.5 22.5t-130.5 14t-159 4
v450q229 0 398.5 -21t302.5 -70.5t219.5 -125t143 -192.5t80 -265t23.5 -348z" />
    <glyph glyph-name="asterisk" unicode="*" horiz-adv-x="1134" 
d="M41 1073l281 115l-281 115l164 282l239 -184l-41 237h328l-41 -237l240 184l164 -282l-281 -115l281 -115l-164 -282l-240 184l41 -238h-328l41 238l-239 -184z" />
    <glyph glyph-name="plus" unicode="+" horiz-adv-x="1802" 
d="M1720 901v-409h-614v-492h-492v492h-532v409h532v492h492v-492h614z" />
    <glyph glyph-name="comma" unicode="," horiz-adv-x="573" 
d="M41 369h491v-369l-231 -451h-219l139 451h-180v369z" />
    <glyph glyph-name="hyphen" unicode="-" horiz-adv-x="1802" 
d="M82 901h1638v-409h-1638v409z" />
    <glyph glyph-name="period" unicode="." horiz-adv-x="573" 
d="M41 369h491v-369h-491v369z" />
    <glyph glyph-name="slash" unicode="/" horiz-adv-x="1126" 
d="M1085 1475l-532 -1782h-512l532 1782h512z" />
    <glyph glyph-name="zero" unicode="0" horiz-adv-x="1720" 
d="M860 -20q-427 0 -633.5 182t-206.5 557q0 373 206.5 554t633.5 181q425 0 632.5 -181.5t207.5 -553.5q0 -374 -207.5 -556.5t-632.5 -182.5zM860 430q91 0 153.5 23t95 65.5t45.5 90.5t13 110t-13 109t-45 89t-94.5 64.5t-154.5 22.5t-154.5 -22.5t-94.5 -64t-45 -89
t-13 -109.5q0 -63 13 -111t45.5 -90.5t95 -65t153.5 -22.5z" />
    <glyph glyph-name="one" unicode="1" horiz-adv-x="1433" 
d="M983 451h410v-451h-1352v451h412l4 464q-56 -49 -106.5 -78.5t-107 -41.5t-93 -14.5t-109.5 -2.5v451q47 0 70.5 0.5t65.5 2t64.5 5t56.5 10.5t52.5 17t40.5 25.5t33 36t19 47.5t8 61h532v-983z" />
    <glyph glyph-name="two" unicode="2" horiz-adv-x="1667" 
d="M1647 1004q0 -95 -39 -168t-103 -117.5t-142.5 -76.5t-161.5 -53t-154.5 -39t-128 -42.5t-76.5 -56.5h784v-451h-1606v246q0 86 37.5 158t100.5 122t145.5 91.5t173 70t181 52.5t173 44.5t145.5 41.5t100.5 47.5t37.5 58.5q0 45 -46 58.5t-183 13.5q-45 0 -68 -0.5
t-59 -2t-55 -5t-44 -9.5t-37.5 -16t-25.5 -24t-18 -33t-5 -44h-532q0 103 20.5 186t57 143.5t93.5 105.5t123 73.5t153.5 45.5t176.5 23.5t199 6.5q155 0 272 -12.5t216 -43.5t162 -82t98 -129t35 -183z" />
    <glyph glyph-name="three" unicode="3" horiz-adv-x="1667" 
d="M1444 717q203 -107 203 -307q0 -100 -35 -174t-98.5 -122.5t-163.5 -78.5t-219.5 -42.5t-276.5 -12.5q-160 0 -279 13.5t-228 50t-178 98.5t-109 162.5t-40 238.5h533q0 -21 5 -37.5t18 -28t25 -20t38.5 -13.5t44.5 -8t56.5 -4.5t61.5 -1.5h72q154 0 197 11t43 63
q0 65 -68.5 77.5t-375.5 12.5v246q307 0 375.5 12.5t68.5 77.5q0 52 -43 63t-197 11h-72t-61.5 -1.5t-56.5 -4.5t-44.5 -8t-38.5 -13.5t-25 -20t-18 -28t-5 -37.5h-533q0 138 40 238.5t109 162.5t178 98.5t228 50t279 13.5q157 0 276.5 -12.5t219.5 -42.5t163.5 -78.5
t98.5 -122.5t35 -174q0 -200 -203 -307z" />
    <glyph glyph-name="four" unicode="4" horiz-adv-x="1748" 
d="M1708 614v-450h-205v-164h-532v164h-930v450l930 820h532v-820h205zM532 614h439v369z" />
    <glyph glyph-name="five" unicode="5" horiz-adv-x="1667" 
d="M1057 932q277 0 433.5 -123.5t156.5 -337.5q0 -260 -196.5 -375.5t-586.5 -115.5q-113 0 -204 6.5t-180.5 23t-157.5 43.5t-126.5 69.5t-96 99.5t-58.5 135t-21 175h533q0 -37 19 -58.5t70.5 -30.5t94 -11t137.5 -2q136 0 188 33.5t52 107.5q0 71 -47.5 105.5
t-165.5 34.5q-180 0 -414 -90l-407 67l184 746h1280v-410h-909l-68 -186q82 29 113 38.5t97.5 26.5t131.5 23t148 6z" />
    <glyph glyph-name="six" unicode="6" horiz-adv-x="1720" 
d="M1036 932q141 0 257.5 -28.5t203 -84t134.5 -144t48 -202.5q0 -493 -778 -493q-438 0 -649 175.5t-211 526.5q0 173 40.5 307.5t110 221t169.5 142t211 78.5t243 23q165 0 323.5 -15.5t242 -30.5t202.5 -40v-410q-13 2 -85 16.5t-94.5 18.5t-86 15t-100.5 15t-94 10.5
t-110 8.5t-108 2q-148 0 -221.5 -47.5t-97.5 -171.5q158 107 450 107zM860 389q113 0 177 19t87 51.5t23 85.5q0 52 -22.5 83.5t-86.5 49.5t-178 18t-178 -17.5t-86.5 -49t-22.5 -84.5t23 -85.5t87 -51.5t177 -19z" />
    <glyph glyph-name="seven" unicode="7" horiz-adv-x="1603" 
d="M41 1434h1522v-451q-172 -85 -302.5 -177.5t-216 -186t-139 -197.5t-76 -205.5t-22.5 -216.5h-533q0 86 5.5 156t21 149.5t42 146.5t71.5 139.5t106.5 136t148.5 129.5t197 126h-825v451z" />
    <glyph glyph-name="eight" unicode="8" horiz-adv-x="1720" 
d="M1391 805q164 -46 236.5 -137.5t72.5 -235.5q0 -114 -40.5 -195t-135.5 -140.5t-259.5 -88t-404.5 -28.5q-241 0 -405.5 28.5t-259.5 87.5t-135 140t-40 196q0 144 73 235.5t237 137.5q-166 90 -166 278q0 130 68 210t221.5 120.5t406.5 40.5q252 0 406 -41t222 -121.5
t68 -208.5q0 -189 -165 -278zM860 1106q-143 0 -194.5 -22t-51.5 -70t51 -70t195 -22t195 22t51 70t-51.5 70t-194.5 22zM860 369q307 0 307 135q0 63 -70.5 97t-236.5 34q-167 0 -237 -33.5t-70 -97.5q0 -65 71 -100t236 -35z" />
    <glyph glyph-name="nine" unicode="9" horiz-adv-x="1679" 
d="M799 1454q438 0 649 -175.5t211 -526.5q0 -173 -40.5 -307.5t-110 -221t-169.5 -142t-211 -78.5t-243 -23q-165 0 -323.5 15.5t-242 30.5t-202.5 40v409q13 -2 85 -16.5t94.5 -18.5t86 -15t100.5 -15t94 -10.5t110 -8.5t108 -2q148 0 221.5 47.5t97.5 171.5
q-156 -106 -450 -106q-190 0 -332.5 49t-227 154t-84.5 256q0 493 779 493zM840 737q114 0 177.5 18t86 49.5t22.5 84.5t-22.5 85.5t-86.5 51t-177 18.5t-177 -18.5t-87 -51t-23 -85.5q0 -52 22.5 -83.5t86.5 -50t178 -18.5z" />
    <glyph glyph-name="colon" unicode=":" horiz-adv-x="573" 
d="M41 983h491v-369h-491v369zM41 369h491v-369h-491v369z" />
    <glyph glyph-name="semicolon" unicode=";" horiz-adv-x="573" 
d="M41 983h491v-369h-491v369zM41 0v369h491v-369l-231 -451h-219l139 451h-180z" />
    <glyph glyph-name="less" unicode="&#x3c;" horiz-adv-x="1617" 
d="M1536 1229v-410l-1090 -123l1090 -123v-409l-1454 205v655z" />
    <glyph glyph-name="equal" unicode="=" horiz-adv-x="1802" 
d="M82 1229h1638v-410h-1638v410zM82 573h1638v-409h-1638v409z" />
    <glyph glyph-name="greater" unicode="&#x3e;" horiz-adv-x="1617" 
d="M82 1229l1454 -205v-655l-1454 -205v409l1092 123l-1092 123v410z" />
    <glyph glyph-name="question" unicode="?" horiz-adv-x="1626" 
d="M985 492h-491q0 86 31 146.5t80 91t109 49t119.5 27.5t108.5 19.5t80 33t31 59.5q0 49 -44 67.5t-155 18.5q-44 0 -66 -0.5t-58 -2.5t-54 -6.5t-41.5 -13.5t-34.5 -22t-19 -32.5t-8 -45.5h-532q0 101 20.5 182.5t56.5 140.5t91.5 103.5t120 72t148 44.5t168 23.5
t188.5 6.5q145 0 256.5 -12.5t207 -42.5t157 -78.5t96 -123t34.5 -173.5q0 -82 -28.5 -145t-76 -102t-105.5 -68t-119.5 -50.5t-115.5 -43t-96.5 -52.5t-58.5 -71zM494 369h491v-369h-491v369z" />
    <glyph glyph-name="at" unicode="@" horiz-adv-x="2430" 
d="M1309 1659q283 0 480 -48.5t322 -153t181.5 -260.5t56.5 -378v-819h-491v131q-151 -145 -455 -151q-102 -1 -185 12t-163 50t-134 97.5t-87 160.5t-33 232q0 111 22 198.5t64 146.5t95.5 100.5t124 64t141 32.5t155.5 11q298 6 450 -143q-6 66 -29 116.5t-62 83.5
t-84.5 55t-106.5 33t-116.5 15t-125.5 4q-378 0 -567 -170.5t-189 -529.5q0 -123 15 -218.5t51.5 -170.5t84 -128.5t127 -91.5t165 -61.5t213.5 -36.5t257 -17.5t310 -4.5l-20 -410q-241 0 -435.5 13t-361.5 42.5t-294 75t-229 112.5t-171 153t-115.5 198.5t-67 246
t-20.5 298.5q0 356 148 606.5t422 377t657 126.5zM1575 389q46 0 73 1t63 4.5t57 11.5t42 21t31.5 33.5t13.5 49.5v45q-3 34 -20.5 57.5t-39.5 36t-62.5 18.5t-72 7.5t-85.5 1.5q-48 0 -76.5 -1t-66 -5.5t-59 -13.5t-42.5 -24.5t-30 -40.5t-9 -59t9 -59t30 -40t42.5 -24.5
t59 -13.5t65.5 -5t77 -1z" />
    <glyph glyph-name="A" unicode="A" horiz-adv-x="2019" 
d="M1413 0l-98 258h-610l-99 -258h-586l594 1434h791l594 -1434h-586zM844 627h332l-166 438z" />
    <glyph glyph-name="B" unicode="B" horiz-adv-x="1839" 
d="M1604 801q99 -71 157 -168t58 -209q0 -91 -27.5 -166.5t-83 -134t-146.5 -91t-210 -32.5h-1311v1434h1249q119 0 203.5 -26t132.5 -76t69 -114t21 -149q0 -137 -112 -268zM573 1085v-155h492q22 0 33.5 0.5t30.5 4.5t29 11.5t18 23.5t8 38t-8 37.5t-18 23t-29 11.5
t-30 4.5t-34 0.5h-492zM1167 389q27 0 42 1.5t36 8t31 23t10 43.5t-10 43.5t-31 23t-36 8t-42 1.5h-594v-152h594z" />
    <glyph glyph-name="C" unicode="C" horiz-adv-x="1837" 
d="M20 719q0 377 216.5 556t685.5 179q435 0 656.5 -158.5t238.5 -494.5h-545q-15 103 -99.5 153t-250.5 50q-92 0 -159.5 -15.5t-107 -40.5t-63 -63.5t-31.5 -77t-8 -88.5t8 -89.5t32 -78.5t63.5 -64.5t107 -41t158.5 -15.5q166 0 250.5 51.5t99.5 155.5h545
q-17 -338 -238.5 -497.5t-656.5 -159.5q-469 0 -685.5 180.5t-216.5 558.5z" />
    <glyph glyph-name="D" unicode="D" horiz-adv-x="1798" 
d="M1106 1434q133 0 251.5 -44.5t213.5 -130.5t151 -226t56 -316t-56 -316t-151 -226t-213.5 -130.5t-251.5 -44.5h-1065v1434h1065zM942 451q49 0 77.5 2t77.5 15.5t76.5 39.5t49.5 79.5t22 129.5t-22 129.5t-49.5 79.5t-76.5 39.5t-77.5 15.5t-77.5 2h-369v-532h369z" />
    <glyph glyph-name="E" unicode="E" horiz-adv-x="1576" 
d="M1556 1024h-983v-133h983v-348h-983v-133h983v-410h-1515v1434h1515v-410z" />
    <glyph glyph-name="F" unicode="F" horiz-adv-x="1576" 
d="M1556 983h-983v-154h861v-450h-861v-379h-532v1434h1515v-451z" />
    <glyph glyph-name="G" unicode="G" horiz-adv-x="1837" 
d="M887 494v286h930v-780h-308l-39 207q-195 -227 -610 -227q-404 0 -622 185t-218 554q0 735 902 735q429 0 653.5 -149t241.5 -443h-545q-17 61 -104.5 101.5t-245.5 40.5q-92 0 -159 -16t-107 -42t-63.5 -66.5t-31.5 -83t-8 -98.5q0 -57 8 -101.5t32 -89t63.5 -73.5
t107 -47t158.5 -18q163 0 249.5 28t100.5 97h-385z" />
    <glyph glyph-name="H" unicode="H" horiz-adv-x="1986" 
d="M1413 1434h533v-1434h-533v492h-840v-492h-532v1434h532v-492h840v492z" />
    <glyph glyph-name="I" unicode="I" horiz-adv-x="614" 
d="M573 1434v-1434h-532v1434h532z" />
    <glyph glyph-name="J" unicode="J" horiz-adv-x="1802" 
d="M1761 1434v-715q0 -375 -210.5 -557t-649.5 -182q-441 0 -650.5 181.5t-209.5 557.5h532q0 -50 8 -89.5t29.5 -78t57 -64.5t95 -41.5t138.5 -15.5q98 0 165.5 23t101.5 65.5t47.5 90.5t13.5 110v264h-465v451h997z" />
    <glyph glyph-name="K" unicode="K" horiz-adv-x="2011" 
d="M1991 1434l-826 -676l826 -758h-738l-458 455l-222 -183v-272h-532v1434h532v-562l660 562h758z" />
    <glyph glyph-name="L" unicode="L" horiz-adv-x="1536" 
d="M573 451h943v-451h-1475v1434h532v-983z" />
    <glyph glyph-name="M" unicode="M" horiz-adv-x="2277" 
d="M2236 1434v-1434h-532v682l-391 -682h-348l-392 682v-682h-532v1434h655l443 -820l442 820h655z" />
    <glyph glyph-name="N" unicode="N" horiz-adv-x="1929" 
d="M1356 1434h532v-1434h-696l-619 846v-846h-532v1434h696l619 -846v846z" />
    <glyph glyph-name="O" unicode="O" horiz-adv-x="1843" 
d="M922 -20q-469 0 -685.5 180.5t-216.5 558.5q0 377 216.5 556t685.5 179q468 0 684.5 -180t216.5 -555q0 -377 -216.5 -558t-684.5 -181zM922 430q91 0 158 16t107 41.5t63.5 64.5t31.5 78t8 89q0 41 -5.5 73.5t-19.5 66.5t-41 59t-66.5 45t-99 30.5t-136.5 10.5
q-92 0 -159.5 -15.5t-107 -40.5t-63 -63.5t-31.5 -77t-8 -88.5t8 -89.5t32 -78.5t63.5 -64.5t107 -41t158.5 -15.5z" />
    <glyph glyph-name="P" unicode="P" horiz-adv-x="1736" 
d="M1167 1434q243 0 396 -154.5t153 -394.5t-153 -394.5t-396 -154.5h-594v-336h-532v1434h1126zM1065 786q27 0 42 2t36 10.5t31 30t10 56.5q0 28 -8 47.5t-18 29.5t-29 15t-30.5 5.5t-33.5 0.5h-492v-197h492z" />
    <glyph glyph-name="Q" unicode="Q" horiz-adv-x="2095" 
d="M2054 139l-377 -377l-282 283q-192 -65 -473 -65q-469 0 -685.5 180.5t-216.5 558.5q0 377 216.5 556t685.5 179q468 0 684.5 -180t216.5 -555q0 -175 -45 -303zM922 430q91 0 158 16t107 41.5t63.5 64.5t31.5 78t8 89q0 41 -5.5 73.5t-19.5 66.5t-41 59t-66.5 45
t-99 30.5t-136.5 10.5q-92 0 -159.5 -15.5t-107 -40.5t-63 -63.5t-31.5 -77t-8 -88.5t8 -89.5t32 -78.5t63.5 -64.5t107 -41t158.5 -15.5z" />
    <glyph glyph-name="R" unicode="R" horiz-adv-x="1736" 
d="M1716 885q0 -156 -67.5 -279.5t-186.5 -193.5l254 -412h-631l-198 336h-314v-336h-532v1434h1126q243 0 396 -154.5t153 -394.5zM573 983v-197h492q27 0 42 2t36 10.5t31 30t10 56.5q0 28 -8 47.5t-18 29.5t-29 15t-30.5 5.5t-33.5 0.5h-492z" />
    <glyph glyph-name="S" unicode="S" horiz-adv-x="1871" 
d="M20 506h533q0 -38 28.5 -62t120.5 -39.5t254 -15.5q156 0 235 8t103.5 22.5t24.5 43.5q0 16 -4.5 26.5t-21 19t-39.5 13.5t-70 9.5t-102.5 6.5t-145.5 5q-199 6 -342 23.5t-251.5 51t-173.5 86t-96.5 126t-31.5 174.5q0 232 220.5 341t653.5 109q215 0 373.5 -27
t272.5 -86t171.5 -156t57.5 -233h-533q0 54 -88 73t-295 19q-97 0 -153 -2.5t-90.5 -10.5t-46 -20t-11.5 -34q0 -37 50.5 -46.5t266.5 -17.5q30 -1 46 -2q163 -7 266 -14.5t220 -25t185.5 -46.5t129.5 -75t87.5 -114.5t26.5 -160.5q0 -117 -39.5 -203t-112 -142
t-188.5 -89.5t-253 -47t-322 -13.5q-154 0 -273 9.5t-225.5 32t-181 61.5t-129 97t-81 139t-26.5 187z" />
    <glyph glyph-name="T" unicode="T" horiz-adv-x="1802" 
d="M1782 1434v-451h-615v-983h-532v983h-615v451h1762z" />
    <glyph glyph-name="U" unicode="U" horiz-adv-x="1884" 
d="M1843 719q0 -377 -216.5 -558t-684.5 -181q-469 0 -685 180.5t-216 558.5v715h532v-715q0 -50 8 -89.5t32 -78.5t63.5 -64.5t107 -41t158.5 -15.5t158.5 16t107 41.5t63.5 64.5t32 78t8 89v715h532v-715z" />
    <glyph glyph-name="V" unicode="V" horiz-adv-x="2019" 
d="M1413 1434h586l-594 -1434h-791l-594 1434h586l404 -1065z" />
    <glyph glyph-name="W" unicode="W" horiz-adv-x="3035" 
d="M2443 1434h572l-471 -1434h-791l-235 825l-236 -825h-790l-472 1434h572l297 -1012l311 1012h635l311 -1012z" />
    <glyph glyph-name="X" unicode="X" horiz-adv-x="2154" 
d="M20 0l678 717l-678 717h697l360 -410l361 410h696l-678 -717l678 -717h-696l-361 410l-360 -410h-697z" />
    <glyph glyph-name="Y" unicode="Y" horiz-adv-x="2031" 
d="M750 471l-730 963h615l381 -533l381 533h614l-729 -963v-471h-532v471z" />
    <glyph glyph-name="Z" unicode="Z" horiz-adv-x="1699" 
d="M1659 1434v-451l-860 -532h860v-451h-1618v451l860 532h-860v451h1618z" />
    <glyph glyph-name="bracketleft" unicode="[" horiz-adv-x="1249" 
d="M1208 1188h-635v-1147h635v-451h-1167v2048h1167v-450z" />
    <glyph glyph-name="backslash" unicode="\" horiz-adv-x="1126" 
d="M41 1475h512l532 -1782h-512z" />
    <glyph glyph-name="bracketright" unicode="]" horiz-adv-x="1249" 
d="M1208 1638v-2048h-1167v451h635v1147h-635v450h1167z" />
    <glyph glyph-name="asciicircum" unicode="^" horiz-adv-x="1804" 
d="M1722 717h-452l-367 692l-371 -692h-450l493 921h656z" />
    <glyph glyph-name="underscore" unicode="_" horiz-adv-x="2211" 
d="M82 -82h2048v-369h-2048v369z" />
    <glyph glyph-name="grave" unicode="`" horiz-adv-x="960" 
d="M879 1638v-286l-797 164v286z" />
    <glyph glyph-name="a" unicode="a" horiz-adv-x="1695" 
d="M860 1249q194 0 337.5 -34.5t247 -109.5t156.5 -199t54 -298v-608h-492v150q-132 -97 -283.5 -133.5t-332.5 -36.5q-109 0 -201.5 20.5t-167 62.5t-116.5 114.5t-42 168.5q0 92 42 164t110.5 116.5t165 73t196.5 39.5t214 11q239 0 415 -64q0 36 -11.5 62.5t-35.5 43
t-50 26.5t-67.5 14.5t-73.5 6t-81 1.5q-269 0 -563 -64l-160 348q384 125 739 125zM1163 401v52q-117 30 -325 30q-177 0 -251.5 -20.5t-74.5 -77.5q0 -48 40.5 -63t141.5 -15q120 0 246.5 26.5t222.5 67.5z" />
    <glyph glyph-name="b" unicode="b" horiz-adv-x="1732" 
d="M1040 1249q101 0 192 -18t181 -63.5t154.5 -115.5t104.5 -182.5t40 -255.5t-40 -255.5t-104.5 -182.5t-154.5 -115t-181 -63t-192 -18q-149 0 -282 46.5t-226 141.5v-168h-491v1638h491v-577q93 95 226 141.5t282 46.5zM877 389q176 0 260 48.5t84 176.5t-84 177t-260 49
t-260.5 -49t-84.5 -177t84.5 -176.5t260.5 -48.5z" />
    <glyph glyph-name="c" unicode="c" horiz-adv-x="1708" 
d="M20 614q0 168 56.5 290.5t166.5 198t261.5 111t351.5 35.5q185 0 329.5 -30.5t252.5 -95t171.5 -169t78.5 -247.5h-502q-28 74 -108.5 103.5t-221.5 29.5q-176 0 -260 -49t-84 -177t84 -176.5t260 -48.5q141 0 221.5 29.5t108.5 103.5h502q-15 -143 -78.5 -247.5
t-171.5 -169t-252.5 -95t-329.5 -30.5q-200 0 -351.5 35.5t-261.5 110.5t-166.5 197.5t-56.5 290.5z" />
    <glyph glyph-name="d" unicode="d" horiz-adv-x="1732" 
d="M1200 1638h492v-1638h-492v168q-93 -95 -226 -141.5t-282 -46.5q-101 0 -192 18t-181 63t-154.5 115t-104.5 182.5t-40 255.5t40 255.5t104.5 182.5t154.5 115.5t181 63.5t192 18q149 0 282 -46.5t226 -141.5v577zM856 389q176 0 260 48.5t84 176.5t-84 177t-260 49
t-260 -49t-84 -177t84 -176.5t260 -48.5z" />
    <glyph glyph-name="e" unicode="e" horiz-adv-x="1708" 
d="M836 369q139 0 208.5 17t141.5 75h481q-46 -245 -249 -363t-582 -118q-147 0 -269.5 22t-225 70.5t-173 121.5t-109.5 179.5t-39 240.5q0 167 59.5 290.5t171 198t262 110.5t343.5 36q156 0 281 -23t230 -75t174.5 -134t108 -204t38.5 -281h-1166q51 -163 314 -163z
M854 901q-119 0 -195.5 -24t-113.5 -99h618q-37 75 -113.5 99t-195.5 24z" />
    <glyph glyph-name="f" unicode="f" horiz-adv-x="1220" 
d="M948 1341q-88 0 -130.5 -26.5t-53.5 -85.5h436v-410h-440v-819h-492v819h-248v410h248v67q0 126 54 204t180.5 118.5t335.5 40.5q175 0 362 -21v-307q-133 10 -252 10z" />
    <glyph glyph-name="g" unicode="g" horiz-adv-x="1732" 
d="M1200 1229h492v-1071q0 -144 -40.5 -258.5t-110 -190.5t-169 -126.5t-212 -72.5t-242.5 -22q-230 0 -433.5 30.5t-334.5 65.5v400q8 -2 66 -13t85.5 -16t88.5 -15.5t105.5 -16.5t103.5 -12.5t116 -9.5t112 -3q97 0 160 14t113.5 53t74.5 112.5t25 188.5
q-168 -205 -528 -205q-145 0 -262.5 35t-205.5 106t-136 186t-48 267t48 267t136 186t205.5 106t262.5 35q360 0 528 -205v185zM856 471q195 0 269.5 40t74.5 144t-74.5 144.5t-269.5 40.5t-269.5 -40.5t-74.5 -144.5t74.5 -144t269.5 -40z" />
    <glyph glyph-name="h" unicode="h" horiz-adv-x="1757" 
d="M1126 1249q590 0 590 -530v-719h-491v518q0 161 -67 231t-230 70q-108 0 -215.5 -42.5t-180.5 -112.5v-664h-491v1638h491v-573q265 184 594 184z" />
    <glyph glyph-name="i" unicode="i" horiz-adv-x="573" 
d="M41 1638h491v-327h-491v327zM41 1229h491v-1229h-491v1229z" />
    <glyph glyph-name="j" unicode="j" horiz-adv-x="931" 
d="M399 1638h492v-327h-492v327zM891 1229v-1174q0 -283 -137 -425t-432 -142q-182 0 -363 31v399q167 -20 252 -20q108 0 148 37t40 139v1155h492z" />
    <glyph glyph-name="k" unicode="k" horiz-adv-x="1888" 
d="M1868 1229l-672 -510l672 -719h-635l-412 463l-289 -211v-252h-491v1638h491v-847l578 438h758z" />
    <glyph glyph-name="l" unicode="l" horiz-adv-x="573" 
d="M41 1638h491v-1638h-491v1638z" />
    <glyph glyph-name="m" unicode="m" horiz-adv-x="2695" 
d="M2146 1249q71 0 136 -12t135 -46t120.5 -88.5t83.5 -148t33 -215.5v-739h-491v518q0 162 -52 231.5t-184 69.5q-176 0 -334 -155v-664h-491v518q0 162 -52 231.5t-184 69.5q-176 0 -334 -155v-664h-491v1229h491v-205q41 38 71.5 63.5t83.5 59t106 53.5t129.5 34.5
t162.5 14.5q63 0 122 -10.5t121 -34t115 -70t87 -110.5q236 225 616 225z" />
    <glyph glyph-name="n" unicode="n" horiz-adv-x="1757" 
d="M1126 1249q590 0 590 -530v-719h-491v518q0 161 -67 231t-230 70q-108 0 -215.5 -42.5t-180.5 -112.5v-664h-491v1229h491v-164q265 184 594 184z" />
    <glyph glyph-name="o" unicode="o" horiz-adv-x="1712" 
d="M856 -20q-200 0 -351.5 35.5t-261.5 110.5t-166.5 197.5t-56.5 290.5t56.5 290.5t166.5 198t261.5 111t351.5 35.5t351.5 -35.5t261.5 -111t166.5 -198t56.5 -290.5t-56.5 -290.5t-166.5 -197.5t-261.5 -110.5t-351.5 -35.5zM856 389q176 0 260 48.5t84 176.5t-84 177
t-260 49t-260 -49t-84 -177t84 -176.5t260 -48.5z" />
    <glyph glyph-name="p" unicode="p" horiz-adv-x="1732" 
d="M1040 1249q101 0 192 -18t181 -63.5t154.5 -115.5t104.5 -182.5t40 -255.5t-40 -255.5t-104.5 -182.5t-154.5 -115t-181 -63t-192 -18q-149 0 -282 46.5t-226 141.5v-680h-491v1741h491v-168q93 95 226 141.5t282 46.5zM877 389q176 0 260 48.5t84 176.5t-84 177t-260 49
t-260.5 -49t-84.5 -177t84.5 -176.5t260.5 -48.5z" />
    <glyph glyph-name="q" unicode="q" horiz-adv-x="1732" 
d="M1200 1229h492v-1741h-492v680q-93 -95 -226 -141.5t-282 -46.5q-101 0 -192 18t-181 63t-154.5 115t-104.5 182.5t-40 255.5t40 255.5t104.5 182.5t154.5 115.5t181 63.5t192 18q149 0 282 -46.5t226 -141.5v168zM856 389q176 0 260 48.5t84 176.5t-84 177t-260 49
t-260 -49t-84 -177t84 -176.5t260 -48.5z" />
    <glyph glyph-name="r" unicode="r" horiz-adv-x="1355" 
d="M1010 1249q157 0 325 -41v-409q-163 41 -297 41q-75 0 -134.5 -6t-128.5 -23t-130.5 -54t-112.5 -93v-664h-491v1229h491v-205q151 225 478 225z" />
    <glyph glyph-name="s" unicode="s" horiz-adv-x="1708" 
d="M20 424h492q0 -37 28.5 -56.5t107 -29.5t226.5 -10q106 0 166.5 2.5t97 10.5t47.5 19.5t11 32.5q0 17 -6 27t-21 17t-46.5 10.5t-74 5.5t-113.5 5q-51 2 -81 3q-116 5 -198 10t-166.5 14.5t-141.5 23t-111.5 33.5t-88 47t-59.5 63t-37 82.5t-11 105.5q0 73 23 132.5
t62 101.5t100 73.5t128.5 50.5t156 31t173.5 16t190 4q104 0 186.5 -4t165 -16t144 -31t116 -50.5t88.5 -74.5t53.5 -102.5t19.5 -134.5h-492q0 46 -57.5 55.5t-243.5 9.5q-206 0 -264 -7t-58 -40q0 -34 49.5 -43.5t254.5 -19.5q38 -2 59 -3q124 -6 197.5 -11.5t169 -17
t150 -27.5t115 -43.5t90.5 -64t50.5 -89.5t20.5 -121q0 -79 -20 -142t-55 -108t-91 -78t-119 -53.5t-148 -32t-169 -16t-191 -4.5q-108 0 -195.5 4.5t-180.5 16.5t-164 32.5t-136 54.5t-107.5 79.5t-67 110.5t-24.5 146z" />
    <glyph glyph-name="t" unicode="t" horiz-adv-x="1282" 
d="M1262 819h-502v-254q0 -91 42 -133.5t146 -42.5q166 0 314 21v-400q-176 -30 -424 -30q-289 0 -429.5 92.5t-140.5 289.5v457h-248v410h248v205l492 122v-327h502v-410z" />
    <glyph glyph-name="u" unicode="u" horiz-adv-x="1757" 
d="M1225 1229h491v-1229h-491v164q-265 -184 -594 -184q-590 0 -590 530v719h491v-518q0 -161 67 -231t230 -70q108 0 215.5 42.5t180.5 112.5v664z" />
    <glyph glyph-name="v" unicode="v" horiz-adv-x="1763" 
d="M1210 1229h533l-512 -1229h-699l-512 1229h533l330 -858z" />
    <glyph glyph-name="w" unicode="w" horiz-adv-x="2768" 
d="M2195 1229h553l-512 -1229h-596l-256 641l-256 -641h-596l-512 1229h553l285 -774l270 774h512l271 -774z" />
    <glyph glyph-name="x" unicode="x" horiz-adv-x="1867" 
d="M20 0l566 614l-566 615h635l279 -359l278 359h635l-565 -615l565 -614h-635l-278 358l-279 -358h-635z" />
    <glyph glyph-name="y" unicode="y" horiz-adv-x="1804" 
d="M1251 1229h533l-699 -1741h-532l205 512h-226l-512 1229h533l356 -854z" />
    <glyph glyph-name="z" unicode="z" horiz-adv-x="1503" 
d="M1462 1229v-410l-704 -409h704v-410h-1421v410l704 409h-704v410h1421z" />
    <glyph glyph-name="braceleft" unicode="{" horiz-adv-x="1249" 
d="M41 371v491h52.5t47.5 1.5t45 4t39 7.5t35.5 12.5t28 18.5t24.5 26.5t16.5 34.5t11.5 44.5t3 55.5q0 102 10 174.5t33 135.5t66.5 104.5t106 73.5t157 49t212.5 25.5t279 8.5v-450q-111 0 -185 -6t-134.5 -22.5t-94.5 -46.5t-51.5 -76t-17.5 -113q0 -59 -13.5 -105
t-38 -74t-51 -46.5t-59.5 -27t-56 -11.5t-48 -3v-82q21 0 40.5 -1.5t47 -8t51 -17.5t48 -31t41 -47.5t27.5 -68.5t11 -92q0 -57 11 -98.5t37.5 -71.5t62 -49t93 -30t122.5 -15t157 -4v-451q-146 0 -256.5 6t-200.5 21t-152.5 35.5t-109 56.5t-74 76t-44 101t-22 125.5
t-5.5 154.5q0 30 -3 55.5t-11.5 44.5t-16.5 34.5t-24.5 26.5t-28 18.5t-35.5 12.5t-39 7.5t-45 4t-47.5 1.5h-52.5z" />
    <glyph glyph-name="bar" unicode="|" horiz-adv-x="655" 
d="M82 1475h491v-1782h-491v1782z" />
    <glyph glyph-name="braceright" unicode="}" horiz-adv-x="1249" 
d="M1208 371h-52.5t-47.5 -1.5t-45 -4t-39 -7.5t-35.5 -12.5t-28 -18.5t-24.5 -26.5t-16.5 -34.5t-11.5 -44.5t-3 -55.5q0 -90 -5.5 -154.5t-22 -125.5t-44 -101t-74 -76t-109 -56.5t-152.5 -35.5t-200.5 -21t-256.5 -6v451q92 0 157 4t122.5 15t93 30t62 49t37.5 71.5
t11 98.5q0 70 21 122t49.5 78.5t68.5 42.5t68.5 19.5t59.5 3.5v82q-31 0 -59.5 4t-68.5 19.5t-68.5 42.5t-49.5 79t-21 122q0 67 -17.5 113t-51.5 76t-94.5 46.5t-134.5 22.5t-185 6v450q161 0 279 -8.5t212.5 -25.5t157 -49t106 -73.5t66.5 -104.5t33 -135.5t10 -174.5
q0 -30 3 -55.5t11.5 -44.5t16.5 -34.5t24.5 -26.5t28 -18.5t35.5 -12.5t39 -7.5t45 -4t47.5 -1.5h52.5v-491z" />
    <glyph glyph-name="asciitilde" unicode="~" horiz-adv-x="1802" 
d="M82 369q0 160 22.5 276.5t74 204t139.5 131t214 43.5q75 0 140.5 -21t114 -51t95 -60.5t104 -51.5t120.5 -21q79 0 121.5 45t42.5 160h450q0 -160 -22.5 -276.5t-74 -204t-139.5 -131t-214 -43.5q-75 0 -140.5 21t-114 51t-95 60t-104 51t-120.5 21q-79 0 -121.5 -44.5
t-42.5 -159.5h-450z" />
    <glyph glyph-name="exclamdown" unicode="&#xa1;" horiz-adv-x="614" 
d="M61 860v369h492v-369h-492zM573 -205h-532l20 942h492z" />
    <glyph glyph-name="cent" unicode="&#xa2;" horiz-adv-x="1830" 
d="M1059 500q152 25 188 125h502q-52 -493 -690 -539v-291h-246v289q-175 10 -308 50.5t-229 116t-145 192.5t-49 274t49 274t145 192.5t229 116t308 50.5v288h246v-290q638 -46 690 -539h-502q-36 100 -188 125v-434zM573 717q0 -108 59.5 -158t180.5 -63v442
q-121 -13 -180.5 -63t-59.5 -158z" />
    <glyph glyph-name="sterling" unicode="&#xa3;" horiz-adv-x="1679" 
d="M1112 1208q-174 0 -236.5 -75.5t-44.5 -229.5h529v-246h-500q2 -66 -7.5 -118.5t-27 -90t-52 -74.5t-68.5 -63.5t-91 -64.5h983v-451h-1515v451q122 96 147 120q74 71 93 156q13 55 10 135h-250v246h221q-28 191 -2.5 332.5t109.5 236t234 141t372 46.5
q146 0 271.5 -14.5t309.5 -47.5v-450q-165 33 -271 47t-214 14z" />
    <glyph glyph-name="currency" unicode="&#xa4;" horiz-adv-x="1835" 
d="M1753 717q0 -303 -182 -459l178 -178l-174 -174l-232 231q-177 -55 -425 -55q-233 0 -394 47l-223 -223l-174 174l162 162q-207 153 -207 475t207 475l-162 162l174 174l223 -223q161 47 394 47q245 0 425 -56l232 232l174 -174l-178 -178q182 -156 182 -459zM573 717
q0 -128 84.5 -176.5t260.5 -48.5t260 48.5t84 176.5t-84 176.5t-260 48.5t-260.5 -48.5t-84.5 -176.5z" />
    <glyph glyph-name="yen" unicode="&#xa5;" horiz-adv-x="2154" 
d="M2073 1638l-652 -860h461v-246h-539v-122h539v-246h-539v-369h-532v369h-535v246h535v122h-535v246h457l-651 860h614l381 -532l381 532h615z" />
    <glyph glyph-name="brokenbar" unicode="&#xa6;" horiz-adv-x="655" 
d="M82 1475h491v-707h-491v707zM82 399h491v-706h-491v706z" />
    <glyph glyph-name="section" unicode="&#xa7;" horiz-adv-x="1720" 
d="M1485 410q153 -106 153 -287q0 -82 -22.5 -148t-61.5 -112.5t-98 -81t-124 -55t-149 -33t-162.5 -17t-174.5 -4.5q-95 0 -171.5 4.5t-154 16t-136.5 31t-111.5 51t-85.5 74.5t-52.5 103t-19.5 134h491q0 -32 13 -50t53 -25.5t75.5 -9t118.5 -1.5q175 0 228 13t53 75
q0 24 -4.5 39.5t-21 28.5t-38.5 20t-67.5 12.5t-96 8.5t-135.5 6q-156 6 -272 28.5t-190 56.5t-119 85t-62.5 107.5t-17.5 129.5q0 153 115 314q-156 108 -156 284q0 82 22.5 148t61.5 112.5t98 81t124 55t149 33t162.5 17t174.5 4.5q112 0 199 -6.5t174 -22t149 -45.5
t111.5 -75t74 -111.5t24.5 -153.5h-492q0 32 -13 50t-53 25.5t-75.5 9t-118.5 1.5q-175 0 -228 -13t-53 -75q0 -24 4.5 -39.5t21 -28.5t38.5 -20t67.5 -12.5t96 -8.5t135.5 -6q156 -6 272 -28.5t190 -56.5t119 -85t62.5 -107.5t17.5 -129.5q0 -151 -112 -311zM825 571
q190 -12 330 -39q25 41 33 73.5t4.5 55t-24 39.5t-44 27t-65 17t-76.5 10t-88 6q-178 9 -334 41l4 -2q-25 -41 -33 -73.5t-4.5 -55t24 -39.5t44 -27t65 -17t76.5 -10t88 -6z" />
    <glyph glyph-name="dieresis" unicode="&#xa8;" horiz-adv-x="1105" 
d="M82 1741h410v-369h-410v369zM614 1741h410v-369h-410v369z" />
    <glyph glyph-name="copyright" unicode="&#xa9;" horiz-adv-x="2222" 
d="M1112 -225q-198 0 -365 47t-288.5 132.5t-207 203t-127.5 259.5t-42 302t42 301.5t127.5 258.5t207 201.5t288.5 131.5t365 47q247 0 444 -72t323.5 -199.5t193.5 -298t67 -370.5q0 -160 -41.5 -302t-126.5 -259.5t-206.5 -203t-288.5 -132.5t-365 -47zM1112 20
q372 0 577 177.5t205 521.5t-204 519t-578 175t-579 -175.5t-205 -518.5q0 -344 206 -521.5t578 -177.5zM518 717q0 236 153 344t443 108q551 0 592 -387h-358q-19 53 -76.5 74t-157.5 21q-127 0 -186.5 -34t-59.5 -126t59.5 -126t186.5 -34q100 0 157.5 20.5t76.5 73.5h358
q-41 -387 -592 -387q-290 0 -443 108.5t-153 344.5z" />
    <glyph glyph-name="guillemotleft" unicode="&#xab;" horiz-adv-x="2129" 
d="M573 1229h676l-532 -615l532 -614h-676l-532 614zM1413 1229h676l-533 -615l533 -614h-676l-532 614z" />
    <glyph glyph-name="logicalnot" unicode="&#xac;" horiz-adv-x="1802" 
d="M1720 901v-778h-491v369h-1147v409h1638z" />
    <glyph glyph-name="registered" unicode="&#xae;" horiz-adv-x="1540" 
d="M770 1659q169 0 301 -46t216 -129t127.5 -195.5t43.5 -248.5t-43.5 -248.5t-127.5 -195.5t-216 -128.5t-301 -45.5t-301 45.5t-216 128.5t-127.5 195.5t-43.5 248.5t43.5 248.5t127.5 195.5t216 129t301 46zM770 668q442 0 442 372q0 373 -442 373t-442 -373
q0 -372 442 -372zM1067 1094q0 -104 -82 -154l82 -133h-205l-63 108h-103v-108h-174v465h367q79 0 128.5 -50t49.5 -128zM696 1126v-63h160q11 0 17.5 1t14 8.5t7.5 21.5q0 12 -3.5 19t-10.5 9.5t-11.5 3t-13.5 0.5h-160z" />
    <glyph glyph-name="macron" unicode="&#xaf;" horiz-adv-x="1124" 
d="M82 1659h960v-287h-960v287z" />
    <glyph glyph-name="degree" unicode="&#xb0;" horiz-adv-x="1415" 
d="M707 530q-137 0 -244 29t-178 79.5t-117 123t-66 155t-20 179.5t20 178.5t66 153.5t117 122.5t178 79.5t244 29t244.5 -29t178.5 -79.5t117.5 -122.5t66 -153.5t19.5 -178.5t-19.5 -179.5t-66 -155t-117.5 -123t-178.5 -79.5t-244.5 -29zM707 940q56 0 82 9.5t39.5 43
t13.5 103.5q0 53 -6 83.5t-24 46t-40 19.5t-65 4q-56 0 -81 -8.5t-39 -41.5t-14 -103q0 -53 6 -84t24 -47t40.5 -20.5t63.5 -4.5z" />
    <glyph glyph-name="plusminus" unicode="&#xb1;" horiz-adv-x="1802" 
d="M1106 1167h614v-409h-614v-266h-492v266h-532v409h532v267h492v-267zM82 0v410h1638v-410h-1638z" />
    <glyph glyph-name="acute" unicode="&#xb4;" horiz-adv-x="960" 
d="M82 1638l797 164v-286l-797 -164v286z" />
    <glyph glyph-name="paragraph" unicode="&#xb6;" horiz-adv-x="1918" 
d="M694 1475h492v-1782h-492v880q-60 0 -92 0.5t-91.5 4.5t-94.5 11.5t-86 23t-81.5 37.5t-66 56.5t-55 78.5t-32.5 105t-13 134t13 134t32.5 105t55 78.5t66 56.5t81.5 37.5t86 23t94.5 11.5t91.5 4.5t92 0.5zM1346 1475h491v-1782h-491v1782z" />
    <glyph glyph-name="periodcentered" unicode="&#xb7;" horiz-adv-x="573" 
d="M41 840h491v-369h-491v369z" />
    <glyph glyph-name="cedilla" unicode="&#xb8;" horiz-adv-x="811" 
d="M371 -94q53 16 109.5 20.5t115 -4.5t96 -49.5t37.5 -110.5q0 -68 -37.5 -117.5t-99.5 -77t-146.5 -40.5t-175 -11.5t-188.5 13.5v186q360 -52 360 66q0 39 -46.5 47t-166.5 -18l-120 118l38 72h263z" />
    <glyph glyph-name="guillemotright" unicode="&#xbb;" horiz-adv-x="2129" 
d="M717 1229l532 -615l-532 -614h-676l532 614l-532 615h676zM1556 1229l533 -615l-533 -614h-675l532 614l-532 615h675z" />
    <glyph glyph-name="questiondown" unicode="&#xbf;" horiz-adv-x="1626" 
d="M1133 860h-492v369h492v-369zM641 737h492q0 -86 -31 -146.5t-80.5 -91t-109 -49t-119 -27.5t-109 -19.5t-80.5 -33t-31 -59.5q0 -49 44 -67.5t155 -18.5q44 0 66 0.5t58 2.5t54 6.5t41.5 13.5t34.5 22t19 32.5t8 45.5h532q0 -101 -20.5 -182.5t-56.5 -140.5
t-91.5 -103.5t-119.5 -72t-147.5 -44.5t-168 -23.5t-188.5 -6.5q-145 0 -257 12.5t-207 42.5t-157 78.5t-96.5 123t-34.5 173.5q0 82 28.5 145t76 102t105.5 68t119.5 50.5t115.5 43t96.5 52.5t58.5 71z" />
    <glyph glyph-name="Agrave" unicode="&#xc0;" horiz-adv-x="2019" 
d="M1407 1843v-287l-797 164v287zM1413 0l-98 258h-610l-99 -258h-586l594 1434h791l594 -1434h-586zM844 627h332l-166 438z" />
    <glyph glyph-name="Aacute" unicode="&#xc1;" horiz-adv-x="2019" 
d="M1407 2007v-287l-797 -164v287zM1413 0l-98 258h-610l-99 -258h-586l594 1434h791l594 -1434h-586zM844 627h332l-166 438z" />
    <glyph glyph-name="Acircumflex" unicode="&#xc2;" horiz-adv-x="2019" 
d="M1434 1556l-424 164l-424 -164v287l424 164l424 -164v-287zM1413 0l-98 258h-610l-99 -258h-586l594 1434h791l594 -1434h-586zM844 627h332l-166 438z" />
    <glyph glyph-name="Atilde" unicode="&#xc3;" horiz-adv-x="2019" 
d="M887 1700q-56 0 -79.5 -30t-23.5 -93h-368q0 82 14.5 154.5t46 136.5t89 101.5t136.5 37.5q71 0 132.5 -22.5t98.5 -49t90.5 -49t109.5 -22.5q55 0 78.5 30t23.5 93h369q0 -65 -8.5 -124t-29.5 -116t-53 -98.5t-82.5 -67t-113.5 -25.5q-58 0 -108.5 15t-86.5 36t-70 42
t-76 36t-89 15zM1413 0l-98 258h-610l-99 -258h-586l594 1434h791l594 -1434h-586zM844 627h332l-166 438z" />
    <glyph glyph-name="Adieresis" unicode="&#xc4;" horiz-adv-x="2019" 
d="M948 1946v-369h-409v369h409zM1481 1946v-369h-410v369h410zM1413 0l-98 258h-610l-99 -258h-586l594 1434h791l594 -1434h-586zM844 627h332l-166 438z" />
    <glyph glyph-name="Aring" unicode="&#xc5;" horiz-adv-x="2019" 
d="M1010 1556q-126 0 -211.5 18t-133 54.5t-66.5 84t-19 114.5t19 114.5t66.5 84t132.5 54t212 17.5t212 -17.5t132.5 -54t66.5 -84t19 -114.5t-19 -114.5t-66.5 -84t-133 -54.5t-211.5 -18zM1010 1913q-36 0 -58 -1t-49 -5.5t-42 -13.5t-25.5 -25.5t-10.5 -40.5t10.5 -40.5
t25.5 -25.5t42 -13.5t49 -5.5t58 -1q45 0 71.5 2t56 10t43 26.5t13.5 47.5t-13.5 47.5t-43 26.5t-56 10t-71.5 2zM1413 0l-98 258h-610l-99 -258h-586l594 1434h791l594 -1434h-586zM844 627h332l-166 438z" />
    <glyph glyph-name="AE" unicode="&#xc6;" horiz-adv-x="2732" 
d="M2712 1024h-983v-133h983v-348h-983v-133h983v-410h-1516v256h-494l-96 -256h-586l594 1434h2098v-410zM1196 1044h-195l-157 -417h352v417z" />
    <glyph glyph-name="Ccedilla" unicode="&#xc7;" horiz-adv-x="1837" 
d="M922 430q166 0 250.5 51.5t99.5 155.5h545q-15 -312 -205.5 -471.5t-562.5 -181.5l-33 -78q53 16 109.5 20.5t115 -4.5t96 -49.5t37.5 -110.5q0 -68 -37.5 -117.5t-99.5 -77t-146.5 -40.5t-175 -11.5t-188.5 13.5v186q360 -52 360 66q0 39 -46.5 47t-166.5 -18l-120 118
l30 56q-396 26 -580 206t-184 529q0 377 216.5 556t685.5 179q435 0 656.5 -158.5t238.5 -494.5h-545q-15 103 -99.5 153t-250.5 50q-92 0 -159.5 -15.5t-107 -40.5t-63 -63.5t-31.5 -77t-8 -88.5t8 -89.5t32 -78.5t63.5 -64.5t107 -41t158.5 -15.5z" />
    <glyph glyph-name="Egrave" unicode="&#xc8;" horiz-adv-x="1576" 
d="M1196 1843v-287l-797 164v287zM1556 1024h-983v-133h983v-348h-983v-133h983v-410h-1515v1434h1515v-410z" />
    <glyph glyph-name="Eacute" unicode="&#xc9;" horiz-adv-x="1576" 
d="M1196 2007v-287l-797 -164v287zM1556 1024h-983v-133h983v-348h-983v-133h983v-410h-1515v1434h1515v-410z" />
    <glyph glyph-name="Ecircumflex" unicode="&#xca;" horiz-adv-x="1576" 
d="M1223 1556l-424 164l-424 -164v287l424 164l424 -164v-287zM1556 1024h-983v-133h983v-348h-983v-133h983v-410h-1515v1434h1515v-410z" />
    <glyph glyph-name="Edieresis" unicode="&#xcb;" horiz-adv-x="1576" 
d="M737 1946v-369h-409v369h409zM1270 1946v-369h-410v369h410zM1556 1024h-983v-133h983v-348h-983v-133h983v-410h-1515v1434h1515v-410z" />
    <glyph glyph-name="Igrave" unicode="&#xcc;" horiz-adv-x="614" 
d="M705 1843v-287l-797 164v287zM573 1434v-1434h-532v1434h532z" />
    <glyph glyph-name="Iacute" unicode="&#xcd;" horiz-adv-x="614" 
d="M-92 1843l797 164v-287l-797 -164v287zM573 1434v-1434h-532v1434h532z" />
    <glyph glyph-name="Icircumflex" unicode="&#xce;" horiz-adv-x="614" 
d="M307 2007l424 -164v-287l-424 164l-424 -164v287zM41 0v1434h532v-1434h-532z" />
    <glyph glyph-name="Idieresis" unicode="&#xcf;" horiz-adv-x="614" 
d="M-164 1946h410v-369h-410v369zM369 1946h409v-369h-409v369zM573 1434v-1434h-532v1434h532z" />
    <glyph glyph-name="Eth" unicode="&#xd0;" horiz-adv-x="1968" 
d="M1255 1434q133 0 251.5 -44.5t213.5 -130.5t151 -226t56 -316t-56 -316t-151 -226t-213.5 -130.5t-251.5 -44.5h-1065v573h-149v287h149v574h1065zM1092 451q49 0 77.5 2t77.5 15.5t76.5 39.5t49.5 79.5t22 129.5t-22 129.5t-49.5 79.5t-76.5 39.5t-77.5 15.5t-77.5 2
h-369v-123h301v-287h-301v-122h369z" />
    <glyph glyph-name="Ntilde" unicode="&#xd1;" horiz-adv-x="1929" 
d="M842 1700q-56 0 -79.5 -30t-23.5 -93h-368q0 82 14.5 154.5t46 136.5t89 101.5t136.5 37.5q71 0 132.5 -22.5t98 -49t90 -49t109.5 -22.5t79.5 30t23.5 93h369q0 -65 -8.5 -124t-29.5 -116t-53 -98.5t-82.5 -67t-113.5 -25.5q-58 0 -108.5 15t-86.5 36t-70 42t-76 36
t-89 15zM1356 1434h532v-1434h-696l-619 846v-846h-532v1434h696l619 -846v846z" />
    <glyph glyph-name="Ograve" unicode="&#xd2;" horiz-adv-x="1843" 
d="M1319 1843v-287l-797 164v287zM922 -20q-469 0 -685.5 180.5t-216.5 558.5q0 377 216.5 556t685.5 179q468 0 684.5 -180t216.5 -555q0 -377 -216.5 -558t-684.5 -181zM922 430q91 0 158 16t107 41.5t63.5 64.5t31.5 78t8 89q0 41 -5.5 73.5t-19.5 66.5t-41 59t-66.5 45
t-99 30.5t-136.5 10.5q-92 0 -159.5 -15.5t-107 -40.5t-63 -63.5t-31.5 -77t-8 -88.5t8 -89.5t32 -78.5t63.5 -64.5t107 -41t158.5 -15.5z" />
    <glyph glyph-name="Oacute" unicode="&#xd3;" horiz-adv-x="1843" 
d="M522 1843l797 164v-287l-797 -164v287zM922 -20q-469 0 -685.5 180.5t-216.5 558.5q0 377 216.5 556t685.5 179q468 0 684.5 -180t216.5 -555q0 -377 -216.5 -558t-684.5 -181zM922 430q91 0 158 16t107 41.5t63.5 64.5t31.5 78t8 89q0 41 -5.5 73.5t-19.5 66.5t-41 59
t-66.5 45t-99 30.5t-136.5 10.5q-92 0 -159.5 -15.5t-107 -40.5t-63 -63.5t-31.5 -77t-8 -88.5t8 -89.5t32 -78.5t63.5 -64.5t107 -41t158.5 -15.5z" />
    <glyph glyph-name="Ocircumflex" unicode="&#xd4;" horiz-adv-x="1843" 
d="M1346 1556l-424 164l-424 -164v287l424 164l424 -164v-287zM922 1454q468 0 684.5 -180t216.5 -555q0 -377 -216.5 -558t-684.5 -181q-469 0 -685.5 180.5t-216.5 558.5q0 377 216.5 556t685.5 179zM922 430q91 0 158 16t107 41.5t63.5 64.5t31.5 78t8 89q0 41 -5.5 73.5
t-19.5 66.5t-41 59t-66.5 45t-99 30.5t-136.5 10.5q-92 0 -159.5 -15.5t-107 -40.5t-63 -63.5t-31.5 -77t-8 -88.5t8 -89.5t32 -78.5t63.5 -64.5t107 -41t158.5 -15.5z" />
    <glyph glyph-name="Otilde" unicode="&#xd5;" horiz-adv-x="1843" 
d="M328 1577q0 82 14.5 154.5t46 136.5t89 101.5t136.5 37.5q71 0 132.5 -22.5t98 -49t90 -49t109.5 -22.5t79.5 30t23.5 93h369q0 -65 -8.5 -124t-29.5 -116t-53 -98.5t-82.5 -67t-113.5 -25.5q-58 0 -108.5 15t-86.5 36t-70 42t-76 36t-89 15q-56 0 -79.5 -30t-23.5 -93
h-368zM922 -20q-469 0 -685.5 180.5t-216.5 558.5q0 377 216.5 556t685.5 179q468 0 684.5 -180t216.5 -555q0 -377 -216.5 -558t-684.5 -181zM922 430q91 0 158 16t107 41.5t63.5 64.5t31.5 78t8 89q0 41 -5.5 73.5t-19.5 66.5t-41 59t-66.5 45t-99 30.5t-136.5 10.5
q-92 0 -159.5 -15.5t-107 -40.5t-63 -63.5t-31.5 -77t-8 -88.5t8 -89.5t32 -78.5t63.5 -64.5t107 -41t158.5 -15.5z" />
    <glyph glyph-name="Odieresis" unicode="&#xd6;" horiz-adv-x="1843" 
d="M451 1946h409v-369h-409v369zM983 1946h410v-369h-410v369zM922 -20q-469 0 -685.5 180.5t-216.5 558.5q0 377 216.5 556t685.5 179q468 0 684.5 -180t216.5 -555q0 -377 -216.5 -558t-684.5 -181zM922 430q91 0 158 16t107 41.5t63.5 64.5t31.5 78t8 89q0 41 -5.5 73.5
t-19.5 66.5t-41 59t-66.5 45t-99 30.5t-136.5 10.5q-92 0 -159.5 -15.5t-107 -40.5t-63 -63.5t-31.5 -77t-8 -88.5t8 -89.5t32 -78.5t63.5 -64.5t107 -41t158.5 -15.5z" />
    <glyph glyph-name="multiply" unicode="&#xd7;" horiz-adv-x="1787" 
d="M1706 909l-403 -233l401 -232l-205 -354l-604 350l-606 -350l-205 354l401 232l-403 233l205 355l608 -351l606 351z" />
    <glyph glyph-name="Oslash" unicode="&#xd8;" horiz-adv-x="1843" 
d="M1305 1415q266 -64 392 -236t126 -460q0 -377 -216.5 -558t-684.5 -181h-48l-45 -154h-348l58 192q-266 64 -392.5 237.5t-126.5 463.5q0 377 216.5 556t685.5 179h47l45 154h348zM553 719q0 -179 123 -242l155 522q-85 -9 -142.5 -34.5t-85.5 -65.5t-39 -82t-11 -98z
M1012 434q84 9 141 35t86 67t40 84t11 99q0 174 -123 239z" />
    <glyph glyph-name="Ugrave" unicode="&#xd9;" horiz-adv-x="1884" 
d="M1339 1843v-287l-796 164v287zM1843 719q0 -377 -216.5 -558t-684.5 -181q-469 0 -685 180.5t-216 558.5v715h532v-715q0 -50 8 -89.5t32 -78.5t63.5 -64.5t107 -41t158.5 -15.5t158.5 16t107 41.5t63.5 64.5t32 78t8 89v715h532v-715z" />
    <glyph glyph-name="Uacute" unicode="&#xda;" horiz-adv-x="1884" 
d="M543 1843l796 164v-287l-796 -164v287zM1843 719q0 -377 -216.5 -558t-684.5 -181q-469 0 -685 180.5t-216 558.5v715h532v-715q0 -50 8 -89.5t32 -78.5t63.5 -64.5t107 -41t158.5 -15.5t158.5 16t107 41.5t63.5 64.5t32 78t8 89v715h532v-715z" />
    <glyph glyph-name="Ucircumflex" unicode="&#xdb;" horiz-adv-x="1884" 
d="M1366 1556l-424 164l-424 -164v287l424 164l424 -164v-287zM1311 1434h532v-715q0 -377 -216.5 -558t-684.5 -181q-469 0 -685 180.5t-216 558.5v715h532v-715q0 -50 8 -89.5t32 -78.5t63.5 -64.5t107 -41t158.5 -15.5t158.5 16t107 41.5t63.5 64.5t32 78t8 89v715z" />
    <glyph glyph-name="Udieresis" unicode="&#xdc;" horiz-adv-x="1884" 
d="M471 1946h410v-369h-410v369zM1004 1946h409v-369h-409v369zM1843 719q0 -377 -216.5 -558t-684.5 -181q-469 0 -685 180.5t-216 558.5v715h532v-715q0 -50 8 -89.5t32 -78.5t63.5 -64.5t107 -41t158.5 -15.5t158.5 16t107 41.5t63.5 64.5t32 78t8 89v715h532v-715z" />
    <glyph glyph-name="Yacute" unicode="&#xdd;" horiz-adv-x="2031" 
d="M616 1843l797 164v-287l-797 -164v287zM750 471l-730 963h615l381 -533l381 533h614l-729 -963v-471h-532v471z" />
    <glyph glyph-name="Thorn" unicode="&#xde;" horiz-adv-x="1736" 
d="M1167 1266q243 0 396 -154.5t153 -394.5t-153 -394.5t-396 -154.5h-594v-168h-532v1434h532v-168h594zM1065 618q27 0 42 2t36 10.5t31 30t10 56.5q0 28 -8 47.5t-18 29.5t-29 15t-30.5 5.5t-33.5 0.5h-492v-197h492z" />
    <glyph glyph-name="germandbls" unicode="&#xdf;" horiz-adv-x="1687" 
d="M1327 819q164 -39 252 -135.5t88 -273.5q0 -69 -13 -123.5t-43 -96.5t-68.5 -72t-101.5 -51.5t-129 -34.5t-162.5 -20t-191.5 -9.5t-227 -2.5v410q102 0 170 1.5t120 6.5t80.5 11.5t46 19t23 26.5t5.5 37t-5.5 37t-23 26.5t-46 19t-80.5 11.5t-120 6.5t-170 1.5v246
q130 0 174.5 18t44.5 76q0 90 -157 90q-35 0 -52 -0.5t-50 -3t-50.5 -8t-41.5 -16.5t-36.5 -27t-21.5 -41t-9 -57v-891h-491v891q0 100 17 179t48.5 138t82 101.5t111 70.5t143 44.5t170.5 23t200 6.5q148 0 260 -19.5t196.5 -62.5t128.5 -117.5t44 -179.5q0 -144 -115 -256
z" />
    <glyph glyph-name="agrave" unicode="&#xe0;" horiz-adv-x="1695" 
d="M1272 1638v-286l-797 164v286zM860 1249q194 0 337.5 -34.5t247 -109.5t156.5 -199t54 -298v-608h-492v150q-132 -97 -283.5 -133.5t-332.5 -36.5q-109 0 -201.5 20.5t-167 62.5t-116.5 114.5t-42 168.5q0 92 42 164t110.5 116.5t165 73t196.5 39.5t214 11q239 0 415 -64
q0 36 -11.5 62.5t-35.5 43t-50 26.5t-67.5 14.5t-73.5 6t-81 1.5q-269 0 -563 -64l-160 348q384 125 739 125zM1163 401v52q-117 30 -325 30q-177 0 -251.5 -20.5t-74.5 -77.5q0 -48 40.5 -63t141.5 -15q120 0 246.5 26.5t222.5 67.5z" />
    <glyph glyph-name="aacute" unicode="&#xe1;" horiz-adv-x="1695" 
d="M1272 1802v-286l-797 -164v286zM860 1249q194 0 337.5 -34.5t247 -109.5t156.5 -199t54 -298v-608h-492v150q-132 -97 -283.5 -133.5t-332.5 -36.5q-109 0 -201.5 20.5t-167 62.5t-116.5 114.5t-42 168.5q0 92 42 164t110.5 116.5t165 73t196.5 39.5t214 11
q239 0 415 -64q0 36 -11.5 62.5t-35.5 43t-50 26.5t-67.5 14.5t-73.5 6t-81 1.5q-269 0 -563 -64l-160 348q384 125 739 125zM1163 401v52q-117 30 -325 30q-177 0 -251.5 -20.5t-74.5 -77.5q0 -48 40.5 -63t141.5 -15q120 0 246.5 26.5t222.5 67.5z" />
    <glyph glyph-name="acircumflex" unicode="&#xe2;" horiz-adv-x="1695" 
d="M1298 1352l-424 164l-423 -164v286l423 164l424 -164v-286zM860 1249q194 0 337.5 -34.5t247 -109.5t156.5 -199t54 -298v-608h-492v150q-132 -97 -283.5 -133.5t-332.5 -36.5q-109 0 -201.5 20.5t-167 62.5t-116.5 114.5t-42 168.5q0 92 42 164t110.5 116.5t165 73
t196.5 39.5t214 11q239 0 415 -64q0 36 -11.5 62.5t-35.5 43t-50 26.5t-67.5 14.5t-73.5 6t-81 1.5q-269 0 -563 -64l-160 348q384 125 739 125zM1163 401v52q-117 30 -325 30q-177 0 -251.5 -20.5t-74.5 -77.5q0 -48 40.5 -63t141.5 -15q120 0 246.5 26.5t222.5 67.5z" />
    <glyph glyph-name="atilde" unicode="&#xe3;" horiz-adv-x="1695" 
d="M752 1495q-56 0 -79.5 -30t-23.5 -93h-368q0 82 14.5 154.5t46 136.5t89 101.5t136.5 37.5q71 0 132.5 -22.5t98 -49t90 -49t109.5 -22.5t79.5 30t23.5 93h368q0 -82 -14.5 -154.5t-46 -136.5t-89 -101.5t-136.5 -37.5q-71 0 -132.5 22.5t-98 49t-90 49t-109.5 22.5z
M860 1249q194 0 337.5 -34.5t247 -109.5t156.5 -199t54 -298v-608h-492v150q-132 -97 -283.5 -133.5t-332.5 -36.5q-109 0 -201.5 20.5t-167 62.5t-116.5 114.5t-42 168.5q0 92 42 164t110.5 116.5t165 73t196.5 39.5t214 11q239 0 415 -64q0 36 -11.5 62.5t-35.5 43
t-50 26.5t-67.5 14.5t-73.5 6t-81 1.5q-269 0 -563 -64l-160 348q384 125 739 125zM1163 401v52q-117 30 -325 30q-177 0 -251.5 -20.5t-74.5 -77.5q0 -48 40.5 -63t141.5 -15q120 0 246.5 26.5t222.5 67.5z" />
    <glyph glyph-name="adieresis" unicode="&#xe4;" horiz-adv-x="1695" 
d="M813 1741v-369h-410v369h410zM1346 1741v-369h-410v369h410zM860 1249q194 0 337.5 -34.5t247 -109.5t156.5 -199t54 -298v-608h-492v150q-132 -97 -283.5 -133.5t-332.5 -36.5q-109 0 -201.5 20.5t-167 62.5t-116.5 114.5t-42 168.5q0 92 42 164t110.5 116.5t165 73
t196.5 39.5t214 11q239 0 415 -64q0 36 -11.5 62.5t-35.5 43t-50 26.5t-67.5 14.5t-73.5 6t-81 1.5q-269 0 -563 -64l-160 348q384 125 739 125zM1163 401v52q-117 30 -325 30q-177 0 -251.5 -20.5t-74.5 -77.5q0 -48 40.5 -63t141.5 -15q120 0 246.5 26.5t222.5 67.5z" />
    <glyph glyph-name="aring" unicode="&#xe5;" horiz-adv-x="1695" 
d="M874 1352q-127 0 -212 17.5t-132.5 54t-66.5 84t-19 114.5t19 114.5t66.5 84t132.5 54t212 17.5t212.5 -17.5t132.5 -54t66.5 -84t19.5 -114.5t-19.5 -114.5t-66.5 -84t-132.5 -54t-212.5 -17.5zM874 1708q-45 0 -71.5 -2t-56 -10t-43 -26.5t-13.5 -47.5t13.5 -47.5
t43 -26.5t56 -10t71.5 -2q36 0 58 1t49 5.5t42 13.5t25.5 25.5t10.5 40.5t-10.5 40.5t-25.5 25.5t-42 13.5t-49 5.5t-58 1zM860 1249q194 0 337.5 -34.5t247 -109.5t156.5 -199t54 -298v-608h-492v150q-132 -97 -283.5 -133.5t-332.5 -36.5q-109 0 -201.5 20.5t-167 62.5
t-116.5 114.5t-42 168.5q0 92 42 164t110.5 116.5t165 73t196.5 39.5t214 11q239 0 415 -64q0 36 -11.5 62.5t-35.5 43t-50 26.5t-67.5 14.5t-73.5 6t-81 1.5q-269 0 -563 -64l-160 348q384 125 739 125zM1163 401v52q-117 30 -325 30q-177 0 -251.5 -20.5t-74.5 -77.5
q0 -48 40.5 -63t141.5 -15q120 0 246.5 26.5t222.5 67.5z" />
    <glyph glyph-name="ae" unicode="&#xe6;" horiz-adv-x="2910" 
d="M2038 369q139 0 208.5 17t141.5 75h481q-46 -245 -249 -363t-582 -118q-437 0 -641 190q-141 -92 -344 -141t-443 -49q-133 0 -238 20t-185.5 62.5t-123.5 114.5t-43 169q0 92 42 164t110.5 116.5t165 73t196.5 39.5t214 11q239 0 415 -64q0 36 -11.5 62.5t-35.5 43
t-50 26.5t-67.5 14.5t-73.5 6t-81 1.5q-269 0 -563 -64l-160 348q384 125 739 125q399 0 590 -147q212 147 608 147q156 0 281 -23t230 -75t174.5 -134t108 -204t38.5 -281h-1166q51 -163 314 -163zM2056 901q-119 0 -195.5 -24t-113.5 -99h618q-37 75 -113.5 99t-195.5 24z
M1163 401v52q-117 30 -325 30q-177 0 -251.5 -20.5t-74.5 -77.5q0 -48 40.5 -63t141.5 -15q120 0 246.5 26.5t222.5 67.5z" />
    <glyph glyph-name="ccedilla" unicode="&#xe7;" horiz-adv-x="1708" 
d="M856 389q141 0 221.5 29.5t108.5 103.5h502q-27 -257 -206.5 -387t-498.5 -151l-33 -78q53 16 110 20.5t115.5 -4.5t96 -49.5t37.5 -110.5q0 -68 -37.5 -117.5t-99.5 -77t-146.5 -40.5t-175 -11.5t-188.5 13.5v186q360 -52 360 66q0 39 -46.5 47t-166.5 -18l-121 118
l31 56q-341 24 -520 176t-179 454q0 168 56.5 290.5t166.5 198t261.5 111t351.5 35.5q185 0 329.5 -30.5t252.5 -95t171.5 -169t78.5 -247.5h-502q-28 74 -108.5 103.5t-221.5 29.5q-176 0 -260 -49t-84 -177t84 -176.5t260 -48.5z" />
    <glyph glyph-name="egrave" unicode="&#xe8;" horiz-adv-x="1708" 
d="M1251 1638v-286l-796 164v286zM836 369q139 0 208.5 17t141.5 75h481q-46 -245 -249 -363t-582 -118q-147 0 -269.5 22t-225 70.5t-173 121.5t-109.5 179.5t-39 240.5q0 167 59.5 290.5t171 198t262 110.5t343.5 36q156 0 281 -23t230 -75t174.5 -134t108 -204t38.5 -281
h-1166q51 -163 314 -163zM854 901q-119 0 -195.5 -24t-113.5 -99h618q-37 75 -113.5 99t-195.5 24z" />
    <glyph glyph-name="eacute" unicode="&#xe9;" horiz-adv-x="1708" 
d="M1251 1802v-286l-796 -164v286zM836 369q139 0 208.5 17t141.5 75h481q-46 -245 -249 -363t-582 -118q-147 0 -269.5 22t-225 70.5t-173 121.5t-109.5 179.5t-39 240.5q0 167 59.5 290.5t171 198t262 110.5t343.5 36q156 0 281 -23t230 -75t174.5 -134t108 -204
t38.5 -281h-1166q51 -163 314 -163zM854 901q-119 0 -195.5 -24t-113.5 -99h618q-37 75 -113.5 99t-195.5 24z" />
    <glyph glyph-name="ecircumflex" unicode="&#xea;" horiz-adv-x="1708" 
d="M1278 1352l-424 164l-424 -164v286l424 164l424 -164v-286zM836 369q139 0 208.5 17t141.5 75h481q-46 -245 -249 -363t-582 -118q-147 0 -269.5 22t-225 70.5t-173 121.5t-109.5 179.5t-39 240.5q0 167 59.5 290.5t171 198t262 110.5t343.5 36q156 0 281 -23t230 -75
t174.5 -134t108 -204t38.5 -281h-1166q51 -163 314 -163zM854 901q-119 0 -195.5 -24t-113.5 -99h618q-37 75 -113.5 99t-195.5 24z" />
    <glyph glyph-name="edieresis" unicode="&#xeb;" horiz-adv-x="1708" 
d="M793 1741v-369h-410v369h410zM1325 1741v-369h-410v369h410zM836 369q139 0 208.5 17t141.5 75h481q-46 -245 -249 -363t-582 -118q-147 0 -269.5 22t-225 70.5t-173 121.5t-109.5 179.5t-39 240.5q0 167 59.5 290.5t171 198t262 110.5t343.5 36q156 0 281 -23t230 -75
t174.5 -134t108 -204t38.5 -281h-1166q51 -163 314 -163zM854 901q-119 0 -195.5 -24t-113.5 -99h618q-37 75 -113.5 99t-195.5 24z" />
    <glyph glyph-name="igrave" unicode="&#xec;" horiz-adv-x="573" 
d="M684 1638v-286l-797 164v286zM41 1229h491v-1229h-491v1229z" />
    <glyph glyph-name="iacute" unicode="&#xed;" horiz-adv-x="573" 
d="M-113 1638l797 164v-286l-797 -164v286zM41 1229h491v-1229h-491v1229z" />
    <glyph glyph-name="icircumflex" unicode="&#xee;" horiz-adv-x="573" 
d="M287 1802l424 -164v-286l-424 164l-424 -164v286zM41 0v1229h491v-1229h-491z" />
    <glyph glyph-name="idieresis" unicode="&#xef;" horiz-adv-x="573" 
d="M-184 1741h409v-369h-409v369zM348 1741h410v-369h-410v369zM41 1229h491v-1229h-491v1229z" />
    <glyph glyph-name="eth" unicode="&#xf0;" horiz-adv-x="1849" 
d="M1425 1589q181 -150 282 -352t101 -446q0 -124 -28 -231t-77.5 -189t-120 -147.5t-153.5 -110.5t-180 -75.5t-197.5 -44t-207.5 -13.5q-803 0 -803 589q0 129 38.5 233t117 182t206 120.5t295.5 42.5q331 0 605 -211q-54 275 -312 426l-344 -180l-213 184l225 119
q-117 23 -227 31l60 409q372 -21 679 -174l328 172l213 -182zM844 389q291 0 407 164q-75 69 -166.5 112.5t-162 57.5t-136.5 14q-127 0 -190.5 -39t-63.5 -129q0 -89 72 -134.5t240 -45.5z" />
    <glyph glyph-name="ntilde" unicode="&#xf1;" horiz-adv-x="1757" 
d="M838 1495q-56 0 -79.5 -30t-23.5 -93h-368q0 82 14.5 154.5t46 136.5t89 101.5t136.5 37.5q71 0 132.5 -22.5t98 -49t90 -49t109.5 -22.5t79.5 30t23.5 93h368q0 -82 -14.5 -154.5t-46 -136.5t-89 -101.5t-136.5 -37.5q-71 0 -132.5 22.5t-98 49t-90 49t-109.5 22.5z
M1126 1249q590 0 590 -530v-719h-491v518q0 161 -67 231t-230 70q-108 0 -215.5 -42.5t-180.5 -112.5v-664h-491v1229h491v-164q265 184 594 184z" />
    <glyph glyph-name="ograve" unicode="&#xf2;" horiz-adv-x="1712" 
d="M1253 1638v-286l-796 164v286zM856 -20q-200 0 -351.5 35.5t-261.5 110.5t-166.5 197.5t-56.5 290.5t56.5 290.5t166.5 198t261.5 111t351.5 35.5t351.5 -35.5t261.5 -111t166.5 -198t56.5 -290.5t-56.5 -290.5t-166.5 -197.5t-261.5 -110.5t-351.5 -35.5zM856 389
q176 0 260 48.5t84 176.5t-84 177t-260 49t-260 -49t-84 -177t84 -176.5t260 -48.5z" />
    <glyph glyph-name="oacute" unicode="&#xf3;" horiz-adv-x="1712" 
d="M457 1638l796 164v-286l-796 -164v286zM856 -20q-200 0 -351.5 35.5t-261.5 110.5t-166.5 197.5t-56.5 290.5t56.5 290.5t166.5 198t261.5 111t351.5 35.5t351.5 -35.5t261.5 -111t166.5 -198t56.5 -290.5t-56.5 -290.5t-166.5 -197.5t-261.5 -110.5t-351.5 -35.5z
M856 389q176 0 260 48.5t84 176.5t-84 177t-260 49t-260 -49t-84 -177t84 -176.5t260 -48.5z" />
    <glyph glyph-name="ocircumflex" unicode="&#xf4;" horiz-adv-x="1712" 
d="M1280 1352l-424 164l-424 -164v286l424 164l424 -164v-286zM856 1249q200 0 351.5 -35.5t261.5 -111t166.5 -198t56.5 -290.5t-56.5 -290.5t-166.5 -197.5t-261.5 -110.5t-351.5 -35.5t-351.5 35.5t-261.5 110.5t-166.5 197.5t-56.5 290.5t56.5 290.5t166.5 198
t261.5 111t351.5 35.5zM856 389q176 0 260 48.5t84 176.5t-84 177t-260 49t-260 -49t-84 -177t84 -176.5t260 -48.5z" />
    <glyph glyph-name="otilde" unicode="&#xf5;" horiz-adv-x="1712" 
d="M262 1372q0 65 8.5 124t29.5 116t53 98t82.5 66.5t113.5 25.5q71 0 132.5 -22.5t98 -49t90 -49t109.5 -22.5q55 0 78.5 30t23.5 93h369q0 -65 -8.5 -124t-29.5 -116t-53 -98t-82.5 -66.5t-113.5 -25.5q-71 0 -132.5 22.5t-98 49t-90 49t-109.5 22.5q-55 0 -78.5 -30
t-23.5 -93h-369zM856 -20q-200 0 -351.5 35.5t-261.5 110.5t-166.5 197.5t-56.5 290.5t56.5 290.5t166.5 198t261.5 111t351.5 35.5t351.5 -35.5t261.5 -111t166.5 -198t56.5 -290.5t-56.5 -290.5t-166.5 -197.5t-261.5 -110.5t-351.5 -35.5zM856 389q176 0 260 48.5
t84 176.5t-84 177t-260 49t-260 -49t-84 -177t84 -176.5t260 -48.5z" />
    <glyph glyph-name="odieresis" unicode="&#xf6;" horiz-adv-x="1712" 
d="M385 1741h410v-369h-410v369zM918 1741h409v-369h-409v369zM856 -20q-200 0 -351.5 35.5t-261.5 110.5t-166.5 197.5t-56.5 290.5t56.5 290.5t166.5 198t261.5 111t351.5 35.5t351.5 -35.5t261.5 -111t166.5 -198t56.5 -290.5t-56.5 -290.5t-166.5 -197.5t-261.5 -110.5
t-351.5 -35.5zM856 389q176 0 260 48.5t84 176.5t-84 177t-260 49t-260 -49t-84 -177t84 -176.5t260 -48.5z" />
    <glyph glyph-name="divide" unicode="&#xf7;" horiz-adv-x="1802" 
d="M655 1393h492v-369h-492v369zM82 901h1638v-409h-1638v409zM655 369h492v-369h-492v369z" />
    <glyph glyph-name="oslash" unicode="&#xf8;" horiz-adv-x="1712" 
d="M1208 1214q484 -117 484 -600q0 -168 -56.5 -290.5t-166.5 -197.5t-261.5 -110.5t-351.5 -35.5h-16l-76 -256h-348l88 290q-484 117 -484 600q0 168 56.5 290.5t166.5 198t261.5 111t351.5 35.5h16l76 256h348zM512 614q0 -142 113 -192l123 414q-119 -13 -177.5 -64
t-58.5 -158zM965 393q119 13 177 63.5t58 157.5q0 143 -113 193z" />
    <glyph glyph-name="ugrave" unicode="&#xf9;" horiz-adv-x="1757" 
d="M1276 1638v-286l-797 164v286zM1225 1229h491v-1229h-491v164q-265 -184 -594 -184q-590 0 -590 530v719h491v-518q0 -161 67 -231t230 -70q108 0 215.5 42.5t180.5 112.5v664z" />
    <glyph glyph-name="uacute" unicode="&#xfa;" horiz-adv-x="1757" 
d="M1276 1802v-286l-797 -164v286zM1225 1229h491v-1229h-491v164q-265 -184 -594 -184q-590 0 -590 530v719h491v-518q0 -161 67 -231t230 -70q108 0 215.5 42.5t180.5 112.5v664z" />
    <glyph glyph-name="ucircumflex" unicode="&#xfb;" horiz-adv-x="1757" 
d="M1303 1352l-424 164l-424 -164v286l424 164l424 -164v-286zM1225 1229h491v-1229h-491v164q-265 -184 -594 -184q-590 0 -590 530v719h491v-518q0 -161 67 -231t230 -70q108 0 215.5 42.5t180.5 112.5v664z" />
    <glyph glyph-name="udieresis" unicode="&#xfc;" horiz-adv-x="1757" 
d="M817 1741v-369h-409v369h409zM1350 1741v-369h-410v369h410zM1225 1229h491v-1229h-491v164q-265 -184 -594 -184q-590 0 -590 530v719h491v-518q0 -161 67 -231t230 -70q108 0 215.5 42.5t180.5 112.5v664z" />
    <glyph glyph-name="yacute" unicode="&#xfd;" horiz-adv-x="1804" 
d="M1300 1802v-286l-796 -164v286zM1251 1229h533l-699 -1741h-532l205 512h-226l-512 1229h533l356 -854z" />
    <glyph glyph-name="thorn" unicode="&#xfe;" horiz-adv-x="1753" 
d="M1081 1249q88 0 164.5 -13t149 -41t129 -77.5t99.5 -118t66 -166.5t23 -219q0 -634 -631 -634q-177 0 -317.5 56t-231.5 161v-525h-491v1966h491v-606q91 105 231.5 161t317.5 56zM877 389q176 0 260 48.5t84 176.5t-84 177t-260 49t-260.5 -49t-84.5 -177t84.5 -176.5
t260.5 -48.5z" />
    <glyph glyph-name="ydieresis" unicode="&#xff;" horiz-adv-x="1804" 
d="M842 1741v-369h-410v369h410zM1374 1741v-369h-409v369h409zM1251 1229h533l-699 -1741h-532l205 512h-226l-512 1229h533l356 -854z" />
    <glyph glyph-name="Amacron" unicode="&#x100;" horiz-adv-x="2019" 
d="M1489 1864v-287h-961v287h961zM1413 0l-98 258h-610l-99 -258h-586l594 1434h791l594 -1434h-586zM844 627h332l-166 438z" />
    <glyph glyph-name="amacron" unicode="&#x101;" horiz-adv-x="1695" 
d="M1354 1659v-287h-961v287h961zM860 1249q194 0 337.5 -34.5t247 -109.5t156.5 -199t54 -298v-608h-492v150q-132 -97 -283.5 -133.5t-332.5 -36.5q-109 0 -201.5 20.5t-167 62.5t-116.5 114.5t-42 168.5q0 92 42 164t110.5 116.5t165 73t196.5 39.5t214 11q239 0 415 -64
q0 36 -11.5 62.5t-35.5 43t-50 26.5t-67.5 14.5t-73.5 6t-81 1.5q-269 0 -563 -64l-160 348q384 125 739 125zM1163 401v52q-117 30 -325 30q-177 0 -251.5 -20.5t-74.5 -77.5q0 -48 40.5 -63t141.5 -15q120 0 246.5 26.5t222.5 67.5z" />
    <glyph glyph-name="Abreve" unicode="&#x102;" horiz-adv-x="2019" 
d="M1010 1536q-81 0 -146 11t-126.5 41.5t-102.5 80t-65.5 130t-24.5 188.5h246q0 -107 52.5 -156t166.5 -49t166.5 49t52.5 156h246q0 -108 -24.5 -188.5t-65.5 -130t-102.5 -80t-126.5 -41.5t-146 -11zM1413 0l-98 258h-610l-99 -258h-586l594 1434h791l594 -1434h-586z
M844 627h332l-166 438z" />
    <glyph glyph-name="abreve" unicode="&#x103;" horiz-adv-x="1695" 
d="M874 1331q-81 0 -146 11t-126.5 41.5t-102 80t-65 130t-24.5 188.5h245q0 -107 52.5 -156t166.5 -49t167 49t53 156h245q0 -108 -24.5 -188.5t-65.5 -130t-102.5 -80t-126.5 -41.5t-146 -11zM860 1249q194 0 337.5 -34.5t247 -109.5t156.5 -199t54 -298v-608h-492v150
q-132 -97 -283.5 -133.5t-332.5 -36.5q-109 0 -201.5 20.5t-167 62.5t-116.5 114.5t-42 168.5q0 92 42 164t110.5 116.5t165 73t196.5 39.5t214 11q239 0 415 -64q0 36 -11.5 62.5t-35.5 43t-50 26.5t-67.5 14.5t-73.5 6t-81 1.5q-269 0 -563 -64l-160 348q384 125 739 125z
M1163 401v52q-117 30 -325 30q-177 0 -251.5 -20.5t-74.5 -77.5q0 -48 40.5 -63t141.5 -15q120 0 246.5 26.5t222.5 67.5z" />
    <glyph glyph-name="Aogonek" unicode="&#x104;" horiz-adv-x="2019" 
d="M1671 -106q0 -28 20.5 -45t70.5 -23.5t89.5 -8t122.5 -1.5v-287q-122 0 -209 5.5t-163 21t-121.5 42t-71 69t-25.5 102.5q0 132 152 231h-123l-98 258h-610l-99 -258h-586l594 1434h791l594 -1434h-244q-4 -3 -16 -12.5t-16 -13t-13.5 -12t-13 -13t-10 -12t-9 -13.5
t-4.5 -14t-2 -16zM844 627h332l-166 438z" />
    <glyph glyph-name="aogonek" unicode="&#x105;" horiz-adv-x="1695" 
d="M1436 0q-4 -3 -16 -12.5t-16 -13t-13.5 -12t-13 -13t-10 -12t-9 -13.5t-4.5 -14t-2 -16q0 -28 20.5 -45t70.5 -23.5t89.5 -8t122.5 -1.5v-287q-122 0 -209 5.5t-163 21t-121.5 42t-71 69t-25.5 102.5q0 132 152 231h-54v150q-132 -97 -283.5 -133.5t-332.5 -36.5
q-109 0 -201.5 20.5t-167 62.5t-116.5 114.5t-42 168.5q0 92 42 164t110.5 116.5t165 73t196.5 39.5t214 11q239 0 415 -64q0 36 -11.5 62.5t-35.5 43t-50 26.5t-67.5 14.5t-73.5 6t-81 1.5q-269 0 -563 -64l-160 348q384 125 739 125q194 0 337.5 -34.5t247 -109.5
t156.5 -199t54 -298v-608h-219zM1163 401v52q-117 30 -325 30q-177 0 -251.5 -20.5t-74.5 -77.5q0 -48 40.5 -63t141.5 -15q120 0 246.5 26.5t222.5 67.5z" />
    <glyph glyph-name="Cacute" unicode="&#x106;" horiz-adv-x="1837" 
d="M520 1843l797 164v-287l-797 -164v287zM20 719q0 377 216.5 556t685.5 179q435 0 656.5 -158.5t238.5 -494.5h-545q-15 103 -99.5 153t-250.5 50q-92 0 -159.5 -15.5t-107 -40.5t-63 -63.5t-31.5 -77t-8 -88.5t8 -89.5t32 -78.5t63.5 -64.5t107 -41t158.5 -15.5
q166 0 250.5 51.5t99.5 155.5h545q-17 -338 -238.5 -497.5t-656.5 -159.5q-469 0 -685.5 180.5t-216.5 558.5z" />
    <glyph glyph-name="cacute" unicode="&#x107;" horiz-adv-x="1708" 
d="M455 1638l796 164v-286l-796 -164v286zM20 614q0 168 56.5 290.5t166.5 198t261.5 111t351.5 35.5q185 0 329.5 -30.5t252.5 -95t171.5 -169t78.5 -247.5h-502q-28 74 -108.5 103.5t-221.5 29.5q-176 0 -260 -49t-84 -177t84 -176.5t260 -48.5q141 0 221.5 29.5
t108.5 103.5h502q-15 -143 -78.5 -247.5t-171.5 -169t-252.5 -95t-329.5 -30.5q-200 0 -351.5 35.5t-261.5 110.5t-166.5 197.5t-56.5 290.5z" />
    <glyph glyph-name="Cdotaccent" unicode="&#x10a;" horiz-adv-x="1837" 
d="M674 1946h491v-369h-491v369zM20 719q0 377 216.5 556t685.5 179q435 0 656.5 -158.5t238.5 -494.5h-545q-15 103 -99.5 153t-250.5 50q-92 0 -159.5 -15.5t-107 -40.5t-63 -63.5t-31.5 -77t-8 -88.5t8 -89.5t32 -78.5t63.5 -64.5t107 -41t158.5 -15.5q166 0 250.5 51.5
t99.5 155.5h545q-17 -338 -238.5 -497.5t-656.5 -159.5q-469 0 -685.5 180.5t-216.5 558.5z" />
    <glyph glyph-name="cdotaccent" unicode="&#x10b;" horiz-adv-x="1708" 
d="M608 1741h492v-369h-492v369zM20 614q0 168 56.5 290.5t166.5 198t261.5 111t351.5 35.5q185 0 329.5 -30.5t252.5 -95t171.5 -169t78.5 -247.5h-502q-28 74 -108.5 103.5t-221.5 29.5q-176 0 -260 -49t-84 -177t84 -176.5t260 -48.5q141 0 221.5 29.5t108.5 103.5h502
q-15 -143 -78.5 -247.5t-171.5 -169t-252.5 -95t-329.5 -30.5q-200 0 -351.5 35.5t-261.5 110.5t-166.5 197.5t-56.5 290.5z" />
    <glyph glyph-name="Ccaron" unicode="&#x10c;" horiz-adv-x="1837" 
d="M1341 1724l-423 -163l-424 163v287l424 -164l423 164v-287zM922 430q166 0 250.5 51.5t99.5 155.5h545q-17 -338 -238.5 -497.5t-656.5 -159.5q-469 0 -685.5 180.5t-216.5 558.5q0 377 216.5 556t685.5 179q435 0 656.5 -158.5t238.5 -494.5h-545q-15 103 -99.5 153
t-250.5 50q-92 0 -159.5 -15.5t-107 -40.5t-63 -63.5t-31.5 -77t-8 -88.5t8 -89.5t32 -78.5t63.5 -64.5t107 -41t158.5 -15.5z" />
    <glyph glyph-name="ccaron" unicode="&#x10d;" horiz-adv-x="1708" 
d="M1276 1520l-424 -164l-424 164v286l424 -164l424 164v-286zM856 389q141 0 221.5 29.5t108.5 103.5h502q-15 -143 -78.5 -247.5t-171.5 -169t-252.5 -95t-329.5 -30.5q-200 0 -351.5 35.5t-261.5 110.5t-166.5 197.5t-56.5 290.5t56.5 290.5t166.5 198t261.5 111
t351.5 35.5q185 0 329.5 -30.5t252.5 -95t171.5 -169t78.5 -247.5h-502q-28 74 -108.5 103.5t-221.5 29.5q-176 0 -260 -49t-84 -177t84 -176.5t260 -48.5z" />
    <glyph glyph-name="Dcaron" unicode="&#x10e;" horiz-adv-x="1798" 
d="M1188 1724l-424 -163l-424 163v287l424 -164l424 164v-287zM1106 1434q133 0 251.5 -44.5t213.5 -130.5t151 -226t56 -316t-56 -316t-151 -226t-213.5 -130.5t-251.5 -44.5h-1065v1434h1065zM942 451q49 0 77.5 2t77.5 15.5t76.5 39.5t49.5 79.5t22 129.5t-22 129.5
t-49.5 79.5t-76.5 39.5t-77.5 15.5t-77.5 2h-369v-532h369z" />
    <glyph glyph-name="dcaron" unicode="&#x10f;" horiz-adv-x="2326" 
d="M1200 1061v577h492v-1638h-492v168q-93 -95 -226 -141.5t-282 -46.5q-101 0 -192 18t-181 63t-154.5 115t-104.5 182.5t-40 255.5t40 255.5t104.5 182.5t154.5 115.5t181 63.5t192 18q149 0 282 -46.5t226 -141.5zM1794 1638h492v-368l-232 -451h-219l139 451h-180v368z
M856 389q176 0 260 48.5t84 176.5t-84 177t-260 49t-260 -49t-84 -177t84 -176.5t260 -48.5z" />
    <glyph glyph-name="Dcroat" unicode="&#x110;" horiz-adv-x="1968" 
d="M1255 1434q133 0 251.5 -44.5t213.5 -130.5t151 -226t56 -316t-56 -316t-151 -226t-213.5 -130.5t-251.5 -44.5h-1065v573h-149v287h149v574h1065zM1092 451q49 0 77.5 2t77.5 15.5t76.5 39.5t49.5 79.5t22 129.5t-22 129.5t-49.5 79.5t-76.5 39.5t-77.5 15.5t-77.5 2
h-369v-123h301v-287h-301v-122h369z" />
    <glyph glyph-name="dcroat" unicode="&#x111;" horiz-adv-x="1835" 
d="M1794 1556v-286h-102v-1270h-492v168q-93 -95 -226 -141.5t-282 -46.5q-101 0 -192 18t-181 63t-154.5 115t-104.5 182.5t-40 255.5t40 255.5t104.5 182.5t154.5 115.5t181 63.5t192 18q149 0 282 -46.5t226 -141.5v209h-389v286h389v82h492v-82h102zM856 389
q176 0 260 48.5t84 176.5t-84 177t-260 49t-260 -49t-84 -177t84 -176.5t260 -48.5z" />
    <glyph glyph-name="Emacron" unicode="&#x112;" horiz-adv-x="1576" 
d="M1278 1864v-287h-961v287h961zM1556 1024h-983v-133h983v-348h-983v-133h983v-410h-1515v1434h1515v-410z" />
    <glyph glyph-name="emacron" unicode="&#x113;" horiz-adv-x="1708" 
d="M1333 1659v-287h-960v287h960zM836 369q139 0 208.5 17t141.5 75h481q-46 -245 -249 -363t-582 -118q-147 0 -269.5 22t-225 70.5t-173 121.5t-109.5 179.5t-39 240.5q0 167 59.5 290.5t171 198t262 110.5t343.5 36q156 0 281 -23t230 -75t174.5 -134t108 -204t38.5 -281
h-1166q51 -163 314 -163zM854 901q-119 0 -195.5 -24t-113.5 -99h618q-37 75 -113.5 99t-195.5 24z" />
    <glyph glyph-name="Edotaccent" unicode="&#x116;" horiz-adv-x="1576" 
d="M1044 1946v-369h-491v369h491zM1556 1024h-983v-133h983v-348h-983v-133h983v-410h-1515v1434h1515v-410z" />
    <glyph glyph-name="edotaccent" unicode="&#x117;" horiz-adv-x="1708" 
d="M1100 1741v-369h-492v369h492zM836 369q139 0 208.5 17t141.5 75h481q-46 -245 -249 -363t-582 -118q-147 0 -269.5 22t-225 70.5t-173 121.5t-109.5 179.5t-39 240.5q0 167 59.5 290.5t171 198t262 110.5t343.5 36q156 0 281 -23t230 -75t174.5 -134t108 -204t38.5 -281
h-1166q51 -163 314 -163zM854 901q-119 0 -195.5 -24t-113.5 -99h618q-37 75 -113.5 99t-195.5 24z" />
    <glyph glyph-name="Eogonek" unicode="&#x118;" horiz-adv-x="1576" 
d="M1556 1024h-983v-133h983v-348h-983v-133h983v-410h-219q-4 -3 -16 -12.5t-16 -13t-13.5 -12t-13 -13t-10 -12t-9 -13.5t-4.5 -14t-2 -16q0 -28 20.5 -45t70.5 -23.5t89.5 -8t122.5 -1.5v-287q-122 0 -209 5.5t-163 21t-121 42t-70.5 69t-25.5 102.5q0 132 151 231h-1077
v1434h1515v-410z" />
    <glyph glyph-name="eogonek" unicode="&#x119;" horiz-adv-x="1708" 
d="M836 369q139 0 208.5 17t141.5 75h481q-37 -196 -173 -310t-380 -151q-5 -4 -17 -14.5t-17.5 -15t-15 -13t-13.5 -15t-9.5 -14.5t-7.5 -16.5t-2 -17.5q0 -28 20.5 -45t70.5 -23.5t89.5 -8t122.5 -1.5v-287q-122 0 -209 5.5t-163 21t-121.5 42t-71 69t-25.5 102.5
q0 119 123 211h-32q-147 0 -269.5 22t-225 70.5t-173 121.5t-109.5 179.5t-39 240.5q0 167 59.5 290.5t171 198t262 110.5t343.5 36q156 0 281 -23t230 -75t174.5 -134t108 -204t38.5 -281h-1166q51 -163 314 -163zM854 901q-119 0 -195.5 -24t-113.5 -99h618
q-37 75 -113.5 99t-195.5 24z" />
    <glyph glyph-name="Ecaron" unicode="&#x11a;" horiz-adv-x="1576" 
d="M1221 1724l-424 -163l-424 163v287l424 -164l424 164v-287zM1556 1024h-983v-133h983v-348h-983v-133h983v-410h-1515v1434h1515v-410z" />
    <glyph glyph-name="ecaron" unicode="&#x11b;" horiz-adv-x="1708" 
d="M1276 1520l-424 -164l-424 164v286l424 -164l424 164v-286zM836 369q139 0 208.5 17t141.5 75h481q-46 -245 -249 -363t-582 -118q-147 0 -269.5 22t-225 70.5t-173 121.5t-109.5 179.5t-39 240.5q0 167 59.5 290.5t171 198t262 110.5t343.5 36q156 0 281 -23t230 -75
t174.5 -134t108 -204t38.5 -281h-1166q51 -163 314 -163zM854 901q-119 0 -195.5 -24t-113.5 -99h618q-37 75 -113.5 99t-195.5 24z" />
    <glyph glyph-name="Gbreve" unicode="&#x11e;" horiz-adv-x="1837" 
d="M920 1536q-81 0 -146 11t-126.5 41.5t-102.5 80t-65.5 130t-24.5 188.5h245q0 -107 53 -156t167 -49t166.5 49t52.5 156h245q0 -108 -24.5 -188.5t-65 -130t-102 -80t-126.5 -41.5t-146 -11zM887 494v286h930v-780h-308l-39 207q-195 -227 -610 -227q-404 0 -622 185
t-218 554q0 735 902 735q429 0 653.5 -149t241.5 -443h-545q-17 61 -104.5 101.5t-245.5 40.5q-92 0 -159 -16t-107 -42t-63.5 -66.5t-31.5 -83t-8 -98.5q0 -57 8 -101.5t32 -89t63.5 -73.5t107 -47t158.5 -18q163 0 249.5 28t100.5 97h-385z" />
    <glyph glyph-name="gbreve" unicode="&#x11f;" horiz-adv-x="1732" 
d="M856 1331q-81 0 -146 11t-126.5 41.5t-102.5 80t-65.5 130t-24.5 188.5h246q0 -107 52.5 -156t166.5 -49t166.5 49t52.5 156h246q0 -108 -24.5 -188.5t-65.5 -130t-102.5 -80t-126.5 -41.5t-146 -11zM1200 1229h492v-1071q0 -144 -40.5 -258.5t-110 -190.5t-169 -126.5
t-212 -72.5t-242.5 -22q-230 0 -433.5 30.5t-334.5 65.5v400q8 -2 66 -13t85.5 -16t88.5 -15.5t105.5 -16.5t103.5 -12.5t116 -9.5t112 -3q97 0 160 14t113.5 53t74.5 112.5t25 188.5q-168 -205 -528 -205q-145 0 -262.5 35t-205.5 106t-136 186t-48 267t48 267t136 186
t205.5 106t262.5 35q360 0 528 -205v185zM856 471q195 0 269.5 40t74.5 144t-74.5 144.5t-269.5 40.5t-269.5 -40.5t-74.5 -144.5t74.5 -144t269.5 -40z" />
    <glyph glyph-name="Gdotaccent" unicode="&#x120;" horiz-adv-x="1837" 
d="M1165 1946v-369h-491v369h491zM887 494v286h930v-780h-308l-39 207q-195 -227 -610 -227q-404 0 -622 185t-218 554q0 735 902 735q429 0 653.5 -149t241.5 -443h-545q-17 61 -104.5 101.5t-245.5 40.5q-92 0 -159 -16t-107 -42t-63.5 -66.5t-31.5 -83t-8 -98.5
q0 -57 8 -101.5t32 -89t63.5 -73.5t107 -47t158.5 -18q163 0 249.5 28t100.5 97h-385z" />
    <glyph glyph-name="gdotaccent" unicode="&#x121;" horiz-adv-x="1732" 
d="M1102 1741v-369h-492v369h492zM1200 1229h492v-1071q0 -144 -40.5 -258.5t-110 -190.5t-169 -126.5t-212 -72.5t-242.5 -22q-230 0 -433.5 30.5t-334.5 65.5v400q8 -2 66 -13t85.5 -16t88.5 -15.5t105.5 -16.5t103.5 -12.5t116 -9.5t112 -3q97 0 160 14t113.5 53
t74.5 112.5t25 188.5q-168 -205 -528 -205q-145 0 -262.5 35t-205.5 106t-136 186t-48 267t48 267t136 186t205.5 106t262.5 35q360 0 528 -205v185zM856 471q195 0 269.5 40t74.5 144t-74.5 144.5t-269.5 40.5t-269.5 -40.5t-74.5 -144.5t74.5 -144t269.5 -40z" />
    <glyph glyph-name="Gcommaaccent" unicode="&#x122;" horiz-adv-x="1837" 
d="M887 494v286h930v-780h-308l-39 207q-195 -227 -610 -227q-404 0 -622 185t-218 554q0 735 902 735q429 0 653.5 -149t241.5 -443h-545q-17 61 -104.5 101.5t-245.5 40.5q-92 0 -159 -16t-107 -42t-63.5 -66.5t-31.5 -83t-8 -98.5q0 -57 8 -101.5t32 -89t63.5 -73.5
t107 -47t158.5 -18q163 0 249.5 28t100.5 97h-385zM715 -451v246h409v-246l-211 -225h-198l139 225h-139z" />
    <glyph glyph-name="gcommaaccent" unicode="&#x123;" horiz-adv-x="1732" 
d="M1061 1679v-245h-410v245l211 226h199l-139 -226h139zM1200 1229h492v-1071q0 -144 -40.5 -258.5t-110 -190.5t-169 -126.5t-212 -72.5t-242.5 -22q-230 0 -433.5 30.5t-334.5 65.5v400q8 -2 66 -13t85.5 -16t88.5 -15.5t105.5 -16.5t103.5 -12.5t116 -9.5t112 -3
q97 0 160 14t113.5 53t74.5 112.5t25 188.5q-168 -205 -528 -205q-145 0 -262.5 35t-205.5 106t-136 186t-48 267t48 267t136 186t205.5 106t262.5 35q360 0 528 -205v185zM856 471q195 0 269.5 40t74.5 144t-74.5 144.5t-269.5 40.5t-269.5 -40.5t-74.5 -144.5t74.5 -144
t269.5 -40z" />
    <glyph glyph-name="Hbar" unicode="&#x126;" horiz-adv-x="1986" 
d="M2017 1311v-287h-71v-1024h-533v492h-840v-492h-532v1024h-72v287h72v123h532v-123h840v123h533v-123h71zM1413 942v82h-840v-82h840z" />
    <glyph glyph-name="hbar" unicode="&#x127;" horiz-adv-x="1839" 
d="M1208 1249q590 0 590 -530v-719h-491v518q0 161 -67 231t-230 70q-108 0 -215.5 -42.5t-180.5 -112.5v-664h-491v1270h-82v286h82v82h491v-82h410v-286h-410v-205q265 184 594 184z" />
    <glyph glyph-name="Imacron" unicode="&#x12a;" horiz-adv-x="614" 
d="M-174 1864h960v-287h-960v287zM573 1434v-1434h-532v1434h532z" />
    <glyph glyph-name="imacron" unicode="&#x12b;" horiz-adv-x="573" 
d="M-195 1659h961v-287h-961v287zM41 1229h491v-1229h-491v1229z" />
    <glyph glyph-name="Iogonek" unicode="&#x12e;" horiz-adv-x="614" 
d="M391 -106q0 -28 20.5 -45t70.5 -23.5t89.5 -8t122.5 -1.5v-287q-122 0 -209 5.5t-163 21t-121.5 42t-71 69t-25.5 102.5q0 132 152 231h-215v1434h532v-1434h-98q-4 -3 -16 -12.5t-16 -13t-13.5 -12t-13 -13t-10 -12t-9 -13.5t-4.5 -14t-2 -16z" />
    <glyph glyph-name="iogonek" unicode="&#x12f;" horiz-adv-x="573" 
d="M532 1741v-369h-491v369h491zM354 -106q0 -28 20.5 -45t70.5 -23.5t89.5 -8t122.5 -1.5v-287q-122 0 -209 5.5t-163 21t-121 42t-70.5 69t-25.5 102.5q0 132 151 231h-178v1229h491v-1229h-94q-4 -3 -16 -12.5t-16 -13t-13.5 -12t-13 -13t-10 -12t-9 -13.5t-4.5 -14
t-2 -16z" />
    <glyph glyph-name="Idotaccent" unicode="&#x130;" horiz-adv-x="614" 
d="M61 1946h492v-369h-492v369zM573 1434v-1434h-532v1434h532z" />
    <glyph glyph-name="dotlessi" unicode="&#x131;" horiz-adv-x="573" 
d="M41 1229h491v-1229h-491v1229z" />
    <glyph glyph-name="Kcommaaccent" unicode="&#x136;" horiz-adv-x="2011" 
d="M1991 1434l-826 -676l826 -758h-738l-458 455l-222 -183v-272h-532v1434h532v-562l660 562h758zM811 -451v246h410v-246l-211 -225h-199l139 225h-139z" />
    <glyph glyph-name="kcommaaccent" unicode="&#x137;" horiz-adv-x="1888" 
d="M1868 1229l-672 -510l672 -719h-635l-412 463l-289 -211v-252h-491v1638h491v-847l578 438h758zM647 -451v246h410v-246l-211 -225h-199l139 225h-139z" />
    <glyph glyph-name="Lacute" unicode="&#x139;" horiz-adv-x="1536" 
d="M838 2007v-287l-797 -164v287zM573 451h943v-451h-1475v1434h532v-983z" />
    <glyph glyph-name="lacute" unicode="&#x13a;" horiz-adv-x="573" 
d="M-113 2048l797 164v-287l-797 -164v287zM41 1638h491v-1638h-491v1638z" />
    <glyph glyph-name="Lcommaaccent" unicode="&#x13b;" horiz-adv-x="1536" 
d="M573 451h943v-451h-1475v1434h532v-983zM573 -451v246h410v-246l-211 -225h-199l140 225h-140z" />
    <glyph glyph-name="lcommaaccent" unicode="&#x13c;" horiz-adv-x="573" 
d="M41 1638h491v-1638h-491v1638zM82 -205h410v-246l-211 -225h-199l139 225h-139v246z" />
    <glyph glyph-name="Lcaron" unicode="&#x13d;" horiz-adv-x="1536" 
d="M862 1724l-424 -163l-424 163v287l424 -164l424 164v-287zM573 451h943v-451h-1475v1434h532v-983z" />
    <glyph glyph-name="lcaron" unicode="&#x13e;" horiz-adv-x="573" 
d="M285 2052l424 164v-287l-424 -164l-424 164v287zM41 0v1638h491v-1638h-491z" />
    <glyph glyph-name="Lslash" unicode="&#x141;" horiz-adv-x="1679" 
d="M696 451h942v-451h-1474v639l-123 -37v307l123 37v488h532v-328l414 123v-307l-414 -123v-348z" />
    <glyph glyph-name="lslash" unicode="&#x142;" horiz-adv-x="1150" 
d="M1110 1229v-307l-289 -86v-836h-491v688l-289 -86v307l289 86v643h491v-495z" />
    <glyph glyph-name="Nacute" unicode="&#x143;" horiz-adv-x="1929" 
d="M1362 2007v-287l-797 -164v287zM1356 1434h532v-1434h-696l-619 846v-846h-532v1434h696l619 -846v846z" />
    <glyph glyph-name="nacute" unicode="&#x144;" horiz-adv-x="1757" 
d="M1358 1802v-286l-797 -164v286zM1126 1249q590 0 590 -530v-719h-491v518q0 161 -67 231t-230 70q-108 0 -215.5 -42.5t-180.5 -112.5v-664h-491v1229h491v-164q265 184 594 184z" />
    <glyph glyph-name="Ncommaaccent" unicode="&#x145;" horiz-adv-x="1929" 
d="M1356 1434h532v-1434h-696l-619 846v-846h-532v1434h696l619 -846v846zM760 -451v246h409v-246l-211 -225h-198l139 225h-139z" />
    <glyph glyph-name="ncommaaccent" unicode="&#x146;" horiz-adv-x="1757" 
d="M1126 1249q590 0 590 -530v-719h-491v518q0 161 -67 231t-230 70q-108 0 -215.5 -42.5t-180.5 -112.5v-664h-491v1229h491v-164q265 184 594 184zM674 -451v246h409v-246l-211 -225h-198l139 225h-139z" />
    <glyph glyph-name="Ncaron" unicode="&#x147;" horiz-adv-x="1929" 
d="M1386 1724l-423 -163l-424 163v287l424 -164l423 164v-287zM1356 1434h532v-1434h-696l-619 846v-846h-532v1434h696l619 -846v846z" />
    <glyph glyph-name="ncaron" unicode="&#x148;" horiz-adv-x="1757" 
d="M1382 1520l-424 -164l-423 164v286l423 -164l424 164v-286zM1126 1249q590 0 590 -530v-719h-491v518q0 161 -67 231t-230 70q-108 0 -215.5 -42.5t-180.5 -112.5v-664h-491v1229h491v-164q265 184 594 184z" />
    <glyph glyph-name="Eng" unicode="&#x14a;" horiz-adv-x="1929" 
d="M1356 1434h532v-1434q0 -272 -137.5 -412.5t-431.5 -140.5q-182 0 -363 31v399q167 -20 232 -20q92 0 130 32.5t38 110.5h-164l-619 846v-846h-532v1434h696l619 -846v846z" />
    <glyph glyph-name="eng" unicode="&#x14b;" horiz-adv-x="1757" 
d="M1126 1249q590 0 590 -530v-719q0 -272 -137.5 -412.5t-431.5 -140.5q-182 0 -363 31v399q167 -20 232 -20q121 0 165 31.5t44 111.5v518q0 161 -67 231t-230 70q-108 0 -215.5 -42.5t-180.5 -112.5v-664h-491v1229h491v-164q265 184 594 184z" />
    <glyph glyph-name="Omacron" unicode="&#x14c;" horiz-adv-x="1843" 
d="M440 1864h961v-287h-961v287zM922 -20q-469 0 -685.5 180.5t-216.5 558.5q0 377 216.5 556t685.5 179q468 0 684.5 -180t216.5 -555q0 -377 -216.5 -558t-684.5 -181zM922 430q91 0 158 16t107 41.5t63.5 64.5t31.5 78t8 89q0 41 -5.5 73.5t-19.5 66.5t-41 59t-66.5 45
t-99 30.5t-136.5 10.5q-92 0 -159.5 -15.5t-107 -40.5t-63 -63.5t-31.5 -77t-8 -88.5t8 -89.5t32 -78.5t63.5 -64.5t107 -41t158.5 -15.5z" />
    <glyph glyph-name="omacron" unicode="&#x14d;" horiz-adv-x="1712" 
d="M375 1659h960v-287h-960v287zM856 -20q-200 0 -351.5 35.5t-261.5 110.5t-166.5 197.5t-56.5 290.5t56.5 290.5t166.5 198t261.5 111t351.5 35.5t351.5 -35.5t261.5 -111t166.5 -198t56.5 -290.5t-56.5 -290.5t-166.5 -197.5t-261.5 -110.5t-351.5 -35.5zM856 389
q176 0 260 48.5t84 176.5t-84 177t-260 49t-260 -49t-84 -177t84 -176.5t260 -48.5z" />
    <glyph glyph-name="Ohungarumlaut" unicode="&#x150;" horiz-adv-x="1843" 
d="M436 1864l424 164v-287l-424 -164v287zM983 1864l424 164v-287l-424 -164v287zM922 -20q-469 0 -685.5 180.5t-216.5 558.5q0 377 216.5 556t685.5 179q468 0 684.5 -180t216.5 -555q0 -377 -216.5 -558t-684.5 -181zM922 430q91 0 158 16t107 41.5t63.5 64.5t31.5 78
t8 89q0 41 -5.5 73.5t-19.5 66.5t-41 59t-66.5 45t-99 30.5t-136.5 10.5q-92 0 -159.5 -15.5t-107 -40.5t-63 -63.5t-31.5 -77t-8 -88.5t8 -89.5t32 -78.5t63.5 -64.5t107 -41t158.5 -15.5z" />
    <glyph glyph-name="ohungarumlaut" unicode="&#x151;" horiz-adv-x="1712" 
d="M371 1659l424 164v-287l-424 -164v287zM918 1659l423 164v-287l-423 -164v287zM856 -20q-200 0 -351.5 35.5t-261.5 110.5t-166.5 197.5t-56.5 290.5t56.5 290.5t166.5 198t261.5 111t351.5 35.5t351.5 -35.5t261.5 -111t166.5 -198t56.5 -290.5t-56.5 -290.5
t-166.5 -197.5t-261.5 -110.5t-351.5 -35.5zM856 389q176 0 260 48.5t84 176.5t-84 177t-260 49t-260 -49t-84 -177t84 -176.5t260 -48.5z" />
    <glyph glyph-name="OE" unicode="&#x152;" horiz-adv-x="3055" 
d="M3035 1024h-983v-133h983v-348h-983v-133h983v-410h-1515v102q-213 -122 -598 -122q-469 0 -685.5 180.5t-216.5 558.5q0 377 216.5 556t685.5 179q382 0 598 -121v101h1515v-410zM922 430q91 0 158 16t107 41.5t63.5 64.5t31.5 78t8 89q0 41 -5.5 73.5t-19.5 66.5
t-41 59t-66.5 45t-99 30.5t-136.5 10.5q-92 0 -159.5 -15.5t-107 -40.5t-63 -63.5t-31.5 -77t-8 -88.5t8 -89.5t32 -78.5t63.5 -64.5t107 -41t158.5 -15.5z" />
    <glyph glyph-name="oe" unicode="&#x153;" horiz-adv-x="2990" 
d="M2118 369q139 0 208.5 17t141.5 75h481q-46 -245 -249 -363t-582 -118q-412 0 -619 170q-204 -170 -643 -170q-200 0 -351.5 35.5t-261.5 110.5t-166.5 197.5t-56.5 290.5t56.5 290.5t166.5 198t261.5 111t351.5 35.5q441 0 645 -170q207 170 637 170q156 0 281 -23
t230 -75t174.5 -134t108 -204t38.5 -281h-1166q51 -163 314 -163zM2136 901q-119 0 -195.5 -24t-113.5 -99h618q-37 75 -113.5 99t-195.5 24zM856 389q176 0 260 48.5t84 176.5t-84 177t-260 49t-260 -49t-84 -177t84 -176.5t260 -48.5z" />
    <glyph glyph-name="Racute" unicode="&#x154;" horiz-adv-x="1736" 
d="M1276 2007v-287l-797 -164v287zM1716 885q0 -156 -67.5 -279.5t-186.5 -193.5l254 -412h-631l-198 336h-314v-336h-532v1434h1126q243 0 396 -154.5t153 -394.5zM573 983v-197h492q27 0 42 2t36 10.5t31 30t10 56.5q0 28 -8 47.5t-18 29.5t-29 15t-30.5 5.5t-33.5 0.5
h-492z" />
    <glyph glyph-name="racute" unicode="&#x155;" horiz-adv-x="1355" 
d="M1085 1802v-286l-796 -164v286zM1010 1249q157 0 325 -41v-409q-163 41 -297 41q-75 0 -134.5 -6t-128.5 -23t-130.5 -54t-112.5 -93v-664h-491v1229h491v-205q151 225 478 225z" />
    <glyph glyph-name="Rcommaaccent" unicode="&#x156;" horiz-adv-x="1736" 
d="M1716 885q0 -156 -67.5 -279.5t-186.5 -193.5l254 -412h-631l-198 336h-314v-336h-532v1434h1126q243 0 396 -154.5t153 -394.5zM573 983v-197h492q27 0 42 2t36 10.5t31 30t10 56.5q0 28 -8 47.5t-18 29.5t-29 15t-30.5 5.5t-33.5 0.5h-492zM674 -451v246h409v-246
l-211 -225h-198l139 225h-139z" />
    <glyph glyph-name="rcommaaccent" unicode="&#x157;" horiz-adv-x="1355" 
d="M1010 1249q157 0 325 -41v-409q-163 41 -297 41q-75 0 -134.5 -6t-128.5 -23t-130.5 -54t-112.5 -93v-664h-491v1229h491v-205q151 225 478 225zM82 -451v246h410v-246l-211 -225h-199l139 225h-139z" />
    <glyph glyph-name="Rcaron" unicode="&#x158;" horiz-adv-x="1736" 
d="M1300 1724l-423 -163l-424 163v287l424 -164l423 164v-287zM1716 885q0 -156 -67.5 -279.5t-186.5 -193.5l254 -412h-631l-198 336h-314v-336h-532v1434h1126q243 0 396 -154.5t153 -394.5zM573 983v-197h492q27 0 42 2t36 10.5t31 30t10 56.5q0 28 -8 47.5t-18 29.5
t-29 15t-30.5 5.5t-33.5 0.5h-492z" />
    <glyph glyph-name="rcaron" unicode="&#x159;" horiz-adv-x="1355" 
d="M1110 1520l-424 -164l-424 164v286l424 -164l424 164v-286zM1010 1249q157 0 325 -41v-409q-163 41 -297 41q-75 0 -134.5 -6t-128.5 -23t-130.5 -54t-112.5 -93v-664h-491v1229h491v-205q151 225 478 225z" />
    <glyph glyph-name="Sacute" unicode="&#x15a;" horiz-adv-x="1871" 
d="M537 1843l796 164v-287l-796 -164v287zM20 506h533q0 -38 28.5 -62t120.5 -39.5t254 -15.5q156 0 235 8t103.5 22.5t24.5 43.5q0 16 -4.5 26.5t-21 19t-39.5 13.5t-70 9.5t-102.5 6.5t-145.5 5q-199 6 -342 23.5t-251.5 51t-173.5 86t-96.5 126t-31.5 174.5
q0 232 220.5 341t653.5 109q215 0 373.5 -27t272.5 -86t171.5 -156t57.5 -233h-533q0 54 -88 73t-295 19q-97 0 -153 -2.5t-90.5 -10.5t-46 -20t-11.5 -34q0 -37 50.5 -46.5t266.5 -17.5q30 -1 46 -2q163 -7 266 -14.5t220 -25t185.5 -46.5t129.5 -75t87.5 -114.5
t26.5 -160.5q0 -117 -39.5 -203t-112 -142t-188.5 -89.5t-253 -47t-322 -13.5q-154 0 -273 9.5t-225.5 32t-181 61.5t-129 97t-81 139t-26.5 187z" />
    <glyph glyph-name="sacute" unicode="&#x15b;" horiz-adv-x="1708" 
d="M455 1638l796 164v-286l-796 -164v286zM20 424h492q0 -37 28.5 -56.5t107 -29.5t226.5 -10q106 0 166.5 2.5t97 10.5t47.5 19.5t11 32.5q0 17 -6 27t-21 17t-46.5 10.5t-74 5.5t-113.5 5q-51 2 -81 3q-116 5 -198 10t-166.5 14.5t-141.5 23t-111.5 33.5t-88 47t-59.5 63
t-37 82.5t-11 105.5q0 73 23 132.5t62 101.5t100 73.5t128.5 50.5t156 31t173.5 16t190 4q104 0 186.5 -4t165 -16t144 -31t116 -50.5t88.5 -74.5t53.5 -102.5t19.5 -134.5h-492q0 46 -57.5 55.5t-243.5 9.5q-206 0 -264 -7t-58 -40q0 -34 49.5 -43.5t254.5 -19.5
q38 -2 59 -3q124 -6 197.5 -11.5t169 -17t150 -27.5t115 -43.5t90.5 -64t50.5 -89.5t20.5 -121q0 -79 -20 -142t-55 -108t-91 -78t-119 -53.5t-148 -32t-169 -16t-191 -4.5q-108 0 -195.5 4.5t-180.5 16.5t-164 32.5t-136 54.5t-107.5 79.5t-67 110.5t-24.5 146z" />
    <glyph glyph-name="Scedilla" unicode="&#x15e;" horiz-adv-x="1871" 
d="M1851 475q0 -109 -34 -191t-96.5 -137.5t-161.5 -91t-218.5 -52.5t-277.5 -21l-31 -76q53 16 110 20.5t115.5 -4.5t96 -49.5t37.5 -110.5q0 -68 -37.5 -117.5t-99.5 -77t-147 -40.5t-175.5 -11.5t-188.5 13.5v186q132 -20 212.5 -14.5t114.5 25.5t34 55q0 39 -46.5 47
t-166.5 -18l-121 118l29 54q-157 5 -274.5 23t-215.5 55.5t-160 96.5t-95.5 146t-33.5 203h533q0 -38 28.5 -62t120.5 -39.5t254 -15.5q156 0 235 8t103.5 22.5t24.5 43.5q0 16 -4.5 26.5t-21 19t-39.5 13.5t-70 9.5t-102.5 6.5t-145.5 5q-199 6 -342 23.5t-251.5 51
t-173.5 86t-96.5 126t-31.5 174.5q0 232 220.5 341t653.5 109q215 0 373.5 -27t272.5 -86t171.5 -156t57.5 -233h-533q0 54 -88 73t-295 19q-97 0 -153 -2.5t-90.5 -10.5t-46 -20t-11.5 -34q0 -37 50.5 -46.5t266.5 -17.5q30 -1 46 -2q163 -7 266 -14.5t220 -25t185.5 -46.5
t129.5 -75t87.5 -114.5t26.5 -160.5z" />
    <glyph glyph-name="scedilla" unicode="&#x15f;" horiz-adv-x="1708" 
d="M1688 414q0 -103 -34 -178.5t-92.5 -123t-151 -77t-193.5 -41t-236 -14.5l-31 -74q53 16 110 20.5t115.5 -4.5t96 -49.5t37.5 -110.5q0 -68 -37.5 -117.5t-99.5 -77t-146.5 -40.5t-175 -11.5t-188.5 13.5v186q360 -52 360 66q0 39 -46.5 47t-166.5 -18l-121 118l31 56
q-124 5 -222 19.5t-190 46t-153 79t-97.5 122.5t-36.5 173h492q0 -37 28.5 -56.5t107 -29.5t226.5 -10q106 0 166.5 2.5t97 10.5t47.5 19.5t11 32.5q0 17 -6 27t-21 17t-46.5 10.5t-74 5.5t-113.5 5q-51 2 -81 3q-116 5 -198 10t-166.5 14.5t-141.5 23t-111.5 33.5t-88 47
t-59.5 63t-37 82.5t-11 105.5q0 73 23 132.5t62 101.5t100 73.5t128.5 50.5t156 31t173.5 16t190 4q104 0 186.5 -4t165 -16t144 -31t116 -50.5t88.5 -74.5t53.5 -102.5t19.5 -134.5h-492q0 46 -57.5 55.5t-243.5 9.5q-206 0 -264 -7t-58 -40q0 -34 49.5 -43.5t254.5 -19.5
q38 -2 59 -3q124 -6 197.5 -11.5t169 -17t150 -27.5t115 -43.5t90.5 -64t50.5 -89.5t20.5 -121z" />
    <glyph glyph-name="Scaron" unicode="&#x160;" horiz-adv-x="1871" 
d="M1358 1724l-424 -163l-424 163v287l424 -164l424 164v-287zM936 911q163 -7 266 -14.5t220 -25t185.5 -46.5t129.5 -75t87.5 -114.5t26.5 -160.5q0 -117 -39.5 -203t-112 -142t-188.5 -89.5t-253 -47t-322 -13.5q-154 0 -273 9.5t-225.5 32t-181 61.5t-129 97t-81 139
t-26.5 187h533q0 -38 28.5 -62t120.5 -39.5t254 -15.5q156 0 235 8t103.5 22.5t24.5 43.5q0 16 -4.5 26.5t-21 19t-39.5 13.5t-70 9.5t-102.5 6.5t-145.5 5q-199 6 -342 23.5t-251.5 51t-173.5 86t-96.5 126t-31.5 174.5q0 232 220.5 341t653.5 109q215 0 373.5 -27
t272.5 -86t171.5 -156t57.5 -233h-533q0 54 -88 73t-295 19q-97 0 -153 -2.5t-90.5 -10.5t-46 -20t-11.5 -34q0 -37 50.5 -46.5t266.5 -17.5q30 -1 46 -2z" />
    <glyph glyph-name="scaron" unicode="&#x161;" horiz-adv-x="1708" 
d="M1276 1520l-424 -164l-424 164v286l424 -164l424 164v-286zM895 788q124 -6 197.5 -11.5t169 -17t150 -27.5t115 -43.5t90.5 -64t50.5 -89.5t20.5 -121q0 -79 -20 -142t-55 -108t-91 -78t-119 -53.5t-148 -32t-169 -16t-191 -4.5q-108 0 -195.5 4.5t-180.5 16.5
t-164 32.5t-136 54.5t-107.5 79.5t-67 110.5t-24.5 146h492q0 -37 28.5 -56.5t107 -29.5t226.5 -10q106 0 166.5 2.5t97 10.5t47.5 19.5t11 32.5q0 17 -6 27t-21 17t-46.5 10.5t-74 5.5t-113.5 5q-51 2 -81 3q-116 5 -198 10t-166.5 14.5t-141.5 23t-111.5 33.5t-88 47
t-59.5 63t-37 82.5t-11 105.5q0 73 23 132.5t62 101.5t100 73.5t128.5 50.5t156 31t173.5 16t190 4q104 0 186.5 -4t165 -16t144 -31t116 -50.5t88.5 -74.5t53.5 -102.5t19.5 -134.5h-492q0 46 -57.5 55.5t-243.5 9.5q-206 0 -264 -7t-58 -40q0 -34 49.5 -43.5t254.5 -19.5
q38 -2 59 -3z" />
    <glyph glyph-name="uni0162" unicode="&#x162;" horiz-adv-x="1802" 
d="M1167 0h-131l-39 -94q53 16 110 20.5t115.5 -4.5t96 -49.5t37.5 -110.5q0 -68 -37.5 -117.5t-99.5 -77t-146.5 -40.5t-175 -11.5t-188.5 13.5v186q360 -52 360 66q0 39 -46.5 47t-166.5 -18l-121 118l39 72h-139v983h-615v451h1762v-451h-615v-983z" />
    <glyph glyph-name="uni0163" unicode="&#x163;" horiz-adv-x="1282" 
d="M1262 819h-502v-254q0 -91 42 -133.5t146 -42.5q166 0 314 21v-400q-147 -25 -330 -28l-31 -76q53 16 110 20.5t115.5 -4.5t96 -49.5t37.5 -110.5q0 -68 -37.5 -117.5t-99.5 -77t-147 -40.5t-175.5 -11.5t-188.5 13.5v186q132 -20 212.5 -14.5t114.5 25.5t34 55
q0 39 -46.5 47t-166.5 -18l-121 118l33 60q-204 25 -304 116.5t-100 257.5v457h-248v410h248v205l492 122v-327h502v-410z" />
    <glyph glyph-name="Tcaron" unicode="&#x164;" horiz-adv-x="1802" 
d="M1323 1724l-424 -163l-424 163v287l424 -164l424 164v-287zM1782 1434v-451h-615v-983h-532v983h-615v451h1762z" />
    <glyph glyph-name="tcaron" unicode="&#x165;" horiz-adv-x="1282" 
d="M936 1806l-424 -164l-424 164v287l424 -164l424 164v-287zM1262 819h-502v-254q0 -91 42 -133.5t146 -42.5q166 0 314 21v-400q-176 -30 -424 -30q-289 0 -429.5 92.5t-140.5 289.5v457h-248v410h248v205l492 122v-327h502v-410z" />
    <glyph glyph-name="Tbar" unicode="&#x166;" horiz-adv-x="1802" 
d="M1782 983h-615v-246h207v-286h-207v-451h-532v451h-244v286h244v246h-615v451h1762v-451z" />
    <glyph glyph-name="tbar" unicode="&#x167;" horiz-adv-x="1282" 
d="M1262 819h-502v-61h354v-287h-338q34 -82 172 -82q166 0 314 21v-400q-176 -30 -424 -30q-289 0 -429.5 92.5t-140.5 289.5v109h-137v287h137v61h-248v410h248v205l492 122v-327h502v-410z" />
    <glyph glyph-name="Umacron" unicode="&#x16a;" horiz-adv-x="1884" 
d="M461 1864h960v-287h-960v287zM1843 719q0 -377 -216.5 -558t-684.5 -181q-469 0 -685 180.5t-216 558.5v715h532v-715q0 -50 8 -89.5t32 -78.5t63.5 -64.5t107 -41t158.5 -15.5t158.5 16t107 41.5t63.5 64.5t32 78t8 89v715h532v-715z" />
    <glyph glyph-name="umacron" unicode="&#x16b;" horiz-adv-x="1757" 
d="M1358 1659v-287h-961v287h961zM1225 1229h491v-1229h-491v164q-265 -184 -594 -184q-590 0 -590 530v719h491v-518q0 -161 67 -231t230 -70q108 0 215.5 42.5t180.5 112.5v664z" />
    <glyph glyph-name="Uring" unicode="&#x16e;" horiz-adv-x="1884" 
d="M942 1556q-126 0 -211.5 18t-133 54.5t-66.5 84t-19 114.5t19 114.5t66.5 84t132.5 54t212 17.5t212 -17.5t132.5 -54t66.5 -84t19 -114.5t-19 -114.5t-66.5 -84t-133 -54.5t-211.5 -18zM942 1741q45 0 71.5 2t56 10t43 26.5t13.5 47.5t-13.5 47.5t-43 26.5t-56 10
t-71.5 2t-71.5 -2t-56 -10t-43 -26.5t-13.5 -47.5t13.5 -47.5t43 -26.5t56 -10t71.5 -2zM1843 719q0 -377 -216.5 -558t-684.5 -181q-469 0 -685 180.5t-216 558.5v715h532v-715q0 -50 8 -89.5t32 -78.5t63.5 -64.5t107 -41t158.5 -15.5t158.5 16t107 41.5t63.5 64.5t32 78
t8 89v715h532v-715z" />
    <glyph glyph-name="uring" unicode="&#x16f;" horiz-adv-x="1757" 
d="M879 1352q-127 0 -212 17.5t-132.5 54t-66.5 84t-19 114.5t19 114.5t66.5 84t132.5 54t212 17.5t212 -17.5t132.5 -54t66.5 -84t19 -114.5t-19 -114.5t-66.5 -84t-132.5 -54t-212 -17.5zM879 1708q-36 0 -58 -1t-49 -5.5t-42 -13.5t-25.5 -25.5t-10.5 -40.5t10.5 -40.5
t25.5 -25.5t42 -13.5t49 -5.5t58 -1q45 0 71.5 2t56 10t43 26.5t13.5 47.5t-13.5 47.5t-43 26.5t-56 10t-71.5 2zM1225 1229h491v-1229h-491v164q-265 -184 -594 -184q-590 0 -590 530v719h491v-518q0 -161 67 -231t230 -70q108 0 215.5 42.5t180.5 112.5v664z" />
    <glyph glyph-name="Uhungarumlaut" unicode="&#x170;" horiz-adv-x="1884" 
d="M457 1864l424 164v-287l-424 -164v287zM1004 1864l423 164v-287l-423 -164v287zM1843 719q0 -377 -216.5 -558t-684.5 -181q-469 0 -685 180.5t-216 558.5v715h532v-715q0 -50 8 -89.5t32 -78.5t63.5 -64.5t107 -41t158.5 -15.5t158.5 16t107 41.5t63.5 64.5t32 78t8 89
v715h532v-715z" />
    <glyph glyph-name="uhungarumlaut" unicode="&#x171;" horiz-adv-x="1757" 
d="M817 1823v-287l-424 -164v287zM1364 1823v-287l-424 -164v287zM1225 1229h491v-1229h-491v164q-265 -184 -594 -184q-590 0 -590 530v719h491v-518q0 -161 67 -231t230 -70q108 0 215.5 42.5t180.5 112.5v664z" />
    <glyph glyph-name="Uogonek" unicode="&#x172;" horiz-adv-x="1884" 
d="M1311 1434h532v-715q0 -323 -157 -501.5t-492 -223.5q-27 -20 -40 -31.5t-25.5 -30.5t-12.5 -38q0 -28 20.5 -45t70.5 -23.5t89.5 -8t122.5 -1.5v-287q-122 0 -209 5.5t-163 21t-121.5 42t-71 69t-25.5 102.5q0 119 123 211h-10q-469 0 -685 180.5t-216 558.5v715h532
v-715q0 -50 8 -89.5t32 -78.5t63.5 -64.5t107 -41t158.5 -15.5t158.5 16t107 41.5t63.5 64.5t32 78t8 89v715z" />
    <glyph glyph-name="uogonek" unicode="&#x173;" horiz-adv-x="1757" 
d="M1483 0q-4 -3 -16 -12.5t-16 -13t-13.5 -12t-13 -13t-10 -12t-9 -13.5t-4.5 -14t-2 -16q0 -28 20.5 -45t70.5 -23.5t89.5 -8t122.5 -1.5v-287q-122 0 -209 5.5t-163 21t-121.5 42t-71 69t-25.5 102.5q0 132 152 231h-39v164q-265 -184 -594 -184q-590 0 -590 530v719h491
v-518q0 -161 67 -231t230 -70q108 0 215.5 42.5t180.5 112.5v664h491v-1229h-233z" />
    <glyph glyph-name="Wcircumflex" unicode="&#x174;" horiz-adv-x="3035" 
d="M1942 1556l-424 164l-424 -164v287l424 164l424 -164v-287zM2443 1434h572l-471 -1434h-791l-235 825l-236 -825h-790l-472 1434h572l297 -1012l311 1012h635l311 -1012z" />
    <glyph glyph-name="wcircumflex" unicode="&#x175;" horiz-adv-x="2768" 
d="M1808 1352l-424 164l-423 -164v286l423 164l424 -164v-286zM2195 1229h553l-512 -1229h-596l-256 641l-256 -641h-596l-512 1229h553l285 -774l270 774h512l271 -774z" />
    <glyph glyph-name="Ycircumflex" unicode="&#x176;" horiz-adv-x="2031" 
d="M1440 1556l-424 164l-424 -164v287l424 164l424 -164v-287zM1397 1434h614l-729 -963v-471h-532v471l-730 963h615l381 -533z" />
    <glyph glyph-name="ycircumflex" unicode="&#x177;" horiz-adv-x="1804" 
d="M1327 1352l-424 164l-424 -164v286l424 164l424 -164v-286zM1251 1229h533l-699 -1741h-532l205 512h-226l-512 1229h533l356 -854z" />
    <glyph glyph-name="Ydieresis" unicode="&#x178;" horiz-adv-x="2031" 
d="M545 1946h409v-369h-409v369zM1077 1946h410v-369h-410v369zM750 471l-730 963h615l381 -533l381 533h614l-729 -963v-471h-532v471z" />
    <glyph glyph-name="Zacute" unicode="&#x179;" horiz-adv-x="1699" 
d="M1247 2007v-287l-796 -164v287zM1659 1434v-451l-860 -532h860v-451h-1618v451l860 532h-860v451h1618z" />
    <glyph glyph-name="zacute" unicode="&#x17a;" horiz-adv-x="1503" 
d="M1149 1802v-286l-797 -164v286zM1462 1229v-410l-704 -409h704v-410h-1421v410l704 409h-704v410h1421z" />
    <glyph glyph-name="Zdotaccent" unicode="&#x17b;" horiz-adv-x="1699" 
d="M1096 1946v-369h-492v369h492zM1659 1434v-451l-860 -532h860v-451h-1618v451l860 532h-860v451h1618z" />
    <glyph glyph-name="zdotaccent" unicode="&#x17c;" horiz-adv-x="1503" 
d="M997 1741v-369h-491v369h491zM1462 1229v-410l-704 -409h704v-410h-1421v410l704 409h-704v410h1421z" />
    <glyph glyph-name="Zcaron" unicode="&#x17d;" horiz-adv-x="1699" 
d="M1272 1724l-424 -163l-424 163v287l424 -164l424 164v-287zM1659 1434v-451l-860 -532h860v-451h-1618v451l860 532h-860v451h1618z" />
    <glyph glyph-name="zcaron" unicode="&#x17e;" horiz-adv-x="1503" 
d="M1174 1520l-424 -164l-424 164v286l424 -164l424 164v-286zM1462 1229v-410l-704 -409h704v-410h-1421v410l704 409h-704v410h1421z" />
    <glyph glyph-name="Scommaaccent" unicode="&#x218;" horiz-adv-x="1871" 
d="M20 506h533q0 -38 28.5 -62t120.5 -39.5t254 -15.5q156 0 235 8t103.5 22.5t24.5 43.5q0 16 -4.5 26.5t-21 19t-39.5 13.5t-70 9.5t-102.5 6.5t-145.5 5q-199 6 -342 23.5t-251.5 51t-173.5 86t-96.5 126t-31.5 174.5q0 232 220.5 341t653.5 109q215 0 373.5 -27
t272.5 -86t171.5 -156t57.5 -233h-533q0 54 -88 73t-295 19q-97 0 -153 -2.5t-90.5 -10.5t-46 -20t-11.5 -34q0 -37 50.5 -46.5t266.5 -17.5q30 -1 46 -2q163 -7 266 -14.5t220 -25t185.5 -46.5t129.5 -75t87.5 -114.5t26.5 -160.5q0 -117 -39.5 -203t-112 -142
t-188.5 -89.5t-253 -47t-322 -13.5q-154 0 -273 9.5t-225.5 32t-181 61.5t-129 97t-81 139t-26.5 187zM731 -205h410v-246l-211 -225h-199l139 225h-139v246z" />
    <glyph glyph-name="scommaaccent" unicode="&#x219;" horiz-adv-x="1708" 
d="M20 424h492q0 -37 28.5 -56.5t107 -29.5t226.5 -10q106 0 166.5 2.5t97 10.5t47.5 19.5t11 32.5q0 17 -6 27t-21 17t-46.5 10.5t-74 5.5t-113.5 5q-51 2 -81 3q-116 5 -198 10t-166.5 14.5t-141.5 23t-111.5 33.5t-88 47t-59.5 63t-37 82.5t-11 105.5q0 73 23 132.5
t62 101.5t100 73.5t128.5 50.5t156 31t173.5 16t190 4q104 0 186.5 -4t165 -16t144 -31t116 -50.5t88.5 -74.5t53.5 -102.5t19.5 -134.5h-492q0 46 -57.5 55.5t-243.5 9.5q-206 0 -264 -7t-58 -40q0 -34 49.5 -43.5t254.5 -19.5q38 -2 59 -3q124 -6 197.5 -11.5t169 -17
t150 -27.5t115 -43.5t90.5 -64t50.5 -89.5t20.5 -121q0 -79 -20 -142t-55 -108t-91 -78t-119 -53.5t-148 -32t-169 -16t-191 -4.5q-108 0 -195.5 4.5t-180.5 16.5t-164 32.5t-136 54.5t-107.5 79.5t-67 110.5t-24.5 146zM649 -205h410v-246l-211 -225h-199l139 225h-139v246
z" />
    <glyph glyph-name="uni021A" unicode="&#x21a;" horiz-adv-x="1802" 
d="M1782 1434v-451h-615v-983h-532v983h-615v451h1762zM696 -451v246h410v-246l-211 -225h-199l140 225h-140z" />
    <glyph glyph-name="uni021B" unicode="&#x21b;" horiz-adv-x="1282" 
d="M1262 819h-502v-254q0 -91 42 -133.5t146 -42.5q166 0 314 21v-400q-176 -30 -424 -30q-289 0 -429.5 92.5t-140.5 289.5v457h-248v410h248v205l492 122v-327h502v-410zM600 -451v246h410v-246l-211 -225h-199l139 225h-139z" />
    <glyph glyph-name="circumflex" unicode="&#x2c6;" horiz-adv-x="1011" 
d="M506 1802l424 -164v-286l-424 164l-424 -164v286z" />
    <glyph glyph-name="caron" unicode="&#x2c7;" horiz-adv-x="1011" 
d="M504 1642l424 164v-286l-424 -164l-424 164v286z" />
    <glyph glyph-name="breve" unicode="&#x2d8;" horiz-adv-x="1093" 
d="M82 1782h246q0 -107 52.5 -156t166.5 -49t166.5 49t52.5 156h246q0 -108 -24.5 -188.5t-65.5 -130t-102.5 -80t-126.5 -41.5t-146 -11t-146 11t-126.5 41.5t-102.5 80t-65.5 130t-24.5 188.5z" />
    <glyph glyph-name="dotaccent" unicode="&#x2d9;" horiz-adv-x="655" 
d="M82 1741h491v-369h-491v369z" />
    <glyph glyph-name="ring" unicode="&#x2da;" horiz-adv-x="1024" 
d="M512 1352q-127 0 -212 17.5t-132.5 54t-66.5 84t-19 114.5t19 114.5t66.5 84t132.5 54t212 17.5t212 -17.5t132.5 -54t66.5 -84t19 -114.5t-19 -114.5t-66.5 -84t-132.5 -54t-212 -17.5zM512 1536q45 0 71.5 2t56 10t43 26.5t13.5 47.5t-13.5 47.5t-43 26.5t-56 10
t-71.5 2t-71.5 -2t-56 -10t-43 -26.5t-13.5 -47.5t13.5 -47.5t43 -26.5t56 -10t71.5 -2z" />
    <glyph glyph-name="ogonek" unicode="&#x2db;" horiz-adv-x="753" 
d="M672 -184v-287q-122 0 -209 5.5t-163 21t-121.5 42t-71 69t-25.5 102.5q0 132 151 231h220q-4 -3 -16 -12.5t-16 -13t-13.5 -12t-13 -13t-10 -12t-9 -13.5t-4.5 -14t-2 -16q0 -28 20.5 -45t70.5 -23.5t89.5 -8t122.5 -1.5z" />
    <glyph glyph-name="tilde" unicode="&#x2dc;" horiz-adv-x="1351" 
d="M82 1372q0 65 8.5 124t29.5 116t53 98t82.5 66.5t113.5 25.5q71 0 132.5 -22.5t98 -49t90 -49t109.5 -22.5q55 0 78.5 30t23.5 93h369q0 -65 -8.5 -124t-29.5 -116t-53 -98t-82.5 -66.5t-113.5 -25.5q-71 0 -132.5 22.5t-98 49t-90 49t-109.5 22.5q-55 0 -78.5 -30
t-23.5 -93h-369z" />
    <glyph glyph-name="hungarumlaut" unicode="&#x2dd;" horiz-adv-x="1134" 
d="M82 1659l424 164v-287l-424 -164v287zM629 1659l424 164v-287l-424 -164v287z" />
    <glyph glyph-name="gravecomb" unicode="&#x300;" 
d="M-82 1638v-286l-797 164v286z" />
    <glyph glyph-name="acutecomb" unicode="&#x301;" 
d="M-879 1638l797 164v-286l-797 -164v286z" />
    <glyph glyph-name="uni0302" unicode="&#x302;" 
d="M-506 1802l424 -164v-286l-424 164l-424 -164v286z" />
    <glyph glyph-name="tildecomb" unicode="&#x303;" 
d="M-1270 1372q0 65 8.5 124t29.5 116t53 98t82.5 66.5t113.5 25.5q71 0 132.5 -22.5t98 -49t90 -49t109.5 -22.5q55 0 78.5 30t23.5 93h369q0 -65 -8.5 -124t-29.5 -116t-53 -98t-82.5 -66.5t-113.5 -25.5q-71 0 -132.5 22.5t-98 49t-90 49t-109.5 22.5q-55 0 -78.5 -30
t-23.5 -93h-369z" />
    <glyph glyph-name="uni0304" unicode="&#x304;" 
d="M-1042 1659h960v-287h-960v287z" />
    <glyph glyph-name="uni0306" unicode="&#x306;" 
d="M-1012 1782h246q0 -107 52.5 -156t166.5 -49t166.5 49t52.5 156h246q0 -108 -24.5 -188.5t-65.5 -130t-102.5 -80t-126.5 -41.5t-146 -11t-146 11t-126.5 41.5t-102.5 80t-65.5 130t-24.5 188.5z" />
    <glyph glyph-name="uni0307" unicode="&#x307;" 
d="M-573 1741h491v-369h-491v369z" />
    <glyph glyph-name="uni0308" unicode="&#x308;" 
d="M-1024 1741h410v-369h-410v369zM-492 1741h410v-369h-410v369z" />
    <glyph glyph-name="uni030A" unicode="&#x30a;" 
d="M-512 1352q-127 0 -212 17.5t-132.5 54t-66.5 84t-19 114.5t19 114.5t66.5 84t132.5 54t212 17.5t212 -17.5t132.5 -54t66.5 -84t19 -114.5t-19 -114.5t-66.5 -84t-132.5 -54t-212 -17.5zM-512 1536q45 0 71.5 2t56 10t43 26.5t13.5 47.5t-13.5 47.5t-43 26.5t-56 10
t-71.5 2t-71.5 -2t-56 -10t-43 -26.5t-13.5 -47.5t13.5 -47.5t43 -26.5t56 -10t71.5 -2z" />
    <glyph glyph-name="uni030B" unicode="&#x30b;" 
d="M-1053 1659l424 164v-287l-424 -164v287zM-506 1659l424 164v-287l-424 -164v287z" />
    <glyph glyph-name="uni030C" unicode="&#x30c;" 
d="M-508 1642l424 164v-286l-424 -164l-424 164v286z" />
    <glyph glyph-name="uni0312" unicode="&#x312;" 
d="M-82 1434h-410v245l211 226h199l-139 -226h139v-245z" />
    <glyph glyph-name="uni0326" unicode="&#x326;" 
d="M-492 -102h410v-246l-211 -225h-199l140 225h-140v246z" />
    <glyph glyph-name="uni0327" unicode="&#x327;" 
d="M-440 -94q53 16 109.5 20.5t115 -4.5t96 -49.5t37.5 -110.5q0 -68 -37.5 -117.5t-99.5 -77t-146.5 -40.5t-175 -11.5t-188.5 13.5v186q360 -52 360 66q0 39 -46.5 47t-166.5 -18l-120 118l38 72h263z" />
    <glyph glyph-name="uni0328" unicode="&#x328;" 
d="M-82 -184v-287q-122 0 -209 5.5t-163 21t-121.5 42t-71 69t-25.5 102.5q0 132 152 231h219q-4 -3 -16 -12.5t-16 -13t-13.5 -12t-13 -13t-10 -12t-9 -13.5t-4.5 -14t-2 -16q0 -28 20.5 -45t70.5 -23.5t89.5 -8t122.5 -1.5z" />
    <glyph glyph-name="uni0335" unicode="&#x335;" 
d="M-1065 840h983v-287h-983v287z" />
    <glyph glyph-name="uni0336" unicode="&#x336;" 
d="M-2130 840h2048v-287h-2048v287z" />
    <glyph glyph-name="uni0337" unicode="&#x337;" 
d="M-41 1475l-532 -1782h-512l532 1782h512z" />
    <glyph glyph-name="uni0338" unicode="&#x338;" 
d="M-123 1475l-532 -1782h-349l533 1782h348z" />
    <glyph glyph-name="Wgrave" unicode="&#x1e80;" horiz-adv-x="3035" 
d="M1915 1843v-287l-797 164v287zM2443 1434h572l-471 -1434h-791l-235 825l-236 -825h-790l-472 1434h572l297 -1012l311 1012h635l311 -1012z" />
    <glyph glyph-name="wgrave" unicode="&#x1e81;" horiz-adv-x="2768" 
d="M1782 1638v-286l-797 164v286zM2195 1229h553l-512 -1229h-596l-256 641l-256 -641h-596l-512 1229h553l285 -774l270 774h512l271 -774z" />
    <glyph glyph-name="Wacute" unicode="&#x1e82;" horiz-adv-x="3035" 
d="M1915 2007v-287l-797 -164v287zM2443 1434h572l-471 -1434h-791l-235 825l-236 -825h-790l-472 1434h572l297 -1012l311 1012h635l311 -1012z" />
    <glyph glyph-name="wacute" unicode="&#x1e83;" horiz-adv-x="2768" 
d="M1782 1802v-286l-797 -164v286zM2195 1229h553l-512 -1229h-596l-256 641l-256 -641h-596l-512 1229h553l285 -774l270 774h512l271 -774z" />
    <glyph glyph-name="Wdieresis" unicode="&#x1e84;" horiz-adv-x="3035" 
d="M1456 1946v-369h-409v369h409zM1989 1946v-369h-410v369h410zM2443 1434h572l-471 -1434h-791l-235 825l-236 -825h-790l-472 1434h572l297 -1012l311 1012h635l311 -1012z" />
    <glyph glyph-name="wdieresis" unicode="&#x1e85;" horiz-adv-x="2768" 
d="M1323 1741v-369h-410v369h410zM1855 1741v-369h-409v369h409zM2195 1229h553l-512 -1229h-596l-256 641l-256 -641h-596l-512 1229h553l285 -774l270 774h512l271 -774z" />
    <glyph glyph-name="Ygrave" unicode="&#x1ef2;" horiz-adv-x="2031" 
d="M1413 1843v-287l-797 164v287zM750 471l-730 963h615l381 -533l381 533h614l-729 -963v-471h-532v471z" />
    <glyph glyph-name="ygrave" unicode="&#x1ef3;" horiz-adv-x="1804" 
d="M1300 1638v-286l-796 164v286zM1251 1229h533l-699 -1741h-532l205 512h-226l-512 1229h533l356 -854z" />
    <glyph glyph-name="endash" unicode="&#x2013;" horiz-adv-x="2211" 
d="M82 901h2048v-409h-2048v409z" />
    <glyph glyph-name="emdash" unicode="&#x2014;" horiz-adv-x="2621" 
d="M82 901h2458v-409h-2458v409z" />
    <glyph glyph-name="quoteleft" unicode="&#x2018;" horiz-adv-x="655" 
d="M20 819l144 656h430l-82 -656h-492z" />
    <glyph glyph-name="quoteright" unicode="&#x2019;" horiz-adv-x="696" 
d="M635 1475l-143 -656h-431l82 656h492z" />
    <glyph glyph-name="quotesinglbase" unicode="&#x201a;" horiz-adv-x="573" 
d="M41 369h491v-369l-231 -451h-219l139 451h-180v369z" />
    <glyph glyph-name="quotedblleft" unicode="&#x201c;" horiz-adv-x="1228" 
d="M20 819l144 656h430l-82 -656h-492zM594 819l143 656h430l-82 -656h-491z" />
    <glyph glyph-name="quotedblright" unicode="&#x201d;" horiz-adv-x="1228" 
d="M635 1475l-143 -656h-431l82 656h492zM1208 1475l-143 -656h-430l82 656h491z" />
    <glyph glyph-name="quotedblbase" unicode="&#x201e;" horiz-adv-x="1146" 
d="M41 0v369h491v-369l-231 -451h-219l139 451h-180zM614 369h492v-369l-232 -451h-219l140 451h-181v369z" />
    <glyph glyph-name="dagger" unicode="&#x2020;" horiz-adv-x="1802" 
d="M1720 1065v-410h-573v-962h-492v962h-573v410h573v410h492v-410h573z" />
    <glyph glyph-name="daggerdbl" unicode="&#x2021;" horiz-adv-x="1802" 
d="M1720 655h-573v-143h573v-410h-573v-409h-492v409h-573v410h573v143h-573v410h573v410h492v-410h573v-410z" />
    <glyph glyph-name="bullet" unicode="&#x2022;" horiz-adv-x="927" 
d="M465 356q-217 0 -320.5 73t-103.5 228q0 154 103.5 226.5t320.5 72.5q216 0 319 -73t103 -226q0 -155 -103 -228t-319 -73z" />
    <glyph glyph-name="ellipsis" unicode="&#x2026;" horiz-adv-x="1679" 
d="M41 369h491v-369h-491v369zM594 369h491v-369h-491v369zM1147 369h491v-369h-491v369z" />
    <glyph glyph-name="perthousand" unicode="&#x2030;" horiz-adv-x="4741" 
d="M707 530q-137 0 -244 29t-178 79.5t-117 123t-66 155t-20 179.5t20 178.5t66 153.5t117 122.5t178 79.5t244 29t244.5 -29t178.5 -79.5t117.5 -122.5t66 -153.5t19.5 -178.5t-19.5 -179.5t-66 -155t-117.5 -123t-178.5 -79.5t-244.5 -29zM2206 1638l-533 -1781h-512
l533 1781h512zM707 940q56 0 82 9.5t39.5 43t13.5 103.5q0 53 -6 83.5t-24 46t-40 19.5t-65 4q-56 0 -81 -8.5t-39 -41.5t-14 -103q0 -53 6 -84t24 -47t40.5 -20.5t63.5 -4.5zM2658 -164q-137 0 -244 29t-177.5 79.5t-117 123t-66 154.5t-19.5 179t19.5 178.5t66 154
t117 123t177.5 79.5t244 29q170 0 294.5 -43.5t195.5 -122.5t104 -177.5t33 -220.5q0 -97 -20 -179t-66 -154.5t-117 -123t-179 -79.5t-245 -29zM4033 -164q-137 0 -244 29t-178 79.5t-117 123t-66 154.5t-20 179t20 178.5t66 154t117 123t178 79.5t244 29t245 -29
t178.5 -79.5t117 -123t66 -154t19.5 -178.5t-19.5 -179t-66 -154.5t-117.5 -123t-178.5 -79.5t-244.5 -29zM2658 246q42 0 64.5 4.5t40.5 20.5t24 46.5t6 83.5t-6 83.5t-24 46.5t-40 20t-65 4q-55 0 -80.5 -9t-39 -42t-13.5 -103q0 -53 6 -83.5t23.5 -46.5t39.5 -20.5
t64 -4.5zM4033 246q42 0 64.5 4.5t40.5 20.5t24 46.5t6 83.5t-6 83.5t-24 46.5t-40 20t-65 4q-42 0 -64 -4t-40 -20t-24 -46.5t-6 -83.5q0 -70 14 -103.5t39.5 -42.5t80.5 -9z" />
    <glyph glyph-name="guilsinglleft" unicode="&#x2039;" horiz-adv-x="1290" 
d="M573 1229h676l-532 -615l532 -614h-676l-532 614z" />
    <glyph glyph-name="guilsinglright" unicode="&#x203a;" horiz-adv-x="1290" 
d="M717 1229l532 -615l-532 -614h-676l532 614l-532 615h676z" />
    <glyph glyph-name="fraction" unicode="&#x2044;" horiz-adv-x="1126" 
d="M1085 1475l-532 -1782h-512l532 1782h512z" />
    <glyph glyph-name="Euro" unicode="&#x20ac;" horiz-adv-x="1679" 
d="M1071 1208q-116 0 -178 -45t-88 -137h555v-246h-582v-61v-62h582v-245h-557q26 -94 88 -140.5t180 -46.5q186 0 526 62v-451q-181 -33 -307.5 -47t-273.5 -14q-346 0 -524 154t-226 483h-184v245h164v62v61h-164v246h184q50 321 230 477t520 156q146 0 271.5 -14.5
t309.5 -47.5v-450q-335 61 -526 61z" />
    <glyph glyph-name="trademark" unicode="&#x2122;" horiz-adv-x="2125" 
d="M934 1636v-217h-297v-475h-258v475h-297v217h852zM2044 1636v-692h-258v328l-189 -328h-167l-191 332v-332h-256v692h315l215 -395l213 395h318z" />
    <glyph glyph-name="arrowleft" unicode="&#x2190;" horiz-adv-x="2222" 
d="M1110 -225q-198 0 -365 47t-288.5 132.5t-206.5 203t-126.5 259.5t-41.5 302q0 200 67 370.5t193.5 298t323.5 199.5t444 72q198 0 365 -47t288.5 -131.5t207 -201.5t127.5 -258.5t42 -301.5t-42 -302t-127.5 -259.5t-207 -203t-288.5 -132.5t-365 -47zM1761 563v307
h-753l239 222l-256 213l-581 -586l581 -590l256 213l-239 221h753z" />
    <glyph glyph-name="arrowup" unicode="&#x2191;" horiz-adv-x="2222" 
d="M1112 -225q-198 0 -365 47t-288.5 132.5t-207 203t-127.5 259.5t-42 302t42 301.5t127.5 258.5t207 201.5t288.5 131.5t365 47q247 0 444 -72t323.5 -199.5t193.5 -298t67 -370.5q0 -160 -41.5 -302t-126.5 -259.5t-206.5 -203t-288.5 -132.5t-365 -47zM1266 61v754
l221 -240l213 256l-590 582l-586 -582l213 -256l221 240v-754h308z" />
    <glyph glyph-name="arrowright" unicode="&#x2192;" horiz-adv-x="2222" 
d="M1112 -225q-198 0 -365 47t-288.5 132.5t-207 203t-127.5 259.5t-42 302t42 301.5t127.5 258.5t207 201.5t288.5 131.5t365 47q247 0 444 -72t323.5 -199.5t193.5 -298t67 -370.5q0 -160 -41.5 -302t-126.5 -259.5t-206.5 -203t-288.5 -132.5t-365 -47zM461 563h753
l-239 -221l256 -213l581 590l-581 586l-256 -213l239 -222h-753v-307z" />
    <glyph glyph-name="arrowdown" unicode="&#x2193;" horiz-adv-x="2222" 
d="M1112 1659q198 0 365 -47t288.5 -132.5t206.5 -203t126.5 -259.5t41.5 -302q0 -200 -67 -370.5t-193.5 -298t-323.5 -199.5t-444 -72q-198 0 -365 47t-288.5 131.5t-207 201.5t-127.5 258.5t-42 301.5t42 302t127.5 259.5t207 203t288.5 132.5t365 47zM1266 1372h-308
v-754l-221 240l-213 -256l586 -582l590 582l-213 256l-221 -240v754z" />
    <glyph glyph-name="arrowboth" unicode="&#x2194;" horiz-adv-x="2222" 
d="M1112 -225q-198 0 -365 47t-288.5 132.5t-207 203t-127.5 259.5t-42 302t42 301.5t127.5 258.5t207 201.5t288.5 131.5t365 47q247 0 444 -72t323.5 -199.5t193.5 -298t67 -370.5q0 -160 -41.5 -302t-126.5 -259.5t-206.5 -203t-288.5 -132.5t-365 -47zM1903 715
l-439 590l-256 -213l178 -222h-544l178 222l-256 213l-442 -592l442 -584l256 213l-178 219l544 2l-178 -221l256 -213z" />
    <glyph glyph-name="arrowupdn" unicode="&#x2195;" horiz-adv-x="2222" 
d="M1112 -225q-198 0 -365 47t-288.5 132.5t-207 203t-127.5 259.5t-42 302t42 301.5t127.5 258.5t207 201.5t288.5 131.5t365 47q247 0 444 -72t323.5 -199.5t193.5 -298t67 -370.5q0 -160 -41.5 -302t-126.5 -259.5t-206.5 -203t-288.5 -132.5t-365 -47zM1114 1487
l-590 -438l213 -256l221 178v-504l-221 178l-213 -256l590 -442l586 442l-213 256l-221 -178v504l221 -178l213 256z" />
    <glyph glyph-name="uni2196" unicode="&#x2196;" horiz-adv-x="2222" 
d="M1110 -225q-198 0 -365 47t-288.5 132.5t-206.5 203t-126.5 259.5t-41.5 302q0 200 67 370.5t193.5 298t323.5 199.5t444 72q198 0 365 -47t288.5 -131.5t207 -201.5t127.5 -258.5t42 -301.5t-42 -302t-127.5 -259.5t-207 -203t-288.5 -132.5t-365 -47zM1448 164l217 217
l-532 532l325 -12l-31 330l-825 -2l-4 -828l330 -30l-13 325z" />
    <glyph glyph-name="uni2197" unicode="&#x2197;" horiz-adv-x="2222" 
d="M1112 -225q-198 0 -365 47t-288.5 132.5t-207 203t-127.5 259.5t-42 302t42 301.5t127.5 258.5t207 201.5t288.5 131.5t365 47q247 0 444 -72t323.5 -199.5t193.5 -298t67 -370.5q0 -160 -41.5 -302t-126.5 -259.5t-206.5 -203t-288.5 -132.5t-365 -47zM774 164l533 532
l-13 -325l330 30l-4 828l-825 2l-31 -330l326 12l-533 -532z" />
    <glyph glyph-name="uni2198" unicode="&#x2198;" horiz-adv-x="2222" 
d="M1112 1659q198 0 365 -47t288.5 -132.5t206.5 -203t126.5 -259.5t41.5 -302q0 -200 -67 -370.5t-193.5 -298t-323.5 -199.5t-444 -72q-198 0 -365 47t-288.5 131.5t-207 201.5t-127.5 258.5t-42 301.5t42 302t127.5 259.5t207 203t288.5 132.5t365 47zM774 1270
l-217 -217l533 -533l-326 12l31 -329l825 2l4 827l-330 31l13 -326z" />
    <glyph glyph-name="uni2199" unicode="&#x2199;" horiz-adv-x="2222" 
d="M1110 1659q198 0 365 -47t288.5 -132.5t207 -203t127.5 -259.5t42 -302t-42 -301.5t-127.5 -258.5t-207 -201.5t-288.5 -131.5t-365 -47q-247 0 -444 72t-323.5 199.5t-193.5 298t-67 370.5q0 160 41.5 302t126.5 259.5t206.5 203t288.5 132.5t365 47zM1448 1270
l-533 -533l13 326l-330 -31l4 -827l825 -2l31 329l-325 -12l532 533z" />
    <glyph glyph-name="partialdiff" unicode="&#x2202;" horiz-adv-x="1931" 
d="M532 1638q212 -12 406.5 -67t360.5 -153.5t288.5 -230t192 -307.5t69.5 -376q0 -124 -28 -231t-77.5 -189t-120 -147.5t-153.5 -110.5t-180 -75.5t-197.5 -44t-207.5 -13.5q-803 0 -803 590q0 129 38.5 233t117 182t206 120t295.5 42q330 0 604 -211
q-34 174 -152.5 299.5t-298.5 193.5t-419 87zM885 102q291 0 407 164q-75 69 -166.5 112.5t-162 58t-136.5 14.5q-127 0 -190.5 -39t-63.5 -129q0 -89 72 -135t240 -46z" />
    <glyph glyph-name="emptyset" unicode="&#x2205;" horiz-adv-x="2334" 
d="M2253 1513l-228 -227q173 -238 173 -567q0 -160 -42 -302t-127 -259.5t-206.5 -203t-288.5 -132.5t-365 -47q-314 0 -540 114l-258 -258l-289 289l231 232q-174 236 -174 567q0 160 42 301.5t127.5 258.5t207 201.5t288.5 131.5t365 47q308 0 539 -113l256 256zM631 719
q0 -121 31 -219l722 723q-91 26 -215 26q-538 0 -538 -530zM1706 719q0 117 -29 219l-725 -725q102 -29 217 -29q270 0 403.5 136.5t133.5 398.5z" />
    <glyph glyph-name="product" unicode="&#x220f;" horiz-adv-x="2586" 
d="M2505 1475v-492h-408v-1290h-491v1290h-623v-1290h-491v1290h-410v492h2423z" />
    <glyph glyph-name="summation" unicode="&#x2211;" horiz-adv-x="1679" 
d="M1597 1638v-409h-901l574 -563l-574 -564h901v-409h-1515v409l573 564l-573 563v409h1515z" />
    <glyph glyph-name="minus" unicode="&#x2212;" horiz-adv-x="1802" 
d="M82 901h1638v-409h-1638v409z" />
    <glyph glyph-name="radical" unicode="&#x221a;" horiz-adv-x="2682" 
d="M2601 1638v-409h-504l-522 -1536h-782l-277 616h-434v410h756l346 -719l542 1638h875z" />
    <glyph glyph-name="infinity" unicode="&#x221e;" horiz-adv-x="2586" 
d="M82 612q0 264 158.5 422t433.5 158q196 0 339 -83t281 -273q138 190 280.5 273t338.5 83q275 0 433.5 -158t158.5 -422q0 -272 -151.5 -421.5t-440.5 -149.5q-196 0 -339.5 82t-281.5 270q-138 -188 -280 -270t-338 -82q-289 0 -440.5 149.5t-151.5 421.5zM573 612
q0 -87 37.5 -124t145.5 -37q76 0 135 35.5t131 127.5q-74 94 -133 131t-133 37q-93 0 -138 -45t-45 -125zM1565 612q71 -91 129.5 -126t136.5 -35q107 0 144.5 37t37.5 124q0 80 -44.5 125t-137.5 45q-74 0 -133 -37t-133 -133z" />
    <glyph glyph-name="integral" unicode="&#x222b;" horiz-adv-x="1951" 
d="M82 -307v409q54 0 85.5 1t89 6.5t95 16.5t87 33.5t84 54t67.5 80.5t53 112l154 520q42 148 103.5 263t123 189.5t153.5 126.5t159 77.5t179 38.5t174 15t179 2h2v-409q-42 0 -65.5 -0.5t-68.5 -3t-73 -7.5t-70.5 -15.5t-71 -25.5t-64 -38t-60.5 -52.5t-48.5 -70.5
t-39.5 -90l-154 -520q-33 -116 -78 -212t-90 -165.5t-110 -124t-116.5 -89.5t-131 -59.5t-131.5 -36.5t-140.5 -18t-136.5 -7t-139 -1z" />
    <glyph glyph-name="approxequal" unicode="&#x2248;" horiz-adv-x="1802" 
d="M82 778q0 160 22.5 276.5t74 204t139.5 131.5t214 44q75 0 140.5 -21t114 -51t95 -60.5t104 -51.5t120.5 -21q79 0 121.5 45t42.5 160h450q0 -160 -22.5 -276.5t-74 -204t-139.5 -131.5t-214 -44q-75 0 -140.5 21t-114 51t-95 60.5t-104 51.5t-120.5 21q-79 0 -121.5 -45
t-42.5 -160h-450zM82 0q0 160 22.5 276.5t74 204t139.5 131t214 43.5q75 0 140.5 -21t114 -51t95 -60t104 -51t120.5 -21q79 0 121.5 44.5t42.5 159.5h450q0 -160 -22.5 -276.5t-74 -204t-139.5 -131t-214 -43.5q-75 0 -140.5 21t-114 51t-95 60.5t-104 51.5t-120.5 21
q-79 0 -121.5 -45t-42.5 -160h-450z" />
    <glyph glyph-name="notequal" unicode="&#x2260;" horiz-adv-x="1802" 
d="M1720 819h-526l-74 -246h600v-409h-723l-106 -359h-512l106 359h-403v409h526l74 246h-600v410h723l106 358h512l-106 -358h403v-410z" />
    <glyph glyph-name="lessequal" unicode="&#x2264;" horiz-adv-x="1617" 
d="M1536 1434v-410l-969 -61l969 -62v-409l-1454 184v573zM82 0v410h1454v-410h-1454z" />
    <glyph glyph-name="greaterequal" unicode="&#x2265;" horiz-adv-x="1617" 
d="M82 1434l1454 -185v-573l-1454 -184v409l969 62l-969 61v410zM82 0v410h1454v-410h-1454z" />
    <glyph glyph-name="lozenge" unicode="&#x25ca;" horiz-adv-x="1804" 
d="M1231 1638l491 -921l-491 -922h-656l-493 922l493 921h656zM903 27l367 690l-367 692l-371 -692z" />
    <glyph glyph-name="i.loclTRK" horiz-adv-x="573" 
d="M41 1741h491v-369h-491v369zM41 1229h491v-1229h-491v1229z" />
    <glyph glyph-name="a.001" horiz-adv-x="1746" 
d="M1655 252q0 -48 1 -73t7 -65t21.5 -67.5t41.5 -46.5h-366q-102 0 -149.5 32.5t-47.5 117.5q-132 -97 -283.5 -133.5t-332.5 -36.5q-109 0 -201.5 20.5t-167 62.5t-116.5 114.5t-42 168.5q0 92 42 164t110.5 116.5t165 73t196.5 39.5t214 11q239 0 415 -64
q0 36 -11.5 62.5t-35.5 43t-50 26.5t-67.5 14.5t-73.5 6t-81 1.5q-269 0 -563 -64l-160 348q384 125 739 125q194 0 337.5 -34.5t247 -109.5t156.5 -199t54 -298v-356zM1163 401v52q-117 30 -325 30q-177 0 -251.5 -20.5t-74.5 -77.5q0 -48 40.5 -63t141.5 -15
q120 0 246.5 26.5t222.5 67.5z" />
    <glyph glyph-name="b.001" horiz-adv-x="1732" 
d="M1081 1249q88 0 164.5 -13t149 -41t129 -77.5t99.5 -118t66 -166.5t23 -219q0 -634 -631 -634q-177 0 -317 55.5t-232 159.5v-195h-491v1638h494v-604q90 104 229.5 159.5t316.5 55.5zM877 389q176 0 260 48.5t84 176.5t-84 177t-260 49q-168 0 -252 -43.5t-93 -157.5
v-47q9 -115 93 -159t252 -44z" />
    <glyph glyph-name="e.001" horiz-adv-x="1748" 
d="M877 369q107 0 192 27t137 65l482 -82q-78 -186 -288 -292.5t-523 -106.5q-193 0 -343.5 35.5t-262 110t-171 198t-59.5 290.5t59.5 290.5t171 198t262 110.5t343.5 36q154 0 281 -26.5t230 -82.5t173.5 -139.5t108.5 -202t38 -266.5h-1165q25 -86 108.5 -124.5
t225.5 -38.5zM877 901q-128 0 -203.5 -26t-110.5 -97h625q-35 71 -109.5 97t-201.5 26z" />
    <glyph glyph-name="m.001" horiz-adv-x="2695" 
d="M2187 1249q80 0 147 -13.5t127.5 -46t102 -83t66 -128t24.5 -177.5v-801h-491v580q0 135 -54.5 187t-166.5 52q-148 0 -349 -135v-684h-491v580q0 135 -54.5 187t-166.5 52q-148 0 -349 -135v-684h-491v1229h491v-185q185 113 315 159t300 46q295 0 397 -207
q194 116 327 161.5t316 45.5z" />
    <glyph glyph-name="n.001" horiz-adv-x="1757" 
d="M1208 1249q508 0 508 -448v-801h-491v559q0 140 -57 200t-179 60q-196 0 -457 -135v-684h-491v1229h491v-164q343 184 676 184z" />
    </font>
</defs>
</svg>
