<?xml version="1.0" standalone="no"?>
<!DOCTYPE svg PUBLIC "-//W3C//DTD SVG 1.1//EN" "http://www.w3.org/Graphics/SVG/1.1/DTD/svg11.dtd" >
<svg xmlns="http://www.w3.org/2000/svg" xmlns:xlink="http://www.w3.org/1999/xlink" version="1.1">
<metadata>
Created by FontForge 20201107 at Tue Jul 15 18:01:13 2025
 By 
Copyright 2015 (c) Newlyn Works Limited
</metadata>
<defs>
<font id="NewHero-Regular" horiz-adv-x="1304" >
  <font-face 
    font-family="New Hero"
    font-weight="400"
    font-stretch="normal"
    units-per-em="2048"
    panose-1="2 0 5 0 0 0 0 0 0 0"
    ascent="1638"
    descent="-410"
    x-height="1108"
    cap-height="1524"
    bbox="-395 -575 2636 2150"
    underline-thickness="102"
    underline-position="-255"
    unicode-range="U+000D-FB02"
  />
<missing-glyph horiz-adv-x="1468" 
d="M1307 1522v-1522h-1145v1522h1145zM317 248l332 512l-332 514v-1026zM422 150h625l-314 483zM422 1372l311 -483l314 483h-625zM819 760l332 -512v1026z" />
    <glyph glyph-name="fi" unicode="fi" horiz-adv-x="1312" 
d="M231 0v944h-159v164h159v166q0 165 104.5 270t272.5 105q87 0 185 -31v-174q-71 29 -162 29q-213 0 -213 -224v-141h319v-164h-317v-944h-189zM926 1477q0 50 32.5 82t83.5 32t84 -32t33 -82t-33 -82.5t-84 -32.5t-83.5 32.5t-32.5 82.5zM948 0v1108h189v-1108h-189z" />
    <glyph glyph-name="fl" unicode="fl" horiz-adv-x="1312" 
d="M231 0v944h-159v164h159v166q0 165 104.5 270t272.5 105q87 0 185 -31v-174q-71 29 -162 29q-213 0 -213 -224v-141h319v-164h-317v-944h-189zM948 0v1638h189v-1638h-189z" />
    <glyph glyph-name=".notdef" horiz-adv-x="1468" 
d="M1307 1522v-1522h-1145v1522h1145zM317 248l332 512l-332 514v-1026zM422 150h625l-314 483zM422 1372l311 -483l314 483h-625zM819 760l332 -512v1026z" />
    <glyph glyph-name=".null" horiz-adv-x="0" 
 />
    <glyph glyph-name="nonmarkingreturn" horiz-adv-x="682" 
 />
    <glyph glyph-name="CR" unicode="&#xd;" horiz-adv-x="593" 
 />
    <glyph glyph-name="space" unicode=" " horiz-adv-x="559" 
 />
    <glyph glyph-name="exclam" unicode="!" horiz-adv-x="532" 
d="M195 473l-29 1051h201l-31 -1051h-141zM139 117q0 55 36.5 92t92.5 37q54 0 90.5 -37t36.5 -92q0 -54 -36.5 -90.5t-90.5 -36.5q-55 0 -92 36.5t-37 90.5z" />
    <glyph glyph-name="quotedbl" unicode="&#x22;" horiz-adv-x="806" 
d="M172 977l-39 547h186l-32 -547h-115zM483 1524h187l-33 -547h-115z" />
    <glyph glyph-name="numbersign" unicode="#" horiz-adv-x="1452" 
d="M510 1524h172l-72 -447h330l72 447h170l-72 -447h238v-151h-263l-51 -330h250v-152h-274l-72 -444h-170l72 444h-330l-72 -444h-172l72 444h-234v152h258l52 330h-246v151h270zM535 596h329l51 330h-329z" />
    <glyph glyph-name="dollar" unicode="$" horiz-adv-x="1138" 
d="M129 367q70 -80 180 -125t221 -45q135 0 225.5 68.5t90.5 178.5q0 30 -9 57t-22 46.5t-38.5 39.5t-46 32.5t-58 28.5t-61.5 25t-68 25q-54 19 -86.5 32t-81.5 35.5t-78.5 43t-64.5 52.5t-54 66.5t-32 81.5t-13 101q0 142 97 247t257 134v176h168v-168q169 -15 295 -88
v-203q-58 46 -152.5 79.5t-191.5 33.5q-128 0 -204 -61t-76 -154q0 -40 17 -74t40.5 -56.5t68 -45.5t78.5 -36t93 -34q55 -19 88 -31.5t82.5 -35t80 -43.5t65.5 -53.5t54.5 -68.5t33 -84.5t13.5 -105.5q0 -147 -106.5 -262t-278.5 -147v-176h-168v167q-199 13 -358 123v224z
" />
    <glyph glyph-name="percent" unicode="%" horiz-adv-x="1816" 
d="M463 920q88 0 154.5 67.5t66.5 179.5q0 113 -66 179.5t-155 66.5q-92 0 -158.5 -66.5t-66.5 -179.5q0 -112 67 -179.5t158 -67.5zM86 1167q0 168 108 277.5t269 109.5q159 0 265 -109.5t106 -277.5t-106 -278.5t-265 -110.5q-161 0 -269 110t-108 279zM315 0l1004 1524
h180l-1001 -1524h-183zM981 356q0 169 107 279t268 110t267 -110t106 -279q0 -167 -106.5 -277t-266.5 -110q-161 0 -268 109.5t-107 277.5zM1133 356q0 -112 66.5 -178.5t156.5 -66.5t156.5 66.5t66.5 178.5q0 113 -66.5 180.5t-156.5 67.5t-156.5 -67.5t-66.5 -180.5z" />
    <glyph glyph-name="ampersand" unicode="&#x26;" horiz-adv-x="1548" 
d="M668 1554q179 0 292 -106.5t113 -259.5q0 -59 -19.5 -112.5t-50.5 -93.5t-79 -78.5t-94 -66t-107 -57.5l321 -336l232 367h192l-311 -481l320 -330h-224l-190 199q-193 -228 -455 -228q-207 0 -340 120.5t-133 307.5q0 78 24.5 143t72 115t101.5 87.5t128 74.5
q-106 111 -157.5 197t-51.5 180q0 151 119 254.5t297 103.5zM317 410q0 -121 84 -199t215 -78q191 0 336 178l-383 396q-61 -31 -102 -58t-77.5 -62.5t-54.5 -79.5t-18 -97zM430 1190q0 -61 41 -126t143 -173q69 32 114.5 59t88.5 62t63.5 76.5t20.5 91.5q0 89 -62.5 152
t-170.5 63q-106 0 -172 -59t-66 -146z" />
    <glyph glyph-name="quotesingle" unicode="'" horiz-adv-x="458" 
d="M172 977l-39 547h186l-32 -547h-115z" />
    <glyph glyph-name="parenleft" unicode="(" horiz-adv-x="696" 
d="M678 1524q-177 -171 -283 -400.5t-106 -492.5q0 -264 106 -493.5t283 -401.5h-209q-169 182 -264.5 408.5t-95.5 486.5q0 257 95.5 484.5t264.5 408.5h209z" />
    <glyph glyph-name="parenright" unicode=")" horiz-adv-x="696" 
d="M227 1524q169 -181 265 -408.5t96 -484.5q0 -260 -96 -486.5t-265 -408.5h-209q177 172 283.5 402t106.5 493t-106 492.5t-284 400.5h209z" />
    <glyph glyph-name="asterisk" unicode="*" horiz-adv-x="1187" 
d="M678 1638l-33 -368l363 143l61 -170l-389 -78l258 -280l-141 -105l-203 320h-2l-203 -320l-145 105l256 280l-379 78l53 168l358 -141l-32 368h178z" />
    <glyph glyph-name="plus" unicode="+" horiz-adv-x="1390" 
d="M776 1348v-504h506v-166h-506v-506h-172v506h-493v166h493v504h172z" />
    <glyph glyph-name="comma" unicode="," horiz-adv-x="497" 
d="M78 -272q86 278 86 469v92h178v-84q0 -189 -123 -477h-141z" />
    <glyph glyph-name="hyphen" unicode="-" horiz-adv-x="833" 
d="M152 571v164h530v-164h-530z" />
    <glyph glyph-name="period" unicode="." horiz-adv-x="516" 
d="M258 -10q-55 0 -91 36.5t-36 90.5q0 56 36 92.5t91 36.5q54 0 90.5 -37t36.5 -92q0 -54 -36.5 -90.5t-90.5 -36.5z" />
    <glyph glyph-name="slash" unicode="/" horiz-adv-x="1011" 
d="M72 -272l684 2066h184l-686 -2066h-182z" />
    <glyph glyph-name="zero" unicode="0" horiz-adv-x="1396" 
d="M698 1374q-163 0 -269.5 -165t-106.5 -449t106 -447t270 -163q163 0 272 164.5t109 445.5q0 283 -109 448.5t-272 165.5zM129 760q0 182 44.5 333t122 251t181 155t221.5 55t222 -55t182 -155t123 -251t45 -333q0 -181 -45 -331.5t-123 -250t-182 -154.5t-222 -55
t-221.5 55t-181 154.5t-122 250t-44.5 331.5z" />
    <glyph glyph-name="one" unicode="1" horiz-adv-x="931" 
d="M457 0v1266l-379 -162v199l549 227h18v-1530h-188z" />
    <glyph glyph-name="two" unicode="2" horiz-adv-x="1200" 
d="M76 0q261 291 406.5 463t228.5 292.5t106 185t23 136.5q0 121 -81 209t-220 88q-117 0 -217.5 -51.5t-171.5 -130.5v213q68 65 177 107t228 42q219 0 348 -133.5t129 -333.5q0 -72 -26 -149.5t-69 -153t-122 -177t-160 -194.5t-209 -233h641v-180h-1011z" />
    <glyph glyph-name="three" unicode="3" horiz-adv-x="1179" 
d="M166 1417q66 63 164 100t211 37q105 0 192.5 -33.5t145.5 -89.5t90 -129.5t32 -154.5q0 -118 -60 -210.5t-167 -139.5v-4q121 -42 200 -140t79 -243q0 -85 -33.5 -163t-96 -139.5t-161.5 -98t-219 -36.5q-248 0 -418 150v213q74 -87 177 -136.5t224 -49.5
q153 0 244.5 77.5t91.5 198.5q0 122 -94.5 197t-257.5 75h-191v162h148q168 0 257 71.5t89 190.5q0 109 -78.5 181.5t-214.5 72.5q-105 0 -199 -45t-155 -117v203z" />
    <glyph glyph-name="four" unicode="4" horiz-adv-x="1341" 
d="M995 1524v-994h262v-168h-262v-362h-180v362h-743v115l766 1047h157zM297 530h518v711l-518 -709v-2z" />
    <glyph glyph-name="five" unicode="5" horiz-adv-x="1169" 
d="M989 1524v-178h-522l-84 -431q91 31 166 31q119 0 217 -40.5t160.5 -107.5t96.5 -151.5t34 -175.5q0 -95 -32.5 -182.5t-96.5 -160t-171 -116t-243 -43.5q-235 0 -405 144v221q74 -87 183 -134.5t220 -47.5q159 0 254.5 87t95.5 224q0 142 -98.5 231.5t-269.5 89.5
q-131 0 -277 -71l-24 20l137 791h659z" />
    <glyph glyph-name="six" unicode="6" horiz-adv-x="1253" 
d="M999 1524l-448 -557q55 10 104 10q126 0 241 -59.5t190 -173.5t75 -255q0 -145 -66 -263.5t-187.5 -187.5t-274.5 -69q-114 0 -213.5 40.5t-168 110t-108 164t-39.5 199.5q0 122 53 233t160 240l455 568h227zM291 483q0 -137 98 -238.5t244 -101.5t243 100t97 236
q0 159 -110.5 250.5t-264.5 91.5q-102 0 -192 -43q-60 -77 -87.5 -145t-27.5 -150z" />
    <glyph glyph-name="seven" unicode="7" horiz-adv-x="1132" 
d="M119 0l708 1346h-721v178h1012l-796 -1524h-203z" />
    <glyph glyph-name="eight" unicode="8" horiz-adv-x="1302" 
d="M903 784q131 -48 202 -151t71 -232q0 -186 -145 -309t-380 -123q-232 0 -377 123.5t-145 308.5q0 128 70.5 232.5t199.5 150.5v4q-102 47 -164.5 136.5t-62.5 212.5q0 82 33.5 157.5t94 133t152 92t199.5 34.5t199.5 -34.5t152 -92t94 -132t33.5 -156.5
q0 -124 -63.5 -214.5t-163.5 -136.5v-4zM317 418q0 -117 92 -199t242 -82q153 0 245.5 82t92.5 199q0 122 -93 201t-245 79q-150 0 -242 -79t-92 -201zM354 1124q0 -117 83 -190.5t214 -73.5t214 73.5t83 190.5q0 108 -84 184t-213 76q-131 0 -214 -75t-83 -185z" />
    <glyph glyph-name="nine" unicode="9" horiz-adv-x="1234" 
d="M459 0h-230l449 555q-40 -6 -84 -6q-91 0 -180 34t-161 94.5t-116.5 154.5t-44.5 204q0 140 65.5 258t186.5 189t272 71q228 0 373.5 -145.5t145.5 -361.5q0 -114 -51.5 -227t-159.5 -242zM283 1044q0 -149 100.5 -245.5t249.5 -96.5q104 0 194 41q62 81 90.5 149.5
t28.5 149.5q0 142 -92 240t-238 98t-239.5 -98.5t-93.5 -237.5z" />
    <glyph glyph-name="colon" unicode=":" horiz-adv-x="552" 
d="M276 -10q-55 0 -90.5 36.5t-35.5 90.5q0 56 35.5 92.5t90.5 36.5q54 0 90.5 -37t36.5 -92q0 -54 -36.5 -90.5t-90.5 -36.5zM150 811q0 56 35.5 92.5t90.5 36.5q54 0 90.5 -37t36.5 -92q0 -54 -36.5 -90.5t-90.5 -36.5q-55 0 -90.5 36.5t-35.5 90.5z" />
    <glyph glyph-name="semicolon" unicode=";" horiz-adv-x="555" 
d="M121 -272q86 278 86 469v92h178v-84q0 -189 -123 -477h-141zM150 811q0 56 35.5 92.5t90.5 36.5q54 0 90.5 -37t36.5 -92q0 -54 -36.5 -90.5t-90.5 -36.5q-55 0 -90.5 36.5t-35.5 90.5z" />
    <glyph glyph-name="less" unicode="&#x3c;" horiz-adv-x="1353" 
d="M1176 1108v188l-1072 -444v-186l1072 -441v189l-857 346z" />
    <glyph glyph-name="equal" unicode="=" horiz-adv-x="1415" 
d="M164 858v166h1087v-166h-1087zM164 498v166h1087v-166h-1087z" />
    <glyph glyph-name="greater" unicode="&#x3e;" horiz-adv-x="1353" 
d="M178 1108l856 -348l-856 -346v-189l1071 441v186l-1071 444v-188z" />
    <glyph glyph-name="question" unicode="?" horiz-adv-x="1048" 
d="M492 1554q192 0 318 -123.5t126 -306.5q0 -56 -15.5 -109.5t-42.5 -103t-70.5 -107t-92.5 -113t-115 -129.5l-33 -36h-202q31 36 83.5 94.5t76.5 86t62 73t55 70.5t40.5 61t32.5 62t16.5 57t7.5 62q0 125 -78 201.5t-202 76.5q-95 0 -191.5 -53t-163.5 -133v213
q68 68 170.5 112.5t217.5 44.5zM348 117q0 55 36.5 92t90.5 37q55 0 92 -37t37 -92q0 -54 -37 -90.5t-92 -36.5q-54 0 -90.5 36.5t-36.5 90.5z" />
    <glyph glyph-name="at" unicode="@" horiz-adv-x="2037" 
d="M1513 1008l-118 -785q149 43 254.5 189t105.5 354q0 169 -89 295.5t-235 190t-325 63.5q-153 0 -297.5 -54.5t-260.5 -154.5t-186.5 -257t-70.5 -347q0 -147 44 -266.5t118.5 -199.5t177 -134.5t216.5 -78.5t240 -24q183 0 345 54l-25 -160q-168 -47 -340 -47
q-149 0 -285.5 31t-258 97.5t-211 163t-141.5 236.5t-52 309q0 179 53.5 337t148.5 275.5t220.5 202.5t273 128.5t303.5 43.5q127 0 245.5 -30t218 -89t173.5 -140.5t116 -191.5t42 -235q0 -189 -81.5 -349t-221 -252.5t-303.5 -92.5h-64l8 158q-128 -178 -311 -178
q-74 0 -141 27t-120.5 78t-85.5 132.5t-32 181.5q0 143 61 267t168 198t234 74q105 0 185.5 -51.5t121.5 -149.5l51 181h131zM737 498q0 -134 71 -203.5t175 -69.5q131 0 216 106t85 259q0 129 -64 205.5t-171 76.5q-130 0 -221 -109t-91 -265z" />
    <glyph glyph-name="A" unicode="A" horiz-adv-x="1462" 
d="M1440 0h-205l-178 463h-654l-178 -463h-200l598 1524h215zM465 633h528l-264 678z" />
    <glyph glyph-name="B" unicode="B" horiz-adv-x="1329" 
d="M209 0v1524h463q237 0 366 -110.5t129 -285.5q0 -130 -63 -215.5t-168 -126.5q138 -42 209.5 -137t71.5 -229q0 -181 -135.5 -300.5t-385.5 -119.5h-487zM397 172h295q159 0 246.5 72.5t87.5 191.5q0 123 -90 192.5t-234 69.5h-305v-526zM397 856h275q145 0 226 71
t81 183q0 114 -78 178t-215 64h-289v-496z" />
    <glyph glyph-name="C" unicode="C" horiz-adv-x="1366" 
d="M1270 74q-181 -105 -404 -105q-149 0 -285.5 56.5t-241 157.5t-166.5 252t-62 329q0 142 40 268t111.5 220t166 163t206.5 104t231 35q229 0 404 -104v-201q-99 62 -190 92.5t-206 30.5q-108 0 -209.5 -42t-182 -118t-129 -193t-48.5 -257q0 -138 48.5 -255t129 -193.5
t182 -119t209.5 -42.5q114 0 205.5 31t190.5 93v-202z" />
    <glyph glyph-name="D" unicode="D" horiz-adv-x="1499" 
d="M578 1524q368 0 588 -208.5t220 -553.5q0 -228 -101.5 -401.5t-284.5 -267t-422 -93.5h-369v1524h369zM399 178h187q270 0 438 155t168 427q0 184 -78.5 318t-214 201t-311.5 67h-189v-1168z" />
    <glyph glyph-name="E" unicode="E" horiz-adv-x="1183" 
d="M209 0v1524h835v-178h-645v-486h598v-168h-598v-516h645v-176h-835z" />
    <glyph glyph-name="F" unicode="F" horiz-adv-x="1157" 
d="M209 0v1524h835v-178h-645v-529h615v-174h-615v-643h-190z" />
    <glyph glyph-name="G" unicode="G" horiz-adv-x="1486" 
d="M305 760q0 -132 44 -246.5t119 -193t177.5 -123.5t218.5 -45q165 0 299 67v604h183v-723q-228 -131 -484 -131q-150 0 -286.5 57t-239.5 158t-164 251t-61 325q0 176 60 326t163 252t240.5 159t291.5 57q249 0 439 -110v-203q-204 127 -431 127q-118 0 -222.5 -45
t-181 -123.5t-121 -193t-44.5 -246.5z" />
    <glyph glyph-name="H" unicode="H" horiz-adv-x="1603" 
d="M1204 0v684h-805v-684h-190v1524h190v-662h805v662h191v-1524h-191z" />
    <glyph glyph-name="I" unicode="I" horiz-adv-x="608" 
d="M209 0v1524h190v-1524h-190z" />
    <glyph glyph-name="J" unicode="J" horiz-adv-x="954" 
d="M59 287q118 -131 265 -131q115 0 180 73t65 215v1080h191v-1106q0 -197 -112.5 -320t-303.5 -123q-79 0 -155 28t-130 77v207z" />
    <glyph glyph-name="K" unicode="K" horiz-adv-x="1353" 
d="M1329 1524l-713 -758l723 -766h-243l-697 745v-745h-190v1524h190v-742l693 742h237z" />
    <glyph glyph-name="L" unicode="L" horiz-adv-x="1118" 
d="M209 0v1524h190v-1346h672v-178h-862z" />
    <glyph glyph-name="M" unicode="M" horiz-adv-x="1982" 
d="M477 1241l-182 -1241h-189l234 1524h231l424 -1237h2l412 1237h236l231 -1524h-188l-185 1251h-4l-422 -1251h-170l-426 1241h-4z" />
    <glyph glyph-name="N" unicode="N" horiz-adv-x="1624" 
d="M1415 1524v-1524h-176l-842 1217h-2v-1217h-186v1524h192l828 -1196h2v1196h184z" />
    <glyph glyph-name="O" unicode="O" horiz-adv-x="1734" 
d="M868 150q109 0 210 42t179.5 118t125.5 193.5t47 258.5t-47 258.5t-125.5 193.5t-179.5 118t-210 42q-88 0 -171 -26t-154 -78.5t-124 -124.5t-83.5 -171t-30.5 -212q0 -114 30.5 -213t84.5 -171t125 -124t153.5 -78t169.5 -26zM111 762q0 222 97.5 403t271 285
t388.5 104q160 0 300.5 -61t240.5 -166t157.5 -252t57.5 -313q0 -224 -98 -405.5t-271 -284.5t-387 -103q-161 0 -302 60.5t-240.5 165t-157 252t-57.5 315.5z" />
    <glyph glyph-name="P" unicode="P" horiz-adv-x="1253" 
d="M209 0v1524h373q272 0 434 -132.5t162 -363.5q0 -232 -160.5 -372t-429.5 -140h-189v-516h-190zM399 692h199q180 0 283.5 88t103.5 244q0 154 -103.5 238t-283.5 84h-199v-654z" />
    <glyph glyph-name="Q" unicode="Q" horiz-adv-x="1744" 
d="M868 1554q160 0 300.5 -61t240.5 -166t157.5 -252t57.5 -313q0 -308 -180 -526l219 -222l-129 -127l-221 224q-194 -142 -445 -142q-161 0 -302 60.5t-240.5 165t-157 252t-57.5 315.5q0 222 97.5 403t271 285t388.5 104zM305 762q0 -114 30.5 -213t84.5 -171t125 -124
t153.5 -78t169.5 -26q175 0 312 96l-299 305l129 127l301 -305q119 161 119 389q0 141 -47 258.5t-125.5 193.5t-179.5 118t-210 42q-88 0 -171 -26t-154 -78.5t-124 -124.5t-83.5 -171t-30.5 -212z" />
    <glyph glyph-name="R" unicode="R" horiz-adv-x="1275" 
d="M209 0v1524h403q258 0 397.5 -124t139.5 -329q0 -192 -130 -314.5t-372 -135.5l565 -621h-243l-549 618h-21v-618h-190zM399 778h185q190 0 280 76t90 211q0 132 -91.5 206.5t-262.5 74.5h-201v-568z" />
    <glyph glyph-name="S" unicode="S" horiz-adv-x="1161" 
d="M616 1556q199 0 363 -100v-196q-78 56 -174 87t-187 31q-124 0 -207 -59t-83 -168q0 -49 18.5 -87.5t62 -73.5t95.5 -63t139 -67q57 -25 96.5 -44t87 -46t78.5 -51.5t63.5 -58.5t51 -69.5t30 -82t11.5 -98.5q0 -135 -69.5 -237.5t-183.5 -154t-253 -51.5
q-124 0 -236.5 41t-189.5 101v213q79 -81 191.5 -129t226.5 -48q134 0 225.5 68t91.5 186q0 52 -19.5 93.5t-64.5 78t-99 67t-142 69.5q-57 25 -93.5 43t-83.5 44.5t-76.5 49.5t-61 56t-49 67t-29 78.5t-11.5 95.5q0 192 136.5 303.5t344.5 111.5z" />
    <glyph glyph-name="T" unicode="T" horiz-adv-x="1241" 
d="M526 0v1346h-481v178h1151v-178h-479v-1346h-191z" />
    <glyph glyph-name="U" unicode="U" horiz-adv-x="1540" 
d="M762 -31q-174 0 -304.5 77t-199 213.5t-68.5 315.5v949h191v-959q0 -192 102 -303.5t279 -111.5q181 0 289 112.5t108 306.5v955h191v-946q0 -272 -160.5 -440.5t-427.5 -168.5z" />
    <glyph glyph-name="V" unicode="V" horiz-adv-x="1454" 
d="M1432 1524l-603 -1524h-202l-607 1524h203l506 -1311l502 1311h201z" />
    <glyph glyph-name="W" unicode="W" horiz-adv-x="2195" 
d="M1501 0l-401 1255l-402 -1255h-202l-455 1524h201l360 -1274h2l404 1274h184l407 -1276h3l354 1276h194l-448 -1524h-201z" />
    <glyph glyph-name="X" unicode="X" horiz-adv-x="1347" 
d="M37 0l518 766l-510 758h221l412 -615l407 615h218l-510 -754l522 -770h-219l-424 623l-418 -623h-217z" />
    <glyph glyph-name="Y" unicode="Y" horiz-adv-x="1335" 
d="M575 0v643l-561 881h215l441 -705h2l436 705h211l-557 -879v-645h-187z" />
    <glyph glyph-name="Z" unicode="Z" horiz-adv-x="1210" 
d="M1161 1524l-807 -1346h756v-178h-1065l807 1346h-743v178h1052z" />
    <glyph glyph-name="bracketleft" unicode="[" horiz-adv-x="671" 
d="M164 -430v2068h442v-159h-276v-1751h276v-158h-442z" />
    <glyph glyph-name="backslash" unicode="\" horiz-adv-x="1011" 
d="M940 -272h-182l-686 2066h184z" />
    <glyph glyph-name="bracketright" unicode="]" horiz-adv-x="671" 
d="M508 -430h-442v158h276v1751h-276v159h442v-2068z" />
    <glyph glyph-name="asciicircum" unicode="^" horiz-adv-x="1171" 
d="M1069 510h-188l-295 758l-299 -758h-185l408 1014h152z" />
    <glyph glyph-name="underscore" unicode="_" horiz-adv-x="1079" 
d="M0 -350v155h1079v-155h-1079z" />
    <glyph glyph-name="grave" unicode="`" 
d="M600 1620l238 -344h-158l-283 344h203z" />
    <glyph glyph-name="a" unicode="a" horiz-adv-x="1347" 
d="M604 -25q-97 0 -188 41.5t-161.5 115.5t-112.5 184t-42 237q0 129 42 239.5t112.5 184t161 115t188.5 41.5q122 0 226.5 -59.5t166.5 -170.5h2l23 205h154v-1108h-154l-23 203h-2q-62 -110 -166 -169t-227 -59zM291 553q0 -177 100.5 -289t251.5 -112q149 0 249.5 113
t100.5 290q0 176 -100.5 288.5t-249.5 112.5q-151 0 -251.5 -112.5t-100.5 -290.5z" />
    <glyph glyph-name="b" unicode="b" horiz-adv-x="1349" 
d="M360 1638v-725q56 103 161 161.5t224 58.5q98 0 188 -41t159.5 -114.5t111 -184t41.5 -240.5q0 -128 -42 -238t-112.5 -183.5t-161 -115t-188.5 -41.5q-123 0 -227 59t-166 169l-22 -203h-154v1638h188zM356 555q0 -177 100 -290t249 -113q151 0 251.5 112t100.5 289
q0 178 -100.5 290.5t-251.5 112.5q-148 0 -248.5 -112.5t-100.5 -288.5z" />
    <glyph glyph-name="c" unicode="c" horiz-adv-x="1075" 
d="M291 555q0 -92 31.5 -169.5t85 -128t122 -78t142.5 -27.5q180 0 295 90v-191q-133 -76 -308 -76q-239 0 -399 165.5t-160 414.5q0 121 43 228.5t117 184t177.5 121t221.5 44.5q183 0 308 -78v-193q-127 94 -297 94q-99 0 -184.5 -47t-140 -140.5t-54.5 -213.5z" />
    <glyph glyph-name="d" unicode="d" horiz-adv-x="1347" 
d="M606 -25q-98 0 -188.5 41.5t-161 115t-112.5 183.5t-42 238q0 130 42 240.5t112 184t161 114.5t189 41q118 0 222.5 -58t160.5 -160v723h189v-1638h-154l-23 203q-61 -110 -167 -169t-228 -59zM291 553q0 -176 101.5 -288.5t252.5 -112.5q148 0 248 112.5t100 290.5
q0 176 -100 288.5t-248 112.5q-151 0 -252.5 -112.5t-101.5 -290.5z" />
    <glyph glyph-name="e" unicode="e" horiz-adv-x="1212" 
d="M664 -25q-256 0 -409 158t-153 416q0 131 43.5 242t116.5 185t170 115.5t205 41.5q99 0 185 -36.5t151.5 -105t103 -176t37.5 -240.5q0 -45 -6 -83h-821q20 -163 126.5 -258t264.5 -95q202 0 373 146v-187q-169 -123 -387 -123zM287 633h645q-3 163 -88.5 249.5
t-208.5 86.5q-130 0 -228.5 -92t-119.5 -244z" />
    <glyph glyph-name="f" unicode="f" horiz-adv-x="772" 
d="M231 0v944h-159v164h159v166q0 165 104.5 270t272.5 105q87 0 185 -31v-174q-71 29 -162 29q-213 0 -213 -224v-141h319v-164h-317v-944h-189z" />
    <glyph glyph-name="g" unicode="g" horiz-adv-x="1345" 
d="M604 1130q121 0 226 -56.5t167 -158.5l23 193h154v-1018q0 -130 -44.5 -235.5t-120 -172t-173 -102t-207.5 -35.5q-111 0 -219 36.5t-195 101.5v202q87 -79 192 -121.5t214 -42.5q153 0 258.5 94t105.5 244v168q-62 -97 -163.5 -153t-217.5 -56q-98 0 -189.5 40.5
t-161 112t-111.5 176.5t-42 226q0 120 42.5 225.5t112 177.5t161 113t188.5 41zM291 571q0 -162 101 -271.5t249 -109.5t249 111.5t101 278.5q0 163 -100.5 269.5t-249.5 106.5q-148 0 -249 -110t-101 -275z" />
    <glyph glyph-name="h" unicode="h" horiz-adv-x="1241" 
d="M360 1638v-663h2q48 72 133 115t185 43q186 0 292.5 -104t106.5 -296v-733h-188v668q0 288 -254 288q-118 0 -197.5 -69.5t-79.5 -200.5v-686h-188v1638h188z" />
    <glyph glyph-name="i" unicode="i" horiz-adv-x="540" 
d="M176 0v1108h189v-1108h-189zM154 1477q0 50 32.5 82t83.5 32t84 -32t33 -82t-33 -82.5t-84 -32.5t-83.5 32.5t-32.5 82.5z" />
    <glyph glyph-name="j" unicode="j" horiz-adv-x="542" 
d="M-29 -430q106 111 156.5 245t50.5 328v965h189v-961q0 -186 -40 -323t-132 -254h-224zM156 1477q0 50 32.5 82t83.5 32t84 -32t33 -82t-33 -82.5t-84 -32.5t-83.5 32.5t-32.5 82.5z" />
    <glyph glyph-name="k" unicode="k" horiz-adv-x="1122" 
d="M1090 1108l-510 -526l528 -582h-244l-504 563v-563h-188v1638h188v-1044l490 514h240z" />
    <glyph glyph-name="l" unicode="l" horiz-adv-x="540" 
d="M176 0v1638h189v-1638h-189z" />
    <glyph glyph-name="m" unicode="m" horiz-adv-x="1779" 
d="M1268 1133q175 0 262.5 -106.5t87.5 -287.5v-739h-188v709q0 122 -50 182.5t-159 60.5q-106 0 -169 -71.5t-63 -171.5v-709h-188v709q0 122 -51 182.5t-160 60.5q-107 0 -168.5 -74.5t-61.5 -179.5v-698h-188v1108h145l21 -164h6q44 85 121 137t176 52q223 0 307 -195
q52 92 133 143.5t187 51.5z" />
    <glyph glyph-name="n" unicode="n" horiz-adv-x="1239" 
d="M684 1133q180 0 287.5 -108.5t107.5 -291.5v-733h-188v666q0 286 -254 286q-119 0 -198 -77.5t-79 -198.5v-676h-188v1108h145l21 -168h6q52 84 140.5 138.5t199.5 54.5z" />
    <glyph glyph-name="o" unicode="o" 
d="M653 -25q-156 0 -282.5 74.5t-198.5 207t-72 296.5t72 297t198.5 208t282.5 75q235 0 392 -165t157 -415q0 -123 -42 -230.5t-115 -183.5t-174.5 -120t-217.5 -44zM291 553q0 -93 30.5 -170t81 -127t115.5 -77t135 -27q146 0 253.5 109.5t107.5 291.5q0 93 -30.5 170.5
t-81 127.5t-115 77.5t-134.5 27.5t-135 -27.5t-115.5 -77.5t-81 -127.5t-30.5 -170.5z" />
    <glyph glyph-name="p" unicode="p" horiz-adv-x="1349" 
d="M172 -430v1538h154l22 -205q62 110 167 170t226 60q98 0 189 -41.5t161 -115t112 -183.5t42 -238q0 -130 -41.5 -240.5t-111 -184t-160.5 -114.5t-189 -41q-117 0 -222.5 59t-160.5 159v-623h-188zM356 553q0 -176 100.5 -288.5t248.5 -112.5q151 0 251.5 112t100.5 291
q0 177 -100.5 289t-251.5 112q-149 0 -249 -113t-100 -290z" />
    <glyph glyph-name="q" unicode="q" horiz-adv-x="1347" 
d="M602 1133q124 0 229.5 -59.5t167.5 -170.5l23 205h156v-1538h-189v623q-59 -104 -163 -161t-224 -57q-97 0 -187.5 41.5t-160 115t-111 183t-41.5 236.5q0 130 41.5 240.5t110.5 184.5t159.5 115.5t188.5 41.5zM291 553q0 -177 100.5 -289t251.5 -112q150 0 250 112.5
t100 288.5q0 178 -100 290.5t-250 112.5q-151 0 -251.5 -112.5t-100.5 -290.5z" />
    <glyph glyph-name="r" unicode="r" horiz-adv-x="770" 
d="M172 0v1108h150l20 -176h2q27 51 67 89t84 59t86 30.5t81 9.5q38 0 73 -6v-180q-50 8 -78 8q-57 0 -108.5 -18.5t-94.5 -55t-68.5 -98t-25.5 -139.5v-631h-188z" />
    <glyph glyph-name="s" unicode="s" horiz-adv-x="1009" 
d="M520 1133q95 0 185 -26.5t149 -70.5v-186q-62 53 -149 84t-183 31q-103 0 -160 -40.5t-57 -109.5q0 -29 12 -52.5t31 -40t52.5 -32.5t66.5 -27t84 -26q49 -14 75 -22t70.5 -25t69.5 -32.5t57 -41t49 -53.5t29 -68t12 -86q0 -153 -111 -243.5t-302 -90.5q-230 0 -383 123
v203q69 -71 166 -114.5t211 -43.5q111 0 173 44.5t62 119.5q0 26 -7.5 47.5t-26 39t-37.5 30.5t-54 26.5t-63 23t-76 24.5q-66 20 -107 35t-91.5 41.5t-78.5 56t-47.5 74.5t-19.5 102q0 142 109 234t290 92z" />
    <glyph glyph-name="t" unicode="t" horiz-adv-x="798" 
d="M403 1368v-260h318v-164h-318v-549q0 -123 66 -183t178 -60q40 0 98 10v-164q-60 -12 -131 -12q-183 0 -289 105t-106 296v557h-166v164h170v260h180z" />
    <glyph glyph-name="u" unicode="u" horiz-adv-x="1224" 
d="M608 -25q-209 0 -329.5 124t-120.5 327v682h188v-686q0 -127 70 -198.5t192 -71.5q125 0 198 71.5t73 198.5v686h188v-682q0 -202 -124 -326.5t-335 -124.5z" />
    <glyph glyph-name="v" unicode="v" horiz-adv-x="1105" 
d="M453 0l-404 1108h201l305 -899h6l305 899h195l-404 -1108h-204z" />
    <glyph glyph-name="w" unicode="w" horiz-adv-x="1751" 
d="M1159 0l-278 868h-7l-280 -868h-215l-313 1108h196l232 -897h4l282 897h197l280 -897h7l235 897h187l-312 -1108h-215z" />
    <glyph glyph-name="x" unicode="x" horiz-adv-x="1085" 
d="M1028 1108l-377 -545l391 -563h-215l-284 424h-2l-285 -424h-209l385 555l-381 553h211l279 -418h4l278 418h205z" />
    <glyph glyph-name="y" unicode="y" horiz-adv-x="1105" 
d="M1063 1108l-600 -1538h-193l191 469l-414 1069h205l305 -844h4l305 844h197z" />
    <glyph glyph-name="z" unicode="z" horiz-adv-x="1034" 
d="M985 1108l-633 -934h574v-174h-881l633 934h-559v174h866z" />
    <glyph glyph-name="braceleft" unicode="{" horiz-adv-x="718" 
d="M645 1425q-211 19 -211 -163v-390q0 -244 -176 -299v-4q176 -53 176 -297v-385q0 -185 213 -163v-156q-174 -20 -274.5 62.5t-100.5 234.5v411q0 40 -8.5 72t-30 65t-66.5 55.5t-110 31.5v143q53 8 92 25t62.5 38.5t37.5 50t18.5 55t4.5 58.5v414q0 152 99.5 234.5
t273.5 62.5v-156z" />
    <glyph glyph-name="bar" unicode="|" horiz-adv-x="505" 
d="M166 -375v2269h174v-2269h-174z" />
    <glyph glyph-name="braceright" unicode="}" horiz-adv-x="718" 
d="M74 1581q174 20 273 -62.5t99 -234.5v-414q0 -40 8.5 -73t30.5 -65.5t67 -55.5t110 -33v-143q-216 -30 -216 -224v-411q0 -152 -100 -234.5t-274 -62.5v156q213 -22 213 163v385q0 244 176 297v4q-176 55 -176 299v390q0 182 -211 163v156z" />
    <glyph glyph-name="asciitilde" unicode="~" horiz-adv-x="1495" 
d="M1337 924q-3 -91 -31.5 -158t-74 -102t-94.5 -51.5t-103 -16.5q-67 0 -145 24.5t-136.5 53.5t-127.5 53.5t-121 24.5q-67 0 -117.5 -37.5t-58.5 -114.5h-158q3 91 31.5 157.5t74 101.5t95 51t104.5 16q66 0 143.5 -24.5t136 -53.5t128 -53.5t121.5 -24.5q67 0 117.5 38
t58.5 116h157z" />
    <glyph glyph-name="uni00A0" unicode="&#xa0;" horiz-adv-x="559" 
 />
    <glyph glyph-name="exclamdown" unicode="&#xa1;" horiz-adv-x="532" 
d="M195 1044h141l31 -1050h-201zM139 1401q0 54 37 90.5t92 36.5q54 0 90.5 -36.5t36.5 -90.5q0 -55 -36.5 -92t-90.5 -37q-56 0 -92.5 37t-36.5 92z" />
    <glyph glyph-name="cent" unicode="&#xa2;" horiz-adv-x="1124" 
d="M977 862q-128 90 -297 90q-95 0 -178 -43.5t-137 -132t-54 -203.5q0 -116 54 -204.5t139 -132t184 -43.5q167 0 289 88v-187q-108 -57 -252 -69v-187h-141v191q-205 30 -335 179.5t-130 364.5t131 365t336 178v211h143v-207q151 -13 248 -73v-185z" />
    <glyph glyph-name="sterling" unicode="&#xa3;" horiz-adv-x="1183" 
d="M76 0q81 118 140.5 266t94.5 363l4 20h-180v150h205l41 258q40 250 155 373.5t314 123.5q104 0 192 -43v-180q-86 51 -184 51q-122 0 -196 -77.5t-103 -266.5l-39 -239h361v-150h-385l-4 -26q-22 -139 -56 -241.5t-94 -209.5h707v-172h-973z" />
    <glyph glyph-name="currency" unicode="&#xa4;" horiz-adv-x="1345" 
d="M1077 1282l117 -115l-152 -151q78 -115 78 -252q0 -138 -80 -256l154 -154l-115 -114l-151 153q-115 -78 -254 -78q-143 0 -254 78l-154 -153l-114 114l153 154q-82 116 -82 256q0 139 78 254l-149 149l116 115l150 -152q113 80 256 80q142 0 252 -80zM373 764
q0 -126 87 -213.5t214 -87.5q124 0 210.5 87.5t86.5 213.5q0 125 -86.5 212t-210.5 87q-127 0 -214 -87t-87 -212z" />
    <glyph glyph-name="yen" unicode="&#xa5;" horiz-adv-x="1433" 
d="M1368 1524l-510 -754h320v-139h-365v-139h365v-142h-365v-350h-188v350h-365v142h365v139h-365v139h318l-515 754h216l440 -652h4l436 652h209z" />
    <glyph glyph-name="brokenbar" unicode="&#xa6;" horiz-adv-x="522" 
d="M180 999v895h164v-895h-164zM180 -375v895h164v-895h-164z" />
    <glyph glyph-name="section" unicode="&#xa7;" horiz-adv-x="1097" 
d="M147 -59q63 -72 161 -116t192 -44q107 0 182.5 58t75.5 151q0 26 -8 49.5t-17.5 41t-33.5 37t-40.5 31.5t-54.5 30.5t-60 28.5t-71 32q-43 19 -65 29t-63.5 32.5t-65 40t-54.5 47t-47.5 59t-28.5 69.5t-12 85q0 103 58.5 185.5t162.5 123.5q-178 106 -178 287
q0 153 116.5 254.5t307.5 101.5q174 0 305 -77v-191q-138 105 -307 105q-112 0 -177 -54t-65 -131q0 -73 53.5 -118.5t168.5 -94.5q143 -62 181 -82q170 -92 205 -224q11 -39 11 -83q0 -104 -56.5 -188t-150.5 -131q170 -110 170 -287q0 -160 -121.5 -269.5t-312.5 -109.5
q-107 0 -201.5 34.5t-159.5 88.5v199zM315 618q0 -42 16 -74.5t50.5 -59t69.5 -45t92 -42.5l73 -30q80 22 132.5 79t52.5 140q0 43 -16 76t-53.5 61.5t-76.5 49t-106 50.5q-110 -7 -172 -67.5t-62 -137.5z" />
    <glyph glyph-name="dieresis" unicode="&#xa8;" 
d="M440 1321q-44 0 -76 32.5t-32 76.5t32 75t76 31q46 0 79.5 -31t33.5 -75t-33.5 -76.5t-79.5 -32.5zM752 1430q0 44 32 75t78 31t77.5 -31t31.5 -75q0 -45 -32 -77t-77 -32q-46 0 -78 32.5t-32 76.5z" />
    <glyph glyph-name="copyright" unicode="&#xa9;" horiz-adv-x="1835" 
d="M918 1554q218 0 402 -107.5t290 -290t106 -396.5q0 -159 -63 -304.5t-169 -252.5t-254.5 -170.5t-311.5 -63.5q-164 0 -312 63.5t-254 170.5t-168.5 252.5t-62.5 304.5q0 214 105.5 396.5t289 290t402.5 107.5zM260 760q0 -132 51 -252.5t138.5 -209t210 -141.5
t258.5 -53q182 0 334.5 89.5t239.5 240t87 326.5q0 132 -51.5 254t-139.5 211t-211 142.5t-259 53.5t-258.5 -53.5t-210 -142.5t-138.5 -211t-51 -254zM518 762q0 127 60.5 228.5t157.5 155.5t208 54q136 0 223 -51v-148q-94 64 -206 64q-118 0 -207.5 -85.5t-89.5 -217.5
q0 -130 90 -216.5t207 -86.5q61 0 108 15t98 48v-145q-85 -51 -223 -51q-111 0 -208 53t-157.5 154t-60.5 229z" />
    <glyph glyph-name="ordfeminine" unicode="&#xaa;" horiz-adv-x="1126" 
d="M961 1524v-875h-134l-20 156q-47 -84 -129 -130t-180 -46q-102 0 -191.5 55.5t-146 161t-56.5 237.5q0 203 117.5 332t276.5 129q98 0 180 -46.5t129 -131.5l20 158h134zM266 1085q0 -134 77 -219.5t194 -85.5q114 0 189 86t75 221q0 134 -75.5 221t-188.5 87
q-116 0 -193.5 -87.5t-77.5 -222.5z" />
    <glyph glyph-name="guillemotleft" unicode="&#xab;" horiz-adv-x="1263" 
d="M635 1055v-201l-377 -301l377 -301v-199l-539 439v124zM590 492v124l538 439v-201l-376 -301l376 -301v-199z" />
    <glyph glyph-name="logicalnot" unicode="&#xac;" horiz-adv-x="1501" 
d="M1159 172v506h-999v166h1171v-672h-172z" />
    <glyph glyph-name="uni00AD" unicode="&#xad;" horiz-adv-x="833" 
d="M152 571v164h530v-164h-530z" />
    <glyph glyph-name="registered" unicode="&#xae;" horiz-adv-x="1835" 
d="M918 1554q218 0 402 -107.5t290 -290t106 -396.5q0 -159 -63 -304.5t-169 -252.5t-254.5 -170.5t-311.5 -63.5q-164 0 -312 63.5t-254 170.5t-168.5 252.5t-62.5 304.5q0 214 105.5 396.5t289 290t402.5 107.5zM260 760q0 -132 51 -252.5t138.5 -209t210 -141.5
t258.5 -53q182 0 334.5 89.5t239.5 240t87 326.5q0 132 -51.5 254t-139.5 211t-211 142.5t-259 53.5t-258.5 -53.5t-210 -142.5t-138.5 -211t-51 -254zM670 344v854h217q155 0 239 -73.5t84 -190.5q0 -104 -76 -171.5t-180 -78.5l306 -340h-166l-283 330h-14v-330h-127z
M797 784h73q98 0 153.5 38.5t55.5 111.5q0 143 -219 143h-63v-293z" />
    <glyph glyph-name="macron" unicode="&#xaf;" 
d="M311 1360v139h682v-139h-682z" />
    <glyph glyph-name="degree" unicode="&#xb0;" horiz-adv-x="886" 
d="M444 877q-145 0 -242.5 97t-97.5 240t98 241.5t242 98.5t242 -98.5t98 -241.5t-97.5 -240t-242.5 -97zM233 1214q0 -89 61 -151t150 -62t150 62t61 151q0 91 -61 153.5t-150 62.5t-150 -62.5t-61 -153.5z" />
    <glyph glyph-name="plusminus" unicode="&#xb1;" horiz-adv-x="1462" 
d="M811 1343v-452h498v-164h-498v-461h-172v461h-485v164h485v452h172zM154 0v164h1155v-164h-1155z" />
    <glyph glyph-name="uni00B2" unicode="&#xb2;" horiz-adv-x="774" 
d="M682 778v-139h-627q198 218 289 329.5t120.5 169.5t29.5 115q0 58 -42 100t-120 42q-60 0 -116 -28.5t-97 -74.5v160q44 38 110 61t133 23q130 0 211.5 -72.5t81.5 -195.5q0 -52 -17 -101.5t-59.5 -110.5t-95 -122t-141.5 -156h340z" />
    <glyph glyph-name="uni00B3" unicode="&#xb3;" horiz-adv-x="770" 
d="M121 1458q42 34 107 56t134 22q129 0 206 -68t77 -168q0 -130 -129 -198v-2q73 -28 117.5 -82.5t44.5 -132.5q0 -107 -86 -182.5t-232 -75.5q-157 0 -266 88v159q47 -53 115.5 -83.5t148.5 -30.5q74 0 122 35t48 96q0 67 -56 101t-157 34h-118v127h114q93 0 139 38t46 91
q0 51 -40.5 85t-105.5 34q-133 3 -229 -90v147z" />
    <glyph glyph-name="acute" unicode="&#xb4;" 
d="M705 1620h202l-284 -344h-156z" />
    <glyph glyph-name="uni00B5" unicode="&#xb5;" horiz-adv-x="1296" 
d="M170 -430v1538h188v-676q0 -128 71.5 -201t195.5 -73q125 0 195.5 71.5t70.5 210.5v668h188v-838q0 -66 26 -93t83 -27q21 0 45 4v-160q-36 -8 -80 -8q-91 0 -150.5 43.5t-82.5 126.5q-41 -76 -123.5 -126t-180.5 -50q-91 0 -165 37.5t-115 103.5l24 -551h-190z" />
    <glyph glyph-name="paragraph" unicode="&#xb6;" horiz-adv-x="1333" 
d="M680 -430v938h-59q-156 0 -280 60.5t-196.5 176t-72.5 267.5q0 234 158 373t409 139h512v-1954h-168v1792h-137v-1792h-166z" />
    <glyph glyph-name="periodcentered" unicode="&#xb7;" horiz-adv-x="544" 
d="M272 635q-55 0 -91 36.5t-36 90.5q0 56 36 92.5t91 36.5q54 0 90.5 -37t36.5 -92q0 -54 -36.5 -90.5t-90.5 -36.5z" />
    <glyph glyph-name="cedilla" unicode="&#xb8;" 
d="M449 -350q42 51 69 88t54 86.5t40 102.5t13 112h157q0 -223 -137 -389h-196z" />
    <glyph glyph-name="uni00B9" unicode="&#xb9;" horiz-adv-x="612" 
d="M283 639v692l-215 -92v150l344 147h20v-897h-149z" />
    <glyph glyph-name="ordmasculine" unicode="&#xba;" horiz-adv-x="1081" 
d="M541 1544q188 0 313 -130t125 -329q0 -197 -125 -326.5t-313 -129.5q-190 0 -314.5 128.5t-124.5 327.5t125.5 329t313.5 130zM264 1085q0 -140 82.5 -223.5t194.5 -83.5q113 0 194.5 83.5t81.5 223.5q0 142 -81.5 226t-194.5 84q-112 0 -194.5 -84.5t-82.5 -225.5z" />
    <glyph glyph-name="guillemotright" unicode="&#xbb;" horiz-adv-x="1263" 
d="M133 53v201l377 301l-375 301v199l539 -439l-2 -124zM629 53v201l377 301l-377 301v199l538 -439v-124z" />
    <glyph glyph-name="onequarter" unicode="&#xbc;" horiz-adv-x="1775" 
d="M283 639v692l-215 -92v150l344 147h20v-897h-149zM217 0l1004 1524h153l-1003 -1524h-154zM981 203v94l453 588h133v-553h133v-129h-133v-203h-135v203h-451zM1432 332v360l-281 -360h281z" />
    <glyph glyph-name="onehalf" unicode="&#xbd;" horiz-adv-x="1746" 
d="M283 639v692l-215 -92v150l344 147h20v-897h-149zM217 0l1004 1524h153l-1003 -1524h-154zM1028 0q197 217 288.5 329t120.5 170t29 115q0 58 -41.5 100t-119.5 42q-60 0 -116 -28.5t-97 -74.5v160q44 38 110 61t133 23q130 0 211.5 -72.5t81.5 -195.5q0 -52 -17 -101.5
t-59.5 -110.5t-95 -122t-141.5 -156h340v-139h-627z" />
    <glyph glyph-name="threequarters" unicode="&#xbe;" horiz-adv-x="1935" 
d="M121 1458q42 34 107 56t134 22q129 0 206 -68t77 -168q0 -130 -129 -198v-2q73 -28 117.5 -82.5t44.5 -132.5q0 -107 -86 -182.5t-232 -75.5q-157 0 -266 88v159q47 -53 115.5 -83.5t148.5 -30.5q74 0 122 35t48 96q0 67 -56 101t-157 34h-118v127h114q93 0 139 38t46 91
q0 51 -40.5 85t-105.5 34q-133 3 -229 -90v147zM375 0l1003 1524h154l-1004 -1524h-153zM1139 203v94l452 588h133v-553h134v-129h-134v-203h-135v203h-450zM1589 332v360l-280 -360h280z" />
    <glyph glyph-name="questiondown" unicode="&#xbf;" horiz-adv-x="1050" 
d="M557 -31q-192 0 -318 123.5t-126 306.5q0 56 16.5 111t41 101.5t73 109.5t91 112t116.5 131l30 33h203q-33 -37 -84 -94.5t-76 -86t-62.5 -73t-55.5 -70t-40.5 -60.5t-32.5 -61.5t-17 -57.5t-7 -62q0 -125 78.5 -201.5t202.5 -76.5q95 0 191 53t163 133v-213
q-68 -68 -170 -113t-217 -45zM444 1407q0 54 37 90.5t92 36.5q54 0 90.5 -36.5t36.5 -90.5q0 -55 -36.5 -92t-90.5 -37q-55 0 -92 37t-37 92z" />
    <glyph glyph-name="Agrave" unicode="&#xc0;" horiz-adv-x="1462" 
d="M1440 0h-205l-178 463h-654l-178 -463h-200l598 1524h215zM453 2036h202l238 -344h-158zM465 633h528l-264 678z" />
    <glyph glyph-name="Aacute" unicode="&#xc1;" horiz-adv-x="1462" 
d="M1440 0h-205l-178 463h-654l-178 -463h-200l598 1524h215zM465 633h528l-264 678zM616 1692l238 344h203l-285 -344h-156z" />
    <glyph glyph-name="Acircumflex" unicode="&#xc2;" horiz-adv-x="1462" 
d="M1440 0h-205l-178 463h-654l-178 -463h-200l598 1524h215zM385 1692l272 344h142l276 -344h-180l-166 219l-168 -219h-176zM465 633h528l-264 678z" />
    <glyph glyph-name="Atilde" unicode="&#xc3;" horiz-adv-x="1462" 
d="M1440 0h-205l-178 463h-654l-178 -463h-200l598 1524h215zM350 1722q-7 126 58 189t163 63q49 0 94 -19.5t73.5 -43t66 -43t74.5 -19.5q53 0 78.5 36t23.5 83h131q7 -126 -58 -189t-163 -63q-41 0 -77 12.5t-63 31t-52.5 36.5t-55 30.5t-59.5 12.5q-53 0 -79 -35.5
t-24 -81.5h-131zM465 633h528l-264 678z" />
    <glyph glyph-name="Adieresis" unicode="&#xc4;" horiz-adv-x="1462" 
d="M1440 0h-205l-178 463h-654l-178 -463h-200l598 1524h215zM412 1845q0 44 32 75.5t76 31.5q46 0 79.5 -31.5t33.5 -75.5t-33.5 -76t-79.5 -32q-44 0 -76 32t-32 76zM465 633h528l-264 678zM831 1845q0 44 32.5 75.5t78.5 31.5t77.5 -31.5t31.5 -75.5q0 -45 -31.5 -76.5
t-77.5 -31.5t-78.5 32t-32.5 76z" />
    <glyph glyph-name="Aring" unicode="&#xc5;" horiz-adv-x="1462" 
d="M1440 0h-205l-178 463h-654l-178 -463h-200l598 1524h215zM465 633h528l-264 678zM512 1894q0 86 63 144.5t154 58.5t154 -58.5t63 -144.5t-63 -145t-154 -59t-154 59t-63 145zM621 1894q0 -45 30.5 -75.5t77.5 -30.5t78 30.5t31 75.5t-31 75t-78 30t-77.5 -30t-30.5 -75
z" />
    <glyph glyph-name="AE" unicode="&#xc6;" horiz-adv-x="2068" 
d="M1929 1524v-178h-637v-486h592v-168h-592v-514h637v-178h-827v469h-582l-309 -469h-227l1001 1524h944zM631 637h471v711h-2z" />
    <glyph glyph-name="Ccedilla" unicode="&#xc7;" horiz-adv-x="1366" 
d="M1270 74q-171 -100 -387 -105q-16 -176 -133 -319h-197q77 91 119.5 166.5t52.5 165.5q-127 24 -238 89.5t-195 164t-132.5 235.5t-48.5 293q0 142 40 268t111.5 220t166 163t206.5 104t231 35q229 0 404 -104v-201q-99 62 -190 92.5t-206 30.5q-108 0 -209.5 -42
t-182 -118t-129 -193t-48.5 -257q0 -138 48.5 -255t129 -193.5t182 -119t209.5 -42.5q114 0 205.5 31t190.5 93v-202z" />
    <glyph glyph-name="Egrave" unicode="&#xc8;" horiz-adv-x="1183" 
d="M209 0v1524h835v-178h-645v-486h598v-168h-598v-516h645v-176h-835zM352 2036h203l238 -344h-158z" />
    <glyph glyph-name="Eacute" unicode="&#xc9;" horiz-adv-x="1183" 
d="M209 0v1524h835v-178h-645v-486h598v-168h-598v-516h645v-176h-835zM516 1692l238 344h202l-284 -344h-156z" />
    <glyph glyph-name="Ecircumflex" unicode="&#xca;" horiz-adv-x="1183" 
d="M209 0v1524h835v-178h-645v-486h598v-168h-598v-516h645v-176h-835zM285 1692l272 344h141l277 -344h-180l-166 219l-168 -219h-176z" />
    <glyph glyph-name="Edieresis" unicode="&#xcb;" horiz-adv-x="1183" 
d="M209 0v1524h835v-178h-645v-486h598v-168h-598v-516h645v-176h-835zM311 1845q0 44 32.5 75.5t76.5 31.5q46 0 79 -31.5t33 -75.5t-33 -76t-79 -32q-44 0 -76.5 32t-32.5 76zM731 1845q0 44 32.5 75.5t78.5 31.5t77 -31t31 -76t-31.5 -76.5t-76.5 -31.5q-46 0 -78.5 32
t-32.5 76z" />
    <glyph glyph-name="Igrave" unicode="&#xcc;" horiz-adv-x="608" 
d="M209 0v1524h190v-1524h-190zM27 2036h202l238 -344h-158z" />
    <glyph glyph-name="Iacute" unicode="&#xcd;" horiz-adv-x="608" 
d="M209 0v1524h190v-1524h-190zM193 1692l237 344h203l-285 -344h-155z" />
    <glyph glyph-name="Icircumflex" unicode="&#xce;" horiz-adv-x="608" 
d="M209 0v1524h190v-1524h-190zM-41 1692l272 344h142l276 -344h-180l-166 219l-168 -219h-176z" />
    <glyph glyph-name="Idieresis" unicode="&#xcf;" horiz-adv-x="608" 
d="M209 0v1524h190v-1524h-190zM-14 1845q0 44 32 75.5t76 31.5q46 0 79.5 -31.5t33.5 -75.5t-33.5 -76t-79.5 -32q-44 0 -76 32t-32 76zM406 1845q0 44 32 75.5t78 31.5t77.5 -31.5t31.5 -75.5q0 -45 -31.5 -76.5t-77.5 -31.5t-78 32t-32 76z" />
    <glyph glyph-name="Eth" unicode="&#xd0;" horiz-adv-x="1521" 
d="M35 690v150h196v684h369q368 0 588.5 -208.5t220.5 -553.5q0 -171 -59 -313.5t-165 -241t-256 -153t-329 -54.5h-369v690h-196zM422 178h186q270 0 438 155t168 427q0 184 -78.5 318t-214 201t-311.5 67h-188v-506h397v-150h-397v-512z" />
    <glyph glyph-name="Ntilde" unicode="&#xd1;" horiz-adv-x="1624" 
d="M1415 1524v-1524h-176l-842 1217h-2v-1217h-186v1524h192l828 -1196h2v1196h184zM446 1722q-7 126 58.5 189t163.5 63q49 0 94 -19.5t73 -43t65.5 -43t74.5 -19.5q53 0 78.5 36t23.5 83h131q7 -126 -58 -189t-163 -63q-41 0 -77 12.5t-63 31t-52.5 36.5t-55 30.5
t-59.5 12.5q-53 0 -78.5 -35.5t-23.5 -81.5h-132z" />
    <glyph glyph-name="Ograve" unicode="&#xd2;" horiz-adv-x="1734" 
d="M868 150q109 0 210 42t179.5 118t125.5 193.5t47 258.5t-47 258.5t-125.5 193.5t-179.5 118t-210 42q-88 0 -171 -26t-154 -78.5t-124 -124.5t-83.5 -171t-30.5 -212q0 -114 30.5 -213t84.5 -171t125 -124t153.5 -78t169.5 -26zM111 762q0 222 97.5 403t271 285
t388.5 104q160 0 300.5 -61t240.5 -166t157.5 -252t57.5 -313q0 -224 -98 -405.5t-271 -284.5t-387 -103q-161 0 -302 60.5t-240.5 165t-157 252t-57.5 315.5zM592 2036h203l237 -344h-158z" />
    <glyph glyph-name="Oacute" unicode="&#xd3;" horiz-adv-x="1734" 
d="M868 150q109 0 210 42t179.5 118t125.5 193.5t47 258.5t-47 258.5t-125.5 193.5t-179.5 118t-210 42q-88 0 -171 -26t-154 -78.5t-124 -124.5t-83.5 -171t-30.5 -212q0 -114 30.5 -213t84.5 -171t125 -124t153.5 -78t169.5 -26zM111 762q0 222 97.5 403t271 285
t388.5 104q160 0 300.5 -61t240.5 -166t157.5 -252t57.5 -313q0 -224 -98 -405.5t-271 -284.5t-387 -103q-161 0 -302 60.5t-240.5 165t-157 252t-57.5 315.5zM756 1692l237 344h203l-285 -344h-155z" />
    <glyph glyph-name="Ocircumflex" unicode="&#xd4;" horiz-adv-x="1734" 
d="M868 150q109 0 210 42t179.5 118t125.5 193.5t47 258.5t-47 258.5t-125.5 193.5t-179.5 118t-210 42q-88 0 -171 -26t-154 -78.5t-124 -124.5t-83.5 -171t-30.5 -212q0 -114 30.5 -213t84.5 -171t125 -124t153.5 -78t169.5 -26zM111 762q0 222 97.5 403t271 285
t388.5 104q160 0 300.5 -61t240.5 -166t157.5 -252t57.5 -313q0 -224 -98 -405.5t-271 -284.5t-387 -103q-161 0 -302 60.5t-240.5 165t-157 252t-57.5 315.5zM524 1692l273 344h141l276 -344h-180l-166 219l-168 -219h-176z" />
    <glyph glyph-name="Otilde" unicode="&#xd5;" horiz-adv-x="1734" 
d="M868 150q109 0 210 42t179.5 118t125.5 193.5t47 258.5t-47 258.5t-125.5 193.5t-179.5 118t-210 42q-88 0 -171 -26t-154 -78.5t-124 -124.5t-83.5 -171t-30.5 -212q0 -114 30.5 -213t84.5 -171t125 -124t153.5 -78t169.5 -26zM111 762q0 222 97.5 403t271 285
t388.5 104q160 0 300.5 -61t240.5 -166t157.5 -252t57.5 -313q0 -224 -98 -405.5t-271 -284.5t-387 -103q-161 0 -302 60.5t-240.5 165t-157 252t-57.5 315.5zM489 1722q-7 126 58.5 189t163.5 63q49 0 94 -19.5t73 -43t65.5 -43t74.5 -19.5q53 0 78.5 36t23.5 83h131
q7 -126 -58 -189t-163 -63q-41 0 -77 12.5t-63 31t-52.5 36.5t-55 30.5t-59.5 12.5q-53 0 -78.5 -35.5t-23.5 -81.5h-132z" />
    <glyph glyph-name="Odieresis" unicode="&#xd6;" horiz-adv-x="1734" 
d="M868 150q109 0 210 42t179.5 118t125.5 193.5t47 258.5t-47 258.5t-125.5 193.5t-179.5 118t-210 42q-88 0 -171 -26t-154 -78.5t-124 -124.5t-83.5 -171t-30.5 -212q0 -114 30.5 -213t84.5 -171t125 -124t153.5 -78t169.5 -26zM111 762q0 222 97.5 403t271 285
t388.5 104q160 0 300.5 -61t240.5 -166t157.5 -252t57.5 -313q0 -224 -98 -405.5t-271 -284.5t-387 -103q-161 0 -302 60.5t-240.5 165t-157 252t-57.5 315.5zM551 1845q0 44 32 75.5t76 31.5q46 0 79.5 -31.5t33.5 -75.5t-33.5 -76t-79.5 -32q-44 0 -76 32t-32 76z
M971 1845q0 44 32 75.5t78 31.5t77.5 -31.5t31.5 -75.5q0 -45 -32 -76.5t-77 -31.5q-46 0 -78 32t-32 76z" />
    <glyph glyph-name="multiply" unicode="&#xd7;" horiz-adv-x="1331" 
d="M1069 1280l115 -115l-404 -403l404 -406l-113 -114l-405 405l-404 -405l-115 114l404 406l-404 403l115 115l404 -403z" />
    <glyph glyph-name="Oslash" unicode="&#xd8;" horiz-adv-x="1744" 
d="M209 -20l-98 92l172 180q-166 215 -166 510q0 222 98 403t272.5 285t389.5 104q281 0 483 -174l153 162l99 -96l-156 -164q176 -217 176 -520q0 -167 -57.5 -314.5t-157 -252.5t-240 -165.5t-300.5 -60.5q-295 0 -502 185zM311 762q0 -218 105 -371l815 856
q-151 129 -354 129q-112 0 -214 -42t-180.5 -118.5t-125 -194t-46.5 -259.5zM504 289q76 -69 173 -105.5t200 -36.5q109 0 209.5 42t179 118.5t125.5 195t47 259.5q0 225 -113 383z" />
    <glyph glyph-name="Ugrave" unicode="&#xd9;" horiz-adv-x="1540" 
d="M762 -31q-174 0 -304.5 77t-199 213.5t-68.5 315.5v949h191v-959q0 -192 102 -303.5t279 -111.5q181 0 289 112.5t108 306.5v955h191v-946q0 -272 -160.5 -440.5t-427.5 -168.5zM494 2036h202l238 -344h-158z" />
    <glyph glyph-name="Uacute" unicode="&#xda;" horiz-adv-x="1540" 
d="M762 -31q-174 0 -304.5 77t-199 213.5t-68.5 315.5v949h191v-959q0 -192 102 -303.5t279 -111.5q181 0 289 112.5t108 306.5v955h191v-946q0 -272 -160.5 -440.5t-427.5 -168.5zM657 1692l238 344h203l-285 -344h-156z" />
    <glyph glyph-name="Ucircumflex" unicode="&#xdb;" horiz-adv-x="1540" 
d="M762 -31q-174 0 -304.5 77t-199 213.5t-68.5 315.5v949h191v-959q0 -192 102 -303.5t279 -111.5q181 0 289 112.5t108 306.5v955h191v-946q0 -272 -160.5 -440.5t-427.5 -168.5zM426 1692l272 344h142l276 -344h-180l-166 219l-168 -219h-176z" />
    <glyph glyph-name="Udieresis" unicode="&#xdc;" horiz-adv-x="1540" 
d="M762 -31q-174 0 -304.5 77t-199 213.5t-68.5 315.5v949h191v-959q0 -192 102 -303.5t279 -111.5q181 0 289 112.5t108 306.5v955h191v-946q0 -272 -160.5 -440.5t-427.5 -168.5zM453 1845q0 44 32 75.5t76 31.5q46 0 79.5 -31.5t33.5 -75.5t-33.5 -76t-79.5 -32
q-44 0 -76 32t-32 76zM872 1845q0 44 32.5 75.5t78.5 31.5t77.5 -31.5t31.5 -75.5q0 -45 -32 -76.5t-77 -31.5q-46 0 -78.5 32t-32.5 76z" />
    <glyph glyph-name="Yacute" unicode="&#xdd;" horiz-adv-x="1335" 
d="M575 0v643l-561 881h215l441 -705h2l436 705h211l-557 -879v-645h-187zM555 1692l238 344h202l-284 -344h-156z" />
    <glyph glyph-name="Thorn" unicode="&#xde;" horiz-adv-x="1288" 
d="M209 0v1524h190v-244h232q260 0 418.5 -130t158.5 -364q0 -235 -157.5 -373.5t-413.5 -138.5h-238v-274h-190zM399 451h248q166 0 266.5 90.5t100.5 238.5q0 150 -99.5 236t-267.5 86h-248v-651z" />
    <glyph glyph-name="germandbls" unicode="&#xdf;" horiz-adv-x="1341" 
d="M172 1145q0 230 129 367t346 137q100 0 183.5 -31t138 -84t84.5 -122.5t30 -147.5q0 -115 -54.5 -201t-145.5 -127v-4q75 -18 138 -52.5t114 -87.5t79.5 -132t28.5 -175q0 -118 -42 -213.5t-115 -156t-169.5 -93t-207.5 -32.5q-102 0 -174 20v170q68 -20 155 -20
q158 0 262.5 86.5t104.5 249.5q0 153 -100.5 236t-272.5 83h-121v150h47q133 0 212 73t79 189q0 110 -73.5 181t-188.5 71q-124 0 -201.5 -83t-77.5 -229v-1167h-188v1145z" />
    <glyph glyph-name="agrave" unicode="&#xe0;" horiz-adv-x="1347" 
d="M604 -25q-97 0 -188 41.5t-161.5 115.5t-112.5 184t-42 237q0 129 42 239.5t112.5 184t161 115t188.5 41.5q122 0 226.5 -59.5t166.5 -170.5h2l23 205h154v-1108h-154l-23 203h-2q-62 -110 -166 -169t-227 -59zM291 553q0 -177 100.5 -289t251.5 -112q149 0 249.5 113
t100.5 290q0 176 -100.5 288.5t-249.5 112.5q-151 0 -251.5 -112.5t-100.5 -290.5zM416 1620h202l238 -344h-158z" />
    <glyph glyph-name="aacute" unicode="&#xe1;" horiz-adv-x="1347" 
d="M604 -25q-97 0 -188 41.5t-161.5 115.5t-112.5 184t-42 237q0 129 42 239.5t112.5 184t161 115t188.5 41.5q122 0 226.5 -59.5t166.5 -170.5h2l23 205h154v-1108h-154l-23 203h-2q-62 -110 -166 -169t-227 -59zM291 553q0 -177 100.5 -289t251.5 -112q149 0 249.5 113
t100.5 290q0 176 -100.5 288.5t-249.5 112.5q-151 0 -251.5 -112.5t-100.5 -290.5zM582 1276l237 344h203l-285 -344h-155z" />
    <glyph glyph-name="acircumflex" unicode="&#xe2;" horiz-adv-x="1347" 
d="M604 -25q-97 0 -188 41.5t-161.5 115.5t-112.5 184t-42 237q0 129 42 239.5t112.5 184t161 115t188.5 41.5q122 0 226.5 -59.5t166.5 -170.5h2l23 205h154v-1108h-154l-23 203h-2q-62 -110 -166 -169t-227 -59zM291 553q0 -177 100.5 -289t251.5 -112q149 0 249.5 113
t100.5 290q0 176 -100.5 288.5t-249.5 112.5q-151 0 -251.5 -112.5t-100.5 -290.5zM350 1276l273 344h141l276 -344h-180l-166 219l-168 -219h-176z" />
    <glyph glyph-name="atilde" unicode="&#xe3;" horiz-adv-x="1347" 
d="M604 -25q-97 0 -188 41.5t-161.5 115.5t-112.5 184t-42 237q0 129 42 239.5t112.5 184t161 115t188.5 41.5q122 0 226.5 -59.5t166.5 -170.5h2l23 205h154v-1108h-154l-23 203h-2q-62 -110 -166 -169t-227 -59zM291 553q0 -177 100.5 -289t251.5 -112q149 0 249.5 113
t100.5 290q0 176 -100.5 288.5t-249.5 112.5q-151 0 -251.5 -112.5t-100.5 -290.5zM313 1307q-7 126 58.5 189t163.5 63q49 0 94 -19.5t73 -43t65.5 -43t74.5 -19.5q53 0 78.5 35.5t23.5 82.5h131q7 -126 -58 -189t-163 -63q-41 0 -77 12.5t-63 31t-52.5 36.5t-55 30.5
t-59.5 12.5q-53 0 -79 -35.5t-24 -80.5h-131z" />
    <glyph glyph-name="adieresis" unicode="&#xe4;" horiz-adv-x="1347" 
d="M604 -25q-97 0 -188 41.5t-161.5 115.5t-112.5 184t-42 237q0 129 42 239.5t112.5 184t161 115t188.5 41.5q122 0 226.5 -59.5t166.5 -170.5h2l23 205h154v-1108h-154l-23 203h-2q-62 -110 -166 -169t-227 -59zM291 553q0 -177 100.5 -289t251.5 -112q149 0 249.5 113
t100.5 290q0 176 -100.5 288.5t-249.5 112.5q-151 0 -251.5 -112.5t-100.5 -290.5zM375 1430q0 44 32 75t76 31q46 0 79.5 -31t33.5 -75t-33.5 -76.5t-79.5 -32.5q-44 0 -76 32.5t-32 76.5zM795 1430q0 44 32 75t78 31t77.5 -31t31.5 -75q0 -45 -32 -77t-77 -32t-77.5 32.5
t-32.5 76.5z" />
    <glyph glyph-name="aring" unicode="&#xe5;" horiz-adv-x="1347" 
d="M604 -25q-97 0 -188 41.5t-161.5 115.5t-112.5 184t-42 237q0 129 42 239.5t112.5 184t161 115t188.5 41.5q122 0 226.5 -59.5t166.5 -170.5h2l23 205h154v-1108h-154l-23 203h-2q-62 -110 -166 -169t-227 -59zM291 553q0 -177 100.5 -289t251.5 -112q149 0 249.5 113
t100.5 290q0 176 -100.5 288.5t-249.5 112.5q-151 0 -251.5 -112.5t-100.5 -290.5zM475 1479q0 86 63 144t154 58t154 -58t63 -144t-63 -145.5t-154 -59.5t-154 59.5t-63 145.5zM584 1479q0 -45 30.5 -76t77.5 -31t78 31t31 76q0 44 -31 74t-78 30t-77.5 -29.5t-30.5 -74.5z
" />
    <glyph glyph-name="ae" unicode="&#xe6;" horiz-adv-x="1921" 
d="M1759 98q-169 -123 -387 -123q-153 0 -268 60.5t-182 171.5q-65 -105 -179.5 -168.5t-257.5 -63.5q-174 0 -287.5 96.5t-113.5 250.5q0 70 26.5 131.5t77.5 110.5t134.5 77.5t189.5 28.5q122 0 313 -39v88q0 112 -72.5 179t-205.5 67q-101 0 -199 -37t-166 -94v180
q163 119 383 119q140 0 236.5 -55t144.5 -150q70 98 176 151.5t228 53.5q98 0 183 -36.5t150 -105t102.5 -176t37.5 -240.5q0 -33 -4 -83h-822q19 -163 125.5 -258t266.5 -95q199 0 370 146v-187zM262 334q0 -90 70 -145.5t180 -55.5q128 0 220.5 81t92.5 202v84
q-118 37 -272 37q-142 0 -216.5 -56.5t-74.5 -146.5zM1001 633h639q-3 163 -88.5 249.5t-208.5 86.5q-130 0 -225.5 -91.5t-116.5 -244.5z" />
    <glyph glyph-name="ccedilla" unicode="&#xe7;" horiz-adv-x="1075" 
d="M291 555q0 -92 31.5 -169.5t85 -128t122 -78t142.5 -27.5q180 0 295 90v-191q-115 -65 -262 -74q-16 -181 -136 -327h-196q77 91 120 167.5t54 168.5q-198 39 -322.5 195.5t-124.5 373.5q0 121 43 228.5t117 184t177.5 121t221.5 44.5q183 0 308 -78v-193
q-127 94 -297 94q-99 0 -184.5 -47t-140 -140.5t-54.5 -213.5z" />
    <glyph glyph-name="egrave" unicode="&#xe8;" horiz-adv-x="1212" 
d="M664 -25q-256 0 -409 158t-153 416q0 131 43.5 242t116.5 185t170 115.5t205 41.5q99 0 185 -36.5t151.5 -105t103 -176t37.5 -240.5q0 -45 -6 -83h-821q20 -163 126.5 -258t264.5 -95q202 0 373 146v-187q-169 -123 -387 -123zM287 633h645q-3 163 -88.5 249.5
t-208.5 86.5q-130 0 -228.5 -92t-119.5 -244zM358 1620h203l238 -344h-158z" />
    <glyph glyph-name="eacute" unicode="&#xe9;" horiz-adv-x="1212" 
d="M664 -25q-256 0 -409 158t-153 416q0 131 43.5 242t116.5 185t170 115.5t205 41.5q99 0 185 -36.5t151.5 -105t103 -176t37.5 -240.5q0 -45 -6 -83h-821q20 -163 126.5 -258t264.5 -95q202 0 373 146v-187q-169 -123 -387 -123zM287 633h645q-3 163 -88.5 249.5
t-208.5 86.5q-130 0 -228.5 -92t-119.5 -244zM524 1276l238 344h203l-285 -344h-156z" />
    <glyph glyph-name="ecircumflex" unicode="&#xea;" horiz-adv-x="1212" 
d="M664 -25q-256 0 -409 158t-153 416q0 131 43.5 242t116.5 185t170 115.5t205 41.5q99 0 185 -36.5t151.5 -105t103 -176t37.5 -240.5q0 -45 -6 -83h-821q20 -163 126.5 -258t264.5 -95q202 0 373 146v-187q-169 -123 -387 -123zM287 633h645q-3 163 -88.5 249.5
t-208.5 86.5q-130 0 -228.5 -92t-119.5 -244zM291 1276l272 344h142l276 -344h-180l-166 219l-168 -219h-176z" />
    <glyph glyph-name="edieresis" unicode="&#xeb;" horiz-adv-x="1212" 
d="M664 -25q-256 0 -409 158t-153 416q0 131 43.5 242t116.5 185t170 115.5t205 41.5q99 0 185 -36.5t151.5 -105t103 -176t37.5 -240.5q0 -45 -6 -83h-821q20 -163 126.5 -258t264.5 -95q202 0 373 146v-187q-169 -123 -387 -123zM287 633h645q-3 163 -88.5 249.5
t-208.5 86.5q-130 0 -228.5 -92t-119.5 -244zM317 1430q0 44 32 75t77 31q46 0 79.5 -31t33.5 -75t-33.5 -76.5t-79.5 -32.5q-44 0 -76.5 32.5t-32.5 76.5zM737 1430q0 44 32.5 75t78.5 31t77 -31t31 -75q0 -45 -31.5 -77t-76.5 -32q-46 0 -78.5 32.5t-32.5 76.5z" />
    <glyph glyph-name="igrave" unicode="&#xec;" horiz-adv-x="540" 
d="M176 0v1108h189v-1108h-189zM-6 1671h203l237 -344h-158z" />
    <glyph glyph-name="iacute" unicode="&#xed;" horiz-adv-x="540" 
d="M176 0v1108h189v-1108h-189zM158 1327l237 344h203l-285 -344h-155z" />
    <glyph glyph-name="icircumflex" unicode="&#xee;" horiz-adv-x="540" 
d="M176 0v1108h189v-1108h-189zM-74 1327l273 344h141l276 -344h-180l-166 219l-168 -219h-176z" />
    <glyph glyph-name="idieresis" unicode="&#xef;" horiz-adv-x="540" 
d="M176 0v1108h189v-1108h-189zM-47 1481q0 44 32 75t76 31q46 0 79.5 -31t33.5 -75t-33.5 -76.5t-79.5 -32.5q-44 0 -76 32.5t-32 76.5zM373 1481q0 44 32 75t78 31t77.5 -31t31.5 -75q0 -45 -32 -77t-77 -32t-77.5 32t-32.5 77z" />
    <glyph glyph-name="eth" unicode="&#xf0;" horiz-adv-x="1310" 
d="M657 1638q22 -23 60.5 -67.5t42.5 -48.5l201 98l47 -94l-179 -88q186 -231 280.5 -435t94.5 -419q0 -269 -156.5 -439t-394.5 -170q-155 0 -282 74.5t-199 206.5t-72 295q0 162 70 293.5t190 204.5t265 73q166 0 297 -127l4 2q-53 131 -248 365l-199 -98l-47 94l176 88
q-92 102 -182 192h231zM291 553q0 -93 30.5 -170t81.5 -127t115.5 -77t134.5 -27q146 0 253.5 111.5t107.5 297.5q0 89 -30.5 164.5t-81 124.5t-115.5 76.5t-134 27.5q-147 0 -254.5 -109.5t-107.5 -291.5z" />
    <glyph glyph-name="ntilde" unicode="&#xf1;" horiz-adv-x="1239" 
d="M684 1133q180 0 287.5 -108.5t107.5 -291.5v-733h-188v666q0 286 -254 286q-119 0 -198 -77.5t-79 -198.5v-676h-188v1108h145l21 -168h6q52 84 140.5 138.5t199.5 54.5zM258 1307q-7 126 58 189t163 63q49 0 94 -19.5t73 -43t65.5 -43t74.5 -19.5q53 0 79 35.5t24 82.5
h131q7 -126 -58 -189t-163 -63q-41 0 -77 12.5t-63 31t-52.5 36.5t-55 30.5t-59.5 12.5q-53 0 -79 -35.5t-24 -80.5h-131z" />
    <glyph glyph-name="ograve" unicode="&#xf2;" 
d="M653 -25q-156 0 -282.5 74.5t-198.5 207t-72 296.5t72 297t198.5 208t282.5 75q235 0 392 -165t157 -415q0 -123 -42 -230.5t-115 -183.5t-174.5 -120t-217.5 -44zM291 553q0 -93 30.5 -170t81 -127t115.5 -77t135 -27q146 0 253.5 109.5t107.5 291.5q0 93 -30.5 170.5
t-81 127.5t-115 77.5t-134.5 27.5t-135 -27.5t-115.5 -77.5t-81 -127.5t-30.5 -170.5zM373 1593h202l238 -344h-158z" />
    <glyph glyph-name="oacute" unicode="&#xf3;" 
d="M653 -25q-156 0 -282.5 74.5t-198.5 207t-72 296.5t72 297t198.5 208t282.5 75q235 0 392 -165t157 -415q0 -123 -42 -230.5t-115 -183.5t-174.5 -120t-217.5 -44zM291 553q0 -93 30.5 -170t81 -127t115.5 -77t135 -27q146 0 253.5 109.5t107.5 291.5q0 93 -30.5 170.5
t-81 127.5t-115 77.5t-134.5 27.5t-135 -27.5t-115.5 -77.5t-81 -127.5t-30.5 -170.5zM537 1249l237 344h203l-285 -344h-155z" />
    <glyph glyph-name="ocircumflex" unicode="&#xf4;" 
d="M653 -25q-156 0 -282.5 74.5t-198.5 207t-72 296.5t72 297t198.5 208t282.5 75q235 0 392 -165t157 -415q0 -123 -42 -230.5t-115 -183.5t-174.5 -120t-217.5 -44zM291 553q0 -93 30.5 -170t81 -127t115.5 -77t135 -27q146 0 253.5 109.5t107.5 291.5q0 93 -30.5 170.5
t-81 127.5t-115 77.5t-134.5 27.5t-135 -27.5t-115.5 -77.5t-81 -127.5t-30.5 -170.5zM305 1249l273 344h141l276 -344h-180l-166 219l-168 -219h-176z" />
    <glyph glyph-name="otilde" unicode="&#xf5;" 
d="M653 -25q-156 0 -282.5 74.5t-198.5 207t-72 296.5t72 297t198.5 208t282.5 75q235 0 392 -165t157 -415q0 -123 -42 -230.5t-115 -183.5t-174.5 -120t-217.5 -44zM268 1280q-7 126 58 189t163 63q49 0 94 -19.5t73.5 -43t66 -43t74.5 -19.5q53 0 78.5 36t23.5 83h131
q7 -126 -58 -189t-163 -63q-41 0 -77 12.5t-63 31t-52.5 36.5t-55 30.5t-59.5 12.5q-53 0 -79 -35.5t-24 -81.5h-131zM291 553q0 -93 30.5 -170t81 -127t115.5 -77t135 -27q146 0 253.5 109.5t107.5 291.5q0 93 -30.5 170.5t-81 127.5t-115 77.5t-134.5 27.5t-135 -27.5
t-115.5 -77.5t-81 -127.5t-30.5 -170.5z" />
    <glyph glyph-name="odieresis" unicode="&#xf6;" 
d="M653 -25q-156 0 -282.5 74.5t-198.5 207t-72 296.5t72 297t198.5 208t282.5 75q235 0 392 -165t157 -415q0 -123 -42 -230.5t-115 -183.5t-174.5 -120t-217.5 -44zM291 553q0 -93 30.5 -170t81 -127t115.5 -77t135 -27q146 0 253.5 109.5t107.5 291.5q0 93 -30.5 170.5
t-81 127.5t-115 77.5t-134.5 27.5t-135 -27.5t-115.5 -77.5t-81 -127.5t-30.5 -170.5zM332 1403q0 44 32 75t76 31q46 0 79.5 -31t33.5 -75t-33.5 -76.5t-79.5 -32.5q-44 0 -76 32.5t-32 76.5zM752 1403q0 44 32 75t78 31t77.5 -31t31.5 -75q0 -45 -32 -77t-77 -32
q-46 0 -78 32t-32 77z" />
    <glyph glyph-name="divide" unicode="&#xf7;" horiz-adv-x="1425" 
d="M154 678v166h1116v-166h-1116zM584 387q0 54 36.5 90.5t90.5 36.5q55 0 91 -36.5t36 -90.5q0 -56 -36 -92.5t-91 -36.5q-54 0 -90.5 37t-36.5 92zM584 1135q0 55 36.5 92t90.5 37q55 0 91 -36.5t36 -92.5q0 -54 -36 -90.5t-91 -36.5q-54 0 -90.5 36.5t-36.5 90.5z" />
    <glyph glyph-name="oslash" unicode="&#xf8;" horiz-adv-x="1312" 
d="M205 -18l-88 84l108 114q-121 156 -121 373q0 165 71.5 297.5t197.5 207.5t282 75q211 0 359 -132l114 121l86 -86l-118 -125q110 -151 110 -358q0 -123 -42 -230.5t-115 -183.5t-175.5 -120t-218.5 -44q-199 0 -344 117zM283 553q0 -146 67 -244l543 568
q-101 90 -238 90q-72 0 -138.5 -28t-118.5 -79.5t-83.5 -131t-31.5 -175.5zM432 219q96 -78 223 -78q72 0 138.5 28.5t119 79.5t84 130.5t31.5 173.5q0 135 -57 229z" />
    <glyph glyph-name="ugrave" unicode="&#xf9;" horiz-adv-x="1224" 
d="M608 -25q-209 0 -329.5 124t-120.5 327v682h188v-686q0 -127 70 -198.5t192 -71.5q125 0 198 71.5t73 198.5v686h188v-682q0 -202 -124 -326.5t-335 -124.5zM336 1620h203l237 -344h-158z" />
    <glyph glyph-name="uacute" unicode="&#xfa;" horiz-adv-x="1224" 
d="M608 -25q-209 0 -329.5 124t-120.5 327v682h188v-686q0 -127 70 -198.5t192 -71.5q125 0 198 71.5t73 198.5v686h188v-682q0 -202 -124 -326.5t-335 -124.5zM500 1276l237 344h203l-285 -344h-155z" />
    <glyph glyph-name="ucircumflex" unicode="&#xfb;" horiz-adv-x="1224" 
d="M608 -25q-209 0 -329.5 124t-120.5 327v682h188v-686q0 -127 70 -198.5t192 -71.5q125 0 198 71.5t73 198.5v686h188v-682q0 -202 -124 -326.5t-335 -124.5zM268 1276l273 344h141l276 -344h-180l-166 219l-168 -219h-176z" />
    <glyph glyph-name="udieresis" unicode="&#xfc;" horiz-adv-x="1224" 
d="M608 -25q-209 0 -329.5 124t-120.5 327v682h188v-686q0 -127 70 -198.5t192 -71.5q125 0 198 71.5t73 198.5v686h188v-682q0 -202 -124 -326.5t-335 -124.5zM295 1430q0 44 32 75t76 31q46 0 79.5 -31t33.5 -75t-33.5 -76.5t-79.5 -32.5q-44 0 -76 32.5t-32 76.5z
M715 1430q0 44 32 75t78 31t77.5 -31t31.5 -75q0 -45 -32 -77t-77 -32t-77.5 32.5t-32.5 76.5z" />
    <glyph glyph-name="yacute" unicode="&#xfd;" horiz-adv-x="1105" 
d="M1063 1108l-600 -1538h-193l191 469l-414 1069h205l305 -844h4l305 844h197zM446 1276l238 344h203l-285 -344h-156z" />
    <glyph glyph-name="thorn" unicode="&#xfe;" horiz-adv-x="1347" 
d="M360 1638v-725q55 100 160 155.5t223 55.5q98 0 189 -40.5t160.5 -112.5t111 -180.5t41.5 -235.5q0 -128 -41.5 -237t-111 -181t-160.5 -112.5t-189 -40.5q-121 0 -221 52t-162 161v-627h-188v2068h188zM356 553q0 -176 98 -286.5t246 -110.5q149 0 249 110.5t100 288.5
q0 177 -100 287t-249 110q-148 0 -246 -110.5t-98 -288.5z" />
    <glyph glyph-name="ydieresis" unicode="&#xff;" horiz-adv-x="1105" 
d="M1063 1108l-600 -1538h-193l191 469l-414 1069h205l305 -844h4l305 844h197zM242 1430q0 44 32 75t76 31q46 0 79.5 -31t33.5 -75t-33.5 -76.5t-79.5 -32.5q-44 0 -76 32.5t-32 76.5zM662 1430q0 44 32 75t78 31t77.5 -31t31.5 -75q0 -45 -32 -77t-77 -32q-46 0 -78 32.5
t-32 76.5z" />
    <glyph glyph-name="Amacron" unicode="&#x100;" horiz-adv-x="1462" 
d="M1440 0h-205l-178 463h-654l-178 -463h-200l598 1524h215zM389 1776v139h682v-139h-682zM465 633h528l-264 678z" />
    <glyph glyph-name="amacron" unicode="&#x101;" horiz-adv-x="1347" 
d="M604 -25q-97 0 -188 41.5t-161.5 115.5t-112.5 184t-42 237q0 129 42 239.5t112.5 184t161 115t188.5 41.5q122 0 226.5 -59.5t166.5 -170.5h2l23 205h154v-1108h-154l-23 203h-2q-62 -110 -166 -169t-227 -59zM291 553q0 -177 100.5 -289t251.5 -112q149 0 249.5 113
t100.5 290q0 176 -100.5 288.5t-249.5 112.5q-151 0 -251.5 -112.5t-100.5 -290.5zM354 1360v139h682v-139h-682z" />
    <glyph glyph-name="Abreve" unicode="&#x102;" horiz-adv-x="1462" 
d="M1440 0h-205l-178 463h-654l-178 -463h-200l598 1524h215zM391 2030h146q3 -75 54 -125t138 -50q86 0 137.5 50t53.5 125h145q3 -97 -46.5 -170t-125.5 -107.5t-164 -34.5t-164.5 34.5t-126.5 107.5t-47 170zM465 633h528l-264 678z" />
    <glyph glyph-name="abreve" unicode="&#x103;" horiz-adv-x="1347" 
d="M604 -25q-97 0 -188 41.5t-161.5 115.5t-112.5 184t-42 237q0 129 42 239.5t112.5 184t161 115t188.5 41.5q122 0 226.5 -59.5t166.5 -170.5h2l23 205h154v-1108h-154l-23 203h-2q-62 -110 -166 -169t-227 -59zM291 553q0 -177 100.5 -289t251.5 -112q149 0 249.5 113
t100.5 290q0 176 -100.5 288.5t-249.5 112.5q-151 0 -251.5 -112.5t-100.5 -290.5zM356 1614h146q3 -75 54 -124.5t138 -49.5t138 49.5t53 124.5h145q3 -97 -46.5 -169.5t-125.5 -107t-164 -34.5t-164.5 34.5t-126.5 107t-47 169.5z" />
    <glyph glyph-name="Aogonek" unicode="&#x104;" horiz-adv-x="1462" 
d="M1440 0q-203 -107 -203 -211q0 -54 37.5 -84.5t93.5 -30.5q50 0 72 13v-125q-9 -5 -38.5 -11t-60.5 -6q-109 0 -182.5 57t-73.5 156q0 133 148 250l-176 455h-654l-178 -463h-200l598 1524h215zM465 633h528l-264 678z" />
    <glyph glyph-name="aogonek" unicode="&#x105;" horiz-adv-x="1347" 
d="M604 -25q-97 0 -188 41.5t-161.5 115.5t-112.5 184t-42 237q0 129 42 239.5t112.5 184t161 115t188.5 41.5q122 0 226.5 -59.5t166.5 -170.5h2l23 205h154v-1106l2 -2q-203 -107 -203 -211q0 -54 37.5 -84.5t93.5 -30.5q50 0 72 13v-125q-9 -5 -38.5 -11t-60.5 -6
q-109 0 -182.5 57t-73.5 156q0 155 195 283l-19 162h-2q-62 -110 -166 -169t-227 -59zM291 553q0 -177 100.5 -289t251.5 -112q149 0 249.5 113t100.5 290q0 176 -100.5 288.5t-249.5 112.5q-151 0 -251.5 -112.5t-100.5 -290.5z" />
    <glyph glyph-name="Cacute" unicode="&#x106;" horiz-adv-x="1366" 
d="M1270 74q-181 -105 -404 -105q-149 0 -285.5 56.5t-241 157.5t-166.5 252t-62 329q0 142 40 268t111.5 220t166 163t206.5 104t231 35q229 0 404 -104v-201q-99 62 -190 92.5t-206 30.5q-108 0 -209.5 -42t-182 -118t-129 -193t-48.5 -257q0 -138 48.5 -255t129 -193.5
t182 -119t209.5 -42.5q114 0 205.5 31t190.5 93v-202zM745 1692l238 344h203l-285 -344h-156z" />
    <glyph glyph-name="cacute" unicode="&#x107;" horiz-adv-x="1075" 
d="M291 555q0 -92 31.5 -169.5t85 -128t122 -78t142.5 -27.5q180 0 295 90v-191q-133 -76 -308 -76q-239 0 -399 165.5t-160 414.5q0 121 43 228.5t117 184t177.5 121t221.5 44.5q183 0 308 -78v-193q-127 94 -297 94q-99 0 -184.5 -47t-140 -140.5t-54.5 -213.5zM516 1276
l238 344h202l-284 -344h-156z" />
    <glyph glyph-name="Cdotaccent" unicode="&#x10a;" horiz-adv-x="1366" 
d="M1270 74q-181 -105 -404 -105q-149 0 -285.5 56.5t-241 157.5t-166.5 252t-62 329q0 142 40 268t111.5 220t166 163t206.5 104t231 35q229 0 404 -104v-201q-99 62 -190 92.5t-206 30.5q-108 0 -209.5 -42t-182 -118t-129 -193t-48.5 -257q0 -138 48.5 -255t129 -193.5
t182 -119t209.5 -42.5q114 0 205.5 31t190.5 93v-202zM748 1845q0 44 32.5 75.5t77.5 31.5q46 0 78.5 -31.5t32.5 -75.5t-32.5 -76t-78.5 -32q-44 0 -77 32t-33 76z" />
    <glyph glyph-name="cdotaccent" unicode="&#x10b;" horiz-adv-x="1075" 
d="M291 555q0 -92 31.5 -169.5t85 -128t122 -78t142.5 -27.5q180 0 295 90v-191q-133 -76 -308 -76q-239 0 -399 165.5t-160 414.5q0 121 43 228.5t117 184t177.5 121t221.5 44.5q183 0 308 -78v-193q-127 94 -297 94q-99 0 -184.5 -47t-140 -140.5t-54.5 -213.5zM518 1430
q0 44 33 75t78 31q46 0 78 -31t32 -75t-32.5 -76.5t-77.5 -32.5q-44 0 -77.5 32.5t-33.5 76.5z" />
    <glyph glyph-name="Ccaron" unicode="&#x10c;" horiz-adv-x="1366" 
d="M1270 74q-181 -105 -404 -105q-149 0 -285.5 56.5t-241 157.5t-166.5 252t-62 329q0 142 40 268t111.5 220t166 163t206.5 104t231 35q229 0 404 -104v-201q-99 62 -190 92.5t-206 30.5q-108 0 -209.5 -42t-182 -118t-129 -193t-48.5 -257q0 -138 48.5 -255t129 -193.5
t182 -119t209.5 -42.5q114 0 205.5 31t190.5 93v-202zM514 2036h180l166 -219l166 219h178l-276 -344h-137z" />
    <glyph glyph-name="ccaron" unicode="&#x10d;" horiz-adv-x="1075" 
d="M291 555q0 -92 31.5 -169.5t85 -128t122 -78t142.5 -27.5q180 0 295 90v-191q-133 -76 -308 -76q-239 0 -399 165.5t-160 414.5q0 121 43 228.5t117 184t177.5 121t221.5 44.5q183 0 308 -78v-193q-127 94 -297 94q-99 0 -184.5 -47t-140 -140.5t-54.5 -213.5zM285 1620
h180l166 -219l166 219h178l-277 -344h-137z" />
    <glyph glyph-name="Dcaron" unicode="&#x10e;" horiz-adv-x="1499" 
d="M578 1524q368 0 588 -208.5t220 -553.5q0 -228 -101.5 -401.5t-284.5 -267t-422 -93.5h-369v1524h369zM383 2036h180l166 -219l166 219h178l-276 -344h-138zM399 178h187q270 0 438 155t168 427q0 184 -78.5 318t-214 201t-311.5 67h-189v-1168z" />
    <glyph glyph-name="dcaron" unicode="&#x10f;" horiz-adv-x="1347" 
d="M606 -25q-98 0 -188.5 41.5t-161 115t-112.5 183.5t-42 238q0 130 42 240.5t112 184t161 114.5t189 41q118 0 222.5 -58t160.5 -160v723h189v-1638h-154l-23 203q-61 -110 -167 -169t-228 -59zM291 553q0 -176 101.5 -288.5t252.5 -112.5q148 0 248 112.5t100 290.5
q0 176 -100 288.5t-248 112.5q-151 0 -252.5 -112.5t-101.5 -290.5zM1335 1638h174q13 -76 13 -116q0 -132 -58 -283h-127q0 2 9 50.5t12.5 86t3.5 84.5q0 85 -27 178z" />
    <glyph glyph-name="Dcroat" unicode="&#x110;" horiz-adv-x="1521" 
d="M35 690v150h196v684h369q368 0 588.5 -208.5t220.5 -553.5q0 -171 -59 -313.5t-165 -241t-256 -153t-329 -54.5h-369v690h-196zM422 178h186q270 0 438 155t168 427q0 184 -78.5 318t-214 201t-311.5 67h-188v-506h397v-150h-397v-512z" />
    <glyph glyph-name="dcroat" unicode="&#x111;" horiz-adv-x="1347" 
d="M1337 1446v-148h-159v-1298h-154l-23 203q-61 -110 -167 -169t-228 -59q-98 0 -188.5 41.5t-161 115t-112.5 183.5t-42 238q0 130 42 240.5t112 184t161 114.5t189 41q118 0 222.5 -58t160.5 -160v383h-321v148h321v192h189v-192h159zM291 553q0 -176 101.5 -288.5
t252.5 -112.5q148 0 248 112.5t100 290.5q0 176 -100 288.5t-248 112.5q-151 0 -252.5 -112.5t-101.5 -290.5z" />
    <glyph glyph-name="Emacron" unicode="&#x112;" horiz-adv-x="1183" 
d="M209 0v1524h835v-178h-645v-486h598v-168h-598v-516h645v-176h-835zM289 1776v139h682v-139h-682z" />
    <glyph glyph-name="emacron" unicode="&#x113;" horiz-adv-x="1212" 
d="M664 -25q-256 0 -409 158t-153 416q0 131 43.5 242t116.5 185t170 115.5t205 41.5q99 0 185 -36.5t151.5 -105t103 -176t37.5 -240.5q0 -45 -6 -83h-821q20 -163 126.5 -258t264.5 -95q202 0 373 146v-187q-169 -123 -387 -123zM287 633h645q-3 163 -88.5 249.5
t-208.5 86.5q-130 0 -228.5 -92t-119.5 -244zM295 1360v139h682v-139h-682z" />
    <glyph glyph-name="Edotaccent" unicode="&#x116;" horiz-adv-x="1183" 
d="M209 0v1524h835v-178h-645v-486h598v-168h-598v-516h645v-176h-835zM518 1845q0 44 33 75.5t78 31.5q46 0 78 -31.5t32 -75.5t-32 -76t-78 -32q-45 0 -78 32t-33 76z" />
    <glyph glyph-name="edotaccent" unicode="&#x117;" horiz-adv-x="1212" 
d="M664 -25q-256 0 -409 158t-153 416q0 131 43.5 242t116.5 185t170 115.5t205 41.5q99 0 185 -36.5t151.5 -105t103 -176t37.5 -240.5q0 -45 -6 -83h-821q20 -163 126.5 -258t264.5 -95q202 0 373 146v-187q-169 -123 -387 -123zM287 633h645q-3 163 -88.5 249.5
t-208.5 86.5q-130 0 -228.5 -92t-119.5 -244zM524 1430q0 44 33 75t78 31q46 0 78 -31t32 -75t-32.5 -76.5t-77.5 -32.5q-44 0 -77.5 32.5t-33.5 76.5z" />
    <glyph glyph-name="Eogonek" unicode="&#x118;" horiz-adv-x="1183" 
d="M209 0v1524h835v-178h-645v-486h598v-168h-598v-516h645v-176q-202 -107 -202 -211q0 -54 37.5 -84.5t93.5 -30.5q49 0 71 13v-125q-9 -5 -38 -11t-60 -6q-109 0 -182.5 57t-73.5 156q0 131 137 242h-618z" />
    <glyph glyph-name="eogonek" unicode="&#x119;" horiz-adv-x="1212" 
d="M1051 98q-134 -95 -204.5 -169.5t-70.5 -139.5q0 -54 37.5 -84.5t93.5 -30.5q19 0 41.5 4t28.5 9v-125q-9 -5 -38 -11t-60 -6q-108 0 -181 57t-73 156q0 114 108 222q-57 -5 -69 -5q-256 0 -409 158t-153 416q0 131 43.5 242t116.5 185t170 115.5t205 41.5
q99 0 185 -36.5t151.5 -105t103 -176t37.5 -240.5q0 -45 -6 -83h-819q19 -163 125 -258t264 -95q202 0 373 146v-187zM293 633h639q-3 163 -88.5 249.5t-208.5 86.5q-130 0 -225.5 -91.5t-116.5 -244.5z" />
    <glyph glyph-name="Ecaron" unicode="&#x11a;" horiz-adv-x="1183" 
d="M209 0v1524h835v-178h-645v-486h598v-168h-598v-516h645v-176h-835zM285 2036h180l166 -219l166 219h178l-277 -344h-137z" />
    <glyph glyph-name="ecaron" unicode="&#x11b;" horiz-adv-x="1212" 
d="M664 -25q-256 0 -409 158t-153 416q0 131 43.5 242t116.5 185t170 115.5t205 41.5q99 0 185 -36.5t151.5 -105t103 -176t37.5 -240.5q0 -45 -6 -83h-821q20 -163 126.5 -258t264.5 -95q202 0 373 146v-187q-169 -123 -387 -123zM287 633h645q-3 163 -88.5 249.5
t-208.5 86.5q-130 0 -228.5 -92t-119.5 -244zM291 1620h180l166 -219l166 219h178l-276 -344h-138z" />
    <glyph glyph-name="Gbreve" unicode="&#x11e;" horiz-adv-x="1486" 
d="M305 760q0 -132 44 -246.5t119 -193t177.5 -123.5t218.5 -45q165 0 299 67v604h183v-723q-228 -131 -484 -131q-150 0 -286.5 57t-239.5 158t-164 251t-61 325q0 176 60 326t163 252t240.5 159t291.5 57q249 0 439 -110v-203q-204 127 -431 127q-118 0 -222.5 -45
t-181 -123.5t-121 -193t-44.5 -246.5zM512 2030h145q3 -75 54.5 -125t138.5 -50q86 0 137 50t53 125h146q3 -97 -46.5 -170t-125.5 -107.5t-164 -34.5t-164.5 34.5t-126.5 107.5t-47 170z" />
    <glyph glyph-name="gbreve" unicode="&#x11f;" horiz-adv-x="1345" 
d="M604 1130q121 0 226 -56.5t167 -158.5l23 193h154v-1018q0 -130 -44.5 -235.5t-120 -172t-173 -102t-207.5 -35.5q-111 0 -219 36.5t-195 101.5v202q87 -79 192 -121.5t214 -42.5q153 0 258.5 94t105.5 244v168q-62 -97 -163.5 -153t-217.5 -56q-98 0 -189.5 40.5
t-161 112t-111.5 176.5t-42 226q0 120 42.5 225.5t112 177.5t161 113t188.5 41zM291 571q0 -162 101 -271.5t249 -109.5t249 111.5t101 278.5q0 163 -100.5 269.5t-249.5 106.5q-148 0 -249 -110t-101 -275zM362 1614h146q3 -75 54 -124.5t138 -49.5t138 49.5t53 124.5h145
q3 -97 -46.5 -169.5t-125.5 -107t-164 -34.5t-164.5 34.5t-126.5 107t-47 169.5z" />
    <glyph glyph-name="Gdotaccent" unicode="&#x120;" horiz-adv-x="1486" 
d="M305 760q0 -132 44 -246.5t119 -193t177.5 -123.5t218.5 -45q165 0 299 67v604h183v-723q-228 -131 -484 -131q-150 0 -286.5 57t-239.5 158t-164 251t-61 325q0 176 60 326t163 252t240.5 159t291.5 57q249 0 439 -110v-203q-204 127 -431 127q-118 0 -222.5 -45
t-181 -123.5t-121 -193t-44.5 -246.5zM739 1845q0 44 33 75.5t78 31.5q46 0 78.5 -31.5t32.5 -75.5t-32.5 -76t-78.5 -32q-45 0 -78 32t-33 76z" />
    <glyph glyph-name="gdotaccent" unicode="&#x121;" horiz-adv-x="1345" 
d="M604 1130q121 0 226 -56.5t167 -158.5l23 193h154v-1018q0 -130 -44.5 -235.5t-120 -172t-173 -102t-207.5 -35.5q-111 0 -219 36.5t-195 101.5v202q87 -79 192 -121.5t214 -42.5q153 0 258.5 94t105.5 244v168q-62 -97 -163.5 -153t-217.5 -56q-98 0 -189.5 40.5
t-161 112t-111.5 176.5t-42 226q0 120 42.5 225.5t112 177.5t161 113t188.5 41zM291 571q0 -162 101 -271.5t249 -109.5t249 111.5t101 278.5q0 163 -100.5 269.5t-249.5 106.5q-148 0 -249 -110t-101 -275zM590 1430q0 44 32.5 75t77.5 31q46 0 78.5 -31t32.5 -75
t-32.5 -76.5t-78.5 -32.5q-44 0 -77 32.5t-33 76.5z" />
    <glyph glyph-name="uni0122" unicode="&#x122;" horiz-adv-x="1486" 
d="M305 760q0 -132 44 -246.5t119 -193t177.5 -123.5t218.5 -45q165 0 299 67v604h183v-723q-228 -131 -484 -131q-150 0 -286.5 57t-239.5 158t-164 251t-61 325q0 176 60 326t163 252t240.5 159t291.5 57q249 0 439 -110v-203q-204 127 -431 127q-118 0 -222.5 -45
t-181 -123.5t-121 -193t-44.5 -246.5zM678 -575q93 223 43 413h176q37 -198 -84 -413h-135z" />
    <glyph glyph-name="uni0123" unicode="&#x123;" horiz-adv-x="1345" 
d="M604 1130q121 0 226 -56.5t167 -158.5l23 193h154v-1018q0 -130 -44.5 -235.5t-120 -172t-173 -102t-207.5 -35.5q-111 0 -219 36.5t-195 101.5v202q87 -79 192 -121.5t214 -42.5q153 0 258.5 94t105.5 244v168q-62 -97 -163.5 -153t-217.5 -56q-98 0 -189.5 40.5
t-161 112t-111.5 176.5t-42 226q0 120 42.5 225.5t112 177.5t161 113t188.5 41zM291 571q0 -162 101 -271.5t249 -109.5t249 111.5t101 278.5q0 163 -100.5 269.5t-249.5 106.5q-148 0 -249 -110t-101 -275zM616 1270q-37 198 84 413h136q-93 -223 -43 -413h-177z" />
    <glyph glyph-name="Hbar" unicode="&#x126;" horiz-adv-x="1622" 
d="M59 1108v149h160v267h191v-267h804v267h191v-267h137v-149h-137v-1108h-191v684h-804v-684h-191v1108h-160zM410 862h804v246h-804v-246z" />
    <glyph glyph-name="hbar" unicode="&#x127;" horiz-adv-x="1241" 
d="M10 1446h162v192h188v-192h320v-148h-320v-323h2q48 72 133 115t185 43q186 0 292.5 -104t106.5 -296v-733h-188v668q0 288 -254 288q-118 0 -197.5 -69.5t-79.5 -200.5v-686h-188v1298h-162v148z" />
    <glyph glyph-name="Imacron" unicode="&#x12a;" horiz-adv-x="608" 
d="M209 0v1524h190v-1524h-190zM-37 1776v139h682v-139h-682z" />
    <glyph glyph-name="imacron" unicode="&#x12b;" horiz-adv-x="540" 
d="M176 0v1108h189v-1108h-189zM-70 1411v139h682v-139h-682z" />
    <glyph glyph-name="Iogonek" unicode="&#x12e;" horiz-adv-x="608" 
d="M399 0q-202 -107 -202 -211q0 -54 37.5 -84.5t93.5 -30.5q49 0 71 13v-125q-9 -5 -38 -11t-60 -6q-109 0 -182.5 57t-73.5 156q0 142 164 262v1504h190v-1524z" />
    <glyph glyph-name="iogonek" unicode="&#x12f;" horiz-adv-x="540" 
d="M270 1362q-51 0 -83.5 32.5t-32.5 82.5t32.5 82t83.5 32t84 -32t33 -82t-33 -82.5t-84 -32.5zM10 -242q0 143 166 265v1085h189v-1108q-203 -107 -203 -211q0 -54 37.5 -84.5t93.5 -30.5q50 0 72 13v-125q-9 -5 -38.5 -11t-60.5 -6q-109 0 -182.5 57t-73.5 156z" />
    <glyph glyph-name="Idotaccent" unicode="&#x130;" horiz-adv-x="608" 
d="M209 0v1524h190v-1524h-190zM193 1845q0 44 32.5 75.5t77.5 31.5q46 0 78.5 -31.5t32.5 -75.5t-32.5 -76t-78.5 -32q-44 0 -77 32t-33 76z" />
    <glyph glyph-name="dotlessi" unicode="&#x131;" horiz-adv-x="540" 
d="M176 0v1108h189v-1108h-189z" />
    <glyph glyph-name="IJ" unicode="&#x132;" horiz-adv-x="1560" 
d="M209 0v1524h190v-1524h-190zM668 80v207q118 -131 264 -131q115 0 180.5 73t65.5 215v1080h190v-1106q0 -197 -112.5 -320t-303.5 -123q-78 0 -154 28t-130 77z" />
    <glyph glyph-name="ij" unicode="&#x133;" horiz-adv-x="1081" 
d="M176 0v1108h189v-1108h-189zM154 1477q0 50 32.5 82t83.5 32t84 -32t33 -82t-33 -82.5t-84 -32.5t-83.5 32.5t-32.5 82.5zM512 -430q106 111 156.5 245t50.5 328v965h188v-961q0 -186 -40 -323t-132 -254h-223zM696 1477q0 50 33 82t84 32t84 -32t33 -82t-33 -82.5
t-84 -32.5t-84 32.5t-33 82.5z" />
    <glyph glyph-name="uni0136" unicode="&#x136;" horiz-adv-x="1353" 
d="M1329 1524l-713 -758l723 -766h-243l-697 745v-745h-190v1524h190v-742l693 742h237zM582 -575q93 223 43 413h176q37 -198 -84 -413h-135z" />
    <glyph glyph-name="uni0137" unicode="&#x137;" horiz-adv-x="1122" 
d="M1090 1108l-510 -526l528 -582h-244l-504 563v-563h-188v1638h188v-1044l490 514h240zM442 -575q93 223 43 413h177q37 -198 -84 -413h-136z" />
    <glyph glyph-name="kgreenlandic" unicode="&#x138;" horiz-adv-x="1122" 
d="M1090 1108l-510 -526l528 -582h-244l-504 563v-563h-188v1108h188v-514l490 514h240z" />
    <glyph glyph-name="Lacute" unicode="&#x139;" horiz-adv-x="1118" 
d="M209 0v1524h190v-1346h672v-178h-862zM193 1692l237 344h203l-285 -344h-155z" />
    <glyph glyph-name="lacute" unicode="&#x13a;" horiz-adv-x="540" 
d="M176 0v1638h189v-1638h-189zM158 1806l237 344h203l-285 -344h-155z" />
    <glyph glyph-name="uni013B" unicode="&#x13b;" horiz-adv-x="1118" 
d="M209 0v1524h190v-1346h672v-178h-862zM504 -575q93 223 43 413h176q37 -198 -84 -413h-135z" />
    <glyph glyph-name="uni013C" unicode="&#x13c;" horiz-adv-x="540" 
d="M176 0v1638h189v-1638h-189zM135 -575q93 223 43 413h176q37 -198 -84 -413h-135z" />
    <glyph glyph-name="Lcaron" unicode="&#x13d;" horiz-adv-x="1118" 
d="M209 0v1524h190v-1346h672v-178h-862zM555 1638h174q12 -70 12 -116q0 -134 -57 -283h-127q0 2 9 50.5t12.5 86t3.5 84.5q0 85 -27 178z" />
    <glyph glyph-name="lcaron" unicode="&#x13e;" horiz-adv-x="540" 
d="M176 0v1638h189v-1638h-189zM522 1638h174q13 -76 13 -116q0 -132 -58 -283h-127q0 2 9 50.5t12.5 86t3.5 84.5q0 85 -27 178z" />
    <glyph glyph-name="Ldot" unicode="&#x13f;" horiz-adv-x="1118" 
d="M209 0v1524h190v-1346h672v-178h-862zM739 795q0 56 36 92.5t91 36.5q54 0 90.5 -37t36.5 -92q0 -54 -36.5 -90.5t-90.5 -36.5q-55 0 -91 36.5t-36 90.5z" />
    <glyph glyph-name="ldot" unicode="&#x140;" horiz-adv-x="540" 
d="M176 0v1638h189v-1638h-189zM528 817q0 56 36 92.5t91 36.5q54 0 90.5 -37t36.5 -92q0 -54 -36.5 -90.5t-90.5 -36.5q-55 0 -91 36.5t-36 90.5z" />
    <glyph glyph-name="Lslash" unicode="&#x141;" horiz-adv-x="1161" 
d="M51 406v184l201 117v817h190v-709l379 219v-182l-379 -219v-455h672v-178h-862v522z" />
    <glyph glyph-name="lslash" unicode="&#x142;" horiz-adv-x="806" 
d="M70 547v186l249 146v759h189v-651l250 146v-185l-250 -145v-803h-189v692z" />
    <glyph glyph-name="Nacute" unicode="&#x143;" horiz-adv-x="1624" 
d="M1415 1524v-1524h-176l-842 1217h-2v-1217h-186v1524h192l828 -1196h2v1196h184zM715 1692l237 344h203l-285 -344h-155z" />
    <glyph glyph-name="nacute" unicode="&#x144;" horiz-adv-x="1239" 
d="M684 1133q180 0 287.5 -108.5t107.5 -291.5v-733h-188v666q0 286 -254 286q-119 0 -198 -77.5t-79 -198.5v-676h-188v1108h145l21 -168h6q52 84 140.5 138.5t199.5 54.5zM524 1276l238 344h203l-285 -344h-156z" />
    <glyph glyph-name="uni0145" unicode="&#x145;" horiz-adv-x="1624" 
d="M1415 1524v-1524h-176l-842 1217h-2v-1217h-186v1524h192l828 -1196h2v1196h184zM686 -575q93 223 43 413h176q37 -198 -84 -413h-135z" />
    <glyph glyph-name="uni0146" unicode="&#x146;" horiz-adv-x="1239" 
d="M684 1133q180 0 287.5 -108.5t107.5 -291.5v-733h-188v666q0 286 -254 286q-119 0 -198 -77.5t-79 -198.5v-676h-188v1108h145l21 -168h6q52 84 140.5 138.5t199.5 54.5zM489 -575q93 223 43 413h177q37 -198 -84 -413h-136z" />
    <glyph glyph-name="Ncaron" unicode="&#x147;" horiz-adv-x="1624" 
d="M1415 1524v-1524h-176l-842 1217h-2v-1217h-186v1524h192l828 -1196h2v1196h184zM483 2036h181l165 -219l166 219h179l-277 -344h-137z" />
    <glyph glyph-name="ncaron" unicode="&#x148;" horiz-adv-x="1239" 
d="M684 1133q180 0 287.5 -108.5t107.5 -291.5v-733h-188v666q0 286 -254 286q-119 0 -198 -77.5t-79 -198.5v-676h-188v1108h145l21 -168h6q52 84 140.5 138.5t199.5 54.5zM293 1620h180l166 -219l166 219h178l-276 -344h-138z" />
    <glyph glyph-name="Eng" unicode="&#x14a;" horiz-adv-x="1640" 
d="M1432 -14q0 -196 -112 -318.5t-304 -122.5q-79 0 -154.5 27t-128.5 76v209q111 -131 264 -131q114 0 182 73.5t68 214.5l-852 1215h-2v-1229h-184v1524h192l844 -1209h2v1209h185v-1538z" />
    <glyph glyph-name="eng" unicode="&#x14b;" horiz-adv-x="1239" 
d="M1079 147q0 -186 -40 -323t-132 -254h-221q106 110 155.5 244t49.5 329v523q0 286 -254 286q-119 0 -198 -77.5t-79 -198.5v-676h-188v1108h145l21 -168h6q52 84 140.5 138.5t199.5 54.5q180 0 287.5 -108.5t107.5 -291.5v-586z" />
    <glyph glyph-name="Omacron" unicode="&#x14c;" horiz-adv-x="1734" 
d="M868 150q109 0 210 42t179.5 118t125.5 193.5t47 258.5t-47 258.5t-125.5 193.5t-179.5 118t-210 42q-88 0 -171 -26t-154 -78.5t-124 -124.5t-83.5 -171t-30.5 -212q0 -114 30.5 -213t84.5 -171t125 -124t153.5 -78t169.5 -26zM111 762q0 222 97.5 403t271 285
t388.5 104q160 0 300.5 -61t240.5 -166t157.5 -252t57.5 -313q0 -224 -98 -405.5t-271 -284.5t-387 -103q-161 0 -302 60.5t-240.5 165t-157 252t-57.5 315.5zM528 1776v139h682v-139h-682z" />
    <glyph glyph-name="omacron" unicode="&#x14d;" 
d="M653 -25q-156 0 -282.5 74.5t-198.5 207t-72 296.5t72 297t198.5 208t282.5 75q235 0 392 -165t157 -415q0 -123 -42 -230.5t-115 -183.5t-174.5 -120t-217.5 -44zM291 553q0 -93 30.5 -170t81 -127t115.5 -77t135 -27q146 0 253.5 109.5t107.5 291.5q0 93 -30.5 170.5
t-81 127.5t-115 77.5t-134.5 27.5t-135 -27.5t-115.5 -77.5t-81 -127.5t-30.5 -170.5zM309 1333v140h682v-140h-682z" />
    <glyph glyph-name="Ohungarumlaut" unicode="&#x150;" horiz-adv-x="1734" 
d="M868 150q109 0 210 42t179.5 118t125.5 193.5t47 258.5t-47 258.5t-125.5 193.5t-179.5 118t-210 42q-88 0 -171 -26t-154 -78.5t-124 -124.5t-83.5 -171t-30.5 -212q0 -114 30.5 -213t84.5 -171t125 -124t153.5 -78t169.5 -26zM111 762q0 222 97.5 403t271 285
t388.5 104q160 0 300.5 -61t240.5 -166t157.5 -252t57.5 -313q0 -224 -98 -405.5t-271 -284.5t-387 -103q-161 0 -302 60.5t-240.5 165t-157 252t-57.5 315.5zM530 1692l306 344h211l-353 -344h-164zM887 1692l303 344h211l-352 -344h-162z" />
    <glyph glyph-name="ohungarumlaut" unicode="&#x151;" 
d="M653 -25q-156 0 -282.5 74.5t-198.5 207t-72 296.5t72 297t198.5 208t282.5 75q235 0 392 -165t157 -415q0 -123 -42 -230.5t-115 -183.5t-174.5 -120t-217.5 -44zM291 553q0 -93 30.5 -170t81 -127t115.5 -77t135 -27q146 0 253.5 109.5t107.5 291.5q0 93 -30.5 170.5
t-81 127.5t-115 77.5t-134.5 27.5t-135 -27.5t-115.5 -77.5t-81 -127.5t-30.5 -170.5zM309 1249l305 344h211l-352 -344h-164zM666 1249l303 344h211l-353 -344h-161z" />
    <glyph glyph-name="OE" unicode="&#x152;" horiz-adv-x="2023" 
d="M1884 1524v-178h-637v-486h592v-168h-592v-516h637v-176l-792 2q-100 -33 -224 -33q-161 0 -302 60.5t-240.5 165t-157 252t-57.5 315.5q0 222 97.5 403t271 285t388.5 104q107 0 224 -30h792zM305 762q0 -114 30.5 -213t84.5 -171t125 -124t153.5 -78t169.5 -26
q93 0 191 32v1157q-93 35 -191 35q-88 0 -171 -26t-154 -78.5t-124 -124.5t-83.5 -171t-30.5 -212z" />
    <glyph glyph-name="oe" unicode="&#x153;" horiz-adv-x="2117" 
d="M1958 98q-172 -123 -389 -123q-305 0 -467 244q-76 -111 -191.5 -177.5t-257.5 -66.5q-238 0 -395.5 164t-157.5 414q0 123 42.5 230.5t115.5 184t176 121t219 44.5q136 0 254.5 -66.5t194.5 -175.5q72 112 183 177t259 65q98 0 184 -36.5t151.5 -105t103.5 -176
t38 -240.5q0 -8 -6 -83h-819q17 -163 123 -258t266 -95q199 0 373 146v-187zM289 553q0 -93 30.5 -170.5t81.5 -127.5t116.5 -77.5t135.5 -27.5t134.5 27.5t115 77.5t81 127.5t30.5 170.5q0 94 -30.5 171.5t-81 127.5t-115 77t-134.5 27q-149 0 -256.5 -109t-107.5 -294z
M1198 633h641q-4 163 -89.5 249.5t-207.5 86.5q-130 0 -226.5 -91.5t-117.5 -244.5z" />
    <glyph glyph-name="Racute" unicode="&#x154;" horiz-adv-x="1275" 
d="M209 0v1524h403q258 0 397.5 -124t139.5 -329q0 -192 -130 -314.5t-372 -135.5l565 -621h-243l-549 618h-21v-618h-190zM399 778h185q190 0 280 76t90 211q0 132 -91.5 206.5t-262.5 74.5h-201v-568zM537 1692l237 344h203l-285 -344h-155z" />
    <glyph glyph-name="racute" unicode="&#x155;" horiz-adv-x="770" 
d="M172 0v1108h150l20 -176h2q27 51 67 89t84 59t86 30.5t81 9.5q38 0 73 -6v-180q-50 8 -78 8q-57 0 -108.5 -18.5t-94.5 -55t-68.5 -98t-25.5 -139.5v-631h-188zM362 1276l238 344h203l-285 -344h-156z" />
    <glyph glyph-name="uni0156" unicode="&#x156;" horiz-adv-x="1275" 
d="M209 0v1524h403q258 0 397.5 -124t139.5 -329q0 -192 -130 -314.5t-372 -135.5l565 -621h-243l-549 618h-21v-618h-190zM399 778h185q190 0 280 76t90 211q0 132 -91.5 206.5t-262.5 74.5h-201v-568zM530 -575q93 223 43 413h177q37 -198 -84 -413h-136z" />
    <glyph glyph-name="uni0157" unicode="&#x157;" horiz-adv-x="770" 
d="M172 0v1108h150l20 -176h2q27 51 67 89t84 59t86 30.5t81 9.5q38 0 73 -6v-180q-50 8 -78 8q-57 0 -108.5 -18.5t-94.5 -55t-68.5 -98t-25.5 -139.5v-631h-188zM131 -575q93 223 43 413h176q37 -198 -84 -413h-135z" />
    <glyph glyph-name="Rcaron" unicode="&#x158;" horiz-adv-x="1275" 
d="M209 0v1524h403q258 0 397.5 -124t139.5 -329q0 -192 -130 -314.5t-372 -135.5l565 -621h-243l-549 618h-21v-618h-190zM305 2036h180l166 -219l166 219h178l-276 -344h-137zM399 778h185q190 0 280 76t90 211q0 132 -91.5 206.5t-262.5 74.5h-201v-568z" />
    <glyph glyph-name="rcaron" unicode="&#x159;" horiz-adv-x="770" 
d="M172 0v1108h150l20 -176h2q27 51 67 89t84 59t86 30.5t81 9.5q38 0 73 -6v-180q-50 8 -78 8q-57 0 -108.5 -18.5t-94.5 -55t-68.5 -98t-25.5 -139.5v-631h-188zM129 1620h180l166 -219l166 219h178l-276 -344h-137z" />
    <glyph glyph-name="Sacute" unicode="&#x15a;" horiz-adv-x="1161" 
d="M616 1556q199 0 363 -100v-196q-78 56 -174 87t-187 31q-124 0 -207 -59t-83 -168q0 -49 18.5 -87.5t62 -73.5t95.5 -63t139 -67q57 -25 96.5 -44t87 -46t78.5 -51.5t63.5 -58.5t51 -69.5t30 -82t11.5 -98.5q0 -135 -69.5 -237.5t-183.5 -154t-253 -51.5
q-124 0 -236.5 41t-189.5 101v213q79 -81 191.5 -129t226.5 -48q134 0 225.5 68t91.5 186q0 52 -19.5 93.5t-64.5 78t-99 67t-142 69.5q-57 25 -93.5 43t-83.5 44.5t-76.5 49.5t-61 56t-49 67t-29 78.5t-11.5 95.5q0 192 136.5 303.5t344.5 111.5zM494 1692l237 344h203
l-285 -344h-155z" />
    <glyph glyph-name="sacute" unicode="&#x15b;" horiz-adv-x="1009" 
d="M520 1133q95 0 185 -26.5t149 -70.5v-186q-62 53 -149 84t-183 31q-103 0 -160 -40.5t-57 -109.5q0 -29 12 -52.5t31 -40t52.5 -32.5t66.5 -27t84 -26q49 -14 75 -22t70.5 -25t69.5 -32.5t57 -41t49 -53.5t29 -68t12 -86q0 -153 -111 -243.5t-302 -90.5q-230 0 -383 123
v203q69 -71 166 -114.5t211 -43.5q111 0 173 44.5t62 119.5q0 26 -7.5 47.5t-26 39t-37.5 30.5t-54 26.5t-63 23t-76 24.5q-66 20 -107 35t-91.5 41.5t-78.5 56t-47.5 74.5t-19.5 102q0 142 109 234t290 92zM414 1276l237 344h203l-285 -344h-155z" />
    <glyph glyph-name="uni015E" unicode="&#x15e;" horiz-adv-x="1161" 
d="M616 1556q199 0 363 -100v-196q-78 56 -174 87t-187 31q-124 0 -207 -59t-83 -168q0 -49 18.5 -87.5t62 -73.5t95.5 -63t139 -67q57 -25 96.5 -44t87 -46t78.5 -51.5t63.5 -58.5t51 -69.5t30 -82t11.5 -98.5q0 -180 -116 -295.5t-298 -141.5q-16 -177 -135 -323h-197
q74 88 116 160.5t56 160.5q-202 19 -358 138v213q79 -81 191.5 -129t226.5 -48q134 0 225.5 68t91.5 186q0 52 -19.5 93.5t-64.5 78t-99 67t-142 69.5q-57 25 -93.5 43t-83.5 44.5t-76.5 49.5t-61 56t-49 67t-29 78.5t-11.5 95.5q0 192 136.5 303.5t344.5 111.5z" />
    <glyph glyph-name="uni015F" unicode="&#x15f;" horiz-adv-x="1009" 
d="M520 1133q95 0 185 -26.5t149 -70.5v-186q-62 53 -149 84t-183 31q-103 0 -160 -40.5t-57 -109.5q0 -29 12 -52.5t31 -40t52.5 -32.5t66.5 -27t84 -26q49 -14 75 -22t70.5 -25t69.5 -32.5t57 -41t49 -53.5t29 -68t12 -86q0 -136 -91 -224t-251 -105q-16 -186 -135 -330
h-196q75 90 118 165.5t54 166.5q-174 19 -295 116v203q69 -71 166 -114.5t211 -43.5q111 0 173 44.5t62 119.5q0 26 -7.5 47.5t-26 39t-37.5 30.5t-54 26.5t-63 23t-76 24.5q-66 20 -107 35t-91.5 41.5t-78.5 56t-47.5 74.5t-19.5 102q0 142 109 234t290 92z" />
    <glyph glyph-name="Scaron" unicode="&#x160;" horiz-adv-x="1161" 
d="M616 1556q199 0 363 -100v-196q-78 56 -174 87t-187 31q-124 0 -207 -59t-83 -168q0 -49 18.5 -87.5t62 -73.5t95.5 -63t139 -67q57 -25 96.5 -44t87 -46t78.5 -51.5t63.5 -58.5t51 -69.5t30 -82t11.5 -98.5q0 -135 -69.5 -237.5t-183.5 -154t-253 -51.5
q-124 0 -236.5 41t-189.5 101v213q79 -81 191.5 -129t226.5 -48q134 0 225.5 68t91.5 186q0 52 -19.5 93.5t-64.5 78t-99 67t-142 69.5q-57 25 -93.5 43t-83.5 44.5t-76.5 49.5t-61 56t-49 67t-29 78.5t-11.5 95.5q0 192 136.5 303.5t344.5 111.5zM260 2036h180l166 -219
l166 219h178l-276 -344h-137z" />
    <glyph glyph-name="scaron" unicode="&#x161;" horiz-adv-x="1009" 
d="M520 1133q95 0 185 -26.5t149 -70.5v-186q-62 53 -149 84t-183 31q-103 0 -160 -40.5t-57 -109.5q0 -29 12 -52.5t31 -40t52.5 -32.5t66.5 -27t84 -26q49 -14 75 -22t70.5 -25t69.5 -32.5t57 -41t49 -53.5t29 -68t12 -86q0 -153 -111 -243.5t-302 -90.5q-230 0 -383 123
v203q69 -71 166 -114.5t211 -43.5q111 0 173 44.5t62 119.5q0 26 -7.5 47.5t-26 39t-37.5 30.5t-54 26.5t-63 23t-76 24.5q-66 20 -107 35t-91.5 41.5t-78.5 56t-47.5 74.5t-19.5 102q0 142 109 234t290 92zM182 1620h180l166 -219l166 219h178l-276 -344h-137z" />
    <glyph glyph-name="uni0162" unicode="&#x162;" horiz-adv-x="1241" 
d="M526 0v1346h-481v178h1151v-178h-479v-1346h-17q-11 -198 -137 -350h-196q80 94 123.5 173.5t50.5 176.5h-15z" />
    <glyph glyph-name="uni0163" unicode="&#x163;" horiz-adv-x="798" 
d="M403 1368v-260h318v-164h-318v-549q0 -123 66 -183t178 -60q40 0 98 10v-164q-60 -12 -131 -12h-26q-14 -189 -135 -336h-197q55 67 87 113t59 115t30 142q-101 42 -157 136.5t-56 230.5v557h-166v164h170v260h180z" />
    <glyph glyph-name="Tcaron" unicode="&#x164;" horiz-adv-x="1241" 
d="M526 0v1346h-481v178h1151v-178h-479v-1346h-191zM276 2036h181l166 -219l165 219h179l-277 -344h-137z" />
    <glyph glyph-name="tcaron" unicode="&#x165;" horiz-adv-x="798" 
d="M565 1264q1 9 8 47.5t11 76t4 78.5q0 66 -25 172h172q13 -54 13 -112q0 -121 -52 -262h-131zM53 944v164h170v260h180v-260h318v-164h-318v-549q0 -123 66 -183t178 -60q40 0 98 10v-164q-60 -12 -131 -12q-183 0 -289 105t-106 296v557h-166z" />
    <glyph glyph-name="Tbar" unicode="&#x166;" horiz-adv-x="1282" 
d="M240 649v168h307v529h-481v178h1151v-178h-480v-529h305v-168h-305v-649h-190v649h-307z" />
    <glyph glyph-name="tbar" unicode="&#x167;" horiz-adv-x="815" 
d="M63 649h166v295h-166v164h170v260h181v-260h317v-164h-317v-295h317v-145h-317v-109q0 -124 65.5 -183.5t177.5 -59.5q41 0 99 10v-164q-60 -12 -131 -12q-183 0 -289.5 105t-106.5 296v117h-166v145z" />
    <glyph glyph-name="Umacron" unicode="&#x16a;" horiz-adv-x="1540" 
d="M762 -31q-174 0 -304.5 77t-199 213.5t-68.5 315.5v949h191v-959q0 -192 102 -303.5t279 -111.5q181 0 289 112.5t108 306.5v955h191v-946q0 -272 -160.5 -440.5t-427.5 -168.5zM430 1776v139h682v-139h-682z" />
    <glyph glyph-name="umacron" unicode="&#x16b;" horiz-adv-x="1224" 
d="M608 -25q-209 0 -329.5 124t-120.5 327v682h188v-686q0 -127 70 -198.5t192 -71.5q125 0 198 71.5t73 198.5v686h188v-682q0 -202 -124 -326.5t-335 -124.5zM272 1360v139h682v-139h-682z" />
    <glyph glyph-name="Uring" unicode="&#x16e;" horiz-adv-x="1540" 
d="M762 -31q-174 0 -304.5 77t-199 213.5t-68.5 315.5v949h191v-959q0 -192 102 -303.5t279 -111.5q181 0 289 112.5t108 306.5v955h191v-946q0 -272 -160.5 -440.5t-427.5 -168.5zM551 1894q0 86 63 144.5t154 58.5t154 -58.5t63 -144.5t-63 -145t-154 -59t-154 59t-63 145
zM659 1894q0 -45 31 -75.5t78 -30.5t78 30.5t31 75.5t-31 75t-78 30t-78 -30t-31 -75z" />
    <glyph glyph-name="uring" unicode="&#x16f;" horiz-adv-x="1224" 
d="M608 -25q-209 0 -329.5 124t-120.5 327v682h188v-686q0 -127 70 -198.5t192 -71.5q125 0 198 71.5t73 198.5v686h188v-682q0 -202 -124 -326.5t-335 -124.5zM393 1479q0 86 63 144t154 58t154 -58t63 -144t-63 -145.5t-154 -59.5t-154 59.5t-63 145.5zM502 1479
q0 -45 30.5 -76t77.5 -31t78 31t31 76q0 44 -31 74t-78 30t-77.5 -29.5t-30.5 -74.5z" />
    <glyph glyph-name="Uhungarumlaut" unicode="&#x170;" horiz-adv-x="1540" 
d="M762 -31q-174 0 -304.5 77t-199 213.5t-68.5 315.5v949h191v-959q0 -192 102 -303.5t279 -111.5q181 0 289 112.5t108 306.5v955h191v-946q0 -272 -160.5 -440.5t-427.5 -168.5zM430 1692l305 344h211l-352 -344h-164zM786 1692l304 344h210l-352 -344h-162z" />
    <glyph glyph-name="uhungarumlaut" unicode="&#x171;" horiz-adv-x="1224" 
d="M608 -25q-209 0 -329.5 124t-120.5 327v682h188v-686q0 -127 70 -198.5t192 -71.5q125 0 198 71.5t73 198.5v686h188v-682q0 -202 -124 -326.5t-335 -124.5zM272 1276l306 344h210l-352 -344h-164zM629 1276l303 344h211l-352 -344h-162z" />
    <glyph glyph-name="Uogonek" unicode="&#x172;" horiz-adv-x="1540" 
d="M1350 578q0 -155 -58.5 -286t-179.5 -218q-127 -95 -184.5 -160t-57.5 -123q0 -56 37.5 -84.5t96.5 -28.5q44 0 71 11v-123q-10 -7 -43 -12t-59 -5q-111 0 -181.5 58.5t-70.5 154.5q0 112 100 209q-18 -2 -59 -2q-174 0 -304.5 77t-199 213.5t-68.5 315.5v949h191v-959
q0 -192 102 -303.5t279 -111.5q181 0 289 112.5t108 306.5v955h191v-946z" />
    <glyph glyph-name="uogonek" unicode="&#x173;" horiz-adv-x="1224" 
d="M1067 426q0 -125 -49 -221.5t-139 -157.5q-112 -80 -166 -142t-54 -120q0 -54 37.5 -82.5t96.5 -28.5q54 0 69 11v-123q-8 -6 -40.5 -12.5t-59.5 -6.5q-109 0 -180.5 57t-71.5 158q0 112 111 217h-13q-209 0 -329.5 124t-120.5 327v682h188v-686q0 -127 69 -198.5
t193 -71.5q125 0 198 71.5t73 198.5v686h188v-682z" />
    <glyph glyph-name="Wcircumflex" unicode="&#x174;" horiz-adv-x="2195" 
d="M1501 0l-401 1255l-402 -1255h-202l-455 1524h201l360 -1274h2l404 1274h184l407 -1276h3l354 1276h194l-448 -1524h-201zM756 1692l272 344h141l277 -344h-180l-166 219l-168 -219h-176z" />
    <glyph glyph-name="wcircumflex" unicode="&#x175;" horiz-adv-x="1751" 
d="M1159 0l-278 868h-7l-280 -868h-215l-313 1108h196l232 -897h4l282 897h197l280 -897h7l235 897h187l-312 -1108h-215zM532 1276l273 344h141l277 -344h-181l-165 219l-168 -219h-177z" />
    <glyph glyph-name="Ycircumflex" unicode="&#x176;" horiz-adv-x="1335" 
d="M575 0v643l-561 881h215l441 -705h2l436 705h211l-557 -879v-645h-187zM324 1692l272 344h141l277 -344h-180l-166 219l-168 -219h-176z" />
    <glyph glyph-name="ycircumflex" unicode="&#x177;" horiz-adv-x="1105" 
d="M1063 1108l-600 -1538h-193l191 469l-414 1069h205l305 -844h4l305 844h197zM215 1276l272 344h142l276 -344h-180l-166 219l-168 -219h-176z" />
    <glyph glyph-name="Ydieresis" unicode="&#x178;" horiz-adv-x="1335" 
d="M575 0v643l-561 881h215l441 -705h2l436 705h211l-557 -879v-645h-187zM350 1845q0 44 32.5 75.5t76.5 31.5q46 0 79 -31.5t33 -75.5t-33 -76t-79 -32q-44 0 -76.5 32t-32.5 76zM770 1845q0 44 32.5 75.5t78.5 31.5q45 0 76.5 -31t31.5 -76t-31.5 -76.5t-76.5 -31.5
q-46 0 -78.5 32t-32.5 76z" />
    <glyph glyph-name="Zacute" unicode="&#x179;" horiz-adv-x="1210" 
d="M1161 1524l-807 -1346h756v-178h-1065l807 1346h-743v178h1052zM512 1692l238 344h202l-284 -344h-156z" />
    <glyph glyph-name="zacute" unicode="&#x17a;" horiz-adv-x="1034" 
d="M985 1108l-633 -934h574v-174h-881l633 934h-559v174h866zM424 1276l238 344h202l-284 -344h-156z" />
    <glyph glyph-name="Zdotaccent" unicode="&#x17b;" horiz-adv-x="1210" 
d="M1161 1524l-807 -1346h756v-178h-1065l807 1346h-743v178h1052zM512 1845q0 44 33 75.5t78 31.5q46 0 78 -31.5t32 -75.5t-32 -76t-78 -32q-45 0 -78 32t-33 76z" />
    <glyph glyph-name="zdotaccent" unicode="&#x17c;" horiz-adv-x="1034" 
d="M985 1108l-633 -934h574v-174h-881l633 934h-559v174h866zM424 1430q0 44 33 75t78 31q46 0 78 -31t32 -75t-32.5 -76.5t-77.5 -32.5q-44 0 -77.5 32.5t-33.5 76.5z" />
    <glyph glyph-name="Zcaron" unicode="&#x17d;" horiz-adv-x="1210" 
d="M1161 1524l-807 -1346h756v-178h-1065l807 1346h-743v178h1052zM279 2036h180l166 -219l166 219h178l-277 -344h-137z" />
    <glyph glyph-name="zcaron" unicode="&#x17e;" horiz-adv-x="1034" 
d="M985 1108l-633 -934h574v-174h-881l633 934h-559v174h866zM190 1620h181l166 -219l165 219h179l-277 -344h-137z" />
    <glyph glyph-name="florin" unicode="&#x192;" horiz-adv-x="942" 
d="M893 1468q-55 11 -92 11q-52 0 -92 -13t-65 -34t-43 -52t-27 -61.5t-15 -69.5l-20 -141h288v-164h-313l-149 -987q-15 -97 -41 -167.5t-72 -128t-121 -87t-178 -29.5q-29 0 -103 9v163q44 -6 82 -6q59 0 105 20.5t74.5 57t45.5 80t25 96.5l146 979h-162v164h186l23 154
q14 94 41 163t74.5 120.5t120 77.5t171.5 26q67 0 111 -13v-168z" />
    <glyph glyph-name="uni0218" unicode="&#x218;" horiz-adv-x="1161" 
d="M616 1556q199 0 363 -100v-196q-78 56 -174 87t-187 31q-124 0 -207 -59t-83 -168q0 -49 18.5 -87.5t62 -73.5t95.5 -63t139 -67q57 -25 96.5 -44t87 -46t78.5 -51.5t63.5 -58.5t51 -69.5t30 -82t11.5 -98.5q0 -135 -69.5 -237.5t-183.5 -154t-253 -51.5
q-124 0 -236.5 41t-189.5 101v213q79 -81 191.5 -129t226.5 -48q134 0 225.5 68t91.5 186q0 52 -19.5 93.5t-64.5 78t-99 67t-142 69.5q-57 25 -93.5 43t-83.5 44.5t-76.5 49.5t-61 56t-49 67t-29 78.5t-11.5 95.5q0 192 136.5 303.5t344.5 111.5zM434 -575q93 223 43 413
h176q37 -198 -84 -413h-135z" />
    <glyph glyph-name="uni0219" unicode="&#x219;" horiz-adv-x="1009" 
d="M520 1133q95 0 185 -26.5t149 -70.5v-186q-62 53 -149 84t-183 31q-103 0 -160 -40.5t-57 -109.5q0 -29 12 -52.5t31 -40t52.5 -32.5t66.5 -27t84 -26q49 -14 75 -22t70.5 -25t69.5 -32.5t57 -41t49 -53.5t29 -68t12 -86q0 -153 -111 -243.5t-302 -90.5q-230 0 -383 123
v203q69 -71 166 -114.5t211 -43.5q111 0 173 44.5t62 119.5q0 26 -7.5 47.5t-26 39t-37.5 30.5t-54 26.5t-63 23t-76 24.5q-66 20 -107 35t-91.5 41.5t-78.5 56t-47.5 74.5t-19.5 102q0 142 109 234t290 92zM360 -575q93 223 43 413h177q37 -198 -84 -413h-136z" />
    <glyph glyph-name="uni021A" unicode="&#x21a;" horiz-adv-x="1241" 
d="M526 0v1346h-481v178h1151v-178h-479v-1346h-191zM485 -575q93 223 43 413h177q37 -198 -84 -413h-136z" />
    <glyph glyph-name="uni021B" unicode="&#x21b;" horiz-adv-x="798" 
d="M403 1368v-260h318v-164h-318v-549q0 -123 66 -183t178 -60q40 0 98 10v-164q-60 -12 -131 -12q-183 0 -289 105t-106 296v557h-166v164h170v260h180zM375 -575q93 223 43 413h176q37 -198 -84 -413h-135z" />
    <glyph glyph-name="circumflex" unicode="&#x2c6;" 
d="M721 1620l276 -344h-180l-166 219l-168 -219h-176l273 344h141z" />
    <glyph glyph-name="caron" unicode="&#x2c7;" 
d="M997 1620l-276 -344h-137l-277 344h180l166 -219l166 219h178z" />
    <glyph glyph-name="breve" unicode="&#x2d8;" 
d="M989 1614q3 -97 -46.5 -169.5t-125.5 -107t-164 -34.5t-164.5 34.5t-126.5 107t-47 169.5h146q3 -75 54 -124.5t138 -49.5t138 49.5t53 124.5h145z" />
    <glyph glyph-name="dotaccent" unicode="&#x2d9;" 
d="M651 1321q-44 0 -77 32.5t-33 76.5t32.5 75t77.5 31q46 0 78.5 -31t32.5 -75t-32.5 -76.5t-78.5 -32.5z" />
    <glyph glyph-name="ring" unicode="&#x2da;" 
d="M651 1681q91 0 154 -58t63 -144t-63 -145.5t-154 -59.5t-154 59.5t-63 145.5t63 144t154 58zM543 1479q0 -45 30.5 -76t77.5 -31t78 31t31 76q0 44 -31 74t-78 30t-77.5 -29.5t-30.5 -74.5z" />
    <glyph glyph-name="ogonek" unicode="&#x2db;" 
d="M813 0q-203 -107 -203 -211q0 -54 37.5 -84.5t93.5 -30.5q50 0 72 13v-125q-9 -5 -38 -11t-60 -6q-109 0 -182.5 57t-73.5 156q0 180 264 326z" />
    <glyph glyph-name="tilde" unicode="&#x2dc;" 
d="M1049 1552q7 -126 -58.5 -189t-163.5 -63q-41 0 -77 12.5t-63 31t-52.5 36.5t-55 30.5t-59.5 12.5q-53 0 -78.5 -35t-23.5 -81h-131q-7 126 58 189t163 63q49 0 94 -19.5t73 -43t65.5 -43t74.5 -19.5q53 0 79 35.5t24 82.5h131z" />
    <glyph glyph-name="hungarumlaut" unicode="&#x2dd;" 
d="M772 1620l-352 -344h-164l305 344h211zM612 1276l303 344h211l-352 -344h-162z" />
    <glyph glyph-name="gravecomb" unicode="&#x300;" horiz-adv-x="0" 
d="M600 1620l238 -344h-158l-283 344h203z" />
    <glyph glyph-name="acutecomb" unicode="&#x301;" horiz-adv-x="0" 
d="M705 1620h202l-284 -344h-156z" />
    <glyph glyph-name="uni0302" unicode="&#x302;" horiz-adv-x="0" 
d="M721 1620l276 -344h-180l-166 219l-168 -219h-176l273 344h141z" />
    <glyph glyph-name="tildecomb" unicode="&#x303;" horiz-adv-x="0" 
d="M1049 1552q7 -126 -58.5 -189t-163.5 -63q-41 0 -77 12.5t-63 31t-52.5 36.5t-55 30.5t-59.5 12.5q-53 0 -78.5 -35t-23.5 -81h-131q-7 126 58 189t163 63q49 0 94 -19.5t73 -43t65.5 -43t74.5 -19.5q53 0 79 35.5t24 82.5h131z" />
    <glyph glyph-name="uni0304" unicode="&#x304;" horiz-adv-x="0" 
d="M311 1360v139h682v-139h-682z" />
    <glyph glyph-name="uni0306" unicode="&#x306;" horiz-adv-x="0" 
d="M989 1614q3 -97 -46.5 -169.5t-125.5 -107t-164 -34.5t-164.5 34.5t-126.5 107t-47 169.5h146q3 -75 54 -124.5t138 -49.5t138 49.5t53 124.5h145z" />
    <glyph glyph-name="uni0307" unicode="&#x307;" horiz-adv-x="0" 
d="M651 1321q-44 0 -77 32.5t-33 76.5t32.5 75t77.5 31q46 0 78.5 -31t32.5 -75t-32.5 -76.5t-78.5 -32.5z" />
    <glyph glyph-name="uni0308" unicode="&#x308;" horiz-adv-x="0" 
d="M440 1321q-44 0 -76 32.5t-32 76.5t32 75t76 31q46 0 79.5 -31t33.5 -75t-33.5 -76.5t-79.5 -32.5zM752 1430q0 44 32 75t78 31t77.5 -31t31.5 -75q0 -45 -32 -77t-77 -32q-46 0 -78 32.5t-32 76.5z" />
    <glyph glyph-name="uni030A" unicode="&#x30a;" horiz-adv-x="0" 
d="M651 1681q91 0 154 -58t63 -144t-63 -145.5t-154 -59.5t-154 59.5t-63 145.5t63 144t154 58zM543 1479q0 -45 30.5 -76t77.5 -31t78 31t31 76q0 44 -31 74t-78 30t-77.5 -29.5t-30.5 -74.5z" />
    <glyph glyph-name="uni030B" unicode="&#x30b;" horiz-adv-x="0" 
d="M772 1620l-352 -344h-164l305 344h211zM612 1276l303 344h211l-352 -344h-162z" />
    <glyph glyph-name="uni030C" unicode="&#x30c;" horiz-adv-x="0" 
d="M997 1620l-276 -344h-137l-277 344h180l166 -219l166 219h178z" />
    <glyph glyph-name="uni0326" unicode="&#x326;" horiz-adv-x="0" 
d="M84 -162q37 -198 -84 -413h-135q93 223 43 413h176z" />
    <glyph glyph-name="uni0327" unicode="&#x327;" horiz-adv-x="0" 
d="M449 -350q42 51 69 88t54 86.5t40 102.5t13 112h157q0 -223 -137 -389h-196z" />
    <glyph glyph-name="uni0328" unicode="&#x328;" horiz-adv-x="0" 
d="M813 0q-203 -107 -203 -211q0 -54 37.5 -84.5t93.5 -30.5q50 0 72 13v-125q-9 -5 -38 -11t-60 -6q-109 0 -182.5 57t-73.5 156q0 180 264 326z" />
    <glyph glyph-name="uni037E" unicode="&#x37e;" horiz-adv-x="573" 
d="M127 -272q86 278 86 469v92h178v-84q0 -189 -123 -477h-141zM166 811q0 56 36 92.5t91 36.5q54 0 90.5 -37t36.5 -92q0 -54 -36.5 -90.5t-90.5 -36.5q-55 0 -91 36.5t-36 90.5z" />
    <glyph glyph-name="tonos" unicode="&#x384;" 
d="M651 1757h180l-182 -461h-133z" />
    <glyph glyph-name="dieresistonos" unicode="&#x385;" horiz-adv-x="1155" 
d="M463 1296l135 461h180l-182 -461h-133zM215 1425q0 41 29.5 70t70.5 29q43 0 73 -29t30 -70t-30 -70.5t-73 -29.5q-41 0 -70.5 29.5t-29.5 70.5zM737 1425q0 41 30 70t71 29q43 0 72.5 -29t29.5 -70t-29.5 -70.5t-72.5 -29.5q-41 0 -71 29.5t-30 70.5z" />
    <glyph glyph-name="Alphatonos" unicode="&#x386;" horiz-adv-x="1462" 
d="M1440 0h-205l-178 463h-654l-178 -463h-200l598 1524h215zM102 1069l95 461h184l-141 -461h-138zM465 633h528l-264 678z" />
    <glyph glyph-name="uni0387" unicode="&#x387;" horiz-adv-x="544" 
d="M272 684q-55 0 -91 36.5t-36 90.5q0 56 36 92.5t91 36.5q54 0 90.5 -37t36.5 -92q0 -54 -36.5 -90.5t-90.5 -36.5z" />
    <glyph glyph-name="Epsilontonos" unicode="&#x388;" horiz-adv-x="1183" 
d="M209 0v1524h835v-178h-645v-486h598v-168h-598v-516h645v-176h-835zM-209 1069l94 461h185l-142 -461h-137z" />
    <glyph glyph-name="Etatonos" unicode="&#x389;" horiz-adv-x="1603" 
d="M1204 0v684h-805v-684h-190v1524h190v-662h805v662h191v-1524h-191zM-209 1069l94 461h185l-142 -461h-137z" />
    <glyph glyph-name="Iotatonos" unicode="&#x38a;" horiz-adv-x="608" 
d="M209 0v1524h190v-1524h-190zM-209 1069l94 461h185l-142 -461h-137z" />
    <glyph glyph-name="Omicrontonos" unicode="&#x38c;" horiz-adv-x="1734" 
d="M868 150q109 0 210 42t179.5 118t125.5 193.5t47 258.5t-47 258.5t-125.5 193.5t-179.5 118t-210 42q-88 0 -171 -26t-154 -78.5t-124 -124.5t-83.5 -171t-30.5 -212q0 -114 30.5 -213t84.5 -171t125 -124t153.5 -78t169.5 -26zM-111 1069l95 461h184l-141 -461h-138z
M111 762q0 222 97.5 403t271 285t388.5 104q160 0 300.5 -61t240.5 -166t157.5 -252t57.5 -313q0 -224 -98 -405.5t-271 -284.5t-387 -103q-161 0 -302 60.5t-240.5 165t-157 252t-57.5 315.5z" />
    <glyph glyph-name="Upsilontonos" unicode="&#x38e;" horiz-adv-x="1335" 
d="M575 0v643l-561 881h215l441 -705h2l436 705h211l-557 -879v-645h-187zM-334 1069l94 461h185l-142 -461h-137z" />
    <glyph glyph-name="Omegatonos" unicode="&#x38f;" horiz-adv-x="1763" 
d="M109 0v164h360q-140 100 -230.5 267.5t-91.5 381.5t93 383.5t261.5 263.5t379.5 94q211 0 378.5 -94t261 -263.5t93.5 -383.5t-89.5 -381t-228.5 -268h359v-164h-625v139q77 44 145 108.5t123 146.5t87 185t32 212q1 257 -149.5 420t-386.5 163q-237 0 -386.5 -163
t-148.5 -420q0 -109 32 -212t87 -185t123 -146.5t145 -108.5v-139h-624zM-106 1069l94 461h184l-141 -461h-137z" />
    <glyph glyph-name="iotadieresistonos" unicode="&#x390;" horiz-adv-x="692" 
d="M549 -14q-183 0 -283 94t-100 287v741h188v-727q0 -119 54.5 -174t175.5 -55q43 0 98 10v-162q-60 -14 -133 -14zM-88 1425q0 41 29.5 70t70.5 29q43 0 73 -29t30 -70t-30 -70.5t-73 -29.5q-41 0 -70.5 29.5t-29.5 70.5zM160 1296l135 461h180l-182 -461h-133zM434 1425
q0 41 30 70t71 29q43 0 72.5 -29t29.5 -70t-29.5 -70.5t-72.5 -29.5q-41 0 -71 29.5t-30 70.5z" />
    <glyph glyph-name="Alpha" unicode="&#x391;" horiz-adv-x="1462" 
d="M1440 0h-205l-178 463h-654l-178 -463h-200l598 1524h215zM465 633h528l-264 678z" />
    <glyph glyph-name="Beta" unicode="&#x392;" horiz-adv-x="1329" 
d="M209 0v1524h463q237 0 366 -110.5t129 -285.5q0 -130 -63 -215.5t-168 -126.5q138 -42 209.5 -137t71.5 -229q0 -181 -135.5 -300.5t-385.5 -119.5h-487zM397 172h295q159 0 246.5 72.5t87.5 191.5q0 123 -90 192.5t-234 69.5h-305v-526zM397 856h275q145 0 226 71
t81 183q0 114 -78 178t-215 64h-289v-496z" />
    <glyph glyph-name="Gamma" unicode="&#x393;" horiz-adv-x="1058" 
d="M209 0v1524h805v-178h-615v-1346h-190z" />
    <glyph glyph-name="uni0394" unicode="&#x394;" horiz-adv-x="1454" 
d="M25 0l593 1524h218l594 -1524h-1405zM287 170h878l-438 1145z" />
    <glyph glyph-name="Epsilon" unicode="&#x395;" horiz-adv-x="1183" 
d="M209 0v1524h835v-178h-645v-486h598v-168h-598v-516h645v-176h-835z" />
    <glyph glyph-name="Zeta" unicode="&#x396;" horiz-adv-x="1210" 
d="M1161 1524l-807 -1346h756v-178h-1065l807 1346h-743v178h1052z" />
    <glyph glyph-name="Eta" unicode="&#x397;" horiz-adv-x="1603" 
d="M1204 0v684h-805v-684h-190v1524h190v-662h805v662h191v-1524h-191z" />
    <glyph glyph-name="Theta" unicode="&#x398;" horiz-adv-x="1738" 
d="M870 -31q-162 0 -303 60.5t-241 165t-157.5 252t-57.5 315.5q0 222 98 403t272 285t389 104t388.5 -104t271.5 -285t98 -403q0 -167 -57.5 -314.5t-157.5 -252.5t-241 -165.5t-302 -60.5zM303 762q0 -114 31 -213.5t84.5 -172t125 -125t155 -78.5t171.5 -26t171 26
t154.5 78.5t125.5 125.5t84.5 172t30.5 213q0 141 -47 258.5t-126 194t-180.5 119t-212.5 42.5t-213 -42t-181 -119t-126 -194.5t-47 -258.5zM516 684v164h707v-164h-707z" />
    <glyph glyph-name="Iota" unicode="&#x399;" horiz-adv-x="608" 
d="M209 0v1524h190v-1524h-190z" />
    <glyph glyph-name="Kappa" unicode="&#x39a;" horiz-adv-x="1353" 
d="M1329 1524l-713 -758l723 -766h-243l-697 745v-745h-190v1524h190v-742l693 742h237z" />
    <glyph glyph-name="Lambda" unicode="&#x39b;" horiz-adv-x="1411" 
d="M27 0l571 1524h215l571 -1524h-204l-475 1313l-474 -1313h-204z" />
    <glyph glyph-name="Mu" unicode="&#x39c;" horiz-adv-x="1982" 
d="M477 1241l-182 -1241h-189l234 1524h231l424 -1237h2l412 1237h236l231 -1524h-188l-185 1251h-4l-422 -1251h-170l-426 1241h-4z" />
    <glyph glyph-name="Nu" unicode="&#x39d;" horiz-adv-x="1624" 
d="M1415 1524v-1524h-176l-842 1217h-2v-1217h-186v1524h192l828 -1196h2v1196h184z" />
    <glyph glyph-name="Xi" unicode="&#x39e;" horiz-adv-x="1306" 
d="M113 1524h1081v-181h-1081v181zM113 0v180h1081v-180h-1081zM223 682v176h860v-176h-860z" />
    <glyph glyph-name="Omicron" unicode="&#x39f;" horiz-adv-x="1734" 
d="M868 150q109 0 210 42t179.5 118t125.5 193.5t47 258.5t-47 258.5t-125.5 193.5t-179.5 118t-210 42q-88 0 -171 -26t-154 -78.5t-124 -124.5t-83.5 -171t-30.5 -212q0 -114 30.5 -213t84.5 -171t125 -124t153.5 -78t169.5 -26zM111 762q0 222 97.5 403t271 285
t388.5 104q160 0 300.5 -61t240.5 -166t157.5 -252t57.5 -313q0 -224 -98 -405.5t-271 -284.5t-387 -103q-161 0 -302 60.5t-240.5 165t-157 252t-57.5 315.5z" />
    <glyph glyph-name="Pi" unicode="&#x3a0;" horiz-adv-x="1550" 
d="M1151 0v1346h-752v-1346h-190v1524h1132v-1524h-190z" />
    <glyph glyph-name="Rho" unicode="&#x3a1;" horiz-adv-x="1253" 
d="M209 0v1524h373q272 0 434 -132.5t162 -363.5q0 -232 -160.5 -372t-429.5 -140h-189v-516h-190zM399 692h199q180 0 283.5 88t103.5 244q0 154 -103.5 238t-283.5 84h-199v-654z" />
    <glyph glyph-name="Sigma" unicode="&#x3a3;" horiz-adv-x="1204" 
d="M53 0l424 766l-409 758h1024v-178h-725v-3l315 -573l-334 -590v-2h764v-178h-1059z" />
    <glyph glyph-name="Tau" unicode="&#x3a4;" horiz-adv-x="1241" 
d="M526 0v1346h-481v178h1151v-178h-479v-1346h-191z" />
    <glyph glyph-name="Upsilon" unicode="&#x3a5;" horiz-adv-x="1335" 
d="M575 0v643l-561 881h215l441 -705h2l436 705h211l-557 -879v-645h-187z" />
    <glyph glyph-name="Phi" unicode="&#x3a6;" horiz-adv-x="1769" 
d="M977 266q219 0 361.5 146.5t142.5 369.5t-142.5 369.5t-361.5 146.5v-1032zM100 782q0 148 54.5 277t147.5 218.5t220.5 141t270.5 51.5v146h184v-146q191 0 348.5 -87t249.5 -245.5t92 -355.5t-92 -355.5t-249.5 -245.5t-348.5 -87v-147h-184v147q-143 0 -270.5 51.5
t-220.5 141t-147.5 218.5t-54.5 277zM289 782q0 -223 142.5 -369.5t361.5 -146.5v1032q-219 0 -361.5 -146.5t-142.5 -369.5z" />
    <glyph glyph-name="Chi" unicode="&#x3a7;" horiz-adv-x="1347" 
d="M37 0l518 766l-510 758h221l412 -615l407 615h218l-510 -754l522 -770h-219l-424 623l-418 -623h-217z" />
    <glyph glyph-name="Psi" unicode="&#x3a8;" horiz-adv-x="1701" 
d="M756 0v342q-290 3 -459.5 165t-169.5 437v580h188v-580q0 -200 115 -312.5t326 -113.5v1006h190v-1006q210 1 325 113.5t115 312.5v580h191v-580q0 -275 -171 -437.5t-460 -164.5v-342h-190z" />
    <glyph glyph-name="uni03A9" unicode="&#x3a9;" horiz-adv-x="1763" 
d="M109 0v164h360q-140 100 -230.5 267.5t-91.5 381.5t93 383.5t261.5 263.5t379.5 94q211 0 378.5 -94t261 -263.5t93.5 -383.5t-89.5 -381t-228.5 -268h359v-164h-625v139q77 44 145 108.5t123 146.5t87 185t32 212q1 257 -149.5 420t-386.5 163q-237 0 -386.5 -163
t-148.5 -420q0 -109 32 -212t87 -185t123 -146.5t145 -108.5v-139h-624z" />
    <glyph glyph-name="Iotadieresis" unicode="&#x3aa;" horiz-adv-x="608" 
d="M209 0v1524h190v-1524h-190zM-14 1845q0 44 32 75.5t76 31.5q46 0 79.5 -31.5t33.5 -75.5t-33.5 -76t-79.5 -32q-44 0 -76 32t-32 76zM406 1845q0 44 32 75.5t78 31.5t77.5 -31.5t31.5 -75.5q0 -45 -31.5 -76.5t-77.5 -31.5t-78 32t-32 76z" />
    <glyph glyph-name="Upsilondieresis" unicode="&#x3ab;" horiz-adv-x="1335" 
d="M575 0v643l-561 881h215l441 -705h2l436 705h211l-557 -879v-645h-187zM356 1845q0 44 32.5 75.5t76.5 31.5q46 0 79.5 -31.5t33.5 -75.5t-33.5 -76t-79.5 -32q-44 0 -76.5 32t-32.5 76zM776 1845q0 44 32.5 75.5t78.5 31.5q45 0 76.5 -31t31.5 -76t-31.5 -76.5
t-76.5 -31.5q-46 0 -78.5 32t-32.5 76z" />
    <glyph glyph-name="alphatonos" unicode="&#x3ac;" horiz-adv-x="1386" 
d="M598 -25q-98 0 -188 41.5t-158.5 115t-109 183.5t-40.5 238t40.5 238t109 184t158 116t186.5 42q116 0 218.5 -57.5t164.5 -168.5l22 201h154v-838q0 -66 25 -93t80 -27q23 0 47 4v-160q-40 -8 -82 -8q-101 0 -164 50.5t-82 147.5q-69 -103 -169 -156t-212 -53zM293 553
q0 -177 97 -289t243 -112q145 0 241.5 112.5t96.5 290.5q0 176 -97 288.5t-241 112.5q-146 0 -243 -112.5t-97 -290.5zM580 1296l135 461h180l-182 -461h-133z" />
    <glyph glyph-name="epsilontonos" unicode="&#x3ad;" horiz-adv-x="1048" 
d="M563 -25q-218 0 -337.5 84t-119.5 238q0 92 61.5 166t156.5 106q-84 26 -135.5 97t-51.5 159q0 145 112.5 226.5t311.5 81.5q99 0 205 -22t172 -56v-166q-69 34 -169 57t-189 23q-124 0 -189 -40.5t-65 -117.5q0 -78 62.5 -125t164.5 -47h244v-152h-238
q-115 0 -188.5 -47.5t-73.5 -130.5q0 -170 287 -170q195 0 366 80v-168q-172 -76 -387 -76zM492 1296l135 461h180l-182 -461h-133z" />
    <glyph glyph-name="etatonos" unicode="&#x3ae;" horiz-adv-x="1284" 
d="M936 666q0 286 -256 286q-118 0 -197.5 -78t-79.5 -198v-676h-188v840q0 68 -23.5 94.5t-78.5 26.5q-17 0 -47 -5v160q27 8 84 8q198 0 239 -182q54 83 142 137t198 54q180 0 287.5 -108.5t107.5 -291.5v-1163h-188v1096zM547 1296l135 461h180l-182 -461h-133z" />
    <glyph glyph-name="iotatonos" unicode="&#x3af;" horiz-adv-x="692" 
d="M549 -14q-183 0 -283 94t-100 287v741h188v-727q0 -119 54.5 -174t175.5 -55q43 0 98 10v-162q-60 -14 -133 -14zM188 1296l136 461h180l-182 -461h-134z" />
    <glyph glyph-name="upsilondieresistonos" unicode="&#x3b0;" horiz-adv-x="1218" 
d="M610 -25q-215 0 -333.5 118t-118.5 331v684h188v-676q0 -282 268 -282q149 0 225 103t76 304q0 300 -133 551h199q123 -240 123 -557q0 -272 -130.5 -424t-363.5 -152zM197 1425q0 41 29.5 70t70.5 29q43 0 72.5 -29t29.5 -70t-29.5 -70.5t-72.5 -29.5q-41 0 -70.5 29.5
t-29.5 70.5zM444 1296l136 461h180l-182 -461h-134zM719 1425q0 41 29.5 70t70.5 29q43 0 73 -29t30 -70t-30 -70.5t-73 -29.5q-41 0 -70.5 29.5t-29.5 70.5z" />
    <glyph glyph-name="alpha" unicode="&#x3b1;" horiz-adv-x="1386" 
d="M598 -25q-98 0 -188 41.5t-158.5 115t-109 183.5t-40.5 238t40.5 238t109 184t158 116t186.5 42q116 0 218.5 -57.5t164.5 -168.5l22 201h154v-838q0 -66 25 -93t80 -27q23 0 47 4v-160q-40 -8 -82 -8q-101 0 -164 50.5t-82 147.5q-69 -103 -169 -156t-212 -53zM293 553
q0 -177 97 -289t243 -112q145 0 241.5 112.5t96.5 290.5q0 176 -97 288.5t-241 112.5q-146 0 -243 -112.5t-97 -290.5z" />
    <glyph glyph-name="beta" unicode="&#x3b2;" horiz-adv-x="1345" 
d="M170 1141q0 229 137 368.5t361 139.5q206 0 331 -110.5t125 -293.5q0 -118 -62 -213t-169 -145q165 -46 260.5 -165.5t95.5 -281.5q0 -198 -137.5 -330.5t-349.5 -132.5q-131 0 -242 47.5t-164 114.5v-569h-186v1571zM356 301q58 -70 158 -112t209 -42q154 0 246 86.5
t92 231.5q0 148 -104.5 237t-276.5 89h-107v153h76q134 0 213.5 78.5t79.5 206.5q0 121 -71.5 186.5t-202.5 65.5q-143 0 -227.5 -88.5t-84.5 -237.5v-854z" />
    <glyph glyph-name="gamma" unicode="&#x3b3;" horiz-adv-x="1167" 
d="M31 1108h198l342 -901h4q121 144 215.5 401t94.5 500h184q0 -266 -116 -562t-296 -509v-467h-188v444z" />
    <glyph glyph-name="delta" unicode="&#x3b4;" horiz-adv-x="1280" 
d="M631 -27q-234 0 -383.5 136t-149.5 358q0 177 112.5 323.5t299.5 210.5q-134 79 -197 155.5t-63 178.5q0 145 116.5 229.5t321.5 84.5q180 0 395 -80l-2 -176q-202 90 -383 90q-115 0 -184.5 -38t-69.5 -116q0 -65 56.5 -113t242.5 -151q149 -84 241 -163t145 -183
t53 -232q0 -223 -152 -368.5t-399 -145.5zM285 475q0 -150 95.5 -239t254.5 -89q160 0 259 95t99 247q0 131 -76.5 227.5t-257.5 196.5q-165 -54 -269.5 -177.5t-104.5 -260.5z" />
    <glyph glyph-name="epsilon" unicode="&#x3b5;" horiz-adv-x="1048" 
d="M563 -25q-218 0 -337.5 84t-119.5 238q0 92 61.5 166t156.5 106q-84 26 -135.5 97t-51.5 159q0 145 112.5 226.5t311.5 81.5q99 0 205 -22t172 -56v-166q-69 34 -169 57t-189 23q-124 0 -189 -40.5t-65 -117.5q0 -78 62.5 -125t164.5 -47h244v-152h-238
q-115 0 -188.5 -47.5t-73.5 -130.5q0 -170 287 -170q195 0 366 80v-168q-172 -76 -387 -76z" />
    <glyph glyph-name="zeta" unicode="&#x3b6;" horiz-adv-x="985" 
d="M618 -430q146 177 146 297q0 50 -32.5 84.5t-108.5 66.5l-213 86q-165 69 -239.5 165.5t-74.5 240.5q0 177 141 406t449 552h-514v170h793v-112q-318 -307 -496 -571t-178 -427q0 -100 47 -156.5t178 -113.5l242 -102q198 -83 198 -262q0 -147 -122 -324h-216z" />
    <glyph glyph-name="eta" unicode="&#x3b7;" horiz-adv-x="1284" 
d="M936 666q0 286 -256 286q-118 0 -197.5 -78t-79.5 -198v-676h-188v840q0 68 -23.5 94.5t-78.5 26.5q-17 0 -47 -5v160q27 8 84 8q198 0 239 -182q54 83 142 137t198 54q180 0 287.5 -108.5t107.5 -291.5v-1163h-188v1096z" />
    <glyph glyph-name="theta" unicode="&#x3b8;" horiz-adv-x="1341" 
d="M672 -27q-252 0 -401.5 223t-149.5 617q0 389 150 609t401 220t400 -219.5t149 -609.5q0 -395 -148.5 -617.5t-400.5 -222.5zM303 743q10 -288 107.5 -443t261.5 -155t261 154.5t107 443.5h-737zM303 899h737q-13 275 -110.5 423t-257.5 148q-161 0 -258.5 -147.5
t-110.5 -423.5z" />
    <glyph glyph-name="iota" unicode="&#x3b9;" horiz-adv-x="692" 
d="M549 -14q-183 0 -283 94t-100 287v741h188v-727q0 -119 54.5 -174t175.5 -55q43 0 98 10v-162q-60 -14 -133 -14z" />
    <glyph glyph-name="kappa" unicode="&#x3ba;" horiz-adv-x="1196" 
d="M170 0v1108h188v-639l560 639h219l-410 -469l436 -639h-221l-346 516l-238 -274v-242h-188z" />
    <glyph glyph-name="lambda" unicode="&#x3bb;" horiz-adv-x="1167" 
d="M918 0l-326 879h-4l-352 -879h-201l467 1092l-99 251q-28 71 -71.5 103.5t-112.5 32.5q-36 0 -82 -11v160q52 14 119 14q114 0 188 -52.5t117 -164.5l551 -1425h-194z" />
    <glyph glyph-name="uni03BC" unicode="&#x3bc;" horiz-adv-x="1296" 
d="M170 -430v1538h188v-676q0 -128 71.5 -201t195.5 -73q125 0 195.5 71.5t70.5 210.5v668h188v-838q0 -66 26 -93t83 -27q21 0 45 4v-160q-36 -8 -80 -8q-91 0 -150.5 43.5t-82.5 126.5q-41 -76 -123.5 -126t-180.5 -50q-91 0 -165 37.5t-115 103.5l24 -551h-190z" />
    <glyph glyph-name="nu" unicode="&#x3bd;" horiz-adv-x="1159" 
d="M455 0l-422 1108h200l334 -928h4q124 152 215 421t91 507h186q0 -277 -121 -587t-309 -521h-178z" />
    <glyph glyph-name="xi" unicode="&#x3be;" horiz-adv-x="1062" 
d="M635 -430q145 179 145 297q0 49 -33 84t-110 67l-225 93q-166 69 -241 160t-75 223q0 134 77.5 240.5t207.5 158.5q-108 50 -169.5 142.5t-61.5 207.5q0 186 134 294t367 108q94 0 196 -21t163 -53v-178q-66 34 -162.5 55.5t-181.5 21.5q-160 0 -246 -62t-86 -179
q0 -122 83 -190t232 -68h205v-164h-197q-166 0 -267 -77.5t-101 -203.5q0 -92 48 -149t167 -107l270 -114q199 -84 199 -262q0 -148 -123 -324h-215z" />
    <glyph glyph-name="omicron" unicode="&#x3bf;" 
d="M653 -25q-156 0 -282.5 74.5t-198.5 207t-72 296.5t72 297t198.5 208t282.5 75q235 0 392 -165t157 -415q0 -123 -42 -230.5t-115 -183.5t-174.5 -120t-217.5 -44zM291 553q0 -93 30.5 -170t81 -127t115.5 -77t135 -27q146 0 253.5 109.5t107.5 291.5q0 93 -30.5 170.5
t-81 127.5t-115 77.5t-134.5 27.5t-135 -27.5t-115.5 -77.5t-81 -127.5t-30.5 -170.5z" />
    <glyph glyph-name="pi" unicode="&#x3c0;" horiz-adv-x="1456" 
d="M1239 -14q-328 0 -328 376v580h-426v-942h-188v942h-256v166h1315v-166h-258v-565q0 -121 41 -173t143 -52q38 0 76 10v-162q-38 -14 -119 -14z" />
    <glyph glyph-name="rho" unicode="&#x3c1;" horiz-adv-x="1320" 
d="M145 492q0 298 143 469.5t392 171.5q232 0 385.5 -165t153.5 -415q0 -161 -66 -294t-181 -208.5t-255 -75.5q-120 0 -223.5 58t-157.5 155h-2v-618h-189v922zM334 543q0 -167 100 -279t248 -112q152 0 250 114t98 289q0 173 -100 287t-252 114q-151 0 -247.5 -116
t-96.5 -297z" />
    <glyph glyph-name="uni03C2" unicode="&#x3c2;" horiz-adv-x="1044" 
d="M606 -430q146 180 146 297q0 49 -32 83t-110 68l-192 82q-318 135 -318 461q0 164 71.5 294.5t199 204t286.5 73.5q183 0 308 -78v-193q-125 94 -295 94q-164 0 -272.5 -111t-108.5 -280q0 -112 53 -187t170 -124l233 -98q199 -87 199 -262q0 -147 -123 -324h-215z" />
    <glyph glyph-name="sigma" unicode="&#x3c3;" horiz-adv-x="1349" 
d="M647 -25q-236 0 -391.5 161.5t-155.5 404.5q0 161 71 290.5t195.5 202.5t278.5 74h678v-166h-346q101 -72 155 -179t54 -237q0 -236 -154.5 -393.5t-384.5 -157.5zM291 543q0 -169 101 -280t255 -111q151 0 251.5 112t100.5 283q0 167 -100 278t-252 111
q-155 0 -255.5 -111t-100.5 -282z" />
    <glyph glyph-name="tau" unicode="&#x3c4;" horiz-adv-x="1089" 
d="M793 -14q-192 0 -294 95t-102 290v571h-356v166h985v-166h-440v-547q0 -131 60 -187t183 -56q53 0 105 10v-162q-52 -14 -141 -14z" />
    <glyph glyph-name="upsilon" unicode="&#x3c5;" horiz-adv-x="1218" 
d="M610 -25q-215 0 -333.5 118t-118.5 331v684h188v-676q0 -282 268 -282q149 0 225 103t76 304q0 300 -133 551h199q123 -240 123 -557q0 -272 -130.5 -424t-363.5 -152z" />
    <glyph glyph-name="phi" unicode="&#x3c6;" horiz-adv-x="1576" 
d="M696 -430v410q-172 1 -306.5 70.5t-212 200t-77.5 302.5q0 259 166.5 415t429.5 158v316h185v-316q262 -2 428 -158t166 -415t-166 -415t-428 -158v-410h-185zM287 553q0 -187 111.5 -298.5t297.5 -113.5v824q-186 -2 -297.5 -113.5t-111.5 -298.5zM881 141
q185 2 296 113.5t111 298.5t-111 298.5t-296 113.5v-824z" />
    <glyph glyph-name="chi" unicode="&#x3c7;" horiz-adv-x="1046" 
d="M829 -430l-315 594l-278 -594h-191l381 762l-412 776h201l324 -612l288 612h189l-387 -780l401 -758h-201z" />
    <glyph glyph-name="psi" unicode="&#x3c8;" horiz-adv-x="1554" 
d="M690 -442v417q-260 3 -396 129t-136 361v643h186v-643q0 -160 83 -236t263 -79v1292h184v-1292q182 3 279.5 112.5t97.5 310.5q0 302 -112 535h194q105 -243 105 -537q0 -274 -151 -432.5t-413 -163.5v-417h-184z" />
    <glyph glyph-name="omega" unicode="&#x3c9;" horiz-adv-x="1730" 
d="M520 -20q-192 0 -299.5 140.5t-107.5 391.5q0 159 41.5 316.5t115.5 279.5h197q-78 -126 -122 -284t-44 -314q0 -356 231 -356q113 0 176.5 91.5t63.5 256.5v342h189v-342q0 -166 62.5 -257t176.5 -91q230 0 230 356q0 156 -43 314.5t-119 283.5h194q74 -125 115 -282
t41 -314q0 -250 -108 -391t-300 -141q-123 0 -210.5 64t-133.5 187q-92 -251 -346 -251z" />
    <glyph glyph-name="iotadieresis" unicode="&#x3ca;" horiz-adv-x="692" 
d="M549 -14q-183 0 -283 94t-100 287v741h188v-727q0 -119 54.5 -174t175.5 -55q43 0 98 10v-162q-60 -14 -133 -14zM-43 1427q0 44 32.5 75.5t76.5 31.5q46 0 79 -31.5t33 -75.5t-33 -76t-79 -32q-44 0 -76.5 32t-32.5 76zM377 1427q0 44 32 75.5t78 31.5t77.5 -31.5
t31.5 -75.5q0 -45 -32 -76.5t-77 -31.5q-46 0 -78 32t-32 76z" />
    <glyph glyph-name="upsilondieresis" unicode="&#x3cb;" horiz-adv-x="1218" 
d="M610 -25q-215 0 -333.5 118t-118.5 331v684h188v-676q0 -282 268 -282q149 0 225 103t76 304q0 300 -133 551h199q123 -240 123 -557q0 -272 -130.5 -424t-363.5 -152zM242 1427q0 44 32 75.5t76 31.5q46 0 79.5 -31.5t33.5 -75.5t-33.5 -76t-79.5 -32q-44 0 -76 32
t-32 76zM662 1427q0 44 32 75.5t78 31.5t77.5 -31.5t31.5 -75.5q0 -45 -31.5 -76.5t-77.5 -31.5t-78 32t-32 76z" />
    <glyph glyph-name="omicrontonos" unicode="&#x3cc;" 
d="M653 -25q-156 0 -282.5 74.5t-198.5 207t-72 296.5t72 297t198.5 208t282.5 75q235 0 392 -165t157 -415q0 -123 -42 -230.5t-115 -183.5t-174.5 -120t-217.5 -44zM291 553q0 -93 30.5 -170t81 -127t115.5 -77t135 -27q146 0 253.5 109.5t107.5 291.5q0 93 -30.5 170.5
t-81 127.5t-115 77.5t-134.5 27.5t-135 -27.5t-115.5 -77.5t-81 -127.5t-30.5 -170.5zM561 1296l135 461h181l-183 -461h-133z" />
    <glyph glyph-name="upsilontonos" unicode="&#x3cd;" horiz-adv-x="1218" 
d="M610 -25q-215 0 -333.5 118t-118.5 331v684h188v-676q0 -282 268 -282q149 0 225 103t76 304q0 300 -133 551h199q123 -240 123 -557q0 -272 -130.5 -424t-363.5 -152zM473 1296l135 461h180l-182 -461h-133z" />
    <glyph glyph-name="omegatonos" unicode="&#x3ce;" horiz-adv-x="1730" 
d="M520 -20q-192 0 -299.5 140.5t-107.5 391.5q0 159 41.5 316.5t115.5 279.5h197q-78 -126 -122 -284t-44 -314q0 -356 231 -356q113 0 176.5 91.5t63.5 256.5v342h189v-342q0 -166 62.5 -257t176.5 -91q230 0 230 356q0 156 -43 314.5t-119 283.5h194q74 -125 115 -282
t41 -314q0 -250 -108 -391t-300 -141q-123 0 -210.5 64t-133.5 187q-92 -251 -346 -251zM784 1296l136 461h180l-182 -461h-134z" />
    <glyph glyph-name="uni0401" unicode="&#x401;" horiz-adv-x="1183" 
d="M209 0v1524h835v-178h-645v-486h598v-168h-598v-516h645v-176h-835zM311 1845q0 44 32.5 75.5t76.5 31.5q46 0 79 -31.5t33 -75.5t-33 -76t-79 -32q-44 0 -76.5 32t-32.5 76zM731 1845q0 44 32.5 75.5t78.5 31.5t77 -31t31 -76t-31.5 -76.5t-76.5 -31.5q-46 0 -78.5 32
t-32.5 76z" />
    <glyph glyph-name="uni0402" unicode="&#x402;" horiz-adv-x="1519" 
d="M930 0v168h20q138 0 217.5 76t79.5 213q0 149 -83.5 223t-237.5 74q-171 0 -318 -62v-692h-188v1346h-373v178h1118v-176h-557v-478q162 58 359 58q216 0 346.5 -118.5t130.5 -336.5q0 -215 -129 -344t-346 -129h-39z" />
    <glyph glyph-name="uni0403" unicode="&#x403;" horiz-adv-x="1052" 
d="M209 0v1524h799v-178h-609v-1346h-190zM575 1692l238 344h203l-285 -344h-156z" />
    <glyph glyph-name="uni0404" unicode="&#x404;" horiz-adv-x="1427" 
d="M887 -25q-159 0 -299.5 53t-246.5 150.5t-168 248.5t-62 335t62.5 334.5t170 248t247.5 150.5t298 53q231 0 432 -98v-188q-175 106 -418 106q-154 0 -280.5 -57t-211.5 -175.5t-102 -283.5h778v-168h-780q15 -170 99.5 -291t211.5 -179t283 -58q237 0 430 116v-190
q-198 -107 -444 -107z" />
    <glyph glyph-name="uni0405" unicode="&#x405;" horiz-adv-x="1161" 
d="M616 1556q199 0 363 -100v-196q-78 56 -174 87t-187 31q-124 0 -207 -59t-83 -168q0 -49 18.5 -87.5t62 -73.5t95.5 -63t139 -67q57 -25 96.5 -44t87 -46t78.5 -51.5t63.5 -58.5t51 -69.5t30 -82t11.5 -98.5q0 -135 -69.5 -237.5t-183.5 -154t-253 -51.5
q-124 0 -236.5 41t-189.5 101v213q79 -81 191.5 -129t226.5 -48q134 0 225.5 68t91.5 186q0 52 -19.5 93.5t-64.5 78t-99 67t-142 69.5q-57 25 -93.5 43t-83.5 44.5t-76.5 49.5t-61 56t-49 67t-29 78.5t-11.5 95.5q0 192 136.5 303.5t344.5 111.5z" />
    <glyph glyph-name="uni0406" unicode="&#x406;" horiz-adv-x="608" 
d="M209 0v1524h190v-1524h-190z" />
    <glyph glyph-name="uni0407" unicode="&#x407;" horiz-adv-x="608" 
d="M209 0v1524h190v-1524h-190zM-14 1845q0 44 32 75.5t76 31.5q46 0 79.5 -31.5t33.5 -75.5t-33.5 -76t-79.5 -32q-44 0 -76 32t-32 76zM406 1845q0 44 32 75.5t78 31.5t77.5 -31.5t31.5 -75.5q0 -45 -31.5 -76.5t-77.5 -31.5t-78 32t-32 76z" />
    <glyph glyph-name="uni0408" unicode="&#x408;" horiz-adv-x="954" 
d="M59 287q118 -131 265 -131q115 0 180 73t65 215v1080h191v-1106q0 -197 -112.5 -320t-303.5 -123q-79 0 -155 28t-130 77v207z" />
    <glyph glyph-name="uni0409" unicode="&#x409;" horiz-adv-x="2052" 
d="M8 168q151 0 220 125t69 395v836h917v-545h179q271 0 426 -122t155 -351q0 -233 -159 -366.5t-422 -133.5h-365v1340h-545v-656q0 -355 -115.5 -522.5t-359.5 -167.5v168zM1214 178h187q178 0 279.5 85.5t101.5 238.5q0 151 -100 228t-281 77h-187v-629z" />
    <glyph glyph-name="uni040A" unicode="&#x40a;" horiz-adv-x="2158" 
d="M209 0v1524h190v-611h734v611h186v-611h190q271 0 423.5 -112t152.5 -332q0 -224 -155 -346.5t-419 -122.5h-378v737h-734v-737h-190zM1319 170h199q178 0 277 75t99 220q0 278 -378 278h-197v-573z" />
    <glyph glyph-name="uni040B" unicode="&#x40b;" horiz-adv-x="1540" 
d="M1245 436q0 167 -73.5 242.5t-233.5 75.5q-184 0 -328 -64v-690h-190v1346h-373v178h1120v-176h-557v-474q166 58 365 58q461 0 461 -451v-481h-191v436z" />
    <glyph glyph-name="uni040C" unicode="&#x40c;" horiz-adv-x="1353" 
d="M1329 1524l-713 -758l723 -766h-243l-697 745v-745h-190v1524h190v-742l693 742h237zM616 1692l238 344h203l-285 -344h-156z" />
    <glyph glyph-name="uni040E" unicode="&#x40e;" horiz-adv-x="1355" 
d="M291 158q133 0 214 50t144 177l-620 1139h209l507 -955l404 955h199l-500 -1137q-94 -219 -221 -308t-336 -89v168zM375 2019h160q2 -85 44.5 -137.5t127.5 -52.5q84 0 127 53t45 137h159q1 -146 -94 -229.5t-237 -83.5q-143 0 -238 83t-94 230z" />
    <glyph glyph-name="uni040F" unicode="&#x40f;" horiz-adv-x="1507" 
d="M209 0v1524h190v-1346h711v1346h188v-1524h-456v-348h-176v348h-457z" />
    <glyph glyph-name="uni0410" unicode="&#x410;" horiz-adv-x="1462" 
d="M1440 0h-205l-178 463h-654l-178 -463h-200l598 1524h215zM465 633h528l-264 678z" />
    <glyph glyph-name="uni0411" unicode="&#x411;" horiz-adv-x="1275" 
d="M209 0v1524h878v-172h-686l-2 2v-424h215q280 0 423 -119t143 -336q0 -220 -150 -347.5t-409 -127.5h-412zM399 170h213q177 0 275 78.5t98 220.5q0 140 -93 215.5t-282 75.5h-211v-590z" />
    <glyph glyph-name="uni0412" unicode="&#x412;" horiz-adv-x="1329" 
d="M209 0v1524h463q237 0 366 -110.5t129 -285.5q0 -130 -63 -215.5t-168 -126.5q138 -42 209.5 -137t71.5 -229q0 -181 -135.5 -300.5t-385.5 -119.5h-487zM397 172h295q159 0 246.5 72.5t87.5 191.5q0 123 -90 192.5t-234 69.5h-305v-526zM397 856h275q145 0 226 71
t81 183q0 114 -78 178t-215 64h-289v-496z" />
    <glyph glyph-name="uni0413" unicode="&#x413;" horiz-adv-x="1052" 
d="M209 0v1524h799v-178h-609v-1346h-190z" />
    <glyph glyph-name="uni0414" unicode="&#x414;" horiz-adv-x="1533" 
d="M27 -348v526h155q32 42 55.5 88.5t48.5 122t38.5 188t13.5 254.5v693h922v-1346h192v-526h-180v348h-1065v-348h-180zM387 178h682v1168h-545v-525q0 -422 -137 -643z" />
    <glyph glyph-name="uni0415" unicode="&#x415;" horiz-adv-x="1183" 
d="M209 0v1524h835v-178h-645v-486h598v-168h-598v-516h645v-176h-835z" />
    <glyph glyph-name="uni0416" unicode="&#x416;" horiz-adv-x="2029" 
d="M1769 0l-659 745v-745h-190v745l-660 -745h-244l693 768l-684 756h237l658 -742v742h190v-742l657 742h238l-684 -756l692 -768h-244z" />
    <glyph glyph-name="uni0417" unicode="&#x417;" horiz-adv-x="1179" 
d="M535 -33q-244 0 -433 137v215q68 -71 182.5 -122.5t231.5 -51.5q153 0 246.5 77.5t93.5 205.5q0 131 -92 197.5t-264 66.5h-176v168h194q141 0 225 70t84 192q0 121 -85.5 190.5t-231.5 69.5q-209 0 -383 -122v196q180 100 405 100q237 0 362.5 -111.5t125.5 -301.5
q0 -126 -71.5 -223.5t-172.5 -135.5q123 -30 199 -129t76 -241q0 -198 -140.5 -322.5t-375.5 -124.5z" />
    <glyph glyph-name="uni0418" unicode="&#x418;" horiz-adv-x="1632" 
d="M209 0v1524h182v-1233h2l844 1233h186v-1524h-182v1241h-2l-844 -1241h-186z" />
    <glyph glyph-name="uni0419" unicode="&#x419;" horiz-adv-x="1632" 
d="M209 0v1524h182v-1233h2l844 1233h186v-1524h-182v1241h-2l-844 -1241h-186zM483 2019h160q2 -85 44.5 -137.5t127.5 -52.5q84 0 127 53t45 137h160q1 -146 -94.5 -229.5t-237.5 -83.5q-143 0 -238 83t-94 230z" />
    <glyph glyph-name="uni041A" unicode="&#x41a;" horiz-adv-x="1353" 
d="M1329 1524l-713 -758l723 -766h-243l-697 745v-745h-190v1524h190v-742l693 742h237z" />
    <glyph glyph-name="uni041B" unicode="&#x41b;" horiz-adv-x="1427" 
d="M8 160q151 0 220 124t69 394v846h922v-1524h-191v1346h-545v-664q0 -355 -114.5 -522.5t-360.5 -167.5v168z" />
    <glyph glyph-name="uni041C" unicode="&#x41c;" horiz-adv-x="1982" 
d="M477 1241l-182 -1241h-189l234 1524h231l424 -1237h2l412 1237h236l231 -1524h-188l-185 1251h-4l-422 -1251h-170l-426 1241h-4z" />
    <glyph glyph-name="uni041D" unicode="&#x41d;" horiz-adv-x="1603" 
d="M1204 0v684h-805v-684h-190v1524h190v-662h805v662h191v-1524h-191z" />
    <glyph glyph-name="uni041E" unicode="&#x41e;" horiz-adv-x="1734" 
d="M868 150q109 0 210 42t179.5 118t125.5 193.5t47 258.5t-47 258.5t-125.5 193.5t-179.5 118t-210 42q-88 0 -171 -26t-154 -78.5t-124 -124.5t-83.5 -171t-30.5 -212q0 -114 30.5 -213t84.5 -171t125 -124t153.5 -78t169.5 -26zM111 762q0 222 97.5 403t271 285
t388.5 104q160 0 300.5 -61t240.5 -166t157.5 -252t57.5 -313q0 -224 -98 -405.5t-271 -284.5t-387 -103q-161 0 -302 60.5t-240.5 165t-157 252t-57.5 315.5z" />
    <glyph glyph-name="uni041F" unicode="&#x41f;" horiz-adv-x="1550" 
d="M1151 0v1346h-752v-1346h-190v1524h1132v-1524h-190z" />
    <glyph glyph-name="uni0420" unicode="&#x420;" horiz-adv-x="1253" 
d="M209 0v1524h373q272 0 434 -132.5t162 -363.5q0 -232 -160.5 -372t-429.5 -140h-189v-516h-190zM399 692h199q180 0 283.5 88t103.5 244q0 154 -103.5 238t-283.5 84h-199v-654z" />
    <glyph glyph-name="uni0421" unicode="&#x421;" horiz-adv-x="1366" 
d="M1270 74q-181 -105 -404 -105q-149 0 -285.5 56.5t-241 157.5t-166.5 252t-62 329q0 142 40 268t111.5 220t166 163t206.5 104t231 35q229 0 404 -104v-201q-99 62 -190 92.5t-206 30.5q-108 0 -209.5 -42t-182 -118t-129 -193t-48.5 -257q0 -138 48.5 -255t129 -193.5
t182 -119t209.5 -42.5q114 0 205.5 31t190.5 93v-202z" />
    <glyph glyph-name="uni0422" unicode="&#x422;" horiz-adv-x="1241" 
d="M526 0v1346h-481v178h1151v-178h-479v-1346h-191z" />
    <glyph glyph-name="uni0423" unicode="&#x423;" horiz-adv-x="1355" 
d="M291 158q133 0 214 50t144 177l-620 1139h209l507 -955l404 955h199l-500 -1137q-94 -219 -221 -308t-336 -89v168z" />
    <glyph glyph-name="uni0424" unicode="&#x424;" horiz-adv-x="1789" 
d="M803 -29v144q-149 1 -280 51.5t-224 138.5t-147 212t-54 265t54 265t147 212t224 139t280 52v143h184v-143q149 -1 280 -52t224 -139t147 -212t54 -265t-54 -265t-147 -212t-224 -138.5t-280 -51.5v-144h-184zM285 782q0 -213 147.5 -353t370.5 -142v991
q-223 -2 -370.5 -142.5t-147.5 -353.5zM987 287q223 2 370.5 142t147.5 353t-147.5 353.5t-370.5 142.5v-991z" />
    <glyph glyph-name="uni0425" unicode="&#x425;" horiz-adv-x="1347" 
d="M37 0l518 766l-510 758h221l412 -615l407 615h218l-510 -754l522 -770h-219l-424 623l-418 -623h-217z" />
    <glyph glyph-name="uni0426" unicode="&#x426;" horiz-adv-x="1576" 
d="M209 0v1524h190v-1346h711v1346h190v-1346h195v-526h-178v348h-1108z" />
    <glyph glyph-name="uni0427" unicode="&#x427;" horiz-adv-x="1320" 
d="M565 575q-225 0 -343 116.5t-118 348.5v484h191v-449q0 -167 77.5 -244t241.5 -77q158 0 306 61v709h192v-1524h-192v637q-168 -62 -355 -62z" />
    <glyph glyph-name="uni0428" unicode="&#x428;" horiz-adv-x="2056" 
d="M399 1524v-1346h533v1346h190v-1346h535v1346h190v-1524h-1638v1524h190z" />
    <glyph glyph-name="uni0429" unicode="&#x429;" horiz-adv-x="2113" 
d="M209 0v1524h190v-1346h529v1346h190v-1346h529v1346h190v-1346h195v-526h-179v348h-1644z" />
    <glyph glyph-name="uni042A" unicode="&#x42a;" horiz-adv-x="1515" 
d="M481 0v1346h-436v178h627v-545h186q270 0 426 -124.5t156 -354.5q0 -233 -159.5 -366.5t-422.5 -133.5h-377zM672 172h194q178 0 279.5 85t101.5 239q0 152 -100.5 231.5t-280.5 79.5h-194v-635z" />
    <glyph glyph-name="uni042B" unicode="&#x42b;" horiz-adv-x="1771" 
d="M209 0v1524h190v-545h179q270 0 425.5 -124.5t155.5 -354.5q0 -233 -160.5 -366.5t-423.5 -133.5h-366zM399 172h187q178 0 279.5 85t101.5 239q0 152 -100.5 231.5t-280.5 79.5h-187v-635zM1370 0v1524h193v-1524h-193z" />
    <glyph glyph-name="uni042C" unicode="&#x42c;" horiz-adv-x="1249" 
d="M209 0v1524h190v-545h193q270 0 424.5 -124.5t154.5 -354.5q0 -233 -159 -366.5t-422 -133.5h-381zM399 172h201q176 0 277.5 85t101.5 239q0 152 -100 231.5t-281 79.5h-199v-635z" />
    <glyph glyph-name="uni042D" unicode="&#x42d;" horiz-adv-x="1413" 
d="M532 -25q-228 0 -421 99v190q188 -108 409 -108q154 0 278.5 58t206.5 179t97 291h-758v168h756q-16 165 -97 283.5t-203 175.5t-272 57q-242 0 -417 -106v188q201 98 432 98q154 0 290.5 -53t241 -150.5t165 -248t60.5 -334.5q0 -148 -39.5 -275t-110.5 -220
t-167 -159.5t-210.5 -99.5t-240.5 -33z" />
    <glyph glyph-name="uni042E" unicode="&#x42e;" horiz-adv-x="2209" 
d="M1374 -25q-143 0 -269.5 52t-221 143.5t-154.5 222.5t-74 283h-256v-676h-190v1524h190v-672h256q29 308 229.5 501t489.5 193q205 0 370.5 -99.5t260 -279t94.5 -405.5q0 -169 -55.5 -316t-152 -250t-230.5 -162t-287 -59zM846 762q0 -174 68 -312.5t188.5 -216
t271.5 -77.5q232 0 381.5 170.5t149.5 435.5q0 175 -68.5 313.5t-189.5 215.5t-273 77q-229 0 -378.5 -170.5t-149.5 -435.5z" />
    <glyph glyph-name="uni042F" unicode="&#x42f;" horiz-adv-x="1302" 
d="M59 0l574 616q-137 6 -238 45.5t-158 104t-83.5 140.5t-26.5 165q0 212 145 332.5t400 120.5h422v-1524h-191v684l-600 -684h-244zM322 1065q0 -141 92.5 -214t267.5 -73h221v568h-231q-177 0 -263.5 -72.5t-86.5 -208.5z" />
    <glyph glyph-name="uni0430" unicode="&#x430;" horiz-adv-x="1347" 
d="M604 -25q-97 0 -188 41.5t-161.5 115.5t-112.5 184t-42 237q0 129 42 239.5t112.5 184t161 115t188.5 41.5q122 0 226.5 -59.5t166.5 -170.5h2l23 205h154v-1108h-154l-23 203h-2q-62 -110 -166 -169t-227 -59zM291 553q0 -177 100.5 -289t251.5 -112q149 0 249.5 113
t100.5 290q0 176 -100.5 288.5t-249.5 112.5q-151 0 -251.5 -112.5t-100.5 -290.5z" />
    <glyph glyph-name="uni0431" unicode="&#x431;" horiz-adv-x="1331" 
d="M690 -25q-261 0 -408 181t-147 508q1 218 35 374t105 258.5t166 163t233 99.5q162 46 479 92v-178q-238 -33 -442 -87q-186 -48 -280 -169.5t-114 -354.5q65 105 173.5 164t230.5 59q150 0 266 -72.5t178 -198t62 -282.5q0 -243 -150.5 -400t-386.5 -157zM324 547
q0 -172 102 -286t260 -114t257 107.5t99 277.5q0 168 -97.5 275.5t-252.5 107.5q-159 0 -263.5 -104.5t-104.5 -263.5z" />
    <glyph glyph-name="uni0432" unicode="&#x432;" horiz-adv-x="1132" 
d="M174 0v1108h442q173 0 272 -76.5t99 -210.5q0 -86 -47 -154t-125 -96q98 -29 154.5 -100.5t56.5 -167.5q0 -140 -106 -221.5t-289 -81.5h-457zM356 147h242q242 0 242 177q0 83 -64.5 126.5t-177.5 43.5h-242v-347zM356 633h240q99 0 155 43t56 125q0 160 -221 160h-230
v-328z" />
    <glyph glyph-name="uni0433" unicode="&#x433;" horiz-adv-x="868" 
d="M174 0v1108h651v-162h-463v-946h-188z" />
    <glyph glyph-name="uni0434" unicode="&#x434;" horiz-adv-x="1277" 
d="M43 -264v426h121q112 158 112 438v508h762v-946h160v-426h-174v264h-807v-264h-174zM358 162h494v784h-391v-348q0 -139 -31 -251.5t-72 -184.5z" />
    <glyph glyph-name="uni0435" unicode="&#x435;" horiz-adv-x="1212" 
d="M664 -25q-256 0 -409 158t-153 416q0 131 43.5 242t116.5 185t170 115.5t205 41.5q99 0 185 -36.5t151.5 -105t103 -176t37.5 -240.5q0 -45 -6 -83h-821q20 -163 126.5 -258t264.5 -95q202 0 373 146v-187q-169 -123 -387 -123zM287 633h645q-3 163 -88.5 249.5
t-208.5 86.5q-130 0 -228.5 -92t-119.5 -244z" />
    <glyph glyph-name="uni0436" unicode="&#x436;" horiz-adv-x="1570" 
d="M1534 1108l-457 -535l471 -573h-229l-434 551v-551h-187v551l-434 -551h-229l471 573l-457 535h227l422 -516v516h187v-516l422 516h227z" />
    <glyph glyph-name="uni0437" unicode="&#x437;" horiz-adv-x="1009" 
d="M485 -25q-218 0 -383 127v199q76 -71 173.5 -115.5t207.5 -44.5q106 0 170 47.5t64 128.5q0 80 -68 125t-192 45h-168v152h174q105 0 163 47.5t58 128.5q0 72 -59.5 112t-165.5 40q-89 0 -177.5 -30t-156.5 -85v186q68 45 160 70t188 25q186 0 291.5 -81.5t105.5 -217.5
q0 -94 -53.5 -165.5t-132.5 -97.5q100 -25 159.5 -98t59.5 -174q0 -140 -115 -232t-303 -92z" />
    <glyph glyph-name="uni0438" unicode="&#x438;" horiz-adv-x="1263" 
d="M174 0v1106h178v-825h4l555 825h179v-1106h-179v819h-2l-547 -819h-188z" />
    <glyph glyph-name="uni0439" unicode="&#x439;" horiz-adv-x="1263" 
d="M174 0v1106h178v-825h4l555 825h179v-1106h-179v819h-2l-547 -819h-188zM295 1602h160q2 -85 44.5 -138t127.5 -53q84 0 127 53t45 138h159q1 -146 -94 -230t-237 -84q-143 0 -238 83.5t-94 230.5z" />
    <glyph glyph-name="uni043A" unicode="&#x43a;" horiz-adv-x="1087" 
d="M362 1108v-520l459 520h232l-488 -535l502 -573h-233l-472 555v-555h-188v1108h188z" />
    <glyph glyph-name="uni043B" unicode="&#x43b;" horiz-adv-x="1167" 
d="M37 158q106 0 154.5 79t48.5 261v610h753v-1108h-188v944h-379v-459q0 -254 -95.5 -373.5t-293.5 -119.5v166z" />
    <glyph glyph-name="uni043C" unicode="&#x43c;" horiz-adv-x="1486" 
d="M119 0l121 1106h211l290 -815h4l297 815h203l125 -1106h-182l-78 813h-6l-289 -797h-147l-287 801h-4l-78 -817h-180z" />
    <glyph glyph-name="uni043D" unicode="&#x43d;" horiz-adv-x="1245" 
d="M174 0v1108h188v-469h521v469h188v-1108h-188v475h-521v-475h-188z" />
    <glyph glyph-name="uni043E" unicode="&#x43e;" 
d="M653 -25q-156 0 -282.5 74.5t-198.5 207t-72 296.5t72 297t198.5 208t282.5 75q235 0 392 -165t157 -415q0 -123 -42 -230.5t-115 -183.5t-174.5 -120t-217.5 -44zM291 553q0 -93 30.5 -170t81 -127t115.5 -77t135 -27q146 0 253.5 109.5t107.5 291.5q0 93 -30.5 170.5
t-81 127.5t-115 77.5t-134.5 27.5t-135 -27.5t-115.5 -77.5t-81 -127.5t-30.5 -170.5z" />
    <glyph glyph-name="uni043F" unicode="&#x43f;" horiz-adv-x="1228" 
d="M174 0v1108h881v-1108h-189v944h-504v-944h-188z" />
    <glyph glyph-name="uni0440" unicode="&#x440;" horiz-adv-x="1349" 
d="M172 -430v1538h154l22 -205q62 110 167 170t226 60q98 0 189 -41.5t161 -115t112 -183.5t42 -238q0 -130 -41.5 -240.5t-111 -184t-160.5 -114.5t-189 -41q-117 0 -222.5 59t-160.5 159v-623h-188zM356 553q0 -176 100.5 -288.5t248.5 -112.5q151 0 251.5 112t100.5 291
q0 177 -100.5 289t-251.5 112q-149 0 -249 -113t-100 -290z" />
    <glyph glyph-name="uni0441" unicode="&#x441;" horiz-adv-x="1075" 
d="M291 555q0 -92 31.5 -169.5t85 -128t122 -78t142.5 -27.5q180 0 295 90v-191q-133 -76 -308 -76q-239 0 -399 165.5t-160 414.5q0 121 43 228.5t117 184t177.5 121t221.5 44.5q183 0 308 -78v-193q-127 94 -297 94q-99 0 -184.5 -47t-140 -140.5t-54.5 -213.5z" />
    <glyph glyph-name="uni0442" unicode="&#x442;" horiz-adv-x="952" 
d="M383 0v944h-340v164h866v-164h-338v-944h-188z" />
    <glyph glyph-name="uni0443" unicode="&#x443;" horiz-adv-x="1105" 
d="M1063 1108l-600 -1538h-193l191 469l-414 1069h205l305 -844h4l305 844h197z" />
    <glyph glyph-name="uni0444" unicode="&#x444;" horiz-adv-x="1556" 
d="M688 -430v410q-161 1 -294.5 71t-213.5 202t-80 300q0 169 79.5 300.5t213 201.5t295.5 71v512h180v-512q162 -1 295.5 -71t213 -201.5t79.5 -300.5q0 -168 -80 -300t-213.5 -202t-294.5 -71v-410h-180zM287 553q0 -118 50 -212t142 -147.5t209 -54.5v828
q-117 -1 -209 -54.5t-142 -147.5t-50 -212zM868 141q177 1 289.5 117t112.5 295t-113 296t-289 118v-826z" />
    <glyph glyph-name="uni0445" unicode="&#x445;" horiz-adv-x="1085" 
d="M1028 1108l-377 -545l391 -563h-215l-284 424h-2l-285 -424h-209l385 555l-381 553h211l279 -418h4l278 418h205z" />
    <glyph glyph-name="uni0446" unicode="&#x446;" horiz-adv-x="1275" 
d="M174 0v1108h188v-946h490v946h188v-946h160v-426h-176v264h-850z" />
    <glyph glyph-name="uni0447" unicode="&#x447;" horiz-adv-x="1097" 
d="M459 389q-181 0 -274 91t-93 270v358h189v-317q0 -121 56.5 -177.5t176.5 -56.5q124 0 221 41v510h189v-1108h-189v436q-139 -47 -276 -47z" />
    <glyph glyph-name="uni0448" unicode="&#x448;" horiz-adv-x="1701" 
d="M362 1106v-944h396v944h186v-944h393v944h189v-1106h-1352v1106h188z" />
    <glyph glyph-name="uni0449" unicode="&#x449;" horiz-adv-x="1757" 
d="M174 0v1106h188v-944h392v944h186v-944h391v944h189v-944h159v-426h-174v264h-1331z" />
    <glyph glyph-name="uni044A" unicode="&#x44a;" horiz-adv-x="1216" 
d="M350 0v944h-305v164h494v-381h211q180 0 289.5 -100t109.5 -258t-120.5 -263.5t-301.5 -105.5h-377zM539 152h184q105 0 171.5 60.5t66.5 156.5t-59 151t-163 55h-200v-423z" />
    <glyph glyph-name="uni044B" unicode="&#x44b;" horiz-adv-x="1488" 
d="M174 0v1108h188v-381h209q178 0 287 -100t109 -258q0 -159 -119.5 -264t-302.5 -105h-371zM362 152h179q107 0 173 60.5t66 156.5t-58.5 151t-162.5 55h-197v-423zM1126 0v1108h189v-1108h-189z" />
    <glyph glyph-name="uni044C" unicode="&#x44c;" horiz-adv-x="1046" 
d="M174 0v1108h188v-381h220q180 0 288.5 -100t108.5 -258t-120.5 -263.5t-301.5 -105.5h-383zM362 152h191q106 0 173 61t67 156t-59.5 150.5t-162.5 55.5h-209v-423z" />
    <glyph glyph-name="uni044D" unicode="&#x44d;" horiz-adv-x="1097" 
d="M432 -25q-195 0 -328 72v176q122 -82 314 -82q162 0 267 91t124 253h-530v150h530q-22 156 -125.5 244t-261.5 88q-189 0 -318 -82v174q132 74 330 74q246 0 404.5 -160t158.5 -418q0 -130 -43 -239.5t-118 -184t-179 -115.5t-225 -41z" />
    <glyph glyph-name="uni044E" unicode="&#x44e;" horiz-adv-x="1738" 
d="M1098 -20q-204 0 -356.5 135.5t-178.5 359.5h-201v-475h-188v1108h188v-473h201q27 223 178.5 357t356.5 134q110 0 208 -40.5t171 -113t116 -181.5t43 -238t-43 -237.5t-116.5 -181.5t-171.5 -113.5t-207 -40.5zM748 553q0 -174 99.5 -286.5t250.5 -112.5
q153 0 251.5 111.5t98.5 287.5q0 177 -98.5 288t-251.5 111t-251.5 -111.5t-98.5 -287.5z" />
    <glyph glyph-name="uni044F" unicode="&#x44f;" horiz-adv-x="1097" 
d="M74 0l401 420q-178 7 -271 102.5t-93 239.5q0 155 108.5 250.5t308.5 95.5h396v-1108h-189v483l-430 -483h-231zM295 754q0 -195 227 -195h213v389h-211q-114 0 -171.5 -51.5t-57.5 -142.5z" />
    <glyph glyph-name="uni0451" unicode="&#x451;" horiz-adv-x="1212" 
d="M664 -25q-256 0 -409 158t-153 416q0 131 43.5 242t116.5 185t170 115.5t205 41.5q99 0 185 -36.5t151.5 -105t103 -176t37.5 -240.5q0 -45 -6 -83h-821q20 -163 126.5 -258t264.5 -95q202 0 373 146v-187q-169 -123 -387 -123zM287 633h645q-3 163 -88.5 249.5
t-208.5 86.5q-130 0 -228.5 -92t-119.5 -244zM317 1430q0 44 32 75t77 31q46 0 79.5 -31t33.5 -75t-33.5 -76.5t-79.5 -32.5q-44 0 -76.5 32.5t-32.5 76.5zM737 1430q0 44 32.5 75t78.5 31t77 -31t31 -75q0 -45 -31.5 -77t-76.5 -32q-46 0 -78.5 32.5t-32.5 76.5z" />
    <glyph glyph-name="uni0452" unicode="&#x452;" horiz-adv-x="1243" 
d="M686 -430q106 111 156.5 245t50.5 328v516q0 289 -254 289q-118 0 -198.5 -69.5t-80.5 -200.5v-678h-188v1298h-160v148h160v192h188v-192h322v-148h-322v-331h5q48 72 132.5 114.5t184.5 42.5q186 0 292.5 -103.5t106.5 -295.5v-578q0 -186 -40 -323t-132 -254h-223z
" />
    <glyph glyph-name="uni0453" unicode="&#x453;" horiz-adv-x="868" 
d="M174 0v1108h651v-162h-463v-946h-188zM428 1274l238 344h202l-284 -344h-156z" />
    <glyph glyph-name="uni0454" unicode="&#x454;" horiz-adv-x="1128" 
d="M686 -25q-122 0 -229.5 41.5t-186.5 115.5t-124.5 183.5t-45.5 239.5q0 170 77.5 303t210 204t296.5 71q199 0 328 -74v-174q-127 82 -316 82q-162 0 -272 -88.5t-131 -243.5h547v-150h-549q20 -162 131.5 -253t277.5 -91q194 0 322 90v-176q-135 -80 -336 -80z" />
    <glyph glyph-name="uni0455" unicode="&#x455;" horiz-adv-x="1009" 
d="M520 1133q95 0 185 -26.5t149 -70.5v-186q-62 53 -149 84t-183 31q-103 0 -160 -40.5t-57 -109.5q0 -29 12 -52.5t31 -40t52.5 -32.5t66.5 -27t84 -26q49 -14 75 -22t70.5 -25t69.5 -32.5t57 -41t49 -53.5t29 -68t12 -86q0 -153 -111 -243.5t-302 -90.5q-230 0 -383 123
v203q69 -71 166 -114.5t211 -43.5q111 0 173 44.5t62 119.5q0 26 -7.5 47.5t-26 39t-37.5 30.5t-54 26.5t-63 23t-76 24.5q-66 20 -107 35t-91.5 41.5t-78.5 56t-47.5 74.5t-19.5 102q0 142 109 234t290 92z" />
    <glyph glyph-name="uni0456" unicode="&#x456;" horiz-adv-x="540" 
d="M176 0v1108h189v-1108h-189zM154 1477q0 50 32.5 82t83.5 32t84 -32t33 -82t-33 -82.5t-84 -32.5t-83.5 32.5t-32.5 82.5z" />
    <glyph glyph-name="uni0457" unicode="&#x457;" horiz-adv-x="540" 
d="M176 0v1108h189v-1108h-189zM-47 1481q0 44 32 75t76 31q46 0 79.5 -31t33.5 -75t-33.5 -76.5t-79.5 -32.5q-44 0 -76 32.5t-32 76.5zM373 1481q0 44 32 75t78 31t77.5 -31t31.5 -75q0 -45 -32 -77t-77 -32t-77.5 32t-32.5 77z" />
    <glyph glyph-name="uni0458" unicode="&#x458;" horiz-adv-x="542" 
d="M-29 -430q106 111 156.5 245t50.5 328v965h189v-961q0 -186 -40 -323t-132 -254h-224zM156 1477q0 50 32.5 82t83.5 32t84 -32t33 -82t-33 -82.5t-84 -32.5t-83.5 32.5t-32.5 82.5z" />
    <glyph glyph-name="uni0459" unicode="&#x459;" horiz-adv-x="1660" 
d="M39 166q106 0 155 79.5t48 262.5l-4 600h749v-381h209q179 0 287 -99.5t108 -258.5t-119.5 -264t-302.5 -105h-366v944h-379l2 -448q1 -254 -94.5 -375t-292.5 -121v166zM987 152h180q105 0 171.5 60.5t66.5 156.5t-58.5 151t-162.5 55h-197v-423z" />
    <glyph glyph-name="uni045A" unicode="&#x45a;" horiz-adv-x="1718" 
d="M174 0v1108h188v-426h498v426h187v-426h208q182 0 289 -88.5t107 -243.5q0 -154 -119 -252t-303 -98h-369v522h-498v-522h-188zM1047 150h180q107 0 172 53t65 147q0 182 -219 182h-198v-382z" />
    <glyph glyph-name="uni045B" unicode="&#x45b;" horiz-adv-x="1243" 
d="M172 0v1298h-160v148h160v192h188v-192h322v-148h-322v-331h5q48 72 132.5 114.5t184.5 42.5q186 0 292.5 -103.5t106.5 -295.5v-725h-188v659q0 289 -254 289q-118 0 -198.5 -69.5t-80.5 -200.5v-678h-188z" />
    <glyph glyph-name="uni045C" unicode="&#x45c;" horiz-adv-x="1087" 
d="M362 1108v-520l459 520h232l-488 -535l502 -573h-233l-472 555v-555h-188v1108h188zM524 1249l238 344h203l-285 -344h-156z" />
    <glyph glyph-name="uni045E" unicode="&#x45e;" horiz-adv-x="1105" 
d="M1063 1108l-600 -1538h-193l191 469l-414 1069h205l305 -844h4l305 844h197zM227 1604h160q2 -85 44.5 -138t127.5 -53q84 0 127 53t45 138h160q1 -146 -94.5 -230t-237.5 -84q-143 0 -238 83.5t-94 230.5z" />
    <glyph glyph-name="uni045F" unicode="&#x45f;" horiz-adv-x="1214" 
d="M174 0v1106h188v-944h490v944h188v-1106h-348v-264h-174v264h-344z" />
    <glyph glyph-name="uni0462" unicode="&#x462;" horiz-adv-x="1368" 
d="M334 0v1206h-334v170h334v152h190v-152h477v-170h-477v-250h191q267 0 422 -120.5t155 -346.5q0 -229 -156 -359t-417 -130h-385zM524 170h195q179 0 280 81.5t101 233.5q0 149 -100 226t-281 77h-195v-618z" />
    <glyph glyph-name="uni0463" unicode="&#x463;" horiz-adv-x="1171" 
d="M305 0v969h-305v139h305v526h189v-526h440v-139h-440v-250h211q180 0 288.5 -97t108.5 -253q0 -158 -120 -263.5t-302 -105.5h-375zM494 147h186q105 0 171.5 61t66.5 157t-59 151t-163 55h-202v-424z" />
    <glyph glyph-name="uni0472" unicode="&#x472;" horiz-adv-x="1734" 
d="M868 -31q-161 0 -302 60.5t-240.5 165t-157 252t-57.5 315.5q0 222 97.5 403t271 285t388.5 104q160 0 300.5 -61t240.5 -166t157.5 -252t57.5 -313q0 -224 -98 -405.5t-271 -284.5t-387 -103zM303 696q14 -170 98 -297.5t206 -190.5t261 -63t260.5 64t204.5 191.5
t97 295.5h-1127zM305 850h1122q-14 123 -66 224t-128 166.5t-170 101.5t-195 36q-102 0 -197 -36t-171.5 -101.5t-128.5 -166.5t-66 -224z" />
    <glyph glyph-name="uni0473" unicode="&#x473;" 
d="M653 -25q-156 0 -282.5 74.5t-198.5 207t-72 296.5t72 297t198.5 208t282.5 75q235 0 392 -165t157 -415q0 -123 -42 -230.5t-115 -183.5t-174.5 -120t-217.5 -44zM287 492q18 -161 123.5 -255t242.5 -94q135 0 241 94.5t124 254.5h-731zM287 623h731q-21 158 -125.5 250
t-239.5 92t-240 -92t-126 -250z" />
    <glyph glyph-name="uni0474" unicode="&#x474;" horiz-adv-x="1452" 
d="M627 0l-607 1524h203l506 -1311h2l297 956q44 149 75 209q80 152 239 174q30 4 63 4q84 0 135 -32v-168q-16 11 -51 20.5t-68 9.5q-28 0 -51.5 -6.5t-40.5 -15t-32 -26t-24.5 -31.5t-20.5 -39t-16.5 -41t-15.5 -46q-5 -16 -8 -24l-383 -1157h-202z" />
    <glyph glyph-name="uni0475" unicode="&#x475;" horiz-adv-x="1155" 
d="M453 0l-404 1108h201l305 -899h6l160 539q46 162 76 222q65 130 186 157q36 8 78 8q84 0 137 -35v-166q-52 31 -117 31q-32 0 -57.5 -12t-41.5 -27t-32.5 -48.5t-24.5 -54.5t-23 -67q-5 -14 -7 -21l-238 -735h-204z" />
    <glyph glyph-name="uni048A" unicode="&#x48a;" horiz-adv-x="1699" 
d="M1315 -348l106 348h-180v1241h-2l-844 -1241h-186v1524h182v-1233h2l844 1233h186v-1346h238l-170 -526h-176zM496 2021h159q2 -85 44.5 -137.5t127.5 -52.5q84 0 127 53t45 137h160q1 -146 -94.5 -229.5t-237.5 -83.5q-143 0 -237.5 83t-93.5 230z" />
    <glyph glyph-name="uni048B" unicode="&#x48b;" horiz-adv-x="1325" 
d="M944 -264l80 264h-113v819h-2l-547 -819h-188v1106h178v-825h4l555 825h179v-944h167l-139 -426h-174zM301 1604h160q2 -85 44.5 -138t127.5 -53q84 0 127 53t45 138h160q1 -146 -94.5 -230t-237.5 -84q-143 0 -238 83.5t-94 230.5z" />
    <glyph glyph-name="uni048C" unicode="&#x48c;" horiz-adv-x="1368" 
d="M334 0v1206h-334v170h334v152h190v-152h477v-170h-477v-250h191q267 0 422 -120.5t155 -346.5q0 -229 -156 -359t-417 -130h-385zM524 170h195q179 0 280 81.5t101 233.5q0 149 -100 226t-281 77h-195v-618z" />
    <glyph glyph-name="uni048D" unicode="&#x48d;" horiz-adv-x="1171" 
d="M305 0v969h-305v139h305v526h189v-526h440v-139h-440v-250h211q180 0 288.5 -97t108.5 -253q0 -158 -120 -263.5t-302 -105.5h-375zM494 147h186q105 0 171.5 61t66.5 157t-59 151t-163 55h-202v-424z" />
    <glyph glyph-name="uni048E" unicode="&#x48e;" horiz-adv-x="1253" 
d="M209 0v1524h373q272 0 434 -132.5t162 -363.5q0 -149 -67.5 -262t-192.5 -178l153 -219l-104 -72l-172 244q-98 -25 -207 -25h-189v-516h-190zM399 688h199q50 0 94 6l-157 228l96 65l178 -256q86 40 132 115t46 178q0 154 -103.5 238t-285.5 84h-199v-658z" />
    <glyph glyph-name="uni048F" unicode="&#x48f;" horiz-adv-x="1349" 
d="M172 -430v1538h154l22 -205q62 110 167 170t226 60q98 0 189 -41.5t161 -115t112 -183.5t42 -238q0 -163 -62.5 -291t-168.5 -203l133 -190l-105 -72l-143 203q-83 -27 -156 -27q-117 0 -222.5 59t-160.5 159v-623h-188zM356 553q0 -178 100.5 -292t250.5 -114
q43 0 90 13l-193 274l96 68l203 -291q74 52 116 141.5t42 202.5q0 176 -101.5 288.5t-252.5 112.5q-150 0 -250.5 -112.5t-100.5 -290.5z" />
    <glyph glyph-name="uni0490" unicode="&#x490;" horiz-adv-x="1052" 
d="M209 0v1524h622v348h177v-526h-609v-1346h-190z" />
    <glyph glyph-name="uni0491" unicode="&#x491;" horiz-adv-x="868" 
d="M174 0v1108h477v285h174v-447h-463v-946h-188z" />
    <glyph glyph-name="uni0492" unicode="&#x492;" horiz-adv-x="1071" 
d="M227 0v690h-227v152h227v682h799v-178h-608v-504h500v-152h-500v-690h-191z" />
    <glyph glyph-name="uni0493" unicode="&#x493;" horiz-adv-x="899" 
d="M211 0v469h-186v133h186v506h651v-162h-463v-344h355v-133h-355v-469h-188z" />
    <glyph glyph-name="uni0494" unicode="&#x494;" horiz-adv-x="1288" 
d="M209 0v1524h799v-178h-609v-613q149 58 326 58q219 0 353 -136t134 -370q0 -236 -129.5 -385.5t-343.5 -149.5h-39v168h19q136 0 216.5 97.5t80.5 258.5q0 164 -86 253t-242 89q-161 0 -289 -61v-555h-190z" />
    <glyph glyph-name="uni0495" unicode="&#x495;" horiz-adv-x="1136" 
d="M174 0v1108h713v-162h-525v-342q138 55 283 55q187 0 304.5 -118t117.5 -332q0 -213 -128.5 -342t-344.5 -129h-37v168h21q138 0 217 76t79 213q0 148 -71 222.5t-195 74.5q-125 0 -246 -62v-430h-188z" />
    <glyph glyph-name="uni0496" unicode="&#x496;" horiz-adv-x="2117" 
d="M1769 0l-659 745v-745h-190v745l-660 -745h-244l693 768l-684 756h237l658 -742v742h190v-742l657 742h238l-684 -756l532 -590h181v-526h-176v348h-89z" />
    <glyph glyph-name="uni0497" unicode="&#x497;" horiz-adv-x="1648" 
d="M1319 0l-434 551v-551h-187v551l-434 -551h-229l471 573l-457 535h227l422 -516v516h187v-516l422 516h227l-457 -535l338 -411h156v-426h-174v264h-78z" />
    <glyph glyph-name="uni0498" unicode="&#x498;" horiz-adv-x="1179" 
d="M467 -348v317q-202 16 -365 135v215q68 -71 182.5 -122.5t231.5 -51.5q153 0 246.5 77.5t93.5 205.5q0 131 -92 197.5t-264 66.5h-176v168h194q141 0 225 70t84 192q0 121 -85.5 190.5t-231.5 69.5q-209 0 -383 -122v196q180 100 405 100q237 0 362.5 -111.5
t125.5 -301.5q0 -126 -71.5 -223.5t-172.5 -135.5q123 -30 199 -129t76 -241q0 -173 -109.5 -292t-298.5 -147v-323h-176z" />
    <glyph glyph-name="uni0499" unicode="&#x499;" horiz-adv-x="1009" 
d="M399 -264v244q-161 17 -297 108v199q73 -65 169.5 -105.5t205.5 -40.5t174.5 47.5t65.5 128.5q0 80 -68 125t-192 45h-168v152h174q105 0 163 48.5t58 129.5q0 73 -58 111.5t-165 38.5q-88 0 -178 -30t-158 -85v186q68 45 161.5 70t188.5 25q187 0 291 -80t104 -217
q0 -94 -53.5 -166.5t-132.5 -98.5q100 -25 159.5 -98t59.5 -174q0 -121 -88.5 -207.5t-239.5 -109.5v-246h-176z" />
    <glyph glyph-name="uni049A" unicode="&#x49a;" horiz-adv-x="1458" 
d="M1096 0l-697 745v-745h-190v1524h190v-742l693 742h237l-713 -758l555 -588h205v-526h-178v348h-102z" />
    <glyph glyph-name="uni049B" unicode="&#x49b;" horiz-adv-x="1179" 
d="M834 0l-472 555v-555h-188v1108h188v-520l459 520h232l-488 -535l361 -411h178v-426h-176v264h-94z" />
    <glyph glyph-name="uni049C" unicode="&#x49c;" horiz-adv-x="1501" 
d="M1243 0l-500 692h-47v-362h-135v362h-162v-692h-190v1524h190v-670h162v363h135v-363h62l481 670h238l-553 -758l563 -766h-244z" />
    <glyph glyph-name="uni049D" unicode="&#x49d;" horiz-adv-x="1218" 
d="M963 0l-310 485h-59v-258h-123v258h-109v-485h-188v1108h188v-477h109v258h123v-258h43l315 477h230l-385 -535l401 -573h-235z" />
    <glyph glyph-name="uni049E" unicode="&#x49e;" horiz-adv-x="1454" 
d="M1196 0l-698 752v-752h-189v1243h-309v162h309v119h189v-119h225v-162h-225v-467l694 748h238l-711 -758l721 -766h-244z" />
    <glyph glyph-name="uni049F" unicode="&#x49f;" horiz-adv-x="1085" 
d="M829 0l-469 555v-555h-188v1307h-164v147h164v184h188v-184h320v-147h-320v-719l457 520h232l-488 -535l502 -573h-234z" />
    <glyph glyph-name="uni04A0" unicode="&#x4a0;" horiz-adv-x="1560" 
d="M1303 0l-699 748v-748h-188v1346h-416v178h604v-744l694 744h238l-713 -758l723 -766h-243z" />
    <glyph glyph-name="uni04A1" unicode="&#x4a1;" horiz-adv-x="1198" 
d="M944 0l-471 555v-555h-188v944h-285v164h473v-520l459 520h231l-487 -535l502 -573h-234z" />
    <glyph glyph-name="uni04A2" unicode="&#x4a2;" horiz-adv-x="1671" 
d="M209 0v1524h190v-662h805v662h191v-1346h194v-526h-176v348h-209v684h-805v-684h-190z" />
    <glyph glyph-name="uni04A3" unicode="&#x4a3;" horiz-adv-x="1308" 
d="M174 0v1108h188v-469h521v469h188v-946h160v-426h-174v264h-174v475h-521v-475h-188z" />
    <glyph glyph-name="uni04A4" unicode="&#x4a4;" horiz-adv-x="2048" 
d="M209 0v1524h190v-662h805v662h801v-178h-610v-1346h-191v684h-805v-684h-190z" />
    <glyph glyph-name="uni04A5" unicode="&#x4a5;" horiz-adv-x="1560" 
d="M883 0v475h-521v-475h-188v1108h188v-469h521v469h651v-162h-463v-946h-188z" />
    <glyph glyph-name="uni04A6" unicode="&#x4a6;" horiz-adv-x="2232" 
d="M209 0v1524h1132v-791q149 58 328 58q218 0 353 -136.5t135 -369.5q0 -236 -130 -385.5t-346 -149.5h-39v168h21q136 0 216.5 97.5t80.5 258.5q0 163 -87 252.5t-243 89.5q-154 0 -289 -61v-555h-190v1346h-752v-1346h-190z" />
    <glyph glyph-name="uni04A7" unicode="&#x4a7;" horiz-adv-x="1882" 
d="M174 0v1108h881v-500q152 58 317 58q196 0 318 -119.5t122 -335.5q0 -215 -129 -344t-346 -129h-39v168h21q138 0 217.5 76t79.5 213q0 148 -75.5 222.5t-207.5 74.5q-144 0 -278 -62v-430h-189v944h-504v-944h-188z" />
    <glyph glyph-name="uni04A8" unicode="&#x4a8;" horiz-adv-x="2027" 
d="M932 -25q-234 0 -420 96t-293.5 277.5t-107.5 419.5q0 157 49 293.5t134.5 235t202 162.5t251.5 83v-186q-195 -33 -320 -191.5t-125 -392.5q0 -280 175 -449t462 -169q99 0 195 22q-164 125 -258.5 308.5t-94.5 406.5q0 150 44 275t120.5 208t179.5 128.5t220 45.5
q115 0 215.5 -43t176.5 -122.5t119.5 -201.5t43.5 -272q0 -230 -98.5 -421.5t-270.5 -319.5q118 -27 221 -27q80 0 145 15v-166q-81 -15 -157 -15q-211 0 -404 82q-193 -82 -405 -82zM975 891q0 -208 94 -375.5t260 -263.5q176 97 277.5 270.5t101.5 388.5t-99.5 338
t-260.5 123q-167 0 -270 -130t-103 -351z" />
    <glyph glyph-name="uni04A9" unicode="&#x4a9;" horiz-adv-x="1589" 
d="M717 -25q-271 0 -444 160.5t-173 421.5q0 235 135 391.5t349 181.5v-165q-131 -20 -214 -132t-83 -272q0 -190 121 -306t321 -116q45 0 117 11q-111 92 -173.5 219.5t-62.5 279.5q0 221 123 352.5t309 131.5q182 0 303 -126t121 -343q0 -157 -65 -290t-182 -227
q65 -12 133 -12t127 12v-159q-63 -13 -131 -13q-160 0 -316 62q-153 -62 -315 -62zM795 649q0 -136 63 -247.5t174 -180.5q116 70 183 186.5t67 256.5q0 142 -66.5 220.5t-171.5 78.5q-110 0 -179.5 -84.5t-69.5 -229.5z" />
    <glyph glyph-name="uni04AA" unicode="&#x4aa;" horiz-adv-x="1368" 
d="M721 -348v332q-127 25 -237.5 90.5t-193.5 163.5t-131 234t-48 292q0 142 40 268t111.5 220t166 163t206.5 104t231 35q229 0 404 -104v-201q-99 62 -190 92.5t-206 30.5q-108 0 -209.5 -42t-182 -118t-129 -193t-48.5 -257q0 -138 48.5 -255t129 -193.5t182 -119
t209.5 -42.5q114 0 205.5 31t190.5 93v-202q-169 -97 -373 -105v-317h-176z" />
    <glyph glyph-name="uni04AB" unicode="&#x4ab;" horiz-adv-x="1075" 
d="M520 -264v256q-188 46 -304 200t-116 363q0 121 43 228.5t117 184t177.5 121t221.5 44.5q183 0 308 -78v-193q-127 94 -297 94q-99 0 -184.5 -47t-140 -140.5t-54.5 -213.5q0 -92 31.5 -169.5t85 -128t122 -78t142.5 -27.5q180 0 295 90v-191q-115 -67 -273 -76v-239
h-174z" />
    <glyph glyph-name="uni04AC" unicode="&#x4ac;" horiz-adv-x="1241" 
d="M526 0v1346h-481v178h1151v-178h-479v-1168h192v-526h-176v348h-207z" />
    <glyph glyph-name="uni04AD" unicode="&#x4ad;" horiz-adv-x="952" 
d="M383 0v944h-340v164h866v-164h-338v-782h160v-426h-174v264h-174z" />
    <glyph glyph-name="uni04AE" unicode="&#x4ae;" horiz-adv-x="1335" 
d="M575 0v643l-561 881h215l441 -705h2l436 705h211l-557 -879v-645h-187z" />
    <glyph glyph-name="uni04AF" unicode="&#x4af;" horiz-adv-x="1105" 
d="M461 -80l-412 1188h201l305 -961h6l305 961h195l-412 -1188v-350h-188v350z" />
    <glyph glyph-name="uni04B0" unicode="&#x4b0;" horiz-adv-x="1335" 
d="M575 0v539h-360v149h332l-533 836h215l441 -705h2l436 705h211l-531 -836h334v-149h-360v-539h-187z" />
    <glyph glyph-name="uni04B1" unicode="&#x4b1;" horiz-adv-x="1105" 
d="M178 -129v133h254l-383 1104h201l305 -961h6l305 961h195l-383 -1104h254v-133h-283v-301h-188v301h-283z" />
    <glyph glyph-name="uni04B2" unicode="&#x4b2;" horiz-adv-x="1462" 
d="M37 0l518 766l-510 758h221l412 -615l407 615h218l-510 -754l401 -592h184v-526h-176v348h-106l-424 623l-418 -623h-217z" />
    <glyph glyph-name="uni04B3" unicode="&#x4b3;" horiz-adv-x="1169" 
d="M47 0l385 555l-381 553h211l279 -418h4l278 418h205l-377 -545l279 -401h164v-426h-176v264h-91l-284 424h-2l-285 -424h-209z" />
    <glyph glyph-name="uni04B4" unicode="&#x4b4;" horiz-adv-x="1812" 
d="M444 0v1346h-397v178h916v-178h-328v-1168h713v1346h188v-1346h195v-526h-177v348h-1110z" />
    <glyph glyph-name="uni04B5" unicode="&#x4b5;" horiz-adv-x="1462" 
d="M365 0v946h-342v162h813v-162h-283v-784h489v946h189v-946h160v-426h-174v264h-852z" />
    <glyph glyph-name="uni04B6" unicode="&#x4b6;" horiz-adv-x="1388" 
d="M565 575q-225 0 -343 116.5t-118 348.5v484h191v-449q0 -167 77.5 -244t241.5 -77q158 0 306 61v709h192v-1346h193v-526h-177v348h-208v637q-168 -62 -355 -62z" />
    <glyph glyph-name="uni04B7" unicode="&#x4b7;" horiz-adv-x="1161" 
d="M459 389q-181 0 -274 91t-93 270v358h189v-317q0 -121 56.5 -177.5t176.5 -56.5q124 0 221 41v510h189v-946h159v-426h-174v264h-174v436q-139 -47 -276 -47z" />
    <glyph glyph-name="uni04B8" unicode="&#x4b8;" horiz-adv-x="1320" 
d="M532 258v322q-434 15 -434 464v480h187v-453q0 -149 59.5 -225.5t187.5 -91.5v352h136v-354q140 12 252 61v711h192v-1524h-192v641q-118 -43 -252 -57v-326h-136z" />
    <glyph glyph-name="uni04B9" unicode="&#x4b9;" horiz-adv-x="1105" 
d="M449 174v219q-174 3 -265.5 95t-91.5 266v354h182v-328q0 -105 42.5 -160t132.5 -69v246h122v-248q97 9 172 41v518h189v-1108h-189v440q-74 -26 -172 -39v-227h-122z" />
    <glyph glyph-name="uni04BA" unicode="&#x4ba;" horiz-adv-x="1339" 
d="M1034 436q0 167 -73.5 242.5t-233.5 75.5q-184 0 -328 -64v-690h-190v1524h190v-650q166 58 365 58q461 0 461 -451v-481h-191v436z" />
    <glyph glyph-name="uni04BB" unicode="&#x4bb;" horiz-adv-x="1241" 
d="M360 1638v-663h2q48 72 133 115t185 43q186 0 292.5 -104t106.5 -296v-733h-188v668q0 288 -254 288q-118 0 -197.5 -69.5t-79.5 -200.5v-686h-188v1638h188z" />
    <glyph glyph-name="uni04BC" unicode="&#x4bc;" horiz-adv-x="1894" 
d="M1165 -31q-330 0 -537 203t-222 541h-29q-180 0 -278.5 94t-98.5 264q0 138 66 236h161q-73 -79 -73 -220q0 -231 235 -231h21q16 159 81 292t162.5 221.5t221.5 137.5t258 49q135 0 252 -48t207 -139.5t142 -237t52 -326.5q0 -17 -6 -92h-1188q19 -266 181 -421
t409 -155q294 0 534 209v-194q-238 -183 -551 -183zM594 860h1005q-2 131 -41.5 234t-105 166t-147.5 96t-175 33q-132 0 -246.5 -63t-193 -184.5t-96.5 -281.5z" />
    <glyph glyph-name="uni04BD" unicode="&#x4bd;" horiz-adv-x="1398" 
d="M850 -25q-241 0 -391.5 142t-167.5 375h-19q-128 0 -200 73t-72 201q0 105 51 178h152q-56 -63 -56 -162q-3 -153 136 -153h10q26 229 176 366.5t352 137.5q100 0 186.5 -36.5t152 -104.5t103 -174t37.5 -238q0 -50 -6 -88h-821q19 -162 126 -257.5t267 -95.5
q200 0 371 146v-187q-173 -123 -387 -123zM473 633h645q-4 163 -89 249.5t-210 86.5q-129 0 -226 -90.5t-120 -245.5z" />
    <glyph glyph-name="uni04BE" unicode="&#x4be;" horiz-adv-x="1894" 
d="M1001 -348v332q-263 47 -423 242t-172 487h-29q-180 0 -278.5 94t-98.5 264q0 138 66 236h161q-73 -79 -73 -220q0 -231 235 -231h21q16 159 81 292t162.5 221.5t221.5 137.5t258 49q135 0 252 -48t207 -139.5t142 -237t52 -326.5q0 -17 -6 -92h-1188q19 -266 181 -421
t409 -155q294 0 534 209v-194q-232 -180 -538 -183v-317h-177zM594 860h1005q-2 131 -41.5 234t-105 166t-147.5 96t-175 33q-132 0 -246.5 -63t-193 -184.5t-96.5 -281.5z" />
    <glyph glyph-name="uni04BF" unicode="&#x4bf;" horiz-adv-x="1398" 
d="M700 -264v256q-179 40 -287 173t-122 327h-19q-128 0 -200 73t-72 201q0 105 51 178h152q-56 -63 -56 -162q-3 -153 136 -153h10q26 229 176 366.5t352 137.5q100 0 186.5 -36.5t152 -104.5t103 -174t37.5 -238q0 -50 -6 -88h-821q19 -162 126 -257.5t267 -95.5
q200 0 371 146v-187q-163 -117 -363 -123v-239h-174zM473 633h645q-4 163 -89 249.5t-210 86.5q-129 0 -226 -90.5t-120 -245.5z" />
    <glyph glyph-name="uni04C0" unicode="&#x4c0;" horiz-adv-x="608" 
d="M209 0v1524h190v-1524h-190z" />
    <glyph glyph-name="uni04C1" unicode="&#x4c1;" horiz-adv-x="2029" 
d="M1769 0l-659 745v-745h-190v745l-660 -745h-244l693 768l-684 756h237l658 -742v742h190v-742l657 742h238l-684 -756l692 -768h-244zM686 2019h160q2 -85 44.5 -137.5t127.5 -52.5q84 0 127 53t45 137h160q1 -146 -94.5 -229.5t-237.5 -83.5q-143 0 -238 83t-94 230z
" />
    <glyph glyph-name="uni04C2" unicode="&#x4c2;" horiz-adv-x="1570" 
d="M1534 1108l-457 -535l471 -573h-229l-434 551v-551h-187v551l-434 -551h-229l471 573l-457 535h227l422 -516v516h187v-516l422 516h227zM459 1602h159q2 -85 45 -138t128 -53q84 0 127 53t45 138h159q1 -146 -94 -230t-237 -84q-143 0 -238 83.5t-94 230.5z" />
    <glyph glyph-name="uni04C3" unicode="&#x4c3;" horiz-adv-x="1347" 
d="M743 -410v168h21q127 0 202.5 94t75.5 275q0 238 -136.5 354.5t-397.5 116.5h-109v-598h-190v1524h190v-740l648 740h237l-686 -762q303 -14 472 -173t169 -448q0 -254 -125.5 -402.5t-331.5 -148.5h-39z" />
    <glyph glyph-name="uni04C4" unicode="&#x4c4;" horiz-adv-x="1124" 
d="M580 -410v168h20q125 0 190.5 75.5t65.5 215.5q0 121 -56 204t-150.5 121t-221.5 38h-66v-412h-188v1108h188v-520l459 520h232l-496 -539q106 -12 194.5 -49.5t155.5 -99.5t104.5 -154t37.5 -205q0 -215 -115.5 -343t-317.5 -128h-36z" />
    <glyph glyph-name="uni04C5" unicode="&#x4c5;" horiz-adv-x="1478" 
d="M-8 160q151 0 220 124t69 394v846h921v-1346h238l-170 -526h-176l106 348h-188v1346h-545v-664q0 -355 -114.5 -522.5t-360.5 -167.5v168z" />
    <glyph glyph-name="uni04C6" unicode="&#x4c6;" horiz-adv-x="1228" 
d="M37 158q106 0 154.5 79t48.5 261v610h753v-946h168l-139 -426h-174l80 264h-123v944h-379v-459q0 -254 -95.5 -373.5t-293.5 -119.5v166z" />
    <glyph glyph-name="uni04C7" unicode="&#x4c7;" horiz-adv-x="1603" 
d="M209 0v1524h190v-662h805v662h191v-1377q0 -186 -40 -323t-132 -254h-224q106 110 155.5 244t49.5 329v541h-805v-684h-190z" />
    <glyph glyph-name="uni04C8" unicode="&#x4c8;" horiz-adv-x="1245" 
d="M174 0v1108h188v-469h521v469h188v-961q0 -186 -40 -323t-132 -254h-223q106 111 156.5 245t50.5 328v332h-521v-475h-188z" />
    <glyph glyph-name="uni04C9" unicode="&#x4c9;" horiz-adv-x="1671" 
d="M1286 -348l107 348h-189v684h-805v-684h-190v1524h190v-662h805v662h191v-1346h237l-170 -526h-176z" />
    <glyph glyph-name="uni04CA" unicode="&#x4ca;" horiz-adv-x="1306" 
d="M926 -264l78 264h-121v475h-521v-475h-188v1108h188v-469h521v469h188v-946h166l-137 -426h-174z" />
    <glyph glyph-name="uni04CB" unicode="&#x4cb;" horiz-adv-x="1320" 
d="M565 578q-225 0 -343 116t-118 348v482h191v-447q0 -167 77.5 -244t241.5 -77q158 0 306 61v707h192v-1524h-209v-348h-176v518h193v469q-165 -61 -355 -61z" />
    <glyph glyph-name="uni04CC" unicode="&#x4cc;" horiz-adv-x="1097" 
d="M459 393q-181 0 -274 91t-93 270v354h189v-313q0 -121 56.5 -177.5t176.5 -56.5q124 0 221 41v506h189v-1108h-174v-264h-175v403h160v301q-139 -47 -276 -47z" />
    <glyph glyph-name="uni04CD" unicode="&#x4cd;" horiz-adv-x="2039" 
d="M106 0l234 1524h231l424 -1237h2l412 1237h236l204 -1346h262l-169 -526h-177l107 348h-184l-185 1251h-4l-422 -1251h-170l-426 1241h-4l-182 -1241h-189z" />
    <glyph glyph-name="uni04CE" unicode="&#x4ce;" horiz-adv-x="1527" 
d="M119 0l121 1106h211l290 -815h4l297 815h203l107 -944h176l-137 -426h-177l80 264h-106l-78 813h-6l-289 -797h-147l-287 801h-4l-78 -817h-180z" />
    <glyph glyph-name="uni04CF" unicode="&#x4cf;" horiz-adv-x="540" 
d="M176 0v1638h189v-1638h-189z" />
    <glyph glyph-name="uni04D0" unicode="&#x4d0;" horiz-adv-x="1462" 
d="M1440 0h-205l-178 463h-654l-178 -463h-200l598 1524h215zM391 2030h146q3 -75 54 -125t138 -50q86 0 137.5 50t53.5 125h145q3 -97 -46.5 -170t-125.5 -107.5t-164 -34.5t-164.5 34.5t-126.5 107.5t-47 170zM465 633h528l-264 678z" />
    <glyph glyph-name="uni04D1" unicode="&#x4d1;" horiz-adv-x="1347" 
d="M604 -25q-97 0 -188 41.5t-161.5 115.5t-112.5 184t-42 237q0 129 42 239.5t112.5 184t161 115t188.5 41.5q122 0 226.5 -59.5t166.5 -170.5h2l23 205h154v-1108h-154l-23 203h-2q-62 -110 -166 -169t-227 -59zM291 553q0 -177 100.5 -289t251.5 -112q149 0 249.5 113
t100.5 290q0 176 -100.5 288.5t-249.5 112.5q-151 0 -251.5 -112.5t-100.5 -290.5zM356 1614h146q3 -75 54 -124.5t138 -49.5t138 49.5t53 124.5h145q3 -97 -46.5 -169.5t-125.5 -107t-164 -34.5t-164.5 34.5t-126.5 107t-47 169.5z" />
    <glyph glyph-name="uni04D2" unicode="&#x4d2;" horiz-adv-x="1462" 
d="M1440 0h-205l-178 463h-654l-178 -463h-200l598 1524h215zM412 1845q0 44 32 75.5t76 31.5q46 0 79.5 -31.5t33.5 -75.5t-33.5 -76t-79.5 -32q-44 0 -76 32t-32 76zM465 633h528l-264 678zM831 1845q0 44 32.5 75.5t78.5 31.5t77.5 -31.5t31.5 -75.5q0 -45 -31.5 -76.5
t-77.5 -31.5t-78.5 32t-32.5 76z" />
    <glyph glyph-name="uni04D3" unicode="&#x4d3;" horiz-adv-x="1347" 
d="M604 -25q-97 0 -188 41.5t-161.5 115.5t-112.5 184t-42 237q0 129 42 239.5t112.5 184t161 115t188.5 41.5q122 0 226.5 -59.5t166.5 -170.5h2l23 205h154v-1108h-154l-23 203h-2q-62 -110 -166 -169t-227 -59zM291 553q0 -177 100.5 -289t251.5 -112q149 0 249.5 113
t100.5 290q0 176 -100.5 288.5t-249.5 112.5q-151 0 -251.5 -112.5t-100.5 -290.5zM375 1430q0 44 32 75t76 31q46 0 79.5 -31t33.5 -75t-33.5 -76.5t-79.5 -32.5q-44 0 -76 32.5t-32 76.5zM795 1430q0 44 32 75t78 31t77.5 -31t31.5 -75q0 -45 -32 -77t-77 -32t-77.5 32.5
t-32.5 76.5z" />
    <glyph glyph-name="uni04D4" unicode="&#x4d4;" horiz-adv-x="2068" 
d="M1929 1524v-178h-637v-486h592v-168h-592v-514h637v-178h-827v469h-582l-309 -469h-227l1001 1524h944zM631 637h471v711h-2z" />
    <glyph glyph-name="uni04D5" unicode="&#x4d5;" horiz-adv-x="1921" 
d="M1759 98q-169 -123 -387 -123q-153 0 -268 60.5t-182 171.5q-65 -105 -179.5 -168.5t-257.5 -63.5q-174 0 -287.5 96.5t-113.5 250.5q0 70 26.5 131.5t77.5 110.5t134.5 77.5t189.5 28.5q122 0 313 -39v88q0 112 -72.5 179t-205.5 67q-101 0 -199 -37t-166 -94v180
q163 119 383 119q140 0 236.5 -55t144.5 -150q70 98 176 151.5t228 53.5q98 0 183 -36.5t150 -105t102.5 -176t37.5 -240.5q0 -33 -4 -83h-822q19 -163 125.5 -258t266.5 -95q199 0 370 146v-187zM262 334q0 -90 70 -145.5t180 -55.5q128 0 220.5 81t92.5 202v84
q-118 37 -272 37q-142 0 -216.5 -56.5t-74.5 -146.5zM1001 633h639q-3 163 -88.5 249.5t-208.5 86.5q-130 0 -225.5 -91.5t-116.5 -244.5z" />
    <glyph glyph-name="uni04D6" unicode="&#x4d6;" horiz-adv-x="1183" 
d="M209 0v1524h835v-178h-645v-486h598v-168h-598v-516h645v-176h-835zM291 2030h145q3 -75 54.5 -125t138.5 -50q86 0 137 50t53 125h146q3 -97 -46.5 -170t-125.5 -107.5t-164 -34.5t-164.5 34.5t-126.5 107.5t-47 170z" />
    <glyph glyph-name="uni04D7" unicode="&#x4d7;" horiz-adv-x="1212" 
d="M664 -25q-256 0 -409 158t-153 416q0 131 43.5 242t116.5 185t170 115.5t205 41.5q99 0 185 -36.5t151.5 -105t103 -176t37.5 -240.5q0 -45 -6 -83h-821q20 -163 126.5 -258t264.5 -95q202 0 373 146v-187q-169 -123 -387 -123zM287 633h645q-3 163 -88.5 249.5
t-208.5 86.5q-130 0 -228.5 -92t-119.5 -244zM299 1614h145q3 -75 54 -124.5t139 -49.5q86 0 137 49.5t53 124.5h146q3 -97 -46.5 -169.5t-125.5 -107t-164 -34.5t-164.5 34.5t-126.5 107t-47 169.5z" />
    <glyph glyph-name="uni04D8" unicode="&#x4d8;" horiz-adv-x="1599" 
d="M762 -31q-134 0 -251 49.5t-207 142.5t-141.5 240t-51.5 330q0 44 4 90h1188q-20 261 -182 414.5t-406 153.5q-294 0 -537 -209v194q240 182 551 182q226 0 399 -97.5t268 -276.5t95 -414q0 -179 -59.5 -331.5t-160 -253.5t-232.5 -157.5t-277 -56.5zM297 676
q2 -133 41 -237.5t104 -169.5t147 -98.5t175 -33.5q134 0 249 64t193 188t94 287h-1003z" />
    <glyph glyph-name="uni04D9" unicode="&#x4d9;" horiz-adv-x="1212" 
d="M580 -25q-99 0 -185.5 37t-152 107.5t-103 180t-37.5 245.5q0 38 7 82h819q-22 161 -124.5 251.5t-256.5 90.5q-204 0 -375 -146v185q172 125 385 125q254 0 405.5 -158.5t151.5 -415.5q0 -132 -43 -243.5t-116.5 -185t-170 -114.5t-204.5 -41zM285 485q4 -168 89.5 -257
t207.5 -89q134 0 232.5 93.5t115.5 252.5h-645z" />
    <glyph glyph-name="uni04DA" unicode="&#x4da;" horiz-adv-x="1599" 
d="M762 -31q-134 0 -251 49.5t-207 142.5t-141.5 240t-51.5 330q0 44 4 90h1188q-20 261 -182 414.5t-406 153.5q-294 0 -537 -209v194q240 182 551 182q226 0 399 -97.5t268 -276.5t95 -414q0 -179 -59.5 -331.5t-160 -253.5t-232.5 -157.5t-277 -56.5zM297 676
q2 -133 41 -237.5t104 -169.5t147 -98.5t175 -33.5q134 0 249 64t193 188t94 287h-1003zM537 1821q0 44 32 75t76 31q46 0 79.5 -31t33.5 -75t-33.5 -76.5t-79.5 -32.5q-44 0 -76 32.5t-32 76.5zM956 1821q0 44 32.5 75t78.5 31t77.5 -31t31.5 -75q0 -45 -32 -77t-77 -32
q-46 0 -78.5 32.5t-32.5 76.5z" />
    <glyph glyph-name="uni04DB" unicode="&#x4db;" horiz-adv-x="1212" 
d="M580 -25q-99 0 -185.5 37t-152 107.5t-103 180t-37.5 245.5q0 38 7 82h819q-22 161 -124.5 251.5t-256.5 90.5q-204 0 -375 -146v185q172 125 385 125q254 0 405.5 -158.5t151.5 -415.5q0 -132 -43 -243.5t-116.5 -185t-170 -114.5t-204.5 -41zM279 1430q0 44 32 75
t76 31q46 0 79.5 -31t33.5 -75t-33.5 -76.5t-79.5 -32.5q-44 0 -76 32.5t-32 76.5zM285 485q4 -168 89.5 -257t207.5 -89q134 0 232.5 93.5t115.5 252.5h-645zM698 1430q0 44 32.5 75t78.5 31t77.5 -31t31.5 -75q0 -45 -32 -77t-77 -32q-46 0 -78.5 32.5t-32.5 76.5z" />
    <glyph glyph-name="uni04DC" unicode="&#x4dc;" horiz-adv-x="2029" 
d="M1769 0l-659 745v-745h-190v745l-660 -745h-244l693 768l-684 756h237l658 -742v742h190v-742l657 742h238l-684 -756l692 -768h-244zM700 1845q0 44 32.5 75.5t76.5 31.5q46 0 79.5 -31.5t33.5 -75.5t-33.5 -76t-79.5 -32q-44 0 -76.5 32t-32.5 76zM1120 1845
q0 44 32.5 75.5t78.5 31.5q45 0 76.5 -31t31.5 -76t-31.5 -76.5t-76.5 -31.5q-46 0 -78.5 32t-32.5 76z" />
    <glyph glyph-name="uni04DD" unicode="&#x4dd;" horiz-adv-x="1570" 
d="M1534 1108l-457 -535l471 -573h-229l-434 551v-551h-187v551l-434 -551h-229l471 573l-457 535h227l422 -516v516h187v-516l422 516h227zM473 1427q0 44 32.5 75.5t76.5 31.5q46 0 79 -31.5t33 -75.5t-33 -76t-79 -32q-44 0 -76.5 32t-32.5 76zM893 1427q0 44 32.5 75.5
t78.5 31.5t77 -31t31 -76t-31.5 -76.5t-76.5 -31.5q-46 0 -78.5 32t-32.5 76z" />
    <glyph glyph-name="uni04DE" unicode="&#x4de;" horiz-adv-x="1179" 
d="M535 -33q-244 0 -433 137v215q68 -71 182.5 -122.5t231.5 -51.5q153 0 246.5 77.5t93.5 205.5q0 131 -92 197.5t-264 66.5h-176v168h194q141 0 225 70t84 192q0 121 -85.5 190.5t-231.5 69.5q-209 0 -383 -122v196q180 100 405 100q237 0 362.5 -111.5t125.5 -301.5
q0 -126 -71.5 -223.5t-172.5 -135.5q123 -30 199 -129t76 -241q0 -198 -140.5 -322.5t-375.5 -124.5zM258 1845q0 44 32.5 75.5t76.5 31.5q46 0 79 -31.5t33 -75.5t-33 -76t-79 -32q-44 0 -76.5 32t-32.5 76zM678 1845q0 44 32 75.5t78 31.5t77.5 -31.5t31.5 -75.5
q0 -45 -31.5 -76.5t-77.5 -31.5t-78 32t-32 76z" />
    <glyph glyph-name="uni04DF" unicode="&#x4df;" horiz-adv-x="1009" 
d="M485 -25q-218 0 -383 127v199q76 -71 173.5 -115.5t207.5 -44.5q106 0 170 47.5t64 128.5q0 80 -68 125t-192 45h-168v152h174q105 0 163 47.5t58 128.5q0 72 -59.5 112t-165.5 40q-89 0 -177.5 -30t-156.5 -85v186q68 45 160 70t188 25q186 0 291.5 -81.5t105.5 -217.5
q0 -94 -53.5 -165.5t-132.5 -97.5q100 -25 159.5 -98t59.5 -174q0 -140 -115 -232t-303 -92zM164 1427q0 44 32 75.5t76 31.5q46 0 79.5 -31.5t33.5 -75.5t-33.5 -76t-79.5 -32q-44 0 -76 32t-32 76zM584 1427q0 44 32 75.5t78 31.5t77.5 -31.5t31.5 -75.5
q0 -45 -31.5 -76.5t-77.5 -31.5t-78 32t-32 76z" />
    <glyph glyph-name="uni04E0" unicode="&#x4e0;" horiz-adv-x="1214" 
d="M553 -33q-247 0 -440 144v215q68 -74 184 -127.5t235 -53.5q156 0 252.5 82t96.5 219q0 140 -108 212.5t-320 72.5h-103v111l395 504h-614v178h881v-121l-424 -512q235 -20 361 -144.5t126 -310.5q0 -208 -142.5 -338.5t-379.5 -130.5z" />
    <glyph glyph-name="uni04E1" unicode="&#x4e1;" horiz-adv-x="1083" 
d="M463 -457q-221 0 -383 125v213q63 -66 162 -113t202 -47q152 0 244 81t92 218q0 141 -98.5 214t-290.5 73h-96v111l362 506h-563v176h819v-119l-393 -518q218 -18 335.5 -142t117.5 -309q0 -208 -139 -338.5t-371 -130.5z" />
    <glyph glyph-name="uni04E2" unicode="&#x4e2;" horiz-adv-x="1632" 
d="M209 0v1524h182v-1233h2l844 1233h186v-1524h-182v1241h-2l-844 -1241h-186zM475 1776v139h682v-139h-682z" />
    <glyph glyph-name="uni04E3" unicode="&#x4e3;" horiz-adv-x="1263" 
d="M174 0v1106h178v-825h4l555 825h179v-1106h-179v819h-2l-547 -819h-188zM287 1358v139h682v-139h-682z" />
    <glyph glyph-name="uni04E4" unicode="&#x4e4;" horiz-adv-x="1632" 
d="M209 0v1524h182v-1233h2l844 1233h186v-1524h-182v1241h-2l-844 -1241h-186zM498 1845q0 44 32 75.5t76 31.5q46 0 79.5 -31.5t33.5 -75.5t-33.5 -76t-79.5 -32q-44 0 -76 32t-32 76zM918 1845q0 44 32 75.5t78 31.5t77.5 -31.5t31.5 -75.5q0 -45 -31.5 -76.5
t-77.5 -31.5t-78 32t-32 76z" />
    <glyph glyph-name="uni04E5" unicode="&#x4e5;" horiz-adv-x="1263" 
d="M174 0v1106h178v-825h4l555 825h179v-1106h-179v819h-2l-547 -819h-188zM307 1427q0 44 32.5 75.5t76.5 31.5q46 0 79 -31.5t33 -75.5t-33 -76t-79 -32q-44 0 -76.5 32t-32.5 76zM727 1427q0 44 32.5 75.5t78.5 31.5t77 -31t31 -76t-31.5 -76.5t-76.5 -31.5
q-46 0 -78.5 32t-32.5 76z" />
    <glyph glyph-name="uni04E6" unicode="&#x4e6;" horiz-adv-x="1734" 
d="M868 150q109 0 210 42t179.5 118t125.5 193.5t47 258.5t-47 258.5t-125.5 193.5t-179.5 118t-210 42q-88 0 -171 -26t-154 -78.5t-124 -124.5t-83.5 -171t-30.5 -212q0 -114 30.5 -213t84.5 -171t125 -124t153.5 -78t169.5 -26zM111 762q0 222 97.5 403t271 285
t388.5 104q160 0 300.5 -61t240.5 -166t157.5 -252t57.5 -313q0 -224 -98 -405.5t-271 -284.5t-387 -103q-161 0 -302 60.5t-240.5 165t-157 252t-57.5 315.5zM551 1845q0 44 32 75.5t76 31.5q46 0 79.5 -31.5t33.5 -75.5t-33.5 -76t-79.5 -32q-44 0 -76 32t-32 76z
M971 1845q0 44 32 75.5t78 31.5t77.5 -31.5t31.5 -75.5q0 -45 -32 -76.5t-77 -31.5q-46 0 -78 32t-32 76z" />
    <glyph glyph-name="uni04E7" unicode="&#x4e7;" 
d="M653 -25q-156 0 -282.5 74.5t-198.5 207t-72 296.5t72 297t198.5 208t282.5 75q235 0 392 -165t157 -415q0 -123 -42 -230.5t-115 -183.5t-174.5 -120t-217.5 -44zM291 553q0 -93 30.5 -170t81 -127t115.5 -77t135 -27q146 0 253.5 109.5t107.5 291.5q0 93 -30.5 170.5
t-81 127.5t-115 77.5t-134.5 27.5t-135 -27.5t-115.5 -77.5t-81 -127.5t-30.5 -170.5zM332 1403q0 44 32 75t76 31q46 0 79.5 -31t33.5 -75t-33.5 -76.5t-79.5 -32.5q-44 0 -76 32.5t-32 76.5zM752 1403q0 44 32 75t78 31t77.5 -31t31.5 -75q0 -45 -32 -77t-77 -32
q-46 0 -78 32t-32 77z" />
    <glyph glyph-name="uni04E8" unicode="&#x4e8;" horiz-adv-x="1734" 
d="M868 -31q-161 0 -302 60.5t-240.5 165t-157 252t-57.5 315.5q0 222 97.5 403t271 285t388.5 104q160 0 300.5 -61t240.5 -166t157.5 -252t57.5 -313q0 -224 -98 -405.5t-271 -284.5t-387 -103zM303 696q14 -170 98 -297.5t206 -190.5t261 -63t260.5 64t204.5 191.5
t97 295.5h-1127zM305 850h1122q-14 123 -66 224t-128 166.5t-170 101.5t-195 36q-102 0 -197 -36t-171.5 -101.5t-128.5 -166.5t-66 -224z" />
    <glyph glyph-name="uni04E9" unicode="&#x4e9;" 
d="M653 -25q-156 0 -282.5 74.5t-198.5 207t-72 296.5t72 297t198.5 208t282.5 75q235 0 392 -165t157 -415q0 -123 -42 -230.5t-115 -183.5t-174.5 -120t-217.5 -44zM287 492q18 -161 123.5 -255t242.5 -94q135 0 241 94.5t124 254.5h-731zM287 623h731q-21 158 -125.5 250
t-239.5 92t-240 -92t-126 -250z" />
    <glyph glyph-name="uni04EA" unicode="&#x4ea;" horiz-adv-x="1734" 
d="M868 -31q-161 0 -302 60.5t-240.5 165t-157 252t-57.5 315.5q0 222 97.5 403t271 285t388.5 104q160 0 300.5 -61t240.5 -166t157.5 -252t57.5 -313q0 -224 -98 -405.5t-271 -284.5t-387 -103zM303 696q14 -170 98 -297.5t206 -190.5t261 -63t260.5 64t204.5 191.5
t97 295.5h-1127zM305 850h1122q-14 123 -66 224t-128 166.5t-170 101.5t-195 36q-102 0 -197 -36t-171.5 -101.5t-128.5 -166.5t-66 -224zM551 1845q0 44 32 75.5t76 31.5q46 0 79.5 -31.5t33.5 -75.5t-33.5 -76t-79.5 -32q-44 0 -76 32t-32 76zM971 1845q0 44 32 75.5
t78 31.5t77.5 -31.5t31.5 -75.5q0 -45 -32 -76.5t-77 -31.5q-46 0 -78 32t-32 76z" />
    <glyph glyph-name="uni04EB" unicode="&#x4eb;" 
d="M653 -25q-156 0 -282.5 74.5t-198.5 207t-72 296.5t72 297t198.5 208t282.5 75q235 0 392 -165t157 -415q0 -123 -42 -230.5t-115 -183.5t-174.5 -120t-217.5 -44zM287 492q18 -161 123.5 -255t242.5 -94q135 0 241 94.5t124 254.5h-731zM287 623h731q-21 158 -125.5 250
t-239.5 92t-240 -92t-126 -250zM332 1403q0 44 32 75t76 31q46 0 79.5 -31t33.5 -75t-33.5 -76.5t-79.5 -32.5q-44 0 -76 32.5t-32 76.5zM752 1403q0 44 32 75t78 31t77.5 -31t31.5 -75q0 -45 -32 -77t-77 -32q-46 0 -78 32t-32 77z" />
    <glyph glyph-name="uni04EC" unicode="&#x4ec;" horiz-adv-x="1413" 
d="M532 -25q-228 0 -421 99v190q188 -108 409 -108q154 0 278.5 58t206.5 179t97 291h-758v168h756q-16 165 -97 283.5t-203 175.5t-272 57q-242 0 -417 -106v188q201 98 432 98q154 0 290.5 -53t241 -150.5t165 -248t60.5 -334.5q0 -148 -39.5 -275t-110.5 -220
t-167 -159.5t-210.5 -99.5t-240.5 -33zM295 1845q0 44 32 75.5t76 31.5q46 0 79.5 -31.5t33.5 -75.5t-33.5 -76t-79.5 -32q-44 0 -76 32t-32 76zM715 1845q0 44 32 75.5t78 31.5t77.5 -31.5t31.5 -75.5q0 -45 -32 -76.5t-77 -31.5q-46 0 -78 32t-32 76z" />
    <glyph glyph-name="uni04ED" unicode="&#x4ed;" horiz-adv-x="1097" 
d="M432 -25q-195 0 -328 72v176q122 -82 314 -82q162 0 267 91t124 253h-530v150h530q-22 156 -125.5 244t-261.5 88q-189 0 -318 -82v174q132 74 330 74q246 0 404.5 -160t158.5 -418q0 -130 -43 -239.5t-118 -184t-179 -115.5t-225 -41zM170 1427q0 44 32.5 75.5
t76.5 31.5q46 0 79 -31.5t33 -75.5t-33 -76t-79 -32q-44 0 -76.5 32t-32.5 76zM590 1427q0 44 32 75.5t78 31.5t77.5 -31.5t31.5 -75.5q0 -45 -31.5 -76.5t-77.5 -31.5t-78 32t-32 76z" />
    <glyph glyph-name="uni04EE" unicode="&#x4ee;" horiz-adv-x="1355" 
d="M291 158q133 0 214 50t144 177l-620 1139h209l507 -955l404 955h199l-500 -1137q-94 -219 -221 -308t-336 -89v168zM367 1776v139h682v-139h-682z" />
    <glyph glyph-name="uni04EF" unicode="&#x4ef;" horiz-adv-x="1105" 
d="M1063 1108l-600 -1538h-193l191 469l-414 1069h205l305 -844h4l305 844h197zM219 1360v139h682v-139h-682z" />
    <glyph glyph-name="uni04F0" unicode="&#x4f0;" horiz-adv-x="1355" 
d="M291 158q133 0 214 50t144 177l-620 1139h209l507 -955l404 955h199l-500 -1137q-94 -219 -221 -308t-336 -89v168zM389 1845q0 44 32.5 75.5t76.5 31.5q46 0 79 -31.5t33 -75.5t-33 -76t-79 -32q-44 0 -76.5 32t-32.5 76zM809 1845q0 44 32.5 75.5t78.5 31.5t77 -31
t31 -76t-31.5 -76.5t-76.5 -31.5q-46 0 -78.5 32t-32.5 76z" />
    <glyph glyph-name="uni04F1" unicode="&#x4f1;" horiz-adv-x="1105" 
d="M1063 1108l-600 -1538h-193l191 469l-414 1069h205l305 -844h4l305 844h197zM242 1430q0 44 32 75t76 31q46 0 79.5 -31t33.5 -75t-33.5 -76.5t-79.5 -32.5q-44 0 -76 32.5t-32 76.5zM662 1430q0 44 32 75t78 31t77.5 -31t31.5 -75q0 -45 -32 -77t-77 -32q-46 0 -78 32.5
t-32 76.5z" />
    <glyph glyph-name="uni04F2" unicode="&#x4f2;" horiz-adv-x="1355" 
d="M291 158q133 0 214 50t144 177l-620 1139h209l507 -955l404 955h199l-500 -1137q-94 -219 -221 -308t-336 -89v168zM369 1692l305 344h211l-353 -344h-163zM725 1692l303 344h211l-352 -344h-162z" />
    <glyph glyph-name="uni04F3" unicode="&#x4f3;" horiz-adv-x="1105" 
d="M1063 1108l-600 -1538h-193l191 469l-414 1069h205l305 -844h4l305 844h197zM219 1276l305 344h211l-352 -344h-164zM575 1276l304 344h211l-353 -344h-162z" />
    <glyph glyph-name="uni04F4" unicode="&#x4f4;" horiz-adv-x="1320" 
d="M565 575q-225 0 -343 116.5t-118 348.5v484h191v-449q0 -167 77.5 -244t241.5 -77q158 0 306 61v709h192v-1524h-192v637q-168 -62 -355 -62zM311 1845q0 44 32.5 75.5t76.5 31.5q46 0 79 -31.5t33 -75.5t-33 -76t-79 -32q-44 0 -76.5 32t-32.5 76zM731 1845
q0 44 32.5 75.5t78.5 31.5t77 -31t31 -76t-31.5 -76.5t-76.5 -31.5q-46 0 -78.5 32t-32.5 76z" />
    <glyph glyph-name="uni04F5" unicode="&#x4f5;" horiz-adv-x="1097" 
d="M459 389q-181 0 -274 91t-93 270v358h189v-317q0 -121 56.5 -177.5t176.5 -56.5q124 0 221 41v510h189v-1108h-189v436q-139 -47 -276 -47zM197 1427q0 44 32 75.5t76 31.5q46 0 79.5 -31.5t33.5 -75.5t-33.5 -76t-79.5 -32q-44 0 -76 32t-32 76zM616 1427
q0 44 32.5 75.5t78.5 31.5t77.5 -31.5t31.5 -75.5q0 -45 -32 -76.5t-77 -31.5q-46 0 -78.5 32t-32.5 76z" />
    <glyph glyph-name="uni04F6" unicode="&#x4f6;" horiz-adv-x="1052" 
d="M416 -348v348h-207v1524h799v-178h-609v-1168h193v-526h-176z" />
    <glyph glyph-name="uni04F7" unicode="&#x4f7;" horiz-adv-x="868" 
d="M348 -264v264h-174v1108h651v-162h-463v-784h160v-426h-174z" />
    <glyph glyph-name="uni04F8" unicode="&#x4f8;" horiz-adv-x="1771" 
d="M209 0v1524h190v-545h179q270 0 425.5 -124.5t155.5 -354.5q0 -233 -160.5 -366.5t-423.5 -133.5h-366zM399 172h187q178 0 279.5 85t101.5 239q0 152 -100.5 231.5t-280.5 79.5h-187v-635zM569 1845q0 44 32.5 75.5t76.5 31.5q46 0 79.5 -31.5t33.5 -75.5t-33.5 -76
t-79.5 -32q-44 0 -76.5 32t-32.5 76zM989 1845q0 44 32.5 75.5t78.5 31.5t77 -31t31 -76t-31.5 -76.5t-76.5 -31.5q-46 0 -78.5 32t-32.5 76zM1370 0v1524h193v-1524h-193z" />
    <glyph glyph-name="uni04F9" unicode="&#x4f9;" horiz-adv-x="1488" 
d="M174 0v1108h188v-381h209q178 0 287 -100t109 -258q0 -159 -119.5 -264t-302.5 -105h-371zM362 152h179q107 0 173 60.5t66 156.5t-58.5 151t-162.5 55h-197v-423zM393 1427q0 44 32.5 75.5t76.5 31.5q46 0 79 -31.5t33 -75.5t-33 -76t-79 -32q-44 0 -76.5 32t-32.5 76z
M813 1427q0 44 32.5 75.5t78.5 31.5t77 -31t31 -76t-31.5 -76.5t-76.5 -31.5q-46 0 -78.5 32t-32.5 76zM1126 0v1108h189v-1108h-189z" />
    <glyph glyph-name="uni04FC" unicode="&#x4fc;" horiz-adv-x="1347" 
d="M870 -430q179 165 179 383q0 28 -4.5 56t-9.5 49.5t-17.5 49.5t-20 43.5t-27 45.5t-27.5 41.5t-31.5 44.5t-30.5 43l-209 297l-418 -623h-217l518 766l-510 758h221l412 -615l407 615h218l-510 -754l217 -307q6 -8 35.5 -49.5t36 -50.5t31.5 -45.5t31.5 -49t25.5 -45.5
t24.5 -50t17.5 -48t15.5 -54t7.5 -52.5t4 -59.5q0 -215 -143 -389h-226z" />
    <glyph glyph-name="uni04FD" unicode="&#x4fd;" horiz-adv-x="1085" 
d="M641 -430q74 69 118 157.5t44 186.5q0 60 -19.5 118t-41.5 94t-72 110l-127 188h-2l-285 -424h-209l385 555l-381 553h211l279 -418h4l278 418h205l-377 -545l148 -207q41 -58 55.5 -78.5t44.5 -66.5t40.5 -71t26 -64.5t20.5 -75t5 -76.5q0 -200 -131 -354h-219z" />
    <glyph glyph-name="uni0510" unicode="&#x510;" horiz-adv-x="1179" 
d="M641 -33q-234 0 -373 124.5t-139 322.5q0 142 75.5 240t198.5 130q-102 38 -172.5 133t-70.5 220q0 190 127 304.5t364 114.5q222 0 402 -100v-196q-177 122 -379 122q-147 0 -234.5 -72t-87.5 -194q0 -121 84 -188.5t226 -67.5h194v-168h-176q-172 0 -264 -66.5
t-92 -197.5q0 -129 91.5 -206t243.5 -77q116 0 232.5 56t183.5 131v-215q-192 -150 -434 -150z" />
    <glyph glyph-name="uni0511" unicode="&#x511;" horiz-adv-x="1005" 
d="M522 -25q-188 0 -303 92t-115 232q0 101 61 174t161 98q-80 24 -133.5 95t-53.5 165q0 137 106 219.5t292 82.5q202 0 348 -95v-186q-68 55 -157 85t-177 30q-106 0 -166.5 -40t-60.5 -112q0 -81 58.5 -128.5t164.5 -47.5h174v-152h-170q-124 0 -191 -45t-67 -125
q0 -81 63.5 -128.5t169.5 -47.5q208 0 381 162v-199q-170 -129 -385 -129z" />
    <glyph glyph-name="uni0512" unicode="&#x512;" horiz-adv-x="1427" 
d="M8 160q151 0 220 124t69 394v846h922v-1377q0 -186 -40 -323t-132 -254h-226q106 111 156.5 245t50.5 328v1203h-545v-664q0 -355 -114.5 -522.5t-360.5 -167.5v168z" />
    <glyph glyph-name="uni0513" unicode="&#x513;" horiz-adv-x="1167" 
d="M37 158q106 0 154.5 79t48.5 261v610h753v-961q0 -186 -40 -323t-132 -254h-223q106 111 156.5 245t50.5 328v801h-379v-459q0 -254 -95.5 -373.5t-293.5 -119.5v166z" />
    <glyph glyph-name="uni051C" unicode="&#x51c;" horiz-adv-x="2195" 
d="M1501 0l-401 1255l-402 -1255h-202l-455 1524h201l360 -1274h2l404 1274h184l407 -1276h3l354 1276h194l-448 -1524h-201z" />
    <glyph glyph-name="uni051D" unicode="&#x51d;" horiz-adv-x="1751" 
d="M1159 0l-278 868h-7l-280 -868h-215l-313 1108h196l232 -897h4l282 897h197l280 -897h7l235 897h187l-312 -1108h-215z" />
    <glyph glyph-name="uni0524" unicode="&#x524;" horiz-adv-x="1617" 
d="M209 0v1524h1132v-1346h195v-526h-176v348h-209v1346h-752v-1346h-190z" />
    <glyph glyph-name="uni0525" unicode="&#x525;" horiz-adv-x="1292" 
d="M174 0v1108h881v-946h159v-426h-174v264h-174v944h-504v-944h-188z" />
    <glyph glyph-name="uni0526" unicode="&#x526;" horiz-adv-x="1501" 
d="M1241 -348v348h-207v436q0 167 -73.5 242.5t-233.5 75.5q-184 0 -328 -64v-690h-190v1524h190v-650q166 58 365 58q461 0 461 -451v-303h194v-526h-178z" />
    <glyph glyph-name="uni0527" unicode="&#x527;" horiz-adv-x="1316" 
d="M1065 -264v264h-174v668q0 288 -254 288q-118 0 -197.5 -69.5t-79.5 -200.5v-686h-188v1638h188v-663h2q48 72 133 115t185 43q186 0 292.5 -104t106.5 -296v-571h160v-426h-174z" />
    <glyph glyph-name="uni10D0" unicode="&#x10d0;" horiz-adv-x="1296" 
d="M645 -25q-149 0 -274 63.5t-198 176t-73 250.5q0 77 27 160h188q-24 -77 -24 -146q0 -151 99.5 -239t256.5 -88q150 0 254.5 87t104.5 230q0 61 -22 113.5t-58.5 93.5t-80.5 81t-91 87t-88 100.5t-72 131.5t-43 171h188q11 -72 43 -134.5t73 -108t88 -89t91.5 -88
t81 -93.5t58.5 -117t22 -148q0 -100 -41 -190.5t-112.5 -157.5t-175 -106.5t-222.5 -39.5z" />
    <glyph glyph-name="uni10D1" unicode="&#x10d1;" 
d="M653 -25q-159 0 -286 76.5t-197 208t-70 293.5q0 221 129.5 381t333.5 192q15 64 15 109q0 46 -15.5 79.5t-41 53.5t-56.5 35.5t-64 33.5t-62 40.5t-52.5 62.5t-32.5 94h195q10 -41 39 -70.5t63.5 -44t73 -35t69.5 -43.5t51.5 -70.5t20.5 -115.5q0 -60 -14 -131
q201 -34 325.5 -193t124.5 -378q0 -161 -69 -292.5t-195 -208.5t-285 -77zM291 553q0 -181 105.5 -291t256.5 -110q150 0 255.5 111t105.5 290q0 182 -105.5 292.5t-255.5 110.5t-256 -110.5t-106 -292.5z" />
    <glyph glyph-name="uni10D2" unicode="&#x10d2;" horiz-adv-x="1179" 
d="M590 -455q-233 0 -384 147.5t-151 373.5q0 171 110 303.5t349 253.5q141 70 191.5 116t50.5 103q0 60 -49 98.5t-127 38.5q-94 0 -153.5 -45t-59.5 -115q0 -16 8 -78h-170q-12 58 -12 117q0 124 109 199.5t288 75.5q155 0 253.5 -79.5t98.5 -205.5q0 -82 -44 -144
t-157 -129q180 -92 281.5 -222.5t101.5 -286.5q0 -140 -67.5 -259t-190.5 -190.5t-276 -71.5zM244 66q0 -152 97.5 -248.5t248.5 -96.5q153 0 249.5 98.5t96.5 246.5q0 128 -89.5 238t-256.5 190q-179 -93 -262.5 -195.5t-83.5 -232.5z" />
    <glyph glyph-name="uni10D3" unicode="&#x10d3;" horiz-adv-x="1959" 
d="M356 -426v162l473 -10q-277 78 -462 254q-75 71 -129.5 155t-83 167.5t-41.5 158.5t-13 149q0 151 47 268t141 186t222 69q80 0 146.5 -47.5t110 -123t73.5 -176.5q70 172 196 259.5t285 87.5q153 0 276.5 -74.5t193 -204.5t69.5 -289q0 -155 -69.5 -283t-196.5 -204
t-285 -76q-118 0 -216 40.5t-165.5 110.5t-110 158t-59.5 189q-13 74 -25.5 131.5t-34 121.5t-45.5 106.5t-59.5 70.5t-77.5 28q-112 0 -168.5 -98.5t-56.5 -259.5q0 -84 17.5 -168.5t68.5 -185.5t131 -183q289 -303 881 -327v-162h-1033zM946 567q0 -176 106.5 -284.5
t256.5 -108.5q151 0 256.5 109t105.5 284t-105.5 284.5t-256.5 109.5q-150 0 -256.5 -109.5t-106.5 -284.5z" />
    <glyph glyph-name="uni10D4" unicode="&#x10d4;" horiz-adv-x="1230" 
d="M569 -453q-98 0 -186 32.5t-157 92.5t-109.5 154t-40.5 209q0 82 26 164h187q-25 -80 -25 -146q0 -154 88.5 -240.5t216.5 -86.5q61 0 118 22.5t104 66t75.5 116.5t28.5 165v434q0 230 -74 334.5t-221 104.5q-110 0 -188 -62t-78 -178q0 -54 10 -90h-178q-14 60 -14 117
q0 94 38 168t103 118.5t145 67.5t170 23q225 0 349 -147.5t124 -434.5v-457q0 -106 -28 -195.5t-76.5 -153.5t-113.5 -109t-139.5 -67t-154.5 -22z" />
    <glyph glyph-name="uni10D5" unicode="&#x10d5;" horiz-adv-x="1214" 
d="M610 -455q-146 0 -267.5 58.5t-194 168t-72.5 248.5q0 76 24 152h187q-21 -70 -21 -133q0 -136 98.5 -227t247.5 -91q137 0 235.5 84t98.5 224q0 119 -89.5 206t-250.5 87h-147v157h116q143 0 223.5 78t80.5 182q0 94 -67.5 162t-188.5 68q-68 0 -126.5 -23.5
t-98.5 -77.5t-40 -129q0 -42 11 -82h-181q-12 61 -12 113q0 75 26.5 136.5t70.5 103t103.5 70t123 41t131.5 12.5q105 0 189 -32t136 -86t79.5 -122t27.5 -143q0 -109 -59.5 -201.5t-169.5 -136.5q145 -41 224 -148.5t79 -240.5q0 -88 -29 -165.5t-79 -134t-116.5 -97
t-144 -61t-158.5 -20.5z" />
    <glyph glyph-name="uni10D6" unicode="&#x10d6;" horiz-adv-x="1777" 
d="M1139 -25q-249 0 -393 171.5t-144 469.5v322q-82 -82 -215 -82q-158 0 -263.5 108.5t-105.5 286.5q0 174 106.5 286t281.5 112q174 0 279.5 -112t105.5 -286v-331h4q52 96 162.5 154.5t234.5 58.5q137 0 248.5 -75.5t174 -208t62.5 -294.5q0 -250 -153 -415t-385 -165z
M207 1251q0 -106 55 -175.5t144 -69.5t142.5 69.5t53.5 175.5q0 107 -53.5 176.5t-142.5 69.5t-144 -70t-55 -176zM793 565q0 -182 96 -297.5t248 -115.5t252 114t100 287q0 177 -91.5 290t-240.5 113q-151 0 -257.5 -112.5t-106.5 -278.5z" />
    <glyph glyph-name="uni10D7" unicode="&#x10d7;" horiz-adv-x="1959" 
d="M653 -25q-159 0 -286 76.5t-197 208t-70 293.5q0 163 70.5 296t194.5 208.5t276 75.5q153 0 269 -77.5t184 -215.5q43 143 134 218t224 75q192 0 300 -143t108 -394q0 -159 -42 -316.5t-116 -279.5h-193q76 125 119 283.5t43 314.5q0 176 -58 267t-173 91
q-117 0 -177.5 -96.5t-60.5 -306.5q0 -161 -69 -292.5t-195 -208.5t-285 -77zM291 553q0 -181 105.5 -291t256.5 -110q150 0 255.5 111t105.5 290q0 180 -105.5 291.5t-255.5 111.5t-256 -111.5t-106 -291.5z" />
    <glyph glyph-name="uni10D8" unicode="&#x10d8;" 
d="M254 0q-43 77 -72 143.5t-55.5 179.5t-26.5 230q0 161 70 293.5t197 209.5t286 77t285 -77.5t195 -209.5t69 -293q0 -291 -149 -553h-193q63 124 108.5 272t45.5 273q0 181 -104.5 296t-256.5 115q-154 0 -258 -115t-104 -296q0 -129 45 -278t110 -267h-192z" />
    <glyph glyph-name="uni10D9" unicode="&#x10d9;" horiz-adv-x="1198" 
d="M598 -455q-152 0 -275 62t-193.5 172t-70.5 246q0 67 25 147h186q-20 -67 -20 -137q0 -140 95.5 -227t250.5 -87q88 0 162 33.5t123 106t49 170.5q0 118 -90.5 204.5t-249.5 86.5h-148v157h117q142 0 223.5 77.5t81.5 182.5q0 70 -40 128t-113 85v172q157 -28 246.5 -133
t89.5 -241q0 -109 -60 -201.5t-170 -136.5q146 -41 224.5 -148.5t78.5 -243.5q0 -106 -42 -196.5t-113 -151t-166 -94t-201 -33.5z" />
    <glyph glyph-name="uni10DA" unicode="&#x10da;" horiz-adv-x="2375" 
d="M356 -426v164h432q-265 84 -438 260q-92 94 -150.5 210t-79 212t-20.5 188q0 242 108.5 381t299.5 139q123 0 210.5 -64t133.5 -187q89 251 336 251q245 0 334 -251q92 251 344 251q192 0 299.5 -140.5t107.5 -391.5q0 -161 -41 -318t-116 -278h-193q76 124 119 282.5
t43 315.5q0 354 -230 354q-114 0 -176.5 -91t-62.5 -255v-321h-189v321q0 166 -62.5 256t-176.5 90t-177 -91t-63 -255v-321h-188v321q0 165 -64 255.5t-178 90.5q-229 0 -229 -354q0 -55 10 -114.5t33 -131t70 -146.5t112 -140q331 -331 1079 -328v-164h-1237z" />
    <glyph glyph-name="uni10DB" unicode="&#x10db;" horiz-adv-x="1325" 
d="M639 -25q-152 0 -275.5 75t-193.5 207t-70 296q0 242 147 402.5t361 160.5q119 0 221 -56t156 -149h2v166q0 216 -92.5 316t-249.5 100q-125 0 -206 -57t-81 -156q0 -21 4 -45h-180q-6 34 -6 65q0 165 130.5 257t338.5 92q90 0 166.5 -17.5t145 -59.5t116 -106t75.5 -162
t28 -223v-465q0 -298 -144 -469.5t-393 -171.5zM291 551q0 -172 99.5 -285.5t250.5 -113.5q152 0 248 114.5t96 296.5q0 166 -99 277.5t-247 111.5q-152 0 -250 -113.5t-98 -287.5z" />
    <glyph glyph-name="uni10DC" unicode="&#x10dc;" horiz-adv-x="1325" 
d="M686 -25q-250 0 -393 171.5t-143 469.5v1033q224 -45 460 -45q240 0 461 45v-170q-193 -45 -453 -45q-136 0 -280 16v-539h2q54 92 162 148.5t231 56.5q210 0 351 -160t141 -403q0 -164 -70.5 -296.5t-193.5 -207t-275 -74.5zM338 563q0 -181 97 -296t249 -115
q151 0 250.5 113.5t99.5 285.5q0 175 -91.5 288t-240.5 113q-151 0 -257.5 -112.5t-106.5 -276.5z" />
    <glyph glyph-name="uni10DD" unicode="&#x10dd;" horiz-adv-x="1705" 
d="M256 0q-73 126 -114.5 283.5t-41.5 312.5q0 251 108 394t300 143q123 0 211 -66.5t135 -192.5q44 126 132 192.5t212 66.5q192 0 300 -143t108 -394q0 -160 -41.5 -317.5t-116.5 -278.5h-193q76 124 119 282.5t43 315.5q0 176 -58 267t-171 91q-114 0 -177 -92.5
t-63 -257.5v-342h-188v342q0 166 -64 258t-178 92q-229 0 -229 -358q0 -157 43 -314.5t119 -283.5h-195z" />
    <glyph glyph-name="uni10DE" unicode="&#x10de;" horiz-adv-x="1214" 
d="M614 -25q-230 0 -384 137t-154 343q0 71 24 147h189q-23 -77 -23 -137q0 -130 97 -220.5t249 -90.5q137 0 235.5 81.5t98.5 225.5q0 118 -90.5 204.5t-249.5 86.5h-147v157h116q147 0 224.5 62.5t77.5 163.5q0 53 -22 89t-58.5 57t-81.5 37.5t-95 39t-94.5 53t-83 87.5
t-59.5 136h188q14 -54 49.5 -93.5t79.5 -62t94.5 -41.5t97.5 -41t85.5 -52t62 -81.5t23.5 -123.5q0 -105 -56.5 -180.5t-166.5 -116.5q143 -43 220 -150t77 -241q0 -140 -72 -250t-190.5 -168t-260.5 -58z" />
    <glyph glyph-name="uni10DF" unicode="&#x10df;" horiz-adv-x="1247" 
d="M354 330q-159 0 -268 88v188q47 -53 115.5 -83.5t148.5 -30.5q69 0 114.5 32t45.5 84q0 66 -53.5 99.5t-149.5 33.5v183l791 184v-182v-860q0 -231 -144 -376t-368 -145q-212 0 -351 115.5t-139 294.5q0 46 13 106h188q-12 -53 -12 -96q0 -102 80 -173t217 -71
q145 0 236 98t91 257v807l-360 -86q121 -71 121 -205q0 -111 -84.5 -186.5t-231.5 -75.5z" />
    <glyph glyph-name="uni10E0" unicode="&#x10e0;" horiz-adv-x="1705" 
d="M256 0q-73 126 -114.5 283.5t-41.5 312.5q0 145 17 268t48 220t79 175.5t105 136t131 101t151.5 71t173 44.5t189 23.5t204.5 6.5v-178q-94 0 -170 -4t-157 -14.5t-146 -28.5t-129 -47t-113.5 -68.5t-93 -95.5t-74.5 -125q83 47 193 47q123 0 211 -64.5t135 -189.5
q44 126 131.5 190t212.5 64q192 0 300 -141t108 -391q0 -160 -41.5 -317.5t-116.5 -278.5h-193q76 124 119 282.5t43 315.5q0 354 -229 354q-114 0 -177 -91t-63 -255v-342h-188v342q0 165 -64 255.5t-178 90.5q-229 0 -229 -354q0 -157 43 -314.5t119 -283.5h-195z" />
    <glyph glyph-name="uni10E1" unicode="&#x10e1;" horiz-adv-x="1327" 
d="M338 512q0 -90 29.5 -161.5t79 -115.5t111.5 -67t130 -23t130 23.5t111.5 67.5t79 115.5t29.5 160.5q0 56 -17 101.5t-43.5 75t-60 68.5t-64.5 79.5t-58.5 111.5t-40.5 160h188q11 -77 45 -138.5t73.5 -103.5t77.5 -87t63.5 -112t25.5 -155q0 -241 -152 -391t-389 -150
q-234 0 -385 149.5t-151 391.5v1122h188v-1122z" />
    <glyph glyph-name="uni10E2" unicode="&#x10e2;" horiz-adv-x="1626" 
d="M815 -455q-162 0 -303 60.5t-241.5 165t-158 252t-57.5 315.5q0 209 88 383t244.5 281t353.5 124l-24 398h190l-24 -396q197 -17 353.5 -124t244.5 -281.5t88 -384.5q0 -224 -97.5 -405.5t-270 -284.5t-386.5 -103zM252 338q0 -141 47 -259t125.5 -194t179.5 -117.5
t211 -41.5q108 0 208.5 42t178.5 118t125 193.5t47 258.5q0 130 -40 240t-108 185.5t-156 122.5t-187 60l24 -454h-190l24 454q-100 -13 -188 -60.5t-155.5 -123t-106.5 -185.5t-39 -239z" />
    <glyph glyph-name="uni10E3" unicode="&#x10e3;" horiz-adv-x="1314" 
d="M653 -455q-97 0 -185.5 32.5t-156.5 91.5t-108.5 151t-40.5 203q0 71 24 147h189q-23 -68 -23 -137q0 -143 87 -226t212 -83q62 0 119.5 22.5t104 66.5t74.5 116.5t28 164.5v506q0 174 -65.5 265t-182.5 91t-194.5 -93.5t-77.5 -252.5v-149h-189v149q0 165 -64.5 255.5
t-185.5 90.5v177q124 0 212.5 -66.5t134.5 -192.5q53 124 155 191.5t230 67.5q193 0 304 -141.5t111 -391.5v-516q0 -127 -42.5 -231t-114 -170.5t-163 -102t-192.5 -35.5z" />
    <glyph glyph-name="uni10E4" unicode="&#x10e4;" horiz-adv-x="1650" 
d="M932 -455q-95 0 -185.5 18.5t-170.5 57t-140.5 92.5t-95.5 131t-35 168q0 43 14 115h191q-12 -55 -12 -96q0 -101 65 -174t162 -106.5t211 -33.5q116 0 215.5 34.5t166 109t66.5 176.5q0 54 -22 104t-63.5 91t-108 65.5t-148.5 24.5h-135v157h105q73 0 132 21.5t95 58
t55 81t19 93.5q0 104 -68 162.5t-176 58.5q-65 0 -115 -25t-82.5 -71t-51.5 -92.5t-34 -106.5q-15 -61 -44 -115.5t-74 -103t-113 -77.5t-149 -29q-175 0 -281.5 112.5t-106.5 286.5t105.5 287t273.5 113q120 0 211.5 -86t110.5 -207q50 131 147 212t228 81
q183 0 294 -102.5t111 -278.5q0 -109 -59 -202t-170 -138q147 -41 225 -148.5t78 -243.5q0 -92 -35.5 -170t-97 -133.5t-143.5 -94.5t-174.5 -58t-190.5 -19zM207 733q0 -106 55 -177t144 -71t142.5 70.5t53.5 177.5t-53.5 177.5t-142.5 70.5t-144 -71t-55 -177z" />
    <glyph glyph-name="uni10E5" unicode="&#x10e5;" horiz-adv-x="1214" 
d="M553 -455q-78 0 -150.5 20t-135 61t-109 98.5t-73 137t-26.5 171.5q0 80 27 166h188q-24 -79 -24 -148q0 -154 88 -242t215 -88q62 0 118.5 22.5t103 65.5t74.5 113.5t28 159.5v674h-576v172h576v714h188v-1570q0 -124 -42.5 -226t-114 -166.5t-163 -99.5t-192.5 -35z
" />
    <glyph glyph-name="uni10E6" unicode="&#x10e6;" horiz-adv-x="1705" 
d="M303 -426v164l541 -12q-302 86 -486 276q-94 94 -154.5 209.5t-82 210.5t-21.5 186q0 243 108.5 384t299.5 141q122 0 210 -65t136 -189q44 125 132 189.5t212 64.5q192 0 300 -141t108 -392q0 -155 -39 -306.5t-111 -277.5h-192q73 129 113 281t40 303q0 356 -229 356
q-114 0 -177 -91t-63 -255v-321h-188v321q0 164 -64 255t-178 91q-229 0 -229 -358q0 -80 19.5 -164t76.5 -188t145 -189q270 -266 803 -319v-164h-1030z" />
    <glyph glyph-name="uni10E7" unicode="&#x10e7;" horiz-adv-x="1228" 
d="M565 -455q-135 0 -246.5 52t-177 146t-65.5 212q0 51 12 106h191q-13 -57 -13 -96q0 -108 83 -176t214 -68q152 0 239 96.5t87 258.5v264q-57 -73 -149.5 -114.5t-198.5 -41.5q-61 0 -121 14.5t-123 51t-110 91t-77 143.5t-30 200q0 182 67 424h191q-70 -225 -70 -420
q0 -63 13 -115t34.5 -87.5t51 -62.5t59 -42.5t63.5 -25t60 -12.5t51 -3q132 0 210.5 73t78.5 193v502h190v-1042q0 -231 -143 -376t-371 -145z" />
    <glyph glyph-name="uni10E8" unicode="&#x10e8;" horiz-adv-x="1331" 
d="M645 -25q-152 0 -275 74.5t-193.5 207t-70.5 296.5q0 242 147 402.5t361 160.5q119 0 221 -56t156 -149h2v205q0 365 -231 365q-54 0 -101 -24.5t-75.5 -62t-45 -79t-16.5 -78.5h-188q0 92 -72.5 168t-187.5 76v168q255 0 354 -250q103 250 348 250q196 0 300 -140
t104 -393v-500q0 -298 -143.5 -469.5t-393.5 -171.5zM297 551q0 -172 99.5 -285.5t250.5 -113.5q152 0 249 115t97 296q0 166 -100 277.5t-248 111.5q-152 0 -250 -113.5t-98 -287.5z" />
    <glyph glyph-name="uni10E9" unicode="&#x10e9;" horiz-adv-x="1259" 
d="M815 0q62 109 109 257t47 275q0 186 -79.5 295t-213.5 109q-138 0 -239 -108.5t-101 -282.5v-545h-188v1010q0 162 38.5 286.5t107.5 200.5t158.5 114t196.5 38q104 0 186 -25t132 -66.5t76 -92t26 -105.5q0 -44 -14 -82h-191q15 27 15 61q0 65 -55 114.5t-175 49.5
q-49 0 -92 -14t-84.5 -50t-71 -92t-47.5 -147t-18 -209v-73q128 194 362 194q143 0 249 -75.5t158 -201t52 -282.5q0 -289 -151 -553h-193z" />
    <glyph glyph-name="uni10EA" unicode="&#x10ea;" horiz-adv-x="1402" 
d="M764 -455q-102 0 -196 27.5t-180 90t-149.5 154t-101 228t-37.5 303.5q0 384 189 760h190q-79 -139 -133.5 -333.5t-54.5 -412.5q0 -136 27.5 -246.5t73.5 -183.5t107.5 -122.5t127.5 -71t137 -21.5q92 0 175.5 35t140.5 108t57 169q0 121 -90 207t-250 86h-129v157h96
q144 0 223.5 65t79.5 148q0 43 -19.5 73t-51.5 48t-70.5 33t-80 34.5t-77 45t-63 72.5t-37.5 110h188q10 -39 37.5 -68t62.5 -46.5t76 -33.5t79.5 -36t70 -47t50.5 -72.5t19 -106.5q0 -91 -57.5 -168t-169.5 -120q147 -40 224 -145t77 -242q0 -106 -45.5 -196.5
t-122.5 -151.5t-179 -95.5t-214 -34.5z" />
    <glyph glyph-name="uni10EB" unicode="&#x10eb;" horiz-adv-x="1325" 
d="M1176 616q0 -298 -144 -469.5t-393 -171.5q-232 0 -385.5 165t-153.5 415q0 162 66 294.5t182 208t256 75.5q119 0 223 -58t158 -155h2v714h189v-1018zM291 553q0 -174 99 -287.5t251 -113.5t248 115.5t96 297.5q0 167 -99 279t-247 112q-152 0 -250 -114t-98 -289z" />
    <glyph glyph-name="uni10EC" unicode="&#x10ec;" horiz-adv-x="1314" 
d="M686 -25q-250 0 -393 171.5t-143 469.5v500q0 253 103.5 393t299.5 140q245 0 348 -250q99 250 354 250v-168q-115 0 -187.5 -76t-72.5 -168h-188q0 37 -16.5 78.5t-45 79t-75.5 62t-101 24.5q-231 0 -231 -365v-205h2q54 92 162 148.5t231 56.5q210 0 351 -160t141 -403
q0 -164 -70.5 -296.5t-193.5 -207t-275 -74.5zM338 563q0 -181 97 -296t249 -115q151 0 250.5 113.5t99.5 285.5q0 175 -91.5 288t-240.5 113q-151 0 -257.5 -112.5t-106.5 -276.5z" />
    <glyph glyph-name="uni10ED" unicode="&#x10ed;" horiz-adv-x="1431" 
d="M569 -453q-98 0 -186 32.5t-157 92.5t-109.5 154t-40.5 209q0 82 26 164h187q-25 -80 -25 -146q0 -154 88.5 -240.5t216.5 -86.5q62 0 118.5 22t103 64t74.5 112.5t28 159.5v477q-83 -90 -223 -90q-137 0 -221 82t-84 209q0 67 26.5 128.5t78 112t136 80.5t191.5 31h96
v520h188v-520h340v-158h-340v-882q0 -125 -42.5 -227t-114 -166.5t-163 -99t-192.5 -34.5zM559 766q0 -61 35.5 -103t99.5 -42q89 0 144 69.5t55 175.5v90h-96q-117 0 -177.5 -57t-60.5 -133z" />
    <glyph glyph-name="uni10EE" unicode="&#x10ee;" horiz-adv-x="1325" 
d="M150 1634h188v-714h2q54 97 158 155t223 58q140 0 256 -75.5t182 -208t66 -294.5q0 -164 -70.5 -297t-193.5 -208t-275 -75q-250 0 -393 171.5t-143 469.5v1018zM338 565q0 -182 97 -297.5t249 -115.5q151 0 250.5 114t99.5 287q0 175 -98 289t-250 114q-148 0 -248 -112
t-100 -279z" />
    <glyph glyph-name="uni10EF" unicode="&#x10ef;" horiz-adv-x="1185" 
d="M600 -455q-148 0 -271 62t-196.5 177.5t-73.5 262.5q0 80 27 166h186q-26 -74 -26 -150q0 -147 101.5 -244.5t254.5 -97.5q140 0 240 87t100 233q0 76 -28 142.5t-81 118.5t-138.5 82t-192.5 30v514l-312 80v184l312 -80v522h188v-569l305 -78v-184l-305 78v-322
q143 -27 244.5 -105t148.5 -179.5t47 -217.5q0 -140 -63.5 -256t-186 -186t-280.5 -70z" />
    <glyph glyph-name="uni10F0" unicode="&#x10f0;" horiz-adv-x="1239" 
d="M647 -25q-145 0 -267 43.5t-201 135.5t-79 217q0 44 13 104h190q-10 -41 -10 -90q0 -59 30.5 -106t81 -76t113.5 -44.5t131 -15.5q136 0 230 58t94 161q0 94 -82.5 136.5t-255.5 42.5h-141v151h108q330 0 330 160q0 68 -69 103.5t-228 35.5h-100v152h67q144 0 216.5 36
t72.5 103q0 24 -11 43.5t-25.5 31.5t-43 23t-48.5 16.5t-58 14.5q-36 8 -53.5 12t-51.5 14.5t-52.5 20.5t-45 27t-41.5 37t-29.5 48.5t-21.5 63.5h188q8 -36 50 -55t124 -39q7 -1 10 -2q42 -10 69.5 -18t66.5 -23t64 -32.5t49 -42.5t36 -59.5t12 -76.5q0 -79 -47 -127
t-149 -78q128 -28 182.5 -83.5t54.5 -139.5q0 -154 -235 -227q142 -32 209 -100.5t67 -178.5q0 -120 -74 -207.5t-188.5 -128.5t-251.5 -41z" />
    <glyph glyph-name="uni10F1" unicode="&#x10f1;" horiz-adv-x="1390" 
d="M786 -25q-118 0 -220 29.5t-188.5 94t-147.5 161t-95.5 237t-34.5 314.5q0 224 54.5 444.5t134.5 378.5h190q-76 -131 -132 -355t-56 -452q0 -183 37 -317.5t105 -213.5t155.5 -116t197.5 -37q140 0 238 58.5t98 160.5q0 94 -82.5 136.5t-255.5 42.5h-141v151h109
q331 0 331 160q0 68 -70 103.5t-229 35.5h-100v152h68q147 0 217.5 36.5t70.5 112.5q0 56 -35.5 87.5t-111.5 54.5q-35 11 -48 15t-45 15.5t-47 20.5t-39 25t-37 32.5t-25.5 40t-18.5 51.5h188q3 -14 10 -26t22.5 -22t25.5 -16.5t36.5 -15t36.5 -11.5t43 -13
q53 -16 90 -32.5t73 -42.5t54.5 -64t18.5 -88q0 -159 -201 -222q130 -28 186 -83t56 -140q0 -154 -238 -227q144 -32 211.5 -100.5t67.5 -178.5q0 -120 -77.5 -207.5t-194.5 -128.5t-255 -41z" />
    <glyph glyph-name="uni10F2" unicode="&#x10f2;" horiz-adv-x="1308" 
d="M1206 0q-291 0 -549 100q-258 -100 -557 -100v156q213 3 369 37q-143 90 -224 210.5t-81 262.5q0 90 36.5 174.5t99.5 149t156 104t199 39.5q140 0 253.5 -67t174 -173.5t60.5 -226.5q0 -145 -80 -265t-223 -208q147 -34 366 -37v-156zM350 668q0 -138 78 -245.5
t223 -172.5q148 65 227.5 172.5t79.5 245.5q0 133 -90 221t-213 88q-126 0 -215.5 -87.5t-89.5 -221.5z" />
    <glyph glyph-name="uni10F3" unicode="&#x10f3;" horiz-adv-x="1214" 
d="M614 -455q-151 0 -274 61.5t-193.5 170.5t-70.5 243q0 76 24 152h189q-23 -77 -23 -133q0 -142 96 -230t250 -88q137 0 235.5 83t98.5 225q0 121 -90 207t-250 86h-147v157h116q73 0 132.5 22.5t96.5 59.5t57 83t20 95v195h-633v174h815v-174v-184q0 -110 -59 -202
t-170 -138q146 -40 224.5 -146.5t78.5 -240.5q0 -143 -73 -253.5t-191 -167.5t-259 -57z" />
    <glyph glyph-name="uni10F4" unicode="&#x10f4;" horiz-adv-x="1214" 
d="M614 -455q-151 0 -274 61.5t-193.5 170.5t-70.5 243q0 76 24 152h189q-23 -77 -23 -133q0 -142 96 -230t250 -88q137 0 235.5 83t98.5 225q0 121 -90 207t-250 86h-147v157h116q73 0 132.5 22.5t96.5 59.5t57 83t20 95v197h-240q-107 0 -192.5 30.5t-137 81.5t-78 113
t-26.5 131q0 150 103 253.5t276 103.5q87 0 182 -31v-170q-71 31 -160 31t-141.5 -53.5t-52.5 -131.5q0 -77 59 -131.5t168 -54.5h422v-172v-186q0 -110 -59 -202t-170 -138q146 -40 224.5 -146.5t78.5 -240.5q0 -143 -73 -253.5t-191 -167.5t-259 -57z" />
    <glyph glyph-name="uni10F5" unicode="&#x10f5;" horiz-adv-x="1339" 
d="M555 -25q-194 0 -324.5 99t-130.5 262q0 162 141 252t398 90h242v268h-242q-246 0 -382 90t-136 252q0 163 124.5 262t309.5 99q237 0 371 -139.5t143 -415.5h211v-148h-211v-268h211v-148h-211q-11 -268 -141 -411.5t-373 -143.5zM289 326q0 -89 73 -144t189 -55
q159 0 240 95t90 306h-242q-350 0 -350 -202zM309 1298q0 -95 81 -148.5t249 -53.5h240q-7 214 -88 307.5t-240 93.5q-106 0 -174 -55t-68 -144z" />
    <glyph glyph-name="uni10F6" unicode="&#x10f6;" horiz-adv-x="1574" 
d="M696 1274q0 165 104.5 270t272.5 105q89 0 187 -31v-174q-74 29 -164 29q-215 0 -215 -224v-123q262 -2 428 -158t166 -415t-166 -415t-428 -158v-62q0 -164 -104.5 -268.5t-272.5 -104.5q-90 0 -185 31v174q76 -31 162 -31q215 0 215 226v35q-172 1 -306.5 70.5
t-212 200t-77.5 302.5q0 259 166.5 415t429.5 158v148zM287 553q0 -187 111.5 -298.5t297.5 -113.5v824q-186 -2 -297.5 -113.5t-111.5 -298.5zM881 141q185 2 296 113.5t111 298.5t-111 298.5t-296 113.5v-824z" />
    <glyph glyph-name="uni10F7" unicode="&#x10f7;" horiz-adv-x="1196" 
d="M606 -455q-139 0 -253 51.5t-183.5 153t-69.5 234.5q0 41 7.5 77.5t18.5 66.5t32 59t40.5 50.5t52 46t57 40.5t66.5 38t70 35.5t76 36.5q164 76 246 153t82 165q0 103 -63.5 160t-170.5 57q-119 0 -189.5 -63.5t-70.5 -151.5q0 -26 6 -47h-180q-8 36 -8 79
q0 154 125 250.5t311 96.5q198 0 313 -104.5t115 -285.5q0 -84 -30.5 -153.5t-91 -124.5t-127.5 -95.5t-164 -84.5q-73 -34 -117 -56.5t-90 -52t-69.5 -57.5t-38.5 -64.5t-15 -79.5q0 -80 46 -140t116.5 -89t152.5 -29q136 0 215.5 67t79.5 183q0 36 -10 94h190
q11 -51 11 -106q0 -179 -139 -294.5t-349 -115.5z" />
    </font>
</defs>
</svg>
