<?xml version="1.0" standalone="no"?>
<!DOCTYPE svg PUBLIC "-//W3C//DTD SVG 1.1//EN" "http://www.w3.org/Graphics/SVG/1.1/DTD/svg11.dtd" >
<svg xmlns="http://www.w3.org/2000/svg" xmlns:xlink="http://www.w3.org/1999/xlink" version="1.1">
<metadata>
Created by FontForge 20201107 at Tue Jul 15 18:01:12 2025
 By 
Copyright 2015 (c) Newlyn Works Limited
</metadata>
<defs>
<font id="NewHero-Super" horiz-adv-x="1368" >
  <font-face 
    font-family="New Hero Super"
    font-weight="900"
    font-stretch="normal"
    units-per-em="2048"
    panose-1="2 0 10 0 0 0 0 0 0 0"
    ascent="1638"
    descent="-410"
    x-height="1155"
    cap-height="1530"
    bbox="-514 -709 2992 2157"
    underline-thickness="102"
    underline-position="-255"
    unicode-range="U+000D-FB02"
  />
<missing-glyph horiz-adv-x="1609" 
d="M1491 1530v-1530h-1372v1530h1372zM391 371l268 393l-268 395v-788zM604 260h402l-201 293zM604 1270l201 -295l201 295h-402zM948 764l271 -393v788z" />
    <glyph glyph-name="fi" unicode="fi" horiz-adv-x="1611" 
d="M215 0v799h-152v356h156v74q0 82 30.5 159t89.5 141.5t157 104t221 39.5q121 0 244 -35v-358q-79 23 -158 23q-156 0 -156 -103v-45h285v-356h-279v-799h-438zM1057 1460q0 94 66 160t161 66q94 0 160.5 -66t66.5 -160t-66.5 -159.5t-160.5 -65.5q-95 0 -161 65.5
t-66 159.5zM1065 0v1155h438v-1155h-438z" />
    <glyph glyph-name="fl" unicode="fl" horiz-adv-x="1611" 
d="M215 0v799h-152v356h156v74q0 82 30.5 159t89.5 141.5t157 104t221 39.5q121 0 244 -35v-358q-79 23 -158 23q-156 0 -156 -103v-45h285v-356h-279v-799h-438zM1065 0v1651h438v-1651h-438z" />
    <glyph glyph-name=".notdef" horiz-adv-x="1609" 
d="M1491 1530v-1530h-1372v1530h1372zM391 371l268 393l-268 395v-788zM604 260h402l-201 293zM604 1270l201 -295l201 295h-402zM948 764l271 -393v788z" />
    <glyph glyph-name=".null" horiz-adv-x="0" 
 />
    <glyph glyph-name="nonmarkingreturn" horiz-adv-x="682" 
 />
    <glyph glyph-name="CR" unicode="&#xd;" horiz-adv-x="552" 
 />
    <glyph glyph-name="space" unicode=" " horiz-adv-x="471" 
 />
    <glyph glyph-name="exclam" unicode="!" horiz-adv-x="647" 
d="M174 575l-80 955h459l-84 -955h-295zM94 213q0 95 67.5 162t162.5 67t162 -67t67 -162t-67 -162t-162 -67t-162.5 67t-67.5 162z" />
    <glyph glyph-name="quotedbl" unicode="&#x22;" horiz-adv-x="983" 
d="M152 862l-72 668h364l-79 -668h-213zM543 1530h364l-80 -668h-213z" />
    <glyph glyph-name="numbersign" unicode="#" horiz-adv-x="1726" 
d="M506 1530h375l-52 -322h205l51 322h375l-51 -322h242l-2 -325h-293l-37 -236h254l-2 -325h-305l-52 -322h-374l51 322h-205l-51 -322h-375l51 322h-235l2 325h287l36 236h-247l2 325h299zM739 647h205l37 236h-205z" />
    <glyph glyph-name="dollar" unicode="$" horiz-adv-x="1228" 
d="M106 543q69 -74 187.5 -124t226.5 -50q86 0 134 26t48 72q0 45 -47.5 77.5t-146.5 65.5q-72 24 -126 48t-111 62.5t-93 84.5t-59 112.5t-23 147.5q0 154 93 271.5t253 168.5v162h344v-139q172 -24 283 -88v-414q-71 54 -174.5 89.5t-196.5 35.5q-70 0 -110.5 -24
t-40.5 -60q0 -37 46.5 -66.5t137.5 -60.5q73 -24 127.5 -48t113 -63.5t96 -85.5t61.5 -114.5t24 -151.5q0 -168 -99.5 -290.5t-267.5 -172.5v-161h-344v139q-197 26 -336 110v441z" />
    <glyph glyph-name="percent" unicode="%" horiz-adv-x="2119" 
d="M500 1012q46 0 82 36.5t36 98.5q0 64 -35.5 98.5t-82.5 34.5q-46 0 -82.5 -34.5t-36.5 -98.5q0 -63 35 -99t84 -36zM63 1147q0 127 60 226t158.5 150.5t218.5 51.5q187 0 311.5 -117.5t124.5 -310.5q0 -189 -125 -307.5t-311 -118.5q-119 0 -218.5 52.5t-159 150.5
t-59.5 223zM373 0l1009 1530h363l-1010 -1530h-362zM1182 385q0 127 59.5 226t158.5 150.5t218 51.5q187 0 311.5 -117.5t124.5 -310.5q0 -189 -125 -307.5t-311 -118.5q-183 0 -309.5 119t-126.5 307zM1499 385q0 -63 35 -99t84 -36q47 0 83 36.5t36 98.5q0 64 -35.5 98.5
t-83.5 34.5q-46 0 -82.5 -34.5t-36.5 -98.5z" />
    <glyph glyph-name="ampersand" unicode="&#x26;" horiz-adv-x="1662" 
d="M721 1569q215 0 353 -115.5t138 -306.5q0 -74 -22 -134.5t-65.5 -108t-94.5 -82.5t-123 -72l166 -172l14 22l140 240h399l-317 -498l-4 -6l323 -336h-469l-88 92q-195 -131 -428 -131q-242 0 -393.5 131t-151.5 336q0 72 20.5 133t59 108t85 83t108.5 69
q-84 91 -124 162.5t-40 163.5q0 177 144.5 299.5t369.5 122.5zM504 442q0 -71 51 -115t133 -44q79 0 156 45l-252 262q-88 -62 -88 -148zM588 1147q0 -35 25.5 -74.5t86.5 -103.5q81 39 121.5 77t40.5 89q0 52 -39.5 86t-99.5 34q-58 0 -96.5 -31t-38.5 -77z" />
    <glyph glyph-name="quotesingle" unicode="'" horiz-adv-x="520" 
d="M152 862l-72 668h364l-79 -668h-213z" />
    <glyph glyph-name="parenleft" unicode="(" horiz-adv-x="804" 
d="M817 1530q-59 -62 -115.5 -146.5t-111 -197.5t-88 -256.5t-33.5 -290.5t33.5 -290.5t88 -257t111 -198.5t115.5 -147h-401q-346 385 -346 897q0 247 89.5 474t256.5 413h401z" />
    <glyph glyph-name="parenright" unicode=")" horiz-adv-x="804" 
d="M389 1530q167 -186 256.5 -413t89.5 -474q0 -512 -346 -897h-401q59 62 115.5 147t111 198.5t88 257t33.5 290.5t-33.5 290.5t-88 256.5t-111 197.5t-115.5 146.5h401z" />
    <glyph glyph-name="asterisk" unicode="*" horiz-adv-x="1204" 
d="M780 1651l-80 -340l316 174l119 -340l-369 -31l276 -223l-290 -215l-150 319h-2l-147 -319l-289 215l262 223l-356 31l106 346l316 -180l-74 340h362z" />
    <glyph glyph-name="plus" unicode="+" horiz-adv-x="1400" 
d="M868 1393v-461h459v-334h-459v-463h-352v463h-442v334h442v461h352z" />
    <glyph glyph-name="comma" unicode="," horiz-adv-x="608" 
d="M39 -274q45 170 62.5 289t17.5 255v131h383v-94q0 -246 -156 -581h-307z" />
    <glyph glyph-name="hyphen" unicode="-" horiz-adv-x="870" 
d="M111 492v319h649v-319h-649z" />
    <glyph glyph-name="period" unicode="." horiz-adv-x="598" 
d="M299 -16q-95 0 -162 67t-67 162t67 162t162 67t162 -67t67 -162t-67 -162t-162 -67z" />
    <glyph glyph-name="slash" unicode="/" horiz-adv-x="1204" 
d="M51 -276l690 2080h412l-694 -2080h-408z" />
    <glyph glyph-name="zero" unicode="0" horiz-adv-x="1509" 
d="M754 1159q-100 0 -164 -105.5t-64 -289.5q0 -182 64.5 -287.5t163.5 -105.5q101 0 170 106.5t69 286.5q0 182 -69 288.5t-170 106.5zM84 764q0 180 52.5 332.5t142.5 255t213 160t262 57.5t262 -57.5t213.5 -160t143 -255t52.5 -332.5q0 -179 -52.5 -330.5t-143 -254.5
t-213.5 -160.5t-262 -57.5t-262 57.5t-213 160.5t-142.5 254.5t-52.5 330.5z" />
    <glyph glyph-name="one" unicode="1" horiz-adv-x="1003" 
d="M373 0v969l-307 -119v434l716 266h29v-1550h-438z" />
    <glyph glyph-name="two" unicode="2" horiz-adv-x="1323" 
d="M35 0q245 293 372.5 451.5t198 263.5t85 148.5t14.5 99.5q0 88 -64.5 142t-165.5 54q-95 0 -186.5 -44t-157.5 -118v430q78 63 195 102.5t241 39.5q266 0 433 -151.5t167 -401.5q0 -146 -90.5 -294t-259.5 -327h420v-395h-1202z" />
    <glyph glyph-name="three" unicode="3" horiz-adv-x="1269" 
d="M125 1438q188 131 461 131q135 0 243 -35t175.5 -95.5t103 -138t35.5 -165.5q0 -109 -52.5 -193.5t-146.5 -140.5v-8q104 -44 173 -140t69 -221q0 -92 -41 -176t-116.5 -150t-194 -105.5t-263.5 -39.5q-278 0 -469 133v416q160 -160 387 -160q106 0 175 35.5t69 99.5
q0 56 -58.5 91.5t-176.5 35.5h-195v324h168q120 0 178 35.5t58 89.5t-55.5 86.5t-162.5 32.5q-210 0 -364 -123v381z" />
    <glyph glyph-name="four" unicode="4" horiz-adv-x="1462" 
d="M1167 1530v-879h232v-350h-232v-301h-409v301h-707v254l723 975h393zM483 651h275v377l-275 -375v-2z" />
    <glyph glyph-name="five" unicode="5" horiz-adv-x="1249" 
d="M1083 1530v-400h-526l-22 -143q40 8 94 8q103 0 191 -25t151 -70t107.5 -105.5t66.5 -131.5t22 -149q0 -106 -40.5 -204t-116.5 -176.5t-197.5 -125.5t-269.5 -47q-134 0 -250.5 30.5t-196.5 84.5v436q187 -141 387 -141q105 0 161 42t56 103q0 65 -63 107.5t-193 42.5
q-128 0 -235 -41l-70 47l109 858h835z" />
    <glyph glyph-name="six" unicode="6" horiz-adv-x="1392" 
d="M1221 1530l-381 -471q133 -4 248 -73t183 -185.5t68 -251.5q0 -121 -46.5 -229t-128 -187.5t-201 -125.5t-258.5 -46q-137 0 -255.5 46t-200 124t-127.5 183.5t-46 222.5q0 258 243 540l373 453h529zM510 545q0 -82 54 -140.5t138 -58.5t138.5 59.5t54.5 141.5
q0 92 -60 147.5t-153 55.5q-40 0 -100 -17q-72 -91 -72 -188z" />
    <glyph glyph-name="seven" unicode="7" horiz-adv-x="1302" 
d="M76 0l596 1130h-584v400h1225l-770 -1530h-467z" />
    <glyph glyph-name="eight" unicode="8" horiz-adv-x="1396" 
d="M1069 788q121 -50 182.5 -146t61.5 -220q0 -90 -40.5 -172.5t-115.5 -147t-193.5 -103t-263.5 -38.5q-143 0 -261.5 38.5t-194.5 103t-118 147t-42 172.5q0 116 63.5 217t180.5 149v5q-90 47 -145.5 134t-55.5 206q0 87 38 165t108 138.5t180.5 96.5t246.5 36
q135 0 245.5 -35.5t180 -96t107 -137.5t37.5 -163q0 -121 -55 -208t-146 -136v-5zM522 467q0 -62 47 -108t131 -46q85 0 133 46t48 108q0 61 -48 106t-133 45q-84 0 -131 -44.5t-47 -106.5zM535 1065q0 -57 43 -100t122 -43q80 0 124 43t44 100q0 56 -43.5 101.5
t-124.5 45.5q-80 0 -122.5 -45.5t-42.5 -101.5z" />
    <glyph glyph-name="nine" unicode="9" horiz-adv-x="1388" 
d="M705 0h-529l371 471q-214 12 -353 157.5t-139 352.5q0 121 46.5 229t128 187.5t201 125.5t257.5 46q137 0 255 -46t198.5 -124t126 -183.5t45.5 -222.5q0 -263 -242 -544zM498 983q0 -94 58 -148.5t151 -54.5q51 0 100 15q76 96 76 190q0 82 -54.5 140.5t-138.5 58.5
t-138 -59.5t-54 -141.5z" />
    <glyph glyph-name="colon" unicode=":" horiz-adv-x="651" 
d="M326 -16q-95 0 -162.5 67t-67.5 162t67.5 162t162.5 67t162 -67t67 -162t-67 -162t-162 -67zM96 874q0 95 67.5 162.5t162.5 67.5t162 -67.5t67 -162.5t-67 -162t-162 -67t-162.5 67t-67.5 162z" />
    <glyph glyph-name="semicolon" unicode=";" horiz-adv-x="647" 
d="M61 -274q45 170 62.5 289t17.5 255v131h383v-94q0 -249 -155 -581h-308zM94 874q0 95 67.5 162.5t162.5 67.5t162 -67.5t67 -162.5t-67 -162t-162 -67t-162.5 67t-67.5 162z" />
    <glyph glyph-name="less" unicode="&#x3c;" horiz-adv-x="1339" 
d="M1212 1001v408l-1138 -446v-396l1138 -446v407l-628 236z" />
    <glyph glyph-name="equal" unicode="=" horiz-adv-x="1470" 
d="M121 840v334h1229v-334h-1229zM121 354v334h1229v-334h-1229z" />
    <glyph glyph-name="greater" unicode="&#x3e;" horiz-adv-x="1339" 
d="M127 1001l629 -237l-629 -236v-407l1139 446v396l-1139 446v-408z" />
    <glyph glyph-name="question" unicode="?" horiz-adv-x="1118" 
d="M537 1569q122 0 223.5 -41.5t163.5 -108t95.5 -142.5t33.5 -151q0 -40 -7.5 -78.5t-17.5 -69.5t-31.5 -68t-38 -62t-49.5 -64.5t-53.5 -62.5t-62 -68.5t-64.5 -70.5h-401q38 48 94 116t80 98t52.5 71t38 69.5t9.5 58.5q0 74 -50.5 121t-139.5 47q-154 0 -328 -166v418
q87 72 204 113t249 41zM291 213q0 95 67 162t162 67t162.5 -67t67.5 -162t-67.5 -162t-162.5 -67t-162 67t-67 162z" />
    <glyph glyph-name="at" unicode="@" horiz-adv-x="2074" 
d="M1597 993l-92 -614q93 59 150 162t57 219q0 140 -77 250t-208 168.5t-292 58.5q-149 0 -282 -51t-230 -141.5t-154 -221.5t-57 -284q0 -298 200.5 -473t530.5 -175q189 0 319 41l-43 -280q-157 -39 -327 -39q-298 0 -526.5 106t-358 309.5t-129.5 477.5q0 219 81 409.5
t223 325t342.5 212t430.5 77.5q238 0 430 -92.5t300 -256.5t108 -368q0 -109 -28 -212t-86 -193.5t-138.5 -158.5t-192.5 -107.5t-241 -39.5h-136l-8 125q-49 -73 -119 -111t-143 -38q-152 0 -248 121t-96 311q0 137 57 254t154.5 185.5t212.5 68.5q85 0 156.5 -38
t107.5 -106l47 119h305zM915 522q0 -66 32 -105.5t91 -39.5q73 0 117.5 58t44.5 136q0 66 -33 107t-92 41q-73 0 -116.5 -59t-43.5 -138z" />
    <glyph glyph-name="A" unicode="A" horiz-adv-x="1615" 
d="M1626 0h-465l-100 301h-506l-96 -301h-463l551 1530h518zM670 659h272l-137 418z" />
    <glyph glyph-name="B" unicode="B" horiz-adv-x="1439" 
d="M133 0v1530h655q263 0 409 -119t146 -301q0 -115 -58 -198t-157 -128v-4q120 -43 185 -133.5t65 -212.5q0 -89 -34.5 -166t-102 -137.5t-177 -95.5t-249.5 -35h-682zM575 371h199q83 0 126.5 35t43.5 92q0 56 -43.5 91.5t-124.5 35.5h-201v-254zM575 924h193
q77 0 117.5 33.5t40.5 82.5q0 50 -40.5 84.5t-117.5 34.5h-193v-235z" />
    <glyph glyph-name="C" unicode="C" horiz-adv-x="1384" 
d="M1298 70q-216 -107 -432 -107q-132 0 -254.5 37.5t-222.5 108.5t-175 167.5t-116 222t-41 265.5q0 175 64 326.5t173.5 255.5t258 163.5t313.5 59.5q216 0 432 -107v-434q-94 67 -182 98t-192 31q-181 0 -298.5 -111t-117.5 -282q0 -170 117.5 -282.5t298.5 -112.5
q101 0 187.5 34.5t186.5 106.5v-440z" />
    <glyph glyph-name="D" unicode="D" horiz-adv-x="1556" 
d="M649 1530q248 0 440.5 -94.5t300 -269.5t107.5 -402t-107.5 -401.5t-300 -268.5t-440.5 -94h-516v1530h516zM580 403h86q175 0 278 95.5t103 265.5q0 171 -103 266.5t-278 95.5h-86v-723z" />
    <glyph glyph-name="E" unicode="E" horiz-adv-x="1288" 
d="M133 0v1530h1057v-397h-610v-185h548v-360h-548v-191h610v-397h-1057z" />
    <glyph glyph-name="F" unicode="F" horiz-adv-x="1228" 
d="M133 0v1530h1016v-404h-569v-268h526v-377h-526v-481h-447z" />
    <glyph glyph-name="G" unicode="G" horiz-adv-x="1525" 
d="M508 754q0 -168 107 -280t270 -112q80 0 155 35v426h404v-684q-252 -178 -567 -178q-165 0 -314 57t-261 158.5t-178.5 254.5t-66.5 333t67 333t179.5 255.5t261.5 159.5t312 57q277 0 491 -123v-430q-91 73 -204.5 106t-221.5 33q-199 0 -316.5 -115.5t-117.5 -285.5z
" />
    <glyph glyph-name="H" unicode="H" horiz-adv-x="1638" 
d="M1059 0v555h-479v-555h-447v1530h447v-572h479v572h446v-1530h-446z" />
    <glyph glyph-name="I" unicode="I" horiz-adv-x="712" 
d="M133 0v1530h447v-1530h-447z" />
    <glyph glyph-name="J" unicode="J" horiz-adv-x="1050" 
d="M47 483q100 -108 225 -108q100 0 156.5 61t56.5 176v918h447v-973q0 -172 -63 -303t-192 -207t-310 -76q-90 0 -175 26.5t-145 70.5v415z" />
    <glyph glyph-name="K" unicode="K" horiz-adv-x="1556" 
d="M1567 1530l-529 -748l545 -782h-522l-481 702v-702h-447v1530h447v-690l475 690h512z" />
    <glyph glyph-name="L" unicode="L" horiz-adv-x="1218" 
d="M133 0v1530h447v-1127h600v-403h-1047z" />
    <glyph glyph-name="M" unicode="M" horiz-adv-x="2035" 
d="M565 926l-92 -926h-420l207 1530h522l244 -850h4l238 850h506l208 -1530h-423l-86 926h-9l-262 -926h-375l-254 926h-8z" />
    <glyph glyph-name="N" unicode="N" horiz-adv-x="1669" 
d="M1536 1530v-1530h-426l-551 821h-2v-821h-424v1530h426l551 -807h2v807h424z" />
    <glyph glyph-name="O" unicode="O" horiz-adv-x="1740" 
d="M870 367q70 0 134.5 27t116 76t82 126t30.5 170q0 92 -30.5 168.5t-82 125.5t-116 76t-134.5 27t-135 -27t-115.5 -76t-81 -125.5t-30.5 -168.5q0 -183 107 -291t255 -108zM57 766q0 174 63.5 324.5t172.5 255t258.5 164t318.5 59.5q170 0 320 -59.5t258.5 -164
t171.5 -255t63 -324.5t-63 -324.5t-171.5 -255.5t-258.5 -165t-320 -60t-319.5 60t-258.5 165t-172 255.5t-63 324.5z" />
    <glyph glyph-name="P" unicode="P" horiz-adv-x="1402" 
d="M133 0v1530h510q346 0 533.5 -153t187.5 -416q0 -93 -27 -180t-83.5 -162.5t-137 -132t-194.5 -89t-248 -32.5h-94v-365h-447zM580 760h114q95 0 157 48.5t62 135.5t-62.5 134.5t-160.5 47.5h-110v-366z" />
    <glyph glyph-name="Q" unicode="Q" horiz-adv-x="1771" 
d="M870 1569q170 0 320 -59.5t258.5 -164t171.5 -255t63 -324.5q0 -242 -114 -428l200 -191l-276 -288l-213 202q-180 -100 -410 -100q-170 0 -319.5 60t-258.5 165t-172 255.5t-63 324.5t63.5 324.5t172.5 255t258.5 164t318.5 59.5zM508 766q0 -183 107 -291t255 -108
q44 0 80 8l-215 205l277 288l211 -200q10 52 10 98q0 92 -30.5 168.5t-82 125.5t-116 76t-134.5 27t-135 -27t-115.5 -76t-81 -125.5t-30.5 -168.5z" />
    <glyph glyph-name="R" unicode="R" horiz-adv-x="1423" 
d="M133 0v1530h545q195 0 338.5 -56.5t227 -178t83.5 -298.5q0 -59 -14.5 -118t-48 -123.5t-98.5 -121.5t-156 -95l397 -539h-526l-291 473h-10v-473h-447zM580 807h96q89 0 145 41.5t56 118.5q0 78 -56 118.5t-147 40.5h-94v-319z" />
    <glyph glyph-name="S" unicode="S" horiz-adv-x="1263" 
d="M678 1563q237 0 426 -107v-393q-72 51 -182.5 83t-210.5 32q-88 0 -135.5 -25.5t-47.5 -65.5q0 -36 40.5 -59t148.5 -61q176 -62 258 -111q221 -141 225 -383q0 -224 -161 -365t-443 -141q-144 0 -275 36.5t-219 96.5v414q88 -71 206 -116.5t235 -45.5q97 0 148.5 31.5
t51.5 77.5q0 54 -85 95q-32 16 -144 56q-43 16 -75.5 29t-79.5 36.5t-81.5 48t-72 61t-61 77t-39 95t-15.5 116.5q0 101 39.5 189.5t112.5 155t185.5 105t250.5 38.5z" />
    <glyph glyph-name="T" unicode="T" horiz-adv-x="1361" 
d="M459 0v1126h-422v404h1288v-404h-420v-1126h-446z" />
    <glyph glyph-name="U" unicode="U" horiz-adv-x="1585" 
d="M788 -39q-207 0 -360.5 85.5t-233 234.5t-79.5 342v907h446v-903q0 -126 59.5 -193t167.5 -67q111 0 172.5 67t61.5 195v901h448v-907q0 -144 -47.5 -266t-134 -209.5t-215.5 -137t-285 -49.5z" />
    <glyph glyph-name="V" unicode="V" horiz-adv-x="1607" 
d="M1616 1530l-567 -1530h-484l-579 1530h465l356 -1061l346 1061h463z" />
    <glyph glyph-name="W" unicode="W" horiz-adv-x="2355" 
d="M1456 0l-268 934h-4l-260 -934h-465l-455 1530h451l250 -1002h4l270 1002h410l278 -1004h4l236 1004h436l-440 -1530h-447z" />
    <glyph glyph-name="X" unicode="X" horiz-adv-x="1509" 
d="M-8 0l475 764l-479 766h516l262 -451l240 451h510l-476 -764l482 -766h-514l-265 451l-241 -451h-510z" />
    <glyph glyph-name="Y" unicode="Y" horiz-adv-x="1560" 
d="M557 0v582l-571 948h499l306 -553h8l301 553h473l-569 -946v-584h-447z" />
    <glyph glyph-name="Z" unicode="Z" horiz-adv-x="1308" 
d="M1292 1530l-606 -1127h547v-403h-1217l607 1126h-545v404h1214z" />
    <glyph glyph-name="bracketleft" unicode="[" horiz-adv-x="851" 
d="M121 -430v2081h682v-303h-352v-1475h352v-303h-682z" />
    <glyph glyph-name="backslash" unicode="\" horiz-adv-x="1204" 
d="M1153 -276h-408l-694 2080h412z" />
    <glyph glyph-name="bracketright" unicode="]" horiz-adv-x="851" 
d="M731 -430h-682v303h352v1475h-352v303h682v-2081z" />
    <glyph glyph-name="asciicircum" unicode="^" horiz-adv-x="1345" 
d="M1276 442h-408l-194 541l-193 -541h-411l426 1088h354z" />
    <glyph glyph-name="underscore" unicode="_" horiz-adv-x="1079" 
d="M0 -387v330h1079v-330h-1079z" />
    <glyph glyph-name="grave" unicode="`" 
d="M748 1651l225 -375h-322l-321 375h418z" />
    <glyph glyph-name="a" unicode="a" horiz-adv-x="1437" 
d="M561 -33q-95 0 -186 45t-162 123t-114.5 193t-43.5 245q0 133 43.5 250t114.5 196t162 124t186 45q221 0 352 -182h2l41 149h373v-1155h-373l-41 150h-2q-131 -183 -352 -183zM498 578q0 -94 56.5 -158t145.5 -64q87 0 142 63t55 159t-55 158.5t-142 62.5
q-89 0 -145.5 -64.5t-56.5 -156.5z" />
    <glyph glyph-name="b" unicode="b" horiz-adv-x="1439" 
d="M547 1651v-639q51 76 145.5 126t198.5 50q99 0 188.5 -43.5t156.5 -121.5t106.5 -193.5t39.5 -251.5q0 -135 -42.5 -251.5t-113.5 -194t-163.5 -121.5t-192.5 -44q-116 0 -203.5 52t-144.5 131l-41 -150h-372v1651h438zM543 578q0 -97 54.5 -159.5t141.5 -62.5
q88 0 144.5 63t56.5 156t-57 158.5t-146 65.5q-86 0 -140 -62.5t-54 -158.5z" />
    <glyph glyph-name="c" unicode="c" horiz-adv-x="1120" 
d="M496 578q0 -100 73 -161t187 -61q159 0 278 82v-389q-161 -82 -354 -82q-174 0 -317 77t-226.5 218t-83.5 318t84 317t227 215.5t316 75.5q203 0 354 -80v-389q-135 80 -278 80q-114 0 -187 -60.5t-73 -160.5z" />
    <glyph glyph-name="d" unicode="d" horiz-adv-x="1435" 
d="M567 -33q-100 0 -192.5 44t-164 121.5t-114.5 194t-43 251.5t42 251t112.5 193.5t162 121.5t191.5 44q110 0 194.5 -48.5t133.5 -127.5v639h438v-1651h-373l-41 150q-57 -80 -143.5 -131.5t-202.5 -51.5zM496 578q0 -94 56.5 -158t145.5 -64q87 0 142 63t55 159
t-55 158.5t-142 62.5q-89 0 -145.5 -64.5t-56.5 -156.5z" />
    <glyph glyph-name="e" unicode="e" horiz-adv-x="1269" 
d="M737 -33q-162 0 -292.5 46t-215.5 127.5t-130.5 192.5t-45.5 242q0 177 78.5 317.5t215.5 218t306 77.5q117 0 218 -38.5t178 -111.5t121 -187t44 -255q0 -68 -10 -133h-725q40 -80 126 -121t194 -41q143 0 338 86v-334q-180 -86 -400 -86zM463 705h338q-2 63 -42 106
t-108 43q-64 0 -114.5 -40t-73.5 -109z" />
    <glyph glyph-name="f" unicode="f" horiz-adv-x="956" 
d="M215 0v799h-152v356h156v74q0 82 30.5 159t89.5 141.5t157 104t221 39.5q121 0 244 -35v-358q-79 23 -158 23q-156 0 -156 -103v-45h285v-356h-279v-799h-438z" />
    <glyph glyph-name="g" unicode="g" horiz-adv-x="1425" 
d="M567 1186q206 0 338 -180l41 149h373v-969q0 -300 -191.5 -474.5t-517.5 -174.5q-251 0 -442 123v399q83 -66 194 -107.5t201 -41.5q148 0 233 65t85 168v54q-49 -73 -130 -121.5t-190 -48.5q-100 0 -192 43t-161.5 118t-111 184.5t-41.5 235.5q0 121 43 229.5t114 184.5
t164 120t191 44zM498 606q0 -82 54 -140t140 -58t140.5 58t54.5 140q0 80 -55 139.5t-140 59.5t-139.5 -59.5t-54.5 -139.5z" />
    <glyph glyph-name="h" unicode="h" horiz-adv-x="1341" 
d="M547 1651v-586h2q50 54 128 88.5t167 34.5q184 0 290.5 -108t106.5 -302v-778h-438v664q0 135 -121 135q-62 0 -98.5 -36t-36.5 -93v-670h-438v1651h438z" />
    <glyph glyph-name="i" unicode="i" horiz-adv-x="655" 
d="M109 0v1155h438v-1155h-438zM100 1460q0 94 66.5 160t161.5 66q94 0 160.5 -66t66.5 -160t-66.5 -159.5t-160.5 -65.5q-95 0 -161.5 65.5t-66.5 159.5z" />
    <glyph glyph-name="j" unicode="j" horiz-adv-x="655" 
d="M-111 -430q119 138 170.5 275.5t51.5 342.5v967h438v-919q0 -202 -43 -364.5t-148 -301.5h-469zM102 1460q0 94 66.5 160t161.5 66q94 0 160.5 -66t66.5 -160t-66.5 -159.5t-160.5 -65.5q-95 0 -161.5 65.5t-66.5 159.5z" />
    <glyph glyph-name="k" unicode="k" horiz-adv-x="1402" 
d="M1403 1155l-391 -551l401 -604h-526l-340 530v-530h-438v1651h438v-1014l352 518h504z" />
    <glyph glyph-name="l" unicode="l" horiz-adv-x="655" 
d="M109 0v1651h438v-1651h-438z" />
    <glyph glyph-name="m" unicode="m" horiz-adv-x="1961" 
d="M1485 1188q185 0 281 -113t96 -313v-762h-439v664q0 72 -23.5 103.5t-82.5 31.5q-55 0 -84 -31t-29 -82v-686h-438v664q0 72 -24 103.5t-83 31.5q-57 0 -84.5 -35t-27.5 -94v-670h-438v1155h340l43 -151h8q121 184 327 184q224 0 326 -193q126 193 332 193z" />
    <glyph glyph-name="n" unicode="n" horiz-adv-x="1341" 
d="M842 1188q189 0 294 -107.5t105 -302.5v-778h-438v664q0 135 -121 135q-62 0 -98.5 -36t-36.5 -93v-670h-438v1155h340l43 -151h8q55 85 142.5 134.5t199.5 49.5z" />
    <glyph glyph-name="o" unicode="o" 
d="M684 -33q-130 0 -246 44.5t-201 123.5t-134.5 194.5t-49.5 250.5q0 180 85.5 320t228.5 214t317 74q177 0 320 -74t227 -214t84 -320t-84 -320.5t-227.5 -216.5t-319.5 -76zM496 580q0 -101 56 -162.5t132 -61.5t132 61.5t56 162.5t-55.5 160t-132.5 59
q-75 0 -131.5 -59.5t-56.5 -159.5z" />
    <glyph glyph-name="p" unicode="p" horiz-adv-x="1439" 
d="M109 -430v1585h372l41 -149q56 79 145 130.5t205 51.5q100 0 192 -44t162.5 -121.5t113 -193.5t42.5 -251q0 -136 -40.5 -251.5t-108.5 -193.5t-158 -122t-190 -44q-104 0 -195 49.5t-143 126.5v-573h-438zM543 578q0 -96 54 -159t140 -63q89 0 146 65.5t57 158.5
t-56.5 156t-144.5 63q-87 0 -141.5 -62t-54.5 -159z" />
    <glyph glyph-name="q" unicode="q" horiz-adv-x="1439" 
d="M555 1188q232 0 363 -182l40 149h373v-1585h-438v569q-125 -172 -338 -172q-99 0 -190 45t-159 122.5t-108.5 189t-40.5 237.5q0 276 143.5 451.5t354.5 175.5zM500 578q0 -94 56.5 -158t145.5 -64q87 0 142 63t55 159t-55 158.5t-142 62.5q-89 0 -145.5 -64.5
t-56.5 -156.5z" />
    <glyph glyph-name="r" unicode="r" horiz-adv-x="929" 
d="M109 0v1155h348l43 -164h4q53 93 134.5 135.5t168.5 42.5q51 0 94 -12v-405q-55 12 -108 12q-51 0 -93 -13t-77.5 -42.5t-55.5 -83.5t-20 -129v-496h-438z" />
    <glyph glyph-name="s" unicode="s" horiz-adv-x="1107" 
d="M590 1188q103 0 205 -22t174 -60v-352q-64 37 -165.5 62.5t-193.5 25.5q-112 0 -112 -43q0 -22 34 -37.5t119 -34.5q68 -15 119 -30.5t107 -44.5t91.5 -66t59 -94.5t23.5 -129.5q0 -184 -140.5 -289.5t-396.5 -105.5q-248 0 -422 94v379q189 -127 402 -127q135 0 135 47
q0 23 -32 36.5t-128 38.5q-27 7 -41 11q-74 20 -131 45.5t-109.5 65.5t-81 101t-28.5 139q0 173 136 282t376 109z" />
    <glyph glyph-name="t" unicode="t" horiz-adv-x="980" 
d="M616 1421v-266h293v-356h-293v-295q0 -83 55 -121.5t148 -38.5q43 0 105 10v-364q-108 -23 -213 -23q-254 0 -385 137t-131 373v322h-158v356h158v266h421z" />
    <glyph glyph-name="u" unicode="u" horiz-adv-x="1320" 
d="M659 -33q-261 0 -413 145t-152 375v668h438v-661q0 -138 127 -138q129 0 129 138v661h439v-668q0 -230 -153.5 -375t-414.5 -145z" />
    <glyph glyph-name="v" unicode="v" horiz-adv-x="1304" 
d="M422 0l-420 1155h467l190 -702h9l194 702h447l-422 -1155h-465z" />
    <glyph glyph-name="w" unicode="w" horiz-adv-x="1939" 
d="M1122 0l-143 633h-6l-152 -633h-504l-297 1155h463l119 -702h8l162 702h420l154 -702h8l131 702h434l-297 -1155h-500z" />
    <glyph glyph-name="x" unicode="x" horiz-adv-x="1292" 
d="M1282 1155l-379 -563l395 -592h-495l-166 301h-4l-164 -301h-469l387 575l-383 580h475l166 -303h4l164 303h469z" />
    <glyph glyph-name="y" unicode="y" horiz-adv-x="1304" 
d="M1313 1155l-635 -1585h-434l194 455l-440 1130h467l197 -670h8l196 670h447z" />
    <glyph glyph-name="z" unicode="z" horiz-adv-x="1183" 
d="M1161 1155l-467 -762h406v-393h-1084l467 764h-393v391h1071z" />
    <glyph glyph-name="braceleft" unicode="{" horiz-adv-x="800" 
d="M745 1313q-116 10 -161 -32.5t-45 -131.5v-264q0 -61 -16.5 -116t-61.5 -106.5t-115 -78.5v-2q70 -26 115 -77.5t61.5 -107t16.5 -118.5v-259q0 -89 45 -131t161 -32v-289q-130 -20 -229.5 1t-161.5 78t-93.5 141t-31.5 192v268q0 179 -209 215v237q209 38 209 215v277
q0 222 130 336t386 76v-291z" />
    <glyph glyph-name="bar" unicode="|" horiz-adv-x="616" 
d="M123 -373v2267h371v-2267h-371z" />
    <glyph glyph-name="braceright" unicode="}" horiz-adv-x="800" 
d="M55 1604q256 38 386 -76t130 -336v-277q0 -177 209 -215v-237q-209 -36 -209 -215v-268q0 -108 -31.5 -192t-93.5 -141t-161.5 -78t-229.5 -1v289q116 -10 161.5 32t45.5 131v259q0 63 16.5 118.5t61.5 107t115 77.5v2q-70 27 -115 78.5t-61.5 106.5t-16.5 116v264
q0 89 -45.5 131.5t-161.5 32.5v291z" />
    <glyph glyph-name="asciitilde" unicode="~" horiz-adv-x="1599" 
d="M1505 1022q3 -115 -19.5 -206.5t-63 -149.5t-96.5 -96.5t-115 -54t-124 -15.5q-75 0 -148 23t-121 50.5t-107.5 50.5t-110.5 23q-64 0 -108.5 -34t-55.5 -105h-325q-3 115 19.5 206.5t62.5 149.5t96.5 96.5t115 54t123.5 15.5q75 0 148 -23t121 -50.5t108 -50.5t111 -23
q64 0 108.5 34t55.5 105h325z" />
    <glyph glyph-name="uni00A0" unicode="&#xa0;" horiz-adv-x="471" 
 />
    <glyph glyph-name="exclamdown" unicode="&#xa1;" horiz-adv-x="647" 
d="M174 954h295l84 -954h-459zM94 1317q0 95 67.5 162t162.5 67t162 -67t67 -162t-67 -162.5t-162 -67.5t-162.5 67.5t-67.5 162.5z" />
    <glyph glyph-name="cent" unicode="&#xa2;" horiz-adv-x="1173" 
d="M1065 696q-133 78 -272 78q-112 0 -183 -54.5t-71 -148.5q0 -93 71 -146.5t183 -53.5q153 0 272 80v-385q-113 -55 -256 -74v-174h-270v186q-205 47 -333 199t-128 368q0 217 128 368t333 198v213h270v-201q144 -16 256 -74v-379z" />
    <glyph glyph-name="sterling" unicode="&#xa3;" horiz-adv-x="1331" 
d="M63 0q83 110 130.5 230t91.5 333l8 43h-174v273h231l21 104q23 110 54.5 196t82 161t118.5 124t163.5 77t216.5 28q92 0 196 -29v-366q-65 24 -155 24q-111 0 -175 -58.5t-92 -187.5l-14 -73h293v-273h-346l-2 -8q-31 -152 -88 -229h591v-369h-1151z" />
    <glyph glyph-name="currency" unicode="&#xa4;" horiz-adv-x="1437" 
d="M1114 1393l236 -236l-160 -160q55 -110 55 -233t-55 -236l160 -157l-236 -236l-158 158q-111 -57 -237 -57q-127 0 -238 57l-157 -158l-236 236l160 157q-55 113 -55 236t55 233l-160 160l236 236l159 -158q110 55 236 55q125 0 235 -55zM479 764q0 -100 70 -171t170 -71
q99 0 169 71t70 171q0 99 -70 169.5t-169 70.5t-169.5 -70.5t-70.5 -169.5z" />
    <glyph glyph-name="yen" unicode="&#xa5;" horiz-adv-x="1685" 
d="M1636 1530l-469 -699h189v-229h-289v-59h289v-230h-289v-313h-446v313h-289v230h289v59h-289v229h186l-469 699h500l305 -494h8l301 494h473z" />
    <glyph glyph-name="brokenbar" unicode="&#xa6;" horiz-adv-x="583" 
d="M135 954v940h314v-940h-314zM135 -373v940h314v-940h-314z" />
    <glyph glyph-name="section" unicode="&#xa7;" horiz-adv-x="1230" 
d="M166 92q77 -64 179.5 -107.5t203.5 -43.5q55 0 94 16t39 53q0 14 -5.5 27t-21 26t-28 22t-42 23t-47.5 22t-59 26q-49 21 -81.5 35.5t-79 38.5t-77 46t-64.5 53.5t-54 63.5t-33.5 74.5t-13.5 89.5q0 100 55.5 180.5t155.5 130.5q-135 102 -135 271q0 189 150.5 309.5
t389.5 120.5q96 0 196.5 -20.5t170.5 -59.5v-361q-170 109 -348 109q-74 0 -114 -21t-40 -57q0 -33 38.5 -56t152.5 -67q48 -19 76.5 -31t72 -31.5t70 -36.5t60.5 -40.5t53.5 -48t38.5 -55t27.5 -66t8.5 -76.5q0 -103 -58.5 -184t-162.5 -129q153 -115 153 -303
q0 -189 -144 -307.5t-370 -118.5q-111 0 -219 29t-188 77v377zM469 623q0 -44 40.5 -76t125.5 -68q59 9 93 37t34 70q0 46 -42 76.5t-136 66.5q-53 -11 -84 -39t-31 -67z" />
    <glyph glyph-name="dieresis" unicode="&#xa8;" 
d="M426 1282q-77 0 -132.5 55t-55.5 131t55.5 131.5t132.5 55.5q78 0 134 -55t56 -132q0 -76 -56 -131t-134 -55zM754 1468q0 77 55 132t133 55t133 -55t55 -132t-55 -131.5t-133 -54.5t-133 54.5t-55 131.5z" />
    <glyph glyph-name="copyright" unicode="&#xa9;" horiz-adv-x="1789" 
d="M895 1569q167 0 318.5 -64t260 -172t172.5 -257t64 -312t-64 -311.5t-172.5 -256t-260 -171.5t-318.5 -64t-318.5 64t-260 171.5t-172.5 256t-64 311.5t64 312t172.5 257t260 172t318.5 64zM297 764q0 -163 78.5 -299.5t216 -215.5t303.5 -79q167 0 304.5 79.5
t215.5 215.5t78 299q0 164 -78 300.5t-215.5 216t-304.5 79.5q-166 0 -303.5 -79.5t-216 -216t-78.5 -300.5zM485 762q0 125 60 224t158 151.5t215 52.5q131 0 239 -53v-236q-95 68 -201 68q-99 0 -162 -57.5t-63 -149.5q0 -90 63 -147.5t162 -57.5q107 0 201 68v-236
q-104 -51 -239 -51q-180 0 -306.5 118.5t-126.5 305.5z" />
    <glyph glyph-name="ordfeminine" unicode="&#xaa;" horiz-adv-x="1150" 
d="M1028 1530v-877h-293l-33 111q-93 -135 -264 -135q-71 0 -139 34t-121 93t-85 146t-32 185q0 101 32 190t85 148.5t121 94t139 34.5q168 0 264 -135l33 111h293zM403 1092q0 -66 40.5 -112t105.5 -46q62 0 100.5 45t38.5 113t-38.5 112.5t-100.5 44.5q-64 0 -105 -46.5
t-41 -110.5z" />
    <glyph glyph-name="guillemotleft" unicode="&#xab;" horiz-adv-x="1544" 
d="M723 1192v-401l-311 -213l311 -213v-402l-666 504v221zM770 467v221l666 504v-401l-312 -213l312 -213v-402z" />
    <glyph glyph-name="logicalnot" unicode="&#xac;" horiz-adv-x="1488" 
d="M1001 135v463h-901v334h1254v-797h-353z" />
    <glyph glyph-name="uni00AD" unicode="&#xad;" horiz-adv-x="870" 
d="M111 492v319h649v-319h-649z" />
    <glyph glyph-name="registered" unicode="&#xae;" horiz-adv-x="1789" 
d="M895 1569q167 0 318.5 -64t260 -172t172.5 -257t64 -312t-64 -311.5t-172.5 -256t-260 -171.5t-318.5 -64t-318.5 64t-260 171.5t-172.5 256t-64 311.5t64 312t172.5 257t260 172t318.5 64zM297 764q0 -163 78.5 -299.5t216 -215.5t303.5 -79q167 0 304.5 79.5
t215.5 215.5t78 299q0 164 -78 300.5t-215.5 216t-304.5 79.5q-166 0 -303.5 -79.5t-216 -216t-78.5 -300.5zM600 365v809h268q160 0 256.5 -77t96.5 -212q0 -73 -49 -137.5t-121 -94.5l217 -288h-267l-163 249h-21v-249h-217zM817 795h57q53 0 89 25.5t36 68.5
q0 53 -41.5 72.5t-111.5 19.5h-29v-186z" />
    <glyph glyph-name="macron" unicode="&#xaf;" 
d="M285 1343v252h798v-252h-798z" />
    <glyph glyph-name="degree" unicode="&#xb0;" horiz-adv-x="847" 
d="M424 848q-153 0 -259 104t-106 254q0 152 105.5 257.5t259.5 105.5t259 -105.5t105 -257.5q0 -150 -105.5 -254t-258.5 -104zM281 1206q0 -61 40.5 -101t102.5 -40t102.5 40t40.5 101q0 63 -40.5 104.5t-102.5 41.5t-102.5 -41.5t-40.5 -104.5z" />
    <glyph glyph-name="plusminus" unicode="&#xb1;" horiz-adv-x="1392" 
d="M862 1530v-385h418v-334h-418v-369h-352v369h-397v334h397v385h352zM113 0v334h1167v-334h-1167z" />
    <glyph glyph-name="uni00B2" unicode="&#xb2;" horiz-adv-x="882" 
d="M813 891v-262h-778q167 190 253 300.5t110 158t24 86.5q0 46 -32.5 75t-86.5 29q-90 0 -194 -90v293q57 37 137 57.5t160 20.5q162 0 262 -86t100 -220q0 -91 -52.5 -176.5t-154.5 -185.5h252z" />
    <glyph glyph-name="uni00B3" unicode="&#xb3;" horiz-adv-x="864" 
d="M98 1489q43 30 134 50t176 20q187 0 276.5 -74t89.5 -182q0 -69 -29.5 -114.5t-87.5 -82.5v-6q72 -27 107 -86t35 -125q0 -121 -107 -205t-295 -84q-93 0 -181 23t-140 61v262q60 -50 143 -76t164 -26q141 0 141 67q0 31 -35 46.5t-92 15.5h-186v221h170q50 0 77 15.5
t27 41.5q0 31 -32.5 46.5t-83.5 15.5q-150 0 -271 -64v240z" />
    <glyph glyph-name="acute" unicode="&#xb4;" 
d="M621 1651h417l-321 -375h-322z" />
    <glyph glyph-name="uni00B5" unicode="&#xb5;" horiz-adv-x="1441" 
d="M109 -430v1585h438v-661q0 -138 127 -138q129 0 129 138v661h438v-713q0 -62 24 -87t76 -25q29 0 62 10v-350q-75 -21 -158 -21q-115 0 -199 49.5t-128 143.5q-41 -90 -106.5 -141.5t-147.5 -51.5q-129 0 -222 103l117 -502h-450z" />
    <glyph glyph-name="paragraph" unicode="&#xb6;" horiz-adv-x="1677" 
d="M727 -430v944h-61q-141 0 -257.5 40.5t-192 109.5t-116.5 159.5t-41 192.5q0 107 41 200.5t117 163.5t191.5 110t257.5 40h860v-1960h-330v1642h-137v-1642h-332z" />
    <glyph glyph-name="periodcentered" unicode="&#xb7;" horiz-adv-x="614" 
d="M307 535q-95 0 -162 67t-67 162t67 162t162 67t162.5 -67t67.5 -162t-67.5 -162t-162.5 -67z" />
    <glyph glyph-name="cedilla" unicode="&#xb8;" 
d="M373 -387q209 230 209 426h336q0 -251 -142 -426h-403z" />
    <glyph glyph-name="uni00B9" unicode="&#xb9;" horiz-adv-x="700" 
d="M270 629v532l-215 -76v281l488 182h22v-919h-295z" />
    <glyph glyph-name="ordmasculine" unicode="&#xba;" horiz-adv-x="1071" 
d="M535 1554q205 0 342 -127.5t137 -332.5q0 -207 -137 -336t-342 -129q-133 0 -242 57t-173.5 164t-64.5 244q0 136 65 242t174 162t241 56zM397 1094q0 -75 40.5 -118.5t97.5 -43.5q56 0 96.5 44t40.5 118q0 73 -40.5 114t-96.5 41t-97 -41t-41 -114z" />
    <glyph glyph-name="guillemotright" unicode="&#xbb;" horiz-adv-x="1546" 
d="M109 -37v402l311 213l-311 213v401l665 -504v-221zM823 -37v402l312 213l-312 213v401l666 -504v-221z" />
    <glyph glyph-name="onequarter" unicode="&#xbc;" horiz-adv-x="2029" 
d="M270 629v532l-215 -76v281l488 182h22v-919h-295zM276 0l1010 1530h252l-1010 -1530h-252zM1096 168v180l430 553h307v-498h133v-235h-133v-168h-248v168h-489zM1585 403v238l-190 -238h190z" />
    <glyph glyph-name="onehalf" unicode="&#xbd;" horiz-adv-x="1992" 
d="M270 629v532l-215 -76v281l488 182h22v-919h-295zM276 0l1010 1530h252l-1010 -1530h-252zM1145 0q167 190 253 300.5t110 158t24 86.5q0 46 -32.5 75t-86.5 29q-90 0 -194 -90v293q57 37 137 57.5t160 20.5q162 0 262 -85.5t100 -219.5q0 -91 -52.5 -177t-154.5 -186
h252v-262h-778z" />
    <glyph glyph-name="threequarters" unicode="&#xbe;" horiz-adv-x="2193" 
d="M98 1489q43 30 134 50t176 20q187 0 276.5 -74t89.5 -182q0 -69 -29.5 -114.5t-87.5 -82.5v-6q72 -27 107 -86t35 -125q0 -121 -107 -205t-295 -84q-93 0 -181 23t-140 61v262q60 -50 143 -76t164 -26q141 0 141 67q0 31 -35 46.5t-92 15.5h-186v221h170q50 0 77 15.5
t27 41.5q0 31 -32.5 46.5t-83.5 15.5q-150 0 -271 -64v240zM440 0l1010 1530h252l-1010 -1530h-252zM1260 168v180l430 553h307v-498h133v-235h-133v-168h-248v168h-489zM1749 403v238l-190 -238h190z" />
    <glyph glyph-name="questiondown" unicode="&#xbf;" horiz-adv-x="1122" 
d="M584 -39q-122 0 -223.5 41.5t-163.5 107.5t-95.5 142t-33.5 151q0 40 7.5 78.5t17 69.5t31.5 68.5t38 62t49.5 65t53 62t62.5 68.5t64 71h402q-39 -48 -94.5 -115.5t-80 -98t-52.5 -71t-38 -69.5t-10 -59q0 -74 51 -121t140 -47q154 0 327 165v-417q-87 -72 -203.5 -113
t-248.5 -41zM371 1317q0 95 67 162t162 67t162 -67t67 -162t-67 -162.5t-162 -67.5t-162 67.5t-67 162.5z" />
    <glyph glyph-name="Agrave" unicode="&#xc0;" horiz-adv-x="1615" 
d="M1626 0h-465l-100 301h-506l-96 -301h-463l551 1530h518zM401 2025h418l225 -374h-321zM670 659h272l-137 418z" />
    <glyph glyph-name="Aacute" unicode="&#xc1;" horiz-adv-x="1615" 
d="M1626 0h-465l-100 301h-506l-96 -301h-463l551 1530h518zM590 1651l225 374h418l-322 -374h-321zM670 659h272l-137 418z" />
    <glyph glyph-name="Acircumflex" unicode="&#xc2;" horiz-adv-x="1615" 
d="M1626 0h-465l-100 301h-506l-96 -301h-463l551 1530h518zM342 1651l305 374h316l305 -374h-359l-104 143l-105 -143h-358zM670 659h272l-137 418z" />
    <glyph glyph-name="Atilde" unicode="&#xc3;" horiz-adv-x="1615" 
d="M1626 0h-465l-100 301h-506l-96 -301h-463l551 1530h518zM307 1661q-10 181 71.5 275t225.5 94q52 0 104 -17.5t87 -39t79 -39t82 -17.5q52 0 77.5 31.5t25.5 76.5h244q10 -181 -72 -274.5t-227 -93.5q-64 0 -127.5 28t-120 56t-103.5 28q-52 0 -77 -31.5t-25 -76.5h-244
zM670 659h272l-137 418z" />
    <glyph glyph-name="Adieresis" unicode="&#xc4;" horiz-adv-x="1615" 
d="M1626 0h-465l-100 301h-506l-96 -301h-463l551 1530h518zM358 1843q0 76 56 131.5t133 55.5q78 0 134 -55t56 -132q0 -76 -56 -131t-134 -55q-77 0 -133 55t-56 131zM670 659h272l-137 418zM874 1843q0 77 55.5 132t133.5 55t133 -55t55 -132t-55 -131.5t-133 -54.5
t-133.5 54.5t-55.5 131.5z" />
    <glyph glyph-name="Aring" unicode="&#xc5;" horiz-adv-x="1615" 
d="M1626 0h-465l-100 301h-506l-96 -301h-463l551 1530h518zM520 1901q0 112 80 184t205 72q121 0 198.5 -71.5t77.5 -184.5t-77.5 -184.5t-198.5 -71.5q-125 0 -205 72t-80 184zM670 659h272l-137 418zM696 1901q0 -44 31 -72.5t78 -28.5q44 0 72 28.5t28 72.5
q0 43 -28 70.5t-72 27.5q-47 0 -78 -27.5t-31 -70.5z" />
    <glyph glyph-name="AE" unicode="&#xc6;" horiz-adv-x="2238" 
d="M2138 1530v-404h-569v-178h512v-360h-512v-185h569v-403h-1016v317h-469l-180 -317h-516l907 1530h1274zM854 674h268v461h-6z" />
    <glyph glyph-name="Ccedilla" unicode="&#xc7;" horiz-adv-x="1384" 
d="M1298 70q-166 -81 -317 -101q-20 -212 -139 -356h-404q185 202 207 379q-260 68 -424 276t-164 496q0 175 64 326.5t173.5 255.5t258 163.5t313.5 59.5q216 0 432 -107v-434q-94 67 -182 98t-192 31q-181 0 -298.5 -111t-117.5 -282q0 -170 117.5 -282.5t298.5 -112.5
q101 0 187.5 34.5t186.5 106.5v-440z" />
    <glyph glyph-name="Egrave" unicode="&#xc8;" horiz-adv-x="1288" 
d="M133 0v1530h1057v-397h-610v-185h548v-360h-548v-191h610v-397h-1057zM260 2025h418l225 -374h-321z" />
    <glyph glyph-name="Eacute" unicode="&#xc9;" horiz-adv-x="1288" 
d="M133 0v1530h1057v-397h-610v-185h548v-360h-548v-191h610v-397h-1057zM449 1651l225 374h418l-322 -374h-321z" />
    <glyph glyph-name="Ecircumflex" unicode="&#xca;" horiz-adv-x="1288" 
d="M133 0v1530h1057v-397h-610v-185h548v-360h-548v-191h610v-397h-1057zM201 1651l305 374h315l305 -374h-358l-104 143l-105 -143h-358z" />
    <glyph glyph-name="Edieresis" unicode="&#xcb;" horiz-adv-x="1288" 
d="M133 0v1530h1057v-397h-610v-185h548v-360h-548v-191h610v-397h-1057zM217 1843q0 76 56 131.5t133 55.5q78 0 134 -55t56 -132q0 -76 -56 -131t-134 -55q-77 0 -133 55t-56 131zM733 1843q0 77 55.5 132t133.5 55t133 -55t55 -132t-55 -131.5t-133 -54.5t-133.5 54.5
t-55.5 131.5z" />
    <glyph glyph-name="Igrave" unicode="&#xcc;" horiz-adv-x="712" 
d="M133 0v1530h447v-1530h-447zM-47 2025h418l225 -374h-322z" />
    <glyph glyph-name="Iacute" unicode="&#xcd;" horiz-adv-x="712" 
d="M133 0v1530h447v-1530h-447zM141 1651l226 374h417l-321 -374h-322z" />
    <glyph glyph-name="Icircumflex" unicode="&#xce;" horiz-adv-x="712" 
d="M133 0v1530h447v-1530h-447zM-106 1651l305 374h315l305 -374h-358l-105 143l-104 -143h-358z" />
    <glyph glyph-name="Idieresis" unicode="&#xcf;" horiz-adv-x="712" 
d="M133 0v1530h447v-1530h-447zM-90 1843q0 76 55.5 131.5t132.5 55.5q78 0 134.5 -55.5t56.5 -131.5t-56.5 -131t-134.5 -55q-77 0 -132.5 55t-55.5 131zM426 1843q0 77 55 132t133 55t133.5 -55t55.5 -132t-55.5 -131.5t-133.5 -54.5t-133 54.5t-55 131.5z" />
    <glyph glyph-name="Eth" unicode="&#xd0;" horiz-adv-x="1591" 
d="M25 602v320h143v608h516q248 0 440.5 -94.5t300 -269.5t107.5 -402t-107.5 -401.5t-300 -268.5t-440.5 -94h-516v602h-143zM614 403h86q175 0 278 95.5t103 265.5q0 171 -103 266.5t-278 95.5h-86v-204h244v-320h-244v-199z" />
    <glyph glyph-name="Ntilde" unicode="&#xd1;" horiz-adv-x="1669" 
d="M1536 1530v-1530h-426l-551 821h-2v-821h-424v1530h426l551 -807h2v807h424zM367 1661q-10 181 71.5 275t225.5 94q52 0 104 -17.5t87 -39t79 -39t82 -17.5q52 0 77 31.5t25 76.5h244q10 -181 -72 -274.5t-227 -93.5q-51 0 -102.5 17.5t-86.5 38.5t-79 38.5t-82 17.5
q-52 0 -77.5 -31.5t-25.5 -76.5h-243z" />
    <glyph glyph-name="Ograve" unicode="&#xd2;" horiz-adv-x="1740" 
d="M870 367q70 0 134.5 27t116 76t82 126t30.5 170q0 92 -30.5 168.5t-82 125.5t-116 76t-134.5 27t-135 -27t-115.5 -76t-81 -125.5t-30.5 -168.5q0 -183 107 -291t255 -108zM57 766q0 174 63.5 324.5t172.5 255t258.5 164t318.5 59.5q170 0 320 -59.5t258.5 -164
t171.5 -255t63 -324.5t-63 -324.5t-171.5 -255.5t-258.5 -165t-320 -60t-319.5 60t-258.5 165t-172 255.5t-63 324.5zM467 2025h418l225 -374h-322z" />
    <glyph glyph-name="Oacute" unicode="&#xd3;" horiz-adv-x="1740" 
d="M870 367q70 0 134.5 27t116 76t82 126t30.5 170q0 92 -30.5 168.5t-82 125.5t-116 76t-134.5 27t-135 -27t-115.5 -76t-81 -125.5t-30.5 -168.5q0 -183 107 -291t255 -108zM57 766q0 174 63.5 324.5t172.5 255t258.5 164t318.5 59.5q170 0 320 -59.5t258.5 -164
t171.5 -255t63 -324.5t-63 -324.5t-171.5 -255.5t-258.5 -165t-320 -60t-319.5 60t-258.5 165t-172 255.5t-63 324.5zM655 1651l226 374h417l-321 -374h-322z" />
    <glyph glyph-name="Ocircumflex" unicode="&#xd4;" horiz-adv-x="1740" 
d="M870 367q70 0 134.5 27t116 76t82 126t30.5 170q0 92 -30.5 168.5t-82 125.5t-116 76t-134.5 27t-135 -27t-115.5 -76t-81 -125.5t-30.5 -168.5q0 -183 107 -291t255 -108zM57 766q0 174 63.5 324.5t172.5 255t258.5 164t318.5 59.5q170 0 320 -59.5t258.5 -164
t171.5 -255t63 -324.5t-63 -324.5t-171.5 -255.5t-258.5 -165t-320 -60t-319.5 60t-258.5 165t-172 255.5t-63 324.5zM408 1651l305 374h315l305 -374h-358l-105 143l-104 -143h-358z" />
    <glyph glyph-name="Otilde" unicode="&#xd5;" horiz-adv-x="1740" 
d="M870 367q70 0 134.5 27t116 76t82 126t30.5 170q0 92 -30.5 168.5t-82 125.5t-116 76t-134.5 27t-135 -27t-115.5 -76t-81 -125.5t-30.5 -168.5q0 -183 107 -291t255 -108zM57 766q0 174 63.5 324.5t172.5 255t258.5 164t318.5 59.5q170 0 320 -59.5t258.5 -164
t171.5 -255t63 -324.5t-63 -324.5t-171.5 -255.5t-258.5 -165t-320 -60t-319.5 60t-258.5 165t-172 255.5t-63 324.5zM373 1661q-10 181 71.5 275t225.5 94q52 0 104 -17.5t87 -39t79 -39t82 -17.5q52 0 77 31.5t25 76.5h244q10 -181 -72 -274.5t-227 -93.5
q-51 0 -102.5 17.5t-86.5 38.5t-79 38.5t-82 17.5q-52 0 -77.5 -31.5t-25.5 -76.5h-243z" />
    <glyph glyph-name="Odieresis" unicode="&#xd6;" horiz-adv-x="1740" 
d="M870 367q70 0 134.5 27t116 76t82 126t30.5 170q0 92 -30.5 168.5t-82 125.5t-116 76t-134.5 27t-135 -27t-115.5 -76t-81 -125.5t-30.5 -168.5q0 -183 107 -291t255 -108zM57 766q0 174 63.5 324.5t172.5 255t258.5 164t318.5 59.5q170 0 320 -59.5t258.5 -164
t171.5 -255t63 -324.5t-63 -324.5t-171.5 -255.5t-258.5 -165t-320 -60t-319.5 60t-258.5 165t-172 255.5t-63 324.5zM424 1843q0 76 55.5 131.5t132.5 55.5q78 0 134.5 -55.5t56.5 -131.5t-56.5 -131t-134.5 -55q-77 0 -132.5 55t-55.5 131zM940 1843q0 77 55 132t133 55
t133.5 -55t55.5 -132t-55.5 -131.5t-133.5 -54.5t-133 54.5t-55 131.5z" />
    <glyph glyph-name="multiply" unicode="&#xd7;" horiz-adv-x="1400" 
d="M1085 1382l236 -235l-385 -383l385 -383l-236 -236l-385 383l-385 -383l-235 236l385 383l-385 383l235 235l385 -383z" />
    <glyph glyph-name="Oslash" unicode="&#xd8;" horiz-adv-x="1742" 
d="M262 -51l-188 182l141 148q-156 209 -156 487q0 174 63.5 324.5t172.5 255t258.5 164t318.5 59.5q255 0 455 -127l133 139l189 -184l-127 -131q164 -210 164 -500q0 -174 -63 -324.5t-171.5 -255.5t-259 -165t-320.5 -60q-262 0 -466 137zM500 766q0 -90 24 -164l514 537
q-74 39 -166 39q-156 0 -264 -110.5t-108 -301.5zM692 397q82 -45 180 -45q155 0 264 111t109 303q0 97 -31 176z" />
    <glyph glyph-name="Ugrave" unicode="&#xd9;" horiz-adv-x="1585" 
d="M788 -39q-207 0 -360.5 85.5t-233 234.5t-79.5 342v907h446v-903q0 -126 59.5 -193t167.5 -67q111 0 172.5 67t61.5 195v901h448v-907q0 -144 -47.5 -266t-134 -209.5t-215.5 -137t-285 -49.5zM389 2025h418l225 -374h-321z" />
    <glyph glyph-name="Uacute" unicode="&#xda;" horiz-adv-x="1585" 
d="M788 -39q-207 0 -360.5 85.5t-233 234.5t-79.5 342v907h446v-903q0 -126 59.5 -193t167.5 -67q111 0 172.5 67t61.5 195v901h448v-907q0 -144 -47.5 -266t-134 -209.5t-215.5 -137t-285 -49.5zM578 1651l225 374h418l-322 -374h-321z" />
    <glyph glyph-name="Ucircumflex" unicode="&#xdb;" horiz-adv-x="1585" 
d="M788 -39q-207 0 -360.5 85.5t-233 234.5t-79.5 342v907h446v-903q0 -126 59.5 -193t167.5 -67q111 0 172.5 67t61.5 195v901h448v-907q0 -144 -47.5 -266t-134 -209.5t-215.5 -137t-285 -49.5zM330 1651l305 374h315l305 -374h-358l-104 143l-105 -143h-358z" />
    <glyph glyph-name="Udieresis" unicode="&#xdc;" horiz-adv-x="1585" 
d="M788 -39q-207 0 -360.5 85.5t-233 234.5t-79.5 342v907h446v-903q0 -126 59.5 -193t167.5 -67q111 0 172.5 67t61.5 195v901h448v-907q0 -144 -47.5 -266t-134 -209.5t-215.5 -137t-285 -49.5zM346 1843q0 76 56 131.5t133 55.5q78 0 134 -55t56 -132q0 -76 -56 -131
t-134 -55q-77 0 -133 55t-56 131zM862 1843q0 77 55.5 132t133.5 55t133 -55t55 -132t-55 -131.5t-133 -54.5t-133.5 54.5t-55.5 131.5z" />
    <glyph glyph-name="Yacute" unicode="&#xdd;" horiz-adv-x="1560" 
d="M557 0v582l-571 948h499l306 -553h8l301 553h473l-569 -946v-584h-447zM578 1651l225 374h418l-322 -374h-321z" />
    <glyph glyph-name="Thorn" unicode="&#xde;" horiz-adv-x="1411" 
d="M133 0v1530h447v-174h104q335 0 514.5 -153t179.5 -417q0 -93 -25.5 -179.5t-79.5 -162.5t-131.5 -132.5t-187 -89t-239.5 -32.5h-135v-190h-447zM580 586h155q82 0 137.5 48t55.5 134q0 89 -55.5 136.5t-141.5 47.5h-151v-366z" />
    <glyph glyph-name="germandbls" unicode="&#xdf;" horiz-adv-x="1525" 
d="M109 1030q0 313 173 478t474 165q259 0 412 -120t153 -308q0 -214 -160 -313v-4q153 -53 233.5 -165t80.5 -274q0 -229 -151 -370.5t-390 -141.5q-66 0 -139 10t-107 23v359q73 -25 143 -25q95 0 154 44t59 124q0 75 -54.5 120.5t-164.5 45.5h-127v283h27
q87 0 137.5 52.5t50.5 125.5q0 70 -48.5 118t-123.5 48q-81 0 -133.5 -53t-52.5 -146v-1106h-446v1030z" />
    <glyph glyph-name="agrave" unicode="&#xe0;" horiz-adv-x="1437" 
d="M561 -33q-95 0 -186 45t-162 123t-114.5 193t-43.5 245q0 133 43.5 250t114.5 196t162 124t186 45q221 0 352 -182h2l41 149h373v-1155h-373l-41 150h-2q-131 -183 -352 -183zM352 1651h418l225 -375h-321zM498 578q0 -94 56.5 -158t145.5 -64q87 0 142 63t55 159
t-55 158.5t-142 62.5q-89 0 -145.5 -64.5t-56.5 -156.5z" />
    <glyph glyph-name="aacute" unicode="&#xe1;" horiz-adv-x="1437" 
d="M561 -33q-95 0 -186 45t-162 123t-114.5 193t-43.5 245q0 133 43.5 250t114.5 196t162 124t186 45q221 0 352 -182h2l41 149h373v-1155h-373l-41 150h-2q-131 -183 -352 -183zM498 578q0 -94 56.5 -158t145.5 -64q87 0 142 63t55 159t-55 158.5t-142 62.5
q-89 0 -145.5 -64.5t-56.5 -156.5zM541 1276l225 375h418l-322 -375h-321z" />
    <glyph glyph-name="acircumflex" unicode="&#xe2;" horiz-adv-x="1437" 
d="M561 -33q-95 0 -186 45t-162 123t-114.5 193t-43.5 245q0 133 43.5 250t114.5 196t162 124t186 45q221 0 352 -182h2l41 149h373v-1155h-373l-41 150h-2q-131 -183 -352 -183zM293 1276l305 375h315l306 -375h-359l-104 143l-105 -143h-358zM498 578q0 -94 56.5 -158
t145.5 -64q87 0 142 63t55 159t-55 158.5t-142 62.5q-89 0 -145.5 -64.5t-56.5 -156.5z" />
    <glyph glyph-name="atilde" unicode="&#xe3;" horiz-adv-x="1437" 
d="M561 -33q-95 0 -186 45t-162 123t-114.5 193t-43.5 245q0 133 43.5 250t114.5 196t162 124t186 45q221 0 352 -182h2l41 149h373v-1155h-373l-41 150h-2q-131 -183 -352 -183zM258 1286q-10 181 71.5 275t225.5 94q52 0 104 -17.5t87 -39t79 -39t82 -17.5q52 0 77.5 32
t25.5 77h243q10 -181 -72 -275t-227 -94q-51 0 -102.5 17.5t-86.5 39t-79 39t-82 17.5q-51 0 -76.5 -32t-25.5 -77h-244zM498 578q0 -94 56.5 -158t145.5 -64q87 0 142 63t55 159t-55 158.5t-142 62.5q-89 0 -145.5 -64.5t-56.5 -156.5z" />
    <glyph glyph-name="adieresis" unicode="&#xe4;" horiz-adv-x="1437" 
d="M561 -33q-95 0 -186 45t-162 123t-114.5 193t-43.5 245q0 133 43.5 250t114.5 196t162 124t186 45q221 0 352 -182h2l41 149h373v-1155h-373l-41 150h-2q-131 -183 -352 -183zM309 1468q0 76 56 131.5t133 55.5q78 0 134 -55t56 -132q0 -76 -56 -131t-134 -55
q-77 0 -133 55t-56 131zM498 578q0 -94 56.5 -158t145.5 -64q87 0 142 63t55 159t-55 158.5t-142 62.5q-89 0 -145.5 -64.5t-56.5 -156.5zM825 1468q0 77 55.5 132t133.5 55t133 -55t55 -132t-55 -131.5t-133 -54.5t-133.5 54.5t-55.5 131.5z" />
    <glyph glyph-name="aring" unicode="&#xe5;" horiz-adv-x="1437" 
d="M561 -33q-95 0 -186 45t-162 123t-114.5 193t-43.5 245q0 133 43.5 250t114.5 196t162 124t186 45q221 0 352 -182h2l41 149h373v-1155h-373l-41 150h-2q-131 -183 -352 -183zM471 1526q0 112 80 184t205 72q121 0 198.5 -71.5t77.5 -184.5t-77.5 -184.5t-198.5 -71.5
q-125 0 -205 72t-80 184zM498 578q0 -94 56.5 -158t145.5 -64q87 0 142 63t55 159t-55 158.5t-142 62.5q-89 0 -145.5 -64.5t-56.5 -156.5zM647 1526q0 -44 31 -72.5t78 -28.5q44 0 72 28.5t28 72.5q0 43 -28 70.5t-72 27.5q-47 0 -78 -27.5t-31 -70.5z" />
    <glyph glyph-name="ae" unicode="&#xe6;" horiz-adv-x="1896" 
d="M1763 53q-180 -86 -399 -86q-303 0 -465 168q-84 -79 -196 -123.5t-230 -44.5q-187 0 -306.5 105t-119.5 268q0 154 109 256t299 102q106 0 241 -30v39q0 57 -44 94t-140 37q-168 0 -348 -107v340q200 117 411 117q223 0 357 -137q149 137 368 137q109 0 206 -39
t172 -111.5t119 -186.5t44 -255q0 -68 -10 -133h-711q37 -81 117.5 -121.5t187.5 -40.5q143 0 338 86v-334zM432 381q0 -35 27.5 -60.5t79.5 -25.5q66 0 111.5 40t45.5 97v14q-67 27 -133 27q-68 0 -99.5 -27.5t-31.5 -64.5zM1106 713h321q-2 58 -42 99.5t-107 41.5
q-61 0 -105.5 -37t-66.5 -104z" />
    <glyph glyph-name="ccedilla" unicode="&#xe7;" horiz-adv-x="1120" 
d="M496 578q0 -100 73 -161t187 -61q159 0 278 82v-389q-107 -54 -233 -72q-16 -212 -139 -364h-404q188 205 207 387q-186 61 -299 216t-113 364q0 177 84 317t227 215.5t316 75.5q203 0 354 -80v-389q-135 80 -278 80q-114 0 -187 -60.5t-73 -160.5z" />
    <glyph glyph-name="egrave" unicode="&#xe8;" horiz-adv-x="1269" 
d="M737 -33q-162 0 -292.5 46t-215.5 127.5t-130.5 192.5t-45.5 242q0 177 78.5 317.5t215.5 218t306 77.5q117 0 218 -38.5t178 -111.5t121 -187t44 -255q0 -68 -10 -133h-725q40 -80 126 -121t194 -41q143 0 338 86v-334q-180 -86 -400 -86zM260 1651h418l225 -375h-321z
M463 705h338q-2 63 -42 106t-108 43q-64 0 -114.5 -40t-73.5 -109z" />
    <glyph glyph-name="eacute" unicode="&#xe9;" horiz-adv-x="1269" 
d="M737 -33q-162 0 -292.5 46t-215.5 127.5t-130.5 192.5t-45.5 242q0 177 78.5 317.5t215.5 218t306 77.5q117 0 218 -38.5t178 -111.5t121 -187t44 -255q0 -68 -10 -133h-725q40 -80 126 -121t194 -41q143 0 338 86v-334q-180 -86 -400 -86zM449 1276l225 375h418
l-322 -375h-321zM463 705h338q-2 63 -42 106t-108 43q-64 0 -114.5 -40t-73.5 -109z" />
    <glyph glyph-name="ecircumflex" unicode="&#xea;" horiz-adv-x="1269" 
d="M737 -33q-162 0 -292.5 46t-215.5 127.5t-130.5 192.5t-45.5 242q0 177 78.5 317.5t215.5 218t306 77.5q117 0 218 -38.5t178 -111.5t121 -187t44 -255q0 -68 -10 -133h-725q40 -80 126 -121t194 -41q143 0 338 86v-334q-180 -86 -400 -86zM201 1276l305 375h315
l305 -375h-358l-104 143l-105 -143h-358zM463 705h338q-2 63 -42 106t-108 43q-64 0 -114.5 -40t-73.5 -109z" />
    <glyph glyph-name="edieresis" unicode="&#xeb;" horiz-adv-x="1269" 
d="M737 -33q-162 0 -292.5 46t-215.5 127.5t-130.5 192.5t-45.5 242q0 177 78.5 317.5t215.5 218t306 77.5q117 0 218 -38.5t178 -111.5t121 -187t44 -255q0 -68 -10 -133h-725q40 -80 126 -121t194 -41q143 0 338 86v-334q-180 -86 -400 -86zM217 1468q0 76 56 131.5
t133 55.5q78 0 134 -55t56 -132q0 -76 -56 -131t-134 -55q-77 0 -133 55t-56 131zM463 705h338q-2 63 -42 106t-108 43q-64 0 -114.5 -40t-73.5 -109zM733 1468q0 77 55.5 132t133.5 55t133 -55t55 -132t-55 -131.5t-133 -54.5t-133.5 54.5t-55.5 131.5z" />
    <glyph glyph-name="igrave" unicode="&#xec;" horiz-adv-x="655" 
d="M109 0v1155h438v-1155h-438zM-76 1704h418l225 -375h-321z" />
    <glyph glyph-name="iacute" unicode="&#xed;" horiz-adv-x="655" 
d="M109 0v1155h438v-1155h-438zM113 1329l225 375h418l-322 -375h-321z" />
    <glyph glyph-name="icircumflex" unicode="&#xee;" horiz-adv-x="655" 
d="M109 0v1155h438v-1155h-438zM-135 1329l305 375h315l306 -375h-359l-104 144l-105 -144h-358z" />
    <glyph glyph-name="idieresis" unicode="&#xef;" horiz-adv-x="655" 
d="M109 0v1155h438v-1155h-438zM-119 1522q0 76 56 131t133 55q78 0 134 -55t56 -131q0 -77 -56 -132t-134 -55q-77 0 -133 55.5t-56 131.5zM397 1522q0 77 55.5 131.5t133.5 54.5t133 -54.5t55 -131.5t-55 -132t-133 -55t-133.5 55t-55.5 132z" />
    <glyph glyph-name="eth" unicode="&#xf0;" horiz-adv-x="1378" 
d="M823 1651l68 -78l172 61l59 -153l-123 -47q166 -223 243 -416t77 -383q0 -154 -49 -281t-134.5 -211t-201 -130t-248.5 -46q-172 0 -316.5 77t-229.5 214.5t-85 306.5q0 129 43.5 238.5t116 181.5t164.5 112t190 40q140 0 242 -88l6 2q-53 114 -166 254l-176 -66l-63 162
l123 45q-71 82 -191 205h479zM498 575q0 -96 56.5 -157.5t131.5 -61.5t131.5 61.5t56.5 157.5t-56 156t-132 60q-74 0 -131 -60t-57 -156z" />
    <glyph glyph-name="ntilde" unicode="&#xf1;" horiz-adv-x="1341" 
d="M842 1188q189 0 294 -107.5t105 -302.5v-778h-438v664q0 135 -121 135q-62 0 -98.5 -36t-36.5 -93v-670h-438v1155h340l43 -151h8q55 85 142.5 134.5t199.5 49.5zM199 1286q-10 181 71.5 275t225.5 94q52 0 104 -17.5t87 -39t79 -39t82 -17.5q51 0 76.5 32t25.5 77h244
q10 -181 -72 -275t-227 -94q-51 0 -102.5 17.5t-86.5 39t-79 39t-82 17.5q-52 0 -77.5 -32t-25.5 -77h-243z" />
    <glyph glyph-name="ograve" unicode="&#xf2;" 
d="M684 -33q-130 0 -246 44.5t-201 123.5t-134.5 194.5t-49.5 250.5q0 180 85.5 320t228.5 214t317 74q177 0 320 -74t227 -214t84 -320t-84 -320.5t-227.5 -216.5t-319.5 -76zM276 1618h418l226 -375h-322zM496 580q0 -101 56 -162.5t132 -61.5t132 61.5t56 162.5
t-55.5 160t-132.5 59q-75 0 -131.5 -59.5t-56.5 -159.5z" />
    <glyph glyph-name="oacute" unicode="&#xf3;" 
d="M684 -33q-130 0 -246 44.5t-201 123.5t-134.5 194.5t-49.5 250.5q0 180 85.5 320t228.5 214t317 74q177 0 320 -74t227 -214t84 -320t-84 -320.5t-227.5 -216.5t-319.5 -76zM465 1243l225 375h418l-322 -375h-321zM496 580q0 -101 56 -162.5t132 -61.5t132 61.5t56 162.5
t-55.5 160t-132.5 59q-75 0 -131.5 -59.5t-56.5 -159.5z" />
    <glyph glyph-name="ocircumflex" unicode="&#xf4;" 
d="M684 -33q-130 0 -246 44.5t-201 123.5t-134.5 194.5t-49.5 250.5q0 180 85.5 320t228.5 214t317 74q177 0 320 -74t227 -214t84 -320t-84 -320.5t-227.5 -216.5t-319.5 -76zM217 1243l305 375h316l305 -375h-359l-104 143l-105 -143h-358zM496 580q0 -101 56 -162.5
t132 -61.5t132 61.5t56 162.5t-55.5 160t-132.5 59q-75 0 -131.5 -59.5t-56.5 -159.5z" />
    <glyph glyph-name="otilde" unicode="&#xf5;" 
d="M684 -33q-130 0 -246 44.5t-201 123.5t-134.5 194.5t-49.5 250.5q0 180 85.5 320t228.5 214t317 74q177 0 320 -74t227 -214t84 -320t-84 -320.5t-227.5 -216.5t-319.5 -76zM182 1253q-10 181 71.5 275t225.5 94q52 0 104 -17.5t87 -39t79 -39t82 -17.5q52 0 77.5 32
t25.5 77h244q10 -181 -72 -275t-227 -94q-51 0 -102.5 17.5t-87 39t-79.5 39t-82 17.5q-51 0 -76.5 -32t-25.5 -77h-244zM496 580q0 -101 56 -162.5t132 -61.5t132 61.5t56 162.5t-55.5 160t-132.5 59q-75 0 -131.5 -59.5t-56.5 -159.5z" />
    <glyph glyph-name="odieresis" unicode="&#xf6;" 
d="M684 -33q-130 0 -246 44.5t-201 123.5t-134.5 194.5t-49.5 250.5q0 180 85.5 320t228.5 214t317 74q177 0 320 -74t227 -214t84 -320t-84 -320.5t-227.5 -216.5t-319.5 -76zM233 1436q0 76 56 131t133 55q78 0 134 -55t56 -131q0 -77 -56 -132t-134 -55q-77 0 -133 55.5
t-56 131.5zM496 580q0 -101 56 -162.5t132 -61.5t132 61.5t56 162.5t-55.5 160t-132.5 59q-75 0 -131.5 -59.5t-56.5 -159.5zM750 1436q0 77 55 131.5t133 54.5t133 -54.5t55 -131.5t-55 -132t-133 -55t-133 55t-55 132z" />
    <glyph glyph-name="divide" unicode="&#xf7;" horiz-adv-x="1374" 
d="M74 592v346h1226v-346h-1226zM457 315q0 95 67 162.5t162 67.5t162 -67.5t67 -162.5t-67 -162t-162 -67t-162 67t-67 162zM457 1214q0 95 67 162.5t162 67.5t162 -67.5t67 -162.5t-67 -162t-162 -67t-162 67t-67 162z" />
    <glyph glyph-name="oslash" unicode="&#xf8;" 
d="M233 -45l-155 149l96 101q-121 159 -121 375q0 180 85.5 320t228.5 214t317 74q197 0 346 -90l94 98l156 -152l-86 -90q121 -156 121 -374q0 -180 -84 -320.5t-227.5 -216.5t-319.5 -76q-194 0 -348 94zM440 580q0 -36 11 -86l321 335q-46 17 -88 17q-99 0 -171.5 -71
t-72.5 -195zM592 328q46 -19 92 -19q100 0 172 73t72 198q0 44 -10 86z" />
    <glyph glyph-name="ugrave" unicode="&#xf9;" horiz-adv-x="1320" 
d="M659 -33q-261 0 -413 145t-152 375v668h438v-661q0 -138 127 -138q129 0 129 138v661h439v-668q0 -230 -153.5 -375t-414.5 -145zM256 1651h418l225 -375h-321z" />
    <glyph glyph-name="uacute" unicode="&#xfa;" horiz-adv-x="1320" 
d="M659 -33q-261 0 -413 145t-152 375v668h438v-661q0 -138 127 -138q129 0 129 138v661h439v-668q0 -230 -153.5 -375t-414.5 -145zM444 1276l226 375h417l-321 -375h-322z" />
    <glyph glyph-name="ucircumflex" unicode="&#xfb;" horiz-adv-x="1320" 
d="M659 -33q-261 0 -413 145t-152 375v668h438v-661q0 -138 127 -138q129 0 129 138v661h439v-668q0 -230 -153.5 -375t-414.5 -145zM197 1276l305 375h315l305 -375h-358l-105 143l-104 -143h-358z" />
    <glyph glyph-name="udieresis" unicode="&#xfc;" horiz-adv-x="1320" 
d="M659 -33q-261 0 -413 145t-152 375v668h438v-661q0 -138 127 -138q129 0 129 138v661h439v-668q0 -230 -153.5 -375t-414.5 -145zM213 1468q0 76 55.5 131.5t132.5 55.5q78 0 134.5 -55.5t56.5 -131.5t-56.5 -131t-134.5 -55q-77 0 -132.5 55t-55.5 131zM729 1468
q0 77 55.5 132t133.5 55t133 -55t55 -132t-55 -131.5t-133 -54.5t-133.5 54.5t-55.5 131.5z" />
    <glyph glyph-name="yacute" unicode="&#xfd;" horiz-adv-x="1304" 
d="M1313 1155l-635 -1585h-434l194 455l-440 1130h467l197 -670h8l196 670h447zM451 1276l225 375h418l-322 -375h-321z" />
    <glyph glyph-name="thorn" unicode="&#xfe;" horiz-adv-x="1433" 
d="M547 1651v-639q55 76 143.5 117.5t190.5 41.5q212 0 353.5 -165.5t141.5 -427.5t-141.5 -428t-353.5 -166q-102 0 -190.5 41.5t-143.5 117.5v-573h-438v2081h438zM547 578q0 -95 53 -150t137 -55q83 0 137 56t54 149q0 95 -53.5 149.5t-137.5 54.5t-137 -54.5t-53 -149.5
z" />
    <glyph glyph-name="ydieresis" unicode="&#xff;" horiz-adv-x="1304" 
d="M1313 1155l-635 -1585h-434l194 455l-440 1130h467l197 -670h8l196 670h447zM219 1468q0 76 56 131.5t133 55.5q78 0 134 -55t56 -132q0 -76 -56 -131t-134 -55q-77 0 -133 55t-56 131zM735 1468q0 77 55.5 132t133.5 55t133 -55t55 -132t-55 -131.5t-133 -54.5
t-133.5 54.5t-55.5 131.5z" />
    <glyph glyph-name="Amacron" unicode="&#x100;" horiz-adv-x="1615" 
d="M1626 0h-465l-100 301h-506l-96 -301h-463l551 1530h518zM406 1718v252h798v-252h-798zM670 659h272l-137 418z" />
    <glyph glyph-name="amacron" unicode="&#x101;" horiz-adv-x="1437" 
d="M561 -33q-95 0 -186 45t-162 123t-114.5 193t-43.5 245q0 133 43.5 250t114.5 196t162 124t186 45q221 0 352 -182h2l41 149h373v-1155h-373l-41 150h-2q-131 -183 -352 -183zM356 1343v252h799v-252h-799zM498 578q0 -94 56.5 -158t145.5 -64q87 0 142 63t55 159
t-55 158.5t-142 62.5q-89 0 -145.5 -64.5t-56.5 -156.5z" />
    <glyph glyph-name="Abreve" unicode="&#x102;" horiz-adv-x="1615" 
d="M1626 0h-465l-100 301h-506l-96 -301h-463l551 1530h518zM354 2025h264q5 -73 53.5 -119t133.5 -46t133 45.5t53 119.5h264q6 -87 -19.5 -159t-71.5 -118t-107.5 -77.5t-124.5 -45t-127 -13.5t-127 13.5t-125 45t-107.5 77.5t-71.5 118t-20 159zM670 659h272l-137 418z
" />
    <glyph glyph-name="abreve" unicode="&#x103;" horiz-adv-x="1437" 
d="M561 -33q-95 0 -186 45t-162 123t-114.5 193t-43.5 245q0 133 43.5 250t114.5 196t162 124t186 45q221 0 352 -182h2l41 149h373v-1155h-373l-41 150h-2q-131 -183 -352 -183zM305 1651h264q5 -74 53.5 -120t133.5 -46t133 46t53 120h264q6 -87 -19.5 -159t-71.5 -118
t-107.5 -78t-124.5 -45.5t-127 -13.5t-127 13.5t-125 45.5t-107.5 78t-71.5 118t-20 159zM498 578q0 -94 56.5 -158t145.5 -64q87 0 142 63t55 159t-55 158.5t-142 62.5q-89 0 -145.5 -64.5t-56.5 -156.5z" />
    <glyph glyph-name="Aogonek" unicode="&#x104;" horiz-adv-x="1615" 
d="M1626 0q-75 -41 -113 -73.5t-38 -71.5q0 -36 28.5 -57t69.5 -21q37 0 53 8v-213q-15 -13 -63 -24t-103 -11q-145 0 -223 71t-78 181q0 109 94 211h-92l-100 301h-506l-96 -301h-463l551 1530h518zM670 659h272l-137 418z" />
    <glyph glyph-name="aogonek" unicode="&#x105;" horiz-adv-x="1437" 
d="M561 -33q-95 0 -186 45t-162 123t-114.5 193t-43.5 245q0 133 43.5 250t114.5 196t162 124t186 45q221 0 352 -182h2l41 149h373v-1155q-75 -41 -113 -73.5t-38 -71.5q0 -36 28.5 -57t69.5 -21q37 0 53 8v-213q-15 -13 -63 -24t-103 -11q-145 0 -223 71t-78 181
q0 109 94 211l-41 150h-2q-131 -183 -352 -183zM498 578q0 -94 56.5 -158t145.5 -64q87 0 142 63t55 159t-55 158.5t-142 62.5q-89 0 -145.5 -64.5t-56.5 -156.5z" />
    <glyph glyph-name="Cacute" unicode="&#x106;" horiz-adv-x="1384" 
d="M1298 70q-216 -107 -432 -107q-132 0 -254.5 37.5t-222.5 108.5t-175 167.5t-116 222t-41 265.5q0 175 64 326.5t173.5 255.5t258 163.5t313.5 59.5q216 0 432 -107v-434q-94 67 -182 98t-192 31q-181 0 -298.5 -111t-117.5 -282q0 -170 117.5 -282.5t298.5 -112.5
q101 0 187.5 34.5t186.5 106.5v-440zM631 1651l225 374h418l-322 -374h-321z" />
    <glyph glyph-name="cacute" unicode="&#x107;" horiz-adv-x="1120" 
d="M496 578q0 -100 73 -161t187 -61q159 0 278 82v-389q-161 -82 -354 -82q-174 0 -317 77t-226.5 218t-83.5 318t84 317t227 215.5t316 75.5q203 0 354 -80v-389q-135 80 -278 80q-114 0 -187 -60.5t-73 -160.5zM420 1276l225 375h418l-322 -375h-321z" />
    <glyph glyph-name="Cdotaccent" unicode="&#x10a;" horiz-adv-x="1384" 
d="M1298 70q-216 -107 -432 -107q-132 0 -254.5 37.5t-222.5 108.5t-175 167.5t-116 222t-41 265.5q0 175 64 326.5t173.5 255.5t258 163.5t313.5 59.5q216 0 432 -107v-434q-94 67 -182 98t-192 31q-181 0 -298.5 -111t-117.5 -282q0 -170 117.5 -282.5t298.5 -112.5
q101 0 187.5 34.5t186.5 106.5v-440zM657 1843q0 76 56 131.5t133 55.5q78 0 134 -55t56 -132q0 -76 -56 -131t-134 -55q-77 0 -133 55t-56 131z" />
    <glyph glyph-name="cdotaccent" unicode="&#x10b;" horiz-adv-x="1120" 
d="M496 578q0 -100 73 -161t187 -61q159 0 278 82v-389q-161 -82 -354 -82q-174 0 -317 77t-226.5 218t-83.5 318t84 317t227 215.5t316 75.5q203 0 354 -80v-389q-135 80 -278 80q-114 0 -187 -60.5t-73 -160.5zM446 1468q0 76 56 131.5t133 55.5q78 0 134 -55t56 -132
q0 -76 -56 -131t-134 -55q-77 0 -133 55t-56 131z" />
    <glyph glyph-name="Ccaron" unicode="&#x10c;" horiz-adv-x="1384" 
d="M1298 70q-216 -107 -432 -107q-132 0 -254.5 37.5t-222.5 108.5t-175 167.5t-116 222t-41 265.5q0 175 64 326.5t173.5 255.5t258 163.5t313.5 59.5q216 0 432 -107v-434q-94 67 -182 98t-192 31q-181 0 -298.5 -111t-117.5 -282q0 -170 117.5 -282.5t298.5 -112.5
q101 0 187.5 34.5t186.5 106.5v-440zM383 2025h358l105 -145l104 145h359l-314 -374h-299z" />
    <glyph glyph-name="ccaron" unicode="&#x10d;" horiz-adv-x="1120" 
d="M496 578q0 -100 73 -161t187 -61q159 0 278 82v-389q-161 -82 -354 -82q-174 0 -317 77t-226.5 218t-83.5 318t84 317t227 215.5t316 75.5q203 0 354 -80v-389q-135 80 -278 80q-114 0 -187 -60.5t-73 -160.5zM172 1651h358l105 -146l104 146h359l-314 -375h-299z" />
    <glyph glyph-name="Dcaron" unicode="&#x10e;" horiz-adv-x="1556" 
d="M649 1530q248 0 440.5 -94.5t300 -269.5t107.5 -402t-107.5 -401.5t-300 -268.5t-440.5 -94h-516v1530h516zM297 2025h358l105 -145l104 145h359l-314 -374h-299zM580 403h86q175 0 278 95.5t103 265.5q0 171 -103 266.5t-278 95.5h-86v-723z" />
    <glyph glyph-name="dcaron" unicode="&#x10f;" horiz-adv-x="1435" 
d="M567 -33q-100 0 -192.5 44t-164 121.5t-114.5 194t-43 251.5t42 251t112.5 193.5t162 121.5t191.5 44q110 0 194.5 -48.5t133.5 -127.5v639h438v-1651h-373l-41 150q-57 -80 -143.5 -131.5t-202.5 -51.5zM496 578q0 -94 56.5 -158t145.5 -64q87 0 142 63t55 159
t-55 158.5t-142 62.5q-89 0 -145.5 -64.5t-56.5 -156.5zM1458 1651h371q18 -83 18 -164q0 -185 -98 -389h-266q26 159 26 270q0 140 -51 283z" />
    <glyph glyph-name="Dcroat" unicode="&#x110;" horiz-adv-x="1591" 
d="M25 602v320h143v608h516q248 0 440.5 -94.5t300 -269.5t107.5 -402t-107.5 -401.5t-300 -268.5t-440.5 -94h-516v602h-143zM614 403h86q175 0 278 95.5t103 265.5q0 171 -103 266.5t-278 95.5h-86v-204h244v-320h-244v-199z" />
    <glyph glyph-name="dcroat" unicode="&#x111;" horiz-adv-x="1435" 
d="M1483 1530v-275h-156v-1255h-373l-41 150q-57 -80 -143.5 -131.5t-202.5 -51.5q-100 0 -192.5 44t-164 121.5t-114.5 194t-43 251.5t42 251t112.5 193.5t162 121.5t191.5 44q110 0 194.5 -48.5t133.5 -127.5v243h-287v275h287v121h438v-121h156zM496 578q0 -94 56.5 -158
t145.5 -64q87 0 142 63t55 159t-55 158.5t-142 62.5q-89 0 -145.5 -64.5t-56.5 -156.5z" />
    <glyph glyph-name="Emacron" unicode="&#x112;" horiz-adv-x="1288" 
d="M133 0v1530h1057v-397h-610v-185h548v-360h-548v-191h610v-397h-1057zM264 1718v252h799v-252h-799z" />
    <glyph glyph-name="emacron" unicode="&#x113;" horiz-adv-x="1269" 
d="M737 -33q-162 0 -292.5 46t-215.5 127.5t-130.5 192.5t-45.5 242q0 177 78.5 317.5t215.5 218t306 77.5q117 0 218 -38.5t178 -111.5t121 -187t44 -255q0 -68 -10 -133h-725q40 -80 126 -121t194 -41q143 0 338 86v-334q-180 -86 -400 -86zM264 1343v252h799v-252h-799z
M463 705h338q-2 63 -42 106t-108 43q-64 0 -114.5 -40t-73.5 -109z" />
    <glyph glyph-name="Edotaccent" unicode="&#x116;" horiz-adv-x="1288" 
d="M133 0v1530h1057v-397h-610v-185h548v-360h-548v-191h610v-397h-1057zM475 1843q0 76 56 131.5t133 55.5q78 0 134 -55t56 -132q0 -76 -56 -131t-134 -55q-77 0 -133 55t-56 131z" />
    <glyph glyph-name="edotaccent" unicode="&#x117;" horiz-adv-x="1269" 
d="M737 -33q-162 0 -292.5 46t-215.5 127.5t-130.5 192.5t-45.5 242q0 177 78.5 317.5t215.5 218t306 77.5q117 0 218 -38.5t178 -111.5t121 -187t44 -255q0 -68 -10 -133h-725q40 -80 126 -121t194 -41q143 0 338 86v-334q-180 -86 -400 -86zM463 705h338q-2 63 -42 106
t-108 43q-64 0 -114.5 -40t-73.5 -109zM475 1468q0 76 56 131.5t133 55.5q78 0 134 -55t56 -132q0 -76 -56 -131t-134 -55q-77 0 -133 55t-56 131z" />
    <glyph glyph-name="Eogonek" unicode="&#x118;" horiz-adv-x="1288" 
d="M133 0v1530h1057v-397h-610v-185h548v-360h-548v-191h610v-397q-75 -41 -113.5 -73.5t-38.5 -71.5q0 -36 29 -57t70 -21q37 0 53 8v-213q-15 -13 -63 -24t-103 -11q-145 0 -223 71t-78 181q0 109 94 211h-684z" />
    <glyph glyph-name="eogonek" unicode="&#x119;" horiz-adv-x="1269" 
d="M1137 53q-60 -35 -91.5 -54t-67 -46t-50.5 -50t-15 -48q0 -36 29 -57t70 -21q37 0 53 8v-213q-15 -13 -63 -24t-103 -11q-145 0 -223 71t-78 181q0 93 70 180q-292 20 -453.5 186t-161.5 420q0 177 78.5 317.5t215.5 218t306 77.5q117 0 218 -38.5t178 -111.5t121 -187
t44 -255q0 -68 -10 -133h-710q37 -81 117.5 -121.5t187.5 -40.5q143 0 338 86v-334zM479 713h322q-2 57 -42.5 99t-107.5 42q-61 0 -105.5 -37t-66.5 -104z" />
    <glyph glyph-name="Ecaron" unicode="&#x11a;" horiz-adv-x="1288" 
d="M133 0v1530h1057v-397h-610v-185h548v-360h-548v-191h610v-397h-1057zM201 2025h358l105 -145l104 145h358l-313 -374h-299z" />
    <glyph glyph-name="ecaron" unicode="&#x11b;" horiz-adv-x="1269" 
d="M737 -33q-162 0 -292.5 46t-215.5 127.5t-130.5 192.5t-45.5 242q0 177 78.5 317.5t215.5 218t306 77.5q117 0 218 -38.5t178 -111.5t121 -187t44 -255q0 -68 -10 -133h-725q40 -80 126 -121t194 -41q143 0 338 86v-334q-180 -86 -400 -86zM201 1651h358l105 -146
l104 146h358l-313 -375h-299zM463 705h338q-2 63 -42 106t-108 43q-64 0 -114.5 -40t-73.5 -109z" />
    <glyph glyph-name="Gbreve" unicode="&#x11e;" horiz-adv-x="1525" 
d="M508 754q0 -168 107 -280t270 -112q80 0 155 35v426h404v-684q-252 -178 -567 -178q-165 0 -314 57t-261 158.5t-178.5 254.5t-66.5 333t67 333t179.5 255.5t261.5 159.5t312 57q277 0 491 -123v-430q-91 73 -204.5 106t-221.5 33q-199 0 -316.5 -115.5t-117.5 -285.5z
M403 2025h265q5 -74 53 -119.5t133 -45.5t133 45.5t53 119.5h265q6 -87 -20 -159t-71.5 -118t-107.5 -77.5t-125 -45t-127 -13.5t-127 13.5t-125 45t-107.5 77.5t-71.5 118t-20 159z" />
    <glyph glyph-name="gbreve" unicode="&#x11f;" horiz-adv-x="1425" 
d="M567 1186q206 0 338 -180l41 149h373v-969q0 -300 -191.5 -474.5t-517.5 -174.5q-251 0 -442 123v399q83 -66 194 -107.5t201 -41.5q148 0 233 65t85 168v54q-49 -73 -130 -121.5t-190 -48.5q-100 0 -192 43t-161.5 118t-111 184.5t-41.5 235.5q0 121 43 229.5t114 184.5
t164 120t191 44zM303 1651h264q5 -74 53.5 -120t133.5 -46t133 46t53 120h264q6 -87 -19.5 -159t-71.5 -118t-107.5 -78t-124.5 -45.5t-127 -13.5t-127 13.5t-125 45.5t-107.5 78t-71.5 118t-20 159zM498 606q0 -82 54 -140t140 -58t140.5 58t54.5 140q0 80 -55 139.5
t-140 59.5t-139.5 -59.5t-54.5 -139.5z" />
    <glyph glyph-name="Gdotaccent" unicode="&#x120;" horiz-adv-x="1525" 
d="M508 754q0 -168 107 -280t270 -112q80 0 155 35v426h404v-684q-252 -178 -567 -178q-165 0 -314 57t-261 158.5t-178.5 254.5t-66.5 333t67 333t179.5 255.5t261.5 159.5t312 57q277 0 491 -123v-430q-91 73 -204.5 106t-221.5 33q-199 0 -316.5 -115.5t-117.5 -285.5z
M666 1843q0 76 55.5 131.5t132.5 55.5q78 0 134 -55t56 -132q0 -76 -56 -131t-134 -55q-77 0 -132.5 55t-55.5 131z" />
    <glyph glyph-name="gdotaccent" unicode="&#x121;" horiz-adv-x="1425" 
d="M567 1186q206 0 338 -180l41 149h373v-969q0 -300 -191.5 -474.5t-517.5 -174.5q-251 0 -442 123v399q83 -66 194 -107.5t201 -41.5q148 0 233 65t85 168v54q-49 -73 -130 -121.5t-190 -48.5q-100 0 -192 43t-161.5 118t-111 184.5t-41.5 235.5q0 121 43 229.5t114 184.5
t164 120t191 44zM498 606q0 -82 54 -140t140 -58t140.5 58t54.5 140q0 80 -55 139.5t-140 59.5t-139.5 -59.5t-54.5 -139.5zM565 1468q0 76 56 131.5t133 55.5q78 0 134 -55t56 -132q0 -76 -56 -131t-134 -55q-77 0 -133 55t-56 131z" />
    <glyph glyph-name="uni0122" unicode="&#x122;" horiz-adv-x="1525" 
d="M508 754q0 -168 107 -280t270 -112q80 0 155 35v426h404v-684q-252 -178 -567 -178q-165 0 -314 57t-261 158.5t-178.5 254.5t-66.5 333t67 333t179.5 255.5t261.5 159.5t312 57q277 0 491 -123v-430q-91 73 -204.5 106t-221.5 33q-199 0 -316.5 -115.5t-117.5 -285.5z
M555 -709q66 141 82 283.5t-19 263.5h373q47 -264 -133 -547h-303z" />
    <glyph glyph-name="uni0123" unicode="&#x123;" horiz-adv-x="1425" 
d="M567 1186q206 0 338 -180l41 149h373v-969q0 -300 -191.5 -474.5t-517.5 -174.5q-251 0 -442 123v399q83 -66 194 -107.5t201 -41.5q148 0 233 65t85 168v54q-49 -73 -130 -121.5t-190 -48.5q-100 0 -192 43t-161.5 118t-111 184.5t-41.5 235.5q0 121 43 229.5t114 184.5
t164 120t191 44zM498 606q0 -82 54 -140t140 -58t140.5 58t54.5 140q0 80 -55 139.5t-140 59.5t-139.5 -59.5t-54.5 -139.5zM575 1317q-47 263 134 547h303q-66 -141 -82.5 -283.5t18.5 -263.5h-373z" />
    <glyph glyph-name="Hbar" unicode="&#x126;" horiz-adv-x="1716" 
d="M16 1092v319h156v119h446v-119h480v119h446v-119h156v-319h-156v-1092h-446v555h-480v-555h-446v1092h-156zM618 958h480v134h-480v-134z" />
    <glyph glyph-name="hbar" unicode="&#x127;" horiz-adv-x="1341" 
d="M-47 1530h156v121h438v-121h287v-275h-287v-190h2q50 54 128 88.5t167 34.5q184 0 290.5 -108t106.5 -302v-778h-438v664q0 135 -121 135q-62 0 -98.5 -36t-36.5 -93v-670h-438v1255h-156v275z" />
    <glyph glyph-name="Imacron" unicode="&#x12a;" horiz-adv-x="712" 
d="M133 0v1530h447v-1530h-447zM-43 1718v252h799v-252h-799z" />
    <glyph glyph-name="imacron" unicode="&#x12b;" horiz-adv-x="655" 
d="M109 0v1155h438v-1155h-438zM-72 1397v252h799v-252h-799z" />
    <glyph glyph-name="Iogonek" unicode="&#x12e;" horiz-adv-x="712" 
d="M133 0v1530h447v-1530q-75 -41 -113.5 -73.5t-38.5 -71.5q0 -36 28.5 -57t69.5 -21q38 0 54 8v-213q-15 -13 -63 -24t-103 -11q-145 0 -223 71t-78 181q0 109 94 211h-74z" />
    <glyph glyph-name="iogonek" unicode="&#x12f;" horiz-adv-x="655" 
d="M109 0v1155h438v-1155q-75 -41 -113.5 -73.5t-38.5 -71.5q0 -36 29 -57t70 -21q37 0 53 8v-213q-15 -13 -63 -24t-103 -11q-145 0 -223 71t-78 181q0 109 94 211h-65zM100 1460q0 94 66.5 160t161.5 66q94 0 160.5 -66t66.5 -160t-66.5 -159.5t-160.5 -65.5
q-95 0 -161.5 65.5t-66.5 159.5z" />
    <glyph glyph-name="Idotaccent" unicode="&#x130;" horiz-adv-x="712" 
d="M133 0v1530h447v-1530h-447zM168 1843q0 76 55.5 131.5t132.5 55.5q78 0 134.5 -55.5t56.5 -131.5t-56.5 -131t-134.5 -55q-77 0 -132.5 55t-55.5 131z" />
    <glyph glyph-name="dotlessi" unicode="&#x131;" horiz-adv-x="655" 
d="M109 0v1155h438v-1155h-438z" />
    <glyph glyph-name="IJ" unicode="&#x132;" horiz-adv-x="1763" 
d="M133 0v1530h447v-1530h-447zM760 68v415q100 -108 225 -108q100 0 156.5 61t56.5 176v918h447v-973q0 -128 -36.5 -235t-106.5 -185.5t-178.5 -122t-244.5 -43.5q-90 0 -174.5 26.5t-144.5 70.5z" />
    <glyph glyph-name="ij" unicode="&#x133;" horiz-adv-x="1310" 
d="M109 0v1155h438v-1155h-438zM100 1460q0 94 66.5 160t161.5 66q94 0 160.5 -66t66.5 -160t-66.5 -159.5t-160.5 -65.5q-95 0 -161.5 65.5t-66.5 159.5zM545 -430q119 138 170 275.5t51 342.5v967h438v-919q0 -203 -42.5 -365t-147.5 -301h-469zM758 1460q0 94 66 160
t161 66q94 0 160.5 -66t66.5 -160t-66.5 -159.5t-160.5 -65.5q-95 0 -161 65.5t-66 159.5z" />
    <glyph glyph-name="uni0136" unicode="&#x136;" horiz-adv-x="1556" 
d="M1567 1530l-529 -748l545 -782h-522l-481 702v-702h-447v1530h447v-690l475 690h512zM563 -709q66 141 82.5 283.5t-18.5 263.5h372q47 -264 -133 -547h-303z" />
    <glyph glyph-name="uni0137" unicode="&#x137;" horiz-adv-x="1402" 
d="M1403 1155l-391 -551l401 -604h-526l-340 530v-530h-438v1651h438v-1014l352 518h504zM449 -709q66 141 82 283.5t-19 263.5h373q47 -264 -133 -547h-303z" />
    <glyph glyph-name="kgreenlandic" unicode="&#x138;" horiz-adv-x="1402" 
d="M1403 1155l-391 -551l401 -604h-526l-340 530v-530h-438v1155h438v-518l352 518h504z" />
    <glyph glyph-name="Lacute" unicode="&#x139;" horiz-adv-x="1218" 
d="M133 0v1530h447v-1127h600v-403h-1047zM141 1651l226 374h417l-321 -374h-322z" />
    <glyph glyph-name="lacute" unicode="&#x13a;" horiz-adv-x="655" 
d="M109 0v1651h438v-1651h-438zM113 1772l225 374h418l-322 -374h-321z" />
    <glyph glyph-name="uni013B" unicode="&#x13b;" horiz-adv-x="1218" 
d="M133 0v1530h447v-1127h600v-403h-1047zM397 -709q66 141 82.5 283.5t-18.5 263.5h373q47 -263 -134 -547h-303z" />
    <glyph glyph-name="uni013C" unicode="&#x13c;" horiz-adv-x="655" 
d="M109 0v1651h438v-1651h-438zM70 -709q66 141 82 283.5t-19 263.5h373q47 -264 -133 -547h-303z" />
    <glyph glyph-name="Lcaron" unicode="&#x13d;" horiz-adv-x="1218" 
d="M133 0v1530h447v-1127h600v-403h-1047zM711 1651h370q19 -87 19 -164q0 -183 -99 -389h-266q27 165 27 270q0 140 -51 283z" />
    <glyph glyph-name="lcaron" unicode="&#x13e;" horiz-adv-x="655" 
d="M109 0v1651h438v-1651h-438zM678 1651h371q18 -82 18 -164q0 -185 -98 -389h-267q27 165 27 270q0 140 -51 283z" />
    <glyph glyph-name="Ldot" unicode="&#x13f;" horiz-adv-x="1218" 
d="M133 0v1530h447v-1127h600v-403h-1047zM735 891q0 95 67.5 162t162.5 67t162 -67t67 -162t-67 -162t-162 -67t-162.5 67t-67.5 162z" />
    <glyph glyph-name="ldot" unicode="&#x140;" horiz-adv-x="655" 
d="M109 0v1651h438v-1651h-438zM641 825q0 95 67 162.5t162 67.5t162.5 -67.5t67.5 -162.5t-67.5 -162t-162.5 -67t-162 67t-67 162z" />
    <glyph glyph-name="Lslash" unicode="&#x141;" horiz-adv-x="1323" 
d="M43 266v379l195 113v772h446v-514l350 203v-379l-350 -203v-234h600v-403h-1046v379z" />
    <glyph glyph-name="lslash" unicode="&#x142;" horiz-adv-x="976" 
d="M47 401v361l227 115v774h439v-553l229 116v-360l-229 -117v-737h-439v516z" />
    <glyph glyph-name="Nacute" unicode="&#x143;" horiz-adv-x="1669" 
d="M1536 1530v-1530h-426l-551 821h-2v-821h-424v1530h426l551 -807h2v807h424zM649 1651l225 374h418l-321 -374h-322z" />
    <glyph glyph-name="nacute" unicode="&#x144;" horiz-adv-x="1341" 
d="M842 1188q189 0 294 -107.5t105 -302.5v-778h-438v664q0 135 -121 135q-62 0 -98.5 -36t-36.5 -93v-670h-438v1155h340l43 -151h8q55 85 142.5 134.5t199.5 49.5zM481 1276l226 375h417l-321 -375h-322z" />
    <glyph glyph-name="uni0145" unicode="&#x145;" horiz-adv-x="1669" 
d="M1536 1530v-1530h-426l-551 821h-2v-821h-424v1530h426l551 -807h2v807h424zM600 -709q66 141 82.5 283.5t-18.5 263.5h372q47 -264 -133 -547h-303z" />
    <glyph glyph-name="uni0146" unicode="&#x146;" horiz-adv-x="1341" 
d="M842 1188q189 0 294 -107.5t105 -302.5v-778h-438v664q0 135 -121 135q-62 0 -98.5 -36t-36.5 -93v-670h-438v1155h340l43 -151h8q55 85 142.5 134.5t199.5 49.5zM416 -709q66 141 82 283.5t-19 263.5h373q47 -264 -133 -547h-303z" />
    <glyph glyph-name="Ncaron" unicode="&#x147;" horiz-adv-x="1669" 
d="M1536 1530v-1530h-426l-551 821h-2v-821h-424v1530h426l551 -807h2v807h424zM401 2025h359l104 -145l105 145h358l-313 -374h-299z" />
    <glyph glyph-name="ncaron" unicode="&#x148;" horiz-adv-x="1341" 
d="M842 1188q189 0 294 -107.5t105 -302.5v-778h-438v664q0 135 -121 135q-62 0 -98.5 -36t-36.5 -93v-670h-438v1155h340l43 -151h8q55 85 142.5 134.5t199.5 49.5zM233 1651h359l104 -146l105 146h358l-313 -375h-299z" />
    <glyph glyph-name="Eng" unicode="&#x14a;" horiz-adv-x="1710" 
d="M1577 123q0 -172 -63 -303t-192 -207t-310 -76q-90 0 -175 26t-145 70v416q100 -108 226 -108q141 0 200 106l-563 830h-2v-877h-420v1530h426l590 -860h2v860h426v-1407z" />
    <glyph glyph-name="eng" unicode="&#x14b;" horiz-adv-x="1339" 
d="M1241 236q0 -203 -42.5 -365t-147.5 -301h-469q119 138 170 275.5t51 342.5v476q0 135 -121 135q-62 0 -98.5 -36t-36.5 -93v-670h-438v1155h340l43 -151h8q55 85 142.5 134.5t199.5 49.5q189 0 294 -107.5t105 -302.5v-542z" />
    <glyph glyph-name="Omacron" unicode="&#x14c;" horiz-adv-x="1740" 
d="M870 367q70 0 134.5 27t116 76t82 126t30.5 170q0 92 -30.5 168.5t-82 125.5t-116 76t-134.5 27t-135 -27t-115.5 -76t-81 -125.5t-30.5 -168.5q0 -183 107 -291t255 -108zM57 766q0 174 63.5 324.5t172.5 255t258.5 164t318.5 59.5q170 0 320 -59.5t258.5 -164
t171.5 -255t63 -324.5t-63 -324.5t-171.5 -255.5t-258.5 -165t-320 -60t-319.5 60t-258.5 165t-172 255.5t-63 324.5zM471 1718v252h799v-252h-799z" />
    <glyph glyph-name="omacron" unicode="&#x14d;" 
d="M684 -33q-130 0 -246 44.5t-201 123.5t-134.5 194.5t-49.5 250.5q0 180 85.5 320t228.5 214t317 74q177 0 320 -74t227 -214t84 -320t-84 -320.5t-227.5 -216.5t-319.5 -76zM281 1311v252h798v-252h-798zM496 580q0 -101 56 -162.5t132 -61.5t132 61.5t56 162.5
t-55.5 160t-132.5 59q-75 0 -131.5 -59.5t-56.5 -159.5z" />
    <glyph glyph-name="Ohungarumlaut" unicode="&#x150;" horiz-adv-x="1740" 
d="M870 367q70 0 134.5 27t116 76t82 126t30.5 170q0 92 -30.5 168.5t-82 125.5t-116 76t-134.5 27t-135 -27t-115.5 -76t-81 -125.5t-30.5 -168.5q0 -183 107 -291t255 -108zM57 766q0 174 63.5 324.5t172.5 255t258.5 164t318.5 59.5q170 0 320 -59.5t258.5 -164
t171.5 -255t63 -324.5t-63 -324.5t-171.5 -255.5t-258.5 -165t-320 -60t-319.5 60t-258.5 165t-172 255.5t-63 324.5zM399 1651l301 374h418l-397 -374h-322zM883 1651l301 374h420l-400 -374h-321z" />
    <glyph glyph-name="ohungarumlaut" unicode="&#x151;" 
d="M684 -33q-130 0 -246 44.5t-201 123.5t-134.5 194.5t-49.5 250.5q0 180 85.5 320t228.5 214t317 74q177 0 320 -74t227 -214t84 -320t-84 -320.5t-227.5 -216.5t-319.5 -76zM209 1243l301 375h418l-398 -375h-321zM496 580q0 -101 56 -162.5t132 -61.5t132 61.5t56 162.5
t-55.5 160t-132.5 59q-75 0 -131.5 -59.5t-56.5 -159.5zM692 1243l301 375h420l-399 -375h-322z" />
    <glyph glyph-name="OE" unicode="&#x152;" horiz-adv-x="2076" 
d="M1978 1530v-397h-569v-185h510v-360h-510v-191h569v-397h-845q-128 -39 -263 -39q-170 0 -319.5 60t-258.5 165t-172 255.5t-63 324.5t63.5 324.5t172.5 255t258.5 164t318.5 59.5q137 0 265 -39h843zM508 766q0 -183 107 -291t255 -108q46 0 93 12v772q-47 12 -93 12
q-70 0 -135 -27t-115.5 -76t-81 -125.5t-30.5 -168.5z" />
    <glyph glyph-name="oe" unicode="&#x153;" horiz-adv-x="2088" 
d="M1956 53q-180 -86 -400 -86q-280 0 -464 139q-194 -139 -410 -139q-175 0 -318 76t-227 217t-84 320q0 135 49.5 249.5t134.5 192.5t200 122t245 44q133 0 224.5 -33t180.5 -98q155 131 386 131q117 0 218 -38.5t178 -111.5t121 -187t44 -255q0 -62 -11 -133h-710
q37 -81 117.5 -121.5t187.5 -40.5q143 0 338 86v-334zM487 580q0 -104 57.5 -165t137.5 -61q78 0 136.5 61t58.5 165q0 102 -58 160.5t-137 58.5t-137 -58.5t-58 -160.5zM1298 713h322q-2 57 -42.5 99t-107.5 42q-61 0 -105.5 -37t-66.5 -104z" />
    <glyph glyph-name="Racute" unicode="&#x154;" horiz-adv-x="1423" 
d="M133 0v1530h545q195 0 338.5 -56.5t227 -178t83.5 -298.5q0 -59 -14.5 -118t-48 -123.5t-98.5 -121.5t-156 -95l397 -539h-526l-291 473h-10v-473h-447zM508 1651l225 374h418l-322 -374h-321zM580 807h96q89 0 145 41.5t56 118.5q0 78 -56 118.5t-147 40.5h-94v-319z
" />
    <glyph glyph-name="racute" unicode="&#x155;" horiz-adv-x="929" 
d="M109 0v1155h348l43 -164h4q53 93 134.5 135.5t168.5 42.5q51 0 94 -12v-405q-55 12 -108 12q-51 0 -93 -13t-77.5 -42.5t-55.5 -83.5t-20 -129v-496h-438zM328 1278l225 375h418l-322 -375h-321z" />
    <glyph glyph-name="uni0156" unicode="&#x156;" horiz-adv-x="1423" 
d="M133 0v1530h545q195 0 338.5 -56.5t227 -178t83.5 -298.5q0 -59 -14.5 -118t-48 -123.5t-98.5 -121.5t-156 -95l397 -539h-526l-291 473h-10v-473h-447zM467 -709q66 141 82 283.5t-19 263.5h373q47 -264 -133 -547h-303zM580 807h96q89 0 145 41.5t56 118.5
q0 78 -56 118.5t-147 40.5h-94v-319z" />
    <glyph glyph-name="uni0157" unicode="&#x157;" horiz-adv-x="929" 
d="M109 0v1155h348l43 -164h4q53 93 134.5 135.5t168.5 42.5q51 0 94 -12v-405q-55 12 -108 12q-51 0 -93 -13t-77.5 -42.5t-55.5 -83.5t-20 -129v-496h-438zM70 -709q66 141 82 283.5t-19 263.5h373q47 -264 -133 -547h-303z" />
    <glyph glyph-name="Rcaron" unicode="&#x158;" horiz-adv-x="1423" 
d="M133 0v1530h545q195 0 338.5 -56.5t227 -178t83.5 -298.5q0 -59 -14.5 -118t-48 -123.5t-98.5 -121.5t-156 -95l397 -539h-526l-291 473h-10v-473h-447zM260 2025h358l105 -145l104 145h359l-314 -374h-299zM580 807h96q89 0 145 41.5t56 118.5q0 78 -56 118.5t-147 40.5
h-94v-319z" />
    <glyph glyph-name="rcaron" unicode="&#x159;" horiz-adv-x="929" 
d="M109 0v1155h348l43 -164h4q53 93 134.5 135.5t168.5 42.5q51 0 94 -12v-405q-55 12 -108 12q-51 0 -93 -13t-77.5 -42.5t-55.5 -83.5t-20 -129v-496h-438zM80 1653h358l105 -146l104 146h359l-314 -375h-299z" />
    <glyph glyph-name="Sacute" unicode="&#x15a;" horiz-adv-x="1263" 
d="M678 1563q237 0 426 -107v-393q-72 51 -182.5 83t-210.5 32q-88 0 -135.5 -25.5t-47.5 -65.5q0 -36 40.5 -59t148.5 -61q176 -62 258 -111q221 -141 225 -383q0 -224 -161 -365t-443 -141q-144 0 -275 36.5t-219 96.5v414q88 -71 206 -116.5t235 -45.5q97 0 148.5 31.5
t51.5 77.5q0 54 -85 95q-32 16 -144 56q-43 16 -75.5 29t-79.5 36.5t-81.5 48t-72 61t-61 77t-39 95t-15.5 116.5q0 101 39.5 189.5t112.5 155t185.5 105t250.5 38.5zM451 1651l225 374h418l-322 -374h-321z" />
    <glyph glyph-name="sacute" unicode="&#x15b;" horiz-adv-x="1107" 
d="M590 1188q103 0 205 -22t174 -60v-352q-64 37 -165.5 62.5t-193.5 25.5q-112 0 -112 -43q0 -22 34 -37.5t119 -34.5q68 -15 119 -30.5t107 -44.5t91.5 -66t59 -94.5t23.5 -129.5q0 -184 -140.5 -289.5t-396.5 -105.5q-248 0 -422 94v379q189 -127 402 -127q135 0 135 47
q0 23 -32 36.5t-128 38.5q-27 7 -41 11q-74 20 -131 45.5t-109.5 65.5t-81 101t-28.5 139q0 173 136 282t376 109zM369 1276l225 375h418l-322 -375h-321z" />
    <glyph glyph-name="uni015E" unicode="&#x15e;" horiz-adv-x="1263" 
d="M678 1563q237 0 426 -107v-393q-72 51 -182.5 83t-210.5 32q-88 0 -135.5 -25.5t-47.5 -65.5q0 -36 40.5 -59t148.5 -61q176 -62 258 -111q221 -141 225 -383q0 -183 -110.5 -314t-309.5 -173q-13 -217 -139 -373h-403q177 196 204 367q-206 30 -340 120v414
q88 -71 206 -116.5t235 -45.5q97 0 148.5 31.5t51.5 77.5q0 54 -85 95q-32 16 -144 56q-43 16 -75.5 29t-79.5 36.5t-81.5 48t-72 61t-61 77t-39 95t-15.5 116.5q0 101 39.5 189.5t112.5 155t185.5 105t250.5 38.5z" />
    <glyph glyph-name="uni015F" unicode="&#x15f;" horiz-adv-x="1107" 
d="M590 1188q103 0 205 -22t174 -60v-352q-64 37 -165.5 62.5t-193.5 25.5q-112 0 -112 -43q0 -22 34 -37.5t119 -34.5q68 -15 119 -30.5t107 -44.5t91.5 -66t59 -94.5t23.5 -129.5q0 -150 -95 -249t-274 -131q-13 -212 -139 -369h-404q178 197 205 367q-141 22 -252 81v379
q189 -127 402 -127q135 0 135 47q0 23 -32 36.5t-128 38.5q-27 7 -41 11q-74 20 -131 45.5t-109.5 65.5t-81 101t-28.5 139q0 173 136 282t376 109z" />
    <glyph glyph-name="Scaron" unicode="&#x160;" horiz-adv-x="1263" 
d="M678 1563q237 0 426 -107v-393q-72 51 -182.5 83t-210.5 32q-88 0 -135.5 -25.5t-47.5 -65.5q0 -36 40.5 -59t148.5 -61q176 -62 258 -111q221 -141 225 -383q0 -224 -161 -365t-443 -141q-144 0 -275 36.5t-219 96.5v414q88 -71 206 -116.5t235 -45.5q97 0 148.5 31.5
t51.5 77.5q0 54 -85 95q-32 16 -144 56q-43 16 -75.5 29t-79.5 36.5t-81.5 48t-72 61t-61 77t-39 95t-15.5 116.5q0 101 39.5 189.5t112.5 155t185.5 105t250.5 38.5zM203 2025h358l105 -145l104 145h358l-313 -374h-299z" />
    <glyph glyph-name="scaron" unicode="&#x161;" horiz-adv-x="1107" 
d="M590 1188q103 0 205 -22t174 -60v-352q-64 37 -165.5 62.5t-193.5 25.5q-112 0 -112 -43q0 -22 34 -37.5t119 -34.5q68 -15 119 -30.5t107 -44.5t91.5 -66t59 -94.5t23.5 -129.5q0 -184 -140.5 -289.5t-396.5 -105.5q-248 0 -422 94v379q189 -127 402 -127q135 0 135 47
q0 23 -32 36.5t-128 38.5q-27 7 -41 11q-74 20 -131 45.5t-109.5 65.5t-81 101t-28.5 139q0 173 136 282t376 109zM121 1651h358l105 -146l104 146h359l-314 -375h-299z" />
    <glyph glyph-name="uni0162" unicode="&#x162;" horiz-adv-x="1361" 
d="M459 0v1126h-422v404h1288v-404h-420v-1126h-55q-13 -230 -141 -387h-404q188 205 207 387h-53z" />
    <glyph glyph-name="uni0163" unicode="&#x163;" horiz-adv-x="980" 
d="M616 1421v-266h293v-356h-293v-295q0 -83 55 -121.5t148 -38.5q43 0 105 10v-364q-93 -19 -152 -21q-19 -211 -139 -356h-404q201 222 209 410q-121 61 -182 177t-61 277v322h-158v356h158v266h421z" />
    <glyph glyph-name="Tcaron" unicode="&#x164;" horiz-adv-x="1361" 
d="M459 0v1126h-422v404h1288v-404h-420v-1126h-446zM219 2025h359l104 -145l104 145h359l-314 -374h-299z" />
    <glyph glyph-name="tcaron" unicode="&#x165;" horiz-adv-x="983" 
d="M778 1221q15 79 15 182q0 127 -43 248h370q15 -54 15 -138q0 -65 -19.5 -148t-46.5 -144h-291zM39 799v356h158v266h421v-266h293v-356h-293v-295q0 -83 55 -121.5t148 -38.5q43 0 105 10v-364q-108 -23 -213 -23q-254 0 -385 137t-131 373v322h-158z" />
    <glyph glyph-name="Tbar" unicode="&#x166;" horiz-adv-x="1415" 
d="M178 463v375h307v288h-422v404h1289v-404h-420v-288h307v-375h-307v-463h-447v463h-307z" />
    <glyph glyph-name="tbar" unicode="&#x167;" horiz-adv-x="989" 
d="M43 723h158v76h-158v356h158v266h422v-266h292v-356h-292v-76h292v-274h-284q35 -105 194 -105q43 0 105 10v-364q-108 -23 -213 -23q-247 0 -377.5 129t-138.5 353h-158v274z" />
    <glyph glyph-name="Umacron" unicode="&#x16a;" horiz-adv-x="1585" 
d="M788 -39q-207 0 -360.5 85.5t-233 234.5t-79.5 342v907h446v-903q0 -126 59.5 -193t167.5 -67q111 0 172.5 67t61.5 195v901h448v-907q0 -144 -47.5 -266t-134 -209.5t-215.5 -137t-285 -49.5zM393 1718v252h799v-252h-799z" />
    <glyph glyph-name="umacron" unicode="&#x16b;" horiz-adv-x="1320" 
d="M659 -33q-261 0 -413 145t-152 375v668h438v-661q0 -138 127 -138q129 0 129 138v661h439v-668q0 -230 -153.5 -375t-414.5 -145zM260 1343v252h799v-252h-799z" />
    <glyph glyph-name="Uring" unicode="&#x16e;" horiz-adv-x="1585" 
d="M788 -39q-207 0 -360.5 85.5t-233 234.5t-79.5 342v907h446v-903q0 -126 59.5 -193t167.5 -67q111 0 172.5 67t61.5 195v901h448v-907q0 -144 -47.5 -266t-134 -209.5t-215.5 -137t-285 -49.5zM508 1901q0 112 80 184t205 72q121 0 198.5 -71.5t77.5 -184.5t-77.5 -184.5
t-198.5 -71.5q-125 0 -205 72t-80 184zM684 1901q0 -44 31 -72.5t78 -28.5q44 0 72 28.5t28 72.5q0 43 -28 70.5t-72 27.5q-47 0 -78 -27.5t-31 -70.5z" />
    <glyph glyph-name="uring" unicode="&#x16f;" horiz-adv-x="1320" 
d="M659 -33q-261 0 -413 145t-152 375v668h438v-661q0 -138 127 -138q129 0 129 138v661h439v-668q0 -230 -153.5 -375t-414.5 -145zM375 1526q0 112 79.5 184t204.5 72q122 0 199.5 -72t77.5 -184t-77.5 -184t-199.5 -72q-125 0 -204.5 72t-79.5 184zM551 1526
q0 -44 30.5 -72.5t77.5 -28.5q44 0 72.5 28.5t28.5 72.5q0 43 -28.5 70.5t-72.5 27.5q-47 0 -77.5 -27.5t-30.5 -70.5z" />
    <glyph glyph-name="Uhungarumlaut" unicode="&#x170;" horiz-adv-x="1585" 
d="M788 -39q-207 0 -360.5 85.5t-233 234.5t-79.5 342v907h446v-903q0 -126 59.5 -193t167.5 -67q111 0 172.5 67t61.5 195v901h448v-907q0 -144 -47.5 -266t-134 -209.5t-215.5 -137t-285 -49.5zM322 1651l301 374h417l-397 -374h-321zM805 1651l301 374h420l-400 -374
h-321z" />
    <glyph glyph-name="uhungarumlaut" unicode="&#x171;" horiz-adv-x="1320" 
d="M659 -33q-261 0 -413 145t-152 375v668h438v-661q0 -138 127 -138q129 0 129 138v661h439v-668q0 -230 -153.5 -375t-414.5 -145zM188 1276l301 375h418l-397 -375h-322zM672 1276l301 375h420l-400 -375h-321z" />
    <glyph glyph-name="Uogonek" unicode="&#x172;" horiz-adv-x="1585" 
d="M1470 623q0 -186 -81 -339t-240 -239q-60 -33 -89 -50.5t-63 -42.5t-47.5 -48t-13.5 -49q0 -36 28.5 -57t69.5 -21q37 0 53 8v-213q-16 -16 -71.5 -25.5t-102.5 -9.5q-143 0 -217.5 68t-74.5 172q0 95 75 188q-271 27 -426 207t-155 451v907h446v-903q0 -126 59.5 -193
t167.5 -67q111 0 172.5 67t61.5 195v901h448v-907z" />
    <glyph glyph-name="uogonek" unicode="&#x173;" horiz-adv-x="1320" 
d="M1227 487q0 -154 -69.5 -270.5t-203.5 -187.5q-49 -27 -77 -43.5t-60 -40.5t-46.5 -47.5t-14.5 -49.5q0 -36 28.5 -56.5t69.5 -20.5q37 0 53 8v-213q-15 -11 -65.5 -23t-108.5 -12q-143 0 -218 68t-75 172q0 106 92 206q-206 35 -322 173t-116 337v668h438v-661
q0 -138 127 -138q129 0 129 138v661h439v-668z" />
    <glyph glyph-name="Wcircumflex" unicode="&#x174;" horiz-adv-x="2355" 
d="M1456 0l-268 934h-4l-260 -934h-465l-455 1530h451l250 -1002h4l270 1002h410l278 -1004h4l236 1004h436l-440 -1530h-447zM721 1651l305 374h315l306 -374h-359l-104 143l-105 -143h-358z" />
    <glyph glyph-name="wcircumflex" unicode="&#x175;" horiz-adv-x="1939" 
d="M1122 0l-143 633h-6l-152 -633h-504l-297 1155h463l119 -702h8l162 702h420l154 -702h8l131 702h434l-297 -1155h-500zM518 1276l305 375h316l305 -375h-359l-104 143l-104 -143h-359z" />
    <glyph glyph-name="Ycircumflex" unicode="&#x176;" horiz-adv-x="1560" 
d="M557 0v582l-571 948h499l306 -553h8l301 553h473l-569 -946v-584h-447zM330 1651l305 374h315l305 -374h-358l-104 143l-105 -143h-358z" />
    <glyph glyph-name="ycircumflex" unicode="&#x177;" horiz-adv-x="1304" 
d="M1313 1155l-635 -1585h-434l194 455l-440 1130h467l197 -670h8l196 670h447zM203 1276l305 375h315l305 -375h-358l-104 143l-105 -143h-358z" />
    <glyph glyph-name="Ydieresis" unicode="&#x178;" horiz-adv-x="1560" 
d="M557 0v582l-571 948h499l306 -553h8l301 553h473l-569 -946v-584h-447zM346 1843q0 76 56 131.5t133 55.5q78 0 134 -55t56 -132q0 -76 -56 -131t-134 -55q-77 0 -133 55t-56 131zM862 1843q0 77 55.5 132t133.5 55t133 -55t55 -132t-55 -131.5t-133 -54.5t-133.5 54.5
t-55.5 131.5z" />
    <glyph glyph-name="Zacute" unicode="&#x179;" horiz-adv-x="1308" 
d="M1292 1530l-606 -1127h547v-403h-1217l607 1126h-545v404h1214zM461 1651l225 374h418l-322 -374h-321z" />
    <glyph glyph-name="zacute" unicode="&#x17a;" horiz-adv-x="1183" 
d="M1161 1155l-467 -762h406v-393h-1084l467 764h-393v391h1071zM389 1276l225 375h418l-321 -375h-322z" />
    <glyph glyph-name="Zdotaccent" unicode="&#x17b;" horiz-adv-x="1308" 
d="M1292 1530l-606 -1127h547v-403h-1217l607 1126h-545v404h1214zM487 1843q0 76 56 131.5t133 55.5q78 0 134 -55t56 -132q0 -76 -56 -131t-134 -55q-77 0 -133 55t-56 131z" />
    <glyph glyph-name="zdotaccent" unicode="&#x17c;" horiz-adv-x="1183" 
d="M1161 1155l-467 -762h406v-393h-1084l467 764h-393v391h1071zM416 1468q0 76 55.5 131.5t132.5 55.5q78 0 134.5 -55.5t56.5 -131.5t-56.5 -131t-134.5 -55q-77 0 -132.5 55t-55.5 131z" />
    <glyph glyph-name="Zcaron" unicode="&#x17d;" horiz-adv-x="1308" 
d="M1292 1530l-606 -1127h547v-403h-1217l607 1126h-545v404h1214zM213 2025h358l105 -145l104 145h359l-314 -374h-299z" />
    <glyph glyph-name="zcaron" unicode="&#x17e;" horiz-adv-x="1183" 
d="M1161 1155l-467 -762h406v-393h-1084l467 764h-393v391h1071zM141 1651h359l104 -146l105 146h358l-313 -375h-299z" />
    <glyph glyph-name="florin" unicode="&#x192;" horiz-adv-x="1212" 
d="M1147 1286q-79 17 -137 17q-142 0 -156 -97l-8 -51h227v-356h-280l-131 -852q-8 -53 -22.5 -98.5t-40 -94t-65.5 -86t-95 -68t-134 -47t-176 -16.5q-86 0 -182 21v362q61 -12 131 -12q140 0 158 123l118 768h-133v356h187l12 76q8 50 16.5 89t26.5 87t41.5 83.5t62 72
t87.5 59t119 37t155 14.5q129 0 219 -22v-365z" />
    <glyph glyph-name="uni0218" unicode="&#x218;" horiz-adv-x="1263" 
d="M678 1563q237 0 426 -107v-393q-72 51 -182.5 83t-210.5 32q-88 0 -135.5 -25.5t-47.5 -65.5q0 -36 40.5 -59t148.5 -61q176 -62 258 -111q221 -141 225 -383q0 -224 -161 -365t-443 -141q-144 0 -275 36.5t-219 96.5v414q88 -71 206 -116.5t235 -45.5q97 0 148.5 31.5
t51.5 77.5q0 54 -85 95q-32 16 -144 56q-43 16 -75.5 29t-79.5 36.5t-81.5 48t-72 61t-61 77t-39 95t-15.5 116.5q0 101 39.5 189.5t112.5 155t185.5 105t250.5 38.5zM356 -709q66 141 82.5 283.5t-18.5 263.5h373q47 -263 -134 -547h-303z" />
    <glyph glyph-name="uni0219" unicode="&#x219;" horiz-adv-x="1107" 
d="M590 1188q103 0 205 -22t174 -60v-352q-64 37 -165.5 62.5t-193.5 25.5q-112 0 -112 -43q0 -22 34 -37.5t119 -34.5q68 -15 119 -30.5t107 -44.5t91.5 -66t59 -94.5t23.5 -129.5q0 -184 -140.5 -289.5t-396.5 -105.5q-248 0 -422 94v379q189 -127 402 -127q135 0 135 47
q0 23 -32 36.5t-128 38.5q-27 7 -41 11q-74 20 -131 45.5t-109.5 65.5t-81 101t-28.5 139q0 173 136 282t376 109zM258 -709q66 141 82.5 283.5t-18.5 263.5h372q47 -264 -133 -547h-303z" />
    <glyph glyph-name="uni021A" unicode="&#x21a;" horiz-adv-x="1361" 
d="M459 0v1126h-422v404h1288v-404h-420v-1126h-446zM424 -709q66 141 82 283.5t-19 263.5h373q47 -264 -133 -547h-303z" />
    <glyph glyph-name="uni021B" unicode="&#x21b;" horiz-adv-x="980" 
d="M618 1421v-266h293v-356h-293v-295q0 -83 55 -121.5t148 -38.5q43 0 105 10v-364q-108 -23 -213 -23q-254 0 -385 137t-131 373v322h-158v356h158v266h421zM348 -709q66 141 82.5 283.5t-18.5 263.5h372q47 -264 -133 -547h-303z" />
    <glyph glyph-name="circumflex" unicode="&#x2c6;" 
d="M842 1651l305 -375h-359l-104 143l-104 -143h-359l305 375h316z" />
    <glyph glyph-name="caron" unicode="&#x2c7;" 
d="M1147 1651l-313 -375h-299l-314 375h359l104 -146l104 146h359z" />
    <glyph glyph-name="breve" unicode="&#x2d8;" 
d="M1135 1651q6 -87 -20 -159t-71.5 -118t-107.5 -78t-125 -45.5t-127 -13.5t-127 13.5t-125 45.5t-107.5 78t-71.5 118t-20 159h265q5 -74 53 -120t133 -46t133 46t53 120h265z" />
    <glyph glyph-name="dotaccent" unicode="&#x2d9;" 
d="M684 1282q-77 0 -132.5 55t-55.5 131t55.5 131.5t132.5 55.5q78 0 134 -55t56 -132q0 -76 -56 -131t-134 -55z" />
    <glyph glyph-name="ring" unicode="&#x2da;" 
d="M688 1782q122 0 199.5 -72t77.5 -184t-77.5 -184t-199.5 -72q-125 0 -205 72t-80 184t80 184t205 72zM580 1526q0 -44 30.5 -72.5t77.5 -28.5q44 0 72 28.5t28 72.5q0 43 -28 70.5t-72 27.5q-47 0 -77.5 -27.5t-30.5 -70.5z" />
    <glyph glyph-name="ogonek" unicode="&#x2db;" 
d="M903 0q-75 -41 -113 -73.5t-38 -71.5q0 -36 28.5 -57t69.5 -21q37 0 53 8v-213q-15 -13 -63 -24t-103 -11q-145 0 -223 71t-78 181q0 206 322 373z" />
    <glyph glyph-name="tilde" unicode="&#x2dc;" 
d="M1194 1651q10 -181 -72 -275t-227 -94q-51 0 -102.5 17.5t-86.5 39t-79 39t-82 17.5q-52 0 -77.5 -32t-25.5 -77h-243q-10 181 71.5 275t225.5 94q52 0 104 -17.5t87 -39t79 -39t82 -17.5q51 0 76.5 32t25.5 77h244z" />
    <glyph glyph-name="hungarumlaut" unicode="&#x2dd;" 
d="M838 1651l-398 -375h-321l301 375h418zM602 1276l301 375h420l-399 -375h-322z" />
    <glyph glyph-name="gravecomb" unicode="&#x300;" horiz-adv-x="0" 
d="M748 1651l225 -375h-322l-321 375h418z" />
    <glyph glyph-name="acutecomb" unicode="&#x301;" horiz-adv-x="0" 
d="M621 1651h417l-321 -375h-322z" />
    <glyph glyph-name="uni0302" unicode="&#x302;" horiz-adv-x="0" 
d="M842 1651l305 -375h-359l-104 143l-104 -143h-359l305 375h316z" />
    <glyph glyph-name="tildecomb" unicode="&#x303;" horiz-adv-x="0" 
d="M1194 1651q10 -181 -72 -275t-227 -94q-51 0 -102.5 17.5t-86.5 39t-79 39t-82 17.5q-52 0 -77.5 -32t-25.5 -77h-243q-10 181 71.5 275t225.5 94q52 0 104 -17.5t87 -39t79 -39t82 -17.5q51 0 76.5 32t25.5 77h244z" />
    <glyph glyph-name="uni0304" unicode="&#x304;" horiz-adv-x="0" 
d="M285 1343v252h798v-252h-798z" />
    <glyph glyph-name="uni0306" unicode="&#x306;" horiz-adv-x="0" 
d="M1135 1651q6 -87 -20 -159t-71.5 -118t-107.5 -78t-125 -45.5t-127 -13.5t-127 13.5t-125 45.5t-107.5 78t-71.5 118t-20 159h265q5 -74 53 -120t133 -46t133 46t53 120h265z" />
    <glyph glyph-name="uni0307" unicode="&#x307;" horiz-adv-x="0" 
d="M684 1282q-77 0 -132.5 55t-55.5 131t55.5 131.5t132.5 55.5q78 0 134 -55t56 -132q0 -76 -56 -131t-134 -55z" />
    <glyph glyph-name="uni0308" unicode="&#x308;" horiz-adv-x="0" 
d="M426 1282q-77 0 -132.5 55t-55.5 131t55.5 131.5t132.5 55.5q78 0 134 -55t56 -132q0 -76 -56 -131t-134 -55zM754 1468q0 77 55 132t133 55t133 -55t55 -132t-55 -131.5t-133 -54.5t-133 54.5t-55 131.5z" />
    <glyph glyph-name="uni030A" unicode="&#x30a;" horiz-adv-x="0" 
d="M688 1782q122 0 199.5 -72t77.5 -184t-77.5 -184t-199.5 -72q-125 0 -205 72t-80 184t80 184t205 72zM580 1526q0 -44 30.5 -72.5t77.5 -28.5q44 0 72 28.5t28 72.5q0 43 -28 70.5t-72 27.5q-47 0 -77.5 -27.5t-30.5 -70.5z" />
    <glyph glyph-name="uni030B" unicode="&#x30b;" horiz-adv-x="0" 
d="M838 1651l-398 -375h-321l301 375h418zM602 1276l301 375h420l-399 -375h-322z" />
    <glyph glyph-name="uni030C" unicode="&#x30c;" horiz-adv-x="0" 
d="M1147 1651l-313 -375h-299l-314 375h359l104 -146l104 146h359z" />
    <glyph glyph-name="uni0326" unicode="&#x326;" horiz-adv-x="0" 
d="M178 -162q47 -264 -133 -547h-303q66 141 82 283.5t-19 263.5h373z" />
    <glyph glyph-name="uni0327" unicode="&#x327;" horiz-adv-x="0" 
d="M373 -387q209 230 209 426h336q0 -251 -142 -426h-403z" />
    <glyph glyph-name="uni0328" unicode="&#x328;" horiz-adv-x="0" 
d="M903 0q-75 -41 -113 -73.5t-38 -71.5q0 -36 28.5 -57t69.5 -21q37 0 53 8v-213q-15 -13 -63 -24t-103 -11q-145 0 -223 71t-78 181q0 206 322 373z" />
    <glyph glyph-name="uni037E" unicode="&#x37e;" horiz-adv-x="647" 
d="M61 -274q45 170 62.5 289t17.5 255v131h383v-94q0 -249 -155 -581h-308zM94 874q0 95 67.5 162.5t162.5 67.5t162 -67.5t67 -162.5t-67 -162t-162 -67t-162.5 67t-67.5 162z" />
    <glyph glyph-name="tonos" unicode="&#x384;" 
d="M571 1794h394l-220 -498h-292z" />
    <glyph glyph-name="dieresistonos" unicode="&#x385;" horiz-adv-x="1050" 
d="M326 1296l118 498h383l-219 -498h-282zM23 1448q0 59 42.5 101t102.5 42t102.5 -42t42.5 -101t-42.5 -101t-102.5 -42t-102.5 42t-42.5 101zM737 1448q0 59 43 101t103 42t102.5 -42t42.5 -101t-42.5 -101t-102.5 -42t-103 42t-43 101z" />
    <glyph glyph-name="Alphatonos" unicode="&#x386;" horiz-adv-x="1615" 
d="M1626 0h-465l-100 301h-506l-96 -301h-463l551 1530h518zM-82 1032l78 498h401l-182 -498h-297zM670 659h272l-137 418z" />
    <glyph glyph-name="uni0387" unicode="&#x387;" horiz-adv-x="606" 
d="M303 645q-95 0 -162 67t-67 162t67 162.5t162 67.5t162 -67.5t67 -162.5t-67 -162t-162 -67z" />
    <glyph glyph-name="Epsilontonos" unicode="&#x388;" horiz-adv-x="1288" 
d="M133 0v1530h1057v-397h-610v-185h548v-360h-548v-191h610v-397h-1057zM-451 1032l78 498h402l-183 -498h-297z" />
    <glyph glyph-name="Etatonos" unicode="&#x389;" horiz-adv-x="1638" 
d="M1059 0v555h-479v-555h-447v1530h447v-572h479v572h446v-1530h-446zM-451 1032l78 498h402l-183 -498h-297z" />
    <glyph glyph-name="Iotatonos" unicode="&#x38a;" horiz-adv-x="712" 
d="M133 0v1530h447v-1530h-447zM-451 1032l78 498h402l-183 -498h-297z" />
    <glyph glyph-name="Omicrontonos" unicode="&#x38c;" horiz-adv-x="1740" 
d="M872 367q70 0 134.5 27t116 76t82 126t30.5 170q0 92 -30.5 168.5t-82 125.5t-116 76t-134.5 27t-135 -27t-115.5 -76t-81 -125.5t-30.5 -168.5q0 -183 107 -291t255 -108zM-297 1032l78 498h401l-182 -498h-297zM59 766q0 174 63.5 324.5t172.5 255t258.5 164
t318.5 59.5q170 0 320.5 -59.5t259 -164t171.5 -255t63 -324.5t-63 -324.5t-171.5 -255.5t-259 -165t-320.5 -60t-319.5 60t-258.5 165t-172 255.5t-63 324.5z" />
    <glyph glyph-name="Upsilontonos" unicode="&#x38e;" horiz-adv-x="1560" 
d="M557 0v582l-571 948h499l306 -553h8l301 553h473l-569 -946v-584h-447zM-514 1032l78 498h401l-182 -498h-297z" />
    <glyph glyph-name="Omegatonos" unicode="&#x38f;" horiz-adv-x="1798" 
d="M66 0v328h294q-64 57 -115 127t-89.5 178.5t-38.5 226.5q0 203 99.5 364.5t278.5 253t404 91.5t404 -91.5t278.5 -253t99.5 -364.5q0 -118 -38.5 -226.5t-89.5 -178.5t-115 -127h295v-328h-719v317q209 206 209 459q0 161 -91.5 270t-232.5 109t-232.5 -109t-91.5 -270
q0 -253 209 -459v-317h-718zM-283 1032l78 498h402l-183 -498h-297z" />
    <glyph glyph-name="iotadieresistonos" unicode="&#x390;" horiz-adv-x="811" 
d="M602 -33q-242 0 -372 130.5t-130 373.5v684h439v-663q0 -148 184 -148q36 0 84 10v-364q-121 -23 -205 -23zM-184 1448q0 59 42.5 101t102.5 42t102.5 -42t42.5 -101t-42.5 -101t-102.5 -42t-102.5 42t-42.5 101zM119 1296l119 498h383l-220 -498h-282zM530 1448
q0 59 43 101t103 42t102.5 -42t42.5 -101t-42.5 -101t-102.5 -42t-103 42t-43 101z" />
    <glyph glyph-name="Alpha" unicode="&#x391;" horiz-adv-x="1615" 
d="M1626 0h-465l-100 301h-506l-96 -301h-463l551 1530h518zM670 659h272l-137 418z" />
    <glyph glyph-name="Beta" unicode="&#x392;" horiz-adv-x="1439" 
d="M133 0v1530h655q263 0 409 -119t146 -301q0 -115 -58 -198t-157 -128v-4q120 -43 185 -133.5t65 -212.5q0 -89 -34.5 -166t-102 -137.5t-177 -95.5t-249.5 -35h-682zM575 371h199q83 0 126.5 35t43.5 92q0 56 -43.5 91.5t-124.5 35.5h-201v-254zM575 924h193
q77 0 117.5 33.5t40.5 82.5q0 50 -40.5 84.5t-117.5 34.5h-193v-235z" />
    <glyph glyph-name="Gamma" unicode="&#x393;" horiz-adv-x="1155" 
d="M133 0v1530h985v-404h-538v-1126h-447z" />
    <glyph glyph-name="uni0394" unicode="&#x394;" horiz-adv-x="1626" 
d="M-6 0l561 1530h520l561 -1530h-1642zM573 358h484l-242 727z" />
    <glyph glyph-name="Epsilon" unicode="&#x395;" horiz-adv-x="1288" 
d="M133 0v1530h1057v-397h-610v-185h548v-360h-548v-191h610v-397h-1057z" />
    <glyph glyph-name="Zeta" unicode="&#x396;" horiz-adv-x="1308" 
d="M1292 1530l-606 -1127h547v-403h-1217l607 1126h-545v404h1214z" />
    <glyph glyph-name="Eta" unicode="&#x397;" horiz-adv-x="1638" 
d="M1059 0v555h-479v-555h-447v1530h447v-572h479v572h446v-1530h-446z" />
    <glyph glyph-name="Theta" unicode="&#x398;" horiz-adv-x="1765" 
d="M883 -39q-172 0 -324 60t-262.5 164.5t-175 255.5t-64.5 325t64.5 324t175.5 254.5t263 163.5t323 59q173 0 325 -59t262 -163.5t174 -254.5t64 -324t-64 -324.5t-174 -255.5t-262 -165t-325 -60zM492 766q0 -127 56 -223t144 -143.5t191 -47.5q76 0 146 28t125 79.5
t87.5 131t32.5 175.5q0 125 -56.5 221t-144.5 143.5t-190 47.5q-160 0 -275.5 -112.5t-115.5 -299.5zM616 604v328h533v-328h-533z" />
    <glyph glyph-name="Iota" unicode="&#x399;" horiz-adv-x="712" 
d="M133 0v1530h447v-1530h-447z" />
    <glyph glyph-name="Kappa" unicode="&#x39a;" horiz-adv-x="1556" 
d="M1567 1530l-529 -748l545 -782h-522l-481 702v-702h-447v1530h447v-690l475 690h512z" />
    <glyph glyph-name="Lambda" unicode="&#x39b;" horiz-adv-x="1560" 
d="M-2 0l520 1530h518l531 -1530h-465l-326 1077l-315 -1077h-463z" />
    <glyph glyph-name="Mu" unicode="&#x39c;" horiz-adv-x="2035" 
d="M565 926l-92 -926h-420l207 1530h522l244 -850h4l238 850h506l208 -1530h-423l-86 926h-9l-262 -926h-375l-254 926h-8z" />
    <glyph glyph-name="Nu" unicode="&#x39d;" horiz-adv-x="1669" 
d="M1536 1530v-1530h-426l-551 821h-2v-821h-424v1530h426l551 -807h2v807h424z" />
    <glyph glyph-name="Xi" unicode="&#x39e;" horiz-adv-x="1388" 
d="M84 1530h1221v-400h-1221v400zM84 0v399h1221v-399h-1221zM231 578v380h926v-380h-926z" />
    <glyph glyph-name="Omicron" unicode="&#x39f;" horiz-adv-x="1740" 
d="M872 367q70 0 134.5 27t116 76t82 126t30.5 170q0 92 -30.5 168.5t-82 125.5t-116 76t-134.5 27t-135 -27t-115.5 -76t-81 -125.5t-30.5 -168.5q0 -183 107 -291t255 -108zM59 766q0 174 63.5 324.5t172.5 255t258.5 164t318.5 59.5q170 0 320.5 -59.5t259 -164
t171.5 -255t63 -324.5t-63 -324.5t-171.5 -255.5t-259 -165t-320.5 -60t-319.5 60t-258.5 165t-172 255.5t-63 324.5z" />
    <glyph glyph-name="Pi" unicode="&#x3a0;" horiz-adv-x="1601" 
d="M1022 0v1126h-442v-1126h-447v1530h1335v-1530h-446z" />
    <glyph glyph-name="Rho" unicode="&#x3a1;" horiz-adv-x="1402" 
d="M133 0v1530h510q346 0 533.5 -153t187.5 -416q0 -93 -27 -180t-83.5 -162.5t-137 -132t-194.5 -89t-248 -32.5h-94v-365h-447zM580 760h114q95 0 157 48.5t62 135.5t-62.5 134.5t-160.5 47.5h-110v-366z" />
    <glyph glyph-name="Sigma" unicode="&#x3a3;" horiz-adv-x="1316" 
d="M25 0l393 762l-387 768h1190v-404h-533v-4l180 -356l-188 -358v-5h561v-403h-1216z" />
    <glyph glyph-name="Tau" unicode="&#x3a4;" horiz-adv-x="1361" 
d="M459 0v1126h-422v404h1288v-404h-420v-1126h-446z" />
    <glyph glyph-name="Upsilon" unicode="&#x3a5;" horiz-adv-x="1560" 
d="M557 0v582l-571 948h499l306 -553h8l301 553h473l-569 -946v-584h-447z" />
    <glyph glyph-name="Phi" unicode="&#x3a6;" horiz-adv-x="1865" 
d="M1147 444q117 0 188.5 95.5t71.5 240.5q0 147 -71.5 242.5t-188.5 95.5v-674zM55 780q0 154 52.5 288t142.5 226.5t212.5 145.5t258.5 53v131h426v-131q136 0 258.5 -52.5t212 -145t142 -226.5t52.5 -289q0 -153 -52.5 -286.5t-142 -226t-212 -145t-258.5 -52.5v-131
h-426v131q-136 0 -258.5 52.5t-212.5 144.5t-142.5 225.5t-52.5 287.5zM461 780q0 -145 72.5 -240.5t187.5 -95.5v674q-116 0 -188 -96t-72 -242z" />
    <glyph glyph-name="Chi" unicode="&#x3a7;" horiz-adv-x="1509" 
d="M-8 0l475 764l-479 766h516l262 -451l240 451h510l-476 -764l482 -766h-514l-265 451l-241 -451h-510z" />
    <glyph glyph-name="Psi" unicode="&#x3a8;" horiz-adv-x="1912" 
d="M735 0v279q-204 2 -353 87.5t-224.5 233.5t-75.5 340v590h442v-586q0 -124 54.5 -190.5t156.5 -69.5v846h443v-846q102 3 156.5 69.5t54.5 190.5v586h442v-590q0 -192 -75.5 -340t-224.5 -233.5t-353 -87.5v-279h-443z" />
    <glyph glyph-name="uni03A9" unicode="&#x3a9;" horiz-adv-x="1798" 
d="M66 0v328h294q-64 57 -115 127t-89.5 178.5t-38.5 226.5q0 203 99.5 364.5t278.5 253t404 91.5t404 -91.5t278.5 -253t99.5 -364.5q0 -118 -38.5 -226.5t-89.5 -178.5t-115 -127h295v-328h-719v317q209 206 209 459q0 161 -91.5 270t-232.5 109t-232.5 -109t-91.5 -270
q0 -253 209 -459v-317h-718z" />
    <glyph glyph-name="Iotadieresis" unicode="&#x3aa;" horiz-adv-x="712" 
d="M133 0v1530h447v-1530h-447zM-88 1843q0 76 55.5 131.5t132.5 55.5q78 0 134.5 -55.5t56.5 -131.5t-56.5 -131t-134.5 -55q-77 0 -132.5 55t-55.5 131zM428 1843q0 77 55 132t133 55t133.5 -55t55.5 -132t-55.5 -131.5t-133.5 -54.5t-133 54.5t-55 131.5z" />
    <glyph glyph-name="Upsilondieresis" unicode="&#x3ab;" horiz-adv-x="1560" 
d="M557 0v582l-571 948h499l306 -553h8l301 553h473l-569 -946v-584h-447zM354 1843q0 76 56 131.5t133 55.5q78 0 134 -55t56 -132q0 -76 -56 -131t-134 -55q-77 0 -133 55t-56 131zM870 1843q0 77 55.5 132t133.5 55t133 -55t55 -132t-55 -131.5t-133 -54.5t-133.5 54.5
t-55.5 131.5z" />
    <glyph glyph-name="alphatonos" unicode="&#x3ac;" horiz-adv-x="1497" 
d="M561 -33q-145 0 -260.5 78t-180.5 216.5t-65 311.5q0 168 64 309.5t175 223.5t243 82q207 0 329 -182l41 149h373v-713q0 -62 21 -87t71 -25q29 0 62 10v-350q-75 -21 -170 -21q-249 0 -349 181q-126 -183 -354 -183zM498 578q0 -95 49 -158.5t129 -63.5q77 0 124.5 62.5
t47.5 159.5q0 96 -47.5 158.5t-124.5 62.5q-80 0 -129 -64.5t-49 -156.5zM569 1296l119 498h393l-219 -498h-293z" />
    <glyph glyph-name="epsilontonos" unicode="&#x3ad;" horiz-adv-x="1167" 
d="M635 -33q-278 0 -426 88.5t-148 255.5q0 88 52 161.5t147 119.5v8q-174 79 -174 258q0 155 144.5 241.5t402.5 86.5q256 0 450 -70v-311q-190 51 -366 51q-90 0 -141.5 -18.5t-51.5 -51.5q0 -65 142 -65h235v-279h-246q-145 0 -145 -67q0 -76 233 -76q186 0 351 61v-321
q-79 -32 -206 -52t-253 -20zM463 1296l119 498h393l-219 -498h-293z" />
    <glyph glyph-name="etatonos" unicode="&#x3ae;" horiz-adv-x="1431" 
d="M893 664q0 135 -121 135q-62 0 -98.5 -36t-36.5 -93v-670h-438v702q0 62 -23 87.5t-74 25.5q-28 0 -61 -10v350q75 21 170 21q263 0 360 -199h2q56 97 149 154t212 57q188 0 292.5 -107.5t104.5 -302.5v-1208h-438v1094zM586 1296l119 498h393l-219 -498h-293z" />
    <glyph glyph-name="iotatonos" unicode="&#x3af;" horiz-adv-x="811" 
d="M602 -33q-242 0 -372 130.5t-130 373.5v684h439v-663q0 -148 184 -148q36 0 84 10v-364q-121 -23 -205 -23zM154 1296l118 498h394l-220 -498h-292z" />
    <glyph glyph-name="upsilondieresistonos" unicode="&#x3b0;" horiz-adv-x="1339" 
d="M664 -33q-268 0 -419 132.5t-151 367.5v688h438v-661q0 -67 38 -104.5t106 -37.5q83 0 121.5 62t38.5 196q0 259 -115 545h440q49 -98 81 -256.5t32 -306.5q0 -297 -160 -461t-450 -164zM119 1448q0 59 42.5 101t102.5 42t103 -42t43 -101t-43 -101t-103 -42t-102.5 42
t-42.5 101zM422 1296l119 498h383l-219 -498h-283zM834 1448q0 59 42.5 101t102.5 42t102.5 -42t42.5 -101t-42.5 -101t-102.5 -42t-102.5 42t-42.5 101z" />
    <glyph glyph-name="alpha" unicode="&#x3b1;" horiz-adv-x="1497" 
d="M561 -33q-145 0 -260.5 78t-180.5 216.5t-65 311.5q0 168 64 309.5t175 223.5t243 82q207 0 329 -182l41 149h373v-713q0 -62 21 -87t71 -25q29 0 62 10v-350q-75 -21 -170 -21q-249 0 -349 181q-126 -183 -354 -183zM498 578q0 -95 49 -158.5t129 -63.5q77 0 124.5 62.5
t47.5 159.5q0 96 -47.5 158.5t-124.5 62.5q-80 0 -129 -64.5t-49 -156.5z" />
    <glyph glyph-name="beta" unicode="&#x3b2;" horiz-adv-x="1415" 
d="M109 1096q0 266 157.5 421.5t427.5 155.5q247 0 401 -117.5t154 -306.5q0 -119 -64.5 -212t-180.5 -144q170 -56 265 -178t95 -287q0 -193 -133 -326t-324 -133q-108 0 -214.5 44t-151.5 106v-549h-432v1526zM541 379q83 -47 184 -47q93 0 150 49.5t57 134.5
q0 86 -57 135t-158 49h-49l-2 297h34q66 0 106 46.5t40 123.5q0 71 -41.5 113.5t-114.5 42.5q-71 0 -110 -44.5t-39 -125.5v-774z" />
    <glyph glyph-name="gamma" unicode="&#x3b3;" horiz-adv-x="1320" 
d="M-14 1155h473l209 -725h4q73 135 120.5 330t47.5 395h432q0 -256 -116.5 -565t-293.5 -551v-469h-438v430z" />
    <glyph glyph-name="delta" unicode="&#x3b4;" horiz-adv-x="1329" 
d="M641 -39q-267 0 -429.5 142.5t-162.5 377.5q0 157 99 290t255 196q-198 157 -198 338q0 173 137.5 270.5t382.5 97.5q179 0 430 -80v-338q-246 76 -379 76q-102 0 -102 -63q0 -30 36 -61.5t162 -112.5q212 -136 309 -277t97 -313q0 -157 -81 -281t-226.5 -193t-329.5 -69
zM481 512q0 -81 49 -127.5t134 -46.5q75 0 127.5 50.5t52.5 121.5q0 77 -46.5 148t-129.5 120q-187 -118 -187 -266z" />
    <glyph glyph-name="epsilon" unicode="&#x3b5;" horiz-adv-x="1167" 
d="M635 -33q-278 0 -426 88.5t-148 255.5q0 88 52 161.5t147 119.5v8q-174 79 -174 258q0 155 144.5 241.5t402.5 86.5q256 0 450 -70v-311q-190 51 -366 51q-90 0 -141.5 -18.5t-51.5 -51.5q0 -65 142 -65h235v-279h-246q-145 0 -145 -67q0 -76 233 -76q186 0 351 61v-321
q-79 -32 -206 -52t-253 -20z" />
    <glyph glyph-name="zeta" unicode="&#x3b6;" horiz-adv-x="1089" 
d="M489 -430q138 194 138 278q0 80 -115 127l-201 84q-133 56 -196.5 151t-63.5 239q0 324 486 845h-408v357h958v-246q-227 -209 -401 -476.5t-174 -408.5q0 -48 21.5 -76.5t78.5 -54.5l254 -119q219 -103 219 -319q0 -194 -127 -381h-469z" />
    <glyph glyph-name="eta" unicode="&#x3b7;" horiz-adv-x="1431" 
d="M893 664q0 135 -121 135q-62 0 -98.5 -36t-36.5 -93v-670h-438v702q0 62 -23 87.5t-74 25.5q-28 0 -61 -10v350q75 21 170 21q263 0 360 -199h2q56 97 149 154t212 57q188 0 292.5 -107.5t104.5 -302.5v-1208h-438v1094z" />
    <glyph glyph-name="theta" unicode="&#x3b8;" horiz-adv-x="1400" 
d="M700 -39q-285 0 -457.5 224t-172.5 632q0 206 46.5 368.5t130.5 268t199 160.5t254 55q141 0 257 -55t199 -160.5t129 -268t46 -368.5q0 -409 -171.5 -632.5t-459.5 -223.5zM469 664q17 -173 73.5 -252.5t157.5 -79.5t158 79.5t74 252.5h-463zM471 979h461
q-17 167 -74.5 243t-157.5 76t-156 -75.5t-73 -243.5z" />
    <glyph glyph-name="iota" unicode="&#x3b9;" horiz-adv-x="811" 
d="M602 -33q-242 0 -372 130.5t-130 373.5v684h439v-663q0 -148 184 -148q36 0 84 10v-364q-121 -23 -205 -23z" />
    <glyph glyph-name="kappa" unicode="&#x3ba;" 
d="M109 0v1155h436v-420l336 420h483l-397 -477l407 -678h-512l-211 403l-106 -133v-270h-436z" />
    <glyph glyph-name="lambda" unicode="&#x3bb;" horiz-adv-x="1341" 
d="M885 0l-221 670h-5l-196 -670h-461l461 1143l-10 28q-22 59 -76 92t-129 33q-35 0 -84 -10v354q135 23 192 23q339 0 453 -301l518 -1362h-442z" />
    <glyph glyph-name="uni03BC" unicode="&#x3bc;" horiz-adv-x="1441" 
d="M109 -430v1585h438v-661q0 -138 127 -138q129 0 129 138v661h438v-713q0 -62 24 -87t76 -25q29 0 62 10v-350q-75 -21 -158 -21q-115 0 -199 49.5t-128 143.5q-41 -90 -106.5 -141.5t-147.5 -51.5q-129 0 -222 103l117 -502h-450z" />
    <glyph glyph-name="nu" unicode="&#x3bd;" horiz-adv-x="1335" 
d="M428 0l-442 1155h477l221 -743h2q74 129 120 332.5t46 410.5h434q0 -279 -128 -597t-327 -558h-403z" />
    <glyph glyph-name="xi" unicode="&#x3be;" horiz-adv-x="1140" 
d="M518 -430q74 106 105.5 169.5t31.5 106.5q0 82 -116 129l-195 82q-289 120 -289 383q0 141 81.5 250t228.5 166q-261 130 -261 369q0 200 171 320t456 120q226 0 389 -59v-375q-142 59 -309 59q-138 0 -213.5 -40t-75.5 -113q0 -57 45 -89t127 -32h293l-2 -334h-272
q-94 0 -147.5 -38t-53.5 -105q0 -92 100 -138l283 -131q106 -50 162.5 -130.5t56.5 -184.5q0 -91 -33.5 -193.5t-93.5 -191.5h-469z" />
    <glyph glyph-name="omicron" unicode="&#x3bf;" 
d="M684 -33q-130 0 -246 44.5t-201 123.5t-134.5 194.5t-49.5 250.5q0 180 85.5 320t228.5 214t317 74q177 0 320 -74t227 -214t84 -320t-84 -320.5t-227.5 -216.5t-319.5 -76zM496 580q0 -101 56 -162.5t132 -61.5t132 61.5t56 162.5t-55.5 160t-132.5 59
q-75 0 -131.5 -59.5t-56.5 -159.5z" />
    <glyph glyph-name="pi" unicode="&#x3c0;" horiz-adv-x="1619" 
d="M1333 -31q-221 0 -338.5 128.5t-117.5 371.5v330h-185v-799h-434v799h-223v356h1507v-356h-231v-305q0 -148 145 -148q28 0 70 10v-364q-80 -23 -193 -23z" />
    <glyph glyph-name="rho" unicode="&#x3c1;" horiz-adv-x="1400" 
d="M84 485q0 330 170 516.5t471 186.5q180 0 322 -78.5t220.5 -219t78.5 -319.5q0 -168 -66 -306.5t-178 -217.5t-246 -80q-103 -1 -194.5 42t-135.5 114h-4v-553h-438v915zM526 580q0 -96 54 -160t135 -64t134.5 64t53.5 160q0 95 -53 157t-135 62t-135.5 -62.5
t-53.5 -156.5z" />
    <glyph glyph-name="uni03C2" unicode="&#x3c2;" horiz-adv-x="1110" 
d="M467 -430q75 111 106 173t31 105q0 37 -27 66.5t-88 60.5l-124 64q-157 80 -233.5 206.5t-76.5 309.5q0 284 172.5 458.5t452.5 174.5q191 0 354 -80v-389q-135 80 -272 80q-122 0 -194 -64t-72 -172q0 -69 30.5 -113.5t100.5 -76.5l217 -103q106 -51 162.5 -133.5
t56.5 -185.5q0 -89 -34 -191t-93 -190h-469z" />
    <glyph glyph-name="sigma" unicode="&#x3c3;" horiz-adv-x="1468" 
d="M684 -31q-274 0 -452.5 169.5t-178.5 428.5q0 256 178 422t453 166h774v-356h-297q137 -122 137 -310q0 -224 -174.5 -372t-439.5 -148zM496 573q0 -94 53 -155.5t135 -61.5t135 62t53 157q0 93 -52.5 152t-135.5 59t-135.5 -59.5t-52.5 -153.5z" />
    <glyph glyph-name="tau" unicode="&#x3c4;" horiz-adv-x="1230" 
d="M866 -33q-255 0 -392.5 129t-137.5 371v332h-309v356h1163v-356h-416v-291q0 -164 209 -164q44 0 96 10v-364q-112 -23 -213 -23z" />
    <glyph glyph-name="upsilon" unicode="&#x3c5;" horiz-adv-x="1339" 
d="M664 -33q-268 0 -419 132.5t-151 367.5v688h438v-661q0 -67 38 -104.5t106 -37.5q83 0 121.5 62t38.5 196q0 259 -115 545h440q49 -98 81 -256.5t32 -306.5q0 -297 -160 -461t-450 -164z" />
    <glyph glyph-name="phi" unicode="&#x3c6;" horiz-adv-x="1830" 
d="M707 -430v397q-284 2 -468 170t-184 443q0 181 84.5 320t232 213t335.5 75v307h417v-307q188 -1 335.5 -75t232 -213t84.5 -320q0 -183 -85 -323t-232.5 -214.5t-334.5 -75.5v-397h-417zM483 580q0 -129 61.5 -199t162.5 -72v537q-102 -2 -163 -70t-61 -196zM1124 309
q101 2 162.5 72t61.5 199q0 128 -61 196t-163 70v-537z" />
    <glyph glyph-name="chi" unicode="&#x3c7;" horiz-adv-x="1241" 
d="M815 -430l-229 432l-178 -432h-424l401 805l-416 780h463l227 -428l175 428h423l-397 -803l416 -782h-461z" />
    <glyph glyph-name="psi" unicode="&#x3c8;" horiz-adv-x="1824" 
d="M709 -430v397q-293 1 -454 143.5t-161 399.5v645h428v-639q0 -87 44.5 -128t142.5 -42v1149h417v-1149q98 3 150.5 77t52.5 208q0 265 -88 524h447q69 -244 69 -537q0 -296 -170.5 -472t-460.5 -179v-397h-417z" />
    <glyph glyph-name="omega" unicode="&#x3c9;" horiz-adv-x="1892" 
d="M565 -33q-230 0 -364.5 163t-134.5 443q0 148 36.5 310t94.5 272h448q-62 -122 -101.5 -288.5t-39.5 -305.5q0 -205 117 -205q49 0 77.5 43t28.5 115v401h438v-401q0 -74 29 -116t80 -42q115 0 115 205q0 139 -40 305.5t-102 288.5h449q58 -110 94.5 -272t36.5 -310
q0 -280 -135 -443t-365 -163q-121 0 -218.5 61t-162.5 175q-65 -114 -162.5 -175t-218.5 -61z" />
    <glyph glyph-name="iotadieresis" unicode="&#x3ca;" horiz-adv-x="811" 
d="M602 -33q-242 0 -372 130.5t-130 373.5v684h439v-663q0 -148 184 -148q36 0 84 10v-364q-121 -23 -205 -23zM-102 1468q0 76 55.5 131.5t132.5 55.5q78 0 134 -55t56 -132q0 -76 -56 -131t-134 -55q-77 0 -132.5 55t-55.5 131zM414 1468q0 77 55 132t133 55t133.5 -55
t55.5 -132t-55.5 -131.5t-133.5 -54.5t-133 54.5t-55 131.5z" />
    <glyph glyph-name="upsilondieresis" unicode="&#x3cb;" horiz-adv-x="1339" 
d="M664 -33q-268 0 -419 132.5t-151 367.5v688h438v-661q0 -67 38 -104.5t106 -37.5q83 0 121.5 62t38.5 196q0 259 -115 545h440q49 -98 81 -256.5t32 -306.5q0 -297 -160 -461t-450 -164zM201 1468q0 76 55.5 131.5t132.5 55.5q78 0 134.5 -55.5t56.5 -131.5t-56.5 -131
t-134.5 -55q-77 0 -132.5 55t-55.5 131zM717 1468q0 77 55 132t133 55t133.5 -55t55.5 -132t-55.5 -131.5t-133.5 -54.5t-133 54.5t-55 131.5z" />
    <glyph glyph-name="omicrontonos" unicode="&#x3cc;" 
d="M684 -33q-130 0 -246 44.5t-201 123.5t-134.5 194.5t-49.5 250.5q0 180 85.5 320t228.5 214t317 74q177 0 320 -74t227 -214t84 -320t-84 -320.5t-227.5 -216.5t-319.5 -76zM494 1296l118 498h394l-220 -498h-292zM496 580q0 -101 56 -162.5t132 -61.5t132 61.5t56 162.5
t-55.5 160t-132.5 59q-75 0 -131.5 -59.5t-56.5 -159.5z" />
    <glyph glyph-name="upsilontonos" unicode="&#x3cd;" horiz-adv-x="1339" 
d="M664 -33q-268 0 -419 132.5t-151 367.5v688h438v-661q0 -67 38 -104.5t106 -37.5q83 0 121.5 62t38.5 196q0 259 -115 545h440q49 -98 81 -256.5t32 -306.5q0 -297 -160 -461t-450 -164zM457 1296l118 498h394l-219 -498h-293z" />
    <glyph glyph-name="omegatonos" unicode="&#x3ce;" horiz-adv-x="1892" 
d="M565 -33q-230 0 -364.5 163t-134.5 443q0 148 36.5 310t94.5 272h448q-62 -122 -101.5 -288.5t-39.5 -305.5q0 -205 117 -205q49 0 77.5 43t28.5 115v401h438v-401q0 -74 29 -116t80 -42q115 0 115 205q0 139 -40 305.5t-102 288.5h449q58 -110 94.5 -272t36.5 -310
q0 -280 -135 -443t-365 -163q-121 0 -218.5 61t-162.5 175q-65 -114 -162.5 -175t-218.5 -61zM774 1296l119 498h393l-219 -498h-293z" />
    <glyph glyph-name="uni0401" unicode="&#x401;" horiz-adv-x="1288" 
d="M133 0v1530h1057v-397h-610v-185h548v-360h-548v-191h610v-397h-1057zM217 1843q0 76 56 131.5t133 55.5q78 0 134 -55t56 -132q0 -76 -56 -131t-134 -55q-77 0 -133 55t-56 131zM733 1843q0 77 55.5 132t133.5 55t133 -55t55 -132t-55 -131.5t-133 -54.5t-133.5 54.5
t-55.5 131.5z" />
    <glyph glyph-name="uni0402" unicode="&#x402;" horiz-adv-x="1628" 
d="M983 0v354h25q62 0 93.5 33t31.5 88q0 58 -42 90.5t-112 32.5q-92 0 -174 -33v-565h-447v1126h-319v404h1272v-393h-506v-199q128 43 285 43q225 0 361 -126t136 -345q0 -231 -134.5 -370.5t-387.5 -139.5h-82z" />
    <glyph glyph-name="uni0403" unicode="&#x403;" horiz-adv-x="1142" 
d="M133 0v1530h975v-397h-528v-1133h-447zM461 1651l225 374h418l-322 -374h-321z" />
    <glyph glyph-name="uni0404" unicode="&#x404;" horiz-adv-x="1454" 
d="M897 -37q-242 0 -433.5 101.5t-299 284.5t-107.5 415q0 233 110 417t305 286t439 102q225 0 447 -86v-422q-186 102 -397 102q-158 0 -267.5 -55.5t-154.5 -161.5h622v-352h-629q41 -113 149 -172.5t267 -59.5q201 0 420 125v-426q-228 -98 -471 -98z" />
    <glyph glyph-name="uni0405" unicode="&#x405;" horiz-adv-x="1263" 
d="M678 1563q237 0 426 -107v-393q-72 51 -182.5 83t-210.5 32q-88 0 -135.5 -25.5t-47.5 -65.5q0 -36 40.5 -59t148.5 -61q176 -62 258 -111q221 -141 225 -383q0 -224 -161 -365t-443 -141q-144 0 -275 36.5t-219 96.5v414q88 -71 206 -116.5t235 -45.5q97 0 148.5 31.5
t51.5 77.5q0 54 -85 95q-32 16 -144 56q-43 16 -75.5 29t-79.5 36.5t-81.5 48t-72 61t-61 77t-39 95t-15.5 116.5q0 101 39.5 189.5t112.5 155t185.5 105t250.5 38.5z" />
    <glyph glyph-name="uni0406" unicode="&#x406;" horiz-adv-x="712" 
d="M133 0v1530h447v-1530h-447z" />
    <glyph glyph-name="uni0407" unicode="&#x407;" horiz-adv-x="712" 
d="M133 0v1530h447v-1530h-447zM-90 1843q0 76 55.5 131.5t132.5 55.5q78 0 134.5 -55.5t56.5 -131.5t-56.5 -131t-134.5 -55q-77 0 -132.5 55t-55.5 131zM426 1843q0 77 55 132t133 55t133.5 -55t55.5 -132t-55.5 -131.5t-133.5 -54.5t-133 54.5t-55 131.5z" />
    <glyph glyph-name="uni0408" unicode="&#x408;" horiz-adv-x="1050" 
d="M47 483q100 -108 225 -108q100 0 156.5 61t56.5 176v918h447v-973q0 -172 -63 -303t-192 -207t-310 -76q-90 0 -175 26.5t-145 70.5v415z" />
    <glyph glyph-name="uni0409" unicode="&#x409;" horiz-adv-x="2164" 
d="M20 389q128 0 181 65t53 222v854h1126v-443h90q326 0 490 -131.5t164 -390.5q0 -255 -181.5 -410t-478.5 -155h-514v1126h-266v-444q0 -373 -151 -527.5t-513 -154.5v389zM1380 371h101q86 0 139 49t53 129q0 81 -51.5 124.5t-144.5 43.5h-97v-346z" />
    <glyph glyph-name="uni040A" unicode="&#x40a;" horiz-adv-x="2248" 
d="M133 0v1530h447v-512h448v512h430v-512h125q627 0 627 -488q0 -238 -162 -384t-457 -146h-563v625h-448v-625h-447zM1458 356h131q84 0 131 43.5t47 114.5q0 148 -182 148h-127v-306z" />
    <glyph glyph-name="uni040B" unicode="&#x40b;" horiz-adv-x="1658" 
d="M1141 418q0 92 -39 134t-117 42q-91 0 -176 -31v-563h-447v1126h-323v404h323v2h447v-2h510v-393h-510v-187q134 49 299 49q225 0 352 -120t127 -355v-524h-446v418z" />
    <glyph glyph-name="uni040C" unicode="&#x40c;" horiz-adv-x="1556" 
d="M1567 1530l-529 -748l545 -782h-522l-481 702v-702h-447v1530h447v-690l475 690h512zM590 1651l225 374h418l-322 -374h-321z" />
    <glyph glyph-name="uni040E" unicode="&#x40e;" horiz-adv-x="1482" 
d="M279 362q118 0 186 19.5t108 69.5l-587 1079h477l338 -696l252 696h444l-436 -1030q-53 -126 -107.5 -213t-118.5 -148.5t-146.5 -96.5t-180 -50t-229.5 -15v385zM332 2042h291q0 -102 36 -146.5t115 -44.5t115.5 44.5t36.5 146.5h291q0 -89 -23 -159.5t-62.5 -117
t-96.5 -77t-121 -43.5t-140 -13q-95 0 -172.5 22t-139.5 68.5t-96 127.5t-34 192z" />
    <glyph glyph-name="uni040F" unicode="&#x40f;" horiz-adv-x="1576" 
d="M133 0v1530h447v-1127h417v1127h447v-1530h-457v-348h-395v348h-459z" />
    <glyph glyph-name="uni0410" unicode="&#x410;" horiz-adv-x="1615" 
d="M1626 0h-465l-100 301h-506l-96 -301h-463l551 1530h518zM670 659h272l-137 418z" />
    <glyph glyph-name="uni0411" unicode="&#x411;" horiz-adv-x="1388" 
d="M133 0v1530h1102v-371h-655v-168h122q313 0 470 -110t157 -353q0 -248 -160.5 -388t-451.5 -140h-584zM580 367h106q90 0 141.5 34.5t51.5 104.5t-49.5 99.5t-147.5 29.5h-102v-268z" />
    <glyph glyph-name="uni0412" unicode="&#x412;" horiz-adv-x="1439" 
d="M133 0v1530h655q263 0 409 -119t146 -301q0 -115 -58 -198t-157 -128v-4q120 -43 185 -133.5t65 -212.5q0 -89 -34.5 -166t-102 -137.5t-177 -95.5t-249.5 -35h-682zM575 371h199q83 0 126.5 35t43.5 92q0 56 -43.5 91.5t-124.5 35.5h-201v-254zM575 924h193
q77 0 117.5 33.5t40.5 82.5q0 50 -40.5 84.5t-117.5 34.5h-193v-235z" />
    <glyph glyph-name="uni0413" unicode="&#x413;" horiz-adv-x="1142" 
d="M133 0v1530h975v-397h-528v-1133h-447z" />
    <glyph glyph-name="uni0414" unicode="&#x414;" horiz-adv-x="1710" 
d="M47 -348v751h154q57 101 79.5 249.5t22.5 369.5v508h1139v-1127h217v-751h-395v348h-822v-348h-395zM633 403h362v723h-266v-159q0 -162 -25.5 -314t-70.5 -250z" />
    <glyph glyph-name="uni0415" unicode="&#x415;" horiz-adv-x="1288" 
d="M133 0v1530h1057v-397h-610v-185h548v-360h-548v-191h610v-397h-1057z" />
    <glyph glyph-name="uni0416" unicode="&#x416;" horiz-adv-x="2355" 
d="M1866 0l-467 702v-702h-443v702l-467 -702h-514l551 788l-542 742h514l458 -686v686h443v-686l459 686h514l-543 -742l551 -788h-514z" />
    <glyph glyph-name="uni0417" unicode="&#x417;" horiz-adv-x="1269" 
d="M580 -33q-140 0 -273 30.5t-225 84.5v414q93 -66 212 -105t232 -39q99 0 158 37.5t59 99.5q0 60 -51 83.5t-180 23.5h-215v352h233q109 0 159 26.5t50 84.5q0 57 -66 90t-184 33q-101 0 -211 -32t-182 -83v393q203 107 469 107q293 0 452 -111.5t159 -316.5
q0 -109 -59.5 -197.5t-174.5 -148.5l8 -9q113 -40 180.5 -131.5t67.5 -203.5q0 -220 -167.5 -351t-450.5 -131z" />
    <glyph glyph-name="uni0418" unicode="&#x418;" horiz-adv-x="1710" 
d="M133 0v1530h424v-860h2l592 860h426v-1530h-424v877h-2l-592 -877h-426z" />
    <glyph glyph-name="uni0419" unicode="&#x419;" horiz-adv-x="1710" 
d="M133 0v1530h424v-860h2l592 860h426v-1530h-424v877h-2l-592 -877h-426zM422 2042h291q0 -102 36 -146.5t115 -44.5t115.5 44.5t36.5 146.5h291q0 -89 -23 -159.5t-62.5 -117t-96.5 -77t-121 -43.5t-140 -13q-95 0 -172.5 22t-139.5 68.5t-96 127.5t-34 192z" />
    <glyph glyph-name="uni041A" unicode="&#x41a;" horiz-adv-x="1556" 
d="M1567 1530l-529 -748l545 -782h-522l-481 702v-702h-447v1530h447v-690l475 690h512z" />
    <glyph glyph-name="uni041B" unicode="&#x41b;" horiz-adv-x="1533" 
d="M20 377q128 0 181 65t53 222v866h1147v-1530h-447v1126h-266v-456q0 -252 -66.5 -399.5t-211 -215t-390.5 -67.5v389z" />
    <glyph glyph-name="uni041C" unicode="&#x41c;" horiz-adv-x="2035" 
d="M565 926l-92 -926h-420l207 1530h522l244 -850h4l238 850h506l208 -1530h-423l-86 926h-9l-262 -926h-375l-254 926h-8z" />
    <glyph glyph-name="uni041D" unicode="&#x41d;" horiz-adv-x="1638" 
d="M1059 0v555h-479v-555h-447v1530h447v-572h479v572h446v-1530h-446z" />
    <glyph glyph-name="uni041E" unicode="&#x41e;" horiz-adv-x="1740" 
d="M872 367q70 0 134.5 27t116 76t82 126t30.5 170q0 92 -30.5 168.5t-82 125.5t-116 76t-134.5 27t-135 -27t-115.5 -76t-81 -125.5t-30.5 -168.5q0 -183 107 -291t255 -108zM59 766q0 174 63.5 324.5t172.5 255t258.5 164t318.5 59.5q170 0 320.5 -59.5t259 -164
t171.5 -255t63 -324.5t-63 -324.5t-171.5 -255.5t-259 -165t-320.5 -60t-319.5 60t-258.5 165t-172 255.5t-63 324.5z" />
    <glyph glyph-name="uni041F" unicode="&#x41f;" horiz-adv-x="1601" 
d="M1022 0v1126h-442v-1126h-447v1530h1335v-1530h-446z" />
    <glyph glyph-name="uni0420" unicode="&#x420;" horiz-adv-x="1402" 
d="M133 0v1530h510q346 0 533.5 -153t187.5 -416q0 -93 -27 -180t-83.5 -162.5t-137 -132t-194.5 -89t-248 -32.5h-94v-365h-447zM580 760h114q95 0 157 48.5t62 135.5t-62.5 134.5t-160.5 47.5h-110v-366z" />
    <glyph glyph-name="uni0421" unicode="&#x421;" horiz-adv-x="1384" 
d="M1298 70q-216 -107 -432 -107q-132 0 -254.5 37.5t-222.5 108.5t-175 167.5t-116 222t-41 265.5q0 175 64 326.5t173.5 255.5t258 163.5t313.5 59.5q216 0 432 -107v-434q-94 67 -182 98t-192 31q-181 0 -298.5 -111t-117.5 -282q0 -170 117.5 -282.5t298.5 -112.5
q101 0 187.5 34.5t186.5 106.5v-440z" />
    <glyph glyph-name="uni0422" unicode="&#x422;" horiz-adv-x="1361" 
d="M459 0v1126h-422v404h1288v-404h-420v-1126h-446z" />
    <glyph glyph-name="uni0423" unicode="&#x423;" horiz-adv-x="1482" 
d="M279 362q118 0 186 19.5t108 69.5l-587 1079h477l338 -696l252 696h444l-436 -1030q-53 -126 -107.5 -213t-118.5 -148.5t-146.5 -96.5t-180 -50t-229.5 -15v385z" />
    <glyph glyph-name="uni0424" unicode="&#x424;" horiz-adv-x="1871" 
d="M723 -41v143q-190 1 -342.5 87t-240 241.5t-87.5 351.5q0 195 87.5 350.5t240 242t342.5 87.5v144h426v-144q190 -1 342.5 -87t240 -241.5t87.5 -351.5q0 -195 -87.5 -350.5t-240 -242t-342.5 -87.5v-143h-426zM463 782q0 -131 70.5 -218.5t189.5 -90.5v619
q-119 -3 -189.5 -91t-70.5 -219zM1149 473q119 3 189.5 90.5t70.5 218.5t-70.5 219t-189.5 91v-619z" />
    <glyph glyph-name="uni0425" unicode="&#x425;" horiz-adv-x="1509" 
d="M-8 0l475 764l-479 766h516l262 -451l240 451h510l-476 -764l482 -766h-514l-265 451l-241 -451h-510z" />
    <glyph glyph-name="uni0426" unicode="&#x426;" horiz-adv-x="1712" 
d="M133 0v1530h447v-1127h417v1127h447v-1127h215v-751h-395v348h-1131z" />
    <glyph glyph-name="uni0427" unicode="&#x427;" horiz-adv-x="1441" 
d="M559 487q-221 0 -354 128t-133 364v551h446v-451q0 -92 44.5 -139t123.5 -47q94 0 176 31v606h447v-1530h-447v537q-139 -50 -303 -50z" />
    <glyph glyph-name="uni0428" unicode="&#x428;" horiz-adv-x="2220" 
d="M580 1530v-1127h307v1127h446v-1127h307v1127h447v-1530h-1954v1530h447z" />
    <glyph glyph-name="uni0429" unicode="&#x429;" horiz-adv-x="2355" 
d="M133 0v1530h447v-1127h307v1127h446v-1127h307v1127h447v-1127h215v-751h-395v348h-1774z" />
    <glyph glyph-name="uni042A" unicode="&#x42a;" horiz-adv-x="1654" 
d="M412 0v1126h-375v404h821v-443h103q326 0 489.5 -131.5t163.5 -390.5q0 -255 -181.5 -410t-478.5 -155h-542zM858 371h113q86 0 139 49t53 129q0 81 -51.5 124.5t-144.5 43.5h-109v-346z" />
    <glyph glyph-name="uni042B" unicode="&#x42b;" horiz-adv-x="2041" 
d="M133 0v1530h447v-443h90q326 0 489.5 -131.5t163.5 -390.5q0 -255 -181 -410t-478 -155h-531zM580 371h100q86 0 139 49t53 129q0 81 -51.5 124.5t-144.5 43.5h-96v-346zM1462 0v1530h447v-1530h-447z" />
    <glyph glyph-name="uni042C" unicode="&#x42c;" horiz-adv-x="1382" 
d="M133 0v1530h447v-443h108q326 0 489.5 -131.5t163.5 -390.5q0 -255 -181 -410t-478 -155h-549zM580 371h118q86 0 139.5 49t53.5 129q0 81 -52 124.5t-145 43.5h-114v-346z" />
    <glyph glyph-name="uni042D" unicode="&#x42d;" horiz-adv-x="1425" 
d="M532 -37q-222 0 -444 86v426q110 -60 203 -86.5t194 -26.5q156 0 261.5 59.5t146.5 172.5h-608v352h604q-42 106 -146.5 161.5t-257.5 55.5q-211 0 -397 -102v422q222 86 447 86q144 0 273 -38t230.5 -109.5t175 -169.5t113 -223t39.5 -265q0 -233 -106 -415.5t-296 -284
t-432 -101.5z" />
    <glyph glyph-name="uni042E" unicode="&#x42e;" horiz-adv-x="2336" 
d="M1495 -39q-190 0 -349.5 75.5t-266 212t-146.5 314.5h-153v-563h-447v1530h447v-580h149q58 276 266.5 446.5t499.5 170.5q168 0 313.5 -60t248.5 -165.5t161.5 -254.5t58.5 -321q0 -173 -59 -322.5t-162 -255.5t-248 -166.5t-313 -60.5zM1155 766q0 -183 93 -293.5
t247 -110.5t247 111t93 293q0 180 -94 290.5t-246 110.5q-154 0 -247 -110t-93 -291z" />
    <glyph glyph-name="uni042F" unicode="&#x42f;" horiz-adv-x="1435" 
d="M23 0l387 539q-91 37 -157 94t-99.5 121.5t-48.5 124t-15 118.5q0 177 83.5 298.5t227 178t338.5 56.5h564v-1530h-447v539l-307 -539h-526zM541 967q0 -77 56 -118.5t144 -41.5h115v319h-113q-91 0 -146.5 -40t-55.5 -119z" />
    <glyph glyph-name="uni0430" unicode="&#x430;" horiz-adv-x="1437" 
d="M561 -33q-95 0 -186 45t-162 123t-114.5 193t-43.5 245q0 133 43.5 250t114.5 196t162 124t186 45q221 0 352 -182h2l41 149h373v-1155h-373l-41 150h-2q-131 -183 -352 -183zM498 578q0 -94 56.5 -158t145.5 -64q87 0 142 63t55 159t-55 158.5t-142 62.5
q-89 0 -145.5 -64.5t-56.5 -156.5z" />
    <glyph glyph-name="uni0431" unicode="&#x431;" horiz-adv-x="1378" 
d="M719 -33q-315 0 -481.5 205.5t-165.5 593.5q2 339 150 550t435 275q116 25 574 84v-397q-324 -36 -443 -53q-158 -23 -238 -103t-97 -231q68 88 171.5 137t223.5 49q199 0 336 -158.5t137 -388.5q0 -252 -166 -407.5t-436 -155.5zM502 530q0 -86 55 -139t143 -53
t143.5 53t55.5 139q0 83 -55.5 136t-143.5 53t-143 -53t-55 -136z" />
    <glyph glyph-name="uni0432" unicode="&#x432;" horiz-adv-x="1245" 
d="M109 0v1155h614q201 0 316.5 -86t115.5 -235q0 -75 -40 -140t-109 -102v-4q83 -34 130.5 -103.5t47.5 -158.5q0 -148 -121.5 -237t-323.5 -89h-630zM535 283h129q44 0 70 24t26 64q0 39 -28 64.5t-73 25.5h-124v-178zM535 698h120q44 0 70.5 24.5t26.5 63.5t-27 62.5
t-72 23.5h-118v-174z" />
    <glyph glyph-name="uni0433" unicode="&#x433;" horiz-adv-x="958" 
d="M109 0v1155h823v-356h-385v-799h-438z" />
    <glyph glyph-name="uni0434" unicode="&#x434;" horiz-adv-x="1509" 
d="M45 -260v616h125q42 62 59 140.5t17 189.5v469h1020v-799h194v-616h-368v260h-684v-260h-363zM592 356h244v451h-177v-131q0 -195 -67 -320z" />
    <glyph glyph-name="uni0435" unicode="&#x435;" horiz-adv-x="1269" 
d="M737 -33q-162 0 -292.5 46t-215.5 127.5t-130.5 192.5t-45.5 242q0 177 78.5 317.5t215.5 218t306 77.5q117 0 218 -38.5t178 -111.5t121 -187t44 -255q0 -68 -10 -133h-725q40 -80 126 -121t194 -41q143 0 338 86v-334q-180 -86 -400 -86zM463 705h338q-2 63 -42 106
t-108 43q-64 0 -114.5 -40t-73.5 -109z" />
    <glyph glyph-name="uni0436" unicode="&#x436;" horiz-adv-x="1892" 
d="M1868 1155l-312 -553l322 -602h-481l-238 526v-526h-426v526l-237 -526h-482l322 602l-311 553h464l244 -498v498h426v-498l244 498h465z" />
    <glyph glyph-name="uni0437" unicode="&#x437;" horiz-adv-x="1105" 
d="M500 -33q-243 0 -422 84v373q189 -117 401 -117q135 0 135 70q0 31 -45 48t-125 17h-184v279h186q72 0 111 17.5t39 49.5q0 60 -147 60q-90 0 -190 -23.5t-163 -60.5v346q76 36 183 57t215 21q252 0 388 -84.5t136 -241.5q0 -81 -37.5 -144t-116.5 -118v-8
q87 -41 135 -109t48 -151q0 -172 -144.5 -268.5t-402.5 -96.5z" />
    <glyph glyph-name="uni0438" unicode="&#x438;" horiz-adv-x="1347" 
d="M109 0v1155h401v-537h4l322 537h403v-1155h-401v524h-4l-306 -524h-419z" />
    <glyph glyph-name="uni0439" unicode="&#x439;" horiz-adv-x="1347" 
d="M109 0v1155h401v-537h4l322 537h403v-1155h-401v524h-4l-306 -524h-419zM221 1667h291q0 -101 36.5 -145.5t115.5 -44.5t115 44t36 146h291q0 -111 -34 -192t-96 -127.5t-139.5 -68.5t-172.5 -22q-76 0 -140 13t-121 43.5t-96.5 77t-62.5 117t-23 159.5z" />
    <glyph glyph-name="uni043A" unicode="&#x43a;" horiz-adv-x="1298" 
d="M547 1155v-502l258 502h469l-311 -553l321 -602h-485l-252 528v-528h-438v1155h438z" />
    <glyph glyph-name="uni043B" unicode="&#x43b;" horiz-adv-x="1335" 
d="M45 365q91 0 125.5 43.5t34.5 160.5v586h1022v-1155h-439v799h-157v-301q0 -272 -137.5 -391t-450.5 -119z" />
    <glyph glyph-name="uni043C" unicode="&#x43c;" horiz-adv-x="1619" 
d="M61 0l115 1155h461l176 -573h6l174 573h445l123 -1155h-414l-8 575h-9l-169 -565h-308l-170 565h-8l-8 -575h-406z" />
    <glyph glyph-name="uni043D" unicode="&#x43d;" horiz-adv-x="1345" 
d="M109 0v1155h438v-412h252v412h438v-1155h-438v387h-252v-387h-438z" />
    <glyph glyph-name="uni043E" unicode="&#x43e;" 
d="M684 -33q-130 0 -246 44.5t-201 123.5t-134.5 194.5t-49.5 250.5q0 180 85.5 320t228.5 214t317 74q177 0 320 -74t227 -214t84 -320t-84 -320.5t-227.5 -216.5t-319.5 -76zM496 580q0 -101 56 -162.5t132 -61.5t132 61.5t56 162.5t-55.5 160t-132.5 59
q-75 0 -131.5 -59.5t-56.5 -159.5z" />
    <glyph glyph-name="uni043F" unicode="&#x43f;" horiz-adv-x="1329" 
d="M109 0v1155h1112v-1155h-439v799h-235v-799h-438z" />
    <glyph glyph-name="uni0440" unicode="&#x440;" horiz-adv-x="1439" 
d="M109 -430v1585h372l41 -149q56 79 145 130.5t205 51.5q100 0 192 -44t162.5 -121.5t113 -193.5t42.5 -251q0 -136 -40.5 -251.5t-108.5 -193.5t-158 -122t-190 -44q-104 0 -195 49.5t-143 126.5v-573h-438zM543 578q0 -96 54 -159t140 -63q89 0 146 65.5t57 158.5
t-56.5 156t-144.5 63q-87 0 -141.5 -62t-54.5 -159z" />
    <glyph glyph-name="uni0441" unicode="&#x441;" horiz-adv-x="1120" 
d="M496 578q0 -100 73 -161t187 -61q159 0 278 82v-389q-161 -82 -354 -82q-174 0 -317 77t-226.5 218t-83.5 318t84 317t227 215.5t316 75.5q203 0 354 -80v-389q-135 80 -278 80q-114 0 -187 -60.5t-73 -160.5z" />
    <glyph glyph-name="uni0442" unicode="&#x442;" horiz-adv-x="1097" 
d="M330 0v799h-301v356h1040v-356h-301v-799h-438z" />
    <glyph glyph-name="uni0443" unicode="&#x443;" horiz-adv-x="1304" 
d="M1313 1155l-635 -1585h-434l194 455l-440 1130h467l197 -670h8l196 670h447z" />
    <glyph glyph-name="uni0444" unicode="&#x444;" horiz-adv-x="1802" 
d="M692 -430v397q-134 1 -252 47t-203.5 126t-135.5 194t-50 246q0 174 84.5 313t231 216.5t325.5 78.5v463h418v-463q179 -1 325.5 -78.5t231 -216.5t84.5 -313q0 -132 -50 -246t-135.5 -194t-203.5 -126t-252 -47v-397h-418zM473 580q0 -124 62.5 -201t156.5 -80v557
q-95 -3 -157 -78t-62 -198zM1110 303q95 3 157 78.5t62 198.5t-62 198t-157 78v-553z" />
    <glyph glyph-name="uni0445" unicode="&#x445;" horiz-adv-x="1292" 
d="M1282 1155l-379 -563l395 -592h-495l-166 301h-4l-164 -301h-469l387 575l-383 580h475l166 -303h4l164 303h469z" />
    <glyph glyph-name="uni0446" unicode="&#x446;" horiz-adv-x="1443" 
d="M109 0v1155h438v-799h225v799h438v-799h195v-616h-369v260h-927z" />
    <glyph glyph-name="uni0447" unicode="&#x447;" horiz-adv-x="1241" 
d="M446 326q-190 0 -290.5 101t-100.5 288v440h439v-346q0 -60 21.5 -87.5t68.5 -27.5q63 0 110 17v444h439v-1155h-439v371q-118 -45 -248 -45z" />
    <glyph glyph-name="uni0448" unicode="&#x448;" horiz-adv-x="1888" 
d="M547 1155v-799h182v799h430v-799h182v799h439v-1155h-1671v1155h438z" />
    <glyph glyph-name="uni0449" unicode="&#x449;" horiz-adv-x="2013" 
d="M109 0v1155h438v-799h182v799h430v-799h182v799h439v-799h194v-616h-368v260h-1497z" />
    <glyph glyph-name="uni044A" unicode="&#x44a;" horiz-adv-x="1359" 
d="M291 0v799h-260v356h698v-319h141q200 0 332.5 -117t132.5 -301t-139.5 -301t-347.5 -117h-557zM729 297h86q44 0 68 35.5t24 85.5q0 49 -25.5 85t-70.5 36h-82v-242z" />
    <glyph glyph-name="uni044B" unicode="&#x44b;" horiz-adv-x="1812" 
d="M109 0v1155h438v-319h145q199 0 327 -116.5t128 -301.5q0 -184 -140 -301t-348 -117h-550zM547 297h80q44 0 68 35.5t24 85.5q0 49 -25.5 85t-70.5 36h-76v-242zM1266 0v1155h438v-1155h-438z" />
    <glyph glyph-name="uni044C" unicode="&#x44c;" horiz-adv-x="1181" 
d="M109 0v1155h438v-319h153q199 0 328 -116.5t129 -301.5q0 -184 -139.5 -301t-347.5 -117h-561zM547 297h90q44 0 68 35.5t24 85.5q0 49 -25.5 85t-70.5 36h-86v-242z" />
    <glyph glyph-name="uni044D" unicode="&#x44d;" horiz-adv-x="1150" 
d="M449 -31q-237 0 -369 72v321q129 -57 303 -57q218 0 272 137h-387v281h385q-57 129 -268 129q-166 0 -305 -53v319q129 70 369 70q185 0 331.5 -73t232 -213t85.5 -324q0 -139 -49.5 -254.5t-136.5 -192.5t-206 -119.5t-257 -42.5z" />
    <glyph glyph-name="uni044E" unicode="&#x44e;" horiz-adv-x="1916" 
d="M1249 -33q-211 0 -372 116t-218 310h-112v-393h-438v1155h438v-418h106q49 207 213 329t383 122q129 0 242 -43.5t195.5 -121.5t130 -192.5t47.5 -250.5q0 -180 -81.5 -320.5t-221.5 -216.5t-312 -76zM1073 580q0 -103 51 -164.5t125 -61.5t125 61.5t51 164.5t-51 161
t-125 58q-73 0 -124.5 -58.5t-51.5 -160.5z" />
    <glyph glyph-name="uni044F" unicode="&#x44f;" horiz-adv-x="1253" 
d="M23 0l276 401q-108 57 -162.5 150.5t-54.5 193.5q0 86 33.5 159.5t98.5 130t170.5 88.5t240.5 32h520v-1155h-438v387l-195 -387h-489zM496 705q0 -51 30.5 -81t73.5 -30h107v221h-107q-43 0 -73.5 -30t-30.5 -80z" />
    <glyph glyph-name="uni0451" unicode="&#x451;" horiz-adv-x="1269" 
d="M737 -33q-162 0 -292.5 46t-215.5 127.5t-130.5 192.5t-45.5 242q0 177 78.5 317.5t215.5 218t306 77.5q117 0 218 -38.5t178 -111.5t121 -187t44 -255q0 -68 -10 -133h-725q40 -80 126 -121t194 -41q143 0 338 86v-334q-180 -86 -400 -86zM217 1468q0 76 56 131.5
t133 55.5q78 0 134 -55t56 -132q0 -76 -56 -131t-134 -55q-77 0 -133 55t-56 131zM463 705h338q-2 63 -42 106t-108 43q-64 0 -114.5 -40t-73.5 -109zM733 1468q0 77 55.5 132t133.5 55t133 -55t55 -132t-55 -131.5t-133 -54.5t-133.5 54.5t-55.5 131.5z" />
    <glyph glyph-name="uni0452" unicode="&#x452;" horiz-adv-x="1339" 
d="M582 -430q119 138 170 275.5t51 342.5v435q0 135 -121 135q-62 0 -98.5 -36t-36.5 -93v-629h-438v1255h-156v275h156v121h438v-121h287v-275h-287v-231h2q50 54 128 88.5t167 34.5q184 0 290.5 -108t106.5 -302v-501q0 -203 -42.5 -365t-147.5 -301h-469z" />
    <glyph glyph-name="uni0453" unicode="&#x453;" horiz-adv-x="958" 
d="M109 0v1155h823v-356h-385v-799h-438zM346 1276l225 375h418l-321 -375h-322z" />
    <glyph glyph-name="uni0454" unicode="&#x454;" horiz-adv-x="1181" 
d="M719 -31q-140 0 -262 42.5t-211.5 119.5t-141 192.5t-51.5 254.5q0 184 88.5 324t239 213t338.5 73q238 0 364 -70v-319q-136 53 -301 53q-220 0 -282 -129h399v-281h-403q62 -137 288 -137q179 0 312 68v-322q-134 -82 -377 -82z" />
    <glyph glyph-name="uni0455" unicode="&#x455;" horiz-adv-x="1107" 
d="M590 1188q103 0 205 -22t174 -60v-352q-64 37 -165.5 62.5t-193.5 25.5q-112 0 -112 -43q0 -22 34 -37.5t119 -34.5q68 -15 119 -30.5t107 -44.5t91.5 -66t59 -94.5t23.5 -129.5q0 -184 -140.5 -289.5t-396.5 -105.5q-248 0 -422 94v379q189 -127 402 -127q135 0 135 47
q0 23 -32 36.5t-128 38.5q-27 7 -41 11q-74 20 -131 45.5t-109.5 65.5t-81 101t-28.5 139q0 173 136 282t376 109z" />
    <glyph glyph-name="uni0456" unicode="&#x456;" horiz-adv-x="655" 
d="M109 0v1155h438v-1155h-438zM100 1460q0 94 66.5 160t161.5 66q94 0 160.5 -66t66.5 -160t-66.5 -159.5t-160.5 -65.5q-95 0 -161.5 65.5t-66.5 159.5z" />
    <glyph glyph-name="uni0457" unicode="&#x457;" horiz-adv-x="655" 
d="M109 0v1155h438v-1155h-438zM-119 1522q0 76 56 131t133 55q78 0 134 -55t56 -131q0 -77 -56 -132t-134 -55q-77 0 -133 55.5t-56 131.5zM397 1522q0 77 55.5 131.5t133.5 54.5t133 -54.5t55 -131.5t-55 -132t-133 -55t-133.5 55t-55.5 132z" />
    <glyph glyph-name="uni0458" unicode="&#x458;" horiz-adv-x="655" 
d="M-111 -430q119 138 170.5 275.5t51.5 342.5v967h438v-919q0 -202 -43 -364.5t-148 -301.5h-469zM102 1460q0 94 66.5 160t161.5 66q94 0 160.5 -66t66.5 -160t-66.5 -159.5t-160.5 -65.5q-95 0 -161.5 65.5t-66.5 159.5z" />
    <glyph glyph-name="uni0459" unicode="&#x459;" horiz-adv-x="1832" 
d="M47 377q91 0 125.5 44t34.5 161v573h1001v-319h150q199 0 324.5 -116t125.5 -302q0 -184 -139.5 -301t-347.5 -117h-535v799h-157v-289q0 -271 -136.5 -390.5t-447.5 -119.5zM1208 297h80q44 0 68 35.5t24 85.5q0 49 -25.5 85t-70.5 36h-76v-242z" />
    <glyph glyph-name="uni045A" unicode="&#x45a;" horiz-adv-x="1847" 
d="M109 0v1155h438v-364h252v364h422v-364h153q200 0 325.5 -107.5t125.5 -284.5q0 -172 -140.5 -285.5t-347.5 -113.5h-538v449h-252v-449h-438zM1221 289h90q45 0 68.5 28.5t23.5 77.5q0 47 -25 77t-71 30h-86v-213z" />
    <glyph glyph-name="uni045B" unicode="&#x45b;" horiz-adv-x="1339" 
d="M109 0v1255h-156v275h156v121h438v-121h287v-275h-287v-231h2q50 54 128 88.5t167 34.5q184 0 290.5 -108t106.5 -302v-737h-438v623q0 135 -121 135q-62 0 -98.5 -36t-36.5 -93v-629h-438z" />
    <glyph glyph-name="uni045C" unicode="&#x45c;" horiz-adv-x="1298" 
d="M547 1155v-502l258 502h469l-311 -553l321 -602h-485l-252 528v-528h-438v1155h438zM485 1243l226 375h417l-321 -375h-322z" />
    <glyph glyph-name="uni045E" unicode="&#x45e;" horiz-adv-x="1304" 
d="M1313 1155l-635 -1585h-434l194 455l-440 1130h467l197 -670h8l196 670h447zM223 1667h291q0 -101 36.5 -145.5t115.5 -44.5t115 44t36 146h291q0 -111 -34 -192t-96 -127.5t-139.5 -68.5t-172.5 -22q-76 0 -140 13t-121 43.5t-96.5 77t-62.5 117t-23 159.5z" />
    <glyph glyph-name="uni045F" unicode="&#x45f;" horiz-adv-x="1318" 
d="M109 0v1155h438v-799h225v799h438v-1155h-366v-260h-369v260h-366z" />
    <glyph glyph-name="uni0462" unicode="&#x462;" horiz-adv-x="1511" 
d="M274 0v1085h-274v363h274v102h447v-102h420v-363h-420v-110h123q311 0 468.5 -110.5t157.5 -348.5q0 -239 -161 -377.5t-451 -138.5h-584zM721 358h106q90 0 141.5 35t51.5 105t-49.5 99.5t-147.5 29.5h-102v-269z" />
    <glyph glyph-name="uni0463" unicode="&#x463;" horiz-adv-x="1329" 
d="M260 0v881h-260v274h260v483h438v-483h396v-274h-396v-86h142q134 0 238 -42.5t165.5 -129t61.5 -205.5q0 -180 -140.5 -299t-347.5 -119h-557zM698 276h97q44 0 68 35.5t24 85.5q0 49 -25.5 85t-70.5 36h-93v-242z" />
    <glyph glyph-name="uni0472" unicode="&#x472;" horiz-adv-x="1740" 
d="M870 -39q-170 0 -319.5 60t-258.5 165t-172 255.5t-63 324.5t63.5 324.5t172.5 255t258.5 164t318.5 59.5q170 0 320 -59.5t258.5 -164t171.5 -255t63 -324.5t-63 -324.5t-171.5 -255.5t-258.5 -165t-320 -60zM504 897h733q-37 134 -140 210.5t-227 76.5
q-125 0 -227 -76.5t-139 -210.5zM510 616q39 -127 139 -198.5t221 -71.5t221 71.5t140 198.5h-721z" />
    <glyph glyph-name="uni0473" unicode="&#x473;" 
d="M684 -33q-130 0 -246 44.5t-201 123.5t-134.5 194.5t-49.5 250.5q0 180 85.5 320t228.5 214t317 74q177 0 320 -74t227 -214t84 -320t-84 -320.5t-227.5 -216.5t-319.5 -76zM465 662h438q-22 85 -83 131.5t-136 46.5q-74 0 -135.5 -47t-83.5 -131zM473 469
q27 -72 85 -113t126 -41t126 41t85 113h-422z" />
    <glyph glyph-name="uni0474" unicode="&#x474;" horiz-adv-x="1658" 
d="M565 0l-579 1530h465l356 -1061h4l176 659q3 10 8 31q11 44 17.5 66.5t20 63.5t26 64t34.5 57.5t45.5 54t58.5 42.5t75 35t93.5 20.5t115.5 8.5q153 0 223 -43v-363q-56 35 -137 35q-125 0 -156 -96l-362 -1104h-484z" />
    <glyph glyph-name="uni0475" unicode="&#x475;" horiz-adv-x="1359" 
d="M422 0l-420 1155h467l190 -702h9l69 297q37 160 63 222q64 149 200 195q68 23 159 23q141 0 221 -47v-363q-80 39 -137 39q-90 0 -121 -96l-235 -723h-465z" />
    <glyph glyph-name="uni048A" unicode="&#x48a;" horiz-adv-x="1845" 
d="M1198 -348l102 348h-147v877h-2l-592 -877h-426v1530h424v-860h2l592 860h426v-1127h262l-246 -751h-395zM422 2042h291q0 -102 36 -146.5t115 -44.5t115.5 44.5t36.5 146.5h291q0 -89 -23 -159.5t-62.5 -117t-96.5 -77t-121 -43.5t-140 -13q-95 0 -172.5 22t-139.5 68.5
t-96 127.5t-34 192z" />
    <glyph glyph-name="uni048B" unicode="&#x48b;" horiz-adv-x="1474" 
d="M874 -260l78 260h-114v524h-4l-306 -524h-419v1155h401v-537h4l322 537h403v-799h205l-201 -616h-369zM221 1667h291q0 -101 36.5 -145.5t115.5 -44.5t115 44t36 146h291q0 -111 -34 -192t-96 -127.5t-139.5 -68.5t-172.5 -22q-76 0 -140 13t-121 43.5t-96.5 77
t-62.5 117t-23 159.5z" />
    <glyph glyph-name="uni048C" unicode="&#x48c;" horiz-adv-x="1511" 
d="M274 0v1085h-274v363h274v102h447v-102h420v-363h-420v-110h123q311 0 468.5 -110.5t157.5 -348.5q0 -239 -161 -377.5t-451 -138.5h-584zM721 358h106q90 0 141.5 35t51.5 105t-49.5 99.5t-147.5 29.5h-102v-269z" />
    <glyph glyph-name="uni048D" unicode="&#x48d;" horiz-adv-x="1329" 
d="M260 0v881h-260v274h260v483h438v-483h396v-274h-396v-86h142q134 0 238 -42.5t165.5 -129t61.5 -205.5q0 -180 -140.5 -299t-347.5 -119h-557zM698 276h97q44 0 68 35.5t24 85.5q0 49 -25.5 85t-70.5 36h-93v-242z" />
    <glyph glyph-name="uni048E" unicode="&#x48e;" horiz-adv-x="1402" 
d="M133 0v1530h510q346 0 533.5 -153t187.5 -416q0 -134 -56.5 -254t-166.5 -203l100 -144l-178 -124l-119 167q-119 -38 -270 -38h-94v-365h-447zM580 739h114q19 0 47 4l-96 140l133 90l111 -158q45 51 45 129q0 87 -68.5 134.5t-175.5 47.5h-110v-387z" />
    <glyph glyph-name="uni048F" unicode="&#x48f;" horiz-adv-x="1439" 
d="M109 -430v1585h372l41 -149q56 79 145 130.5t205 51.5q100 0 192 -44t162.5 -121.5t113 -193.5t42.5 -251q0 -156 -51 -282t-141 -206l113 -160l-179 -125l-125 177q-69 -15 -114 -15q-104 0 -195 49.5t-143 126.5v-573h-438zM543 573q0 -102 58 -169.5t147 -67.5
q20 0 30 2l-112 164l139 96l115 -164q41 62 41 144q0 95 -58.5 158t-152.5 63q-93 0 -150 -63t-57 -163z" />
    <glyph glyph-name="uni0490" unicode="&#x490;" horiz-adv-x="1142" 
d="M133 0v1530h580v348h395v-745h-528v-1133h-447z" />
    <glyph glyph-name="uni0491" unicode="&#x491;" horiz-adv-x="958" 
d="M109 0v1155h454v281h369v-637h-385v-799h-438z" />
    <glyph glyph-name="uni0492" unicode="&#x492;" horiz-adv-x="1193" 
d="M184 0v586h-184v301h184v643h975v-397h-528v-246h403v-301h-403v-586h-447z" />
    <glyph glyph-name="uni0493" unicode="&#x493;" horiz-adv-x="1003" 
d="M154 0v381h-154v248h154v526h823v-356h-385v-170h295v-248h-295v-381h-438z" />
    <glyph glyph-name="uni0494" unicode="&#x494;" horiz-adv-x="1382" 
d="M133 0v1530h975v-397h-528v-357q116 41 254 41q227 0 367 -148t140 -380q0 -163 -58 -287t-177 -196t-287 -72h-82v354h25q61 0 93 53.5t32 128.5q0 69 -43 116.5t-111 47.5t-153 -31v-403h-447z" />
    <glyph glyph-name="uni0495" unicode="&#x495;" horiz-adv-x="1290" 
d="M109 0v1155h884v-356h-446v-176q119 41 241 41q204 0 333.5 -121.5t129.5 -329.5q0 -146 -58 -258t-176.5 -177t-283.5 -65h-65v355h24q62 0 93.5 32.5t31.5 87.5q0 57 -35 90t-90 33q-68 0 -145 -30v-281h-438z" />
    <glyph glyph-name="uni0496" unicode="&#x496;" horiz-adv-x="2457" 
d="M1866 0l-467 702v-702h-443v702l-467 -702h-514l551 788l-542 742h514l458 -686v686h443v-686l459 686h514l-543 -742l268 -385h307v-751h-395v348h-143z" />
    <glyph glyph-name="uni0497" unicode="&#x497;" horiz-adv-x="1943" 
d="M1397 0l-238 526v-526h-426v526l-237 -526h-482l322 602l-311 553h464l244 -498v498h426v-498l244 498h465l-312 -553l132 -246h217v-616h-369v260h-139z" />
    <glyph glyph-name="uni0498" unicode="&#x498;" horiz-adv-x="1269" 
d="M408 -348v328q-194 25 -326 102v414q93 -66 212 -105t232 -39q99 0 158 37.5t59 99.5q0 60 -51 83.5t-180 23.5h-215v352h233q109 0 159 26.5t50 84.5q0 57 -66 90t-184 33q-101 0 -211 -32t-182 -83v393q203 107 469 107q293 0 452 -111.5t159 -316.5
q0 -109 -59.5 -197.5t-174.5 -148.5l8 -9q113 -40 180.5 -131.5t67.5 -203.5q0 -171 -104.5 -291t-290.5 -166v-340h-395z" />
    <glyph glyph-name="uni0499" unicode="&#x499;" horiz-adv-x="1105" 
d="M362 -260v235q-158 18 -284 76v373q189 -117 401 -117q135 0 135 70q0 31 -45 48t-125 17h-184v279h186q72 0 111 17.5t39 49.5q0 60 -147 60q-90 0 -190 -23.5t-163 -60.5v346q76 36 183 57t215 21q252 0 388 -84.5t136 -241.5q0 -81 -37.5 -144t-116.5 -118v-8
q87 -41 135 -109t48 -151q0 -128 -82 -215.5t-234 -124.5v-252h-369z" />
    <glyph glyph-name="uni049A" unicode="&#x49a;" horiz-adv-x="1667" 
d="M1061 0l-481 702v-702h-447v1530h447v-690l475 690h512l-529 -748l265 -379h311v-751h-395v348h-158z" />
    <glyph glyph-name="uni049B" unicode="&#x49b;" horiz-adv-x="1363" 
d="M799 0l-252 528v-528h-438v1155h438v-502l258 502h469l-311 -553l131 -246h231v-616h-369v260h-157z" />
    <glyph glyph-name="uni049C" unicode="&#x49c;" horiz-adv-x="1718" 
d="M1225 0l-287 596h-49v-338h-219v338h-90v-596h-447v1530h447v-612h90v337h219v-337h35l295 612h512l-385 -748l401 -782h-522z" />
    <glyph glyph-name="uni049D" unicode="&#x49d;" horiz-adv-x="1458" 
d="M958 0l-141 428h-45v-225h-168v225h-57v-428h-438v1155h438v-453h57v226h168v-226h29l164 453h469l-265 -553l275 -602h-486z" />
    <glyph glyph-name="uni049E" unicode="&#x49e;" horiz-adv-x="1679" 
d="M1184 0l-482 725v-725h-446v1106h-256v321h256v103h446v-103h158v-321h-158v-289l476 713h512l-512 -748l528 -782h-522z" />
    <glyph glyph-name="uni049F" unicode="&#x49f;" horiz-adv-x="1298" 
d="M799 0l-252 528v-528h-438v1255h-156v275h156v121h438v-121h287v-275h-287v-602l258 502h469l-311 -553l321 -602h-485z" />
    <glyph glyph-name="uni04A0" unicode="&#x4a0;" horiz-adv-x="1777" 
d="M1282 0l-481 702v-702h-447v1133h-354v397h801v-690l475 690h512l-528 -748l544 -782h-522z" />
    <glyph glyph-name="uni04A1" unicode="&#x4a1;" horiz-adv-x="1433" 
d="M934 0l-252 528v-528h-438v799h-244v356h682v-502l258 502h469l-311 -553l321 -602h-485z" />
    <glyph glyph-name="uni04A2" unicode="&#x4a2;" horiz-adv-x="1773" 
d="M133 0v1530h447v-572h479v572h446v-1127h215v-751h-395v348h-266v555h-479v-555h-447z" />
    <glyph glyph-name="uni04A3" unicode="&#x4a3;" horiz-adv-x="1470" 
d="M109 0v1155h438v-412h252v412h438v-799h195v-616h-369v260h-264v387h-252v-387h-438z" />
    <glyph glyph-name="uni04A4" unicode="&#x4a4;" horiz-adv-x="2068" 
d="M133 0v1530h447v-572h479v572h975v-397h-529v-1133h-446v555h-479v-555h-447z" />
    <glyph glyph-name="uni04A5" unicode="&#x4a5;" horiz-adv-x="1640" 
d="M799 0v387h-252v-387h-438v1155h438v-412h252v412h823v-356h-385v-799h-438z" />
    <glyph glyph-name="uni04A6" unicode="&#x4a6;" horiz-adv-x="2271" 
d="M133 0v1530h1335v-754q116 41 254 41q227 0 367.5 -148t140.5 -380q0 -163 -58 -287t-177 -196t-287 -72h-82v354h25q61 0 93 53.5t32 128.5q0 69 -43 116.5t-111 47.5q-69 0 -154 -31v-403h-446v1126h-442v-1126h-447z" />
    <glyph glyph-name="uni04A7" unicode="&#x4a7;" horiz-adv-x="1982" 
d="M109 0v1155h1112v-502q122 41 256 41q210 0 339.5 -126.5t129.5 -344.5q0 -231 -135 -370.5t-388 -139.5h-82v355h25q62 0 93.5 32.5t31.5 87.5q0 57 -35 90t-90 33q-68 0 -145 -30v-281h-439v799h-235v-799h-438z" />
    <glyph glyph-name="uni04A8" unicode="&#x4a8;" horiz-adv-x="2183" 
d="M938 -37q-201 0 -367 58t-278.5 163t-174 252.5t-61.5 323.5q0 170 57 319t154 254t227.5 168t276.5 70v-406q-124 -20 -201 -128.5t-77 -268.5q0 -188 121 -302t343 -114h33q-194 244 -194 545q0 153 51 281.5t139.5 214t207.5 133t255 47.5q179 0 323.5 -78.5
t229 -227.5t84.5 -343q0 -179 -72 -339t-203 -288q23 -2 70 -2q138 0 234 27v-328q-102 -31 -254 -31q-235 0 -449 86q-230 -86 -475 -86zM1231 887q0 -244 168 -412q118 78 186 192t68 251q0 126 -57 197t-152 71q-99 0 -156 -79.5t-57 -219.5z" />
    <glyph glyph-name="uni04A9" unicode="&#x4a9;" horiz-adv-x="1810" 
d="M741 -31q-331 0 -509.5 164t-178.5 436q0 135 45 250.5t123 195t185 126t229 49.5v-344q-75 -17 -118.5 -94.5t-43.5 -178.5q0 -123 75 -198.5t228 -75.5h10q-133 173 -133 379q0 152 73 270t195 180t271 62q228 0 378 -137.5t150 -352.5q0 -231 -182 -419q135 0 211 26
v-305q-93 -33 -236 -33q-190 0 -366 68q-201 -68 -406 -68zM1073 664q0 -137 92 -240q135 109 135 262q0 70 -28 109t-80 39q-56 0 -87.5 -44.5t-31.5 -125.5z" />
    <glyph glyph-name="uni04AA" unicode="&#x4aa;" horiz-adv-x="1396" 
d="M616 -348v348q-249 74 -404 278.5t-155 485.5q0 175 64 326.5t173.5 255.5t258 163.5t313.5 59.5q216 0 432 -107v-434q-94 67 -182 98t-192 31q-181 0 -298.5 -111t-117.5 -282q0 -170 117.5 -282.5t298.5 -112.5q101 0 187.5 34.5t186.5 106.5v-440q-156 -76 -286 -95
v-323h-396z" />
    <glyph glyph-name="uni04AB" unicode="&#x4ab;" horiz-adv-x="1120" 
d="M442 -260v268q-176 66 -282.5 218.5t-106.5 353.5q0 177 84 317t227 215.5t316 75.5q203 0 354 -80v-389q-135 80 -278 80q-114 0 -187 -60.5t-73 -160.5t73 -161t187 -61q159 0 278 82v-389q-95 -49 -223 -72v-237h-369z" />
    <glyph glyph-name="uni04AC" unicode="&#x4ac;" horiz-adv-x="1361" 
d="M459 0v1126h-422v404h1288v-404h-420v-723h215v-751h-395v348h-266z" />
    <glyph glyph-name="uni04AD" unicode="&#x4ad;" horiz-adv-x="1097" 
d="M330 0v799h-301v356h1040v-356h-301v-443h195v-616h-369v260h-264z" />
    <glyph glyph-name="uni04AE" unicode="&#x4ae;" horiz-adv-x="1560" 
d="M557 0v582l-571 948h499l306 -553h8l301 553h473l-569 -946v-584h-447z" />
    <glyph glyph-name="uni04AF" unicode="&#x4af;" horiz-adv-x="1304" 
d="M436 -430v360l-434 1225h467l190 -764h9l194 764h447l-435 -1218v-367h-438z" />
    <glyph glyph-name="uni04B0" unicode="&#x4b0;" horiz-adv-x="1560" 
d="M557 0v362h-328v302h279l-522 866h499l306 -553h8l301 553h473l-522 -866h280v-302h-327v-362h-447z" />
    <glyph glyph-name="uni04B1" unicode="&#x4b1;" horiz-adv-x="1304" 
d="M170 -221v241h229l-397 1135h467l190 -764h9l194 764h447l-400 -1135h232v-241h-267v-209h-438v209h-266z" />
    <glyph glyph-name="uni04B2" unicode="&#x4b2;" horiz-adv-x="1636" 
d="M-8 0l475 764l-479 766h516l262 -451l240 451h510l-476 -764l228 -363h315v-751h-395v348h-180l-265 451l-241 -451h-510z" />
    <glyph glyph-name="uni04B3" unicode="&#x4b3;" horiz-adv-x="1337" 
d="M0 0l387 575l-383 580h475l166 -303h4l164 303h469l-379 -563l158 -236h237v-616h-368v260h-127l-166 301h-4l-164 -301h-469z" />
    <glyph glyph-name="uni04B4" unicode="&#x4b4;" horiz-adv-x="1957" 
d="M379 0v1133h-348v397h1040v-397h-246v-730h418v1127h447v-1127h215v-751h-396v348h-1130z" />
    <glyph glyph-name="uni04B5" unicode="&#x4b5;" horiz-adv-x="1644" 
d="M309 0v799h-293v356h867v-356h-135v-443h225v799h438v-799h195v-616h-369v260h-928z" />
    <glyph glyph-name="uni04B6" unicode="&#x4b6;" horiz-adv-x="1576" 
d="M559 487q-221 0 -354 128t-133 364v551h446v-451q0 -92 44.5 -139t123.5 -47q94 0 176 31v606h447v-1127h215v-751h-396v348h-266v537q-139 -50 -303 -50z" />
    <glyph glyph-name="uni04B7" unicode="&#x4b7;" horiz-adv-x="1366" 
d="M446 326q-190 0 -290.5 101t-100.5 288v440h439v-346q0 -60 21.5 -87.5t68.5 -27.5q63 0 110 17v444h439v-799h194v-616h-369v260h-264v371q-118 -45 -248 -45z" />
    <glyph glyph-name="uni04B8" unicode="&#x4b8;" horiz-adv-x="1441" 
d="M539 508q-233 0 -363.5 126.5t-130.5 364.5v531h418v-471q0 -141 90 -174v323h219v-325q45 6 90 22v625h447v-1530h-447v557q-50 -17 -90 -25v-290h-219v266h-14z" />
    <glyph glyph-name="uni04B9" unicode="&#x4b9;" horiz-adv-x="1282" 
d="M455 346q-186 0 -293 102.5t-107 286.5v420h398v-397q0 -91 57 -111v227h168v-231q42 8 57 14v498h439v-1155h-439v393q-27 -12 -57 -18v-221h-168v194q-18 -2 -55 -2z" />
    <glyph glyph-name="uni04BA" unicode="&#x4ba;" horiz-adv-x="1437" 
d="M911 418q0 92 -38.5 134t-116.5 42q-91 0 -176 -31v-563h-447v1532h447v-582q134 49 299 49q225 0 352 -120t127 -355v-524h-447v418z" />
    <glyph glyph-name="uni04BB" unicode="&#x4bb;" horiz-adv-x="1341" 
d="M547 1651v-586h2q50 54 128 88.5t167 34.5q184 0 290.5 -108t106.5 -302v-778h-438v664q0 135 -121 135q-62 0 -98.5 -36t-36.5 -93v-670h-438v1651h438z" />
    <glyph glyph-name="uni04BC" unicode="&#x4bc;" horiz-adv-x="1990" 
d="M1303 -31q-364 0 -586.5 183t-261.5 489h-56q-187 0 -294.5 109t-104.5 294q3 159 76 265h301q-77 -83 -80 -215q-3 -182 160 -191q28 200 136 353t271 234t357 81q119 0 225 -31t195.5 -94.5t154 -154t101 -215.5t36.5 -273q0 -64 -12 -154h-1036q43 -155 172 -237
t305 -82q233 0 473 149v-375q-229 -135 -532 -135zM881 922h616q-4 133 -81.5 210.5t-196.5 77.5q-121 0 -213.5 -77.5t-124.5 -210.5z" />
    <glyph glyph-name="uni04BD" unicode="&#x4bd;" horiz-adv-x="1579" 
d="M1047 -33q-287 0 -463.5 135.5t-212.5 360.5h-58q-146 0 -231 86t-82 231q3 128 63 209h265q-65 -65 -68 -158q-7 -138 111 -141q37 224 200 361t392 137q117 0 218 -38.5t178 -111.5t121 -187t44 -255q0 -62 -11 -133h-725q40 -80 125.5 -121t194.5 -41q143 0 338 86
v-334q-180 -86 -399 -86zM772 705h338q-2 63 -41.5 106t-107.5 43q-65 0 -115.5 -39.5t-73.5 -109.5z" />
    <glyph glyph-name="uni04BE" unicode="&#x4be;" horiz-adv-x="1990" 
d="M965 -348v366q-218 71 -349 233.5t-161 389.5h-56q-187 0 -294.5 109t-104.5 294q3 159 76 265h301q-77 -83 -80 -215q-3 -182 160 -191q28 200 136 353t271 234t357 81q119 0 225 -31t195.5 -94.5t154 -154t101 -215.5t36.5 -273q0 -64 -12 -154h-1036q43 -155 172 -237
t305 -82q233 0 473 149v-375q-208 -124 -475 -133v-319h-395zM881 922h616q-4 133 -81.5 210.5t-196.5 77.5q-121 0 -213.5 -77.5t-124.5 -210.5z" />
    <glyph glyph-name="uni04BF" unicode="&#x4bf;" horiz-adv-x="1579" 
d="M737 -260v278q-153 59 -246 174.5t-120 270.5h-58q-146 0 -231 86t-82 231q3 128 63 209h265q-65 -65 -68 -158q-7 -138 111 -141q37 224 200 361t392 137q117 0 218 -38.5t178 -111.5t121 -187t44 -255q0 -62 -11 -133h-725q40 -80 125.5 -121t194.5 -41q143 0 338 86
v-334q-156 -75 -340 -84v-229h-369zM772 705h338q-2 63 -41.5 106t-107.5 43q-65 0 -115.5 -39.5t-73.5 -109.5z" />
    <glyph glyph-name="uni04C0" unicode="&#x4c0;" horiz-adv-x="712" 
d="M133 0v1530h447v-1530h-447z" />
    <glyph glyph-name="uni04C1" unicode="&#x4c1;" horiz-adv-x="2355" 
d="M1866 0l-467 702v-702h-443v702l-467 -702h-514l551 788l-542 742h514l458 -686v686h443v-686l459 686h514l-543 -742l551 -788h-514zM745 2042h291q0 -102 36.5 -146.5t115.5 -44.5t115 44.5t36 146.5h291q0 -111 -34 -192t-96 -127.5t-139.5 -68.5t-172.5 -22
q-76 0 -140 13t-121 43.5t-96.5 77t-62.5 117t-23 159.5z" />
    <glyph glyph-name="uni04C2" unicode="&#x4c2;" horiz-adv-x="1892" 
d="M1868 1155l-312 -553l322 -602h-481l-238 526v-526h-426v526l-237 -526h-482l322 602l-311 553h464l244 -498v498h426v-498l244 498h465zM502 1667h291q0 -102 36 -146t115 -44t115.5 44.5t36.5 145.5h290q0 -111 -34 -192t-96 -127.5t-139.5 -68.5t-172.5 -22t-172.5 22
t-139.5 68.5t-96 127.5t-34 192z" />
    <glyph glyph-name="uni04C3" unicode="&#x4c3;" horiz-adv-x="1478" 
d="M784 -410v355h25q58 0 88.5 52.5t30.5 141.5q0 145 -90 228.5t-228 83.5h-30v-451h-447v1530h447v-680l413 680h512l-534 -785q196 -61 303.5 -203.5t107.5 -367.5q0 -126 -33 -232t-96.5 -185t-162.5 -123t-224 -44h-82z" />
    <glyph glyph-name="uni04C4" unicode="&#x4c4;" horiz-adv-x="1310" 
d="M690 -410v355h25q96 0 96 127q0 95 -73 153t-181 58h-10v-283h-438v1155h438v-502l258 502h469l-350 -596q151 -57 236 -176t85 -293q0 -224 -128 -362t-361 -138h-66z" />
    <glyph glyph-name="uni04C5" unicode="&#x4c5;" horiz-adv-x="1669" 
d="M20 377q128 0 181 65t53 222v866h1147v-1127h262l-246 -751h-395l102 348h-170v1126h-266v-456q0 -252 -66.5 -399.5t-211 -215t-390.5 -67.5v389z" />
    <glyph glyph-name="uni04C6" unicode="&#x4c6;" horiz-adv-x="1462" 
d="M45 365q91 0 125.5 43.5t34.5 160.5v586h1022v-799h205l-201 -616h-369l78 260h-152v799h-157v-301q0 -272 -137.5 -391t-450.5 -119z" />
    <glyph glyph-name="uni04C7" unicode="&#x4c7;" horiz-adv-x="1638" 
d="M133 0v1530h447v-572h479v572h446v-1294q0 -203 -42.5 -365t-147.5 -301h-477q119 138 170 275.5t51 342.5v367h-479v-555h-447z" />
    <glyph glyph-name="uni04C8" unicode="&#x4c8;" horiz-adv-x="1345" 
d="M109 0v1155h438v-412h252v412h438v-919q0 -203 -42.5 -365t-147.5 -301h-469q119 138 170 275.5t51 342.5v199h-252v-387h-438z" />
    <glyph glyph-name="uni04C9" unicode="&#x4c9;" horiz-adv-x="1773" 
d="M1126 -348l103 348h-170v555h-479v-555h-447v1530h447v-572h479v572h446v-1127h262l-245 -751h-396z" />
    <glyph glyph-name="uni04CA" unicode="&#x4ca;" horiz-adv-x="1472" 
d="M872 -260l78 260h-151v387h-252v-387h-438v1155h438v-412h252v412h438v-799h205l-201 -616h-369z" />
    <glyph glyph-name="uni04CB" unicode="&#x4cb;" horiz-adv-x="1441" 
d="M559 498q-221 0 -354 127.5t-133 363.5v541h446v-440q0 -92 45 -139.5t123 -47.5q94 0 176 31v596h447v-1530h-267v-348h-395v710h215v185q-137 -49 -303 -49z" />
    <glyph glyph-name="uni04CC" unicode="&#x4cc;" horiz-adv-x="1241" 
d="M446 346q-190 0 -290.5 101t-100.5 288v420h439v-326q0 -60 21.5 -87t68.5 -27q66 0 110 16v424h439v-1155h-265v-260h-368v504h194v147q-118 -45 -248 -45z" />
    <glyph glyph-name="uni04CD" unicode="&#x4cd;" horiz-adv-x="2195" 
d="M53 0l207 1530h522l244 -850h4l238 850h506l153 -1129l2 2h303l-245 -751h-396l103 348h-135l-86 926h-9l-262 -926h-375l-254 926h-8l-92 -926h-420z" />
    <glyph glyph-name="uni04CE" unicode="&#x4ce;" horiz-adv-x="1701" 
d="M61 0l115 1155h461l176 -573h6l174 573h445l84 -799h215l-201 -616h-369l78 260h-98l-8 575h-9l-169 -565h-308l-170 565h-8l-8 -575h-406z" />
    <glyph glyph-name="uni04CF" unicode="&#x4cf;" horiz-adv-x="655" 
d="M109 0v1651h438v-1651h-438z" />
    <glyph glyph-name="uni04D0" unicode="&#x4d0;" horiz-adv-x="1615" 
d="M1626 0h-465l-100 301h-506l-96 -301h-463l551 1530h518zM354 2025h264q5 -73 53.5 -119t133.5 -46t133 45.5t53 119.5h264q6 -87 -19.5 -159t-71.5 -118t-107.5 -77.5t-124.5 -45t-127 -13.5t-127 13.5t-125 45t-107.5 77.5t-71.5 118t-20 159zM670 659h272l-137 418z
" />
    <glyph glyph-name="uni04D1" unicode="&#x4d1;" horiz-adv-x="1437" 
d="M561 -33q-95 0 -186 45t-162 123t-114.5 193t-43.5 245q0 133 43.5 250t114.5 196t162 124t186 45q221 0 352 -182h2l41 149h373v-1155h-373l-41 150h-2q-131 -183 -352 -183zM305 1651h264q5 -74 53.5 -120t133.5 -46t133 46t53 120h264q6 -87 -19.5 -159t-71.5 -118
t-107.5 -78t-124.5 -45.5t-127 -13.5t-127 13.5t-125 45.5t-107.5 78t-71.5 118t-20 159zM498 578q0 -94 56.5 -158t145.5 -64q87 0 142 63t55 159t-55 158.5t-142 62.5q-89 0 -145.5 -64.5t-56.5 -156.5z" />
    <glyph glyph-name="uni04D2" unicode="&#x4d2;" horiz-adv-x="1615" 
d="M1626 0h-465l-100 301h-506l-96 -301h-463l551 1530h518zM358 1843q0 76 56 131.5t133 55.5q78 0 134 -55t56 -132q0 -76 -56 -131t-134 -55q-77 0 -133 55t-56 131zM670 659h272l-137 418zM874 1843q0 77 55.5 132t133.5 55t133 -55t55 -132t-55 -131.5t-133 -54.5
t-133.5 54.5t-55.5 131.5z" />
    <glyph glyph-name="uni04D3" unicode="&#x4d3;" horiz-adv-x="1437" 
d="M561 -33q-95 0 -186 45t-162 123t-114.5 193t-43.5 245q0 133 43.5 250t114.5 196t162 124t186 45q221 0 352 -182h2l41 149h373v-1155h-373l-41 150h-2q-131 -183 -352 -183zM309 1468q0 76 56 131.5t133 55.5q78 0 134 -55t56 -132q0 -76 -56 -131t-134 -55
q-77 0 -133 55t-56 131zM498 578q0 -94 56.5 -158t145.5 -64q87 0 142 63t55 159t-55 158.5t-142 62.5q-89 0 -145.5 -64.5t-56.5 -156.5zM825 1468q0 77 55.5 132t133.5 55t133 -55t55 -132t-55 -131.5t-133 -54.5t-133.5 54.5t-55.5 131.5z" />
    <glyph glyph-name="uni04D4" unicode="&#x4d4;" horiz-adv-x="2238" 
d="M2138 1530v-404h-569v-178h512v-360h-512v-185h569v-403h-1016v317h-469l-180 -317h-516l907 1530h1274zM854 674h268v461h-6z" />
    <glyph glyph-name="uni04D5" unicode="&#x4d5;" horiz-adv-x="1896" 
d="M1763 53q-180 -86 -399 -86q-303 0 -465 168q-84 -79 -196 -123.5t-230 -44.5q-187 0 -306.5 105t-119.5 268q0 154 109 256t299 102q106 0 241 -30v39q0 57 -44 94t-140 37q-168 0 -348 -107v340q200 117 411 117q223 0 357 -137q149 137 368 137q109 0 206 -39
t172 -111.5t119 -186.5t44 -255q0 -68 -10 -133h-711q37 -81 117.5 -121.5t187.5 -40.5q143 0 338 86v-334zM432 381q0 -35 27.5 -60.5t79.5 -25.5q66 0 111.5 40t45.5 97v14q-67 27 -133 27q-68 0 -99.5 -27.5t-31.5 -64.5zM1106 713h321q-2 58 -42 99.5t-107 41.5
q-61 0 -105.5 -37t-66.5 -104z" />
    <glyph glyph-name="uni04D6" unicode="&#x4d6;" horiz-adv-x="1288" 
d="M133 0v1530h1057v-397h-610v-185h548v-360h-548v-191h610v-397h-1057zM213 2025h264q5 -73 53.5 -119t133.5 -46t133 45.5t53 119.5h264q6 -87 -19.5 -159t-71.5 -118t-107.5 -77.5t-124.5 -45t-127 -13.5t-127 13.5t-125 45t-107.5 77.5t-71.5 118t-20 159z" />
    <glyph glyph-name="uni04D7" unicode="&#x4d7;" horiz-adv-x="1269" 
d="M737 -33q-162 0 -292.5 46t-215.5 127.5t-130.5 192.5t-45.5 242q0 177 78.5 317.5t215.5 218t306 77.5q117 0 218 -38.5t178 -111.5t121 -187t44 -255q0 -68 -10 -133h-725q40 -80 126 -121t194 -41q143 0 338 86v-334q-180 -86 -400 -86zM213 1651h264q5 -74 53.5 -120
t133.5 -46t133 46t53 120h264q6 -87 -19.5 -159t-71.5 -118t-107.5 -78t-124.5 -45.5t-127 -13.5t-127 13.5t-125 45.5t-107.5 78t-71.5 118t-20 159zM463 705h338q-2 63 -42 106t-108 43q-64 0 -114.5 -40t-73.5 -109z" />
    <glyph glyph-name="uni04D8" unicode="&#x4d8;" horiz-adv-x="1601" 
d="M770 -31q-149 0 -277.5 51t-226 146.5t-153.5 245.5t-56 336q0 56 13 153h1032q-44 151 -172 230t-301 79q-233 0 -473 -149v375q229 135 532 135q201 0 363 -59t270 -164.5t165.5 -252t57.5 -321.5q0 -178 -60.5 -329.5t-164.5 -255.5t-246 -162t-303 -58zM494 629
q4 -137 81.5 -218t196.5 -81q123 0 217 81t123 218h-618z" />
    <glyph glyph-name="uni04D9" unicode="&#x4d9;" horiz-adv-x="1269" 
d="M614 -33q-117 0 -218.5 39.5t-178 113t-120.5 188.5t-44 257q0 68 10 133h728q-37 82 -115.5 122t-181.5 40q-94 0 -176 -22t-183 -64v328q180 86 400 86q162 0 292 -46t214 -127.5t128.5 -192.5t44.5 -242q0 -177 -78.5 -317.5t-215.5 -218t-306 -77.5zM467 457
q2 -65 41.5 -110.5t107.5 -45.5q65 0 116 42t73 114h-338z" />
    <glyph glyph-name="uni04DA" unicode="&#x4da;" horiz-adv-x="1601" 
d="M770 -31q-149 0 -277.5 51t-226 146.5t-153.5 245.5t-56 336q0 56 13 153h1032q-44 151 -172 230t-301 79q-233 0 -473 -149v375q229 135 532 135q201 0 363 -59t270 -164.5t165.5 -252t57.5 -321.5q0 -178 -60.5 -329.5t-164.5 -255.5t-246 -162t-303 -58zM440 1804
q0 76 56 131.5t133 55.5q78 0 134 -55t56 -132q0 -76 -56 -131t-134 -55q-77 0 -133 55t-56 131zM494 629q4 -137 81.5 -218t196.5 -81q123 0 217 81t123 218h-618zM956 1804q0 77 55.5 132t133.5 55t133 -55t55 -132t-55 -131.5t-133 -54.5t-133.5 54.5t-55.5 131.5z" />
    <glyph glyph-name="uni04DB" unicode="&#x4db;" horiz-adv-x="1269" 
d="M614 -33q-117 0 -218.5 39.5t-178 113t-120.5 188.5t-44 257q0 68 10 133h728q-37 82 -115.5 122t-181.5 40q-94 0 -176 -22t-183 -64v328q180 86 400 86q162 0 292 -46t214 -127.5t128.5 -192.5t44.5 -242q0 -177 -78.5 -317.5t-215.5 -218t-306 -77.5zM188 1468
q0 76 56 131.5t133 55.5q78 0 134 -55t56 -132q0 -76 -56 -131t-134 -55q-77 0 -133 55t-56 131zM467 457q2 -65 41.5 -110.5t107.5 -45.5q65 0 116 42t73 114h-338zM705 1468q0 77 55 132t133 55t133 -55t55 -132t-55 -131.5t-133 -54.5t-133 54.5t-55 131.5z" />
    <glyph glyph-name="uni04DC" unicode="&#x4dc;" horiz-adv-x="2355" 
d="M1866 0l-467 702v-702h-443v702l-467 -702h-514l551 788l-542 742h514l458 -686v686h443v-686l459 686h514l-543 -742l551 -788h-514zM741 1843q0 76 56 131.5t133 55.5q78 0 134 -55t56 -132q0 -76 -56 -131t-134 -55q-77 0 -133 55t-56 131zM1257 1843q0 77 55.5 132
t133.5 55t133 -55t55 -132t-55 -131.5t-133 -54.5t-133.5 54.5t-55.5 131.5z" />
    <glyph glyph-name="uni04DD" unicode="&#x4dd;" horiz-adv-x="1892" 
d="M1868 1155l-312 -553l322 -602h-481l-238 526v-526h-426v526l-237 -526h-482l322 602l-311 553h464l244 -498v498h426v-498l244 498h465zM498 1468q0 76 55.5 131.5t132.5 55.5q78 0 134.5 -55.5t56.5 -131.5t-56.5 -131t-134.5 -55q-77 0 -132.5 55t-55.5 131z
M1014 1468q0 77 55 132t133 55t133.5 -55t55.5 -132t-55.5 -131.5t-133.5 -54.5t-133 54.5t-55 131.5z" />
    <glyph glyph-name="uni04DE" unicode="&#x4de;" horiz-adv-x="1269" 
d="M580 -33q-140 0 -273 30.5t-225 84.5v414q93 -66 212 -105t232 -39q99 0 158 37.5t59 99.5q0 60 -51 83.5t-180 23.5h-215v352h233q109 0 159 26.5t50 84.5q0 57 -66 90t-184 33q-101 0 -211 -32t-182 -83v393q203 107 469 107q293 0 452 -111.5t159 -316.5
q0 -109 -59.5 -197.5t-174.5 -148.5l8 -9q113 -40 180.5 -131.5t67.5 -203.5q0 -220 -167.5 -351t-450.5 -131zM195 1843q0 76 55.5 131.5t132.5 55.5q78 0 134 -55t56 -132q0 -76 -56 -131t-134 -55q-77 0 -132.5 55t-55.5 131zM711 1843q0 77 55 132t133 55t133 -55
t55 -132t-55 -131.5t-133 -54.5t-133 54.5t-55 131.5z" />
    <glyph glyph-name="uni04DF" unicode="&#x4df;" horiz-adv-x="1105" 
d="M500 -33q-243 0 -422 84v373q189 -117 401 -117q135 0 135 70q0 31 -45 48t-125 17h-184v279h186q72 0 111 17.5t39 49.5q0 60 -147 60q-90 0 -190 -23.5t-163 -60.5v346q76 36 183 57t215 21q252 0 388 -84.5t136 -241.5q0 -81 -37.5 -144t-116.5 -118v-8
q87 -41 135 -109t48 -151q0 -172 -144.5 -268.5t-402.5 -96.5zM74 1468q0 76 55.5 131.5t132.5 55.5q78 0 134.5 -55.5t56.5 -131.5t-56.5 -131t-134.5 -55q-77 0 -132.5 55t-55.5 131zM590 1468q0 77 55 132t133 55t133.5 -55t55.5 -132t-55.5 -131.5t-133.5 -54.5
t-133 54.5t-55 131.5z" />
    <glyph glyph-name="uni04E0" unicode="&#x4e0;" horiz-adv-x="1306" 
d="M590 -33q-140 0 -273 30.5t-225 84.5v414q93 -66 212.5 -105t232.5 -39q110 0 171.5 35t61.5 105q0 133 -299 133h-172v213l248 292h-449v400h1047v-289l-311 -317q187 -52 289 -171.5t102 -279.5q0 -237 -171 -371.5t-464 -134.5z" />
    <glyph glyph-name="uni04E1" unicode="&#x4e1;" horiz-adv-x="1153" 
d="M483 -463q-267 0 -424 109v409q181 -137 371 -137q207 0 207 152q0 149 -250 149h-164v213l230 330h-390v393h947v-285l-293 -352q176 -52 272 -173t96 -288q0 -243 -162 -381.5t-440 -138.5z" />
    <glyph glyph-name="uni04E2" unicode="&#x4e2;" horiz-adv-x="1710" 
d="M133 0v1530h424v-860h2l592 860h426v-1530h-424v877h-2l-592 -877h-426zM465 1718v252h799v-252h-799z" />
    <glyph glyph-name="uni04E3" unicode="&#x4e3;" horiz-adv-x="1347" 
d="M109 0v1155h401v-537h4l322 537h403v-1155h-401v524h-4l-306 -524h-419zM264 1343v252h799v-252h-799z" />
    <glyph glyph-name="uni04E4" unicode="&#x4e4;" horiz-adv-x="1710" 
d="M133 0v1530h424v-860h2l592 860h426v-1530h-424v877h-2l-592 -877h-426zM418 1843q0 76 55.5 131.5t132.5 55.5q78 0 134.5 -55.5t56.5 -131.5t-56.5 -131t-134.5 -55q-77 0 -132.5 55t-55.5 131zM934 1843q0 77 55 132t133 55t133.5 -55t55.5 -132t-55.5 -131.5
t-133.5 -54.5t-133 54.5t-55 131.5z" />
    <glyph glyph-name="uni04E5" unicode="&#x4e5;" horiz-adv-x="1347" 
d="M109 0v1155h401v-537h4l322 537h403v-1155h-401v524h-4l-306 -524h-419zM217 1468q0 76 56 131.5t133 55.5q78 0 134 -55t56 -132q0 -76 -56 -131t-134 -55q-77 0 -133 55t-56 131zM733 1468q0 77 55.5 132t133.5 55t133 -55t55 -132t-55 -131.5t-133 -54.5t-133.5 54.5
t-55.5 131.5z" />
    <glyph glyph-name="uni04E6" unicode="&#x4e6;" horiz-adv-x="1740" 
d="M870 367q70 0 134.5 27t116 76t82 126t30.5 170q0 92 -30.5 168.5t-82 125.5t-116 76t-134.5 27t-135 -27t-115.5 -76t-81 -125.5t-30.5 -168.5q0 -183 107 -291t255 -108zM57 766q0 174 63.5 324.5t172.5 255t258.5 164t318.5 59.5q170 0 320 -59.5t258.5 -164
t171.5 -255t63 -324.5t-63 -324.5t-171.5 -255.5t-258.5 -165t-320 -60t-319.5 60t-258.5 165t-172 255.5t-63 324.5zM424 1843q0 76 55.5 131.5t132.5 55.5q78 0 134.5 -55.5t56.5 -131.5t-56.5 -131t-134.5 -55q-77 0 -132.5 55t-55.5 131zM940 1843q0 77 55 132t133 55
t133.5 -55t55.5 -132t-55.5 -131.5t-133.5 -54.5t-133 54.5t-55 131.5z" />
    <glyph glyph-name="uni04E7" unicode="&#x4e7;" 
d="M684 -33q-130 0 -246 44.5t-201 123.5t-134.5 194.5t-49.5 250.5q0 180 85.5 320t228.5 214t317 74q177 0 320 -74t227 -214t84 -320t-84 -320.5t-227.5 -216.5t-319.5 -76zM233 1436q0 76 56 131t133 55q78 0 134 -55t56 -131q0 -77 -56 -132t-134 -55q-77 0 -133 55.5
t-56 131.5zM496 580q0 -101 56 -162.5t132 -61.5t132 61.5t56 162.5t-55.5 160t-132.5 59q-75 0 -131.5 -59.5t-56.5 -159.5zM750 1436q0 77 55 131.5t133 54.5t133 -54.5t55 -131.5t-55 -132t-133 -55t-133 55t-55 132z" />
    <glyph glyph-name="uni04E8" unicode="&#x4e8;" horiz-adv-x="1740" 
d="M870 -39q-170 0 -319.5 60t-258.5 165t-172 255.5t-63 324.5t63.5 324.5t172.5 255t258.5 164t318.5 59.5q170 0 320 -59.5t258.5 -164t171.5 -255t63 -324.5t-63 -324.5t-171.5 -255.5t-258.5 -165t-320 -60zM504 897h733q-37 134 -140 210.5t-227 76.5
q-125 0 -227 -76.5t-139 -210.5zM510 616q39 -127 139 -198.5t221 -71.5t221 71.5t140 198.5h-721z" />
    <glyph glyph-name="uni04E9" unicode="&#x4e9;" 
d="M684 -33q-130 0 -246 44.5t-201 123.5t-134.5 194.5t-49.5 250.5q0 180 85.5 320t228.5 214t317 74q177 0 320 -74t227 -214t84 -320t-84 -320.5t-227.5 -216.5t-319.5 -76zM465 662h438q-22 85 -83 131.5t-136 46.5q-74 0 -135.5 -47t-83.5 -131zM473 469
q27 -72 85 -113t126 -41t126 41t85 113h-422z" />
    <glyph glyph-name="uni04EA" unicode="&#x4ea;" horiz-adv-x="1740" 
d="M870 -39q-170 0 -319.5 60t-258.5 165t-172 255.5t-63 324.5t63.5 324.5t172.5 255t258.5 164t318.5 59.5q170 0 320 -59.5t258.5 -164t171.5 -255t63 -324.5t-63 -324.5t-171.5 -255.5t-258.5 -165t-320 -60zM424 1843q0 76 55.5 131.5t132.5 55.5q78 0 134.5 -55.5
t56.5 -131.5t-56.5 -131t-134.5 -55q-77 0 -132.5 55t-55.5 131zM504 897h733q-37 134 -140 210.5t-227 76.5q-125 0 -227 -76.5t-139 -210.5zM510 616q39 -127 139 -198.5t221 -71.5t221 71.5t140 198.5h-721zM940 1843q0 77 55 132t133 55t133.5 -55t55.5 -132
t-55.5 -131.5t-133.5 -54.5t-133 54.5t-55 131.5z" />
    <glyph glyph-name="uni04EB" unicode="&#x4eb;" 
d="M684 -33q-130 0 -246 44.5t-201 123.5t-134.5 194.5t-49.5 250.5q0 180 85.5 320t228.5 214t317 74q177 0 320 -74t227 -214t84 -320t-84 -320.5t-227.5 -216.5t-319.5 -76zM240 1436q0 76 55.5 131t132.5 55q78 0 134 -55t56 -131q0 -77 -56 -132t-134 -55
q-77 0 -132.5 55.5t-55.5 131.5zM465 662h438q-22 85 -83 131.5t-136 46.5q-74 0 -135.5 -47t-83.5 -131zM473 469q27 -72 85 -113t126 -41t126 41t85 113h-422zM756 1436q0 77 55 131.5t133 54.5t133.5 -54.5t55.5 -131.5t-55.5 -132t-133.5 -55t-133 55t-55 132z" />
    <glyph glyph-name="uni04EC" unicode="&#x4ec;" horiz-adv-x="1425" 
d="M532 -37q-222 0 -444 86v426q110 -60 203 -86.5t194 -26.5q156 0 261.5 59.5t146.5 172.5h-608v352h604q-42 106 -146.5 161.5t-257.5 55.5q-211 0 -397 -102v422q222 86 447 86q144 0 273 -38t230.5 -109.5t175 -169.5t113 -223t39.5 -265q0 -233 -106 -415.5t-296 -284
t-432 -101.5zM188 1843q0 76 56 131.5t133 55.5q78 0 134 -55t56 -132q0 -76 -56 -131t-134 -55q-77 0 -133 55t-56 131zM705 1843q0 77 55 132t133 55t133 -55t55 -132t-55 -131.5t-133 -54.5t-133 54.5t-55 131.5z" />
    <glyph glyph-name="uni04ED" unicode="&#x4ed;" horiz-adv-x="1150" 
d="M449 -31q-237 0 -369 72v321q129 -57 303 -57q218 0 272 137h-387v281h385q-57 129 -268 129q-166 0 -305 -53v319q129 70 369 70q185 0 331.5 -73t232 -213t85.5 -324q0 -139 -49.5 -254.5t-136.5 -192.5t-206 -119.5t-257 -42.5zM70 1468q0 76 55.5 131.5t132.5 55.5
q78 0 134.5 -55.5t56.5 -131.5t-56.5 -131t-134.5 -55q-77 0 -132.5 55t-55.5 131zM586 1468q0 77 55 132t133 55t133.5 -55t55.5 -132t-55.5 -131.5t-133.5 -54.5t-133 54.5t-55 131.5z" />
    <glyph glyph-name="uni04EE" unicode="&#x4ee;" horiz-adv-x="1482" 
d="M279 362q118 0 186 19.5t108 69.5l-587 1079h477l338 -696l252 696h444l-436 -1030q-53 -126 -107.5 -213t-118.5 -148.5t-146.5 -96.5t-180 -50t-229.5 -15v385zM375 1718v252h799v-252h-799z" />
    <glyph glyph-name="uni04EF" unicode="&#x4ef;" horiz-adv-x="1304" 
d="M1313 1155l-635 -1585h-434l194 455l-440 1130h467l197 -670h8l196 670h447zM266 1343v252h799v-252h-799z" />
    <glyph glyph-name="uni04F0" unicode="&#x4f0;" horiz-adv-x="1482" 
d="M279 362q118 0 186 19.5t108 69.5l-587 1079h477l338 -696l252 696h444l-436 -1030q-53 -126 -107.5 -213t-118.5 -148.5t-146.5 -96.5t-180 -50t-229.5 -15v385zM328 1843q0 76 55.5 131.5t132.5 55.5q78 0 134.5 -55.5t56.5 -131.5t-56.5 -131t-134.5 -55
q-77 0 -132.5 55t-55.5 131zM844 1843q0 77 55 132t133 55t133.5 -55t55.5 -132t-55.5 -131.5t-133.5 -54.5t-133 54.5t-55 131.5z" />
    <glyph glyph-name="uni04F1" unicode="&#x4f1;" horiz-adv-x="1304" 
d="M1313 1155l-635 -1585h-434l194 455l-440 1130h467l197 -670h8l196 670h447zM219 1468q0 76 56 131.5t133 55.5q78 0 134 -55t56 -132q0 -76 -56 -131t-134 -55q-77 0 -133 55t-56 131zM735 1468q0 77 55.5 132t133.5 55t133 -55t55 -132t-55 -131.5t-133 -54.5
t-133.5 54.5t-55.5 131.5z" />
    <glyph glyph-name="uni04F2" unicode="&#x4f2;" horiz-adv-x="1482" 
d="M279 362q118 0 186 19.5t108 69.5l-587 1079h477l338 -696l252 696h444l-436 -1030q-53 -126 -107.5 -213t-118.5 -148.5t-146.5 -96.5t-180 -50t-229.5 -15v385zM303 1651l301 374h418l-397 -374h-322zM786 1651l301 374h420l-399 -374h-322z" />
    <glyph glyph-name="uni04F3" unicode="&#x4f3;" horiz-adv-x="1304" 
d="M1313 1155l-635 -1585h-434l194 455l-440 1130h467l197 -670h8l196 670h447zM195 1276l301 375h417l-397 -375h-321zM678 1276l301 375h420l-400 -375h-321z" />
    <glyph glyph-name="uni04F4" unicode="&#x4f4;" horiz-adv-x="1441" 
d="M559 487q-221 0 -354 128t-133 364v551h446v-451q0 -92 44.5 -139t123.5 -47q94 0 176 31v606h447v-1530h-447v537q-139 -50 -303 -50zM270 1843q0 76 56 131.5t133 55.5q78 0 134 -55t56 -132q0 -76 -56 -131t-134 -55q-77 0 -133 55t-56 131zM786 1843q0 77 55.5 132
t133.5 55t133 -55t55 -132t-55 -131.5t-133 -54.5t-133.5 54.5t-55.5 131.5z" />
    <glyph glyph-name="uni04F5" unicode="&#x4f5;" horiz-adv-x="1241" 
d="M446 326q-190 0 -290.5 101t-100.5 288v440h439v-346q0 -60 21.5 -87.5t68.5 -27.5q63 0 110 17v444h439v-1155h-439v371q-118 -45 -248 -45zM152 1468q0 76 55.5 131.5t132.5 55.5q78 0 134 -55t56 -132q0 -76 -56 -131t-134 -55q-77 0 -132.5 55t-55.5 131zM668 1468
q0 77 55 132t133 55t133 -55t55 -132t-55 -131.5t-133 -54.5t-133 54.5t-55 131.5z" />
    <glyph glyph-name="uni04F6" unicode="&#x4f6;" horiz-adv-x="1142" 
d="M399 -348v348h-266v1530h975v-397h-528v-730h215v-751h-396z" />
    <glyph glyph-name="uni04F7" unicode="&#x4f7;" horiz-adv-x="958" 
d="M373 -260v260h-264v1155h823v-356h-385v-443h194v-616h-368z" />
    <glyph glyph-name="uni04F8" unicode="&#x4f8;" horiz-adv-x="2041" 
d="M133 0v1530h447v-443h90q326 0 489.5 -131.5t163.5 -390.5q0 -255 -181 -410t-478 -155h-531zM578 1843q0 76 55.5 131.5t132.5 55.5q78 0 134 -55t56 -132q0 -76 -56 -131t-134 -55q-77 0 -132.5 55t-55.5 131zM580 371h100q86 0 139 49t53 129q0 81 -51.5 124.5
t-144.5 43.5h-96v-346zM1094 1843q0 77 55 132t133 55t133 -55t55 -132t-55 -131.5t-133 -54.5t-133 54.5t-55 131.5zM1462 0v1530h447v-1530h-447z" />
    <glyph glyph-name="uni04F9" unicode="&#x4f9;" horiz-adv-x="1812" 
d="M109 0v1155h438v-319h145q199 0 327 -116.5t128 -301.5q0 -184 -140 -301t-348 -117h-550zM403 1468q0 76 56 131.5t133 55.5q78 0 134 -55t56 -132q0 -76 -56 -131t-134 -55q-77 0 -133 55t-56 131zM547 297h80q44 0 68 35.5t24 85.5q0 49 -25.5 85t-70.5 36h-76v-242z
M920 1468q0 77 55 132t133 55t133 -55t55 -132t-55 -131.5t-133 -54.5t-133 54.5t-55 131.5zM1266 0v1155h438v-1155h-438z" />
    <glyph glyph-name="uni04FC" unicode="&#x4fc;" horiz-adv-x="1509" 
d="M774 -430q199 220 199 428q0 53 -17 104.5t-34.5 80.5t-50.5 77q-7 11 -11 16l-117 175l-241 -451h-510l475 764l-479 766h516l262 -451l240 451h510l-476 -764l170 -244q41 -59 58.5 -84.5t53 -85.5t52 -101.5t31 -101t14.5 -116.5q0 -113 -43.5 -238t-124.5 -225h-477z
" />
    <glyph glyph-name="uni04FD" unicode="&#x4fd;" horiz-adv-x="1292" 
d="M604 -430q178 198 178 377q0 132 -77 250l-68 104h-4l-164 -301h-469l387 575l-383 580h475l166 -303h4l164 303h469l-379 -563l129 -172q43 -57 70.5 -98.5t58 -99t45.5 -117.5t15 -123q0 -100 -39 -211t-111 -201h-467z" />
    <glyph glyph-name="uni0510" unicode="&#x510;" horiz-adv-x="1269" 
d="M688 -33q-286 0 -451 129t-165 353q0 113 67.5 204t179.5 131l9 9q-234 122 -234 342q0 206 161 319t454 113q262 0 465 -107v-393q-72 51 -182 83t-212 32q-118 0 -184 -33t-66 -90q0 -58 50 -84.5t159 -26.5h234v-352h-215q-129 0 -180.5 -23.5t-51.5 -83.5
q0 -62 59 -99.5t158 -37.5q114 0 233.5 42.5t211.5 115.5v-414q-91 -61 -226 -95t-274 -34z" />
    <glyph glyph-name="uni0511" unicode="&#x511;" horiz-adv-x="1089" 
d="M594 -33q-253 0 -394 96.5t-141 268.5q0 83 48 151t135 109v8q-79 55 -116.5 116.5t-37.5 141.5q0 157 138 243.5t390 86.5q107 0 212.5 -21t181.5 -57v-346q-63 37 -163 60.5t-190 23.5q-147 0 -147 -60q0 -67 149 -67h187v-279h-184q-80 0 -125 -17t-45 -48
q0 -70 135 -70q213 0 401 131v-372q-178 -99 -434 -99z" />
    <glyph glyph-name="uni0512" unicode="&#x512;" horiz-adv-x="1533" 
d="M20 377q128 0 181 65t53 222v866h1147v-1294q0 -202 -43 -364.5t-148 -301.5h-477q119 138 170 275.5t51 342.5v938h-266v-456q0 -252 -66.5 -399.5t-211 -215t-390.5 -67.5v389z" />
    <glyph glyph-name="uni0513" unicode="&#x513;" horiz-adv-x="1335" 
d="M45 365q91 0 125.5 43.5t34.5 160.5v586h1022v-919q0 -202 -43 -364.5t-148 -301.5h-469q119 138 170 275.5t51 342.5v611h-157v-301q0 -272 -137.5 -391t-450.5 -119z" />
    <glyph glyph-name="uni051C" unicode="&#x51c;" horiz-adv-x="2355" 
d="M1456 0l-268 934h-4l-260 -934h-465l-455 1530h451l250 -1002h4l270 1002h410l278 -1004h4l236 1004h436l-440 -1530h-447z" />
    <glyph glyph-name="uni051D" unicode="&#x51d;" horiz-adv-x="1939" 
d="M1122 0l-143 633h-6l-152 -633h-504l-297 1155h463l119 -702h8l162 702h420l154 -702h8l131 702h434l-297 -1155h-500z" />
    <glyph glyph-name="uni0524" unicode="&#x524;" horiz-adv-x="1738" 
d="M133 0v1530h1335v-1131l2 4h216v-751h-396v348h-268v1126h-442v-1126h-447z" />
    <glyph glyph-name="uni0525" unicode="&#x525;" horiz-adv-x="1454" 
d="M109 0v1155h1112v-799h194v-616h-368v260h-265v799h-235v-799h-438z" />
    <glyph glyph-name="uni0526" unicode="&#x526;" horiz-adv-x="1626" 
d="M1178 -348v348h-267v418q0 92 -38.5 134t-116.5 42q-91 0 -176 -31v-563h-447v1532h447v-582q134 49 299 49q225 0 352 -120t127 -355v-121h215v-751h-395z" />
    <glyph glyph-name="uni0527" unicode="&#x527;" horiz-adv-x="1474" 
d="M1067 -260v260h-264v664q0 135 -121 135q-62 0 -98.5 -36t-36.5 -93v-670h-438v1651h438v-586h2q50 54 128 88.5t167 34.5q184 0 290.5 -108t106.5 -302v-422h195v-616h-369z" />
    <glyph glyph-name="uni10D0" unicode="&#x10d0;" horiz-adv-x="1363" 
d="M680 -33q-122 0 -237.5 42.5t-201 113t-137 167t-51.5 199.5q0 67 25 140h442q-16 -49 -16 -103q0 -81 54.5 -124.5t129.5 -43.5q72 0 126 41.5t54 112.5q0 52 -20.5 99t-53.5 87t-73.5 82t-82.5 96.5t-78.5 118.5t-63.5 158.5t-35 206.5h438q8 -84 35.5 -158
t64.5 -128.5t79.5 -105t83.5 -99t74.5 -99.5t54 -117t20.5 -141q0 -110 -49 -211t-133 -174t-201.5 -116.5t-247.5 -43.5z" />
    <glyph glyph-name="uni10D1" unicode="&#x10d1;" 
d="M684 -31q-130 0 -246 44.5t-201 123.5t-134.5 194.5t-49.5 250.5q0 211 114.5 363t301.5 212q14 41 14 76q0 49 -27 88.5t-68 69.5t-83.5 61t-80 79t-50.5 107h465q21 -51 59.5 -91.5t76 -66t72.5 -53t57 -66.5t22 -91q0 -44 -19 -115q185 -60 296.5 -211.5t111.5 -361.5
q0 -180 -84 -320.5t-227.5 -216.5t-319.5 -76zM496 582q0 -101 56 -162.5t132 -61.5t132 61.5t56 162.5t-55.5 160t-132.5 59q-75 0 -131.5 -59.5t-56.5 -159.5z" />
    <glyph glyph-name="uni10D2" unicode="&#x10d2;" horiz-adv-x="1323" 
d="M662 -463q-283 0 -457 158t-174 414q0 152 120.5 277.5t397.5 262.5q141 68 184 100t43 66q0 40 -36.5 66t-92.5 26q-72 0 -125 -36t-53 -83q0 -4 4 -32h-352q-17 70 -17 129q0 139 149.5 221t408.5 82q255 0 406 -92.5t151 -247.5q0 -94 -57.5 -176.5t-188.5 -159.5
q141 -63 230 -175t89 -228q0 -258 -173 -415t-457 -157zM473 109q0 -88 49 -135.5t140 -47.5t139.5 47.5t48.5 135.5q0 62 -56 136t-128 115q-104 -58 -148.5 -116.5t-44.5 -134.5z" />
    <glyph glyph-name="uni10D3" unicode="&#x10d3;" horiz-adv-x="2029" 
d="M334 -410v322h350q-254 62 -440 268q-94 103 -142.5 229t-48.5 244q0 152 61.5 273.5t177 191.5t265.5 70q238 0 375 -219q89 109 213 164t260 55q110 0 212 -37t182.5 -105t128.5 -174.5t48 -234.5q0 -149 -83 -271.5t-227.5 -192t-319.5 -69.5q-128 0 -237.5 40
t-188.5 111t-131 164t-74 202q-14 94 -41.5 139t-79.5 45q-98 0 -98 -201q0 -66 29.5 -153.5t95.5 -171.5q42 -54 93.5 -101t128.5 -95.5t166 -83.5t210 -59t258 -28v-322h-1143zM1157 647q0 -75 57.5 -126.5t131.5 -51.5t131 51.5t57 126.5q0 76 -56.5 126t-131.5 50
q-74 0 -131.5 -50.5t-57.5 -125.5z" />
    <glyph glyph-name="uni10D4" unicode="&#x10d4;" 
d="M680 -463q-274 0 -450.5 145t-176.5 373q0 75 25 164h434q-10 -62 -10 -104q0 -189 164 -189q70 0 119 47.5t49 153.5v381q0 181 -39 266.5t-123 85.5q-61 0 -92 -41.5t-31 -111.5q0 -68 14 -103h-401q-25 89 -25 162q0 198 159.5 310t418.5 112q124 0 225.5 -35.5
t177 -106.5t117 -184t41.5 -260v-485q0 -267 -162.5 -423.5t-433.5 -156.5z" />
    <glyph glyph-name="uni10D5" unicode="&#x10d5;" horiz-adv-x="1320" 
d="M647 -461q-114 0 -218.5 29t-189.5 84t-135.5 143t-50.5 197q0 52 10 88h445q-4 -20 -4 -35q0 -57 44 -89t105 -32q77 0 120.5 44t43.5 104q0 65 -50.5 113t-141.5 48h-154v322h127q89 0 137.5 51t48.5 119q0 57 -33 97t-92 40q-48 0 -82 -29t-34 -81q0 -28 6 -58h-402
q-18 76 -18 142q0 75 33.5 135.5t89 100t130.5 66.5t154 38.5t164 11.5q265 0 391 -114.5t126 -307.5q0 -115 -54.5 -208t-150.5 -144v-8q109 -42 178.5 -149.5t69.5 -242.5q0 -92 -34.5 -170.5t-93.5 -134t-137.5 -94.5t-166.5 -57.5t-181 -18.5z" />
    <glyph glyph-name="uni10D6" unicode="&#x10d6;" horiz-adv-x="1988" 
d="M1315 -31q-301 0 -471 186.5t-170 516.5v172q-90 -35 -199 -35q-88 0 -168 24.5t-148 73.5t-108.5 133.5t-40.5 194.5q0 94 33.5 172.5t99.5 138.5t173 93.5t245 33.5t245 -33.5t173 -93.5t99.5 -138.5t33.5 -172.5v-201h4q44 71 135.5 114t194.5 42q134 -1 246 -80
t177.5 -217.5t65.5 -306.5q0 -179 -78.5 -319.5t-220 -219t-321.5 -78.5zM449 1235q0 -63 28 -107.5t84 -44.5t84.5 44.5t28.5 107.5t-28.5 107t-84.5 44t-84 -44t-28 -107zM1116 578q0 -94 54 -157t135 -63q82 0 135 62.5t53 157.5q0 96 -53.5 159.5t-134.5 63.5
q-82 0 -135.5 -63.5t-53.5 -159.5z" />
    <glyph glyph-name="uni10D7" unicode="&#x10d7;" horiz-adv-x="2025" 
d="M684 -33q-130 0 -246 44.5t-201 123.5t-134.5 194.5t-49.5 250.5q0 115 31.5 214t86.5 170.5t128 122.5t156.5 76t171.5 25q134 0 256.5 -59t210.5 -175q65 114 161.5 174t217.5 60q230 0 364.5 -163t134.5 -443q0 -148 -36.5 -310t-94.5 -272h-436q57 121 93 287.5
t36 306.5q0 205 -117 205q-52 0 -77 -49.5t-25 -169.5q0 -180 -84 -320.5t-227.5 -216.5t-319.5 -76zM496 580q0 -101 56 -162.5t132 -61.5t132 61.5t56 162.5t-55.5 160t-132.5 59q-75 0 -131.5 -59.5t-56.5 -159.5z" />
    <glyph glyph-name="uni10D8" unicode="&#x10d8;" 
d="M172 0q-119 238 -119 580q0 180 85.5 320t228.5 214t317 74q177 0 320 -74t227 -214t84 -320q0 -348 -119 -580h-436q112 326 112 535q0 106 -50.5 185t-137.5 79t-137.5 -80.5t-50.5 -186.5q0 -214 112 -532h-436z" />
    <glyph glyph-name="uni10D9" unicode="&#x10d9;" horiz-adv-x="1320" 
d="M666 -463q-177 0 -319 63.5t-218 167t-76 224.5q0 52 10 88h445q-4 -20 -4 -35q0 -47 34 -83t113 -36q72 0 119 34.5t47 105.5q0 67 -53 117t-139 50h-154v322h127q88 0 142.5 50t54.5 114q0 38 -22.5 70.5t-65.5 52.5v346q238 0 374 -118.5t136 -303.5
q0 -116 -54.5 -208.5t-150.5 -143.5v-8q110 -42 179 -147.5t69 -244.5q0 -99 -41 -186t-116 -151.5t-188 -102t-249 -37.5z" />
    <glyph glyph-name="uni10DA" unicode="&#x10da;" horiz-adv-x="2521" 
d="M334 -410v328h330q-244 55 -404 225q-103 108 -155 241t-52 259q0 238 137 391.5t363 153.5q118 0 214 -58.5t161 -168.5q55 113 135.5 170t196.5 57q223 0 331 -227q66 111 162.5 169t214.5 58q230 0 365 -163t135 -443q0 -148 -36.5 -310t-94.5 -272h-436
q57 121 93 287.5t36 306.5q0 205 -117 205q-49 0 -78 -43t-29 -115v-299h-438v299q0 74 -28.5 116t-79.5 42q-49 0 -78 -43t-29 -115v-299h-438v299q0 74 -29 116t-80 42q-58 0 -85 -50.5t-27 -154.5q0 -42 12 -89.5t39 -107t82.5 -122.5t132.5 -117q317 -222 921 -240v-328
h-1347z" />
    <glyph glyph-name="uni10DB" unicode="&#x10db;" horiz-adv-x="1406" 
d="M674 -31q-135 0 -250.5 45.5t-197 125.5t-127.5 192.5t-46 242.5q0 97 27.5 182t75.5 148t112.5 109t139.5 69.5t155 24.5q100 1 180.5 -31.5t128.5 -83.5h5v11q0 77 -1 113t-6 91t-17 79t-33 51.5t-54.5 37.5t-81.5 10q-80 0 -126 -29.5t-46 -72.5q0 -27 4 -43h-401
q-13 54 -13 94q0 159 156 248.5t426 89.5q328 0 479.5 -151t151.5 -498v-352q0 -330 -170 -516.5t-471 -186.5zM496 567q0 -89 54 -149t134 -60q79 0 133.5 60.5t54.5 148.5q0 89 -54.5 151t-133.5 62t-133.5 -62t-54.5 -151z" />
    <glyph glyph-name="uni10DC" unicode="&#x10dc;" horiz-adv-x="1406" 
d="M733 -31q-301 0 -471 186.5t-170 516.5v1003q276 -45 570 -45t567 45v-375q-255 -45 -531 -45q-30 0 -168 5v-267h5q48 51 128.5 83.5t180.5 31.5t192 -38t163 -104t113 -168.5t42 -222.5q0 -130 -46 -242.5t-127.5 -192.5t-197 -125.5t-250.5 -45.5zM535 567
q0 -88 54.5 -148.5t133.5 -60.5q80 0 134 60t54 149t-54.5 151t-133.5 62t-133.5 -62t-54.5 -151z" />
    <glyph glyph-name="uni10DD" unicode="&#x10dd;" horiz-adv-x="1867" 
d="M184 0q-58 110 -94.5 272t-36.5 310q0 280 135 443t365 163q121 0 218.5 -61t162.5 -175q65 114 162.5 175t218.5 61q230 0 365 -163t135 -443q0 -148 -36.5 -310t-95.5 -272h-436q57 121 93 287.5t36 306.5q0 105 -28 155t-88 50q-49 0 -78 -43t-29 -115v-401h-438v401
q0 74 -29 116t-80 42q-114 0 -114 -205q0 -137 37 -303.5t92 -290.5h-437z" />
    <glyph glyph-name="uni10DE" unicode="&#x10de;" horiz-adv-x="1320" 
d="M666 -31q-177 0 -319 63.5t-218 167t-76 224.5q0 52 10 88h445q-4 -20 -4 -35q0 -47 34 -83t113 -36q72 0 119 34.5t47 105.5q0 67 -53.5 117.5t-138.5 50.5h-154v321h127q91 0 134.5 39.5t43.5 103.5q0 39 -21 69t-55 51.5t-76 42.5t-85.5 49.5t-81 65t-65.5 95.5
t-36 135h439q8 -46 36 -82.5t65.5 -61t81.5 -47.5t86 -48t76.5 -55.5t55.5 -78t21 -108.5q0 -111 -51.5 -184t-153.5 -127v-8q110 -42 179 -147.5t69 -244.5q0 -99 -41 -186t-116 -151.5t-188 -102t-249 -37.5z" />
    <glyph glyph-name="uni10DF" unicode="&#x10df;" horiz-adv-x="1452" 
d="M375 233q-93 0 -181.5 23t-140.5 61v334q60 -50 143 -76t164 -26q121 0 121 67q0 53 -106 62v375l985 102v-375v-766q0 -99 -41 -186t-116 -151.5t-188 -102t-249 -37.5q-133 0 -249 37t-194.5 99.5t-123.5 145.5t-45 173q0 52 10 88h444q-4 -20 -4 -35q0 -47 34.5 -83
t113.5 -36q72 0 119 34.5t47 105.5v669l-181 -20q39 -65 39 -176q0 -132 -106 -219t-295 -87z" />
    <glyph glyph-name="uni10E0" unicode="&#x10e0;" horiz-adv-x="1867" 
d="M184 0q-58 110 -94.5 272t-36.5 310q0 172 35 317.5t97.5 256t153 198.5t198 147t235.5 98t262 56.5t281 17.5v-354q-473 0 -719 -133q107 -10 193 -70.5t145 -163.5q65 114 162.5 175t218.5 61q230 0 365 -163t135 -443q0 -148 -36.5 -310t-95.5 -272h-436
q57 121 93 287.5t36 306.5q0 105 -28 155t-88 50q-49 0 -78 -43t-29 -115v-401h-438v401q0 74 -29 116t-80 42q-114 0 -114 -205q0 -137 37 -303.5t92 -290.5h-437z" />
    <glyph glyph-name="uni10E1" unicode="&#x10e1;" horiz-adv-x="1447" 
d="M535 559q0 -98 59.5 -152.5t142.5 -54.5q86 0 150.5 55.5t64.5 151.5q0 53 -17 98.5t-43 87.5t-53 91.5t-52.5 132t-36.5 186.5h438q11 -65 37 -124t54 -104.5t54.5 -95t44 -119t17.5 -153.5q0 -180 -85.5 -315t-237.5 -206t-349 -71q-176 0 -318.5 70.5t-227.5 206.5
t-85 315v1079h443v-1079z" />
    <glyph glyph-name="uni10E2" unicode="&#x10e2;" horiz-adv-x="1687" 
d="M844 -463q-170 0 -319.5 60t-258.5 165t-172 255.5t-63 324.5q0 302 177.5 515.5t459.5 270.5l-47 402h446l-47 -402q139 -28 256 -97t201.5 -169.5t132 -234.5t47.5 -285q0 -174 -63 -324.5t-171.5 -255.5t-258.5 -165t-320 -60zM481 342q0 -183 107.5 -291t255.5 -108
q70 0 134.5 27t115.5 76t81.5 126t30.5 170q0 120 -49 209t-131 137l41 -346h-446l41 348q-82 -50 -131.5 -139.5t-49.5 -208.5z" />
    <glyph glyph-name="uni10E3" unicode="&#x10e3;" horiz-adv-x="1363" 
d="M678 -463q-133 0 -249 37t-194.5 99.5t-123.5 145.5t-45 173q0 52 10 88h444q-4 -20 -4 -35q0 -47 34.5 -83t113.5 -36q74 0 122 50.5t48 150.5v467q0 205 -117 205q-49 0 -78 -43t-29 -115v-256h-438v256q0 158 -162 158v389q122 0 220.5 -62t164.5 -180
q71 115 182 178.5t236 63.5q226 0 342.5 -160t116.5 -446v-506q0 -114 -41 -213t-116.5 -171t-188 -113.5t-248.5 -41.5z" />
    <glyph glyph-name="uni10E4" unicode="&#x10e4;" horiz-adv-x="1943" 
d="M1102 -463q-149 0 -286 31t-247.5 89.5t-176.5 153.5t-66 214q0 62 18 133h444q-6 -24 -6 -47q0 -51 28.5 -89.5t76.5 -60.5t105.5 -32.5t121.5 -10.5q131 0 228.5 46t97.5 126q0 58 -53.5 100.5t-139.5 42.5h-92v322h66q178 0 178 117q0 57 -45.5 88t-110.5 31
q-42 0 -72.5 -26.5t-58.5 -76.5q-13 -26 -27.5 -50t-43 -63.5t-59.5 -73t-77 -70t-95 -62t-114 -42t-135 -16.5q-138 0 -245 33.5t-173 94t-99.5 139t-33.5 172.5q0 93 32.5 172.5t95 139t160.5 93t222 33.5q93 0 170 -28.5t125.5 -74.5t78 -96.5t38.5 -101.5q21 40 39 68.5
t46.5 67t61.5 65t75 51t97 37t119 12.5q222 0 345.5 -118t123.5 -304q0 -116 -54.5 -208.5t-150.5 -143.5v-8q110 -42 179 -147.5t69 -244.5q0 -92 -43.5 -170.5t-119 -134t-175 -95t-212 -58.5t-230.5 -19zM449 750q0 -63 28 -107.5t84 -44.5t84.5 44.5t28.5 107.5
t-28.5 107t-84.5 44t-84 -44t-28 -107z" />
    <glyph glyph-name="uni10E5" unicode="&#x10e5;" horiz-adv-x="1366" 
d="M680 -463q-274 0 -450.5 145t-176.5 373q0 75 25 164h434q-10 -62 -10 -104q0 -189 164 -189q72 0 118.5 34.5t46.5 105.5v546h-528v369h528v657h443v-1624q0 -99 -41 -186t-116 -151.5t-188 -102t-249 -37.5z" />
    <glyph glyph-name="uni10E6" unicode="&#x10e6;" horiz-adv-x="1867" 
d="M334 -410v328h332q-274 60 -441 262q-86 104 -129 226t-43 237q0 238 137 391.5t363 153.5q121 0 218.5 -61t162.5 -175q65 114 162.5 175t218.5 61q230 0 365 -163t135 -443q0 -240 -91 -500h-436q88 291 88 512q0 105 -28 155t-88 50q-49 0 -78 -43t-29 -115v-299h-438
v299q0 74 -29 116t-80 42q-58 0 -85 -50.5t-27 -154.5q0 -43 11.5 -93t36.5 -111.5t76 -127.5t121 -121q255 -207 738 -223v-328h-1143z" />
    <glyph glyph-name="uni10E7" unicode="&#x10e7;" horiz-adv-x="1351" 
d="M666 -463q-177 0 -319 63.5t-218 167t-76 224.5q0 52 10 88h445q-4 -20 -4 -35q0 -47 34 -83t113 -36q72 0 119 34.5t47 105.5v223q-141 -109 -299 -109q-90 0 -171.5 38t-142.5 106t-97.5 169t-36.5 220q0 209 57 442h442q-57 -266 -57 -440q0 -116 49.5 -181t116.5 -65
q58 0 98.5 53t40.5 150v483h443v-1141q0 -99 -41 -186t-116 -151.5t-188 -102t-249 -37.5z" />
    <glyph glyph-name="uni10E8" unicode="&#x10e8;" horiz-adv-x="1447" 
d="M715 -31q-135 0 -250.5 45.5t-197 125.5t-127.5 192.5t-46 242.5q0 121 42 222.5t113 168.5t163 104t192 38t180.5 -31.5t128.5 -83.5h5v86q0 40 -1 66t-4.5 58t-12 51.5t-21 37.5t-33.5 26.5t-49 8.5q-46 0 -74.5 -36t-28.5 -74h-438q0 110 -203 110v346q70 0 119 -5.5
t106.5 -23t107.5 -55.5t95 -98q51 59 107 98t110 56t93.5 22.5t85.5 5.5q251 0 365 -156.5t114 -449.5v-395q0 -330 -170 -516.5t-471 -186.5zM537 567q0 -89 54 -149t134 -60q79 0 133.5 60.5t54.5 148.5q0 89 -54.5 151t-133.5 62t-133.5 -62t-54.5 -151z" />
    <glyph glyph-name="uni10E9" unicode="&#x10e9;" horiz-adv-x="1355" 
d="M735 0q54 118 90.5 254t36.5 223q0 100 -47.5 159.5t-126.5 59.5q-66 0 -109.5 -44t-43.5 -113v-539h-443v1047q0 298 155.5 462t436.5 164q238 0 382 -90t144 -231q0 -70 -30 -138h-445q45 79 45 144q0 38 -25 60t-69 22q-56 0 -85.5 -31.5t-46.5 -128.5t-19 -283
q107 88 268 88q219 0 359.5 -141t140.5 -362q0 -136 -39 -309.5t-93 -272.5h-436z" />
    <glyph glyph-name="uni10EA" unicode="&#x10ea;" horiz-adv-x="1499" 
d="M801 -463q-154 0 -279.5 42.5t-211.5 118t-144.5 180.5t-85.5 228t-27 263q0 169 37.5 377.5t126.5 408.5h442q-63 -138 -113 -335t-50 -369q0 -157 31.5 -278t101.5 -197t172 -76q79 0 136.5 47.5t57.5 118.5q0 74 -52 120.5t-140 46.5h-51v322h24q91 0 134.5 39.5
t43.5 103.5q0 28 -11 49.5t-29 38t-39.5 34t-43 44t-39.5 62t-29 94.5t-11 135h438q0 -46 11.5 -82.5t29.5 -60t39.5 -44.5t43.5 -42.5t40 -46.5t29.5 -64.5t11.5 -89.5q0 -111 -51.5 -184t-153.5 -127v-8q112 -43 180 -145.5t68 -246.5q0 -95 -39.5 -179.5t-116 -151.5
t-200.5 -106.5t-281 -39.5z" />
    <glyph glyph-name="uni10EB" unicode="&#x10eb;" horiz-adv-x="1406" 
d="M1315 672q0 -330 -170 -516.5t-471 -186.5q-180 0 -322 78.5t-220.5 219t-78.5 319.5q0 168 66 306.5t178 217.5t246 80q102 1 193.5 -42t135.5 -114h5v604h438v-966zM496 578q0 -95 53 -157.5t135 -62.5q81 0 134.5 63t53.5 157q0 96 -53.5 159.5t-134.5 63.5
t-134.5 -63.5t-53.5 -159.5z" />
    <glyph glyph-name="uni10EC" unicode="&#x10ec;" horiz-adv-x="1447" 
d="M733 -31q-301 0 -471 186.5t-170 516.5v395q0 293 114 449.5t365 156.5q46 0 85.5 -5.5t93.5 -22.5t110 -56t107 -98q45 60 95 98t107.5 55.5t106.5 23t119 5.5v-346q-203 0 -203 -110h-438q0 38 -28.5 74t-74.5 36q-28 0 -49 -8.5t-33.5 -26.5t-21 -37.5t-12 -51.5
t-4.5 -58t-1 -66v-86h5q48 51 128.5 83.5t180.5 31.5t192 -38t163 -104t113 -168.5t42 -222.5q0 -130 -46 -242.5t-127.5 -192.5t-197 -125.5t-250.5 -45.5zM535 567q0 -88 54.5 -148.5t133.5 -60.5q80 0 134 60t54 149t-54.5 151t-133.5 62t-133.5 -62t-54.5 -151z" />
    <glyph glyph-name="uni10ED" unicode="&#x10ed;" horiz-adv-x="1548" 
d="M680 -463q-274 0 -450.5 145t-176.5 373q0 75 25 164h434q-10 -62 -10 -104q0 -189 164 -189q72 0 118.5 34.5t46.5 105.5v317q-105 -59 -233 -59q-59 0 -117.5 14.5t-115.5 48t-100.5 81.5t-70 121t-26.5 161q0 94 35.5 171.5t107 137t189 93t272.5 34.5h59v452h443
v-450h264v-287l-264 -2v-885q0 -99 -41 -186t-116 -151.5t-188 -102t-249 -37.5zM606 750q0 -63 28.5 -107.5t84.5 -44.5t84 44.5t28 107.5v147h-59q-87 0 -126.5 -42t-39.5 -105z" />
    <glyph glyph-name="uni10EE" unicode="&#x10ee;" horiz-adv-x="1406" 
d="M92 1638h438v-604h5q44 71 135.5 114t193.5 42q134 -1 246 -80t178 -217.5t66 -306.5q0 -179 -78.5 -319.5t-220.5 -219t-322 -78.5q-301 0 -471 186.5t-170 516.5v966zM535 578q0 -94 53.5 -157t134.5 -63q82 0 135 62.5t53 157.5q0 96 -53.5 159.5t-134.5 63.5
t-134.5 -63.5t-53.5 -159.5z" />
    <glyph glyph-name="uni10EF" unicode="&#x10ef;" horiz-adv-x="1353" 
d="M674 -461q-119 0 -228.5 37.5t-198 107.5t-141.5 183t-53 252q0 83 23 170h434q-18 -55 -18 -117q0 -117 59 -181.5t139 -64.5q87 0 138 60t51 147q0 59 -25 114.5t-73.5 103.5t-132 77t-189.5 29v520l-303 59v389l303 -59v272h438v-356l320 -61v-390l-320 62v-150
q210 -78 318 -235t108 -344q0 -151 -55.5 -273t-148 -197t-207 -115t-238.5 -40z" />
    <glyph glyph-name="uni10F0" unicode="&#x10f0;" horiz-adv-x="1327" 
d="M666 -31q-280 0 -446.5 97.5t-166.5 275.5q0 52 10 88h445q-2 -8 -2 -20q0 -84 160 -84q78 0 115.5 28.5t37.5 73.5q0 46 -42 68t-138 22h-113v287h86q87 0 130.5 19.5t43.5 64.5q0 41 -35.5 57.5t-111.5 16.5h-72v286h45q129 0 129 56q0 26 -26.5 39t-75.5 22
q-28 4 -45 7t-46.5 11.5t-48 20t-42.5 32t-39 47t-28 66t-19 88.5h438q14 -28 121 -65q252 -84 252 -242q0 -26 -6.5 -50t-22.5 -50.5t-48.5 -48t-78.5 -33.5v-8q101 -28 149 -86.5t48 -130.5q0 -78 -52.5 -140t-144.5 -79v-9q128 -43 184 -126.5t56 -188.5
q0 -133 -81.5 -227.5t-214.5 -139.5t-304 -45z" />
    <glyph glyph-name="uni10F1" unicode="&#x10f1;" horiz-adv-x="1554" 
d="M831 -31q-128 0 -235.5 26t-186.5 71t-141 109t-102 136t-66 156t-36.5 165.5t-10.5 168.5q0 468 164 837h442q-64 -141 -113.5 -345t-49.5 -410q0 -85 4 -147.5t15.5 -130.5t35 -115t59.5 -86t92 -58.5t129 -19.5q96 0 156 30t60 72q0 45 -42.5 67.5t-138.5 22.5h-112
v287h86q87 0 130.5 19.5t43.5 64.5q0 41 -36 57.5t-112 16.5h-71v286h45q58 0 93.5 32t35.5 77q0 23 -11.5 46t-24.5 37.5t-38 37.5l-13 13q-13 14 -15 16.5t-13 14.5t-14 16.5t-11.5 16t-11.5 19t-8.5 19t-8.5 22t-5 22.5h438q19 -45 80 -106q24 -26 36 -40.5t28.5 -41
t24 -55.5t7.5 -64q0 -142 -156 -182v-8q101 -28 149 -86.5t48 -130.5q0 -78 -52.5 -140t-144.5 -79v-9q128 -43 184 -126.5t56 -188.5q0 -99 -55 -179t-148.5 -130t-211 -76.5t-247.5 -26.5z" />
    <glyph glyph-name="uni10F2" unicode="&#x10f2;" horiz-adv-x="1388" 
d="M1335 0q-142 0 -312 32t-327 93q-159 -61 -329.5 -93t-313.5 -32v291q150 0 297 20q-225 177 -225 402q0 89 40.5 174t112.5 152t181 108t235 41q128 0 237.5 -41t181 -108t111.5 -152t40 -174q0 -225 -226 -402q147 -20 297 -20v-291zM547 729q0 -74 38 -154t109 -139
q72 59 110 137t38 152q0 76 -39 126t-109 50q-71 0 -109 -48.5t-38 -123.5z" />
    <glyph glyph-name="uni10F3" unicode="&#x10f3;" horiz-adv-x="1320" 
d="M666 -463q-177 0 -319 63.5t-218 167t-76 224.5q0 52 10 88h445q-4 -20 -4 -35q0 -46 35 -82.5t112 -36.5q76 0 121 37.5t45 102.5q0 73 -53.5 120t-138.5 47h-154v322h127q88 0 142.5 50t54.5 114v67h-578v369h1000v-369v-20q0 -115 -54 -207t-151 -145v-8
q114 -44 181 -150.5t67 -241.5q0 -211 -166 -344t-428 -133z" />
    <glyph glyph-name="uni10F4" unicode="&#x10f4;" horiz-adv-x="1320" 
d="M666 -463q-177 0 -319 63.5t-218 167t-76 224.5q0 52 10 88h445q-4 -20 -4 -35q0 -46 35 -82.5t112 -36.5q76 0 121 37.5t45 102.5q0 73 -53.5 120t-138.5 47h-154v322h127q88 0 142.5 50t54.5 114v67q-147 0 -264 38t-188 101t-108.5 141t-37.5 163q0 106 38.5 191.5
t106.5 140t159 83.5t197 29q113 0 238 -35v-338q-73 33 -143 33q-58 0 -91.5 -26t-33.5 -80q0 -31 32.5 -51.5t94.5 -20.5h422v-369v-20q0 -115 -54 -207t-151 -145v-8q114 -44 181 -150.5t67 -241.5q0 -211 -166 -344t-428 -133z" />
    <glyph glyph-name="uni10F5" unicode="&#x10f5;" horiz-adv-x="1476" 
d="M618 -31q-89 0 -170.5 15t-154 47.5t-125.5 80.5t-84 118.5t-31 156.5q0 91 52.5 158.5t142 104.5t191.5 54t218 17h115v201h-115q-92 0 -173 10t-157.5 34.5t-131.5 61.5t-88 95t-33 132q0 86 31 156.5t83 118.5t122 80.5t147.5 47.5t160.5 15q113 0 210.5 -30t177 -90
t132 -158.5t68.5 -227.5l217 -2v-245h-209v-197h209v-246l-221 -2q-70 -506 -584 -506zM487 338q0 -43 30.5 -72.5t86.5 -29.5q127 0 158 237h-105q-81 -1 -125.5 -42t-44.5 -93zM510 1309q0 -55 39 -97.5t108 -42.5h105q-15 127 -54 182.5t-104 55.5q-45 0 -69.5 -28.5
t-24.5 -69.5z" />
    <glyph glyph-name="uni10F6" unicode="&#x10f6;" horiz-adv-x="1826" 
d="M705 1229q0 82 30.5 159t89 141.5t156.5 104t221 39.5q121 0 244 -35v-358q-79 23 -158 23q-85 0 -125.5 -24.5t-40.5 -78.5v-12q188 -1 335.5 -75t232 -213t84.5 -320q0 -183 -85 -323t-232.5 -214.5t-334.5 -75.5q-2 -80 -34 -155t-91 -137.5t-155.5 -100t-216.5 -37.5
q-121 0 -244 35v358q75 -22 158 -22q131 0 157 59q-184 3 -329.5 78t-229.5 214t-84 321q0 181 84.5 320t232 213t335.5 75v41zM481 580q0 -129 61.5 -199t162.5 -72v537q-102 -2 -163 -70t-61 -196zM1122 309q101 2 162.5 72t61.5 199q0 128 -61 196t-163 70v-537z" />
    <glyph glyph-name="uni10F7" unicode="&#x10f7;" horiz-adv-x="1316" 
d="M657 -463q-282 0 -443 141t-161 365q0 48 10.5 92t25.5 79.5t43.5 71t52.5 60.5t64.5 54t68 46.5t75 42t72.5 36.5t74 34q51 24 79 37.5t65 35t56 38.5t33 38.5t14 43.5q0 49 -30 76.5t-70 27.5q-42 0 -72 -27t-30 -77q0 -28 6 -58h-402q-18 76 -18 142q0 74 33 135
t85 100.5t119.5 66.5t133.5 38.5t129 11.5q260 0 405.5 -122.5t145.5 -313.5q0 -69 -17 -130t-41 -105.5t-67 -87t-78 -69t-93 -57t-91 -45t-93 -39.5q-46 -20 -62.5 -27.5t-52 -24.5t-50 -28t-33.5 -27.5t-26 -33t-7 -35.5q0 -62 46 -98.5t108 -36.5t105.5 36t43.5 101
q0 15 -4 35h444q11 -40 11 -88q0 -121 -76 -224.5t-216.5 -167t-314.5 -63.5z" />
    <glyph glyph-name="uni10F8" unicode="&#x10f8;" horiz-adv-x="1351" 
d="M686 -463q-136 0 -249 37.5t-188 102t-116 151.5t-41 186v1141h443v-483q0 -97 40.5 -150t98.5 -53q67 0 116.5 65t49.5 181q0 169 -58 440h443q57 -233 57 -442q0 -119 -36.5 -220t-97.5 -169t-142.5 -106t-171.5 -38q-158 0 -299 109v-223q0 -71 46.5 -105.5
t118.5 -34.5q79 0 113.5 36t34.5 83q0 15 -4 35h444q10 -36 10 -88q0 -90 -45 -173t-123.5 -145.5t-194.5 -99.5t-249 -37z" />
    <glyph glyph-name="uni10F9" unicode="&#x10f9;" 
d="M684 -463q-255 0 -406 92.5t-151 247.5q0 94 57.5 176.5t188.5 159.5q-141 64 -230.5 175.5t-89.5 227.5q0 258 173.5 415t457.5 157q283 0 457 -158t174 -414q0 -152 -120.5 -277.5t-397.5 -262.5q-141 -68 -184.5 -100t-43.5 -66q0 -40 36.5 -66t92.5 -26
q72 0 125.5 36t53.5 83q0 5 -2 16t-3 16h353q16 -66 16 -129q0 -139 -149 -221t-408 -82zM496 616q0 -62 56 -136t128 -115q104 58 148 116.5t44 134.5q0 88 -48.5 135.5t-139.5 47.5t-139.5 -47.5t-48.5 -135.5z" />
    <glyph glyph-name="uni10FA" unicode="&#x10fa;" horiz-adv-x="976" 
d="M139 0v328h135q-110 62 -165.5 157.5t-55.5 202.5q0 93 40.5 182t111.5 160t180 114.5t236 43.5q159 0 303 -72v-475q-38 75 -116.5 116.5t-164.5 41.5q-91 0 -151 -46.5t-60 -134.5q0 -52 23.5 -101.5t68.5 -92t120.5 -69t168.5 -27.5h111v-328h-785z" />
    <glyph glyph-name="uni10FB" unicode="&#x10fb;" horiz-adv-x="1179" 
d="M350 -16q-95 0 -162 67t-67 162t67 162t162 67t162.5 -67t67.5 -162t-67.5 -162t-162.5 -67zM96 874q0 95 67.5 162.5t162.5 67.5t162 -67.5t67 -162.5t-67 -162t-162 -67t-162.5 67t-67.5 162zM643 571q0 95 67 162.5t162 67.5t162.5 -67.5t67.5 -162.5t-67.5 -162
t-162.5 -67t-162 67t-67 162z" />
    <glyph glyph-name="uni10FC" unicode="&#x10fc;" horiz-adv-x="827" 
d="M440 752q-163 0 -255.5 100t-92.5 278v543q156 -24 309 -24q156 0 306 24v-203q-141 -24 -287 -24q-59 0 -90 2v-141q26 27 71 43.5t99 15.5q113 -3 193.5 -81t80.5 -206q0 -143 -93.5 -235t-240.5 -92zM332 1073q0 -46 29.5 -79t72.5 -33t73 32.5t30 79.5q0 49 -30 83
t-73 34t-72.5 -34t-29.5 -83z" />
    <glyph glyph-name="uni10FD" unicode="&#x10fd;" horiz-adv-x="1316" 
d="M659 -463q-262 0 -434 134.5t-172 320.5q0 52 10 88h445q-4 -20 -4 -35q0 -65 43.5 -101t105.5 -36t108 36.5t46 98.5q0 36 -35 68.5t-69.5 50t-116.5 52.5q-7 3 -11 5q-41 17 -64.5 27t-64.5 29t-66.5 34.5t-62 38.5t-60 45.5t-52 52t-46 61.5t-33 70t-23 82t-7.5 93
q0 191 145.5 313.5t405.5 122.5q63 0 129 -11.5t133.5 -38.5t119.5 -66.5t85 -100.5t33 -135q0 -61 -19 -142h-401q6 30 6 58q0 50 -30 77t-72 27q-40 0 -70.5 -27.5t-30.5 -76.5q0 -22 14 -43.5t33 -38.5t56.5 -38.5t65.5 -35t79 -37.5q49 -22 74 -34t72.5 -36.5t75 -42
t68 -46.5t64.5 -54t52.5 -60.5t43.5 -71t25.5 -79.5t10.5 -92q0 -224 -161.5 -365t-443.5 -141z" />
    <glyph glyph-name="uni10FE" unicode="&#x10fe;" horiz-adv-x="1388" 
d="M53 1155q142 0 312 -32t327 -93q159 61 329.5 93t313.5 32v-291q-150 0 -297 -20q226 -177 226 -402q0 -89 -41 -174t-113 -152t-181 -108t-235 -41q-128 0 -237.5 41t-180.5 108t-111 152t-40 174q0 225 225 402q-147 20 -297 20v291zM547 430q0 -77 38.5 -126.5
t108.5 -49.5q71 0 109.5 48.5t38.5 123.5q0 74 -38.5 154t-109.5 139q-72 -59 -109.5 -137t-37.5 -152z" />
    <glyph glyph-name="uni10FF" unicode="&#x10ff;" 
d="M684 -33q-130 0 -246 44.5t-201 123.5t-134.5 194.5t-49.5 250.5q0 180 85.5 320t228.5 214t317 74q177 0 320 -74t227 -214t84 -320t-84 -320.5t-227.5 -216.5t-319.5 -76zM496 580q0 -101 56 -162.5t132 -61.5t132 61.5t56 162.5t-55.5 160t-132.5 59
q-75 0 -131.5 -59.5t-56.5 -159.5z" />
    <glyph glyph-name="uni1C90" unicode="&#x1c90;" horiz-adv-x="1363" 
d="M680 350q79 0 133.5 57.5t54.5 167.5q0 52 -21.5 101.5t-56 94.5t-76.5 94.5t-84.5 113t-79 137.5t-61 181.5t-28.5 232.5h438q4 -97 29 -184t61.5 -151.5t80 -124.5t86 -115.5t77.5 -111.5t56.5 -124.5t21.5 -143.5q0 -140 -49 -256.5t-134 -194t-200 -120.5t-248 -43
q-134 0 -251.5 45.5t-199.5 123t-129 184.5t-47 227q0 82 25 174h438q-24 -71 -24 -142q0 -98 49 -160.5t139 -62.5z" />
    <glyph glyph-name="uni1C91" unicode="&#x1c91;" 
d="M684 -31q-174 0 -318 70t-228.5 196.5t-84.5 284.5q0 188 115 326.5t303 193.5q18 44 18 74q0 34 -18.5 65t-47 54t-65 53.5t-70.5 60.5t-65.5 78.5t-48.5 104.5h438q15 -46 53.5 -84t80.5 -64t82.5 -56t67 -76.5t26.5 -108.5q0 -35 -17 -105q186 -55 298 -192t112 -324
q0 -158 -83.5 -284.5t-227.5 -196.5t-320 -70zM496 520q0 -81 56.5 -133.5t131.5 -52.5t131.5 52.5t56.5 133.5q0 82 -56.5 133.5t-131.5 51.5q-74 0 -131 -52t-57 -133z" />
    <glyph glyph-name="uni1C92" unicode="&#x1c92;" 
d="M684 -39q-283 0 -457 153t-174 402q0 151 121 274.5t397 253.5q143 68 185.5 98t42.5 64q0 38 -37 64t-92 26q-72 0 -125 -35t-53 -81q0 -7 4 -31h-353q-16 62 -16 125q0 135 149 215t408 80q255 0 406 -90.5t151 -241.5q0 -189 -242 -328q139 -62 227.5 -170.5
t88.5 -222.5q0 -250 -173.5 -402.5t-457.5 -152.5zM496 516q0 -85 49 -131.5t139 -46.5t139 46.5t49 131.5q0 61 -55.5 134t-128.5 114q-104 -56 -148 -114t-44 -134z" />
    <glyph glyph-name="uni1C93" unicode="&#x1c93;" horiz-adv-x="2029" 
d="M1346 483q-128 0 -237.5 40t-188.5 110.5t-131 163.5t-74 202q-14 94 -41.5 139.5t-79.5 45.5q-98 0 -98 -201q0 -66 29.5 -154t95.5 -172q250 -317 856 -335v-322h-1143v322h332q-261 58 -422 237q-94 103 -142.5 229t-48.5 244q0 152 61.5 273.5t177 191.5t265.5 70
q238 0 375 -219q89 109 213 164t260 55q110 0 212 -37t182.5 -105t128.5 -174.5t48 -234.5q0 -149 -83 -271.5t-227.5 -192t-319.5 -69.5zM1157 1026q0 -75 57.5 -126.5t131.5 -51.5t131 51.5t57 126.5q0 76 -56.5 126t-131.5 50q-74 0 -131.5 -50.5t-57.5 -125.5z" />
    </font>
</defs>
</svg>
