<?xml version="1.0" standalone="no"?>
<!DOCTYPE svg PUBLIC "-//W3C//DTD SVG 1.1//EN" "http://www.w3.org/Graphics/SVG/1.1/DTD/svg11.dtd" >
<svg xmlns="http://www.w3.org/2000/svg" xmlns:xlink="http://www.w3.org/1999/xlink" version="1.1">
<metadata>
Created by FontForge 20201107 at Sat Sep 30 12:29:59 2023
 By 
Copyright 2022 The Noto Project Authors (https://github.com/notofonts/latin-greek-cyrillic)
</metadata>
<defs>
<font id="NotoSans-Medium" horiz-adv-x="0" >
  <font-face 
    font-family="Noto Sans Medium"
    font-weight="500"
    font-stretch="normal"
    units-per-em="1000"
    panose-1="2 11 5 2 4 5 4 2 2 4"
    ascent="800"
    descent="-200"
    x-height="539"
    cap-height="714"
    bbox="-622 -394 2800 1067"
    underline-thickness="50"
    underline-position="-125"
    unicode-range="U+000D-1DF1E"
  />
<missing-glyph horiz-adv-x="600" 
d="M94 0v714h411v-714h-411zM145 51h309v612h-309v-612z" />
    <glyph glyph-name="f_f" unicode="ff" horiz-adv-x="713" 
d="M346 458h-133v-458h-106v458h-91v50l91 33v34q0 69 21.5 110.5t61.5 60.5t97 19q35 0 64 -6t49 -13l-27 -81q-16 5 -37 9.5t-44 4.5q-40 0 -59.5 -26t-19.5 -79v-35h133v-81zM703 458h-133v-458h-106v458h-91v50l91 33v34q0 69 21.5 110.5t61.5 60.5t97 19q35 0 64 -6
t49 -13l-27 -81q-16 5 -37 9.5t-44 4.5q-40 0 -59.5 -26t-19.5 -79v-35h133v-81z" />
    <glyph glyph-name="fi" unicode="fi" horiz-adv-x="629" 
d="M346 458h-133v-458h-106v458h-91v50l91 33v34q0 69 21.5 110.5t61.5 60.5t97 19q35 0 64 -6t49 -13l-27 -81q-16 5 -37 9.5t-44 4.5q-40 0 -59.5 -26t-19.5 -79v-35h133v-81zM546 539v-539h-106v539h106zM494 744q24 0 42 -14t18 -47q0 -32 -18 -46.5t-42 -14.5
q-26 0 -43.5 14.5t-17.5 46.5q0 33 17.5 47t43.5 14z" />
    <glyph glyph-name="fl" unicode="fl" horiz-adv-x="629" 
d="M346 458h-133v-458h-106v458h-91v50l91 33v34q0 69 21.5 110.5t61.5 60.5t97 19q35 0 64 -6t49 -13l-27 -81q-16 5 -37 9.5t-44 4.5q-40 0 -59.5 -26t-19.5 -79v-35h133v-81zM546 0h-106v760h106v-760z" />
    <glyph glyph-name="f_f_i" unicode="ffi" horiz-adv-x="985" 
d="M346 458h-133v-458h-106v458h-91v50l91 33v34q0 69 21.5 110.5t61.5 60.5t97 19q35 0 64 -6t49 -13l-27 -81q-16 5 -37 9.5t-44 4.5q-40 0 -59.5 -26t-19.5 -79v-35h133v-81zM703 458h-133v-458h-106v458h-91v50l91 33v34q0 69 21.5 110.5t61.5 60.5t97 19q35 0 64 -6
t49 -13l-27 -81q-16 5 -37 9.5t-44 4.5q-40 0 -59.5 -26t-19.5 -79v-35h133v-81zM902 539v-539h-106v539h106zM850 744q24 0 42 -14t18 -47q0 -32 -18 -46.5t-42 -14.5q-26 0 -43.5 14.5t-17.5 46.5q0 33 17.5 47t43.5 14z" />
    <glyph glyph-name="f_f_l" unicode="ffl" horiz-adv-x="985" 
d="M346 458h-133v-458h-106v458h-91v50l91 33v34q0 69 21.5 110.5t61.5 60.5t97 19q35 0 64 -6t49 -13l-27 -81q-16 5 -37 9.5t-44 4.5q-40 0 -59.5 -26t-19.5 -79v-35h133v-81zM703 458h-133v-458h-106v458h-91v50l91 33v34q0 69 21.5 110.5t61.5 60.5t97 19q35 0 64 -6
t49 -13l-27 -81q-16 5 -37 9.5t-44 4.5q-40 0 -59.5 -26t-19.5 -79v-35h133v-81zM902 0h-106v760h106v-760z" />
    <glyph glyph-name=".notdef" horiz-adv-x="600" 
d="M94 0v714h411v-714h-411zM145 51h309v612h-309v-612z" />
    <glyph glyph-name=".null" 
 />
    <glyph glyph-name="nonmarkingreturn" horiz-adv-x="333" 
 />
    <glyph glyph-name="NULL" 
 />
    <glyph glyph-name="CR" unicode="&#xd;" horiz-adv-x="260" 
 />
    <glyph glyph-name="space" unicode=" " horiz-adv-x="260" 
 />
    <glyph glyph-name="exclam" unicode="!" horiz-adv-x="274" 
d="M175 212h-75l-25 502h125zM68 59q0 39 20 55t49 16q28 0 48 -16t20 -55t-20 -56t-48 -17q-29 0 -49 17t-20 56z" />
    <glyph glyph-name="quotedbl" unicode="&#x22;" horiz-adv-x="427" 
d="M172 714l-20 -258h-67l-20 258h107zM362 714l-20 -258h-67l-20 258h107z" />
    <glyph glyph-name="numbersign" unicode="#" horiz-adv-x="646" 
d="M482 429l-28 -146h133v-77h-148l-40 -206h-82l40 206h-129l-38 -206h-80l37 206h-123v77h138l29 146h-130v77h144l39 208h83l-40 -208h131l39 208h80l-40 -208h124v-77h-139zM243 283h129l29 146h-129z" />
    <glyph glyph-name="dollar" unicode="$" horiz-adv-x="572" 
d="M253 46q-58 2 -109.5 11t-86.5 25v98q36 -17 90.5 -30.5t105.5 -14.5v187q-69 21 -112.5 46t-64 59.5t-20.5 81.5q0 49 24.5 84.5t69 56.5t103.5 25v84h65v-83q54 -1 99 -11.5t85 -27.5l-33 -86q-34 14 -73.5 23.5t-77.5 12.5v-184q62 -20 107.5 -42t70.5 -54.5t25 -85.5
q0 -71 -52.5 -116t-150.5 -55v-108h-65v104zM318 139q52 6 75.5 25.5t23.5 50.5q0 21 -9.5 36t-31 26t-58.5 22v-160zM253 585q-31 -2 -51.5 -11.5t-31 -24.5t-10.5 -35q0 -22 9 -38.5t29 -28t55 -21.5v159z" />
    <glyph glyph-name="percent" unicode="%" horiz-adv-x="852" 
d="M196 724q77 0 116.5 -58.5t39.5 -164.5t-37.5 -165.5t-118.5 -59.5q-74 0 -113 59.5t-39 165.5t36.5 164.5t115.5 58.5zM196 650q-33 0 -49 -37.5t-16 -111.5q0 -75 16 -113t49 -38q35 0 52 37.5t17 113.5q0 74 -17 111.5t-52 37.5zM668 714l-396 -714h-89l396 714h89z
M652 438q76 0 116 -58.5t40 -164.5t-38 -165.5t-118 -59.5q-74 0 -113.5 59.5t-39.5 165.5t36.5 164.5t116.5 58.5zM652 364q-34 0 -49.5 -37t-15.5 -112t15.5 -112.5t49.5 -37.5q35 0 51.5 37t16.5 113q0 75 -16.5 112t-51.5 37z" />
    <glyph glyph-name="ampersand" unicode="&#x26;" horiz-adv-x="737" 
d="M306 725q55 0 95.5 -18.5t63 -52.5t22.5 -84q0 -64 -41 -109t-102 -81l177 -171q24 32 40 71.5t27 84.5h108q-15 -62 -40.5 -119.5t-65.5 -103.5l146 -142h-138l-78 75q-31 -25 -66 -44t-76.5 -30t-93.5 -11q-72 0 -125 23.5t-81.5 68t-28.5 106.5q0 51 17.5 88t51 65.5
t78.5 54.5q-22 25 -40.5 51.5t-30 55.5t-11.5 63q0 50 23.5 85.5t67 54.5t101.5 19zM259 331q-31 -19 -52.5 -38.5t-34 -43t-12.5 -55.5q0 -51 35.5 -81.5t93.5 -30.5q55 0 95.5 17t69.5 42zM303 640q-37 0 -62 -19t-25 -57q0 -33 17 -61.5t48 -61.5q54 31 79 59.5t25 65.5
q0 34 -23 54t-59 20z" />
    <glyph glyph-name="quotesingle" unicode="'" horiz-adv-x="237" 
d="M172 714l-20 -258h-67l-20 258h107z" />
    <glyph glyph-name="parenleft" unicode="(" horiz-adv-x="312" 
d="M40 274q0 82 15.5 160t48.5 149t83 131h95q-70 -94 -105.5 -207t-35.5 -232q0 -77 16 -153t47 -146.5t77 -133.5h-94q-50 59 -83 128.5t-48.5 146.5t-15.5 157z" />
    <glyph glyph-name="parenright" unicode=")" horiz-adv-x="312" 
d="M272 274q0 -80 -15.5 -157t-48 -146.5t-83.5 -128.5h-94q46 63 77 133.5t46.5 146.5t15.5 153q0 79 -15.5 156t-46.5 149t-78 134h95q51 -60 83.5 -131t48 -149t15.5 -160z" />
    <glyph glyph-name="asterisk" unicode="*" horiz-adv-x="549" 
d="M326 760l-20 -188l189 53l15 -101l-179 -15l116 -154l-93 -50l-83 168l-74 -168l-96 50l114 154l-177 15l16 101l186 -53l-21 188h107z" />
    <glyph glyph-name="plus" unicode="+" horiz-adv-x="572" 
d="M326 393h196v-81h-196v-201h-82v201h-196v81h196v202h82v-202z" />
    <glyph glyph-name="comma" unicode="," horiz-adv-x="273" 
d="M201 105q-9 -35 -23 -76t-30 -81.5t-33 -76.5h-77q10 39 19.5 82.5t17.5 85.5t13 77h106z" />
    <glyph glyph-name="hyphen" unicode="-" horiz-adv-x="322" 
d="M37 223v90h248v-90h-248z" />
    <glyph glyph-name="period" unicode="." horiz-adv-x="273" 
d="M68 59q0 39 20 55t48 16q29 0 49 -16t20 -55t-20 -56t-49 -17q-28 0 -48 17t-20 56z" />
    <glyph glyph-name="slash" unicode="/" horiz-adv-x="384" 
d="M376 714l-266 -714h-101l266 714h101z" />
    <glyph glyph-name="zero" unicode="0" horiz-adv-x="572" 
d="M527 358q0 -87 -13.5 -155t-42 -115.5t-75 -72.5t-111.5 -25q-82 0 -135 44t-79 126.5t-26 197.5q0 116 23.5 198t76.5 125.5t140 43.5q82 0 135.5 -43.5t80 -125.5t26.5 -198zM151 358q0 -93 13 -155t42.5 -93t78.5 -31t78.5 30.5t43 93t13.5 155.5t-13.5 154.5
t-43 92.5t-78.5 31t-78.5 -31t-42.5 -92.5t-13 -154.5z" />
    <glyph glyph-name="one" unicode="1" horiz-adv-x="572" 
d="M372 0h-105v474q0 25 0.5 46.5t1.5 42t2 39.5q-13 -13 -27 -25t-32 -28l-78 -63l-54 68l204 160h88v-714z" />
    <glyph glyph-name="two" unicode="2" horiz-adv-x="572" 
d="M526 0h-480v82l184 187q54 55 90 95.5t54 78t18 81.5q0 55 -32 82.5t-83 27.5q-49 0 -88 -18.5t-81 -51.5l-57 71q29 25 62.5 45t75 32t91.5 12q68 0 117 -23.5t75.5 -66.5t26.5 -101q0 -57 -23 -106t-65 -96.5t-99 -102.5l-133 -129v-5h347v-94z" />
    <glyph glyph-name="three" unicode="3" horiz-adv-x="572" 
d="M498 549q0 -48 -18.5 -83.5t-52.5 -57.5t-78 -32v-4q86 -10 128.5 -53.5t42.5 -114.5q0 -62 -29.5 -110.5t-91 -76t-157.5 -27.5q-57 0 -106 9t-93 30v96q45 -23 96.5 -35t98.5 -12q91 0 131 34.5t40 96.5q0 40 -21 65.5t-64 38t-107 12.5h-65v87h66q61 0 99 15.5
t56 43.5t18 64q0 48 -31.5 74.5t-90.5 26.5q-36 0 -66.5 -8t-55.5 -21t-49 -29l-52 73q39 30 95.5 51.5t130.5 21.5q111 0 168.5 -48.5t57.5 -126.5z" />
    <glyph glyph-name="four" unicode="4" horiz-adv-x="572" 
d="M553 158h-99v-158h-103v158h-331v84l329 475h105v-469h99v-90zM351 442q0 24 0.5 46t1.5 42.5t1.5 38t1.5 31.5h-4q-8 -20 -19.5 -41t-23.5 -37l-189 -274h231v194z" />
    <glyph glyph-name="five" unicode="5" horiz-adv-x="572" 
d="M282 443q71 0 124 -25t82.5 -72t29.5 -115q0 -75 -32 -129t-92.5 -83t-147.5 -29q-55 0 -104 10t-83 29v97q36 -21 87.5 -34t98.5 -13q51 0 87.5 15.5t57 47t20.5 79.5q0 65 -40.5 99.5t-127.5 34.5q-28 0 -62.5 -5t-55.5 -10l-49 29l27 345h367v-94h-275l-16 -187
q17 3 43 6.5t61 3.5z" />
    <glyph glyph-name="six" unicode="6" horiz-adv-x="572" 
d="M49 304q0 62 8.5 122t30 113.5t59.5 95t96.5 65t141.5 23.5q21 0 47.5 -1.5t43.5 -6.5v-89q-19 6 -41.5 9t-44.5 3q-69 0 -114 -21t-71 -58t-38 -85.5t-15 -105.5h6q15 24 37 43t54 30t74 11q62 0 108.5 -26t72 -75t25.5 -119q0 -75 -28.5 -129.5t-80 -83.5t-123.5 -29
q-52 0 -97 19t-79 58t-53 98.5t-19 138.5zM296 78q57 0 93 37.5t36 116.5q0 63 -31.5 100t-94.5 37q-43 0 -75 -18t-50 -46t-18 -57q0 -31 9 -61t26.5 -55t43.5 -39.5t61 -14.5z" />
    <glyph glyph-name="seven" unicode="7" horiz-adv-x="572" 
d="M129 0l285 620h-375v94h489v-76l-284 -638h-115z" />
    <glyph glyph-name="eight" unicode="8" horiz-adv-x="572" 
d="M285 724q63 0 112 -19.5t77.5 -57.5t28.5 -95q0 -43 -18 -75t-48 -56.5t-67 -42.5q42 -21 77.5 -47.5t57 -61.5t21.5 -84q0 -60 -29.5 -103.5t-83.5 -67.5t-126 -24q-77 0 -131.5 23t-82.5 65.5t-28 103.5q0 49 20 85t53 62t72 44q-34 20 -62 45.5t-44 58.5t-16 76
q0 56 29 93.5t78.5 57.5t109.5 20zM147 184q0 -49 34 -80.5t104 -31.5q68 0 103.5 31.5t35.5 81.5q0 33 -17.5 58t-48 44.5t-70.5 35.5l-15 6q-41 -17 -69 -38t-42.5 -47t-14.5 -60zM284 641q-49 0 -81.5 -24t-32.5 -70q0 -33 16 -56t43 -39.5t59 -31.5q32 14 57 30.5t40 40
t15 56.5q0 46 -32 70t-84 24z" />
    <glyph glyph-name="nine" unicode="9" horiz-adv-x="572" 
d="M525 409q0 -61 -9 -121.5t-30 -114t-59.5 -95t-97 -65t-141.5 -23.5q-20 0 -47 2t-45 7v89q19 -6 42.5 -9t45.5 -3q69 0 113.5 20.5t71 57.5t38.5 86t14 104h-6q-15 -23 -37 -42t-53.5 -30t-75.5 -11q-61 0 -107.5 26t-71.5 74.5t-25 118.5q0 76 28.5 130.5t81 83.5
t122.5 29q52 0 97 -19t79 -58t53 -98t19 -139zM278 636q-57 0 -93 -38t-36 -116q0 -64 30.5 -101t94.5 -37q44 0 76 18.5t50 46t18 57.5t-9 60t-26 55t-43.5 40t-61.5 15z" />
    <glyph glyph-name="colon" unicode=":" horiz-adv-x="273" 
d="M68 59q0 39 20 55t48 16q29 0 49 -16t20 -55t-20 -56t-49 -17q-28 0 -48 17t-20 56zM68 479q0 41 20 57t48 16q29 0 49 -16t20 -57q0 -38 -20 -55t-49 -17q-28 0 -48 17t-20 55z" />
    <glyph glyph-name="semicolon" unicode=";" horiz-adv-x="273" 
d="M195 105q-9 -35 -23 -76t-30.5 -81.5t-32.5 -76.5h-78q7 29 14.5 61t14 64.5t12 63t9.5 56.5h107zM66 479q0 41 20 57t49 16q28 0 48.5 -16t20.5 -57q0 -38 -20.5 -55t-48.5 -17q-29 0 -49 17t-20 55z" />
    <glyph glyph-name="less" unicode="&#x3c;" horiz-adv-x="572" 
d="M523 111l-475 209v56l475 237v-89l-364 -172l364 -152v-89z" />
    <glyph glyph-name="equal" unicode="=" horiz-adv-x="572" 
d="M52 410v81h466v-81h-466zM52 213v82h466v-82h-466z" />
    <glyph glyph-name="greater" unicode="&#x3e;" horiz-adv-x="572" 
d="M48 200l364 152l-364 172v89l475 -237v-56l-475 -209v89z" />
    <glyph glyph-name="question" unicode="?" horiz-adv-x="447" 
d="M139 241q0 37 7.5 64t27 51.5t51.5 50.5q37 30 57.5 50.5t29 40t8.5 47.5q0 43 -28.5 66t-82.5 23q-47 0 -86 -12.5t-76 -30.5l-38 80q43 23 94 38t113 15q98 0 151.5 -48t53.5 -128q0 -43 -14 -74.5t-40.5 -57.5t-62.5 -56q-32 -26 -49 -45t-23 -37.5t-6 -45.5v-20h-87
v29zM118 59q0 39 19.5 55t49.5 16q28 0 48 -16t20 -55t-20 -56t-48 -17q-30 0 -49.5 17t-19.5 56z" />
    <glyph glyph-name="at" unicode="@" horiz-adv-x="898" 
d="M843 357q0 -46 -11 -90t-33 -80t-54.5 -57.5t-77.5 -21.5q-43 0 -70 24t-34 56h-6q-19 -34 -53.5 -57t-85.5 -23q-80 0 -123.5 51.5t-43.5 136.5q0 66 27 117t76 80t116 29q45 0 90 -7.5t70 -17.5l-10 -203q-1 -16 -1 -24.5v-11.5q0 -48 16.5 -64t37.5 -16
q29 0 48.5 24.5t30 65.5t10.5 90q0 91 -36.5 153.5t-100 95.5t-144.5 33q-83 0 -147 -26t-107.5 -74t-66 -113t-22.5 -143q0 -95 34.5 -162t100.5 -101.5t162 -34.5q60 0 117.5 13.5t103.5 30.5v-76q-45 -18 -100 -30t-120 -12q-120 0 -205 44t-130 126.5t-45 198.5
q0 93 29 172t84.5 137.5t134 91t177.5 32.5q79 0 145 -24.5t114.5 -71t75.5 -112.5t27 -149zM339 294q0 -61 25 -88.5t66 -27.5q55 0 78 40.5t27 104.5l6 120q-12 4 -30.5 6.5t-38.5 2.5q-48 0 -77.5 -23t-42.5 -59t-13 -76z" />
    <glyph glyph-name="A" unicode="A" horiz-adv-x="654" 
d="M540 0l-76 206h-276l-76 -206h-112l271 717h112l270 -717h-113zM362 501q-3 11 -10.5 33.5t-14.5 46t-11 38.5q-5 -20 -11.5 -43.5t-12.5 -43t-10 -31.5l-72 -201h214z" />
    <glyph glyph-name="B" unicode="B" horiz-adv-x="656" 
d="M304 714q137 0 207 -39.5t70 -138.5q0 -42 -15 -74.5t-43.5 -54t-70.5 -28.5v-5q43 -7 77 -25.5t54 -53.5t20 -91q0 -65 -30.5 -110.5t-87 -69.5t-134.5 -24h-256v714h209zM322 416q84 0 115.5 27t31.5 80q0 54 -38 77t-121 23h-107v-207h119zM203 328v-238h131
q87 0 121 34t34 90q0 34 -15 60t-50.5 40t-96.5 14h-124z" />
    <glyph glyph-name="C" unicode="C" horiz-adv-x="633" 
d="M400 631q-53 0 -95 -18.5t-71.5 -54.5t-45 -87t-15.5 -115q0 -84 25 -145.5t75 -94.5t126 -33q46 0 88.5 8.5t86.5 22.5v-93q-42 -16 -86 -23.5t-102 -7.5q-109 0 -181.5 45t-108.5 128t-36 194q0 81 22.5 148.5t65.5 116.5t106.5 75.5t146.5 26.5q54 0 106 -11.5
t94 -32.5l-40 -90q-35 16 -75.5 28.5t-85.5 12.5z" />
    <glyph glyph-name="D" unicode="D" horiz-adv-x="733" 
d="M673 364q0 -120 -45 -201t-129.5 -122t-203.5 -41h-200v714h221q109 0 189 -40t124 -117.5t44 -192.5zM560 361q0 90 -29 148t-85.5 86t-136.5 28h-106v-532h87q135 0 202.5 68t67.5 202z" />
    <glyph glyph-name="E" unicode="E" horiz-adv-x="557" 
d="M497 0h-402v714h402v-92h-294v-204h276v-91h-276v-234h294v-93z" />
    <glyph glyph-name="F" unicode="F" horiz-adv-x="528" 
d="M202 0h-107v714h402v-92h-295v-233h276v-92h-276v-297z" />
    <glyph glyph-name="G" unicode="G" horiz-adv-x="727" 
d="M393 384h258v-356q-57 -19 -116.5 -28.5t-135.5 -9.5q-109 0 -184.5 44t-115 126t-39.5 197q0 112 44 194t126.5 127.5t200.5 45.5q59 0 113 -11.5t100 -31.5l-39 -90q-37 17 -82.5 28.5t-95.5 11.5q-79 0 -136.5 -33.5t-88 -95t-30.5 -146.5q0 -80 25 -142t79 -97
t141 -35q42 0 72 4.5t55 10.5v194h-151v93z" />
    <glyph glyph-name="H" unicode="H" horiz-adv-x="748" 
d="M652 0h-108v326h-341v-326h-108v714h108v-296h341v296h108v-714z" />
    <glyph glyph-name="I" unicode="I" horiz-adv-x="354" 
d="M315 0h-277v62l85 25v539l-85 26v62h277v-62l-84 -26v-539l84 -25v-62z" />
    <glyph glyph-name="J" unicode="J" horiz-adv-x="290" 
d="M1 -196q-25 0 -44 3.5t-34 9.5v90q16 -4 34 -7t38 -3q25 0 47.5 10t35.5 36t13 73v698h108v-693q0 -75 -24.5 -123.5t-69 -71t-104.5 -22.5z" />
    <glyph glyph-name="K" unicode="K" horiz-adv-x="632" 
d="M632 0h-125l-234 329l-70 -58v-271h-108v714h108v-345q26 31 52 61l52 60l193 224h124l-273 -312z" />
    <glyph glyph-name="L" unicode="L" horiz-adv-x="536" 
d="M95 0v714h108v-621h305v-93h-413z" />
    <glyph glyph-name="M" unicode="M" horiz-adv-x="918" 
d="M406 0l-216 607h-4q1 -20 3 -54t3 -73t1 -77v-403h-98v714h154l205 -573h4l211 573h154v-714h-105v409q0 35 1.5 72.5t3 70.5t2.5 54h-4l-222 -606h-93z" />
    <glyph glyph-name="N" unicode="N" horiz-adv-x="776" 
d="M681 0h-131l-361 577h-4q2 -26 3.5 -58t3 -67t1.5 -72v-380h-98v714h130l360 -574h3q-1 21 -2 53t-2.5 68.5t-2.5 68.5v384h100v-714z" />
    <glyph glyph-name="O" unicode="O" horiz-adv-x="785" 
d="M725 358q0 -83 -20.5 -150.5t-62 -116.5t-104 -75t-145.5 -26q-85 0 -147.5 26.5t-104 75t-61.5 116.5t-20 151q0 110 36 192t110.5 128t187.5 46q110 0 183.5 -45.5t110.5 -128t37 -193.5zM174 358q0 -86 23 -147.5t72 -95t124 -33.5q76 0 124 33.5t71 95t23 147.5
q0 129 -51.5 201.5t-165.5 72.5q-76 0 -125 -33t-72 -94t-23 -147z" />
    <glyph glyph-name="P" unicode="P" horiz-adv-x="612" 
d="M295 714q140 0 204 -56.5t64 -157.5q0 -45 -14.5 -86t-47.5 -73.5t-87.5 -51t-133.5 -18.5h-77v-271h-108v714h200zM287 623h-84v-261h65q61 0 102 13.5t61.5 43t20.5 77.5q0 64 -39.5 95.5t-125.5 31.5z" />
    <glyph glyph-name="Q" unicode="Q" horiz-adv-x="785" 
d="M725 358q0 -85 -22 -154.5t-66 -118.5t-110 -73l171 -182h-148l-136 161q-5 0 -10.5 -0.5t-10.5 -0.5q-85 0 -147.5 26.5t-104 75t-61.5 116.5t-20 151q0 110 36 192t110.5 128t187.5 46q110 0 183.5 -45.5t110.5 -128t37 -193.5zM174 358q0 -86 23 -147.5t72 -95
t124 -33.5q76 0 124 33.5t71 95t23 147.5q0 129 -51.5 201.5t-165.5 72.5q-76 0 -125 -33t-72 -94t-23 -147z" />
    <glyph glyph-name="R" unicode="R" horiz-adv-x="633" 
d="M295 714q92 0 151 -23t88 -68.5t29 -114.5q0 -55 -20.5 -92.5t-52.5 -61t-67 -37.5l200 -317h-124l-172 289h-124v-289h-108v714h200zM288 622h-85v-243h90q83 0 121 31.5t38 93.5q0 43 -17.5 68.5t-54 37.5t-92.5 12z" />
    <glyph glyph-name="S" unicode="S" horiz-adv-x="550" 
d="M505 193q0 -64 -31 -109t-89 -69.5t-138 -24.5q-39 0 -75 4.5t-67 12.5t-55 20v102q40 -18 94 -32.5t110 -14.5q48 0 80 13t48 36t16 54q0 33 -16.5 55.5t-51 42t-92.5 41.5q-40 15 -72.5 33.5t-57 43.5t-37.5 58t-13 77q0 59 29.5 101t81.5 64.5t121 22.5
q58 0 107.5 -11.5t94.5 -31.5l-34 -89q-41 17 -83 28t-88 11q-40 0 -67 -12t-40.5 -33t-13.5 -49q0 -33 15 -55t48 -40.5t87 -40.5q60 -23 102.5 -50t64.5 -64.5t22 -93.5z" />
    <glyph glyph-name="T" unicode="T" horiz-adv-x="563" 
d="M335 0h-108v621h-214v93h536v-93h-214v-621z" />
    <glyph glyph-name="U" unicode="U" horiz-adv-x="738" 
d="M649 252q0 -74 -30.5 -133.5t-93.5 -94t-159 -34.5q-136 0 -206.5 72.5t-70.5 191.5v460h108v-455q0 -88 43 -132.5t131 -44.5q60 0 98 22t55.5 61.5t17.5 94.5v454h107v-462z" />
    <glyph glyph-name="V" unicode="V" horiz-adv-x="615" 
d="M615 714l-252 -714h-112l-251 714h111l153 -448q9 -24 17 -51.5t15 -54.5t11 -51q5 24 11.5 51t15 55t16.5 52l153 447h112z" />
    <glyph glyph-name="W" unicode="W" horiz-adv-x="941" 
d="M932 714l-188 -714h-115l-126 441q-6 18 -11.5 40t-10.5 43.5t-8.5 38.5t-5.5 26q-1 -9 -4 -26t-8 -38.5t-10 -44t-11 -42.5l-124 -438h-115l-187 714h111l105 -422q5 -22 10 -45t9.5 -46t8 -44.5t6.5 -39.5q3 19 6.5 41t8.5 45.5t10.5 46.5t11.5 42l119 422h108
l123 -424q6 -20 11.5 -43t10.5 -46.5t8.5 -45t6.5 -38.5q3 25 8.5 54.5t12.5 61t14 59.5l105 422h110z" />
    <glyph glyph-name="X" unicode="X" horiz-adv-x="610" 
d="M607 0h-123l-182 298l-184 -298h-115l237 371l-222 343h120l168 -273l169 273h115l-222 -344z" />
    <glyph glyph-name="Y" unicode="Y" horiz-adv-x="583" 
d="M292 380l175 334h116l-238 -437v-277h-107v273l-238 441h117z" />
    <glyph glyph-name="Z" unicode="Z" horiz-adv-x="574" 
d="M539 0h-505v77l366 544h-355v93h485v-77l-366 -544h375v-93z" />
    <glyph glyph-name="bracketleft" unicode="[" horiz-adv-x="330" 
d="M305 -158h-228v872h228v-81h-130v-710h130v-81z" />
    <glyph glyph-name="backslash" unicode="\" horiz-adv-x="384" 
d="M109 714l267 -714h-101l-266 714h100z" />
    <glyph glyph-name="bracketright" unicode="]" horiz-adv-x="330" 
d="M25 -77h129v710h-129v81h228v-872h-228v81z" />
    <glyph glyph-name="asciicircum" unicode="^" horiz-adv-x="572" 
d="M34 263l212 456h56l236 -456h-89l-173 346l-154 -346h-88z" />
    <glyph glyph-name="underscore" unicode="_" horiz-adv-x="434" 
d="M436 -155h-438v65h438v-65z" />
    <glyph glyph-name="grave" unicode="`" horiz-adv-x="305" 
d="M163 766q12 -22 30 -49.5t37.5 -53.5t34.5 -45v-12h-71q-17 14 -39.5 33.5t-45 41t-41 41.5t-28.5 34v10h123z" />
    <glyph glyph-name="a" unicode="a" horiz-adv-x="574" 
d="M292 549q102 0 152 -44.5t50 -139.5v-365h-75l-21 75h-4q-23 -29 -47.5 -48t-56 -28t-76.5 -9q-48 0 -86.5 17.5t-60.5 54t-22 91.5q0 82 62.5 125t190.5 47l92 3v30q0 60 -27 84t-76 24q-42 0 -80 -12t-72 -29l-34 77q38 20 87.5 33.5t103.5 13.5zM317 257
q-92 -4 -127.5 -30.5t-35.5 -74.5q0 -42 25.5 -61t64.5 -19q63 0 104 35t41 105v47z" />
    <glyph glyph-name="b" unicode="b" horiz-adv-x="620" 
d="M189 577q0 -33 -1.5 -62.5t-3.5 -46.5h5q23 34 62 57t101 23q97 0 156.5 -70t59.5 -208q0 -93 -27 -155t-76 -93.5t-114 -31.5q-63 0 -101 22.5t-61 53.5h-8l-20 -66h-78v760h106v-183zM327 462q-52 0 -82 -20t-43 -61t-13 -104v-8q0 -93 30 -142.5t110 -49.5q64 0 97 50
t33 144q0 95 -33 143t-99 48z" />
    <glyph glyph-name="c" unicode="c" horiz-adv-x="490" 
d="M300 -10q-74 0 -130 29t-87 90.5t-31 156.5q0 100 33.5 162t91 91.5t131.5 29.5q45 0 84.5 -9.5t65.5 -21.5l-32 -86q-28 11 -59.5 19t-59.5 8q-50 0 -82.5 -21.5t-48 -64t-15.5 -106.5q0 -61 16 -103t47.5 -63.5t78.5 -21.5q45 0 79 10t64 26v-92q-29 -17 -63 -25
t-83 -8z" />
    <glyph glyph-name="d" unicode="d" horiz-adv-x="620" 
d="M268 -10q-97 0 -156.5 70t-59.5 208q0 139 60 210t158 71q41 0 71.5 -10.5t53 -28.5t38.5 -40h6q-2 14 -5 40.5t-3 47.5v202h106v-760h-83l-18 72h-5q-15 -23 -37.5 -41.5t-53.5 -29.5t-72 -11zM293 77q78 0 110 43.5t32 130.5v16q0 95 -30.5 145t-112.5 50
q-65 0 -98 -52.5t-33 -143.5t33 -140t99 -49z" />
    <glyph glyph-name="e" unicode="e" horiz-adv-x="572" 
d="M295 549q71 0 122 -29.5t78.5 -84.5t27.5 -130v-58h-362q2 -83 43.5 -127t116.5 -44q52 0 92.5 9.5t83.5 28.5v-88q-40 -18 -81.5 -27t-98.5 -9q-78 0 -138 31t-93.5 92.5t-33.5 151.5q0 91 30.5 154t85 96.5t127.5 33.5zM295 467q-57 0 -91.5 -37t-40.5 -105h254
q0 42 -13 74t-40 50t-69 18z" />
    <glyph glyph-name="f" unicode="f" horiz-adv-x="357" 
d="M346 458h-133v-458h-106v458h-91v50l91 33v34q0 69 21.5 110.5t61.5 60.5t97 19q35 0 64 -6t49 -13l-27 -81q-16 5 -37 9.5t-44 4.5q-40 0 -59.5 -26t-19.5 -79v-35h133v-81z" />
    <glyph glyph-name="g" unicode="g" horiz-adv-x="620" 
d="M269 549q52 0 94 -20t71 -61h5l12 71h86v-546q0 -76 -27 -128t-82.5 -78.5t-139.5 -26.5q-58 0 -107 8t-90 25v93q42 -21 93.5 -31.5t109.5 -10.5q66 0 102 37.5t36 105.5v18q0 13 1 34.5t2 31.5h-4q-28 -42 -68.5 -61.5t-93.5 -19.5q-102 0 -159.5 73.5t-57.5 204.5
q0 130 58 205.5t159 75.5zM291 461q-42 0 -71 -22.5t-44 -65.5t-15 -106q0 -94 33.5 -143t98.5 -49q38 0 64.5 10t44 31t26 53.5t8.5 78.5v20q0 69 -15.5 111.5t-47.5 62t-82 19.5z" />
    <glyph glyph-name="h" unicode="h" horiz-adv-x="630" 
d="M189 557q0 -25 -2 -50t-4 -41h7q17 28 42.5 46t57 27t64.5 9q64 0 107.5 -20.5t66 -64t22.5 -112.5v-351h-105v336q0 63 -26.5 94.5t-84.5 31.5q-55 0 -86.5 -22t-45 -64.5t-13.5 -104.5v-271h-106v760h106v-203z" />
    <glyph glyph-name="i" unicode="i" horiz-adv-x="272" 
d="M189 539v-539h-106v539h106zM137 744q24 0 42 -14t18 -47q0 -32 -18 -46.5t-42 -14.5q-26 0 -43.5 14.5t-17.5 46.5q0 33 17.5 47t43.5 14z" />
    <glyph glyph-name="j" unicode="j" horiz-adv-x="272" 
d="M26 -240q-25 0 -46.5 3.5t-37.5 8.5v85q16 -4 32 -7t36 -3q31 0 52 17.5t21 66.5v608h106v-613q0 -50 -17 -87.5t-52.5 -58t-93.5 -20.5zM76 683q0 33 17.5 47t43.5 14q24 0 42 -14t18 -47q0 -32 -18 -46.5t-42 -14.5q-26 0 -43.5 14.5t-17.5 46.5z" />
    <glyph glyph-name="k" unicode="k" horiz-adv-x="559" 
d="M188 380q0 -21 -1.5 -48t-3.5 -50h3q8 10 19.5 24.5t23.5 29.5t22 26l165 177h123l-217 -231l231 -308h-125l-178 241l-62 -52v-189h-105v760h105v-380z" />
    <glyph glyph-name="l" unicode="l" horiz-adv-x="272" 
d="M189 0h-106v760h106v-760z" />
    <glyph glyph-name="m" unicode="m" horiz-adv-x="949" 
d="M687 549q91 0 137 -47t46 -151v-351h-106v337q0 62 -24.5 93.5t-76.5 31.5q-72 0 -103 -44.5t-31 -128.5v-289h-105v337q0 41 -11.5 69t-33.5 42t-57 14q-50 0 -79 -22t-41.5 -64.5t-12.5 -103.5v-272h-106v539h84l15 -72h6q17 28 41.5 46t54.5 27t62 9q61 0 103 -21.5
t61 -65.5h8q26 45 72 66t97 21z" />
    <glyph glyph-name="n" unicode="n" horiz-adv-x="630" 
d="M356 549q94 0 144 -47t50 -151v-351h-105v336q0 63 -26.5 94.5t-84.5 31.5q-82 0 -113.5 -49t-31.5 -141v-272h-106v539h84l15 -72h6q18 28 44 46t58 27t66 9z" />
    <glyph glyph-name="o" unicode="o" horiz-adv-x="609" 
d="M558 270q0 -67 -18 -119t-51 -88t-80 -54.5t-106 -18.5q-54 0 -100 18.5t-79.5 54.5t-52.5 88t-19 120q0 89 30.5 151t88 94.5t135.5 32.5q74 0 130.5 -32.5t89 -94.5t32.5 -152zM161 270q0 -60 15 -103.5t47 -66.5t82 -23t82 23t47 66.5t15 103.5q0 62 -15.5 104
t-47 64.5t-82.5 22.5q-75 0 -109 -50t-34 -141z" />
    <glyph glyph-name="p" unicode="p" horiz-adv-x="620" 
d="M352 549q97 0 156.5 -70t59.5 -209q0 -91 -27 -154t-76 -94.5t-114 -31.5q-41 0 -72 10.5t-52.5 28t-37.5 37.5h-7q3 -18 5 -42.5t2 -43.5v-220h-106v779h86l15 -72h5q16 22 38 41t53 30t72 11zM327 462q-50 0 -80 -19.5t-43.5 -58t-14.5 -97.5v-16q0 -62 13 -105.5
t43.5 -66t83.5 -22.5q45 0 73.5 24.5t42.5 68.5t14 102q0 88 -32 139t-100 51z" />
    <glyph glyph-name="q" unicode="q" horiz-adv-x="620" 
d="M431 -11q0 19 1.5 42t4.5 41h-6q-23 -34 -62.5 -58t-102.5 -24q-95 0 -154.5 70t-59.5 209q0 92 27.5 154.5t76.5 94t113 31.5q63 0 102 -24t63 -58h4l13 72h86v-779h-106v229zM294 76q51 0 81.5 19t44.5 57.5t15 96.5v18q0 96 -31 145.5t-112 49.5q-66 0 -98.5 -52.5
t-32.5 -143.5t32.5 -140.5t100.5 -49.5z" />
    <glyph glyph-name="r" unicode="r" horiz-adv-x="425" 
d="M349 549q14 0 31 -1.5t28 -3.5l-11 -99q-11 3 -26 5t-28 2q-30 0 -57.5 -11.5t-49.5 -33t-34.5 -52.5t-12.5 -71v-284h-106v539h84l14 -96h4q17 29 41 53t55 38.5t68 14.5z" />
    <glyph glyph-name="s" unicode="s" horiz-adv-x="484" 
d="M441 152q0 -53 -26 -89t-75 -54.5t-118 -18.5q-57 0 -97.5 8.5t-74.5 24.5v93q36 -17 83 -30.5t92 -13.5q60 0 86.5 19t26.5 51q0 18 -10 32.5t-37.5 30t-80.5 35.5q-51 21 -87 41.5t-55 49t-19 73.5q0 70 56.5 107.5t149.5 37.5q49 0 92.5 -9.5t84.5 -28.5l-35 -81
q-35 15 -72 25.5t-75 10.5q-48 0 -73 -15t-25 -42q0 -19 11.5 -33t40.5 -28t79 -34q50 -19 85.5 -39t54 -49t18.5 -74z" />
    <glyph glyph-name="t" unicode="t" horiz-adv-x="383" 
d="M277 76q21 0 43 4t38 9v-80q-17 -8 -46 -13.5t-58 -5.5q-44 0 -80.5 15t-58.5 52t-22 103v298h-75v48l79 40l37 114h65v-121h154v-81h-154v-296q0 -44 21.5 -65t56.5 -21z" />
    <glyph glyph-name="u" unicode="u" horiz-adv-x="630" 
d="M547 539v-539h-85l-15 71h-5q-17 -28 -44 -46t-59 -26.5t-66 -8.5q-63 0 -106.5 20.5t-66 64t-22.5 111.5v353h107v-337q0 -63 26.5 -94t82.5 -31t88 22t45.5 64.5t13.5 102.5v273h106z" />
    <glyph glyph-name="v" unicode="v" horiz-adv-x="526" 
d="M204 0l-204 539h112l112 -315q7 -20 14.5 -45t13.5 -48t8 -40h4q3 17 9.5 40.5t14.5 48t14 44.5l112 315h112l-205 -539h-117z" />
    <glyph glyph-name="w" unicode="w" horiz-adv-x="807" 
d="M447 270q-5 20 -11.5 44t-12.5 48.5t-11 45.5t-8 33h-4q-2 -12 -6.5 -33t-10.5 -45.5l-12 -49t-13 -44.5l-80 -268h-118l-149 539h108l70 -273q8 -28 14.5 -59t12 -59.5t7.5 -47.5h4q2 13 6 32.5t8.5 41t9 41.5t9.5 33l86 291h116l84 -291q6 -20 13 -47.5t12.5 -54
t7.5 -45.5h4q2 17 7 44.5t12.5 59.5t14.5 61l72 273h107l-151 -539h-121z" />
    <glyph glyph-name="x" unicode="x" horiz-adv-x="543" 
d="M206 275l-183 264h121l128 -194l128 194h120l-183 -264l192 -275h-120l-137 206l-138 -206h-120z" />
    <glyph glyph-name="y" unicode="y" horiz-adv-x="527" 
d="M1 539h114l112 -306q9 -23 16 -45t12.5 -43.5t8.5 -42.5h4q5 26 16 61.5t23 70.5l106 305h114l-231 -612q-19 -52 -47 -89.5t-66.5 -57.5t-90.5 -20q-25 0 -43 2.5t-31 5.5v84q11 -2 26.5 -4t32.5 -2q31 0 53.5 12t38 34t26.5 50l22 58z" />
    <glyph glyph-name="z" unicode="z" horiz-adv-x="475" 
d="M439 0h-404v67l278 390h-261v82h379v-75l-272 -382h280v-82z" />
    <glyph glyph-name="braceleft" unicode="{" horiz-adv-x="384" 
d="M350 -158q-68 1 -113 17t-67.5 50t-22.5 85v149q0 34 -14 54t-41.5 29t-67.5 9v86q40 1 67.5 10t41.5 29t14 52v150q0 52 23 85.5t68.5 50t111.5 16.5v-83q-32 -1 -55 -10t-36 -27t-13 -50v-144q0 -50 -27.5 -79.5t-82.5 -38.5v-6q56 -10 83 -39.5t27 -78.5v-147
q0 -31 12.5 -49.5t35.5 -27t56 -9.5v-83z" />
    <glyph glyph-name="bar" unicode="|" horiz-adv-x="551" 
d="M234 759h83v-996h-83v996z" />
    <glyph glyph-name="braceright" unicode="}" horiz-adv-x="384" 
d="M34 -75q33 1 55.5 10t35.5 27.5t13 49.5v145q0 50 27.5 79.5t82.5 38.5v6q-55 9 -82.5 38.5t-27.5 79.5v146q0 31 -12.5 49.5t-35.5 27.5t-56 9v83q69 0 114 -16.5t67 -50t22 -85.5v-149q0 -33 14 -53t42 -29.5t67 -9.5v-86q-39 0 -67 -9t-42 -29t-14 -53v-150
q0 -52 -23 -85.5t-68 -50t-112 -16.5v83z" />
    <glyph glyph-name="asciitilde" unicode="~" horiz-adv-x="572" 
d="M269 314q-37 16 -61 21.5t-46 5.5q-28 0 -59 -17t-55 -42v88q24 26 54.5 39.5t66.5 13.5q29 0 58 -6t75 -26q37 -16 61 -21.5t45 -5.5q29 0 60 17t55 42v-87q-24 -26 -54.5 -40t-66.5 -14q-29 0 -58.5 6.5t-74.5 25.5z" />
    <glyph glyph-name="uni00A0" unicode="&#xa0;" horiz-adv-x="260" 
 />
    <glyph glyph-name="exclamdown" unicode="&#xa1;" horiz-adv-x="274" 
d="M98 320h76l25 -501h-126zM205 474q0 -40 -20 -56t-48 -16t-48.5 16t-20.5 55t20.5 56t47.5 17q29 0 49 -17t20 -55z" />
    <glyph glyph-name="cent" unicode="&#xa2;" horiz-adv-x="572" 
d="M356 645q40 -1 75 -10t61 -21l-32 -86q-28 12 -60.5 20t-60.5 8q-49 0 -81.5 -21t-48.5 -64t-16 -108t16.5 -106.5t48.5 -61t79 -19.5q44 0 77 8.5t66 23.5v-91q-28 -14 -57.5 -21.5t-67.5 -9.5v-96h-73v99q-60 9 -104.5 39.5t-68.5 88t-24 145.5q0 92 24.5 150t69 89
t103.5 40v83h74v-79z" />
    <glyph glyph-name="sterling" unicode="&#xa3;" horiz-adv-x="572" 
d="M336 723q55 0 100.5 -11.5t80.5 -28.5l-35 -83q-31 14 -67 25t-74 11q-49 0 -77 -26t-28 -87v-125h197v-79h-197v-94q0 -38 -10 -64t-26 -41.5t-34 -25.5h374v-94h-506v88q29 8 50.5 24t33.5 43t12 69v95h-93v79h93v132q0 64 26 106.5t73 64.5t107 22z" />
    <glyph glyph-name="currency" unicode="&#xa4;" horiz-adv-x="572" 
d="M91 353q0 29 8.5 56t23.5 50l-65 66l56 54l64 -63q23 16 50.5 24t57.5 8q29 0 55.5 -8t50.5 -24l65 63l55 -53l-63 -66q14 -22 23 -49.5t9 -57.5t-8 -57.5t-24 -50.5l62 -64l-54 -54l-65 63q-23 -15 -50 -23t-56 -8q-30 0 -57.5 8.5t-50.5 23.5l-64 -63l-55 54l64 64
q-15 23 -23.5 50t-8.5 57zM168 353q0 -33 15.5 -59.5t42.5 -42.5t60 -16t60 16t43 42.5t16 59.5q0 34 -16 61t-43 43t-60 16t-60 -16t-42.5 -43t-15.5 -61z" />
    <glyph glyph-name="yen" unicode="&#xa5;" horiz-adv-x="572" 
d="M285 381l164 333h110l-197 -372h116v-71h-142v-77h142v-71h-142v-123h-102v123h-142v71h142v77h-142v71h113l-194 372h111z" />
    <glyph glyph-name="brokenbar" unicode="&#xa6;" horiz-adv-x="551" 
d="M234 759h83v-386h-83v386zM234 149h83v-386h-83v386z" />
    <glyph glyph-name="section" unicode="&#xa7;" horiz-adv-x="505" 
d="M65 394q0 48 22.5 78t52.5 46q-35 20 -54 48t-19 67q0 61 52 96.5t145 35.5q54 0 94.5 -10t78.5 -26l-31 -75q-34 15 -68 25.5t-79 10.5q-54 0 -76.5 -14.5t-22.5 -40.5q0 -18 11.5 -32t38.5 -27.5t73 -31.5q51 -19 86.5 -41.5t55 -51.5t19.5 -69q0 -50 -21 -81.5
t-50 -49.5q34 -19 52 -45t18 -64q0 -70 -57.5 -109t-159.5 -39q-54 0 -95 8.5t-74 25.5v83q23 -11 51.5 -21t60 -16t60.5 -6q68 0 94 20t26 47q0 18 -9 31.5t-35 28t-77 34.5t-88 41t-56 50.5t-19 73.5zM150 404q0 -23 13 -41.5t42.5 -35.5t78.5 -36l17 -6q21 13 39 33
t18 51q0 24 -12.5 43t-43.5 36.5t-89 36.5q-24 -7 -43.5 -28.5t-19.5 -52.5z" />
    <glyph glyph-name="dieresis" unicode="&#xa8;" horiz-adv-x="588" 
d="M145 682q0 29 16 41.5t37 12.5q22 0 38 -12.5t16 -40.5t-16 -41.5t-38 -13.5q-21 0 -37 13.5t-16 40.5zM336 682q0 29 15.5 41.5t37.5 12.5q21 0 37 -12.5t16 -40.5t-16 -41.5t-37 -13.5q-22 0 -37.5 13.5t-15.5 40.5z" />
    <glyph glyph-name="copyright" unicode="&#xa9;" horiz-adv-x="832" 
d="M431 132q-100 0 -149.5 61.5t-49.5 163.5q0 66 23.5 116.5t68.5 79.5t111 29q31 0 63 -8t60 -22l-29 -63q-25 13 -48.5 19.5t-44.5 6.5q-59 0 -91.5 -42t-32.5 -116q0 -76 28.5 -117.5t94.5 -41.5q23 0 51.5 6.5t53.5 16.5v-65q-24 -10 -49 -17t-60 -7zM416 -10
q-80 0 -147 27t-116.5 76.5t-76.5 116.5t-27 147q0 79 27 146t77 116.5t117 77t146 27.5q76 0 142.5 -27t117 -76.5t79 -116.5t28.5 -147t-27 -147t-76.5 -116.5t-116.5 -76.5t-147 -27zM416 46q63 0 118.5 23t98 65t66 98.5t23.5 124.5q0 64 -23 120.5t-64 99.5t-96.5 67
t-122.5 24t-123 -23t-97.5 -64.5t-64 -98.5t-22.5 -125q0 -65 22.5 -121.5t63.5 -99t97.5 -66.5t123.5 -24z" />
    <glyph glyph-name="ordfeminine" unicode="&#xaa;" horiz-adv-x="365" 
d="M184 722q67 0 100 -29.5t33 -89.5v-219h-52l-13 46q-20 -23 -49 -37.5t-66 -14.5q-32 0 -56.5 11.5t-38 34t-13.5 56.5q0 36 18 58.5t54.5 34.5t89.5 14l54 2v18q0 30 -19.5 43t-49.5 13q-26 0 -51.5 -7.5t-50.5 -19.5l-25 54q28 14 62.5 23t72.5 9zM197 538
q-55 -2 -74 -17.5t-19 -39.5t13.5 -34.5t35.5 -10.5q47 0 69.5 22.5t22.5 60.5v21z" />
    <glyph glyph-name="guillemotleft" unicode="&#xab;" horiz-adv-x="540" 
d="M40 273l172 207l76 -42l-139 -171l139 -171l-76 -43l-172 207v13zM252 273l174 207l75 -42l-139 -171l139 -171l-75 -43l-174 207v13z" />
    <glyph glyph-name="logicalnot" unicode="&#xac;" horiz-adv-x="572" 
d="M522 393v-267h-81v186h-393v81h474z" />
    <glyph glyph-name="uni00AD" unicode="&#xad;" horiz-adv-x="322" 
d="M37 223v90h248v-90h-248z" />
    <glyph glyph-name="registered" unicode="&#xae;" horiz-adv-x="832" 
d="M278 138v438h129q82 0 120 -32.5t38 -97.5q0 -47 -24 -74.5t-54 -39.5l116 -194h-87l-99 172h-62v-172h-77zM405 373q39 0 60.5 20t21.5 51q0 35 -19.5 51t-63.5 16h-49v-138h50zM416 -10q-80 0 -147 27t-116.5 76.5t-76.5 116.5t-27 147q0 79 27 146t77 116.5t117 77
t146 27.5q76 0 142.5 -27t117 -76.5t79 -116.5t28.5 -147t-27 -147t-76.5 -116.5t-116.5 -76.5t-147 -27zM416 46q63 0 118.5 23t98 65t66 98.5t23.5 124.5q0 64 -23 120.5t-64 99.5t-96.5 67t-122.5 24t-123 -23t-97.5 -64.5t-64 -98.5t-22.5 -125q0 -65 22.5 -121.5
t63.5 -99t97.5 -66.5t123.5 -24z" />
    <glyph glyph-name="overscore" unicode="&#xaf;" horiz-adv-x="500" 
d="M503 760h-506v75h506v-75z" />
    <glyph glyph-name="degree" unicode="&#xb0;" horiz-adv-x="428" 
d="M214 408q-49 0 -85.5 20t-57.5 55.5t-21 82.5q0 46 20.5 82t57 56t86.5 20q48 0 85 -20t57.5 -55.5t20.5 -82.5t-20.5 -82.5t-57.5 -55.5t-85 -20zM215 477q43 0 65.5 24.5t22.5 64.5q0 41 -23 65.5t-65 24.5q-44 0 -67 -24.5t-23 -65.5q0 -40 23 -64.5t67 -24.5z" />
    <glyph glyph-name="plusminus" unicode="&#xb1;" horiz-adv-x="572" 
d="M48 0v82h475v-82h-475zM326 404h196v-81h-196v-201h-82v201h-196v81h196v202h82v-202z" />
    <glyph glyph-name="uni00B2" unicode="&#xb2;" horiz-adv-x="359" 
d="M317 416h-292v62l113 111q38 36 57.5 59t27 41.5t7.5 38.5q0 28 -16.5 42.5t-43.5 14.5t-50.5 -11t-49.5 -32l-43 54q30 26 66 41.5t82 15.5q64 0 101.5 -31.5t37.5 -87.5q0 -32 -12.5 -59t-38 -55t-62.5 -64l-72 -67h188v-73z" />
    <glyph glyph-name="uni00B3" unicode="&#xb3;" horiz-adv-x="359" 
d="M171 853q68 0 105 -31t37 -80q0 -38 -21 -63.5t-55 -36.5v-4q42 -8 65.5 -34.5t23.5 -65.5q0 -58 -42 -94t-132 -36q-37 0 -69 7t-62 23v72q33 -17 66.5 -27t65.5 -10q47 0 69 18.5t22 50.5q0 31 -25.5 47.5t-76.5 16.5h-56v61h53q51 0 71.5 19t20.5 46q0 29 -18 42.5
t-46 13.5t-53 -10t-52 -28l-40 53q31 23 66 36.5t83 13.5z" />
    <glyph glyph-name="acute" unicode="&#xb4;" horiz-adv-x="305" 
d="M265 756q-11 -14 -29.5 -34t-41 -41.5t-44.5 -41t-40 -33.5h-70v12q15 19 34 45t37 53.5t30 49.5h124v-10z" />
    <glyph glyph-name="uni00B5" unicode="&#xb5;" horiz-adv-x="634" 
d="M551 539v-539h-83l-16 72h-6q-16 -26 -37.5 -44.5t-49 -28t-63.5 -9.5t-63 12t-45 33h-4q2 -12 3 -30.5t1.5 -41.5t0.5 -47v-156h-106v779h106v-338q0 -61 27.5 -92.5t83.5 -31.5q55 0 86.5 22t45 64.5t13.5 102.5v273h106z" />
    <glyph glyph-name="paragraph" unicode="&#xb6;" horiz-adv-x="655" 
d="M555 -127h-64v819h-96v-819h-64v400q-15 -4 -34 -6.5t-37 -2.5q-62 0 -108 23t-71.5 77t-25.5 145q0 96 27.5 150.5t77.5 77.5t115 23h280v-887z" />
    <glyph glyph-name="periodcentered" unicode="&#xb7;" horiz-adv-x="273" 
d="M68 353q0 39 20 55t48 16q29 0 49 -16t20 -55t-20 -56t-49 -17q-28 0 -48 17t-20 56z" />
    <glyph glyph-name="cedilla" unicode="&#xb8;" horiz-adv-x="219" 
d="M210 -134q0 -50 -36 -78t-113 -28q-17 0 -32 2t-24 4v63q10 -2 26.5 -4t31.5 -2q29 0 45.5 8.5t16.5 31.5t-24 36t-64 18l42 83h68l-22 -46q23 -6 42.5 -17t31 -28t11.5 -43z" />
    <glyph glyph-name="uni00B9" unicode="&#xb9;" horiz-adv-x="359" 
d="M253 844v-428h-84v259q0 16 0.5 32.5t1.5 32t2 27.5q-9 -8 -21 -19t-23 -19l-49 -37l-41 53l135 99h79z" />
    <glyph glyph-name="ordmasculine" unicode="&#xba;" horiz-adv-x="380" 
d="M349 551q0 -83 -43.5 -128t-116.5 -45q-69 0 -113.5 44.5t-44.5 128.5q0 83 43 127t117 44q47 0 82.5 -20t55.5 -58t20 -93zM104 551q0 -56 20.5 -84t65.5 -28t65 28t20 84t-20 83t-65 27t-65.5 -27t-20.5 -83z" />
    <glyph glyph-name="guillemotright" unicode="&#xbb;" horiz-adv-x="540" 
d="M500 260l-173 -207l-75 43l139 171l-139 171l75 42l173 -207v-13zM287 260l-172 -207l-76 43l139 171l-139 171l76 42l172 -207v-13z" />
    <glyph glyph-name="onequarter" unicode="&#xbc;" horiz-adv-x="770" 
d="M135 0l424 714h87l-424 -714h-87zM160 545q0 16 0.5 32.5t1.5 32t2 27.5q-9 -8 -20.5 -19t-23.5 -19l-49 -37l-41 53l135 99h79v-428h-84v259zM613 0v90h-193v58l195 283h85v-275h61v-66h-61v-90h-87zM496 156h117v89q0 21 1 47.5t2 50.5q-5 -12 -20 -36.5t-25 -40.5z
" />
    <glyph glyph-name="onehalf" unicode="&#xbd;" horiz-adv-x="801" 
d="M114 0l424 714h87l-424 -714h-87zM152 545q0 12 0.5 24.5t1 24.5t1 23.5t1.5 19.5q-9 -8 -21 -19t-23 -19l-50 -37l-40 53l135 99h79v-428h-84v259zM468 0v62l113 111q38 36 57.5 59t26.5 41.5t7 38.5q0 28 -16.5 42.5t-43.5 14.5q-26 0 -50 -11t-50 -32l-42 54
q30 26 66 41.5t82 15.5q64 0 101.5 -31.5t37.5 -87.5q0 -32 -13 -59t-38 -55t-62 -64l-72 -67h188v-73h-292z" />
    <glyph glyph-name="threequarters" unicode="&#xbe;" horiz-adv-x="800" 
d="M176 0l424 714h88l-424 -714h-88zM155 278q-37 0 -69 7t-62 23v72q33 -17 66.5 -27t65.5 -10q47 0 69 18.5t22 50.5q0 31 -25.5 47.5t-76.5 16.5h-56v61h53q51 0 71.5 19t20.5 46q0 29 -18 42.5t-46 13.5t-53 -10t-52 -28l-40 53q31 23 66 36.5t83 13.5q68 0 105 -31
t37 -80q0 -38 -21 -63.5t-55 -36.5v-4q42 -8 65.5 -34.5t23.5 -65.5q0 -58 -42 -94t-132 -36zM643 0v90h-193v58l194 283h86v-275h61v-66h-61v-90h-87zM526 156h117v89q0 21 1 47.5t2 50.5q-5 -12 -20 -36.5t-25 -40.5z" />
    <glyph glyph-name="questiondown" unicode="&#xbf;" horiz-adv-x="447" 
d="M308 291q0 -36 -8 -63.5t-27 -51.5t-52 -51q-36 -29 -57 -49.5t-29.5 -40.5t-8.5 -48q0 -43 29 -66t82 -23q48 0 87 13t75 30l38 -80q-43 -23 -94 -38t-113 -15q-98 0 -151.5 48t-53.5 128q0 43 14 74.5t40.5 57.5t63.5 56q32 27 49 45.5t22.5 37.5t5.5 45v20h88v-29z
M329 473q0 -39 -20 -55t-50 -16q-27 0 -47.5 16t-20.5 55t20.5 56t47.5 17q30 0 50 -17t20 -56z" />
    <glyph glyph-name="Agrave" unicode="&#xc0;" horiz-adv-x="654" 
d="M540 0l-76 206h-276l-76 -206h-112l271 717h112l270 -717h-113zM362 501q-3 11 -10.5 33.5t-14.5 46t-11 38.5q-5 -20 -11.5 -43.5t-12.5 -43t-10 -31.5l-72 -201h214zM304 941q12 -22 30 -49.5t37.5 -53.5t34.5 -45v-12h-71q-17 14 -39.5 33.5t-45 41t-41 41.5t-28.5 34
v10h123z" />
    <glyph glyph-name="Aacute" unicode="&#xc1;" horiz-adv-x="654" 
d="M540 0l-76 206h-276l-76 -206h-112l271 717h112l270 -717h-113zM362 501q-3 11 -10.5 33.5t-14.5 46t-11 38.5q-5 -20 -11.5 -43.5t-12.5 -43t-10 -31.5l-72 -201h214zM493 931q-11 -14 -29.5 -34t-41 -41.5t-44.5 -41t-40 -33.5h-70v12q15 19 34 45t37 53.5t30 49.5h124
v-10z" />
    <glyph glyph-name="Acircumflex" unicode="&#xc2;" horiz-adv-x="654" 
d="M540 0l-76 206h-276l-76 -206h-112l271 717h112l270 -717h-113zM362 501q-3 11 -10.5 33.5t-14.5 46t-11 38.5q-5 -20 -11.5 -43.5t-12.5 -43t-10 -31.5l-72 -201h214zM382 941q13 -22 35.5 -49.5t47 -54t42.5 -44.5v-12h-73q-26 16 -54.5 39t-55.5 50
q-27 -27 -54.5 -49.5t-53.5 -39.5h-72v12q19 19 42.5 45t45.5 53.5t36 49.5h114z" />
    <glyph glyph-name="Atilde" unicode="&#xc3;" horiz-adv-x="654" 
d="M540 0l-76 206h-276l-76 -206h-112l271 717h112l270 -717h-113zM362 501q-3 11 -10.5 33.5t-14.5 46t-11 38.5q-5 -20 -11.5 -43.5t-12.5 -43t-10 -31.5l-72 -201h214zM137 781q3 32 12.5 57t24.5 42t35 26t45 9q21 0 41.5 -8t39 -19t36.5 -19.5t34 -8.5q21 0 34 14
t19 42h57q-6 -63 -37 -98.5t-79 -35.5q-21 0 -40.5 8t-39 19.5t-37 19.5t-34.5 8q-22 0 -34.5 -14t-19.5 -42h-57z" />
    <glyph glyph-name="Adieresis" unicode="&#xc4;" horiz-adv-x="654" 
d="M540 0l-76 206h-276l-76 -206h-112l271 717h112l270 -717h-113zM362 501q-3 11 -10.5 33.5t-14.5 46t-11 38.5q-5 -20 -11.5 -43.5t-12.5 -43t-10 -31.5l-72 -201h214zM178 857q0 29 16 41.5t37 12.5q22 0 38 -12.5t16 -40.5t-16 -41.5t-38 -13.5q-21 0 -37 13.5
t-16 40.5zM369 857q0 29 15.5 41.5t37.5 12.5q21 0 37 -12.5t16 -40.5t-16 -41.5t-37 -13.5q-22 0 -37.5 13.5t-15.5 40.5z" />
    <glyph glyph-name="Aring" unicode="&#xc5;" horiz-adv-x="654" 
d="M540 0l-76 206h-276l-76 -206h-112l271 717h112l270 -717h-113zM362 501q-3 11 -10.5 33.5t-14.5 46t-11 38.5q-5 -20 -11.5 -43.5t-12.5 -43t-10 -31.5l-72 -201h214zM325 662q-51 0 -82 28.5t-31 80.5q0 51 31 79.5t82 28.5q48 0 81 -28.5t33 -78.5q0 -53 -32.5 -81.5
t-81.5 -28.5zM325 717q23 0 38 14.5t15 39.5q0 24 -15.5 38.5t-37.5 14.5q-23 0 -38.5 -14.5t-15.5 -38.5q0 -25 14 -39.5t40 -14.5z" />
    <glyph glyph-name="AE" unicode="&#xc6;" horiz-adv-x="902" 
d="M842 0h-388v206h-247l-97 -206h-111l334 714h509v-92h-280v-204h262v-91h-262v-234h280v-93zM248 300h206v320h-59z" />
    <glyph glyph-name="Ccedilla" unicode="&#xc7;" horiz-adv-x="633" 
d="M400 631q-53 0 -95 -18.5t-71.5 -54.5t-45 -87t-15.5 -115q0 -84 25 -145.5t75 -94.5t126 -33q46 0 88.5 8.5t86.5 22.5v-93q-42 -16 -86 -23.5t-102 -7.5q-109 0 -181.5 45t-108.5 128t-36 194q0 81 22.5 148.5t65.5 116.5t106.5 75.5t146.5 26.5q54 0 106 -11.5
t94 -32.5l-40 -90q-35 16 -75.5 28.5t-85.5 12.5zM477 -134q0 -50 -36 -78t-113 -28q-17 0 -32 2t-24 4v63q10 -2 26.5 -4t31.5 -2q29 0 45.5 8.5t16.5 31.5t-24 36t-64 18l42 83h68l-22 -46q23 -6 42.5 -17t31 -28t11.5 -43z" />
    <glyph glyph-name="Egrave" unicode="&#xc8;" horiz-adv-x="557" 
d="M497 0h-402v714h402v-92h-294v-204h276v-91h-276v-234h294v-93zM282 941q12 -22 30 -49.5t37.5 -53.5t34.5 -45v-12h-71q-17 14 -39.5 33.5t-45 41t-41 41.5t-28.5 34v10h123z" />
    <glyph glyph-name="Eacute" unicode="&#xc9;" horiz-adv-x="557" 
d="M497 0h-402v714h402v-92h-294v-204h276v-91h-276v-234h294v-93zM471 931q-11 -14 -29.5 -34t-41 -41.5t-44.5 -41t-40 -33.5h-70v12q15 19 34 45t37 53.5t30 49.5h124v-10z" />
    <glyph glyph-name="Ecircumflex" unicode="&#xca;" horiz-adv-x="557" 
d="M497 0h-402v714h402v-92h-294v-204h276v-91h-276v-234h294v-93zM360 941q13 -22 35.5 -49.5t47 -54t42.5 -44.5v-12h-73q-26 16 -54.5 39t-55.5 50q-27 -27 -54.5 -49.5t-53.5 -39.5h-72v12q19 19 42.5 45t45.5 53.5t36 49.5h114z" />
    <glyph glyph-name="Edieresis" unicode="&#xcb;" horiz-adv-x="557" 
d="M497 0h-402v714h402v-92h-294v-204h276v-91h-276v-234h294v-93zM155 857q0 29 16 41.5t37 12.5q22 0 38 -12.5t16 -40.5t-16 -41.5t-38 -13.5q-21 0 -37 13.5t-16 40.5zM346 857q0 29 15.5 41.5t37.5 12.5q21 0 37 -12.5t16 -40.5t-16 -41.5t-37 -13.5q-22 0 -37.5 13.5
t-15.5 40.5z" />
    <glyph glyph-name="Igrave" unicode="&#xcc;" horiz-adv-x="354" 
d="M315 0h-277v62l85 25v539l-85 26v62h277v-62l-84 -26v-539l84 -25v-62zM155 941q12 -22 30 -49.5t37.5 -53.5t34.5 -45v-12h-71q-17 14 -39.5 33.5t-45 41t-41 41.5t-28.5 34v10h123z" />
    <glyph glyph-name="Iacute" unicode="&#xcd;" horiz-adv-x="354" 
d="M315 0h-277v62l85 25v539l-85 26v62h277v-62l-84 -26v-539l84 -25v-62zM344 931q-11 -14 -29.5 -34t-41 -41.5t-44.5 -41t-40 -33.5h-70v12q15 19 34 45t37 53.5t30 49.5h124v-10z" />
    <glyph glyph-name="Icircumflex" unicode="&#xce;" horiz-adv-x="354" 
d="M315 0h-277v62l85 25v539l-85 26v62h277v-62l-84 -26v-539l84 -25v-62zM234 941q13 -22 35.5 -49.5t47 -54t42.5 -44.5v-12h-73q-26 16 -54.5 39t-55.5 50q-27 -27 -54.5 -49.5t-53.5 -39.5h-72v12q19 19 42.5 45t45.5 53.5t36 49.5h114z" />
    <glyph glyph-name="Idieresis" unicode="&#xcf;" horiz-adv-x="354" 
d="M315 0h-277v62l85 25v539l-85 26v62h277v-62l-84 -26v-539l84 -25v-62zM29 857q0 29 16 41.5t37 12.5q22 0 38 -12.5t16 -40.5t-16 -41.5t-38 -13.5q-21 0 -37 13.5t-16 40.5zM220 857q0 29 15.5 41.5t37.5 12.5q21 0 37 -12.5t16 -40.5t-16 -41.5t-37 -13.5
q-22 0 -37.5 13.5t-15.5 40.5z" />
    <glyph glyph-name="Eth" unicode="&#xd0;" horiz-adv-x="733" 
d="M316 714q109 0 189 -40t124 -117.5t44 -192.5q0 -120 -45 -201t-129.5 -122t-204.5 -41h-194v307h-72v92h72v315h216zM309 623h-101v-224h160v-92h-160v-216h82q136 0 203 68t67 202q0 90 -30 148t-85.5 86t-135.5 28z" />
    <glyph glyph-name="Ntilde" unicode="&#xd1;" horiz-adv-x="776" 
d="M681 0h-131l-361 577h-4q2 -26 3.5 -58t3 -67t1.5 -72v-380h-98v714h130l360 -574h3q-1 21 -2 53t-2.5 68.5t-2.5 68.5v384h100v-714zM199 781q3 32 12.5 57t24.5 42t35 26t45 9q21 0 41.5 -8t39 -19t36.5 -19.5t34 -8.5q21 0 34 14t19 42h57q-6 -63 -37 -98.5t-79 -35.5
q-21 0 -40.5 8t-39 19.5t-37 19.5t-34.5 8q-22 0 -34.5 -14t-19.5 -42h-57z" />
    <glyph glyph-name="Ograve" unicode="&#xd2;" horiz-adv-x="785" 
d="M725 358q0 -83 -20.5 -150.5t-62 -116.5t-104 -75t-145.5 -26q-85 0 -147.5 26.5t-104 75t-61.5 116.5t-20 151q0 110 36 192t110.5 128t187.5 46q110 0 183.5 -45.5t110.5 -128t37 -193.5zM174 358q0 -86 23 -147.5t72 -95t124 -33.5q76 0 124 33.5t71 95t23 147.5
q0 129 -51.5 201.5t-165.5 72.5q-76 0 -125 -33t-72 -94t-23 -147zM371 941q12 -22 30 -49.5t37.5 -53.5t34.5 -45v-12h-71q-17 14 -39.5 33.5t-45 41t-41 41.5t-28.5 34v10h123z" />
    <glyph glyph-name="Oacute" unicode="&#xd3;" horiz-adv-x="785" 
d="M725 358q0 -83 -20.5 -150.5t-62 -116.5t-104 -75t-145.5 -26q-85 0 -147.5 26.5t-104 75t-61.5 116.5t-20 151q0 110 36 192t110.5 128t187.5 46q110 0 183.5 -45.5t110.5 -128t37 -193.5zM174 358q0 -86 23 -147.5t72 -95t124 -33.5q76 0 124 33.5t71 95t23 147.5
q0 129 -51.5 201.5t-165.5 72.5q-76 0 -125 -33t-72 -94t-23 -147zM560 931q-11 -14 -29.5 -34t-41 -41.5t-44.5 -41t-40 -33.5h-70v12q15 19 34 45t37 53.5t30 49.5h124v-10z" />
    <glyph glyph-name="Ocircumflex" unicode="&#xd4;" horiz-adv-x="785" 
d="M725 358q0 -83 -20.5 -150.5t-62 -116.5t-104 -75t-145.5 -26q-85 0 -147.5 26.5t-104 75t-61.5 116.5t-20 151q0 110 36 192t110.5 128t187.5 46q110 0 183.5 -45.5t110.5 -128t37 -193.5zM174 358q0 -86 23 -147.5t72 -95t124 -33.5q76 0 124 33.5t71 95t23 147.5
q0 129 -51.5 201.5t-165.5 72.5q-76 0 -125 -33t-72 -94t-23 -147zM449 941q13 -22 35.5 -49.5t47 -54t42.5 -44.5v-12h-73q-26 16 -54.5 39t-55.5 50q-27 -27 -54.5 -49.5t-53.5 -39.5h-72v12q19 19 42.5 45t45.5 53.5t36 49.5h114z" />
    <glyph glyph-name="Otilde" unicode="&#xd5;" horiz-adv-x="785" 
d="M725 358q0 -83 -20.5 -150.5t-62 -116.5t-104 -75t-145.5 -26q-85 0 -147.5 26.5t-104 75t-61.5 116.5t-20 151q0 110 36 192t110.5 128t187.5 46q110 0 183.5 -45.5t110.5 -128t37 -193.5zM174 358q0 -86 23 -147.5t72 -95t124 -33.5q76 0 124 33.5t71 95t23 147.5
q0 129 -51.5 201.5t-165.5 72.5q-76 0 -125 -33t-72 -94t-23 -147zM204 781q3 32 12.5 57t24.5 42t35 26t45 9q21 0 41.5 -8t39 -19t36.5 -19.5t34 -8.5q21 0 34 14t19 42h57q-6 -63 -37 -98.5t-79 -35.5q-21 0 -40.5 8t-39 19.5t-37 19.5t-34.5 8q-22 0 -34.5 -14
t-19.5 -42h-57z" />
    <glyph glyph-name="Odieresis" unicode="&#xd6;" horiz-adv-x="785" 
d="M725 358q0 -83 -20.5 -150.5t-62 -116.5t-104 -75t-145.5 -26q-85 0 -147.5 26.5t-104 75t-61.5 116.5t-20 151q0 110 36 192t110.5 128t187.5 46q110 0 183.5 -45.5t110.5 -128t37 -193.5zM174 358q0 -86 23 -147.5t72 -95t124 -33.5q76 0 124 33.5t71 95t23 147.5
q0 129 -51.5 201.5t-165.5 72.5q-76 0 -125 -33t-72 -94t-23 -147zM245 857q0 29 16 41.5t37 12.5q22 0 38 -12.5t16 -40.5t-16 -41.5t-38 -13.5q-21 0 -37 13.5t-16 40.5zM436 857q0 29 15.5 41.5t37.5 12.5q21 0 37 -12.5t16 -40.5t-16 -41.5t-37 -13.5q-22 0 -37.5 13.5
t-15.5 40.5z" />
    <glyph glyph-name="multiply" unicode="&#xd7;" horiz-adv-x="572" 
d="M449 574l58 -57l-164 -164l162 -164l-56 -57l-165 162l-161 -162l-58 58l162 163l-163 163l58 58l163 -163z" />
    <glyph glyph-name="Oslash" unicode="&#xd8;" horiz-adv-x="785" 
d="M725 358q0 -83 -20.5 -150.5t-62 -116.5t-104 -75t-145.5 -26q-54 0 -98.5 11t-80.5 32l-47 -68l-66 44l50 72q-46 49 -68.5 119.5t-22.5 158.5q0 110 36 192t110.5 128t187.5 46q51 0 95 -11t80 -31l45 65l66 -44l-49 -69q47 -48 70.5 -118.5t23.5 -158.5zM611 358
q0 117 -43 185l-297 -428q23 -15 54 -24t68 -9q76 0 124 33.5t71 95t23 147.5zM174 358q0 -56 10 -102.5t31 -81.5l298 427q-23 15 -53 23t-66 8q-76 0 -125 -33t-72 -94t-23 -147z" />
    <glyph glyph-name="Ugrave" unicode="&#xd9;" horiz-adv-x="738" 
d="M649 252q0 -74 -30.5 -133.5t-93.5 -94t-159 -34.5q-136 0 -206.5 72.5t-70.5 191.5v460h108v-455q0 -88 43 -132.5t131 -44.5q60 0 98 22t55.5 61.5t17.5 94.5v454h107v-462zM347 941q12 -22 30 -49.5t37.5 -53.5t34.5 -45v-12h-71q-17 14 -39.5 33.5t-45 41t-41 41.5
t-28.5 34v10h123z" />
    <glyph glyph-name="Uacute" unicode="&#xda;" horiz-adv-x="738" 
d="M649 252q0 -74 -30.5 -133.5t-93.5 -94t-159 -34.5q-136 0 -206.5 72.5t-70.5 191.5v460h108v-455q0 -88 43 -132.5t131 -44.5q60 0 98 22t55.5 61.5t17.5 94.5v454h107v-462zM536 931q-11 -14 -29.5 -34t-41 -41.5t-44.5 -41t-40 -33.5h-70v12q15 19 34 45t37 53.5
t30 49.5h124v-10z" />
    <glyph glyph-name="Ucircumflex" unicode="&#xdb;" horiz-adv-x="738" 
d="M649 252q0 -74 -30.5 -133.5t-93.5 -94t-159 -34.5q-136 0 -206.5 72.5t-70.5 191.5v460h108v-455q0 -88 43 -132.5t131 -44.5q60 0 98 22t55.5 61.5t17.5 94.5v454h107v-462zM426 941q13 -22 35.5 -49.5t47 -54t42.5 -44.5v-12h-73q-26 16 -54.5 39t-55.5 50
q-27 -27 -54.5 -49.5t-53.5 -39.5h-72v12q19 19 42.5 45t45.5 53.5t36 49.5h114z" />
    <glyph glyph-name="Udieresis" unicode="&#xdc;" horiz-adv-x="738" 
d="M649 252q0 -74 -30.5 -133.5t-93.5 -94t-159 -34.5q-136 0 -206.5 72.5t-70.5 191.5v460h108v-455q0 -88 43 -132.5t131 -44.5q60 0 98 22t55.5 61.5t17.5 94.5v454h107v-462zM221 857q0 29 16 41.5t37 12.5q22 0 38 -12.5t16 -40.5t-16 -41.5t-38 -13.5q-21 0 -37 13.5
t-16 40.5zM412 857q0 29 15.5 41.5t37.5 12.5q21 0 37 -12.5t16 -40.5t-16 -41.5t-37 -13.5q-22 0 -37.5 13.5t-15.5 40.5z" />
    <glyph glyph-name="Yacute" unicode="&#xdd;" horiz-adv-x="583" 
d="M292 380l175 334h116l-238 -437v-277h-107v273l-238 441h117zM458 931q-11 -14 -29.5 -34t-41 -41.5t-44.5 -41t-40 -33.5h-70v12q15 19 34 45t37 53.5t30 49.5h124v-10z" />
    <glyph glyph-name="Thorn" unicode="&#xde;" horiz-adv-x="612" 
d="M563 380q0 -45 -14 -86t-46.5 -73t-86.5 -51t-134 -19h-79v-151h-108v714h108v-120h93q141 0 204 -57t63 -157zM268 241q63 0 103.5 13.5t60.5 44t20 78.5q0 64 -40 95t-128 31h-81v-262h65z" />
    <glyph glyph-name="germandbls" unicode="&#xdf;" horiz-adv-x="655" 
d="M548 614q0 -35 -14 -61t-35 -45.5t-42 -35.5t-35 -30.5t-14 -30.5q0 -13 7.5 -24t27.5 -25.5t57 -39.5q35 -22 60 -46t39 -52.5t14 -68.5q0 -57 -24.5 -93.5t-68.5 -54t-105 -17.5q-47 0 -83 8.5t-63 24.5v91q17 -10 40 -20t49.5 -16t51.5 -6q50 0 73.5 20.5t23.5 57.5
q0 22 -8 39t-28.5 34t-57.5 40q-41 26 -65 47t-34 43t-10 48q0 31 13.5 53t34 38l41 32t34 34t13.5 45q0 38 -34.5 57t-87.5 19q-35 0 -64.5 -9.5t-47 -32t-17.5 -63.5v-574h-106v576q0 68 31 109.5t84 60.5t120 19q68 0 120 -17t81 -50.5t29 -83.5z" />
    <glyph glyph-name="agrave" unicode="&#xe0;" horiz-adv-x="574" 
d="M292 549q102 0 152 -44.5t50 -139.5v-365h-75l-21 75h-4q-23 -29 -47.5 -48t-56 -28t-76.5 -9q-48 0 -86.5 17.5t-60.5 54t-22 91.5q0 82 62.5 125t190.5 47l92 3v30q0 60 -27 84t-76 24q-42 0 -80 -12t-72 -29l-34 77q38 20 87.5 33.5t103.5 13.5zM317 257
q-92 -4 -127.5 -30.5t-35.5 -74.5q0 -42 25.5 -61t64.5 -19q63 0 104 35t41 105v47zM265 766q12 -22 30 -49.5t37.5 -53.5t34.5 -45v-12h-71q-17 14 -39.5 33.5t-45 41t-41 41.5t-28.5 34v10h123z" />
    <glyph glyph-name="aacute" unicode="&#xe1;" horiz-adv-x="574" 
d="M292 549q102 0 152 -44.5t50 -139.5v-365h-75l-21 75h-4q-23 -29 -47.5 -48t-56 -28t-76.5 -9q-48 0 -86.5 17.5t-60.5 54t-22 91.5q0 82 62.5 125t190.5 47l92 3v30q0 60 -27 84t-76 24q-42 0 -80 -12t-72 -29l-34 77q38 20 87.5 33.5t103.5 13.5zM317 257
q-92 -4 -127.5 -30.5t-35.5 -74.5q0 -42 25.5 -61t64.5 -19q63 0 104 35t41 105v47zM454 756q-11 -14 -29.5 -34t-41 -41.5t-44.5 -41t-40 -33.5h-70v12q15 19 34 45t37 53.5t30 49.5h124v-10z" />
    <glyph glyph-name="acircumflex" unicode="&#xe2;" horiz-adv-x="574" 
d="M292 549q102 0 152 -44.5t50 -139.5v-365h-75l-21 75h-4q-23 -29 -47.5 -48t-56 -28t-76.5 -9q-48 0 -86.5 17.5t-60.5 54t-22 91.5q0 82 62.5 125t190.5 47l92 3v30q0 60 -27 84t-76 24q-42 0 -80 -12t-72 -29l-34 77q38 20 87.5 33.5t103.5 13.5zM317 257
q-92 -4 -127.5 -30.5t-35.5 -74.5q0 -42 25.5 -61t64.5 -19q63 0 104 35t41 105v47zM344 766q13 -22 35.5 -49.5t47 -54t42.5 -44.5v-12h-73q-26 16 -54.5 39t-55.5 50q-27 -27 -54.5 -49.5t-53.5 -39.5h-72v12q19 19 42.5 45t45.5 53.5t36 49.5h114z" />
    <glyph glyph-name="atilde" unicode="&#xe3;" horiz-adv-x="574" 
d="M292 549q102 0 152 -44.5t50 -139.5v-365h-75l-21 75h-4q-23 -29 -47.5 -48t-56 -28t-76.5 -9q-48 0 -86.5 17.5t-60.5 54t-22 91.5q0 82 62.5 125t190.5 47l92 3v30q0 60 -27 84t-76 24q-42 0 -80 -12t-72 -29l-34 77q38 20 87.5 33.5t103.5 13.5zM317 257
q-92 -4 -127.5 -30.5t-35.5 -74.5q0 -42 25.5 -61t64.5 -19q63 0 104 35t41 105v47zM99 606q3 32 12.5 57t24.5 42t35 26t45 9q21 0 41.5 -8t39 -19t36.5 -19.5t34 -8.5q21 0 34 14t19 42h57q-6 -63 -37 -98.5t-79 -35.5q-21 0 -40.5 8t-39 19.5t-37 19.5t-34.5 8
q-22 0 -34.5 -14t-19.5 -42h-57z" />
    <glyph glyph-name="adieresis" unicode="&#xe4;" horiz-adv-x="574" 
d="M292 549q102 0 152 -44.5t50 -139.5v-365h-75l-21 75h-4q-23 -29 -47.5 -48t-56 -28t-76.5 -9q-48 0 -86.5 17.5t-60.5 54t-22 91.5q0 82 62.5 125t190.5 47l92 3v30q0 60 -27 84t-76 24q-42 0 -80 -12t-72 -29l-34 77q38 20 87.5 33.5t103.5 13.5zM317 257
q-92 -4 -127.5 -30.5t-35.5 -74.5q0 -42 25.5 -61t64.5 -19q63 0 104 35t41 105v47zM139 682q0 29 16 41.5t37 12.5q22 0 38 -12.5t16 -40.5t-16 -41.5t-38 -13.5q-21 0 -37 13.5t-16 40.5zM330 682q0 29 15.5 41.5t37.5 12.5q21 0 37 -12.5t16 -40.5t-16 -41.5t-37 -13.5
q-22 0 -37.5 13.5t-15.5 40.5z" />
    <glyph glyph-name="aring" unicode="&#xe5;" horiz-adv-x="574" 
d="M292 549q102 0 152 -44.5t50 -139.5v-365h-75l-21 75h-4q-23 -29 -47.5 -48t-56 -28t-76.5 -9q-48 0 -86.5 17.5t-60.5 54t-22 91.5q0 82 62.5 125t190.5 47l92 3v30q0 60 -27 84t-76 24q-42 0 -80 -12t-72 -29l-34 77q38 20 87.5 33.5t103.5 13.5zM317 257
q-92 -4 -127.5 -30.5t-35.5 -74.5q0 -42 25.5 -61t64.5 -19q63 0 104 35t41 105v47zM286 606q-51 0 -82 28.5t-31 80.5q0 51 31 79.5t82 28.5q48 0 81 -28.5t33 -78.5q0 -53 -32.5 -81.5t-81.5 -28.5zM286 661q23 0 38 14.5t15 39.5q0 24 -15.5 38.5t-37.5 14.5
q-23 0 -38.5 -14.5t-15.5 -38.5q0 -25 14 -39.5t40 -14.5z" />
    <glyph glyph-name="ae" unicode="&#xe6;" horiz-adv-x="880" 
d="M614 549q66 0 115 -29.5t75.5 -84t26.5 -128.5v-60h-346q2 -86 40.5 -128.5t108.5 -42.5q50 0 90.5 9.5t80.5 28.5v-88q-40 -18 -80.5 -27t-94.5 -9q-45 0 -84 12t-69.5 36.5t-52.5 60.5q-24 -34 -52.5 -58.5t-65.5 -37.5t-90 -13q-48 0 -86.5 17.5t-61.5 54t-23 91.5
t26.5 92.5t80.5 57.5t134 22l91 3v36q0 56 -27.5 79t-75.5 23q-39 0 -77 -11.5t-72 -28.5l-33 76q37 21 88 34t102 13q60 0 101 -19.5t64 -60.5q28 38 70 59t97 21zM307 257q-86 -4 -119.5 -30.5t-33.5 -74.5q0 -42 23.5 -61t62.5 -19q38 0 69 15.5t49 46.5t18 78v47z
M613 467q-56 0 -88.5 -36t-37.5 -106h237q0 42 -12 74t-36.5 50t-62.5 18z" />
    <glyph glyph-name="ccedilla" unicode="&#xe7;" horiz-adv-x="490" 
d="M300 -10q-74 0 -130 29t-87 90.5t-31 156.5q0 100 33.5 162t91 91.5t131.5 29.5q45 0 84.5 -9.5t65.5 -21.5l-32 -86q-28 11 -59.5 19t-59.5 8q-50 0 -82.5 -21.5t-48 -64t-15.5 -106.5q0 -61 16 -103t47.5 -63.5t78.5 -21.5q45 0 79 10t64 26v-92q-29 -17 -63 -25
t-83 -8zM390 -134q0 -50 -36 -78t-113 -28q-17 0 -32 2t-24 4v63q10 -2 26.5 -4t31.5 -2q29 0 45.5 8.5t16.5 31.5t-24 36t-64 18l42 83h68l-22 -46q23 -6 42.5 -17t31 -28t11.5 -43z" />
    <glyph glyph-name="egrave" unicode="&#xe8;" horiz-adv-x="572" 
d="M295 549q71 0 122 -29.5t78.5 -84.5t27.5 -130v-58h-362q2 -83 43.5 -127t116.5 -44q52 0 92.5 9.5t83.5 28.5v-88q-40 -18 -81.5 -27t-98.5 -9q-78 0 -138 31t-93.5 92.5t-33.5 151.5q0 91 30.5 154t85 96.5t127.5 33.5zM295 467q-57 0 -91.5 -37t-40.5 -105h254
q0 42 -13 74t-40 50t-69 18zM266 766q12 -22 30 -49.5t37.5 -53.5t34.5 -45v-12h-71q-17 14 -39.5 33.5t-45 41t-41 41.5t-28.5 34v10h123z" />
    <glyph glyph-name="eacute" unicode="&#xe9;" horiz-adv-x="572" 
d="M295 549q71 0 122 -29.5t78.5 -84.5t27.5 -130v-58h-362q2 -83 43.5 -127t116.5 -44q52 0 92.5 9.5t83.5 28.5v-88q-40 -18 -81.5 -27t-98.5 -9q-78 0 -138 31t-93.5 92.5t-33.5 151.5q0 91 30.5 154t85 96.5t127.5 33.5zM295 467q-57 0 -91.5 -37t-40.5 -105h254
q0 42 -13 74t-40 50t-69 18zM455 756q-11 -14 -29.5 -34t-41 -41.5t-44.5 -41t-40 -33.5h-70v12q15 19 34 45t37 53.5t30 49.5h124v-10z" />
    <glyph glyph-name="ecircumflex" unicode="&#xea;" horiz-adv-x="572" 
d="M295 549q71 0 122 -29.5t78.5 -84.5t27.5 -130v-58h-362q2 -83 43.5 -127t116.5 -44q52 0 92.5 9.5t83.5 28.5v-88q-40 -18 -81.5 -27t-98.5 -9q-78 0 -138 31t-93.5 92.5t-33.5 151.5q0 91 30.5 154t85 96.5t127.5 33.5zM295 467q-57 0 -91.5 -37t-40.5 -105h254
q0 42 -13 74t-40 50t-69 18zM345 766q13 -22 35.5 -49.5t47 -54t42.5 -44.5v-12h-73q-26 16 -54.5 39t-55.5 50q-27 -27 -54.5 -49.5t-53.5 -39.5h-72v12q19 19 42.5 45t45.5 53.5t36 49.5h114z" />
    <glyph glyph-name="edieresis" unicode="&#xeb;" horiz-adv-x="572" 
d="M295 549q71 0 122 -29.5t78.5 -84.5t27.5 -130v-58h-362q2 -83 43.5 -127t116.5 -44q52 0 92.5 9.5t83.5 28.5v-88q-40 -18 -81.5 -27t-98.5 -9q-78 0 -138 31t-93.5 92.5t-33.5 151.5q0 91 30.5 154t85 96.5t127.5 33.5zM295 467q-57 0 -91.5 -37t-40.5 -105h254
q0 42 -13 74t-40 50t-69 18zM140 682q0 29 16 41.5t37 12.5q22 0 38 -12.5t16 -40.5t-16 -41.5t-38 -13.5q-21 0 -37 13.5t-16 40.5zM331 682q0 29 15.5 41.5t37.5 12.5q21 0 37 -12.5t16 -40.5t-16 -41.5t-37 -13.5q-22 0 -37.5 13.5t-15.5 40.5z" />
    <glyph glyph-name="igrave" unicode="&#xec;" horiz-adv-x="272" 
d="M189 0h-106v539h106v-539zM114 766q12 -22 30 -49.5t37.5 -53.5t34.5 -45v-12h-71q-17 14 -39.5 33.5t-45 41t-41 41.5t-28.5 34v10h123z" />
    <glyph glyph-name="iacute" unicode="&#xed;" horiz-adv-x="272" 
d="M189 0h-106v539h106v-539zM303 756q-11 -14 -29.5 -34t-41 -41.5t-44.5 -41t-40 -33.5h-70v12q15 19 34 45t37 53.5t30 49.5h124v-10z" />
    <glyph glyph-name="icircumflex" unicode="&#xee;" horiz-adv-x="272" 
d="M189 0h-106v539h106v-539zM192 766q13 -22 35.5 -49.5t47 -54t42.5 -44.5v-12h-73q-26 16 -54.5 39t-55.5 50q-27 -27 -54.5 -49.5t-53.5 -39.5h-72v12q19 19 42.5 45t45.5 53.5t36 49.5h114z" />
    <glyph glyph-name="idieresis" unicode="&#xef;" horiz-adv-x="272" 
d="M189 0h-106v539h106v-539zM-12 682q0 29 16 41.5t37 12.5q22 0 38 -12.5t16 -40.5t-16 -41.5t-38 -13.5q-21 0 -37 13.5t-16 40.5zM179 682q0 29 15.5 41.5t37.5 12.5q21 0 37 -12.5t16 -40.5t-16 -41.5t-37 -13.5q-22 0 -37.5 13.5t-15.5 40.5z" />
    <glyph glyph-name="eth" unicode="&#xf0;" horiz-adv-x="609" 
d="M218 765q33 -15 65.5 -33t60.5 -38l114 67l41 -60l-94 -55q47 -43 81 -98.5t53 -123t19 -148.5q0 -94 -31 -158t-88 -96t-136 -32q-73 0 -129.5 29.5t-89 84.5t-32.5 131t29.5 130t82 83t123.5 29q35 0 63 -6t50 -18t37 -31l4 2q-16 52 -46.5 95.5t-69.5 78.5l-124 -73
l-42 61l105 61q-20 13 -41.5 26t-43.5 24zM305 394q-51 0 -83 -18.5t-47 -54.5t-15 -89q0 -46 15 -82t47 -56.5t83 -20.5q76 0 110.5 46t34.5 135q0 28 -8.5 53.5t-26.5 45t-45 30.5t-65 11z" />
    <glyph glyph-name="ntilde" unicode="&#xf1;" horiz-adv-x="630" 
d="M356 549q94 0 144 -47t50 -151v-351h-105v336q0 63 -26.5 94.5t-84.5 31.5q-82 0 -113.5 -49t-31.5 -141v-272h-106v539h84l15 -72h6q18 28 44 46t58 27t66 9zM126 606q3 32 12.5 57t24.5 42t35 26t45 9q21 0 41.5 -8t39 -19t36.5 -19.5t34 -8.5q21 0 34 14t19 42h57
q-6 -63 -37 -98.5t-79 -35.5q-21 0 -40.5 8t-39 19.5t-37 19.5t-34.5 8q-22 0 -34.5 -14t-19.5 -42h-57z" />
    <glyph glyph-name="ograve" unicode="&#xf2;" horiz-adv-x="609" 
d="M558 270q0 -67 -18 -119t-51 -88t-80 -54.5t-106 -18.5q-54 0 -100 18.5t-79.5 54.5t-52.5 88t-19 120q0 89 30.5 151t88 94.5t135.5 32.5q74 0 130.5 -32.5t89 -94.5t32.5 -152zM161 270q0 -60 15 -103.5t47 -66.5t82 -23t82 23t47 66.5t15 103.5q0 62 -15.5 104
t-47 64.5t-82.5 22.5q-75 0 -109 -50t-34 -141zM283 766q12 -22 30 -49.5t37.5 -53.5t34.5 -45v-12h-71q-17 14 -39.5 33.5t-45 41t-41 41.5t-28.5 34v10h123z" />
    <glyph glyph-name="oacute" unicode="&#xf3;" horiz-adv-x="609" 
d="M558 270q0 -67 -18 -119t-51 -88t-80 -54.5t-106 -18.5q-54 0 -100 18.5t-79.5 54.5t-52.5 88t-19 120q0 89 30.5 151t88 94.5t135.5 32.5q74 0 130.5 -32.5t89 -94.5t32.5 -152zM161 270q0 -60 15 -103.5t47 -66.5t82 -23t82 23t47 66.5t15 103.5q0 62 -15.5 104
t-47 64.5t-82.5 22.5q-75 0 -109 -50t-34 -141zM472 756q-11 -14 -29.5 -34t-41 -41.5t-44.5 -41t-40 -33.5h-70v12q15 19 34 45t37 53.5t30 49.5h124v-10z" />
    <glyph glyph-name="ocircumflex" unicode="&#xf4;" horiz-adv-x="609" 
d="M558 270q0 -67 -18 -119t-51 -88t-80 -54.5t-106 -18.5q-54 0 -100 18.5t-79.5 54.5t-52.5 88t-19 120q0 89 30.5 151t88 94.5t135.5 32.5q74 0 130.5 -32.5t89 -94.5t32.5 -152zM161 270q0 -60 15 -103.5t47 -66.5t82 -23t82 23t47 66.5t15 103.5q0 62 -15.5 104
t-47 64.5t-82.5 22.5q-75 0 -109 -50t-34 -141zM361 766q13 -22 35.5 -49.5t47 -54t42.5 -44.5v-12h-73q-26 16 -54.5 39t-55.5 50q-27 -27 -54.5 -49.5t-53.5 -39.5h-72v12q19 19 42.5 45t45.5 53.5t36 49.5h114z" />
    <glyph glyph-name="otilde" unicode="&#xf5;" horiz-adv-x="609" 
d="M558 270q0 -67 -18 -119t-51 -88t-80 -54.5t-106 -18.5q-54 0 -100 18.5t-79.5 54.5t-52.5 88t-19 120q0 89 30.5 151t88 94.5t135.5 32.5q74 0 130.5 -32.5t89 -94.5t32.5 -152zM161 270q0 -60 15 -103.5t47 -66.5t82 -23t82 23t47 66.5t15 103.5q0 62 -15.5 104
t-47 64.5t-82.5 22.5q-75 0 -109 -50t-34 -141zM116 606q3 32 12.5 57t24.5 42t35 26t45 9q21 0 41.5 -8t39 -19t36.5 -19.5t34 -8.5q21 0 34 14t19 42h57q-6 -63 -37 -98.5t-79 -35.5q-21 0 -40.5 8t-39 19.5t-37 19.5t-34.5 8q-22 0 -34.5 -14t-19.5 -42h-57z" />
    <glyph glyph-name="odieresis" unicode="&#xf6;" horiz-adv-x="609" 
d="M558 270q0 -67 -18 -119t-51 -88t-80 -54.5t-106 -18.5q-54 0 -100 18.5t-79.5 54.5t-52.5 88t-19 120q0 89 30.5 151t88 94.5t135.5 32.5q74 0 130.5 -32.5t89 -94.5t32.5 -152zM161 270q0 -60 15 -103.5t47 -66.5t82 -23t82 23t47 66.5t15 103.5q0 62 -15.5 104
t-47 64.5t-82.5 22.5q-75 0 -109 -50t-34 -141zM157 682q0 29 16 41.5t37 12.5q22 0 38 -12.5t16 -40.5t-16 -41.5t-38 -13.5q-21 0 -37 13.5t-16 40.5zM348 682q0 29 15.5 41.5t37.5 12.5q21 0 37 -12.5t16 -40.5t-16 -41.5t-37 -13.5q-22 0 -37.5 13.5t-15.5 40.5z" />
    <glyph glyph-name="divide" unicode="&#xf7;" horiz-adv-x="572" 
d="M48 312v81h475v-81h-475zM285 117q-24 0 -42 15.5t-18 49.5q0 36 18 50t42 14t41.5 -14t17.5 -50q0 -34 -17.5 -49.5t-41.5 -15.5zM285 458q-24 0 -42 15.5t-18 49.5q0 36 18 50t42 14t41.5 -14t17.5 -50q0 -34 -17.5 -49.5t-41.5 -15.5z" />
    <glyph glyph-name="oslash" unicode="&#xf8;" horiz-adv-x="609" 
d="M558 270q0 -89 -31 -152t-88 -95.5t-136 -32.5q-35 0 -66 8t-59 22l-37 -54l-63 42l41 59q-32 36 -49.5 87t-17.5 116q0 134 68 206.5t186 72.5q36 0 68 -8.5t60 -24.5l36 51l63 -42l-40 -56q30 -36 47.5 -86t17.5 -113zM161 270q0 -33 4.5 -62t15.5 -52l200 285
q-14 9 -34 14.5t-43 5.5q-75 0 -109 -50t-34 -141zM449 270q0 32 -5 59t-13 49l-200 -283q15 -9 34 -13.5t40 -4.5q50 0 82 23t47 66.5t15 103.5z" />
    <glyph glyph-name="ugrave" unicode="&#xf9;" horiz-adv-x="630" 
d="M547 539v-539h-85l-15 71h-5q-17 -28 -44 -46t-59 -26.5t-66 -8.5q-63 0 -106.5 20.5t-66 64t-22.5 111.5v353h107v-337q0 -63 26.5 -94t82.5 -31t88 22t45.5 64.5t13.5 102.5v273h106zM293 766q12 -22 30 -49.5t37.5 -53.5t34.5 -45v-12h-71q-17 14 -39.5 33.5t-45 41
t-41 41.5t-28.5 34v10h123z" />
    <glyph glyph-name="uacute" unicode="&#xfa;" horiz-adv-x="630" 
d="M547 539v-539h-85l-15 71h-5q-17 -28 -44 -46t-59 -26.5t-66 -8.5q-63 0 -106.5 20.5t-66 64t-22.5 111.5v353h107v-337q0 -63 26.5 -94t82.5 -31t88 22t45.5 64.5t13.5 102.5v273h106zM482 756q-11 -14 -29.5 -34t-41 -41.5t-44.5 -41t-40 -33.5h-70v12q15 19 34 45
t37 53.5t30 49.5h124v-10z" />
    <glyph glyph-name="ucircumflex" unicode="&#xfb;" horiz-adv-x="630" 
d="M547 539v-539h-85l-15 71h-5q-17 -28 -44 -46t-59 -26.5t-66 -8.5q-63 0 -106.5 20.5t-66 64t-22.5 111.5v353h107v-337q0 -63 26.5 -94t82.5 -31t88 22t45.5 64.5t13.5 102.5v273h106zM371 766q13 -22 35.5 -49.5t47 -54t42.5 -44.5v-12h-73q-26 16 -54.5 39t-55.5 50
q-27 -27 -54.5 -49.5t-53.5 -39.5h-72v12q19 19 42.5 45t45.5 53.5t36 49.5h114z" />
    <glyph glyph-name="udieresis" unicode="&#xfc;" horiz-adv-x="630" 
d="M547 539v-539h-85l-15 71h-5q-17 -28 -44 -46t-59 -26.5t-66 -8.5q-63 0 -106.5 20.5t-66 64t-22.5 111.5v353h107v-337q0 -63 26.5 -94t82.5 -31t88 22t45.5 64.5t13.5 102.5v273h106zM166 682q0 29 16 41.5t37 12.5q22 0 38 -12.5t16 -40.5t-16 -41.5t-38 -13.5
q-21 0 -37 13.5t-16 40.5zM357 682q0 29 15.5 41.5t37.5 12.5q21 0 37 -12.5t16 -40.5t-16 -41.5t-37 -13.5q-22 0 -37.5 13.5t-15.5 40.5z" />
    <glyph glyph-name="yacute" unicode="&#xfd;" horiz-adv-x="527" 
d="M1 539h114l112 -306q9 -23 16 -45t12.5 -43.5t8.5 -42.5h4q5 26 16 61.5t23 70.5l106 305h114l-231 -612q-19 -52 -47 -89.5t-66.5 -57.5t-90.5 -20q-25 0 -43 2.5t-31 5.5v84q11 -2 26.5 -4t32.5 -2q31 0 53.5 12t38 34t26.5 50l22 58zM431 756q-11 -14 -29.5 -34
t-41 -41.5t-44.5 -41t-40 -33.5h-70v12q15 19 34 45t37 53.5t30 49.5h124v-10z" />
    <glyph glyph-name="thorn" unicode="&#xfe;" horiz-adv-x="620" 
d="M568 270q0 -91 -27 -154t-75.5 -94.5t-113.5 -31.5q-41 0 -72 10t-53 27.5t-38 37.5h-6q1 -8 2.5 -23.5t2.5 -31.5t1 -27v-223h-106v1000h106v-214q0 -17 -1.5 -41t-2.5 -38h5q15 23 37 41.5t53 29.5t72 11q97 0 156.5 -70.5t59.5 -208.5zM459 272q0 95 -32 142.5
t-99 47.5q-75 0 -106 -43t-33 -130v-18q0 -93 30 -143.5t110 -50.5q45 0 73.5 22.5t42.5 66.5t14 106z" />
    <glyph glyph-name="ydieresis" unicode="&#xff;" horiz-adv-x="527" 
d="M1 539h114l112 -306q9 -23 16 -45t12.5 -43.5t8.5 -42.5h4q5 26 16 61.5t23 70.5l106 305h114l-231 -612q-19 -52 -47 -89.5t-66.5 -57.5t-90.5 -20q-25 0 -43 2.5t-31 5.5v84q11 -2 26.5 -4t32.5 -2q31 0 53.5 12t38 34t26.5 50l22 58zM115 682q0 29 16 41.5t37 12.5
q22 0 38 -12.5t16 -40.5t-16 -41.5t-38 -13.5q-21 0 -37 13.5t-16 40.5zM306 682q0 29 15.5 41.5t37.5 12.5q21 0 37 -12.5t16 -40.5t-16 -41.5t-37 -13.5q-22 0 -37.5 13.5t-15.5 40.5z" />
    <glyph glyph-name="Amacron" unicode="&#x100;" horiz-adv-x="654" 
d="M540 0l-76 206h-276l-76 -206h-112l271 717h112l270 -717h-113zM362 501q-3 11 -10.5 33.5t-14.5 46t-11 38.5q-5 -20 -11.5 -43.5t-12.5 -43t-10 -31.5l-72 -201h214zM479 861v-80h-307v80h307z" />
    <glyph glyph-name="amacron" unicode="&#x101;" horiz-adv-x="574" 
d="M292 549q102 0 152 -44.5t50 -139.5v-365h-75l-21 75h-4q-23 -29 -47.5 -48t-56 -28t-76.5 -9q-48 0 -86.5 17.5t-60.5 54t-22 91.5q0 82 62.5 125t190.5 47l92 3v30q0 60 -27 84t-76 24q-42 0 -80 -12t-72 -29l-34 77q38 20 87.5 33.5t103.5 13.5zM317 257
q-92 -4 -127.5 -30.5t-35.5 -74.5q0 -42 25.5 -61t64.5 -19q63 0 104 35t41 105v47zM440 686v-80h-307v80h307z" />
    <glyph glyph-name="Abreve" unicode="&#x102;" horiz-adv-x="654" 
d="M540 0l-76 206h-276l-76 -206h-112l271 717h112l270 -717h-113zM362 501q-3 11 -10.5 33.5t-14.5 46t-11 38.5q-5 -20 -11.5 -43.5t-12.5 -43t-10 -31.5l-72 -201h214zM492 924q-3 -42 -24.5 -74.5t-58 -50.5t-86.5 -18q-78 0 -119 39t-45 104h63q3 -27 16 -40.5
t35 -17.5t52 -4q25 0 47 4.5t37.5 18t18.5 39.5h64z" />
    <glyph glyph-name="abreve" unicode="&#x103;" horiz-adv-x="574" 
d="M292 549q102 0 152 -44.5t50 -139.5v-365h-75l-21 75h-4q-23 -29 -47.5 -48t-56 -28t-76.5 -9q-48 0 -86.5 17.5t-60.5 54t-22 91.5q0 82 62.5 125t190.5 47l92 3v30q0 60 -27 84t-76 24q-42 0 -80 -12t-72 -29l-34 77q38 20 87.5 33.5t103.5 13.5zM317 257
q-92 -4 -127.5 -30.5t-35.5 -74.5q0 -42 25.5 -61t64.5 -19q63 0 104 35t41 105v47zM454 749q-3 -42 -24.5 -74.5t-58 -50.5t-86.5 -18q-78 0 -119 39t-45 104h63q3 -27 16 -40.5t35 -17.5t52 -4q25 0 47 4.5t37.5 18t18.5 39.5h64z" />
    <glyph glyph-name="Aogonek" unicode="&#x104;" horiz-adv-x="654" 
d="M540 0l-76 206h-276l-76 -206h-112l271 717h112l270 -717h-113zM362 501q-3 11 -10.5 33.5t-14.5 46t-11 38.5q-5 -20 -11.5 -43.5t-12.5 -43t-10 -31.5l-72 -201h214zM554 -115q0 -21 12 -32t31 -11q17 0 29.5 2.5t21.5 4.5v-65q-15 -4 -30 -7t-36 -3q-54 0 -81.5 27
t-27.5 72q0 29 14.5 56t37 49.5t45.5 37.5l53 -16q-34 -32 -51.5 -58.5t-17.5 -56.5z" />
    <glyph glyph-name="aogonek" unicode="&#x105;" horiz-adv-x="574" 
d="M292 549q102 0 152 -44.5t50 -139.5v-365h-75l-21 75h-4q-23 -29 -47.5 -48t-56 -28t-76.5 -9q-48 0 -86.5 17.5t-60.5 54t-22 91.5q0 82 62.5 125t190.5 47l92 3v30q0 60 -27 84t-76 24q-42 0 -80 -12t-72 -29l-34 77q38 20 87.5 33.5t103.5 13.5zM317 257
q-92 -4 -127.5 -30.5t-35.5 -74.5q0 -42 25.5 -61t64.5 -19q63 0 104 35t41 105v47zM422 -115q0 -21 12 -32t31 -11q17 0 29.5 2.5t21.5 4.5v-65q-15 -4 -30 -7t-36 -3q-54 0 -81.5 27t-27.5 72q0 29 14.5 56t37 49.5t45.5 37.5l53 -16q-34 -32 -51.5 -58.5t-17.5 -56.5z
" />
    <glyph glyph-name="Cacute" unicode="&#x106;" horiz-adv-x="633" 
d="M400 631q-53 0 -95 -18.5t-71.5 -54.5t-45 -87t-15.5 -115q0 -84 25 -145.5t75 -94.5t126 -33q46 0 88.5 8.5t86.5 22.5v-93q-42 -16 -86 -23.5t-102 -7.5q-109 0 -181.5 45t-108.5 128t-36 194q0 81 22.5 148.5t65.5 116.5t106.5 75.5t146.5 26.5q54 0 106 -11.5
t94 -32.5l-40 -90q-35 16 -75.5 28.5t-85.5 12.5zM546 931q-11 -14 -29.5 -34t-41 -41.5t-44.5 -41t-40 -33.5h-70v12q15 19 34 45t37 53.5t30 49.5h124v-10z" />
    <glyph glyph-name="cacute" unicode="&#x107;" horiz-adv-x="490" 
d="M300 -10q-74 0 -130 29t-87 90.5t-31 156.5q0 100 33.5 162t91 91.5t131.5 29.5q45 0 84.5 -9.5t65.5 -21.5l-32 -86q-28 11 -59.5 19t-59.5 8q-50 0 -82.5 -21.5t-48 -64t-15.5 -106.5q0 -61 16 -103t47.5 -63.5t78.5 -21.5q45 0 79 10t64 26v-92q-29 -17 -63 -25
t-83 -8zM452 756q-11 -14 -29.5 -34t-41 -41.5t-44.5 -41t-40 -33.5h-70v12q15 19 34 45t37 53.5t30 49.5h124v-10z" />
    <glyph glyph-name="Ccircumflex" unicode="&#x108;" horiz-adv-x="633" 
d="M400 631q-53 0 -95 -18.5t-71.5 -54.5t-45 -87t-15.5 -115q0 -84 25 -145.5t75 -94.5t126 -33q46 0 88.5 8.5t86.5 22.5v-93q-42 -16 -86 -23.5t-102 -7.5q-109 0 -181.5 45t-108.5 128t-36 194q0 81 22.5 148.5t65.5 116.5t106.5 75.5t146.5 26.5q54 0 106 -11.5
t94 -32.5l-40 -90q-35 16 -75.5 28.5t-85.5 12.5zM435 941q13 -22 35.5 -49.5t47 -54t42.5 -44.5v-12h-73q-26 16 -54.5 39t-55.5 50q-27 -27 -54.5 -49.5t-53.5 -39.5h-72v12q19 19 42.5 45t45.5 53.5t36 49.5h114z" />
    <glyph glyph-name="ccircumflex" unicode="&#x109;" horiz-adv-x="490" 
d="M300 -10q-74 0 -130 29t-87 90.5t-31 156.5q0 100 33.5 162t91 91.5t131.5 29.5q45 0 84.5 -9.5t65.5 -21.5l-32 -86q-28 11 -59.5 19t-59.5 8q-50 0 -82.5 -21.5t-48 -64t-15.5 -106.5q0 -61 16 -103t47.5 -63.5t78.5 -21.5q45 0 79 10t64 26v-92q-29 -17 -63 -25
t-83 -8zM341 766q13 -22 35.5 -49.5t47 -54t42.5 -44.5v-12h-73q-26 16 -54.5 39t-55.5 50q-27 -27 -54.5 -49.5t-53.5 -39.5h-72v12q19 19 42.5 45t45.5 53.5t36 49.5h114z" />
    <glyph glyph-name="Cdotaccent" unicode="&#x10a;" horiz-adv-x="633" 
d="M400 631q-53 0 -95 -18.5t-71.5 -54.5t-45 -87t-15.5 -115q0 -84 25 -145.5t75 -94.5t126 -33q46 0 88.5 8.5t86.5 22.5v-93q-42 -16 -86 -23.5t-102 -7.5q-109 0 -181.5 45t-108.5 128t-36 194q0 81 22.5 148.5t65.5 116.5t106.5 75.5t146.5 26.5q54 0 106 -11.5
t94 -32.5l-40 -90q-35 16 -75.5 28.5t-85.5 12.5zM380 919q23 0 41 -14t18 -47q0 -32 -18 -46.5t-41 -14.5q-26 0 -43.5 14.5t-17.5 46.5q0 33 17.5 47t43.5 14z" />
    <glyph glyph-name="cdotaccent" unicode="&#x10b;" horiz-adv-x="490" 
d="M300 -10q-74 0 -130 29t-87 90.5t-31 156.5q0 100 33.5 162t91 91.5t131.5 29.5q45 0 84.5 -9.5t65.5 -21.5l-32 -86q-28 11 -59.5 19t-59.5 8q-50 0 -82.5 -21.5t-48 -64t-15.5 -106.5q0 -61 16 -103t47.5 -63.5t78.5 -21.5q45 0 79 10t64 26v-92q-29 -17 -63 -25
t-83 -8zM286 744q23 0 41 -14t18 -47q0 -32 -18 -46.5t-41 -14.5q-26 0 -43.5 14.5t-17.5 46.5q0 33 17.5 47t43.5 14z" />
    <glyph glyph-name="Ccaron" unicode="&#x10c;" horiz-adv-x="633" 
d="M400 631q-53 0 -95 -18.5t-71.5 -54.5t-45 -87t-15.5 -115q0 -84 25 -145.5t75 -94.5t126 -33q46 0 88.5 8.5t86.5 22.5v-93q-42 -16 -86 -23.5t-102 -7.5q-109 0 -181.5 45t-108.5 128t-36 194q0 81 22.5 148.5t65.5 116.5t106.5 75.5t146.5 26.5q54 0 106 -11.5
t94 -32.5l-40 -90q-35 16 -75.5 28.5t-85.5 12.5zM321 781q-14 23 -36 49.5t-46 52.5t-42 45v13h72q26 -17 54.5 -40t53.5 -50q27 27 55.5 50t54.5 40h73v-13q-18 -19 -42.5 -45t-47 -52.5t-35.5 -49.5h-114z" />
    <glyph glyph-name="ccaron" unicode="&#x10d;" horiz-adv-x="490" 
d="M300 -10q-74 0 -130 29t-87 90.5t-31 156.5q0 100 33.5 162t91 91.5t131.5 29.5q45 0 84.5 -9.5t65.5 -21.5l-32 -86q-28 11 -59.5 19t-59.5 8q-50 0 -82.5 -21.5t-48 -64t-15.5 -106.5q0 -61 16 -103t47.5 -63.5t78.5 -21.5q45 0 79 10t64 26v-92q-29 -17 -63 -25
t-83 -8zM227 606q-14 23 -36 49.5t-46 52.5t-42 45v13h72q26 -17 54.5 -40t53.5 -50q27 27 55.5 50t54.5 40h73v-13q-18 -19 -42.5 -45t-47 -52.5t-35.5 -49.5h-114z" />
    <glyph glyph-name="Dcaron" unicode="&#x10e;" horiz-adv-x="733" 
d="M673 364q0 -120 -45 -201t-129.5 -122t-203.5 -41h-200v714h221q109 0 189 -40t124 -117.5t44 -192.5zM560 361q0 90 -29 148t-85.5 86t-136.5 28h-106v-532h87q135 0 202.5 68t67.5 202zM306 781q-14 23 -36 49.5t-46 52.5t-42 45v13h72q26 -17 54.5 -40t53.5 -50
q27 27 55.5 50t54.5 40h73v-13q-18 -19 -42.5 -45t-47 -52.5t-35.5 -49.5h-114z" />
    <glyph glyph-name="dcaron" unicode="&#x10f;" horiz-adv-x="620" 
d="M708 751q-5 -19 -17 -45.5t-27 -54.5t-30 -51h-60v12q5 15 10 33.5t9 39t7.5 40t5.5 35.5h102v-9zM268 -10q-97 0 -156.5 70t-59.5 208q0 139 60 210t158 71q41 0 71.5 -10.5t53 -28.5t38.5 -40h6q-2 14 -5 40.5t-3 47.5v202h106v-760h-83l-18 72h-5q-15 -23 -37.5 -41.5
t-53.5 -29.5t-72 -11zM293 77q78 0 110 43.5t32 130.5v16q0 95 -30.5 145t-112.5 50q-65 0 -98 -52.5t-33 -143.5t33 -140t99 -49z" />
    <glyph glyph-name="Dcroat" unicode="&#x110;" horiz-adv-x="733" 
d="M316 714q109 0 189 -40t124 -117.5t44 -192.5q0 -120 -45 -201t-129.5 -122t-204.5 -41h-194v307h-72v92h72v315h216zM309 623h-101v-224h160v-92h-160v-216h82q136 0 203 68t67 202q0 90 -30 148t-85.5 86t-135.5 28z" />
    <glyph glyph-name="dcroat" unicode="&#x111;" horiz-adv-x="626" 
d="M268 -10q-97 0 -156.5 69t-59.5 204q0 138 60 206.5t157 68.5q41 0 72 -10.5t53.5 -28.5t38.5 -40h6q-3 15 -5.5 43t-2.5 46v51h-195v75h195v86h106v-86h76v-75h-76v-599h-84l-18 72h-4q-16 -23 -38.5 -41.5t-53 -29.5t-71.5 -11zM294 77q77 0 109 42t32 127v16
q0 93 -30.5 141t-112.5 48q-65 0 -98 -50t-33 -140q0 -89 33 -136.5t100 -47.5z" />
    <glyph glyph-name="Emacron" unicode="&#x112;" horiz-adv-x="557" 
d="M497 0h-402v714h402v-92h-294v-204h276v-91h-276v-234h294v-93zM457 861v-80h-307v80h307z" />
    <glyph glyph-name="emacron" unicode="&#x113;" horiz-adv-x="572" 
d="M295 549q71 0 122 -29.5t78.5 -84.5t27.5 -130v-58h-362q2 -83 43.5 -127t116.5 -44q52 0 92.5 9.5t83.5 28.5v-88q-40 -18 -81.5 -27t-98.5 -9q-78 0 -138 31t-93.5 92.5t-33.5 151.5q0 91 30.5 154t85 96.5t127.5 33.5zM295 467q-57 0 -91.5 -37t-40.5 -105h254
q0 42 -13 74t-40 50t-69 18zM441 686v-80h-307v80h307z" />
    <glyph glyph-name="Ebreve" unicode="&#x114;" horiz-adv-x="557" 
d="M497 0h-402v714h402v-92h-294v-204h276v-91h-276v-234h294v-93zM470 924q-3 -42 -24.5 -74.5t-58 -50.5t-86.5 -18q-78 0 -119 39t-45 104h63q3 -27 16 -40.5t35 -17.5t52 -4q25 0 47 4.5t37.5 18t18.5 39.5h64z" />
    <glyph glyph-name="ebreve" unicode="&#x115;" horiz-adv-x="572" 
d="M295 549q71 0 122 -29.5t78.5 -84.5t27.5 -130v-58h-362q2 -83 43.5 -127t116.5 -44q52 0 92.5 9.5t83.5 28.5v-88q-40 -18 -81.5 -27t-98.5 -9q-78 0 -138 31t-93.5 92.5t-33.5 151.5q0 91 30.5 154t85 96.5t127.5 33.5zM295 467q-57 0 -91.5 -37t-40.5 -105h254
q0 42 -13 74t-40 50t-69 18zM455 749q-3 -42 -24.5 -74.5t-58 -50.5t-86.5 -18q-78 0 -119 39t-45 104h63q3 -27 16 -40.5t35 -17.5t52 -4q25 0 47 4.5t37.5 18t18.5 39.5h64z" />
    <glyph glyph-name="Edotaccent" unicode="&#x116;" horiz-adv-x="557" 
d="M497 0h-402v714h402v-92h-294v-204h276v-91h-276v-234h294v-93zM305 919q23 0 41 -14t18 -47q0 -32 -18 -46.5t-41 -14.5q-26 0 -43.5 14.5t-17.5 46.5q0 33 17.5 47t43.5 14z" />
    <glyph glyph-name="edotaccent" unicode="&#x117;" horiz-adv-x="572" 
d="M295 549q71 0 122 -29.5t78.5 -84.5t27.5 -130v-58h-362q2 -83 43.5 -127t116.5 -44q52 0 92.5 9.5t83.5 28.5v-88q-40 -18 -81.5 -27t-98.5 -9q-78 0 -138 31t-93.5 92.5t-33.5 151.5q0 91 30.5 154t85 96.5t127.5 33.5zM295 467q-57 0 -91.5 -37t-40.5 -105h254
q0 42 -13 74t-40 50t-69 18zM289 744q23 0 41 -14t18 -47q0 -32 -18 -46.5t-41 -14.5q-26 0 -43.5 14.5t-17.5 46.5q0 33 17.5 47t43.5 14z" />
    <glyph glyph-name="Eogonek" unicode="&#x118;" horiz-adv-x="557" 
d="M497 0h-402v714h402v-92h-294v-204h276v-91h-276v-234h294v-93zM400 -115q0 -21 12 -32t31 -11q17 0 29.5 2.5t21.5 4.5v-65q-15 -4 -30 -7t-36 -3q-54 0 -81.5 27t-27.5 72q0 29 14.5 56t37 49.5t45.5 37.5l53 -16q-34 -32 -51.5 -58.5t-17.5 -56.5z" />
    <glyph glyph-name="eogonek" unicode="&#x119;" horiz-adv-x="572" 
d="M396 -115q0 -21 11.5 -32t31.5 -11q17 0 29.5 2.5t21.5 4.5v-65q-15 -4 -30 -7t-36 -3q-54 0 -81.5 27t-27.5 72q0 29 14.5 56t37 49.5t45.5 37.5l85 10q-40 -33 -62 -57t-30.5 -44t-8.5 -40zM295 549q71 0 122 -29.5t78.5 -84.5t27.5 -130v-58h-362q2 -83 43.5 -127
t116.5 -44q52 0 92.5 9.5t83.5 28.5v-88q-40 -18 -81.5 -27t-98.5 -9q-78 0 -138 31t-93.5 92.5t-33.5 151.5q0 91 30.5 154t85 96.5t127.5 33.5zM295 467q-57 0 -91.5 -37t-40.5 -105h254q0 42 -13 74t-40 50t-69 18z" />
    <glyph glyph-name="Ecaron" unicode="&#x11a;" horiz-adv-x="557" 
d="M497 0h-402v714h402v-92h-294v-204h276v-91h-276v-234h294v-93zM246 781q-14 23 -36 49.5t-46 52.5t-42 45v13h72q26 -17 54.5 -40t53.5 -50q27 27 55.5 50t54.5 40h73v-13q-18 -19 -42.5 -45t-47 -52.5t-35.5 -49.5h-114z" />
    <glyph glyph-name="ecaron" unicode="&#x11b;" horiz-adv-x="572" 
d="M295 549q71 0 122 -29.5t78.5 -84.5t27.5 -130v-58h-362q2 -83 43.5 -127t116.5 -44q52 0 92.5 9.5t83.5 28.5v-88q-40 -18 -81.5 -27t-98.5 -9q-78 0 -138 31t-93.5 92.5t-33.5 151.5q0 91 30.5 154t85 96.5t127.5 33.5zM295 467q-57 0 -91.5 -37t-40.5 -105h254
q0 42 -13 74t-40 50t-69 18zM231 606q-14 23 -36 49.5t-46 52.5t-42 45v13h72q26 -17 54.5 -40t53.5 -50q27 27 55.5 50t54.5 40h73v-13q-18 -19 -42.5 -45t-47 -52.5t-35.5 -49.5h-114z" />
    <glyph glyph-name="Gcircumflex" unicode="&#x11c;" horiz-adv-x="727" 
d="M393 384h258v-356q-57 -19 -116.5 -28.5t-135.5 -9.5q-109 0 -184.5 44t-115 126t-39.5 197q0 112 44 194t126.5 127.5t200.5 45.5q59 0 113 -11.5t100 -31.5l-39 -90q-37 17 -82.5 28.5t-95.5 11.5q-79 0 -136.5 -33.5t-88 -95t-30.5 -146.5q0 -80 25 -142t79 -97
t141 -35q42 0 72 4.5t55 10.5v194h-151v93zM460 941q13 -22 35.5 -49.5t47 -54t42.5 -44.5v-12h-73q-26 16 -54.5 39t-55.5 50q-27 -27 -54.5 -49.5t-53.5 -39.5h-72v12q19 19 42.5 45t45.5 53.5t36 49.5h114z" />
    <glyph glyph-name="gcircumflex" unicode="&#x11d;" horiz-adv-x="620" 
d="M269 549q52 0 94 -20t71 -61h5l12 71h86v-546q0 -76 -27 -128t-82.5 -78.5t-139.5 -26.5q-58 0 -107 8t-90 25v93q42 -21 93.5 -31.5t109.5 -10.5q66 0 102 37.5t36 105.5v18q0 13 1 34.5t2 31.5h-4q-28 -42 -68.5 -61.5t-93.5 -19.5q-102 0 -159.5 73.5t-57.5 204.5
q0 130 58 205.5t159 75.5zM291 461q-42 0 -71 -22.5t-44 -65.5t-15 -106q0 -94 33.5 -143t98.5 -49q38 0 64.5 10t44 31t26 53.5t8.5 78.5v20q0 69 -15.5 111.5t-47.5 62t-82 19.5zM358 766q13 -22 35.5 -49.5t47 -54t42.5 -44.5v-12h-73q-26 16 -54.5 39t-55.5 50
q-27 -27 -54.5 -49.5t-53.5 -39.5h-72v12q19 19 42.5 45t45.5 53.5t36 49.5h114z" />
    <glyph glyph-name="Gbreve" unicode="&#x11e;" horiz-adv-x="727" 
d="M393 384h258v-356q-57 -19 -116.5 -28.5t-135.5 -9.5q-109 0 -184.5 44t-115 126t-39.5 197q0 112 44 194t126.5 127.5t200.5 45.5q59 0 113 -11.5t100 -31.5l-39 -90q-37 17 -82.5 28.5t-95.5 11.5q-79 0 -136.5 -33.5t-88 -95t-30.5 -146.5q0 -80 25 -142t79 -97
t141 -35q42 0 72 4.5t55 10.5v194h-151v93zM570 924q-3 -42 -24.5 -74.5t-58 -50.5t-86.5 -18q-78 0 -119 39t-45 104h63q3 -27 16 -40.5t35 -17.5t52 -4q25 0 47 4.5t37.5 18t18.5 39.5h64z" />
    <glyph glyph-name="gbreve" unicode="&#x11f;" horiz-adv-x="620" 
d="M269 549q52 0 94 -20t71 -61h5l12 71h86v-546q0 -76 -27 -128t-82.5 -78.5t-139.5 -26.5q-58 0 -107 8t-90 25v93q42 -21 93.5 -31.5t109.5 -10.5q66 0 102 37.5t36 105.5v18q0 13 1 34.5t2 31.5h-4q-28 -42 -68.5 -61.5t-93.5 -19.5q-102 0 -159.5 73.5t-57.5 204.5
q0 130 58 205.5t159 75.5zM291 461q-42 0 -71 -22.5t-44 -65.5t-15 -106q0 -94 33.5 -143t98.5 -49q38 0 64.5 10t44 31t26 53.5t8.5 78.5v20q0 69 -15.5 111.5t-47.5 62t-82 19.5zM468 749q-3 -42 -24.5 -74.5t-58 -50.5t-86.5 -18q-78 0 -119 39t-45 104h63
q3 -27 16 -40.5t35 -17.5t52 -4q25 0 47 4.5t37.5 18t18.5 39.5h64z" />
    <glyph glyph-name="Gdotaccent" unicode="&#x120;" horiz-adv-x="727" 
d="M393 384h258v-356q-57 -19 -116.5 -28.5t-135.5 -9.5q-109 0 -184.5 44t-115 126t-39.5 197q0 112 44 194t126.5 127.5t200.5 45.5q59 0 113 -11.5t100 -31.5l-39 -90q-37 17 -82.5 28.5t-95.5 11.5q-79 0 -136.5 -33.5t-88 -95t-30.5 -146.5q0 -80 25 -142t79 -97
t141 -35q42 0 72 4.5t55 10.5v194h-151v93zM405 919q23 0 41 -14t18 -47q0 -32 -18 -46.5t-41 -14.5q-26 0 -43.5 14.5t-17.5 46.5q0 33 17.5 47t43.5 14z" />
    <glyph glyph-name="gdotaccent" unicode="&#x121;" horiz-adv-x="620" 
d="M269 549q52 0 94 -20t71 -61h5l12 71h86v-546q0 -76 -27 -128t-82.5 -78.5t-139.5 -26.5q-58 0 -107 8t-90 25v93q42 -21 93.5 -31.5t109.5 -10.5q66 0 102 37.5t36 105.5v18q0 13 1 34.5t2 31.5h-4q-28 -42 -68.5 -61.5t-93.5 -19.5q-102 0 -159.5 73.5t-57.5 204.5
q0 130 58 205.5t159 75.5zM291 461q-42 0 -71 -22.5t-44 -65.5t-15 -106q0 -94 33.5 -143t98.5 -49q38 0 64.5 10t44 31t26 53.5t8.5 78.5v20q0 69 -15.5 111.5t-47.5 62t-82 19.5zM303 744q23 0 41 -14t18 -47q0 -32 -18 -46.5t-41 -14.5q-26 0 -43.5 14.5t-17.5 46.5
q0 33 17.5 47t43.5 14z" />
    <glyph glyph-name="uni0122" unicode="&#x122;" horiz-adv-x="727" 
d="M393 384h258v-356q-57 -19 -116.5 -28.5t-135.5 -9.5q-109 0 -184.5 44t-115 126t-39.5 197q0 112 44 194t126.5 127.5t200.5 45.5q59 0 113 -11.5t100 -31.5l-39 -90q-37 17 -82.5 28.5t-95.5 11.5q-79 0 -136.5 -33.5t-88 -95t-30.5 -146.5q0 -80 25 -142t79 -97
t141 -35q42 0 72 4.5t55 10.5v194h-151v93zM468 -70q-6 -19 -18.5 -46t-28.5 -54.5t-33 -50.5h-60v12q8 18 15.5 44.5t14 54.5t8.5 49h102v-9z" />
    <glyph glyph-name="uni0123" unicode="&#x123;" horiz-adv-x="620" 
d="M372 754q-8 -18 -15.5 -44.5t-14 -54t-9.5 -49.5h-102v9q7 19 19 45.5t28 54.5t33 51h61v-12zM269 549q52 0 94 -20t71 -61h5l12 71h86v-546q0 -76 -27 -128t-82.5 -78.5t-139.5 -26.5q-58 0 -107 8t-90 25v93q42 -21 93.5 -31.5t109.5 -10.5q66 0 102 37.5t36 105.5v18
q0 13 1 34.5t2 31.5h-4q-28 -42 -68.5 -61.5t-93.5 -19.5q-102 0 -159.5 73.5t-57.5 204.5q0 130 58 205.5t159 75.5zM291 461q-42 0 -71 -22.5t-44 -65.5t-15 -106q0 -94 33.5 -143t98.5 -49q38 0 64.5 10t44 31t26 53.5t8.5 78.5v20q0 69 -15.5 111.5t-47.5 62t-82 19.5z
" />
    <glyph glyph-name="Hcircumflex" unicode="&#x124;" horiz-adv-x="748" 
d="M652 0h-108v326h-341v-326h-108v714h108v-296h341v296h108v-714zM431 941q13 -22 35.5 -49.5t47 -54t42.5 -44.5v-12h-73q-26 16 -54.5 39t-55.5 50q-27 -27 -54.5 -49.5t-53.5 -39.5h-72v12q19 19 42.5 45t45.5 53.5t36 49.5h114z" />
    <glyph glyph-name="hcircumflex" unicode="&#x125;" horiz-adv-x="630" 
d="M189 557q0 -25 -2 -50t-4 -41h7q17 28 42.5 46t57 27t64.5 9q64 0 107.5 -20.5t66 -64t22.5 -112.5v-351h-105v336q0 63 -26.5 94.5t-84.5 31.5q-55 0 -86.5 -22t-45 -64.5t-13.5 -104.5v-271h-106v760h106v-203zM194 987q13 -22 35.5 -49.5t47 -54t42.5 -44.5v-12h-73
q-26 16 -54.5 39t-55.5 50q-27 -27 -54.5 -49.5t-53.5 -39.5h-72v12q19 19 42.5 45t45.5 53.5t36 49.5h114z" />
    <glyph glyph-name="Hbar" unicode="&#x126;" horiz-adv-x="748" 
d="M95 0v523h-95v79h95v112h108v-112h341v112h108v-112h95v-79h-95v-523h-108v326h-341v-326h-108zM203 418h341v105h-341v-105z" />
    <glyph glyph-name="hbar" unicode="&#x127;" horiz-adv-x="630" 
d="M189 760v-87h195v-75h-195v-64q0 -25 -2 -49.5t-4 -40.5h7q18 28 43 46t56.5 27t65.5 9q64 0 107 -20.5t65.5 -64.5t22.5 -113v-328h-105v313q0 63 -26.5 94.5t-84.5 31.5q-55 0 -86.5 -22t-45 -64t-13.5 -104v-249h-106v598h-76v75h76v87h106z" />
    <glyph glyph-name="Itilde" unicode="&#x128;" horiz-adv-x="354" 
d="M315 0h-277v62l85 25v539l-85 26v62h277v-62l-84 -26v-539l84 -25v-62zM-11 781q3 32 12.5 57t24.5 42t35 26t45 9q21 0 41.5 -8t39 -19t36.5 -19.5t34 -8.5q21 0 34 14t19 42h57q-6 -63 -37 -98.5t-79 -35.5q-21 0 -40.5 8t-39 19.5t-37 19.5t-34.5 8q-22 0 -34.5 -14
t-19.5 -42h-57z" />
    <glyph glyph-name="itilde" unicode="&#x129;" horiz-adv-x="272" 
d="M189 0h-106v539h106v-539zM-53 606q3 32 12.5 57t24.5 42t35 26t45 9q21 0 41.5 -8t39 -19t36.5 -19.5t34 -8.5q21 0 34 14t19 42h57q-6 -63 -37 -98.5t-79 -35.5q-21 0 -40.5 8t-39 19.5t-37 19.5t-34.5 8q-22 0 -34.5 -14t-19.5 -42h-57z" />
    <glyph glyph-name="Imacron" unicode="&#x12a;" horiz-adv-x="354" 
d="M315 0h-277v62l85 25v539l-85 26v62h277v-62l-84 -26v-539l84 -25v-62zM330 861v-80h-307v80h307z" />
    <glyph glyph-name="imacron" unicode="&#x12b;" horiz-adv-x="272" 
d="M189 0h-106v539h106v-539zM289 686v-80h-307v80h307z" />
    <glyph glyph-name="Ibreve" unicode="&#x12c;" horiz-adv-x="354" 
d="M315 0h-277v62l85 25v539l-85 26v62h277v-62l-84 -26v-539l84 -25v-62zM344 924q-3 -42 -24.5 -74.5t-58 -50.5t-86.5 -18q-78 0 -119 39t-45 104h63q3 -27 16 -40.5t35 -17.5t52 -4q25 0 47 4.5t37.5 18t18.5 39.5h64z" />
    <glyph glyph-name="ibreve" unicode="&#x12d;" horiz-adv-x="272" 
d="M189 0h-106v539h106v-539zM302 749q-3 -42 -24.5 -74.5t-58 -50.5t-86.5 -18q-78 0 -119 39t-45 104h63q3 -27 16 -40.5t35 -17.5t52 -4q25 0 47 4.5t37.5 18t18.5 39.5h64z" />
    <glyph glyph-name="Iogonek" unicode="&#x12e;" horiz-adv-x="354" 
d="M315 0h-277v62l85 25v539l-85 26v62h277v-62l-84 -26v-539l84 -25v-62zM219 -115q0 -21 12 -32t31 -11q17 0 29.5 2.5t21.5 4.5v-65q-15 -4 -30 -7t-36 -3q-54 0 -81.5 27t-27.5 72q0 29 14.5 56t37 49.5t45.5 37.5l53 -16q-34 -32 -51.5 -58.5t-17.5 -56.5z" />
    <glyph glyph-name="iogonek" unicode="&#x12f;" horiz-adv-x="272" 
d="M189 539v-539h-106v539h106zM137 744q24 0 42 -14t18 -47q0 -32 -18 -46.5t-42 -14.5q-26 0 -43.5 14.5t-17.5 46.5q0 33 17.5 47t43.5 14zM113 -115q0 -21 12 -32t31 -11q17 0 29.5 2.5t21.5 4.5v-65q-15 -4 -30 -7t-36 -3q-54 0 -81.5 27t-27.5 72q0 29 14.5 56
t37 49.5t45.5 37.5l53 -16q-34 -32 -51.5 -58.5t-17.5 -56.5z" />
    <glyph glyph-name="Idotaccent" unicode="&#x130;" horiz-adv-x="354" 
d="M315 0h-277v62l85 25v539l-85 26v62h277v-62l-84 -26v-539l84 -25v-62zM179 919q23 0 41 -14t18 -47q0 -32 -18 -46.5t-41 -14.5q-26 0 -43.5 14.5t-17.5 46.5q0 33 17.5 47t43.5 14z" />
    <glyph glyph-name="dotlessi" unicode="&#x131;" horiz-adv-x="272" 
d="M189 0h-106v539h106v-539z" />
    <glyph glyph-name="IJ" unicode="&#x132;" horiz-adv-x="644" 
d="M315 0h-277v62l85 25v539l-85 26v62h277v-62l-84 -26v-539l84 -25v-62zM355 -196q-25 0 -44 3.5t-34 9.5v90q16 -4 34 -7t38 -3q25 0 47.5 10t35.5 36t13 73v698h108v-693q0 -75 -24.5 -123.5t-69 -71t-104.5 -22.5z" />
    <glyph glyph-name="ij" unicode="&#x133;" horiz-adv-x="544" 
d="M189 539v-539h-106v539h106zM137 744q24 0 42 -14t18 -47q0 -32 -18 -46.5t-42 -14.5q-26 0 -43.5 14.5t-17.5 46.5q0 33 17.5 47t43.5 14zM298 -240q-25 0 -46.5 3.5t-37.5 8.5v85q16 -4 32 -7t36 -3q31 0 52 17.5t21 66.5v608h106v-613q0 -50 -17 -87.5t-52.5 -58
t-93.5 -20.5zM348 683q0 33 17.5 47t43.5 14q24 0 42 -14t18 -47q0 -32 -18 -46.5t-42 -14.5q-26 0 -43.5 14.5t-17.5 46.5z" />
    <glyph glyph-name="Jcircumflex" unicode="&#x134;" horiz-adv-x="290" 
d="M1 -196q-25 0 -44 3.5t-34 9.5v90q16 -4 34 -7t38 -3q25 0 47.5 10t35.5 36t13 73v698h108v-693q0 -75 -24.5 -123.5t-69 -71t-104.5 -22.5zM202 941q13 -22 35.5 -49.5t47 -54t42.5 -44.5v-12h-73q-26 16 -54.5 39t-55.5 50q-27 -27 -54.5 -49.5t-53.5 -39.5h-72v12
q19 19 42.5 45t45.5 53.5t36 49.5h114z" />
    <glyph glyph-name="jcircumflex" unicode="&#x135;" horiz-adv-x="272" 
d="M26 -240q-25 0 -46.5 3.5t-37.5 8.5v85q16 -4 32 -7t36 -3q31 0 52 17.5t21 66.5v608h106v-613q0 -50 -17 -87.5t-52.5 -58t-93.5 -20.5zM192 766q13 -22 35.5 -49.5t47 -54t42.5 -44.5v-12h-73q-26 16 -54.5 39t-55.5 50q-27 -27 -54.5 -49.5t-53.5 -39.5h-72v12
q19 19 42.5 45t45.5 53.5t36 49.5h114z" />
    <glyph glyph-name="uni0136" unicode="&#x136;" horiz-adv-x="632" 
d="M632 0h-125l-234 329l-70 -58v-271h-108v714h108v-345q26 31 52 61l52 60l193 224h124l-273 -312zM405 -70q-6 -19 -18.5 -46t-28.5 -54.5t-33 -50.5h-60v12q8 18 15.5 44.5t14 54.5t8.5 49h102v-9z" />
    <glyph glyph-name="uni0137" unicode="&#x137;" horiz-adv-x="559" 
d="M188 380q0 -21 -1.5 -48t-3.5 -50h3q8 10 19.5 24.5t23.5 29.5t22 26l165 177h123l-217 -231l231 -308h-125l-178 241l-62 -52v-189h-105v760h105v-380zM350 -70q-6 -19 -18.5 -46t-28.5 -54.5t-33 -50.5h-60v12q8 18 15.5 44.5t14 54.5t8.5 49h102v-9z" />
    <glyph glyph-name="kgreenlandic" unicode="&#x138;" horiz-adv-x="559" 
d="M538 539l-207 -241l222 -298h-124l-169 232l-68 -51v-181h-109v539h109v-140q0 -37 -1.5 -73t-3.5 -58h2q12 15 24.5 30.5t23.5 29.5l179 211h122z" />
    <glyph glyph-name="Lacute" unicode="&#x139;" horiz-adv-x="536" 
d="M95 0v714h108v-621h305v-93h-413zM314 931q-11 -14 -29.5 -34t-41 -41.5t-44.5 -41t-40 -33.5h-70v12q15 19 34 45t37 53.5t30 49.5h124v-10z" />
    <glyph glyph-name="lacute" unicode="&#x13a;" horiz-adv-x="272" 
d="M189 0h-106v760h106v-760zM303 977q-11 -14 -29.5 -34t-41 -41.5t-44.5 -41t-40 -33.5h-70v12q15 19 34 45t37 53.5t30 49.5h124v-10z" />
    <glyph glyph-name="uni013B" unicode="&#x13b;" horiz-adv-x="536" 
d="M95 0v714h108v-621h305v-93h-413zM372 -70q-6 -19 -18.5 -46t-28.5 -54.5t-33 -50.5h-60v12q8 18 15.5 44.5t14 54.5t8.5 49h102v-9z" />
    <glyph glyph-name="uni013C" unicode="&#x13c;" horiz-adv-x="272" 
d="M189 0h-106v760h106v-760zM206 -70q-6 -19 -18.5 -46t-28.5 -54.5t-33 -50.5h-60v12q8 18 15.5 44.5t14 54.5t8.5 49h102v-9z" />
    <glyph glyph-name="Lcaron" unicode="&#x13d;" horiz-adv-x="536" 
d="M517 705q-6 -19 -18 -45.5t-26.5 -54.5t-30.5 -51h-59v12q4 15 9 33.5t9.5 39t8 40t5.5 35.5h102v-9zM95 0v714h108v-621h305v-93h-413z" />
    <glyph glyph-name="lcaron" unicode="&#x13e;" horiz-adv-x="272" 
d="M362 751q-6 -19 -17.5 -45.5t-26.5 -54.5t-31 -51h-59v12q5 15 9.5 33.5t9 39t8 40t5.5 35.5h102v-9zM189 0h-106v760h106v-760z" />
    <glyph glyph-name="Ldot" unicode="&#x13f;" horiz-adv-x="536" 
d="M95 0v714h108v-621h305v-93h-413zM400 429q23 0 41 -14t18 -47q0 -32 -18 -46.5t-41 -14.5q-26 0 -43.5 14.5t-17.5 46.5q0 33 17.5 47t43.5 14z" />
    <glyph glyph-name="ldot" unicode="&#x140;" horiz-adv-x="296" 
d="M189 0h-106v760h106v-760zM284 440q23 0 41 -14t18 -47q0 -32 -18 -46.5t-41 -14.5q-26 0 -43.5 14.5t-17.5 46.5q0 33 17.5 47t43.5 14z" />
    <glyph glyph-name="Lslash" unicode="&#x141;" horiz-adv-x="536" 
d="M95 0v245l-45 -26l-41 71l86 51v373h108v-308l117 69l42 -72l-159 -94v-216h305v-93h-413z" />
    <glyph glyph-name="lslash" unicode="&#x142;" horiz-adv-x="272" 
d="M78 0v270l-46 -29l-42 70l88 56v393h106v-326l55 37l43 -70l-98 -64v-337h-106z" />
    <glyph glyph-name="Nacute" unicode="&#x143;" horiz-adv-x="776" 
d="M681 0h-131l-361 577h-4q2 -26 3.5 -58t3 -67t1.5 -72v-380h-98v714h130l360 -574h3q-1 21 -2 53t-2.5 68.5t-2.5 68.5v384h100v-714zM555 931q-11 -14 -29.5 -34t-41 -41.5t-44.5 -41t-40 -33.5h-70v12q15 19 34 45t37 53.5t30 49.5h124v-10z" />
    <glyph glyph-name="nacute" unicode="&#x144;" horiz-adv-x="630" 
d="M356 549q94 0 144 -47t50 -151v-351h-105v336q0 63 -26.5 94.5t-84.5 31.5q-82 0 -113.5 -49t-31.5 -141v-272h-106v539h84l15 -72h6q18 28 44 46t58 27t66 9zM482 756q-11 -14 -29.5 -34t-41 -41.5t-44.5 -41t-40 -33.5h-70v12q15 19 34 45t37 53.5t30 49.5h124v-10z
" />
    <glyph glyph-name="uni0145" unicode="&#x145;" horiz-adv-x="776" 
d="M681 0h-131l-361 577h-4q2 -26 3.5 -58t3 -67t1.5 -72v-380h-98v714h130l360 -574h3q-1 21 -2 53t-2.5 68.5t-2.5 68.5v384h100v-714zM458 -70q-6 -19 -18.5 -46t-28.5 -54.5t-33 -50.5h-60v12q8 18 15.5 44.5t14 54.5t8.5 49h102v-9z" />
    <glyph glyph-name="uni0146" unicode="&#x146;" horiz-adv-x="630" 
d="M356 549q94 0 144 -47t50 -151v-351h-105v336q0 63 -26.5 94.5t-84.5 31.5q-82 0 -113.5 -49t-31.5 -141v-272h-106v539h84l15 -72h6q18 28 44 46t58 27t66 9zM385 -70q-6 -19 -18.5 -46t-28.5 -54.5t-33 -50.5h-60v12q8 18 15.5 44.5t14 54.5t8.5 49h102v-9z" />
    <glyph glyph-name="Ncaron" unicode="&#x147;" horiz-adv-x="776" 
d="M681 0h-131l-361 577h-4q2 -26 3.5 -58t3 -67t1.5 -72v-380h-98v714h130l360 -574h3q-1 21 -2 53t-2.5 68.5t-2.5 68.5v384h100v-714zM330 781q-14 23 -36 49.5t-46 52.5t-42 45v13h72q26 -17 54.5 -40t53.5 -50q27 27 55.5 50t54.5 40h73v-13q-18 -19 -42.5 -45
t-47 -52.5t-35.5 -49.5h-114z" />
    <glyph glyph-name="ncaron" unicode="&#x148;" horiz-adv-x="630" 
d="M356 549q94 0 144 -47t50 -151v-351h-105v336q0 63 -26.5 94.5t-84.5 31.5q-82 0 -113.5 -49t-31.5 -141v-272h-106v539h84l15 -72h6q18 28 44 46t58 27t66 9zM257 606q-14 23 -36 49.5t-46 52.5t-42 45v13h72q26 -17 54.5 -40t53.5 -50q27 27 55.5 50t54.5 40h73v-13
q-18 -19 -42.5 -45t-47 -52.5t-35.5 -49.5h-114z" />
    <glyph glyph-name="napostrophe" unicode="&#x149;" horiz-adv-x="712" 
d="M439 549q94 0 144 -47t50 -151v-351h-105v336q0 63 -26.5 94.5t-84.5 31.5q-82 0 -113.5 -49t-31.5 -141v-272h-106v539h84l15 -72h6q18 28 44 46t58 27t66 9zM164 703q-9 -35 -23 -76t-30 -81.5t-33 -76.5h-77q7 29 14.5 61t14 64.5t12 63t9.5 56.5h106z" />
    <glyph glyph-name="Eng" unicode="&#x14a;" horiz-adv-x="776" 
d="M481 -196q-27 0 -47 3.5t-35 9.5v88q17 -4 36 -7t42 -3q29 0 52.5 9.5t38 33t15.5 63.5l-394 576h-4q2 -21 3.5 -57t3 -75t1.5 -73v-372h-98v714h130l360 -533h3q-1 24 -3 57.5t-3 71t-1 70.5v334h100v-710q0 -68 -25 -112.5t-69.5 -66t-105.5 -21.5z" />
    <glyph glyph-name="eng" unicode="&#x14b;" horiz-adv-x="630" 
d="M397 -240q-23 0 -42.5 3.5t-33.5 8.5v85q14 -4 28 -7t31 -3q28 0 46.5 17.5t18.5 66.5v409q0 61 -27 91.5t-83 30.5q-55 0 -87 -22t-45.5 -64t-13.5 -103v-273h-106v539h84l15 -72h7q18 28 43.5 46t57.5 27t66 9q64 0 107.5 -20.5t65.5 -64t22 -112.5v-426
q0 -50 -16 -87.5t-50 -58t-88 -20.5z" />
    <glyph glyph-name="Omacron" unicode="&#x14c;" horiz-adv-x="785" 
d="M725 358q0 -83 -20.5 -150.5t-62 -116.5t-104 -75t-145.5 -26q-85 0 -147.5 26.5t-104 75t-61.5 116.5t-20 151q0 110 36 192t110.5 128t187.5 46q110 0 183.5 -45.5t110.5 -128t37 -193.5zM174 358q0 -86 23 -147.5t72 -95t124 -33.5q76 0 124 33.5t71 95t23 147.5
q0 129 -51.5 201.5t-165.5 72.5q-76 0 -125 -33t-72 -94t-23 -147zM546 861v-80h-307v80h307z" />
    <glyph glyph-name="omacron" unicode="&#x14d;" horiz-adv-x="609" 
d="M558 270q0 -67 -18 -119t-51 -88t-80 -54.5t-106 -18.5q-54 0 -100 18.5t-79.5 54.5t-52.5 88t-19 120q0 89 30.5 151t88 94.5t135.5 32.5q74 0 130.5 -32.5t89 -94.5t32.5 -152zM161 270q0 -60 15 -103.5t47 -66.5t82 -23t82 23t47 66.5t15 103.5q0 62 -15.5 104
t-47 64.5t-82.5 22.5q-75 0 -109 -50t-34 -141zM458 686v-80h-307v80h307z" />
    <glyph glyph-name="Obreve" unicode="&#x14e;" horiz-adv-x="785" 
d="M725 358q0 -83 -20.5 -150.5t-62 -116.5t-104 -75t-145.5 -26q-85 0 -147.5 26.5t-104 75t-61.5 116.5t-20 151q0 110 36 192t110.5 128t187.5 46q110 0 183.5 -45.5t110.5 -128t37 -193.5zM174 358q0 -86 23 -147.5t72 -95t124 -33.5q76 0 124 33.5t71 95t23 147.5
q0 129 -51.5 201.5t-165.5 72.5q-76 0 -125 -33t-72 -94t-23 -147zM559 924q-3 -42 -24.5 -74.5t-58 -50.5t-86.5 -18q-78 0 -119 39t-45 104h63q3 -27 16 -40.5t35 -17.5t52 -4q25 0 47 4.5t37.5 18t18.5 39.5h64z" />
    <glyph glyph-name="obreve" unicode="&#x14f;" horiz-adv-x="609" 
d="M558 270q0 -67 -18 -119t-51 -88t-80 -54.5t-106 -18.5q-54 0 -100 18.5t-79.5 54.5t-52.5 88t-19 120q0 89 30.5 151t88 94.5t135.5 32.5q74 0 130.5 -32.5t89 -94.5t32.5 -152zM161 270q0 -60 15 -103.5t47 -66.5t82 -23t82 23t47 66.5t15 103.5q0 62 -15.5 104
t-47 64.5t-82.5 22.5q-75 0 -109 -50t-34 -141zM471 749q-3 -42 -24.5 -74.5t-58 -50.5t-86.5 -18q-78 0 -119 39t-45 104h63q3 -27 16 -40.5t35 -17.5t52 -4q25 0 47 4.5t37.5 18t18.5 39.5h64z" />
    <glyph glyph-name="Ohungarumlaut" unicode="&#x150;" horiz-adv-x="785" 
d="M725 358q0 -83 -20.5 -150.5t-62 -116.5t-104 -75t-145.5 -26q-85 0 -147.5 26.5t-104 75t-61.5 116.5t-20 151q0 110 36 192t110.5 128t187.5 46q110 0 183.5 -45.5t110.5 -128t37 -193.5zM174 358q0 -86 23 -147.5t72 -95t124 -33.5q76 0 124 33.5t71 95t23 147.5
q0 129 -51.5 201.5t-165.5 72.5q-76 0 -125 -33t-72 -94t-23 -147zM584 931q-8 -13 -24.5 -33t-37.5 -42t-42 -41.5t-38 -33.5h-59v12q14 19 30.5 45t32.5 53.5t27 49.5h111v-10zM402 931q-8 -13 -24 -33t-37 -42t-42 -41.5t-38 -33.5h-59v12q14 19 30.5 45t32 53.5
t26.5 49.5h111v-10z" />
    <glyph glyph-name="ohungarumlaut" unicode="&#x151;" horiz-adv-x="609" 
d="M558 270q0 -67 -18 -119t-51 -88t-80 -54.5t-106 -18.5q-54 0 -100 18.5t-79.5 54.5t-52.5 88t-19 120q0 89 30.5 151t88 94.5t135.5 32.5q74 0 130.5 -32.5t89 -94.5t32.5 -152zM161 270q0 -60 15 -103.5t47 -66.5t82 -23t82 23t47 66.5t15 103.5q0 62 -15.5 104
t-47 64.5t-82.5 22.5q-75 0 -109 -50t-34 -141zM496 756q-8 -13 -24.5 -33t-37.5 -42t-42 -41.5t-38 -33.5h-59v12q14 19 30.5 45t32.5 53.5t27 49.5h111v-10zM314 756q-8 -13 -24 -33t-37 -42t-42 -41.5t-38 -33.5h-59v12q14 19 30.5 45t32 53.5t26.5 49.5h111v-10z" />
    <glyph glyph-name="OE" unicode="&#x152;" horiz-adv-x="941" 
d="M384 725q26 0 52 -3t48 -8h398v-92h-284v-204h265v-91h-265v-234h284v-93h-394q-22 -4 -48.5 -7t-52.5 -3q-110 0 -183 46t-108.5 129t-35.5 194t35.5 193t107.5 127.5t181 45.5zM390 632q-56 0 -97.5 -18.5t-67.5 -54.5t-39.5 -86.5t-13.5 -114.5q0 -86 23.5 -147.5
t71.5 -95t122 -33.5q28 0 55 5t47 13v515q-20 9 -46.5 13t-54.5 4z" />
    <glyph glyph-name="oe" unicode="&#x153;" horiz-adv-x="955" 
d="M679 548q71 0 121.5 -29.5t78 -84t27.5 -129.5v-58h-358q2 -87 42 -129t114 -42q53 0 93.5 9.5t82.5 28.5v-88q-41 -18 -81.5 -27t-97.5 -9q-66 0 -118 25t-86 76q-32 -50 -82.5 -75.5t-114.5 -25.5q-72 0 -128 32.5t-88.5 95.5t-32.5 152t30 151t86.5 94.5t134.5 32.5
q61 0 110.5 -25t80.5 -75q21 33 49 55.5t62.5 33.5t74.5 11zM299 461q-73 0 -105.5 -47.5t-32.5 -143.5q0 -63 14.5 -106t45.5 -65t80 -22q48 0 78.5 21.5t45.5 64t15 105.5q0 65 -15 107.5t-46 64t-80 21.5zM679 466q-56 0 -89.5 -35.5t-39.5 -105.5h249q0 42 -12.5 74
t-39 49.5t-68.5 17.5z" />
    <glyph glyph-name="Racute" unicode="&#x154;" horiz-adv-x="633" 
d="M295 714q92 0 151 -23t88 -68.5t29 -114.5q0 -55 -20.5 -92.5t-52.5 -61t-67 -37.5l200 -317h-124l-172 289h-124v-289h-108v714h200zM288 622h-85v-243h90q83 0 121 31.5t38 93.5q0 43 -17.5 68.5t-54 37.5t-92.5 12zM486 931q-11 -14 -29.5 -34t-41 -41.5t-44.5 -41
t-40 -33.5h-70v12q15 19 34 45t37 53.5t30 49.5h124v-10z" />
    <glyph glyph-name="racute" unicode="&#x155;" horiz-adv-x="425" 
d="M349 549q14 0 31 -1.5t28 -3.5l-11 -99q-11 3 -26 5t-28 2q-30 0 -57.5 -11.5t-49.5 -33t-34.5 -52.5t-12.5 -71v-284h-106v539h84l14 -96h4q17 29 41 53t55 38.5t68 14.5zM411 756q-11 -14 -29.5 -34t-41 -41.5t-44.5 -41t-40 -33.5h-70v12q15 19 34 45t37 53.5t30 49.5
h124v-10z" />
    <glyph glyph-name="uni0156" unicode="&#x156;" horiz-adv-x="633" 
d="M295 714q92 0 151 -23t88 -68.5t29 -114.5q0 -55 -20.5 -92.5t-52.5 -61t-67 -37.5l200 -317h-124l-172 289h-124v-289h-108v714h200zM288 622h-85v-243h90q83 0 121 31.5t38 93.5q0 43 -17.5 68.5t-54 37.5t-92.5 12zM407 -70q-6 -19 -18.5 -46t-28.5 -54.5t-33 -50.5
h-60v12q8 18 15.5 44.5t14 54.5t8.5 49h102v-9z" />
    <glyph glyph-name="uni0157" unicode="&#x157;" horiz-adv-x="425" 
d="M349 549q14 0 31 -1.5t28 -3.5l-11 -99q-11 3 -26 5t-28 2q-30 0 -57.5 -11.5t-49.5 -33t-34.5 -52.5t-12.5 -71v-284h-106v539h84l14 -96h4q17 29 41 53t55 38.5t68 14.5zM205 -70q-6 -19 -18.5 -46t-28.5 -54.5t-33 -50.5h-60v12q8 18 15.5 44.5t14 54.5t8.5 49h102v-9
z" />
    <glyph glyph-name="Rcaron" unicode="&#x158;" horiz-adv-x="633" 
d="M295 714q92 0 151 -23t88 -68.5t29 -114.5q0 -55 -20.5 -92.5t-52.5 -61t-67 -37.5l200 -317h-124l-172 289h-124v-289h-108v714h200zM288 622h-85v-243h90q83 0 121 31.5t38 93.5q0 43 -17.5 68.5t-54 37.5t-92.5 12zM261 781q-14 23 -36 49.5t-46 52.5t-42 45v13h72
q26 -17 54.5 -40t53.5 -50q27 27 55.5 50t54.5 40h73v-13q-18 -19 -42.5 -45t-47 -52.5t-35.5 -49.5h-114z" />
    <glyph glyph-name="rcaron" unicode="&#x159;" horiz-adv-x="425" 
d="M349 549q14 0 31 -1.5t28 -3.5l-11 -99q-11 3 -26 5t-28 2q-30 0 -57.5 -11.5t-49.5 -33t-34.5 -52.5t-12.5 -71v-284h-106v539h84l14 -96h4q17 29 41 53t55 38.5t68 14.5zM186 606q-14 23 -36 49.5t-46 52.5t-42 45v13h72q26 -17 54.5 -40t53.5 -50q27 27 55.5 50
t54.5 40h73v-13q-18 -19 -42.5 -45t-47 -52.5t-35.5 -49.5h-114z" />
    <glyph glyph-name="Sacute" unicode="&#x15a;" horiz-adv-x="550" 
d="M505 193q0 -64 -31 -109t-89 -69.5t-138 -24.5q-39 0 -75 4.5t-67 12.5t-55 20v102q40 -18 94 -32.5t110 -14.5q48 0 80 13t48 36t16 54q0 33 -16.5 55.5t-51 42t-92.5 41.5q-40 15 -72.5 33.5t-57 43.5t-37.5 58t-13 77q0 59 29.5 101t81.5 64.5t121 22.5
q58 0 107.5 -11.5t94.5 -31.5l-34 -89q-41 17 -83 28t-88 11q-40 0 -67 -12t-40.5 -33t-13.5 -49q0 -33 15 -55t48 -40.5t87 -40.5q60 -23 102.5 -50t64.5 -64.5t22 -93.5zM451 931q-11 -14 -29.5 -34t-41 -41.5t-44.5 -41t-40 -33.5h-70v12q15 19 34 45t37 53.5t30 49.5
h124v-10z" />
    <glyph glyph-name="sacute" unicode="&#x15b;" horiz-adv-x="484" 
d="M441 152q0 -53 -26 -89t-75 -54.5t-118 -18.5q-57 0 -97.5 8.5t-74.5 24.5v93q36 -17 83 -30.5t92 -13.5q60 0 86.5 19t26.5 51q0 18 -10 32.5t-37.5 30t-80.5 35.5q-51 21 -87 41.5t-55 49t-19 73.5q0 70 56.5 107.5t149.5 37.5q49 0 92.5 -9.5t84.5 -28.5l-35 -81
q-35 15 -72 25.5t-75 10.5q-48 0 -73 -15t-25 -42q0 -19 11.5 -33t40.5 -28t79 -34q50 -19 85.5 -39t54 -49t18.5 -74zM409 756q-11 -14 -29.5 -34t-41 -41.5t-44.5 -41t-40 -33.5h-70v12q15 19 34 45t37 53.5t30 49.5h124v-10z" />
    <glyph glyph-name="Scircumflex" unicode="&#x15c;" horiz-adv-x="550" 
d="M505 193q0 -64 -31 -109t-89 -69.5t-138 -24.5q-39 0 -75 4.5t-67 12.5t-55 20v102q40 -18 94 -32.5t110 -14.5q48 0 80 13t48 36t16 54q0 33 -16.5 55.5t-51 42t-92.5 41.5q-40 15 -72.5 33.5t-57 43.5t-37.5 58t-13 77q0 59 29.5 101t81.5 64.5t121 22.5
q58 0 107.5 -11.5t94.5 -31.5l-34 -89q-41 17 -83 28t-88 11q-40 0 -67 -12t-40.5 -33t-13.5 -49q0 -33 15 -55t48 -40.5t87 -40.5q60 -23 102.5 -50t64.5 -64.5t22 -93.5zM341 941q13 -22 35.5 -49.5t47 -54t42.5 -44.5v-12h-73q-26 16 -54.5 39t-55.5 50
q-27 -27 -54.5 -49.5t-53.5 -39.5h-72v12q19 19 42.5 45t45.5 53.5t36 49.5h114z" />
    <glyph glyph-name="scircumflex" unicode="&#x15d;" horiz-adv-x="484" 
d="M441 152q0 -53 -26 -89t-75 -54.5t-118 -18.5q-57 0 -97.5 8.5t-74.5 24.5v93q36 -17 83 -30.5t92 -13.5q60 0 86.5 19t26.5 51q0 18 -10 32.5t-37.5 30t-80.5 35.5q-51 21 -87 41.5t-55 49t-19 73.5q0 70 56.5 107.5t149.5 37.5q49 0 92.5 -9.5t84.5 -28.5l-35 -81
q-35 15 -72 25.5t-75 10.5q-48 0 -73 -15t-25 -42q0 -19 11.5 -33t40.5 -28t79 -34q50 -19 85.5 -39t54 -49t18.5 -74zM299 766q13 -22 35.5 -49.5t47 -54t42.5 -44.5v-12h-73q-26 16 -54.5 39t-55.5 50q-27 -27 -54.5 -49.5t-53.5 -39.5h-72v12q19 19 42.5 45t45.5 53.5
t36 49.5h114z" />
    <glyph glyph-name="Scedilla" unicode="&#x15e;" horiz-adv-x="550" 
d="M505 193q0 -64 -31 -109t-89 -69.5t-138 -24.5q-39 0 -75 4.5t-67 12.5t-55 20v102q40 -18 94 -32.5t110 -14.5q48 0 80 13t48 36t16 54q0 33 -16.5 55.5t-51 42t-92.5 41.5q-40 15 -72.5 33.5t-57 43.5t-37.5 58t-13 77q0 59 29.5 101t81.5 64.5t121 22.5
q58 0 107.5 -11.5t94.5 -31.5l-34 -89q-41 17 -83 28t-88 11q-40 0 -67 -12t-40.5 -33t-13.5 -49q0 -33 15 -55t48 -40.5t87 -40.5q60 -23 102.5 -50t64.5 -64.5t22 -93.5zM363 -134q0 -50 -36 -78t-113 -28q-17 0 -32 2t-24 4v63q10 -2 26.5 -4t31.5 -2q29 0 45.5 8.5
t16.5 31.5t-24 36t-64 18l42 83h68l-22 -46q23 -6 42.5 -17t31 -28t11.5 -43z" />
    <glyph glyph-name="scedilla" unicode="&#x15f;" horiz-adv-x="484" 
d="M441 152q0 -53 -26 -89t-75 -54.5t-118 -18.5q-57 0 -97.5 8.5t-74.5 24.5v93q36 -17 83 -30.5t92 -13.5q60 0 86.5 19t26.5 51q0 18 -10 32.5t-37.5 30t-80.5 35.5q-51 21 -87 41.5t-55 49t-19 73.5q0 70 56.5 107.5t149.5 37.5q49 0 92.5 -9.5t84.5 -28.5l-35 -81
q-35 15 -72 25.5t-75 10.5q-48 0 -73 -15t-25 -42q0 -19 11.5 -33t40.5 -28t79 -34q50 -19 85.5 -39t54 -49t18.5 -74zM346 -134q0 -50 -36 -78t-113 -28q-17 0 -32 2t-24 4v63q10 -2 26.5 -4t31.5 -2q29 0 45.5 8.5t16.5 31.5t-24 36t-64 18l42 83h68l-22 -46
q23 -6 42.5 -17t31 -28t11.5 -43z" />
    <glyph glyph-name="Scaron" unicode="&#x160;" horiz-adv-x="550" 
d="M505 193q0 -64 -31 -109t-89 -69.5t-138 -24.5q-39 0 -75 4.5t-67 12.5t-55 20v102q40 -18 94 -32.5t110 -14.5q48 0 80 13t48 36t16 54q0 33 -16.5 55.5t-51 42t-92.5 41.5q-40 15 -72.5 33.5t-57 43.5t-37.5 58t-13 77q0 59 29.5 101t81.5 64.5t121 22.5
q58 0 107.5 -11.5t94.5 -31.5l-34 -89q-41 17 -83 28t-88 11q-40 0 -67 -12t-40.5 -33t-13.5 -49q0 -33 15 -55t48 -40.5t87 -40.5q60 -23 102.5 -50t64.5 -64.5t22 -93.5zM227 781q-14 23 -36 49.5t-46 52.5t-42 45v13h72q26 -17 54.5 -40t53.5 -50q27 27 55.5 50t54.5 40
h73v-13q-18 -19 -42.5 -45t-47 -52.5t-35.5 -49.5h-114z" />
    <glyph glyph-name="scaron" unicode="&#x161;" horiz-adv-x="484" 
d="M441 152q0 -53 -26 -89t-75 -54.5t-118 -18.5q-57 0 -97.5 8.5t-74.5 24.5v93q36 -17 83 -30.5t92 -13.5q60 0 86.5 19t26.5 51q0 18 -10 32.5t-37.5 30t-80.5 35.5q-51 21 -87 41.5t-55 49t-19 73.5q0 70 56.5 107.5t149.5 37.5q49 0 92.5 -9.5t84.5 -28.5l-35 -81
q-35 15 -72 25.5t-75 10.5q-48 0 -73 -15t-25 -42q0 -19 11.5 -33t40.5 -28t79 -34q50 -19 85.5 -39t54 -49t18.5 -74zM185 606q-14 23 -36 49.5t-46 52.5t-42 45v13h72q26 -17 54.5 -40t53.5 -50q27 27 55.5 50t54.5 40h73v-13q-18 -19 -42.5 -45t-47 -52.5t-35.5 -49.5
h-114z" />
    <glyph glyph-name="uni0162" unicode="&#x162;" horiz-adv-x="563" 
d="M335 0h-108v621h-214v93h536v-93h-214v-621zM387 -134q0 -50 -36 -78t-113 -28q-17 0 -32 2t-24 4v63q10 -2 26.5 -4t31.5 -2q29 0 45.5 8.5t16.5 31.5t-24 36t-64 18l42 83h68l-22 -46q23 -6 42.5 -17t31 -28t11.5 -43z" />
    <glyph glyph-name="uni0163" unicode="&#x163;" horiz-adv-x="383" 
d="M277 76q21 0 43 4t38 9v-80q-17 -8 -46 -13.5t-58 -5.5q-44 0 -80.5 15t-58.5 52t-22 103v298h-75v48l79 40l37 114h65v-121h154v-81h-154v-296q0 -44 21.5 -65t56.5 -21zM328 -134q0 -50 -36 -78t-113 -28q-17 0 -32 2t-24 4v63q10 -2 26.5 -4t31.5 -2q29 0 45.5 8.5
t16.5 31.5t-24 36t-64 18l42 83h68l-22 -46q23 -6 42.5 -17t31 -28t11.5 -43z" />
    <glyph glyph-name="Tcaron" unicode="&#x164;" horiz-adv-x="563" 
d="M335 0h-108v621h-214v93h536v-93h-214v-621zM224 781q-14 23 -36 49.5t-46 52.5t-42 45v13h72q26 -17 54.5 -40t53.5 -50q27 27 55.5 50t54.5 40h73v-13q-18 -19 -42.5 -45t-47 -52.5t-35.5 -49.5h-114z" />
    <glyph glyph-name="tcaron" unicode="&#x165;" horiz-adv-x="383" 
d="M500 751q-6 -19 -18 -45.5t-27 -54.5t-30 -51h-60v12q5 15 10 33.5t9 39t7.5 40t5.5 35.5h103v-9zM277 76q21 0 43 4t38 9v-80q-17 -8 -46 -13.5t-58 -5.5q-44 0 -80.5 15t-58.5 52t-22 103v298h-75v48l79 40l37 114h65v-121h154v-81h-154v-296q0 -44 21.5 -65t56.5 -21z
" />
    <glyph glyph-name="Tbar" unicode="&#x166;" horiz-adv-x="563" 
d="M227 0v315h-141v89h141v216h-214v94h536v-94h-214v-216h140v-89h-140v-315h-108z" />
    <glyph glyph-name="tbar" unicode="&#x167;" horiz-adv-x="383" 
d="M26 269v75h316v-75h-316zM277 76q21 0 43 4t38 9v-80q-17 -8 -46 -13.5t-58 -5.5q-44 0 -80.5 15t-58.5 52t-22 103v298h-75v48l79 40l37 114h65v-121h154v-81h-154v-296q0 -44 21.5 -65t56.5 -21z" />
    <glyph glyph-name="Utilde" unicode="&#x168;" horiz-adv-x="738" 
d="M649 252q0 -74 -30.5 -133.5t-93.5 -94t-159 -34.5q-136 0 -206.5 72.5t-70.5 191.5v460h108v-455q0 -88 43 -132.5t131 -44.5q60 0 98 22t55.5 61.5t17.5 94.5v454h107v-462zM181 781q3 32 12.5 57t24.5 42t35 26t45 9q21 0 41.5 -8t39 -19t36.5 -19.5t34 -8.5
q21 0 34 14t19 42h57q-6 -63 -37 -98.5t-79 -35.5q-21 0 -40.5 8t-39 19.5t-37 19.5t-34.5 8q-22 0 -34.5 -14t-19.5 -42h-57z" />
    <glyph glyph-name="utilde" unicode="&#x169;" horiz-adv-x="630" 
d="M547 539v-539h-85l-15 71h-5q-17 -28 -44 -46t-59 -26.5t-66 -8.5q-63 0 -106.5 20.5t-66 64t-22.5 111.5v353h107v-337q0 -63 26.5 -94t82.5 -31t88 22t45.5 64.5t13.5 102.5v273h106zM126 606q3 32 12.5 57t24.5 42t35 26t45 9q21 0 41.5 -8t39 -19t36.5 -19.5t34 -8.5
q21 0 34 14t19 42h57q-6 -63 -37 -98.5t-79 -35.5q-21 0 -40.5 8t-39 19.5t-37 19.5t-34.5 8q-22 0 -34.5 -14t-19.5 -42h-57z" />
    <glyph glyph-name="Umacron" unicode="&#x16a;" horiz-adv-x="738" 
d="M649 252q0 -74 -30.5 -133.5t-93.5 -94t-159 -34.5q-136 0 -206.5 72.5t-70.5 191.5v460h108v-455q0 -88 43 -132.5t131 -44.5q60 0 98 22t55.5 61.5t17.5 94.5v454h107v-462zM523 861v-80h-307v80h307z" />
    <glyph glyph-name="umacron" unicode="&#x16b;" horiz-adv-x="630" 
d="M547 539v-539h-85l-15 71h-5q-17 -28 -44 -46t-59 -26.5t-66 -8.5q-63 0 -106.5 20.5t-66 64t-22.5 111.5v353h107v-337q0 -63 26.5 -94t82.5 -31t88 22t45.5 64.5t13.5 102.5v273h106zM468 686v-80h-307v80h307z" />
    <glyph glyph-name="Ubreve" unicode="&#x16c;" horiz-adv-x="738" 
d="M649 252q0 -74 -30.5 -133.5t-93.5 -94t-159 -34.5q-136 0 -206.5 72.5t-70.5 191.5v460h108v-455q0 -88 43 -132.5t131 -44.5q60 0 98 22t55.5 61.5t17.5 94.5v454h107v-462zM536 924q-3 -42 -24.5 -74.5t-58 -50.5t-86.5 -18q-78 0 -119 39t-45 104h63q3 -27 16 -40.5
t35 -17.5t52 -4q25 0 47 4.5t37.5 18t18.5 39.5h64z" />
    <glyph glyph-name="ubreve" unicode="&#x16d;" horiz-adv-x="630" 
d="M547 539v-539h-85l-15 71h-5q-17 -28 -44 -46t-59 -26.5t-66 -8.5q-63 0 -106.5 20.5t-66 64t-22.5 111.5v353h107v-337q0 -63 26.5 -94t82.5 -31t88 22t45.5 64.5t13.5 102.5v273h106zM481 749q-3 -42 -24.5 -74.5t-58 -50.5t-86.5 -18q-78 0 -119 39t-45 104h63
q3 -27 16 -40.5t35 -17.5t52 -4q25 0 47 4.5t37.5 18t18.5 39.5h64z" />
    <glyph glyph-name="Uring" unicode="&#x16e;" horiz-adv-x="738" 
d="M649 252q0 -74 -30.5 -133.5t-93.5 -94t-159 -34.5q-136 0 -206.5 72.5t-70.5 191.5v460h108v-455q0 -88 43 -132.5t131 -44.5q60 0 98 22t55.5 61.5t17.5 94.5v454h107v-462zM369 781q-51 0 -82 28.5t-31 80.5q0 51 31 79.5t82 28.5q48 0 81 -28.5t33 -78.5
q0 -53 -32.5 -81.5t-81.5 -28.5zM369 836q23 0 38 14.5t15 39.5q0 24 -15.5 38.5t-37.5 14.5q-23 0 -38.5 -14.5t-15.5 -38.5q0 -25 14 -39.5t40 -14.5z" />
    <glyph glyph-name="uring" unicode="&#x16f;" horiz-adv-x="630" 
d="M547 539v-539h-85l-15 71h-5q-17 -28 -44 -46t-59 -26.5t-66 -8.5q-63 0 -106.5 20.5t-66 64t-22.5 111.5v353h107v-337q0 -63 26.5 -94t82.5 -31t88 22t45.5 64.5t13.5 102.5v273h106zM314 606q-51 0 -82 28.5t-31 80.5q0 51 31 79.5t82 28.5q48 0 81 -28.5t33 -78.5
q0 -53 -32.5 -81.5t-81.5 -28.5zM314 661q23 0 38 14.5t15 39.5q0 24 -15.5 38.5t-37.5 14.5q-23 0 -38.5 -14.5t-15.5 -38.5q0 -25 14 -39.5t40 -14.5z" />
    <glyph glyph-name="Uhungarumlaut" unicode="&#x170;" horiz-adv-x="738" 
d="M649 252q0 -74 -30.5 -133.5t-93.5 -94t-159 -34.5q-136 0 -206.5 72.5t-70.5 191.5v460h108v-455q0 -88 43 -132.5t131 -44.5q60 0 98 22t55.5 61.5t17.5 94.5v454h107v-462zM560 931q-8 -13 -24.5 -33t-37.5 -42t-42 -41.5t-38 -33.5h-59v12q14 19 30.5 45t32.5 53.5
t27 49.5h111v-10zM378 931q-8 -13 -24 -33t-37 -42t-42 -41.5t-38 -33.5h-59v12q14 19 30.5 45t32 53.5t26.5 49.5h111v-10z" />
    <glyph glyph-name="uhungarumlaut" unicode="&#x171;" horiz-adv-x="630" 
d="M547 539v-539h-85l-15 71h-5q-17 -28 -44 -46t-59 -26.5t-66 -8.5q-63 0 -106.5 20.5t-66 64t-22.5 111.5v353h107v-337q0 -63 26.5 -94t82.5 -31t88 22t45.5 64.5t13.5 102.5v273h106zM506 756q-8 -13 -24.5 -33t-37.5 -42t-42 -41.5t-38 -33.5h-59v12q14 19 30.5 45
t32.5 53.5t27 49.5h111v-10zM324 756q-8 -13 -24 -33t-37 -42t-42 -41.5t-38 -33.5h-59v12q14 19 30.5 45t32 53.5t26.5 49.5h111v-10z" />
    <glyph glyph-name="Uogonek" unicode="&#x172;" horiz-adv-x="738" 
d="M472 -105q0 -28 12 -40.5t31 -12.5q17 0 29.5 2.5t20.5 4.5v-65q-14 -4 -29.5 -7t-36.5 -3q-54 0 -81.5 28t-27.5 80q0 32 16 63t39.5 56t46.5 40l72 12q-31 -34 -52 -61t-30.5 -50.5t-9.5 -46.5zM649 252q0 -74 -30.5 -133.5t-93.5 -94t-159 -34.5q-136 0 -206.5 72.5
t-70.5 191.5v460h108v-455q0 -88 43 -132.5t131 -44.5q60 0 98 22t55.5 61.5t17.5 94.5v454h107v-462z" />
    <glyph glyph-name="uogonek" unicode="&#x173;" horiz-adv-x="630" 
d="M547 539v-539h-85l-15 71h-5q-17 -28 -44 -46t-59 -26.5t-66 -8.5q-63 0 -106.5 20.5t-66 64t-22.5 111.5v353h107v-337q0 -63 26.5 -94t82.5 -31t88 22t45.5 64.5t13.5 102.5v273h106zM456 -115q0 -21 12 -32t31 -11q17 0 29.5 2.5t21.5 4.5v-65q-15 -4 -30 -7t-36 -3
q-54 0 -81.5 27t-27.5 72q0 29 14.5 56t37 49.5t45.5 37.5l53 -16q-34 -32 -51.5 -58.5t-17.5 -56.5z" />
    <glyph glyph-name="Wcircumflex" unicode="&#x174;" horiz-adv-x="941" 
d="M932 714l-188 -714h-115l-126 441q-6 18 -11.5 40t-10.5 43.5t-8.5 38.5t-5.5 26q-1 -9 -4 -26t-8 -38.5t-10 -44t-11 -42.5l-124 -438h-115l-187 714h111l105 -422q5 -22 10 -45t9.5 -46t8 -44.5t6.5 -39.5q3 19 6.5 41t8.5 45.5t10.5 46.5t11.5 42l119 422h108
l123 -424q6 -20 11.5 -43t10.5 -46.5t8.5 -45t6.5 -38.5q3 25 8.5 54.5t12.5 61t14 59.5l105 422h110zM527 941q13 -22 35.5 -49.5t47 -54t42.5 -44.5v-12h-73q-26 16 -54.5 39t-55.5 50q-27 -27 -54.5 -49.5t-53.5 -39.5h-72v12q19 19 42.5 45t45.5 53.5t36 49.5h114z" />
    <glyph glyph-name="wcircumflex" unicode="&#x175;" horiz-adv-x="807" 
d="M447 270q-5 20 -11.5 44t-12.5 48.5t-11 45.5t-8 33h-4q-2 -12 -6.5 -33t-10.5 -45.5l-12 -49t-13 -44.5l-80 -268h-118l-149 539h108l70 -273q8 -28 14.5 -59t12 -59.5t7.5 -47.5h4q2 13 6 32.5t8.5 41t9 41.5t9.5 33l86 291h116l84 -291q6 -20 13 -47.5t12.5 -54
t7.5 -45.5h4q2 17 7 44.5t12.5 59.5t14.5 61l72 273h107l-151 -539h-121zM460 766q13 -22 35.5 -49.5t47 -54t42.5 -44.5v-12h-73q-26 16 -54.5 39t-55.5 50q-27 -27 -54.5 -49.5t-53.5 -39.5h-72v12q19 19 42.5 45t45.5 53.5t36 49.5h114z" />
    <glyph glyph-name="Ycircumflex" unicode="&#x176;" horiz-adv-x="583" 
d="M292 380l175 334h116l-238 -437v-277h-107v273l-238 441h117zM348 941q13 -22 35.5 -49.5t47 -54t42.5 -44.5v-12h-73q-26 16 -54.5 39t-55.5 50q-27 -27 -54.5 -49.5t-53.5 -39.5h-72v12q19 19 42.5 45t45.5 53.5t36 49.5h114z" />
    <glyph glyph-name="ycircumflex" unicode="&#x177;" horiz-adv-x="527" 
d="M1 539h114l112 -306q9 -23 16 -45t12.5 -43.5t8.5 -42.5h4q5 26 16 61.5t23 70.5l106 305h114l-231 -612q-19 -52 -47 -89.5t-66.5 -57.5t-90.5 -20q-25 0 -43 2.5t-31 5.5v84q11 -2 26.5 -4t32.5 -2q31 0 53.5 12t38 34t26.5 50l22 58zM320 766q13 -22 35.5 -49.5
t47 -54t42.5 -44.5v-12h-73q-26 16 -54.5 39t-55.5 50q-27 -27 -54.5 -49.5t-53.5 -39.5h-72v12q19 19 42.5 45t45.5 53.5t36 49.5h114z" />
    <glyph glyph-name="Ydieresis" unicode="&#x178;" horiz-adv-x="583" 
d="M292 380l175 334h116l-238 -437v-277h-107v273l-238 441h117zM143 857q0 29 16 41.5t37 12.5q22 0 38 -12.5t16 -40.5t-16 -41.5t-38 -13.5q-21 0 -37 13.5t-16 40.5zM334 857q0 29 15.5 41.5t37.5 12.5q21 0 37 -12.5t16 -40.5t-16 -41.5t-37 -13.5q-22 0 -37.5 13.5
t-15.5 40.5z" />
    <glyph glyph-name="Zacute" unicode="&#x179;" horiz-adv-x="574" 
d="M539 0h-505v77l366 544h-355v93h485v-77l-366 -544h375v-93zM458 931q-11 -14 -29.5 -34t-41 -41.5t-44.5 -41t-40 -33.5h-70v12q15 19 34 45t37 53.5t30 49.5h124v-10z" />
    <glyph glyph-name="zacute" unicode="&#x17a;" horiz-adv-x="475" 
d="M439 0h-404v67l278 390h-261v82h379v-75l-272 -382h280v-82zM404 756q-11 -14 -29.5 -34t-41 -41.5t-44.5 -41t-40 -33.5h-70v12q15 19 34 45t37 53.5t30 49.5h124v-10z" />
    <glyph glyph-name="Zdotaccent" unicode="&#x17b;" horiz-adv-x="574" 
d="M539 0h-505v77l366 544h-355v93h485v-77l-366 -544h375v-93zM293 919q23 0 41 -14t18 -47q0 -32 -18 -46.5t-41 -14.5q-26 0 -43.5 14.5t-17.5 46.5q0 33 17.5 47t43.5 14z" />
    <glyph glyph-name="zdotaccent" unicode="&#x17c;" horiz-adv-x="475" 
d="M439 0h-404v67l278 390h-261v82h379v-75l-272 -382h280v-82zM239 744q23 0 41 -14t18 -47q0 -32 -18 -46.5t-41 -14.5q-26 0 -43.5 14.5t-17.5 46.5q0 33 17.5 47t43.5 14z" />
    <glyph glyph-name="Zcaron" unicode="&#x17d;" horiz-adv-x="574" 
d="M539 0h-505v77l366 544h-355v93h485v-77l-366 -544h375v-93zM234 781q-14 23 -36 49.5t-46 52.5t-42 45v13h72q26 -17 54.5 -40t53.5 -50q27 27 55.5 50t54.5 40h73v-13q-18 -19 -42.5 -45t-47 -52.5t-35.5 -49.5h-114z" />
    <glyph glyph-name="zcaron" unicode="&#x17e;" horiz-adv-x="475" 
d="M439 0h-404v67l278 390h-261v82h379v-75l-272 -382h280v-82zM180 606q-14 23 -36 49.5t-46 52.5t-42 45v13h72q26 -17 54.5 -40t53.5 -50q27 27 55.5 50t54.5 40h73v-13q-18 -19 -42.5 -45t-47 -52.5t-35.5 -49.5h-114z" />
    <glyph glyph-name="longs" unicode="&#x17f;" horiz-adv-x="343" 
d="M269 679q-39 0 -59.5 -24t-20.5 -77v-578h-106v580q0 69 22.5 109t63.5 58t95 18q36 0 63.5 -6t47.5 -14l-27 -81q-16 5 -36.5 10t-42.5 5z" />
    <glyph glyph-name="uni0180" unicode="&#x180;" horiz-adv-x="620" 
d="M351 -10q-42 0 -72.5 10.5t-52.5 28t-37 37.5h-8l-20 -66h-78v599h-76v75h76v86h106v-86h196v-75h-196v-25q0 -32 -1.5 -60.5t-3.5 -48.5h5q23 34 62 57t101 23q65 0 113.5 -30t75.5 -90.5t27 -154.5q0 -93 -27 -155t-76 -93.5t-114 -31.5zM329 77q64 0 97 50t33 144
q0 95 -33 141.5t-99 46.5q-50 0 -80.5 -20t-44 -61t-13.5 -104v-5q0 -93 30 -142.5t110 -49.5z" />
    <glyph glyph-name="uni0181" unicode="&#x181;" horiz-adv-x="749" 
d="M188 0v623h-26q-31 0 -46 -14.5t-15 -37.5q0 -16 3.5 -30.5t6.5 -21.5h-91q-4 10 -7.5 26t-3.5 30q0 44 16 75t50 47.5t88 16.5h234q91 0 152.5 -17t92.5 -56.5t31 -104.5q0 -63 -33 -104.5t-95 -52.5v-5q42 -7 76.5 -25.5t54 -53.5t19.5 -91q0 -65 -30.5 -110.5
t-87 -69.5t-134.5 -24h-255zM426 90q87 0 121 34t34 90q0 34 -15 60t-50.5 40t-95.5 14h-125v-238h131zM414 416q85 0 116.5 27t31.5 80q0 54 -38.5 77t-121.5 23h-107v-207h119z" />
    <glyph glyph-name="uni0182" unicode="&#x182;" horiz-adv-x="622" 
d="M95 0v714h432v-93h-324v-201h92q106 0 166.5 -27t86 -73.5t25.5 -106.5q0 -100 -62.5 -156.5t-206.5 -56.5h-209zM296 91q88 0 127 29.5t39 92.5q0 44 -19 69t-58.5 36t-103.5 11h-78v-238h93z" />
    <glyph glyph-name="uni0183" unicode="&#x183;" horiz-adv-x="620" 
d="M351 -10q-42 0 -72.5 10.5t-52.5 28t-37 37.5h-8l-20 -66h-78v760h431v-85h-325v-101q0 -21 -1 -43t-2 -39.5t-2 -26.5h5q23 34 62 57t101 23q65 0 113.5 -30t75.5 -90.5t27 -154.5q0 -93 -27 -155t-76 -93.5t-114 -31.5zM329 77q64 0 97 50t33 144q0 95 -33 141.5
t-99 46.5q-50 0 -80.5 -20t-44 -61t-13.5 -104v-5q0 -93 30 -142.5t110 -49.5z" />
    <glyph glyph-name="uni0184" unicode="&#x184;" horiz-adv-x="643" 
d="M343 -10q-90 0 -146 26.5t-82 75.5t-26 118v504h108v-294h120q100 0 160.5 -28t88 -76t27.5 -107q0 -98 -61.5 -158.5t-188.5 -60.5zM341 81q73 0 107.5 32t34.5 96q0 44 -21 70.5t-61 38t-98 11.5h-106v-117q0 -71 34.5 -101t109.5 -30z" />
    <glyph glyph-name="uni0185" unicode="&#x185;" horiz-adv-x="618" 
d="M326 -10q-76 0 -131 31.5t-85 93t-30 152.5v493h106v-183q0 -32 -1.5 -61.5t-3.5 -47.5h5q23 34 62.5 57t101.5 23q65 0 113.5 -31t75.5 -93t27 -155q0 -92 -29.5 -154.5t-83.5 -93.5t-127 -31zM326 77q65 0 98 48.5t33 144.5t-33 144t-99 48q-77 0 -108 -46t-31 -139
v-12q0 -92 36.5 -140t103.5 -48z" />
    <glyph glyph-name="uni0186" unicode="&#x186;" horiz-adv-x="633" 
d="M244 -10q-58 0 -101 7.5t-85 23.5v93q44 -14 85.5 -22.5t86.5 -8.5q73 0 124 32.5t78.5 94.5t27.5 147q0 63 -14.5 114t-43 86.5t-71 54.5t-99.5 19q-47 0 -86.5 -12.5t-73.5 -28.5l-40 90q43 21 97 32.5t118 11.5q81 0 142 -25.5t102 -74t61.5 -116t20.5 -151.5
q0 -108 -38 -191t-111.5 -129.5t-179.5 -46.5z" />
    <glyph glyph-name="uni0187" unicode="&#x187;" horiz-adv-x="633" 
d="M636 864q20 0 36.5 -4t26.5 -9v-85q-7 3 -21.5 6.5t-31.5 3.5q-22 0 -35 -12t-13 -38v-48l-39 -88q-35 16 -74.5 28.5t-84.5 12.5q-53 0 -95 -18.5t-71.5 -54.5t-45 -87t-15.5 -115q0 -84 25 -145.5t75 -94.5t126 -33q46 0 88.5 8.5t86.5 22.5v-93q-42 -16 -86 -23.5
t-102 -7.5q-109 0 -181.5 45t-108.5 128t-36 194q0 81 22.5 148.5t65.5 116.5t106.5 75.5t146.5 26.5q28 0 55.5 -3.5t52.5 -9.5v13q0 46 14.5 77.5t42.5 47t70 15.5z" />
    <glyph glyph-name="uni0188" unicode="&#x188;" horiz-adv-x="506" 
d="M300 -10q-74 0 -130 29t-87 90.5t-31 156.5q0 100 33.5 162t91 91.5t131.5 29.5q16 0 31 -1.5t30 -3.5v76q0 48 13.5 80.5t42 48.5t70.5 16q21 0 37 -4.5t26 -9.5v-85q-7 3 -21.5 6.5t-31.5 3.5q-22 0 -34.5 -12t-12.5 -38v-110l-32 -84q-28 11 -59.5 19t-59.5 8
q-50 0 -82.5 -21.5t-48 -64t-15.5 -106.5q0 -61 16 -103t47.5 -63.5t78.5 -21.5q45 0 79 10t64 26v-92q-29 -17 -63 -25t-83 -8z" />
    <glyph glyph-name="Dtail" unicode="&#x189;" horiz-adv-x="733" 
d="M316 714q109 0 189 -40t124 -117.5t44 -192.5q0 -120 -45 -201t-129.5 -122t-204.5 -41h-194v307h-72v92h72v315h216zM309 623h-101v-224h160v-92h-160v-216h82q136 0 203 68t67 202q0 90 -30 148t-85.5 86t-135.5 28z" />
    <glyph glyph-name="uni018A" unicode="&#x18a;" horiz-adv-x="825" 
d="M187 0v623h-26q-31 0 -46 -14.5t-15 -37.5q0 -16 3.5 -30.5t6.5 -21.5h-90q-4 10 -7.5 26t-3.5 30q0 44 16 75t50 47.5t88 16.5h246q109 0 189 -40t123.5 -117.5t43.5 -192.5q0 -120 -45 -201t-129 -122t-204 -41h-200zM383 91q135 0 202 68t67 202q0 90 -29 148t-85 86
t-136 28h-107v-532h88z" />
    <glyph glyph-name="uni018B" unicode="&#x18b;" horiz-adv-x="622" 
d="M322 0q-143 0 -208 53.5t-65 150.5q0 59 28 108t91.5 78.5t169.5 29.5h81v201h-324v93h432v-714h-205zM333 91h86v238h-69q-63 0 -105.5 -11t-63.5 -38t-21 -72q0 -61 43 -89t130 -28z" />
    <glyph glyph-name="uni018C" unicode="&#x18c;" horiz-adv-x="620" 
d="M268 -10q-65 0 -113.5 31.5t-75.5 93t-27 153.5q0 91 27 153t76.5 93.5t114.5 31.5q41 0 71.5 -10.5t53 -28.5t38.5 -40h6q-1 7 -2.5 18.5t-2.5 24t-2 24.5t-1 21v120h-325v85h431v-760h-83l-18 72h-5q-15 -23 -37.5 -41.5t-53.5 -29.5t-72 -11zM293 77q78 0 110 43.5
t32 130.5v16q0 93 -30.5 142.5t-112.5 49.5q-65 0 -98 -51.5t-33 -141.5q0 -91 33 -140t99 -49z" />
    <glyph glyph-name="uni018D" unicode="&#x18d;" horiz-adv-x="608" 
d="M316 549q73 0 129.5 -28.5t88.5 -81t32 -124.5q0 -65 -22 -112.5t-62 -79t-93 -53.5q24 -14 45.5 -33t35 -45.5t13.5 -64.5q0 -39 -22 -74.5t-66.5 -57t-111.5 -21.5q-47 0 -85 10t-65.5 25.5t-45.5 30.5l44 78q32 -27 70 -44t80 -17q39 0 60.5 11t30 27t8.5 31
q0 19 -9.5 35t-34 33.5t-68.5 40.5q-84 45 -127.5 88.5t-59 88t-15.5 90.5q0 85 33.5 139.5t90.5 81t126 26.5zM313 463q-45 0 -77 -20.5t-49 -56.5t-17 -83q0 -45 17.5 -80.5t47.5 -62t72 -47.5q35 13 63 30t47.5 40t30.5 53t11 68q0 49 -18 84t-50.5 55t-77.5 20z" />
    <glyph glyph-name="uni018E" unicode="&#x18e;" horiz-adv-x="557" 
d="M60 0v93h294v234h-276v91h276v204h-294v92h402v-714h-402z" />
    <glyph glyph-name="uni018F" unicode="&#x18f;" horiz-adv-x="762" 
d="M352 632q-50 0 -94.5 -8t-82.5 -20t-67 -24v96q30 13 64.5 24t79 18t102.5 7q85 0 150 -26t109 -75t66 -116.5t22 -151.5t-21 -151.5t-62.5 -115t-103 -73.5t-140.5 -26q-111 0 -179 46t-99 129.5t-31 195.5v35h523q-5 75 -32 127.5t-77.5 80.5t-126.5 28zM374 83
q61 0 107.5 25.5t73.5 74.5t32 120h-408q0 -68 18.5 -117.5t61.5 -76t115 -26.5z" />
    <glyph glyph-name="uni0190" unicode="&#x190;" horiz-adv-x="606" 
d="M319 724q78 0 139 -21t105 -54l-50 -73q-40 27 -83.5 43.5t-105.5 16.5t-98.5 -26.5t-36.5 -75.5q0 -37 21 -64t65.5 -41.5t114.5 -14.5h86v-88h-92q-106 0 -164.5 -28.5t-58.5 -91.5q0 -62 47 -95.5t139 -33.5q36 0 74.5 6.5t75 18t67.5 26.5v-95q-46 -22 -103 -32.5
t-127 -10.5q-100 0 -162.5 26.5t-91.5 73.5t-29 107q0 75 49 120t140 56v4q-48 8 -84 28.5t-55.5 55t-19.5 83.5q0 54 28 94t81 63t129 23z" />
    <glyph glyph-name="uni0191" unicode="&#x191;" horiz-adv-x="616" 
d="M137 -242q-73 0 -113.5 38.5t-40.5 105.5q0 20 4 37t11 34l89 -30q-3 -9 -4.5 -17.5t-1.5 -16.5q0 -30 15 -46.5t41 -16.5q28 0 47 23t19 80v765h382v-92h-275v-202h256v-92h-256v-386q0 -64 -22 -105t-61 -60t-90 -19z" />
    <glyph glyph-name="fhook" unicode="&#x192;" horiz-adv-x="444" 
d="M147 -242q-72 0 -113 38.5t-41 102.5q0 15 2.5 29.5t6.5 26.5l88 -23q-2 -6 -3.5 -14t-1.5 -16q0 -29 15.5 -44.5t37.5 -15.5q26 0 41.5 19t15.5 63v534h-91v50l91 33v34q0 69 21 110.5t61.5 60.5t96.5 19q36 0 65 -6t49 -13l-27 -81q-17 5 -37.5 9.5t-43.5 4.5
q-40 0 -59.5 -26t-19.5 -79v-35h133v-81h-133v-528q0 -55 -18 -93.5t-52 -58.5t-84 -20z" />
    <glyph glyph-name="uni0193" unicode="&#x193;" horiz-adv-x="727" 
d="M682 864q20 0 36.5 -4t25.5 -9v-85q-7 3 -21 6.5t-31 3.5q-23 0 -35.5 -12t-12.5 -38v-47l-39 -88q-37 17 -82.5 28.5t-95.5 11.5q-79 0 -136.5 -33.5t-88 -95t-30.5 -146.5q0 -80 25 -142t79 -97t141 -35q42 0 72 4.5t55 10.5v194h-151v93h258v-356
q-57 -19 -116.5 -28.5t-135.5 -9.5q-109 0 -184.5 44t-115 126t-39.5 197q0 112 44 194t126.5 127.5t200.5 45.5q33 0 64.5 -4t59.5 -11v15q0 46 14.5 77.5t42.5 47t70 15.5z" />
    <glyph glyph-name="Gammalatin" unicode="&#x194;" horiz-adv-x="594" 
d="M295 -240q-58 0 -90.5 38.5t-32.5 97.5q0 31 9 66.5t24 73.5t33 76l-238 602h112l135 -355q10 -24 19 -50.5t16.5 -52t12.5 -48.5q5 23 12.5 48t17 52t19.5 52l137 354h113l-243 -602q22 -42 37 -82t23 -74t8 -60q0 -58 -33 -97t-91 -39zM295 -159q16 0 25 13.5t9 42.5
q0 23 -8 58.5t-26 69.5q-18 -36 -26 -70t-8 -56q0 -30 9.5 -44t24.5 -14z" />
    <glyph glyph-name="uni0195" unicode="&#x195;" horiz-adv-x="950" 
d="M647 -10q-74 0 -123.5 21t-74.5 66.5t-25 117.5v141q0 63 -24.5 94.5t-76.5 31.5q-50 0 -80 -22t-42 -64.5t-12 -104.5v-271h-106v760h106v-203q0 -22 -1.5 -46t-4.5 -45h7q17 28 41 46t53 27t62 9q59 0 100 -20.5t62.5 -64.5t21.5 -113v-144q0 -65 29 -97t88 -32
q61 0 89 34.5t28 112.5v315h106v-321q0 -122 -55.5 -175t-167.5 -53z" />
    <glyph glyph-name="Iotalatin" unicode="&#x196;" horiz-adv-x="364" 
d="M249 -10q-46 0 -82 15.5t-57 53t-21 104.5v551h109v-542q0 -44 18.5 -66.5t54.5 -22.5q23 0 45.5 4t37.5 9v-87q-16 -8 -45.5 -13.5t-59.5 -5.5z" />
    <glyph glyph-name="uni0197" unicode="&#x197;" horiz-adv-x="354" 
d="M315 714v-62l-84 -26v-217h90v-91h-90v-231l84 -25v-62h-277v62l85 25v231h-91v91h91v217l-85 26v62h277z" />
    <glyph glyph-name="uni0198" unicode="&#x198;" horiz-adv-x="632" 
d="M561 721q19 0 33 -2.5t24 -7.5v-84q-7 2 -20.5 3.5t-24.5 1.5q-15 0 -31 -9t-39 -36l-151 -184l280 -403h-125l-229 330l-75 -68v-262h-108v714h108v-351q23 30 51.5 64.5t54.5 66.5l109 137q27 34 49 53.5t44 28t50 8.5z" />
    <glyph glyph-name="uni0199" unicode="&#x199;" horiz-adv-x="559" 
d="M220 766q21 0 40 -4.5t29 -9.5v-85q-8 3 -22 6.5t-31 3.5q-22 0 -35 -13t-13 -45v-239q0 -21 -1.5 -48.5t-3.5 -49.5h3q7 11 18.5 25t24 29t22.5 26l165 177h123l-217 -231l231 -308h-125l-178 241l-62 -52v-189h-105v616q0 51 15.5 84t46.5 49.5t75 16.5z" />
    <glyph glyph-name="uni019A" unicode="&#x19a;" horiz-adv-x="279" 
d="M86 0v340h-72v80h72v340h106v-340h74v-80h-74v-340h-106z" />
    <glyph glyph-name="uni019B" unicode="&#x19b;" horiz-adv-x="564" 
d="M-3 0l231 523l-20 53l-104 -31l-21 69l95 28q-15 21 -32 28.5t-43 7.5q-16 0 -29.5 -2t-24.5 -4v86q9 2 21 4t25 3t25 1q41 0 69.5 -10.5t49.5 -31t38 -51.5l104 32l21 -69l-97 -30l166 -461q14 -38 28 -52.5t32 -14.5q8 0 16.5 1.5t14.5 3.5v-80q-11 -5 -29.5 -9
t-35.5 -4q-29 0 -50 10t-35 30t-25 50l-65 184q-6 17 -13 37t-13.5 40t-11.5 37.5t-8 31.5h-4q-8 -33 -21.5 -70t-28.5 -72l-115 -268h-110z" />
    <glyph glyph-name="uni019C" unicode="&#x19c;" horiz-adv-x="1031" 
d="M287 -10q-65 0 -109 22t-66.5 69.5t-22.5 122.5v510h108v-497q0 -67 26.5 -101t83.5 -34q55 0 88 21.5t48 63t15 101.5v446h108v-497q0 -67 27 -101t85 -34q57 0 89.5 23.5t46.5 69.5t14 112v427h108v-714h-84l-17 80h-6q-18 -30 -46 -50t-61.5 -30t-69.5 -10
q-65 0 -107.5 24.5t-65.5 72.5h-5q-29 -49 -78.5 -73t-108.5 -24z" />
    <glyph glyph-name="uni019D" unicode="&#x19d;" horiz-adv-x="776" 
d="M48 -240q-20 0 -35 4t-26 10v87q9 -4 21.5 -7t26.5 -3q29 0 44.5 16.5t15.5 58.5v788h130l360 -574h3q-1 14 -2 37t-2 50l-2 54t-1 49v384h100v-714h-131l-361 577h-4q2 -24 3.5 -57.5t3 -69.5t1.5 -70v-457q0 -57 -17 -93t-49 -53t-79 -17z" />
    <glyph glyph-name="nlongrightleg" unicode="&#x19e;" horiz-adv-x="630" 
d="M435 -240v576q0 62 -26 94t-80 32q-52 0 -83 -22t-44 -64.5t-13 -103.5v-272h-106v539h84l15 -72h6q18 28 42.5 46t55.5 27t65 9q60 0 102.5 -20.5t64.5 -64.5t22 -113v-591h-105z" />
    <glyph glyph-name="uni019F" unicode="&#x19f;" horiz-adv-x="786" 
d="M725 358q0 -83 -20.5 -150.5t-62 -116.5t-104 -75t-145.5 -26q-85 0 -147.5 26.5t-104 75t-61.5 116.5t-20 151q0 110 36 192t110.5 128t187.5 46q110 0 183.5 -45.5t110.5 -128t37 -193.5zM393 82q70 0 116.5 28t71.5 81t30 128h-437q5 -75 30 -128t72 -81t117 -28z
M394 632q-68 0 -114.5 -26.5t-72 -76t-32.5 -118.5h434q-9 104 -61 162.5t-154 58.5z" />
    <glyph glyph-name="Ohorn" unicode="&#x1a0;" horiz-adv-x="796" 
d="M725 358q0 -83 -21 -150.5t-62.5 -116.5t-103.5 -75t-145 -26q-85 0 -147.5 26.5t-104 75t-61.5 116.5t-20 151q0 110 36 192t110.5 128t187.5 46q84 0 146.5 -27t103.5 -76q24 9 36.5 28.5t17 48t4.5 61.5h111l7 -11q-13 -66 -43 -116t-93 -74q21 -42 31 -92.5
t10 -108.5zM174 358q0 -86 23 -147.5t71.5 -95t124.5 -33.5q77 0 124.5 33.5t70.5 95t23 147.5q0 128 -51.5 201t-165.5 73q-77 0 -125.5 -33t-71.5 -94t-23 -147z" />
    <glyph glyph-name="ohorn" unicode="&#x1a1;" horiz-adv-x="635" 
d="M558 270q0 -89 -31 -152t-88.5 -95.5t-135.5 -32.5q-72 0 -129 32.5t-89.5 95.5t-32.5 152q0 134 68 206.5t186 72.5q54 0 99.5 -17.5t78.5 -50.5q29 8 44 28.5t20 49t5 62.5h109l7 -11q-9 -47 -25 -84.5t-44 -64.5t-74 -41q15 -31 23.5 -68.5t8.5 -81.5zM161 270
q0 -63 15 -106t47 -65t82 -22q51 0 82.5 22t46.5 65t15 106q0 64 -15 106t-47 63.5t-83 21.5q-75 0 -109 -48t-34 -143z" />
    <glyph glyph-name="uni01A2" unicode="&#x1a2;" horiz-adv-x="1092" 
d="M697 358q0 -83 -20 -151t-60 -116.5t-99.5 -74.5t-138.5 -26q-81 0 -141 26.5t-99.5 75t-59 116.5t-19.5 151q0 110 35 192t106 128t179 46q75 0 132 -23.5t96 -67.5q32 45 83 68t110 23q66 0 111 -23t68 -72.5t23 -127.5v-502h-108v498q0 67 -28.5 101t-87.5 34
q-49 0 -80.5 -14.5t-49.5 -41.5q24 -45 36 -100t12 -119zM174 358q0 -86 22 -147.5t67 -95t116 -33.5t116 33.5t66.5 95t21.5 147.5t-21.5 147t-66 94t-115.5 33t-116.5 -33t-67.5 -94t-22 -147z" />
    <glyph glyph-name="uni01A3" unicode="&#x1a3;" horiz-adv-x="870" 
d="M534 270q0 -67 -16.5 -119t-48.5 -88t-77 -54.5t-100 -18.5q-53 0 -96.5 18.5t-75.5 54.5t-50 88t-18 119q0 90 29.5 152t83.5 94.5t129 32.5q54 0 98 -18.5t76 -55.5q28 38 68 56t85 18q55 0 93 -20.5t57.5 -64.5t19.5 -113v-591h-106v577q0 62 -22 93.5t-69 31.5
q-31 0 -53.5 -10.5t-37.5 -31.5q15 -29 23 -67t8 -83zM161 270q0 -60 14 -103.5t43 -66.5t75 -23t75 23t43 66.5t14 103.5q0 62 -14 104t-43 64.5t-75 22.5q-70 0 -101 -50t-31 -141z" />
    <glyph glyph-name="uni01A4" unicode="&#x1a4;" horiz-adv-x="704" 
d="M187 0v623h-26q-31 0 -46 -14.5t-15 -37.5q0 -16 3.5 -30.5t6.5 -21.5h-90q-4 10 -7.5 26t-3.5 30q0 44 16 75t50 47.5t88 16.5h225q139 0 203 -56.5t64 -157.5q0 -45 -14.5 -86t-47 -73.5t-87 -51t-134.5 -18.5h-77v-271h-108zM361 362q60 0 101 13.5t61.5 43t20.5 77.5
q0 64 -39.5 95.5t-124.5 31.5h-85v-261h66z" />
    <glyph glyph-name="uni01A5" unicode="&#x1a5;" horiz-adv-x="620" 
d="M221 765q21 0 39.5 -4.5t28.5 -9.5v-85q-7 3 -21 6.5t-31 3.5q-23 0 -35.5 -13t-12.5 -44v-65q0 -19 -2 -43.5t-4 -43.5h6q15 23 37.5 41.5t53.5 29.5t72 11q65 0 113.5 -31t75.5 -93t27 -155q0 -91 -27 -154t-75.5 -94.5t-113.5 -31.5q-41 0 -72 10.5t-53 27.5t-38 37
h-6q3 -18 4.5 -42t1.5 -44v-219h-106v856q0 50 16 83t46.5 49.5t75.5 16.5zM327 462q-50 0 -80 -19.5t-43.5 -58t-14.5 -97.5v-16q0 -62 13 -105.5t43.5 -66t83.5 -22.5q45 0 73.5 24.5t42.5 68.5t14 102q0 88 -32 139t-100 51z" />
    <glyph glyph-name="uni01A6" unicode="&#x1a6;" horiz-adv-x="633" 
d="M499 -100l-172 289h-124v-189h-108v714h108v-100h92q92 0 151 -23t88 -68.5t29 -114.5q0 -55 -20.5 -92.5t-52.5 -61t-67 -37.5l200 -317h-124zM293 279q83 0 121 31.5t38 93.5q0 43 -17.5 68.5t-54 37.5t-92.5 12h-85v-243h90z" />
    <glyph glyph-name="uni01A7" unicode="&#x1a7;" horiz-adv-x="550" 
d="M274 724q69 0 119.5 -22t79.5 -63.5t29 -100.5q0 -44 -12.5 -77t-36.5 -58t-57.5 -44t-76.5 -35q-57 -21 -94 -40.5t-54.5 -42t-17.5 -55.5q0 -32 16 -55.5t48 -36t80 -12.5q56 0 109 14.5t94 32.5v-98q-37 -18 -89.5 -29.5t-113.5 -11.5q-79 0 -135 24t-86 69t-30 109
q0 55 23.5 93t67.5 65.5t104 50.5q56 22 89 40t48.5 40.5t15.5 56.5q0 42 -31 67.5t-91 25.5q-42 0 -81 -11t-78 -28l-33 89q42 20 90.5 31.5t103.5 11.5z" />
    <glyph glyph-name="uni01A8" unicode="&#x1a8;" horiz-adv-x="484" 
d="M235 549q63 0 108 -16.5t69.5 -48t24.5 -79.5q0 -45 -19 -73.5t-55.5 -49.5t-88.5 -41q-39 -15 -64 -27.5t-39 -23.5t-19.5 -22.5t-5.5 -24.5q0 -33 28 -52t88 -19q44 0 90 12.5t81 30.5v-90q-34 -17 -76 -26t-97 -9q-108 0 -162.5 40.5t-54.5 118.5q0 45 19 74.5
t54.5 50.5t85.5 39q50 20 79 33.5t41 27.5t12 34q0 27 -26 42.5t-74 15.5q-32 0 -66 -10.5t-70 -25.5l-33 81q41 19 83.5 28.5t86.5 9.5z" />
    <glyph glyph-name="uni01A9" unicode="&#x1a9;" horiz-adv-x="574" 
d="M34 0v87l231 283l-221 258v86h484v-93h-250q-22 0 -51 0.5t-49 1.5l197 -230v-30l-221 -271q37 0 70.5 1t71.5 1h243v-94h-505z" />
    <glyph glyph-name="uni01AA" unicode="&#x1aa;" horiz-adv-x="375" 
d="M123 766q48 0 79.5 -17t47.5 -51t16 -84v-682q0 -43 18 -64.5t55 -21.5q23 0 46.5 4t39.5 9v-80q-17 -8 -46 -13.5t-58 -5.5q-47 0 -83 15t-57 52.5t-21 103.5v607h-39q-68 0 -98.5 32.5t-30.5 83.5q0 29 13 54.5t42 41.5t76 16zM113 692q-20 0 -29 -12t-9 -27
q0 -21 14 -31t37 -10h34v18q0 28 -10.5 45t-36.5 17z" />
    <glyph glyph-name="uni01AB" unicode="&#x1ab;" horiz-adv-x="383" 
d="M233 -240q-20 0 -37 4t-29 8v82q9 -3 22 -6t28 -3q23 0 35.5 12.5t12.5 41.5v91h-8.5h-9.5q-31 0 -58.5 8t-49 27t-34 52t-12.5 83v298h-75v48l79 40l37 114h65v-121h154v-81h-154v-296q0 -44 20.5 -65t57.5 -21q21 0 43 4t38 9v-186q0 -71 -31 -107t-94 -36z" />
    <glyph glyph-name="uni01AC" unicode="&#x1ac;" horiz-adv-x="588" 
d="M253 0v621h-92q-31 0 -46 -13.5t-15 -36.5q0 -16 3.5 -30.5t6.5 -21.5h-90q-4 10 -7.5 26t-3.5 30q0 44 16 75t50 47.5t88 16.5h412v-93h-214v-621h-108z" />
    <glyph glyph-name="uni01AD" unicode="&#x1ad;" horiz-adv-x="383" 
d="M253 765q24 0 46 -4.5t35 -9.5v-85q-10 3 -32 6.5t-44 3.5q-31 0 -45 -16t-14 -48v-73h154v-81h-154v-296q0 -44 21.5 -65t56.5 -21q21 0 43 4t38 9v-80q-17 -8 -46 -13.5t-58 -5.5q-44 0 -80.5 15t-58.5 52t-22 103v298h-75v48l75 38v62q0 53 18.5 88t54 53t87.5 18z
" />
    <glyph glyph-name="uni01AE" unicode="&#x1ae;" horiz-adv-x="563" 
d="M374 -240q-71 0 -109 38.5t-38 124.5v698h-214v93h536v-93h-214v-695q0 -42 16 -58.5t44 -16.5q15 0 27 3t21 7v-87q-10 -6 -29 -10t-40 -4z" />
    <glyph glyph-name="Uhorn" unicode="&#x1af;" horiz-adv-x="811" 
d="M649 618q30 7 46.5 26t23 48.5t6.5 67.5h109l7 -11q-7 -37 -19.5 -70t-33.5 -59.5t-55 -44.5t-84 -27v-296q0 -74 -29.5 -133.5t-90.5 -94t-158 -34.5q-138 0 -210 72.5t-72 191.5v460h108v-460q0 -84 44 -128t132 -44q61 0 98 21.5t54 61t17 90.5v459h107v-96z" />
    <glyph glyph-name="uhorn" unicode="&#x1b0;" horiz-adv-x="699" 
d="M737 611q-7 -37 -19 -71t-33 -61t-54.5 -45t-83.5 -24v-410h-85l-15 71h-5q-17 -28 -43.5 -46t-58.5 -26.5t-66 -8.5q-63 0 -107 20.5t-66.5 64t-22.5 111.5v352h107v-336q0 -63 26.5 -94t82.5 -31q83 0 115 49t32 140v272h106v-58q30 6 46 25.5t22 49.5t6 67h109z" />
    <glyph glyph-name="Upsilonlatin" unicode="&#x1b1;" horiz-adv-x="783" 
d="M392 82q73 0 121.5 27.5t72 80t23.5 125.5q0 64 -14.5 119.5t-48.5 102.5t-93 86v91h295v-93h-178q44 -31 78 -78t54 -107t20 -132q0 -96 -39 -166.5t-112.5 -109.5t-178.5 -39q-106 0 -180 38.5t-113 109t-39 166.5q0 73 20 133t54.5 107t78.5 78h-179v93h296v-91
q-59 -39 -93.5 -86t-49.5 -103t-15 -119q0 -73 24.5 -125.5t73 -80t122.5 -27.5z" />
    <glyph glyph-name="uni01B2" unicode="&#x1b2;" horiz-adv-x="738" 
d="M274 -10q-74 0 -115.5 32t-57.5 93.5t-16 151.5v447h108v-439q0 -75 7.5 -117t28.5 -59t60 -17q40 0 77.5 25t69 70t56 105t37.5 131.5t13 149.5q0 38 -17.5 53.5t-44.5 15.5q-20 0 -37 -5t-31 -12v88q15 8 40.5 14.5t57.5 6.5q69 0 104.5 -37t35.5 -99q0 -94 -17.5 -182
t-50 -163t-79 -132t-104 -89t-125.5 -32z" />
    <glyph glyph-name="uni01B3" unicode="&#x1b3;" horiz-adv-x="593" 
d="M238 0v273l-238 441h117l175 -334l115 257q21 48 48 68t66 20q21 0 38 -4t28 -9v-86q-8 4 -18.5 6t-20.5 2t-19 -4t-18 -16t-19 -33l-147 -304v-277h-107z" />
    <glyph glyph-name="uni01B4" unicode="&#x1b4;" horiz-adv-x="564" 
d="M498 549q18 0 35 -4t29 -9v-80q-6 2 -14.5 3.5t-16.5 1.5q-12 0 -22.5 -6.5t-19 -20.5t-18.5 -40l-171 -465q-29 -78 -77 -123.5t-130 -45.5q-22 0 -40.5 2.5t-31.5 5.5v84q10 -2 26 -4t32 -2q31 0 53.5 11.5t39 33t27.5 50.5l21 59l-216 539h114l107 -290
q13 -36 24 -71.5t17 -68.5h4q5 25 17.5 62.5t26.5 76.5l69 197q13 36 28 59t36.5 34t50.5 11z" />
    <glyph glyph-name="uni01B5" unicode="&#x1b5;" horiz-adv-x="574" 
d="M74 409h184l142 212h-355v93h485v-77l-154 -228h114v-86h-172l-154 -230h375v-93h-505v77l165 246h-125v86z" />
    <glyph glyph-name="uni01B6" unicode="&#x1b6;" horiz-adv-x="475" 
d="M431 539v-75l-104 -147h93v-78h-150l-111 -157h280v-82h-404v67l123 172h-102v78h158l99 140h-261v82h379z" />
    <glyph glyph-name="uni01B7" unicode="&#x1b7;" horiz-adv-x="586" 
d="M505 714v-79l-235 -225q126 -5 196 -56t70 -149q0 -62 -32 -110.5t-96.5 -76.5t-164.5 -28q-59 0 -111.5 9t-98.5 30v96q48 -23 103.5 -35t104.5 -12q64 0 104.5 15.5t60 45t19.5 70.5q0 40 -23.5 66.5t-71 39.5t-119.5 13h-65v83l218 210h-310v93h451z" />
    <glyph glyph-name="uni01B8" unicode="&#x1b8;" horiz-adv-x="586" 
d="M333 -10q-98 0 -160.5 29.5t-92.5 79t-30 110.5q0 73 32.5 121.5t87 74t120.5 28.5l-209 202v79h451v-93h-310l196 -193v-77h-72q-57 0 -99 -15t-64 -45t-22 -77q0 -64 45 -100t139 -36q49 0 105 12t103 35v-96q-45 -21 -99 -30t-121 -9z" />
    <glyph glyph-name="uni01B9" unicode="&#x1b9;" horiz-adv-x="522" 
d="M298 -240q-83 0 -142 30t-90 82.5t-31 119.5q0 75 30.5 126t85.5 80t128 36l-217 231v74h428v-86h-301l212 -226v-75h-59q-65 0 -109.5 -17t-67.5 -51t-23 -88q0 -43 20 -77t57.5 -53t89.5 -19q55 0 105 12.5t87 30.5v-93q-36 -17 -85.5 -27t-117.5 -10z" />
    <glyph glyph-name="uni01BA" unicode="&#x1ba;" horiz-adv-x="522" 
d="M227 -240q-56 0 -99.5 14t-68.5 43t-25 73q0 36 16.5 66t57.5 48t113 19q39 1 66.5 7t44 18.5t24.5 32.5t8 47q0 37 -19.5 58t-58.5 30.5t-98 9.5h-61v73l173 154h-263v86h408v-73l-184 -159q50 -2 88.5 -14.5t65.5 -35t41.5 -54.5t14.5 -75q0 -39 -12.5 -73.5
t-40.5 -60.5t-75 -41.5t-117 -17.5q-37 0 -58 -5.5t-29.5 -15.5t-8.5 -24q0 -22 26.5 -34t76.5 -12q55 0 99 12t74 25v-89q-30 -14 -76 -23t-103 -9z" />
    <glyph glyph-name="uni01BB" unicode="&#x1bb;" horiz-adv-x="570" 
d="M262 765q65 0 112 -23t72 -65t25 -100q0 -41 -10 -79.5t-34 -78.5h91v-78h-142l-213 -253v-5h359v-83h-480v84l213 257h-187v78h246q28 42 38.5 78t10.5 76q0 50 -29.5 76.5t-77.5 26.5q-46 0 -81.5 -18.5t-71.5 -50.5l-54 69q24 23 55.5 43t71 33t86.5 13z" />
    <glyph glyph-name="uni01BC" unicode="&#x1bc;" horiz-adv-x="582" 
d="M238 -10q-58 0 -110 9t-95 30v96q29 -14 64 -24.5t71.5 -16.5t68.5 -6q60 0 100.5 16.5t62 48.5t21.5 79q0 46 -21.5 75.5t-59.5 44t-87 14.5h-125v264h-93v94h470v-94h-270v-175h38q75 0 133.5 -25.5t92 -75t33.5 -120.5q0 -69 -32.5 -122t-97 -82.5t-164.5 -29.5z" />
    <glyph glyph-name="uni01BD" unicode="&#x1bd;" horiz-adv-x="509" 
d="M221 -10q-57 0 -106 9.5t-81 25.5v92q23 -11 52.5 -21t63.5 -15.5t69 -5.5q41 0 73.5 9.5t51 30.5t18.5 56q0 47 -38.5 68.5t-113.5 21.5h-91v193h-76v85h394v-85h-221v-111h25q80 0 129 -20t72.5 -57.5t23.5 -89.5q0 -51 -26 -93t-80 -67.5t-139 -25.5z" />
    <glyph glyph-name="uni01BE" unicode="&#x1be;" horiz-adv-x="473" 
d="M210 -10q-36 0 -68 4t-58.5 11.5t-47.5 18.5v93q21 -11 49.5 -21t60.5 -17t62 -7q42 0 68.5 8.5t38.5 25t12 38.5q0 19 -9.5 32.5t-32 27t-60.5 29.5q-29 14 -49.5 31.5t-30.5 45.5t-10 73v75h-93v48l94 40l37 114h65v-121h150v-81h-150v-75q0 -22 4.5 -35.5t14.5 -22
t27 -15.5q44 -18 76.5 -38.5t51 -48.5t18.5 -72q0 -51 -25 -86.5t-74 -55t-121 -19.5z" />
    <glyph glyph-name="uni01BF" unicode="&#x1bf;" horiz-adv-x="601" 
d="M346 549q61 0 107.5 -27t73 -78.5t26.5 -126.5q0 -67 -24.5 -124.5t-72 -101t-115 -70.5t-152.5 -34v-227h-106v779h86l15 -72h5q15 22 36 41t51 30t70 11zM319 462q-47 0 -75.5 -19.5t-41.5 -58.5t-13 -97v-211q60 7 107 27t80.5 51.5t50.5 72t17 90.5q0 43 -14.5 75.5
t-42 51t-68.5 18.5z" />
    <glyph glyph-name="uni01C0" unicode="&#x1c0;" horiz-adv-x="323" 
d="M118 0v760h87v-760h-87z" />
    <glyph glyph-name="uni01C1" unicode="&#x1c1;" horiz-adv-x="554" 
d="M118 0v760h87v-760h-87zM349 0v760h87v-760h-87z" />
    <glyph glyph-name="uni01C2" unicode="&#x1c2;" horiz-adv-x="516" 
d="M301 760v-246h154v-79h-154v-93h154v-80h-154v-262h-86v262h-154v80h154v93h-154v79h154v246h86z" />
    <glyph glyph-name="uni01C3" unicode="&#x1c3;" horiz-adv-x="274" 
d="M175 212h-75l-25 502h125zM68 59q0 39 20 55t49 16q28 0 48 -16t20 -55t-20 -56t-48 -17q-29 0 -49 17t-20 56z" />
    <glyph glyph-name="uni01C4" unicode="&#x1c4;" horiz-adv-x="1297" 
d="M673 364q0 -120 -45 -201t-129.5 -122t-203.5 -41h-200v714h221q109 0 189 -40t124 -117.5t44 -192.5zM560 361q0 90 -29 148t-85.5 86t-136.5 28h-106v-532h87q135 0 202.5 68t67.5 202zM1262 0h-505v77l366 544h-355v93h485v-77l-366 -544h375v-93zM957 781
q-14 23 -36 49.5t-46 52.5t-42 45v13h72q26 -17 54.5 -40t53.5 -50q27 27 55.5 50t54.5 40h73v-13q-18 -19 -42.5 -45t-47 -52.5t-35.5 -49.5h-114z" />
    <glyph glyph-name="uni01C5" unicode="&#x1c5;" horiz-adv-x="1208" 
d="M673 364q0 -120 -45 -201t-129.5 -122t-203.5 -41h-200v714h221q109 0 189 -40t124 -117.5t44 -192.5zM560 361q0 90 -29 148t-85.5 86t-136.5 28h-106v-532h87q135 0 202.5 68t67.5 202zM1172 0h-404v67l278 390h-261v82h379v-75l-272 -382h280v-82zM914 606
q-14 23 -36 49.5t-46 52.5t-42 45v13h72q26 -17 54.5 -40t53.5 -50q27 27 55.5 50t54.5 40h73v-13q-18 -19 -42.5 -45t-47 -52.5t-35.5 -49.5h-114z" />
    <glyph glyph-name="uni01C6" unicode="&#x1c6;" horiz-adv-x="1096" 
d="M268 -10q-97 0 -156.5 70t-59.5 208q0 139 60 210t158 71q41 0 71.5 -10.5t53 -28.5t38.5 -40h6q-2 14 -5 40.5t-3 47.5v202h106v-760h-83l-18 72h-5q-15 -23 -37.5 -41.5t-53.5 -29.5t-72 -11zM293 77q78 0 110 43.5t32 130.5v16q0 95 -30.5 145t-112.5 50
q-65 0 -98 -52.5t-33 -143.5t33 -140t99 -49zM1059 0h-404v67l278 390h-261v82h379v-75l-272 -382h280v-82zM801 606q-14 23 -36 49.5t-46 52.5t-42 45v13h72q26 -17 54.5 -40t53.5 -50q27 27 55.5 50t54.5 40h73v-13q-18 -19 -42.5 -45t-47 -52.5t-35.5 -49.5h-114z" />
    <glyph glyph-name="uni01C7" unicode="&#x1c7;" horiz-adv-x="826" 
d="M95 0v714h108v-621h305v-93h-413zM537 -196q-25 0 -44 3.5t-34 9.5v90q16 -4 34 -7t38 -3q25 0 47.5 10t35.5 36t13 73v698h108v-693q0 -75 -24.5 -123.5t-69 -71t-104.5 -22.5z" />
    <glyph glyph-name="uni01C8" unicode="&#x1c8;" horiz-adv-x="808" 
d="M95 0v714h108v-621h305v-93h-413zM562 -240q-25 0 -46.5 3.5t-37.5 8.5v85q16 -4 32 -7t36 -3q31 0 52 17.5t21 66.5v608h106v-613q0 -50 -17 -87.5t-52.5 -58t-93.5 -20.5zM612 683q0 33 17.5 47t43.5 14q24 0 42 -14t18 -47q0 -32 -18 -46.5t-42 -14.5
q-26 0 -43.5 14.5t-17.5 46.5z" />
    <glyph glyph-name="uni01C9" unicode="&#x1c9;" horiz-adv-x="544" 
d="M189 0h-106v760h106v-760zM298 -240q-25 0 -46.5 3.5t-37.5 8.5v85q16 -4 32 -7t36 -3q31 0 52 17.5t21 66.5v608h106v-613q0 -50 -17 -87.5t-52.5 -58t-93.5 -20.5zM348 683q0 33 17.5 47t43.5 14q24 0 42 -14t18 -47q0 -32 -18 -46.5t-42 -14.5q-26 0 -43.5 14.5
t-17.5 46.5z" />
    <glyph glyph-name="uni01CA" unicode="&#x1ca;" horiz-adv-x="1066" 
d="M681 0h-131l-361 577h-4q2 -26 3.5 -58t3 -67t1.5 -72v-380h-98v714h130l360 -574h3q-1 21 -2 53t-2.5 68.5t-2.5 68.5v384h100v-714zM777 -196q-25 0 -44 3.5t-34 9.5v90q16 -4 34 -7t38 -3q25 0 47.5 10t35.5 36t13 73v698h108v-693q0 -75 -24.5 -123.5t-69 -71
t-104.5 -22.5z" />
    <glyph glyph-name="uni01CB" unicode="&#x1cb;" horiz-adv-x="1048" 
d="M681 0h-131l-361 577h-4q2 -26 3.5 -58t3 -67t1.5 -72v-380h-98v714h130l360 -574h3q-1 21 -2 53t-2.5 68.5t-2.5 68.5v384h100v-714zM802 -240q-25 0 -46.5 3.5t-37.5 8.5v85q16 -4 32 -7t36 -3q31 0 52 17.5t21 66.5v608h106v-613q0 -50 -17 -87.5t-52.5 -58
t-93.5 -20.5zM852 683q0 33 17.5 47t43.5 14q24 0 42 -14t18 -47q0 -32 -18 -46.5t-42 -14.5q-26 0 -43.5 14.5t-17.5 46.5z" />
    <glyph glyph-name="uni01CC" unicode="&#x1cc;" horiz-adv-x="901" 
d="M356 549q94 0 144 -47t50 -151v-351h-105v336q0 63 -26.5 94.5t-84.5 31.5q-82 0 -113.5 -49t-31.5 -141v-272h-106v539h84l15 -72h6q18 28 44 46t58 27t66 9zM656 -240q-25 0 -46.5 3.5t-37.5 8.5v85q16 -4 32 -7t36 -3q31 0 52 17.5t21 66.5v608h106v-613
q0 -50 -17 -87.5t-52.5 -58t-93.5 -20.5zM706 683q0 33 17.5 47t43.5 14q24 0 42 -14t18 -47q0 -32 -18 -46.5t-42 -14.5q-26 0 -43.5 14.5t-17.5 46.5z" />
    <glyph glyph-name="uni01CD" unicode="&#x1cd;" horiz-adv-x="654" 
d="M540 0l-76 206h-276l-76 -206h-112l271 717h112l270 -717h-113zM362 501q-3 11 -10.5 33.5t-14.5 46t-11 38.5q-5 -20 -11.5 -43.5t-12.5 -43t-10 -31.5l-72 -201h214zM269 781q-14 23 -36 49.5t-46 52.5t-42 45v13h72q26 -17 54.5 -40t53.5 -50q27 27 55.5 50t54.5 40
h73v-13q-18 -19 -42.5 -45t-47 -52.5t-35.5 -49.5h-114z" />
    <glyph glyph-name="uni01CE" unicode="&#x1ce;" horiz-adv-x="574" 
d="M292 549q102 0 152 -44.5t50 -139.5v-365h-75l-21 75h-4q-23 -29 -47.5 -48t-56 -28t-76.5 -9q-48 0 -86.5 17.5t-60.5 54t-22 91.5q0 82 62.5 125t190.5 47l92 3v30q0 60 -27 84t-76 24q-42 0 -80 -12t-72 -29l-34 77q38 20 87.5 33.5t103.5 13.5zM317 257
q-92 -4 -127.5 -30.5t-35.5 -74.5q0 -42 25.5 -61t64.5 -19q63 0 104 35t41 105v47zM230 606q-14 23 -36 49.5t-46 52.5t-42 45v13h72q26 -17 54.5 -40t53.5 -50q27 27 55.5 50t54.5 40h73v-13q-18 -19 -42.5 -45t-47 -52.5t-35.5 -49.5h-114z" />
    <glyph glyph-name="uni01CF" unicode="&#x1cf;" horiz-adv-x="354" 
d="M315 0h-277v62l85 25v539l-85 26v62h277v-62l-84 -26v-539l84 -25v-62zM120 781q-14 23 -36 49.5t-46 52.5t-42 45v13h72q26 -17 54.5 -40t53.5 -50q27 27 55.5 50t54.5 40h73v-13q-18 -19 -42.5 -45t-47 -52.5t-35.5 -49.5h-114z" />
    <glyph glyph-name="uni01D0" unicode="&#x1d0;" horiz-adv-x="272" 
d="M189 0h-106v539h106v-539zM79 606q-14 23 -36 49.5t-46 52.5t-42 45v13h72q26 -17 54.5 -40t53.5 -50q27 27 55.5 50t54.5 40h73v-13q-18 -19 -42.5 -45t-47 -52.5t-35.5 -49.5h-114z" />
    <glyph glyph-name="uni01D1" unicode="&#x1d1;" horiz-adv-x="785" 
d="M725 358q0 -83 -20.5 -150.5t-62 -116.5t-104 -75t-145.5 -26q-85 0 -147.5 26.5t-104 75t-61.5 116.5t-20 151q0 110 36 192t110.5 128t187.5 46q110 0 183.5 -45.5t110.5 -128t37 -193.5zM174 358q0 -86 23 -147.5t72 -95t124 -33.5q76 0 124 33.5t71 95t23 147.5
q0 129 -51.5 201.5t-165.5 72.5q-76 0 -125 -33t-72 -94t-23 -147zM336 781q-14 23 -36 49.5t-46 52.5t-42 45v13h72q26 -17 54.5 -40t53.5 -50q27 27 55.5 50t54.5 40h73v-13q-18 -19 -42.5 -45t-47 -52.5t-35.5 -49.5h-114z" />
    <glyph glyph-name="uni01D2" unicode="&#x1d2;" horiz-adv-x="609" 
d="M558 270q0 -67 -18 -119t-51 -88t-80 -54.5t-106 -18.5q-54 0 -100 18.5t-79.5 54.5t-52.5 88t-19 120q0 89 30.5 151t88 94.5t135.5 32.5q74 0 130.5 -32.5t89 -94.5t32.5 -152zM161 270q0 -60 15 -103.5t47 -66.5t82 -23t82 23t47 66.5t15 103.5q0 62 -15.5 104
t-47 64.5t-82.5 22.5q-75 0 -109 -50t-34 -141zM248 606q-14 23 -36 49.5t-46 52.5t-42 45v13h72q26 -17 54.5 -40t53.5 -50q27 27 55.5 50t54.5 40h73v-13q-18 -19 -42.5 -45t-47 -52.5t-35.5 -49.5h-114z" />
    <glyph glyph-name="uni01D3" unicode="&#x1d3;" horiz-adv-x="738" 
d="M649 252q0 -74 -30.5 -133.5t-93.5 -94t-159 -34.5q-136 0 -206.5 72.5t-70.5 191.5v460h108v-455q0 -88 43 -132.5t131 -44.5q60 0 98 22t55.5 61.5t17.5 94.5v454h107v-462zM312 781q-14 23 -36 49.5t-46 52.5t-42 45v13h72q26 -17 54.5 -40t53.5 -50q27 27 55.5 50
t54.5 40h73v-13q-18 -19 -42.5 -45t-47 -52.5t-35.5 -49.5h-114z" />
    <glyph glyph-name="uni01D4" unicode="&#x1d4;" horiz-adv-x="630" 
d="M547 539v-539h-85l-15 71h-5q-17 -28 -44 -46t-59 -26.5t-66 -8.5q-63 0 -106.5 20.5t-66 64t-22.5 111.5v353h107v-337q0 -63 26.5 -94t82.5 -31t88 22t45.5 64.5t13.5 102.5v273h106zM258 606q-14 23 -36 49.5t-46 52.5t-42 45v13h72q26 -17 54.5 -40t53.5 -50
q27 27 55.5 50t54.5 40h73v-13q-18 -19 -42.5 -45t-47 -52.5t-35.5 -49.5h-114z" />
    <glyph glyph-name="uni01D5" unicode="&#x1d5;" horiz-adv-x="738" 
d="M523 1017v-78h-307v78h307zM274 881q22 0 36.5 -13t14.5 -40t-14.5 -40t-36.5 -13t-37 13t-15 40t15 40t37 13zM464 881q22 0 37 -13t15 -40t-15 -40t-37 -13t-37 13t-15 40t15 40t37 13zM649 252q0 -74 -30.5 -133.5t-93.5 -94t-159 -34.5q-136 0 -206.5 72.5
t-70.5 191.5v460h108v-455q0 -88 43 -132.5t131 -44.5q60 0 98 22t55.5 61.5t17.5 94.5v454h107v-462z" />
    <glyph glyph-name="uni01D6" unicode="&#x1d6;" horiz-adv-x="630" 
d="M468 842v-78h-307v78h307zM219 706q22 0 37 -13t15 -40t-15 -40t-37 -13q-21 0 -36 13t-15 40t15 40t36 13zM409 706q23 0 37.5 -13t14.5 -40t-14.5 -40t-37.5 -13q-21 0 -36 13t-15 40t15 40t36 13zM547 539v-539h-85l-15 71h-5q-17 -28 -44 -46t-59 -26.5t-66 -8.5
q-63 0 -106.5 20.5t-66 64t-22.5 111.5v353h107v-337q0 -63 26.5 -94t82.5 -31t88 22t45.5 64.5t13.5 102.5v273h106z" />
    <glyph glyph-name="uni01D7" unicode="&#x1d7;" horiz-adv-x="738" 
d="M312 916q24 28 51 63.5t44 69.5h122v-10q-13 -19 -38.5 -44t-54.5 -49t-53 -42h-71v12zM274 775q-22 0 -37 13t-15 40t15 40t37 13t36.5 -13t14.5 -40t-14.5 -40t-36.5 -13zM464 775q-22 0 -37 13t-15 40t15 40t37 13t37 -13t15 -40t-15 -40t-37 -13zM649 252
q0 -74 -30.5 -133.5t-93.5 -94t-159 -34.5q-136 0 -206.5 72.5t-70.5 191.5v460h108v-455q0 -88 43 -132.5t131 -44.5q60 0 98 22t55.5 61.5t17.5 94.5v454h107v-462z" />
    <glyph glyph-name="uni01D8" unicode="&#x1d8;" horiz-adv-x="630" 
d="M258 741q23 28 50.5 63.5t43.5 69.5h122v-10q-12 -19 -38 -44t-55 -49t-52 -42h-71v12zM219 600q-21 0 -36 13t-15 40t15 40t36 13q22 0 37 -13t15 -40t-15 -40t-37 -13zM409 600q-21 0 -36 13t-15 40t15 40t36 13q23 0 37.5 -13t14.5 -40t-14.5 -40t-37.5 -13zM547 539
v-539h-85l-15 71h-5q-17 -28 -44 -46t-59 -26.5t-66 -8.5q-63 0 -106.5 20.5t-66 64t-22.5 111.5v353h107v-337q0 -63 26.5 -94t82.5 -31t88 22t45.5 64.5t13.5 102.5v273h106z" />
    <glyph glyph-name="uni01D9" unicode="&#x1d9;" horiz-adv-x="738" 
d="M317 909q-13 23 -34.5 46.5t-44.5 46t-41 41.5v13h62q28 -16 56 -34.5t53 -44.5q27 26 55.5 44.5t54.5 34.5h64v-13q-18 -18 -41.5 -41t-45 -46.5t-35.5 -46.5h-103zM274 775q-22 0 -37 13t-15 40t15 40t37 13t36.5 -13t14.5 -40t-14.5 -40t-36.5 -13zM464 775
q-22 0 -37 13t-15 40t15 40t37 13t37 -13t15 -40t-15 -40t-37 -13zM649 252q0 -74 -30.5 -133.5t-93.5 -94t-159 -34.5q-136 0 -206.5 72.5t-70.5 191.5v460h108v-455q0 -88 43 -132.5t131 -44.5q60 0 98 22t55.5 61.5t17.5 94.5v454h107v-462z" />
    <glyph glyph-name="uni01DA" unicode="&#x1da;" horiz-adv-x="630" 
d="M263 734q-14 23 -35 46.5t-44 46t-42 41.5v13h63q27 -16 55 -35t53 -44q27 25 55.5 44t55.5 35h64v-13q-19 -18 -42.5 -41t-45 -46.5t-34.5 -46.5h-103zM219 600q-21 0 -36 13t-15 40t15 40t36 13q22 0 37 -13t15 -40t-15 -40t-37 -13zM409 600q-21 0 -36 13t-15 40
t15 40t36 13q23 0 37.5 -13t14.5 -40t-14.5 -40t-37.5 -13zM547 539v-539h-85l-15 71h-5q-17 -28 -44 -46t-59 -26.5t-66 -8.5q-63 0 -106.5 20.5t-66 64t-22.5 111.5v353h107v-337q0 -63 26.5 -94t82.5 -31t88 22t45.5 64.5t13.5 102.5v273h106z" />
    <glyph glyph-name="uni01DB" unicode="&#x1db;" horiz-adv-x="738" 
d="M332 1049q18 -34 44.5 -69.5t50.5 -63.5v-12h-71q-24 18 -53 42t-54 49t-39 44v10h122zM274 881q22 0 36.5 -13t14.5 -40t-14.5 -40t-36.5 -13t-37 13t-15 40t15 40t37 13zM464 881q22 0 37 -13t15 -40t-15 -40t-37 -13t-37 13t-15 40t15 40t37 13zM649 252
q0 -74 -30.5 -133.5t-93.5 -94t-159 -34.5q-136 0 -206.5 72.5t-70.5 191.5v460h108v-455q0 -88 43 -132.5t131 -44.5q60 0 98 22t55.5 61.5t17.5 94.5v454h107v-462z" />
    <glyph glyph-name="uni01DC" unicode="&#x1dc;" horiz-adv-x="630" 
d="M277 874q18 -34 45 -69.5t50 -63.5v-12h-71q-23 18 -52 42t-54.5 49t-38.5 44v10h121zM219 706q22 0 37 -13t15 -40t-15 -40t-37 -13q-21 0 -36 13t-15 40t15 40t36 13zM409 706q23 0 37.5 -13t14.5 -40t-14.5 -40t-37.5 -13q-21 0 -36 13t-15 40t15 40t36 13zM547 539
v-539h-85l-15 71h-5q-17 -28 -44 -46t-59 -26.5t-66 -8.5q-63 0 -106.5 20.5t-66 64t-22.5 111.5v353h107v-337q0 -63 26.5 -94t82.5 -31t88 22t45.5 64.5t13.5 102.5v273h106z" />
    <glyph glyph-name="uni01DD" unicode="&#x1dd;" horiz-adv-x="572" 
d="M255 549q79 0 138.5 -31t93 -92t33.5 -153q0 -90 -30.5 -153t-85.5 -96.5t-127 -33.5q-70 0 -121.5 29.5t-79 84.5t-27.5 130v58h362q-2 83 -43.5 127t-116.5 44q-52 0 -92.5 -9.5t-83.5 -28.5v88q41 18 82 27t98 9zM155 214q1 -42 13.5 -74t40 -50t68.5 -18q58 0 92 37
t40 105h-254z" />
    <glyph glyph-name="uni01DE" unicode="&#x1de;" horiz-adv-x="654" 
d="M479 1017v-78h-307v78h307zM230 881q22 0 37 -13t15 -40t-15 -40t-37 -13q-21 0 -36 13t-15 40t15 40t36 13zM420 881q23 0 37.5 -13t14.5 -40t-14.5 -40t-37.5 -13q-21 0 -36 13t-15 40t15 40t36 13zM540 0l-76 206h-276l-76 -206h-112l271 717h112l270 -717h-113z
M362 501q-3 11 -10.5 33.5t-14.5 46t-11 38.5q-5 -20 -11.5 -43.5t-12.5 -43t-10 -31.5l-72 -201h214z" />
    <glyph glyph-name="uni01DF" unicode="&#x1df;" horiz-adv-x="574" 
d="M441 842v-78h-308v78h308zM192 706q21 0 36 -13t15 -40t-15 -40t-36 -13q-22 0 -37 13t-15 40t15 40t37 13zM382 706q22 0 37 -13t15 -40t-15 -40t-37 -13t-37 13t-15 40t15 40t37 13zM292 549q102 0 152 -44.5t50 -139.5v-365h-75l-21 75h-4q-23 -29 -47.5 -48t-56 -28
t-76.5 -9q-48 0 -86.5 17.5t-60.5 54t-22 91.5q0 82 62.5 125t190.5 47l92 3v30q0 60 -27 84t-76 24q-42 0 -80 -12t-72 -29l-34 77q38 20 87.5 33.5t103.5 13.5zM317 257q-92 -4 -127.5 -30.5t-35.5 -74.5q0 -42 25.5 -61t64.5 -19q63 0 104 35t41 105v47z" />
    <glyph glyph-name="uni01E0" unicode="&#x1e0;" horiz-adv-x="654" 
d="M479 1007v-78h-307v78h307zM327 883q22 0 38.5 -14t16.5 -44q0 -28 -16.5 -42.5t-38.5 -14.5q-24 0 -40 14.5t-16 42.5q0 30 16 44t40 14zM540 0l-76 206h-276l-76 -206h-112l271 717h112l270 -717h-113zM362 501q-3 11 -10.5 33.5t-14.5 46t-11 38.5q-5 -20 -11.5 -43.5
t-12.5 -43t-10 -31.5l-72 -201h214z" />
    <glyph glyph-name="uni01E1" unicode="&#x1e1;" horiz-adv-x="574" 
d="M441 842v-77h-308v77h308zM286 719q23 0 39 -14t16 -44q0 -28 -16 -42.5t-39 -14.5t-39 14.5t-16 42.5q0 30 16 44t39 14zM292 549q102 0 152 -44.5t50 -139.5v-365h-75l-21 75h-4q-23 -29 -47.5 -48t-56 -28t-76.5 -9q-48 0 -86.5 17.5t-60.5 54t-22 91.5q0 82 62.5 125
t190.5 47l92 3v30q0 60 -27 84t-76 24q-42 0 -80 -12t-72 -29l-34 77q38 20 87.5 33.5t103.5 13.5zM317 257q-92 -4 -127.5 -30.5t-35.5 -74.5q0 -42 25.5 -61t64.5 -19q63 0 104 35t41 105v47z" />
    <glyph glyph-name="uni01E2" unicode="&#x1e2;" horiz-adv-x="902" 
d="M842 0h-388v206h-247l-97 -206h-111l334 714h509v-92h-280v-204h262v-91h-262v-234h280v-93zM248 300h206v320h-59zM650 861v-80h-307v80h307z" />
    <glyph glyph-name="uni01E3" unicode="&#x1e3;" horiz-adv-x="880" 
d="M614 549q66 0 115 -29.5t75.5 -84t26.5 -128.5v-60h-346q2 -86 40.5 -128.5t108.5 -42.5q50 0 90.5 9.5t80.5 28.5v-88q-40 -18 -80.5 -27t-94.5 -9q-45 0 -84 12t-69.5 36.5t-52.5 60.5q-24 -34 -52.5 -58.5t-65.5 -37.5t-90 -13q-48 0 -86.5 17.5t-61.5 54t-23 91.5
t26.5 92.5t80.5 57.5t134 22l91 3v36q0 56 -27.5 79t-75.5 23q-39 0 -77 -11.5t-72 -28.5l-33 76q37 21 88 34t102 13q60 0 101 -19.5t64 -60.5q28 38 70 59t97 21zM307 257q-86 -4 -119.5 -30.5t-33.5 -74.5q0 -42 23.5 -61t62.5 -19q38 0 69 15.5t49 46.5t18 78v47z
M613 467q-56 0 -88.5 -36t-37.5 -106h237q0 42 -12 74t-36.5 50t-62.5 18zM600 686v-80h-307v80h307z" />
    <glyph glyph-name="uni01E4" unicode="&#x1e4;" horiz-adv-x="727" 
d="M406 -10q-116 0 -193 44t-115 126t-38 195q0 112 44 195t126.5 128.5t200.5 45.5q59 0 113 -11.5t100 -31.5l-39 -90q-37 17 -83.5 28.5t-96.5 11.5q-79 0 -136 -32.5t-87 -93.5t-30 -149q0 -86 25.5 -148.5t79.5 -95.5t141 -33q41 0 71 4.5t55 10.5v65h-141v78h141v69
h-151v91h258v-160h64v-78h-64v-129q-53 -17 -109.5 -28.5t-135.5 -11.5z" />
    <glyph glyph-name="uni01E5" unicode="&#x1e5;" horiz-adv-x="620" 
d="M269 549q52 0 94 -20t71 -61h5l12 71h86v-566h57v-72h-66q-16 -65 -75.5 -103t-164.5 -38q-58 0 -107 8t-90 25v91q42 -20 93.5 -31t109.5 -11q50 0 81 15t43 44h-161v72h175v61q0 17 1 36t2 32h-4q-28 -42 -68.5 -61.5t-93.5 -19.5q-68 0 -116.5 30.5t-74.5 89.5
t-26 142q0 123 58 194.5t159 71.5zM291 461q-42 0 -71 -20.5t-44 -60t-15 -98.5q0 -88 33.5 -133t98.5 -45q38 0 64.5 9t44 28t26 49.5t8.5 73.5v14q0 65 -15.5 105t-47.5 59t-82 19z" />
    <glyph glyph-name="Gcaron" unicode="&#x1e6;" horiz-adv-x="727" 
d="M393 384h258v-356q-57 -19 -116.5 -28.5t-135.5 -9.5q-109 0 -184.5 44t-115 126t-39.5 197q0 112 44 194t126.5 127.5t200.5 45.5q59 0 113 -11.5t100 -31.5l-39 -90q-37 17 -82.5 28.5t-95.5 11.5q-79 0 -136.5 -33.5t-88 -95t-30.5 -146.5q0 -80 25 -142t79 -97
t141 -35q42 0 72 4.5t55 10.5v194h-151v93zM346 781q-14 23 -36 49.5t-46 52.5t-42 45v13h72q26 -17 54.5 -40t53.5 -50q27 27 55.5 50t54.5 40h73v-13q-18 -19 -42.5 -45t-47 -52.5t-35.5 -49.5h-114z" />
    <glyph glyph-name="gcaron" unicode="&#x1e7;" horiz-adv-x="620" 
d="M269 549q52 0 94 -20t71 -61h5l12 71h86v-546q0 -76 -27 -128t-82.5 -78.5t-139.5 -26.5q-58 0 -107 8t-90 25v93q42 -21 93.5 -31.5t109.5 -10.5q66 0 102 37.5t36 105.5v18q0 13 1 34.5t2 31.5h-4q-28 -42 -68.5 -61.5t-93.5 -19.5q-102 0 -159.5 73.5t-57.5 204.5
q0 130 58 205.5t159 75.5zM291 461q-42 0 -71 -22.5t-44 -65.5t-15 -106q0 -94 33.5 -143t98.5 -49q38 0 64.5 10t44 31t26 53.5t8.5 78.5v20q0 69 -15.5 111.5t-47.5 62t-82 19.5zM245 606q-14 23 -36 49.5t-46 52.5t-42 45v13h72q26 -17 54.5 -40t53.5 -50q27 27 55.5 50
t54.5 40h73v-13q-18 -19 -42.5 -45t-47 -52.5t-35.5 -49.5h-114z" />
    <glyph glyph-name="uni01E8" unicode="&#x1e8;" horiz-adv-x="632" 
d="M632 0h-125l-234 329l-70 -58v-271h-108v714h108v-345q26 31 52 61l52 60l193 224h124l-273 -312zM286 781q-14 23 -36 49.5t-46 52.5t-42 45v13h72q26 -17 54.5 -40t53.5 -50q27 27 55.5 50t54.5 40h73v-13q-18 -19 -42.5 -45t-47 -52.5t-35.5 -49.5h-114z" />
    <glyph glyph-name="uni01E9" unicode="&#x1e9;" horiz-adv-x="559" 
d="M188 380q0 -21 -1.5 -48t-3.5 -50h3q8 10 19.5 24.5t23.5 29.5t22 26l165 177h123l-217 -231l231 -308h-125l-178 241l-62 -52v-189h-105v760h105v-380zM81 827q-14 23 -36 49.5t-46 52.5t-42 45v13h72q26 -17 54.5 -40t53.5 -50q27 27 55.5 50t54.5 40h73v-13
q-18 -19 -42.5 -45t-47 -52.5t-35.5 -49.5h-114z" />
    <glyph glyph-name="uni01EA" unicode="&#x1ea;" horiz-adv-x="785" 
d="M725 358q0 -83 -20.5 -150.5t-62 -116.5t-104 -75t-145.5 -26q-85 0 -147.5 26.5t-104 75t-61.5 116.5t-20 151q0 110 36 192t110.5 128t187.5 46q110 0 183.5 -45.5t110.5 -128t37 -193.5zM174 358q0 -86 23 -147.5t72 -95t124 -33.5q76 0 124 33.5t71 95t23 147.5
q0 129 -51.5 201.5t-165.5 72.5q-76 0 -125 -33t-72 -94t-23 -147zM393 -115q0 -21 12 -32t31 -11q17 0 29.5 2.5t21.5 4.5v-65q-15 -4 -30 -7t-36 -3q-54 0 -81.5 27t-27.5 72q0 29 14.5 56t37 49.5t45.5 37.5l53 -16q-34 -32 -51.5 -58.5t-17.5 -56.5z" />
    <glyph glyph-name="uni01EB" unicode="&#x1eb;" horiz-adv-x="609" 
d="M558 270q0 -67 -18 -119t-51 -88t-80 -54.5t-106 -18.5q-54 0 -100 18.5t-79.5 54.5t-52.5 88t-19 120q0 89 30.5 151t88 94.5t135.5 32.5q74 0 130.5 -32.5t89 -94.5t32.5 -152zM161 270q0 -60 15 -103.5t47 -66.5t82 -23t82 23t47 66.5t15 103.5q0 62 -15.5 104
t-47 64.5t-82.5 22.5q-75 0 -109 -50t-34 -141zM303 -115q0 -21 12 -32t31 -11q17 0 29.5 2.5t21.5 4.5v-65q-15 -4 -30 -7t-36 -3q-54 0 -81.5 27t-27.5 72q0 29 14.5 56t37 49.5t45.5 37.5l53 -16q-34 -32 -51.5 -58.5t-17.5 -56.5z" />
    <glyph glyph-name="uni01EC" unicode="&#x1ec;" horiz-adv-x="785" 
d="M725 358q0 -83 -20.5 -150.5t-62 -116.5t-104 -75t-145.5 -26q-85 0 -147.5 26.5t-104 75t-61.5 116.5t-20 151q0 110 36 192t110.5 128t187.5 46q110 0 183.5 -45.5t110.5 -128t37 -193.5zM174 358q0 -86 23 -147.5t72 -95t124 -33.5q76 0 124 33.5t71 95t23 147.5
q0 129 -51.5 201.5t-165.5 72.5q-76 0 -125 -33t-72 -94t-23 -147zM546 861v-80h-307v80h307zM401 -115q0 -21 12 -32t31 -11q17 0 29.5 2.5t21.5 4.5v-65q-15 -4 -30 -7t-36 -3q-54 0 -81.5 27t-27.5 72q0 29 14.5 56t37 49.5t45.5 37.5l53 -16q-34 -32 -51.5 -58.5
t-17.5 -56.5z" />
    <glyph glyph-name="uni01ED" unicode="&#x1ed;" horiz-adv-x="609" 
d="M558 270q0 -67 -18 -119t-51 -88t-80 -54.5t-106 -18.5q-54 0 -100 18.5t-79.5 54.5t-52.5 88t-19 120q0 89 30.5 151t88 94.5t135.5 32.5q74 0 130.5 -32.5t89 -94.5t32.5 -152zM161 270q0 -60 15 -103.5t47 -66.5t82 -23t82 23t47 66.5t15 103.5q0 62 -15.5 104
t-47 64.5t-82.5 22.5q-75 0 -109 -50t-34 -141zM458 686v-80h-307v80h307zM303 -115q0 -21 12 -32t31 -11q17 0 29.5 2.5t21.5 4.5v-65q-15 -4 -30 -7t-36 -3q-54 0 -81.5 27t-27.5 72q0 29 14.5 56t37 49.5t45.5 37.5l53 -16q-34 -32 -51.5 -58.5t-17.5 -56.5z" />
    <glyph glyph-name="uni01EE" unicode="&#x1ee;" horiz-adv-x="586" 
d="M505 714v-79l-235 -225q126 -5 196 -56t70 -149q0 -62 -32 -110.5t-96.5 -76.5t-164.5 -28q-59 0 -111.5 9t-98.5 30v96q48 -23 103.5 -35t104.5 -12q64 0 104.5 15.5t60 45t19.5 70.5q0 40 -23.5 66.5t-71 39.5t-119.5 13h-65v83l218 210h-310v93h451zM222 781
q-14 23 -36 49.5t-46 52.5t-42 45v13h72q26 -17 54.5 -40t53.5 -50q27 27 55.5 50t54.5 40h73v-13q-18 -19 -42.5 -45t-47 -52.5t-35.5 -49.5h-114z" />
    <glyph glyph-name="uni01EF" unicode="&#x1ef;" horiz-adv-x="522" 
d="M461 539v-74l-218 -231q74 -6 129 -35t85 -78.5t30 -119.5t-32.5 -124.5t-94 -85.5t-148.5 -31q-59 0 -108 9.5t-86 26.5v94q38 -18 88.5 -30.5t105.5 -12.5t92 19.5t56.5 54.5t19.5 81q0 50 -23 83.5t-67 50t-110 16.5h-58v75l213 226h-301v86h427zM193 606
q-14 23 -36 49.5t-46 52.5t-42 45v13h72q26 -17 54.5 -40t53.5 -50q27 27 55.5 50t54.5 40h73v-13q-18 -19 -42.5 -45t-47 -52.5t-35.5 -49.5h-114z" />
    <glyph glyph-name="uni01F0" unicode="&#x1f0;" horiz-adv-x="272" 
d="M26 -240q-25 0 -46.5 3.5t-37.5 8.5v85q16 -4 32 -7t36 -3q31 0 52 17.5t21 66.5v608h106v-613q0 -50 -17 -87.5t-52.5 -58t-93.5 -20.5zM79 606q-14 23 -36 49.5t-46 52.5t-42 45v13h72q26 -17 54.5 -40t53.5 -50q27 27 55.5 50t54.5 40h73v-13q-18 -19 -42.5 -45
t-47 -52.5t-35.5 -49.5h-114z" />
    <glyph glyph-name="uni01F1" unicode="&#x1f1;" horiz-adv-x="1297" 
d="M673 364q0 -120 -45 -201t-129.5 -122t-203.5 -41h-200v714h221q109 0 189 -40t124 -117.5t44 -192.5zM560 361q0 90 -29 148t-85.5 86t-136.5 28h-106v-532h87q135 0 202.5 68t67.5 202zM1262 0h-505v77l366 544h-355v93h485v-77l-366 -544h375v-93z" />
    <glyph glyph-name="uni01F2" unicode="&#x1f2;" horiz-adv-x="1208" 
d="M673 364q0 -120 -45 -201t-129.5 -122t-203.5 -41h-200v714h221q109 0 189 -40t124 -117.5t44 -192.5zM560 361q0 90 -29 148t-85.5 86t-136.5 28h-106v-532h87q135 0 202.5 68t67.5 202zM1172 0h-404v67l278 390h-261v82h379v-75l-272 -382h280v-82z" />
    <glyph glyph-name="uni01F3" unicode="&#x1f3;" horiz-adv-x="1096" 
d="M268 -10q-97 0 -156.5 70t-59.5 208q0 139 60 210t158 71q41 0 71.5 -10.5t53 -28.5t38.5 -40h6q-2 14 -5 40.5t-3 47.5v202h106v-760h-83l-18 72h-5q-15 -23 -37.5 -41.5t-53.5 -29.5t-72 -11zM293 77q78 0 110 43.5t32 130.5v16q0 95 -30.5 145t-112.5 50
q-65 0 -98 -52.5t-33 -143.5t33 -140t99 -49zM1059 0h-404v67l278 390h-261v82h379v-75l-272 -382h280v-82z" />
    <glyph glyph-name="uni01F4" unicode="&#x1f4;" horiz-adv-x="727" 
d="M393 384h258v-356q-57 -19 -116.5 -28.5t-135.5 -9.5q-109 0 -184.5 44t-115 126t-39.5 197q0 112 44 194t126.5 127.5t200.5 45.5q59 0 113 -11.5t100 -31.5l-39 -90q-37 17 -82.5 28.5t-95.5 11.5q-79 0 -136.5 -33.5t-88 -95t-30.5 -146.5q0 -80 25 -142t79 -97
t141 -35q42 0 72 4.5t55 10.5v194h-151v93zM570 931q-11 -14 -29.5 -34t-41 -41.5t-44.5 -41t-40 -33.5h-70v12q15 19 34 45t37 53.5t30 49.5h124v-10z" />
    <glyph glyph-name="uni01F5" unicode="&#x1f5;" horiz-adv-x="620" 
d="M269 549q52 0 94 -20t71 -61h5l12 71h86v-546q0 -76 -27 -128t-82.5 -78.5t-139.5 -26.5q-58 0 -107 8t-90 25v93q42 -21 93.5 -31.5t109.5 -10.5q66 0 102 37.5t36 105.5v18q0 13 1 34.5t2 31.5h-4q-28 -42 -68.5 -61.5t-93.5 -19.5q-102 0 -159.5 73.5t-57.5 204.5
q0 130 58 205.5t159 75.5zM291 461q-42 0 -71 -22.5t-44 -65.5t-15 -106q0 -94 33.5 -143t98.5 -49q38 0 64.5 10t44 31t26 53.5t8.5 78.5v20q0 69 -15.5 111.5t-47.5 62t-82 19.5zM469 756q-11 -14 -29.5 -34t-41 -41.5t-44.5 -41t-40 -33.5h-70v12q15 19 34 45t37 53.5
t30 49.5h124v-10z" />
    <glyph glyph-name="uni01F6" unicode="&#x1f6;" horiz-adv-x="970" 
d="M95 0v714h108v-296h278v296h108v-529q0 -34 10 -57t30.5 -34.5t52.5 -11.5t52.5 12.5t30 36t9.5 58.5v350h108v-351q0 -59 -22 -103.5t-67 -69t-113 -24.5q-67 0 -111 22t-66 65t-22 104v144h-278v-326h-108z" />
    <glyph glyph-name="uni01F7" unicode="&#x1f7;" horiz-adv-x="665" 
d="M398 725q62 0 110.5 -27.5t76 -82.5t27.5 -139q0 -68 -22 -135.5t-69.5 -130.5t-126 -117.5t-191.5 -98.5v-234h-108v955h84l18 -96h4q19 29 46.5 53t65 38.5t85.5 14.5zM374 633q-62 0 -99.5 -27.5t-54.5 -77.5t-17 -118v-315q74 31 130 71.5t94 90t57 104.5t19 114
q0 53 -15 87.5t-44 52.5t-70 18z" />
    <glyph glyph-name="uni01F8" unicode="&#x1f8;" horiz-adv-x="776" 
d="M681 0h-131l-361 577h-4q2 -26 3.5 -58t3 -67t1.5 -72v-380h-98v714h130l360 -574h3q-1 21 -2 53t-2.5 68.5t-2.5 68.5v384h100v-714zM366 941q12 -22 30 -49.5t37.5 -53.5t34.5 -45v-12h-71q-17 14 -39.5 33.5t-45 41t-41 41.5t-28.5 34v10h123z" />
    <glyph glyph-name="uni01F9" unicode="&#x1f9;" horiz-adv-x="630" 
d="M356 549q94 0 144 -47t50 -151v-351h-105v336q0 63 -26.5 94.5t-84.5 31.5q-82 0 -113.5 -49t-31.5 -141v-272h-106v539h84l15 -72h6q18 28 44 46t58 27t66 9zM293 766q12 -22 30 -49.5t37.5 -53.5t34.5 -45v-12h-71q-17 14 -39.5 33.5t-45 41t-41 41.5t-28.5 34v10h123z
" />
    <glyph glyph-name="Aringacute" unicode="&#x1fa;" horiz-adv-x="655" 
d="M254 618q-19 13 -30 34.5t-11 49.5q0 52 31.5 80.5t81.5 28.5q48 0 81.5 -28.5t33.5 -79.5q0 -28 -11 -49.5t-29 -34.5l254 -619h-114l-73 183h-285l-70 -183h-113zM215 277h225l-73 187q-5 13 -13 33.5t-15 42t-12 39.5q-4 -13 -9.5 -29.5t-11 -33.5t-10.5 -31t-8 -22z
M326 649q24 0 38.5 14t14.5 39q0 26 -15 40t-38 14q-24 0 -39 -14t-15 -40q0 -24 14 -38.5t40 -14.5zM275 846q14 15 29.5 34.5t30.5 40t25 37.5h124v-7q-8 -11 -24 -26t-36 -31.5t-40.5 -31.5t-37.5 -25h-71v9z" />
    <glyph glyph-name="aringacute" unicode="&#x1fb;" horiz-adv-x="574" 
d="M292 549q102 0 152 -44.5t50 -139.5v-365h-75l-21 75h-4q-23 -28 -47.5 -47.5t-56 -28.5t-76.5 -9q-48 0 -86.5 17.5t-60.5 54t-22 91.5q0 82 62.5 125t190.5 47l92 3v30q0 60 -27 84t-76 24q-42 0 -80 -12t-72 -29l-34 77q38 20 87.5 33.5t103.5 13.5zM317 257
q-92 -4 -127.5 -30.5t-35.5 -74.5q0 -42 25.5 -61t64.5 -19q63 0 104 35t41 105v47zM291 762q-23 0 -38 -14t-15 -39t13.5 -39.5t39.5 -14.5q24 0 39 14.5t15 39.5t-15.5 39t-38.5 14zM291 817q33 0 59 -13t41 -36.5t15 -57.5q0 -52 -32.5 -81t-82.5 -29t-81 29t-31 80
t31 79.5t81 28.5zM457 952q-10 -11 -38 -29.5t-60 -36.5t-55 -30h-74v8q14 13 29.5 29t30.5 33.5t25 31.5h142v-6z" />
    <glyph glyph-name="AEacute" unicode="&#x1fc;" horiz-adv-x="902" 
d="M842 0h-388v206h-247l-97 -206h-111l334 714h509v-92h-280v-204h262v-91h-262v-234h280v-93zM248 300h206v320h-59zM664 931q-11 -14 -29.5 -34t-41 -41.5t-44.5 -41t-40 -33.5h-70v12q15 19 34 45t37 53.5t30 49.5h124v-10z" />
    <glyph glyph-name="aeacute" unicode="&#x1fd;" horiz-adv-x="880" 
d="M614 549q66 0 115 -29.5t75.5 -84t26.5 -128.5v-60h-346q2 -86 40.5 -128.5t108.5 -42.5q50 0 90.5 9.5t80.5 28.5v-88q-40 -18 -80.5 -27t-94.5 -9q-45 0 -84 12t-69.5 36.5t-52.5 60.5q-24 -34 -52.5 -58.5t-65.5 -37.5t-90 -13q-48 0 -86.5 17.5t-61.5 54t-23 91.5
t26.5 92.5t80.5 57.5t134 22l91 3v36q0 56 -27.5 79t-75.5 23q-39 0 -77 -11.5t-72 -28.5l-33 76q37 21 88 34t102 13q60 0 101 -19.5t64 -60.5q28 38 70 59t97 21zM307 257q-86 -4 -119.5 -30.5t-33.5 -74.5q0 -42 23.5 -61t62.5 -19q38 0 69 15.5t49 46.5t18 78v47z
M613 467q-56 0 -88.5 -36t-37.5 -106h237q0 42 -12 74t-36.5 50t-62.5 18zM614 756q-11 -14 -29.5 -34t-41 -41.5t-44.5 -41t-40 -33.5h-70v12q15 19 34 45t37 53.5t30 49.5h124v-10z" />
    <glyph glyph-name="Oslashacute" unicode="&#x1fe;" horiz-adv-x="785" 
d="M725 358q0 -83 -20.5 -150.5t-62 -116.5t-104 -75t-145.5 -26q-54 0 -98.5 11t-80.5 32l-47 -68l-66 44l50 72q-46 49 -68.5 119.5t-22.5 158.5q0 110 36 192t110.5 128t187.5 46q51 0 95 -11t80 -31l45 65l66 -44l-49 -69q47 -48 70.5 -118.5t23.5 -158.5zM611 358
q0 117 -43 185l-297 -428q23 -15 54 -24t68 -9q76 0 124 33.5t71 95t23 147.5zM174 358q0 -56 10 -102.5t31 -81.5l298 427q-23 15 -53 23t-66 8q-76 0 -125 -33t-72 -94t-23 -147zM562 931q-11 -14 -29.5 -34t-41 -41.5t-44.5 -41t-40 -33.5h-70v12q15 19 34 45t37 53.5
t30 49.5h124v-10z" />
    <glyph glyph-name="oslashacute" unicode="&#x1ff;" horiz-adv-x="609" 
d="M558 270q0 -89 -31 -152t-88 -95.5t-136 -32.5q-35 0 -66 8t-59 22l-37 -54l-63 42l41 59q-32 36 -49.5 87t-17.5 116q0 134 68 206.5t186 72.5q36 0 68 -8.5t60 -24.5l36 51l63 -42l-40 -56q30 -36 47.5 -86t17.5 -113zM161 270q0 -33 4.5 -62t15.5 -52l200 285
q-14 9 -34 14.5t-43 5.5q-75 0 -109 -50t-34 -141zM449 270q0 32 -5 59t-13 49l-200 -283q15 -9 34 -13.5t40 -4.5q50 0 82 23t47 66.5t15 103.5zM472 756q-11 -14 -29.5 -34t-41 -41.5t-44.5 -41t-40 -33.5h-70v12q15 19 34 45t37 53.5t30 49.5h124v-10z" />
    <glyph glyph-name="uni0200" unicode="&#x200;" horiz-adv-x="654" 
d="M540 0l-76 206h-276l-76 -206h-112l271 717h112l270 -717h-113zM362 501q-3 11 -10.5 33.5t-14.5 46t-11 38.5q-5 -20 -11.5 -43.5t-12.5 -43t-10 -31.5l-72 -201h214zM382 941q11 -22 25.5 -49.5t30.5 -53.5t30 -45v-12h-59q-17 14 -37.5 33.5t-41 41.5t-36.5 42t-24 33
v10h112zM201 941q11 -22 25.5 -49.5t30 -53.5t29.5 -45v-12h-58q-17 14 -37.5 33.5t-41 41.5t-36.5 42t-24 33v10h112z" />
    <glyph glyph-name="uni0201" unicode="&#x201;" horiz-adv-x="574" 
d="M292 549q102 0 152 -44.5t50 -139.5v-365h-75l-21 75h-4q-23 -29 -47.5 -48t-56 -28t-76.5 -9q-48 0 -86.5 17.5t-60.5 54t-22 91.5q0 82 62.5 125t190.5 47l92 3v30q0 60 -27 84t-76 24q-42 0 -80 -12t-72 -29l-34 77q38 20 87.5 33.5t103.5 13.5zM317 257
q-92 -4 -127.5 -30.5t-35.5 -74.5q0 -42 25.5 -61t64.5 -19q63 0 104 35t41 105v47zM343 766q11 -22 25.5 -49.5t30.5 -53.5t30 -45v-12h-59q-17 14 -37.5 33.5t-41 41.5t-36.5 42t-24 33v10h112zM162 766q11 -22 25.5 -49.5t30 -53.5t29.5 -45v-12h-58q-17 14 -37.5 33.5
t-41 41.5t-36.5 42t-24 33v10h112z" />
    <glyph glyph-name="uni0202" unicode="&#x202;" horiz-adv-x="654" 
d="M540 0l-76 206h-276l-76 -206h-112l271 717h112l270 -717h-113zM362 501q-3 11 -10.5 33.5t-14.5 46t-11 38.5q-5 -20 -11.5 -43.5t-12.5 -43t-10 -31.5l-72 -201h214zM328 924q78 0 119 -38.5t45 -104.5h-63q-2 28 -15.5 41t-35 17t-52.5 4q-25 0 -47 -4.5t-37 -18
t-19 -39.5h-64q4 43 25 75t57.5 50t86.5 18z" />
    <glyph glyph-name="uni0203" unicode="&#x203;" horiz-adv-x="574" 
d="M292 549q102 0 152 -44.5t50 -139.5v-365h-75l-21 75h-4q-23 -29 -47.5 -48t-56 -28t-76.5 -9q-48 0 -86.5 17.5t-60.5 54t-22 91.5q0 82 62.5 125t190.5 47l92 3v30q0 60 -27 84t-76 24q-42 0 -80 -12t-72 -29l-34 77q38 20 87.5 33.5t103.5 13.5zM317 257
q-92 -4 -127.5 -30.5t-35.5 -74.5q0 -42 25.5 -61t64.5 -19q63 0 104 35t41 105v47zM289 749q78 0 119 -38.5t45 -104.5h-63q-2 28 -15.5 41t-35 17t-52.5 4q-25 0 -47 -4.5t-37 -18t-19 -39.5h-64q4 43 25 75t57.5 50t86.5 18z" />
    <glyph glyph-name="uni0204" unicode="&#x204;" horiz-adv-x="557" 
d="M497 0h-402v714h402v-92h-294v-204h276v-91h-276v-234h294v-93zM360 941q11 -22 25.5 -49.5t30.5 -53.5t30 -45v-12h-59q-17 14 -37.5 33.5t-41 41.5t-36.5 42t-24 33v10h112zM179 941q11 -22 25.5 -49.5t30 -53.5t29.5 -45v-12h-58q-17 14 -37.5 33.5t-41 41.5t-36.5 42
t-24 33v10h112z" />
    <glyph glyph-name="uni0205" unicode="&#x205;" horiz-adv-x="572" 
d="M295 549q71 0 122 -29.5t78.5 -84.5t27.5 -130v-58h-362q2 -83 43.5 -127t116.5 -44q52 0 92.5 9.5t83.5 28.5v-88q-40 -18 -81.5 -27t-98.5 -9q-78 0 -138 31t-93.5 92.5t-33.5 151.5q0 91 30.5 154t85 96.5t127.5 33.5zM295 467q-57 0 -91.5 -37t-40.5 -105h254
q0 42 -13 74t-40 50t-69 18zM344 766q11 -22 25.5 -49.5t30.5 -53.5t30 -45v-12h-59q-17 14 -37.5 33.5t-41 41.5t-36.5 42t-24 33v10h112zM163 766q11 -22 25.5 -49.5t30 -53.5t29.5 -45v-12h-58q-17 14 -37.5 33.5t-41 41.5t-36.5 42t-24 33v10h112z" />
    <glyph glyph-name="uni0206" unicode="&#x206;" horiz-adv-x="557" 
d="M497 0h-402v714h402v-92h-294v-204h276v-91h-276v-234h294v-93zM306 924q78 0 119 -38.5t45 -104.5h-63q-2 28 -15.5 41t-35 17t-52.5 4q-25 0 -47 -4.5t-37 -18t-19 -39.5h-64q4 43 25 75t57.5 50t86.5 18z" />
    <glyph glyph-name="uni0207" unicode="&#x207;" horiz-adv-x="572" 
d="M295 549q71 0 122 -29.5t78.5 -84.5t27.5 -130v-58h-362q2 -83 43.5 -127t116.5 -44q52 0 92.5 9.5t83.5 28.5v-88q-40 -18 -81.5 -27t-98.5 -9q-78 0 -138 31t-93.5 92.5t-33.5 151.5q0 91 30.5 154t85 96.5t127.5 33.5zM295 467q-57 0 -91.5 -37t-40.5 -105h254
q0 42 -13 74t-40 50t-69 18zM290 749q78 0 119 -38.5t45 -104.5h-63q-2 28 -15.5 41t-35 17t-52.5 4q-25 0 -47 -4.5t-37 -18t-19 -39.5h-64q4 43 25 75t57.5 50t86.5 18z" />
    <glyph glyph-name="uni0208" unicode="&#x208;" horiz-adv-x="354" 
d="M315 0h-277v62l85 25v539l-85 26v62h277v-62l-84 -26v-539l84 -25v-62zM234 941q11 -22 25.5 -49.5t30.5 -53.5t30 -45v-12h-59q-17 14 -37.5 33.5t-41 41.5t-36.5 42t-24 33v10h112zM53 941q11 -22 25.5 -49.5t30 -53.5t29.5 -45v-12h-58q-17 14 -37.5 33.5t-41 41.5
t-36.5 42t-24 33v10h112z" />
    <glyph glyph-name="uni0209" unicode="&#x209;" horiz-adv-x="272" 
d="M189 0h-106v539h106v-539zM192 766q11 -22 25.5 -49.5t30.5 -53.5t30 -45v-12h-59q-17 14 -37.5 33.5t-41 41.5t-36.5 42t-24 33v10h112zM11 766q11 -22 25.5 -49.5t30 -53.5t29.5 -45v-12h-58q-17 14 -37.5 33.5t-41 41.5t-36.5 42t-24 33v10h112z" />
    <glyph glyph-name="uni020A" unicode="&#x20a;" horiz-adv-x="354" 
d="M315 0h-277v62l85 25v539l-85 26v62h277v-62l-84 -26v-539l84 -25v-62zM179 924q78 0 119 -38.5t45 -104.5h-63q-2 28 -15.5 41t-35 17t-52.5 4q-25 0 -47 -4.5t-37 -18t-19 -39.5h-64q4 43 25 75t57.5 50t86.5 18z" />
    <glyph glyph-name="uni020B" unicode="&#x20b;" horiz-adv-x="272" 
d="M189 0h-106v539h106v-539zM138 749q78 0 119 -38.5t45 -104.5h-63q-2 28 -15.5 41t-35 17t-52.5 4q-25 0 -47 -4.5t-37 -18t-19 -39.5h-64q4 43 25 75t57.5 50t86.5 18z" />
    <glyph glyph-name="uni020C" unicode="&#x20c;" horiz-adv-x="785" 
d="M725 358q0 -83 -20.5 -150.5t-62 -116.5t-104 -75t-145.5 -26q-85 0 -147.5 26.5t-104 75t-61.5 116.5t-20 151q0 110 36 192t110.5 128t187.5 46q110 0 183.5 -45.5t110.5 -128t37 -193.5zM174 358q0 -86 23 -147.5t72 -95t124 -33.5q76 0 124 33.5t71 95t23 147.5
q0 129 -51.5 201.5t-165.5 72.5q-76 0 -125 -33t-72 -94t-23 -147zM449 941q11 -22 25.5 -49.5t30.5 -53.5t30 -45v-12h-59q-17 14 -37.5 33.5t-41 41.5t-36.5 42t-24 33v10h112zM268 941q11 -22 25.5 -49.5t30 -53.5t29.5 -45v-12h-58q-17 14 -37.5 33.5t-41 41.5t-36.5 42
t-24 33v10h112z" />
    <glyph glyph-name="uni020D" unicode="&#x20d;" horiz-adv-x="609" 
d="M558 270q0 -67 -18 -119t-51 -88t-80 -54.5t-106 -18.5q-54 0 -100 18.5t-79.5 54.5t-52.5 88t-19 120q0 89 30.5 151t88 94.5t135.5 32.5q74 0 130.5 -32.5t89 -94.5t32.5 -152zM161 270q0 -60 15 -103.5t47 -66.5t82 -23t82 23t47 66.5t15 103.5q0 62 -15.5 104
t-47 64.5t-82.5 22.5q-75 0 -109 -50t-34 -141zM361 766q11 -22 25.5 -49.5t30.5 -53.5t30 -45v-12h-59q-17 14 -37.5 33.5t-41 41.5t-36.5 42t-24 33v10h112zM180 766q11 -22 25.5 -49.5t30 -53.5t29.5 -45v-12h-58q-17 14 -37.5 33.5t-41 41.5t-36.5 42t-24 33v10h112z
" />
    <glyph glyph-name="uni020E" unicode="&#x20e;" horiz-adv-x="785" 
d="M725 358q0 -83 -20.5 -150.5t-62 -116.5t-104 -75t-145.5 -26q-85 0 -147.5 26.5t-104 75t-61.5 116.5t-20 151q0 110 36 192t110.5 128t187.5 46q110 0 183.5 -45.5t110.5 -128t37 -193.5zM174 358q0 -86 23 -147.5t72 -95t124 -33.5q76 0 124 33.5t71 95t23 147.5
q0 129 -51.5 201.5t-165.5 72.5q-76 0 -125 -33t-72 -94t-23 -147zM395 924q78 0 119 -38.5t45 -104.5h-63q-2 28 -15.5 41t-35 17t-52.5 4q-25 0 -47 -4.5t-37 -18t-19 -39.5h-64q4 43 25 75t57.5 50t86.5 18z" />
    <glyph glyph-name="uni020F" unicode="&#x20f;" horiz-adv-x="609" 
d="M558 270q0 -67 -18 -119t-51 -88t-80 -54.5t-106 -18.5q-54 0 -100 18.5t-79.5 54.5t-52.5 88t-19 120q0 89 30.5 151t88 94.5t135.5 32.5q74 0 130.5 -32.5t89 -94.5t32.5 -152zM161 270q0 -60 15 -103.5t47 -66.5t82 -23t82 23t47 66.5t15 103.5q0 62 -15.5 104
t-47 64.5t-82.5 22.5q-75 0 -109 -50t-34 -141zM307 749q78 0 119 -38.5t45 -104.5h-63q-2 28 -15.5 41t-35 17t-52.5 4q-25 0 -47 -4.5t-37 -18t-19 -39.5h-64q4 43 25 75t57.5 50t86.5 18z" />
    <glyph glyph-name="uni0210" unicode="&#x210;" horiz-adv-x="633" 
d="M295 714q92 0 151 -23t88 -68.5t29 -114.5q0 -55 -20.5 -92.5t-52.5 -61t-67 -37.5l200 -317h-124l-172 289h-124v-289h-108v714h200zM288 622h-85v-243h90q83 0 121 31.5t38 93.5q0 43 -17.5 68.5t-54 37.5t-92.5 12zM375 941q11 -22 25.5 -49.5t30.5 -53.5t30 -45v-12
h-59q-17 14 -37.5 33.5t-41 41.5t-36.5 42t-24 33v10h112zM194 941q11 -22 25.5 -49.5t30 -53.5t29.5 -45v-12h-58q-17 14 -37.5 33.5t-41 41.5t-36.5 42t-24 33v10h112z" />
    <glyph glyph-name="uni0211" unicode="&#x211;" horiz-adv-x="425" 
d="M349 549q14 0 31 -1.5t28 -3.5l-11 -99q-11 3 -26 5t-28 2q-30 0 -57.5 -11.5t-49.5 -33t-34.5 -52.5t-12.5 -71v-284h-106v539h84l14 -96h4q17 29 41 53t55 38.5t68 14.5zM300 766q11 -22 25.5 -49.5t30.5 -53.5t30 -45v-12h-59q-17 14 -37.5 33.5t-41 41.5t-36.5 42
t-24 33v10h112zM119 766q11 -22 25.5 -49.5t30 -53.5t29.5 -45v-12h-58q-17 14 -37.5 33.5t-41 41.5t-36.5 42t-24 33v10h112z" />
    <glyph glyph-name="uni0212" unicode="&#x212;" horiz-adv-x="633" 
d="M295 714q92 0 151 -23t88 -68.5t29 -114.5q0 -55 -20.5 -92.5t-52.5 -61t-67 -37.5l200 -317h-124l-172 289h-124v-289h-108v714h200zM288 622h-85v-243h90q83 0 121 31.5t38 93.5q0 43 -17.5 68.5t-54 37.5t-92.5 12zM321 924q78 0 119 -38.5t45 -104.5h-63
q-2 28 -15.5 41t-35 17t-52.5 4q-25 0 -47 -4.5t-37 -18t-19 -39.5h-64q4 43 25 75t57.5 50t86.5 18z" />
    <glyph glyph-name="uni0213" unicode="&#x213;" horiz-adv-x="425" 
d="M349 549q14 0 31 -1.5t28 -3.5l-11 -99q-11 3 -26 5t-28 2q-30 0 -57.5 -11.5t-49.5 -33t-34.5 -52.5t-12.5 -71v-284h-106v539h84l14 -96h4q17 29 41 53t55 38.5t68 14.5zM246 749q78 0 119 -38.5t45 -104.5h-63q-2 28 -15.5 41t-35 17t-52.5 4q-25 0 -47 -4.5t-37 -18
t-19 -39.5h-64q4 43 25 75t57.5 50t86.5 18z" />
    <glyph glyph-name="uni0214" unicode="&#x214;" horiz-adv-x="738" 
d="M649 252q0 -74 -30.5 -133.5t-93.5 -94t-159 -34.5q-136 0 -206.5 72.5t-70.5 191.5v460h108v-455q0 -88 43 -132.5t131 -44.5q60 0 98 22t55.5 61.5t17.5 94.5v454h107v-462zM426 941q11 -22 25.5 -49.5t30.5 -53.5t30 -45v-12h-59q-17 14 -37.5 33.5t-41 41.5t-36.5 42
t-24 33v10h112zM245 941q11 -22 25.5 -49.5t30 -53.5t29.5 -45v-12h-58q-17 14 -37.5 33.5t-41 41.5t-36.5 42t-24 33v10h112z" />
    <glyph glyph-name="uni0215" unicode="&#x215;" horiz-adv-x="630" 
d="M547 539v-539h-85l-15 71h-5q-17 -28 -44 -46t-59 -26.5t-66 -8.5q-63 0 -106.5 20.5t-66 64t-22.5 111.5v353h107v-337q0 -63 26.5 -94t82.5 -31t88 22t45.5 64.5t13.5 102.5v273h106zM371 766q11 -22 25.5 -49.5t30.5 -53.5t30 -45v-12h-59q-17 14 -37.5 33.5t-41 41.5
t-36.5 42t-24 33v10h112zM190 766q11 -22 25.5 -49.5t30 -53.5t29.5 -45v-12h-58q-17 14 -37.5 33.5t-41 41.5t-36.5 42t-24 33v10h112z" />
    <glyph glyph-name="uni0216" unicode="&#x216;" horiz-adv-x="738" 
d="M649 252q0 -74 -30.5 -133.5t-93.5 -94t-159 -34.5q-136 0 -206.5 72.5t-70.5 191.5v460h108v-455q0 -88 43 -132.5t131 -44.5q60 0 98 22t55.5 61.5t17.5 94.5v454h107v-462zM372 924q78 0 119 -38.5t45 -104.5h-63q-2 28 -15.5 41t-35 17t-52.5 4q-25 0 -47 -4.5
t-37 -18t-19 -39.5h-64q4 43 25 75t57.5 50t86.5 18z" />
    <glyph glyph-name="uni0217" unicode="&#x217;" horiz-adv-x="630" 
d="M547 539v-539h-85l-15 71h-5q-17 -28 -44 -46t-59 -26.5t-66 -8.5q-63 0 -106.5 20.5t-66 64t-22.5 111.5v353h107v-337q0 -63 26.5 -94t82.5 -31t88 22t45.5 64.5t13.5 102.5v273h106zM317 749q78 0 119 -38.5t45 -104.5h-63q-2 28 -15.5 41t-35 17t-52.5 4
q-25 0 -47 -4.5t-37 -18t-19 -39.5h-64q4 43 25 75t57.5 50t86.5 18z" />
    <glyph glyph-name="uni0218" unicode="&#x218;" horiz-adv-x="550" 
d="M505 193q0 -64 -31 -109t-89 -69.5t-138 -24.5q-39 0 -75 4.5t-67 12.5t-55 20v102q40 -18 94 -32.5t110 -14.5q48 0 80 13t48 36t16 54q0 33 -16.5 55.5t-51 42t-92.5 41.5q-40 15 -72.5 33.5t-57 43.5t-37.5 58t-13 77q0 59 29.5 101t81.5 64.5t121 22.5
q58 0 107.5 -11.5t94.5 -31.5l-34 -89q-41 17 -83 28t-88 11q-40 0 -67 -12t-40.5 -33t-13.5 -49q0 -33 15 -55t48 -40.5t87 -40.5q60 -23 102.5 -50t64.5 -64.5t22 -93.5zM330 -70q-6 -19 -18.5 -46t-28.5 -54.5t-33 -50.5h-60v12q8 18 15.5 44.5t14 54.5t8.5 49h102v-9z
" />
    <glyph glyph-name="uni0219" unicode="&#x219;" horiz-adv-x="484" 
d="M441 152q0 -53 -26 -89t-75 -54.5t-118 -18.5q-57 0 -97.5 8.5t-74.5 24.5v93q36 -17 83 -30.5t92 -13.5q60 0 86.5 19t26.5 51q0 18 -10 32.5t-37.5 30t-80.5 35.5q-51 21 -87 41.5t-55 49t-19 73.5q0 70 56.5 107.5t149.5 37.5q49 0 92.5 -9.5t84.5 -28.5l-35 -81
q-35 15 -72 25.5t-75 10.5q-48 0 -73 -15t-25 -42q0 -19 11.5 -33t40.5 -28t79 -34q50 -19 85.5 -39t54 -49t18.5 -74zM313 -70q-6 -19 -18.5 -46t-28.5 -54.5t-33 -50.5h-60v12q8 18 15.5 44.5t14 54.5t8.5 49h102v-9z" />
    <glyph glyph-name="uni021A" unicode="&#x21a;" horiz-adv-x="563" 
d="M335 0h-108v621h-214v93h536v-93h-214v-621zM352 -70q-6 -19 -18.5 -46t-28.5 -54.5t-33 -50.5h-60v12q8 18 15.5 44.5t14 54.5t8.5 49h102v-9z" />
    <glyph glyph-name="uni021B" unicode="&#x21b;" horiz-adv-x="383" 
d="M277 76q21 0 43 4t38 9v-80q-17 -8 -46 -13.5t-58 -5.5q-44 0 -80.5 15t-58.5 52t-22 103v298h-75v48l79 40l37 114h65v-121h154v-81h-154v-296q0 -44 21.5 -65t56.5 -21zM292 -70q-6 -19 -18.5 -46t-28.5 -54.5t-33 -50.5h-60v12q8 18 15.5 44.5t14 54.5t8.5 49h102v-9z
" />
    <glyph glyph-name="uni021C" unicode="&#x21c;" horiz-adv-x="591" 
d="M43 -82q114 29 189 58t118 61.5t61.5 69t18.5 78.5q0 57 -28 90.5t-77 57.5q-37 -13 -77 -24t-82 -21l-19 82q91 23 150.5 44.5t88 50t28.5 71.5q0 32 -15 54.5t-43.5 34t-68.5 11.5q-58 0 -106.5 -15.5t-92.5 -44.5l-50 73q57 40 121 57.5t133 17.5q63 0 115.5 -18.5
t84 -59t31.5 -107.5q0 -55 -29.5 -95t-79.5 -69q33 -16 62 -41.5t46.5 -61.5t17.5 -87q0 -93 -51.5 -159.5t-161 -115.5t-284.5 -90v98z" />
    <glyph glyph-name="uni021D" unicode="&#x21d;" horiz-adv-x="499" 
d="M27 -149q107 23 178 52t106.5 69.5t35.5 94.5q0 47 -20 75.5t-57 48.5q-29 -12 -62.5 -22t-70.5 -19l-20 78q85 22 131.5 44t64.5 47.5t18 57.5q0 29 -12.5 48t-35 28.5t-53.5 9.5q-43 0 -80.5 -10t-74.5 -28l-34 77q45 25 92.5 36t97.5 11q58 0 104 -17.5t73.5 -54.5
t27.5 -97q0 -47 -23 -83.5t-64 -63.5q30 -15 53 -37t37 -53.5t14 -75.5q0 -67 -31 -116.5t-87.5 -85t-134.5 -61t-173 -44.5v91z" />
    <glyph glyph-name="uni021E" unicode="&#x21e;" horiz-adv-x="748" 
d="M652 0h-108v326h-341v-326h-108v714h108v-296h341v296h108v-714zM317 781q-14 23 -36 49.5t-46 52.5t-42 45v13h72q26 -17 54.5 -40t53.5 -50q27 27 55.5 50t54.5 40h73v-13q-18 -19 -42.5 -45t-47 -52.5t-35.5 -49.5h-114z" />
    <glyph glyph-name="uni021F" unicode="&#x21f;" horiz-adv-x="630" 
d="M189 557q0 -25 -2 -50t-4 -41h7q17 28 42.5 46t57 27t64.5 9q64 0 107.5 -20.5t66 -64t22.5 -112.5v-351h-105v336q0 63 -26.5 94.5t-84.5 31.5q-55 0 -86.5 -22t-45 -64.5t-13.5 -104.5v-271h-106v760h106v-203zM80 827q-14 23 -36 49.5t-46 52.5t-42 45v13h72
q26 -17 54.5 -40t53.5 -50q27 27 55.5 50t54.5 40h73v-13q-18 -19 -42.5 -45t-47 -52.5t-35.5 -49.5h-114z" />
    <glyph glyph-name="uni0220" unicode="&#x220;" horiz-adv-x="747" 
d="M416 725q74 0 128.5 -27t84 -83t29.5 -146v-709h-108v698q0 87 -36.5 131t-119.5 44q-69 0 -111.5 -27t-61 -77t-18.5 -119v-410h-108v715h84l18 -92h4q23 31 57.5 54t75 35.5t82.5 12.5z" />
    <glyph glyph-name="uni0221" unicode="&#x221;" horiz-adv-x="864" 
d="M484 -100q4 40 10 74t14 63q-11 9 -19.5 18t-13 18t-7.5 16h-5q-17 -30 -41 -52.5t-59.5 -34.5t-87.5 -12q-102 0 -162.5 69.5t-60.5 208.5q0 93 27 155.5t76.5 94t114.5 31.5q41 0 71.5 -10.5t53 -28.5t38.5 -40h6q-1 7 -2.5 18.5t-2.5 24t-2 24.5t-1 21v202h106v-548
q0 -24 3 -43t10 -34q17 29 38 48.5t43.5 31t46.5 16.5t49 5q63 -1 96.5 -31t33.5 -75q0 -34 -19 -64.5t-62.5 -48t-116.5 -17.5q-20 0 -37 1.5t-33 4.5q-5 -24 -8.5 -52t-5.5 -59zM293 77q78 0 110 43.5t32 130.5v16q0 95 -30.5 145t-112.5 50q-65 0 -98 -52.5t-33 -143.5
t33 -140t99 -49zM668 78q53 0 74.5 12.5t21.5 33.5q0 13 -12.5 22.5t-35.5 9.5t-41.5 -8.5t-33.5 -24.5t-26 -39q12 -3 25 -4.5t28 -1.5z" />
    <glyph glyph-name="uni0222" unicode="&#x222;" horiz-adv-x="699" 
d="M348 -10q-66 0 -120 16.5t-92 48.5t-58.5 78t-20.5 104q0 52 16.5 92t49.5 67.5t80 43.5q-39 17 -64 44.5t-36 64.5t-11 83v82h108v-82q0 -44 15.5 -78t49 -53t84.5 -19q53 0 86 19t48.5 53t15.5 78v82h108v-82q0 -45 -11.5 -82.5t-36 -65t-64.5 -45.5q46 -16 79 -43.5
t51 -67t18 -91.5q0 -58 -20 -103.5t-58.5 -78t-93 -49t-123.5 -16.5zM349 82q94 0 137 41.5t43 113.5q0 73 -43 113t-137 40q-93 0 -136 -40t-43 -113q0 -72 43 -113.5t136 -41.5z" />
    <glyph glyph-name="uni0223" unicode="&#x223;" horiz-adv-x="606" 
d="M301 -10q-72 0 -129.5 29t-90 85.5t-32.5 137.5q0 54 15 95t44.5 69.5t71.5 44.5q-34 13 -56 37.5t-32.5 62t-10.5 89.5v120h106v-118q0 -51 12 -84t37.5 -48.5t66.5 -15.5t66.5 15.5t37 48t11.5 84.5v118h106v-120q0 -53 -10.5 -90.5t-32.5 -61.5t-57 -38q41 -16 71 -44
t46 -68.5t16 -95.5q0 -61 -18 -107.5t-51.5 -79t-81 -49t-105.5 -16.5zM303 77q74 0 109.5 43.5t35.5 122.5q0 78 -35 121t-111 43q-75 0 -109.5 -43t-34.5 -121q0 -79 35 -122.5t110 -43.5z" />
    <glyph glyph-name="uni0224" unicode="&#x224;" horiz-adv-x="574" 
d="M406 -210q-20 0 -38.5 3.5t-30.5 8.5v86q10 -4 23.5 -6.5t29.5 -2.5q15 0 27 5.5t18 19t6 36.5v60h-10v93h108v-156q0 -45 -13.5 -78t-43 -51t-76.5 -18zM539 0h-505v77l366 544h-355v93h485v-77l-366 -544h375v-93z" />
    <glyph glyph-name="uni0225" unicode="&#x225;" horiz-adv-x="475" 
d="M431 539v-75l-272 -382h280v-147q0 -47 -13.5 -78.5t-41 -47.5t-69.5 -16q-21 0 -37.5 3.5t-28.5 8.5v82q9 -3 21.5 -6t27.5 -3q24 0 36.5 12.5t12.5 41.5v68h-312v67l278 390h-261v82h379z" />
    <glyph glyph-name="uni0226" unicode="&#x226;" horiz-adv-x="654" 
d="M540 0l-76 206h-276l-76 -206h-112l271 717h112l270 -717h-113zM362 501q-3 11 -10.5 33.5t-14.5 46t-11 38.5q-5 -20 -11.5 -43.5t-12.5 -43t-10 -31.5l-72 -201h214zM327 919q23 0 41 -14t18 -47q0 -32 -18 -46.5t-41 -14.5q-26 0 -43.5 14.5t-17.5 46.5q0 33 17.5 47
t43.5 14z" />
    <glyph glyph-name="uni0227" unicode="&#x227;" horiz-adv-x="574" 
d="M292 549q102 0 152 -44.5t50 -139.5v-365h-75l-21 75h-4q-23 -29 -47.5 -48t-56 -28t-76.5 -9q-48 0 -86.5 17.5t-60.5 54t-22 91.5q0 82 62.5 125t190.5 47l92 3v30q0 60 -27 84t-76 24q-42 0 -80 -12t-72 -29l-34 77q38 20 87.5 33.5t103.5 13.5zM317 257
q-92 -4 -127.5 -30.5t-35.5 -74.5q0 -42 25.5 -61t64.5 -19q63 0 104 35t41 105v47zM288 744q23 0 41 -14t18 -47q0 -32 -18 -46.5t-41 -14.5q-26 0 -43.5 14.5t-17.5 46.5q0 33 17.5 47t43.5 14z" />
    <glyph glyph-name="uni0228" unicode="&#x228;" horiz-adv-x="557" 
d="M497 0h-402v714h402v-92h-294v-204h276v-91h-276v-234h294v-93zM407 -134q0 -50 -36 -78t-113 -28q-17 0 -32 2t-24 4v63q10 -2 26.5 -4t31.5 -2q29 0 45.5 8.5t16.5 31.5t-24 36t-64 18l42 83h68l-22 -46q23 -6 42.5 -17t31 -28t11.5 -43z" />
    <glyph glyph-name="uni0229" unicode="&#x229;" horiz-adv-x="572" 
d="M295 549q71 0 122 -29.5t78.5 -84.5t27.5 -130v-58h-362q2 -83 43.5 -127t116.5 -44q52 0 92.5 9.5t83.5 28.5v-88q-40 -18 -81.5 -27t-98.5 -9q-78 0 -138 31t-93.5 92.5t-33.5 151.5q0 91 30.5 154t85 96.5t127.5 33.5zM295 467q-57 0 -91.5 -37t-40.5 -105h254
q0 42 -13 74t-40 50t-69 18zM405 -134q0 -50 -36 -78t-113 -28q-17 0 -32 2t-24 4v63q10 -2 26.5 -4t31.5 -2q29 0 45.5 8.5t16.5 31.5t-24 36t-64 18l42 83h68l-22 -46q23 -6 42.5 -17t31 -28t11.5 -43z" />
    <glyph glyph-name="uni022A" unicode="&#x22a;" horiz-adv-x="785" 
d="M546 1017v-78h-307v78h307zM298 881q21 0 36 -13t15 -40t-15 -40t-36 -13q-22 0 -37 13t-15 40t15 40t37 13zM488 881q22 0 37 -13t15 -40t-15 -40t-37 -13t-37 13t-15 40t15 40t37 13zM725 358q0 -83 -20.5 -150.5t-62 -116.5t-104 -75t-145.5 -26q-85 0 -147.5 26.5
t-104 75t-61.5 116.5t-20 151q0 110 36 192t110.5 128t187.5 46q110 0 183.5 -45.5t110.5 -128t37 -193.5zM174 358q0 -86 23 -147.5t72 -95t124 -33.5q76 0 124 33.5t71 95t23 147.5q0 129 -51.5 201.5t-165.5 72.5q-76 0 -125 -33t-72 -94t-23 -147z" />
    <glyph glyph-name="uni022B" unicode="&#x22b;" horiz-adv-x="609" 
d="M458 842v-78h-307v78h307zM210 706q21 0 36 -13t15 -40t-15 -40t-36 -13q-22 0 -37 13t-15 40t15 40t37 13zM400 706q22 0 37 -13t15 -40t-15 -40t-37 -13t-37 13t-15 40t15 40t37 13zM558 270q0 -67 -18 -119t-51 -88t-80 -54.5t-106 -18.5q-54 0 -100 18.5t-79.5 54.5
t-52.5 88t-19 119q0 90 30.5 152t88 94.5t135.5 32.5q74 0 130.5 -32.5t89 -94.5t32.5 -152zM161 270q0 -60 15 -103.5t47 -66.5t82 -23t82 23t47 66.5t15 103.5q0 62 -15.5 104t-47 64.5t-82.5 22.5q-75 0 -109 -50t-34 -141z" />
    <glyph glyph-name="uni022C" unicode="&#x22c;" horiz-adv-x="785" 
d="M224 780q5 52 29.5 83.5t69.5 31.5q21 0 40.5 -7t37 -16t33.5 -16.5t31 -7.5q20 0 29 13t16 34h53q-3 -33 -15 -59t-32.5 -40.5t-51.5 -14.5q-20 0 -39 7t-36.5 16.5t-34 16.5t-31.5 7q-21 0 -30 -12.5t-15 -35.5h-54zM239 939v78h307v-78h-307zM725 358
q0 -83 -20.5 -150.5t-62 -116.5t-104 -75t-145.5 -26q-85 0 -147.5 26.5t-104 75t-61.5 116.5t-20 151q0 110 36 192t110.5 128t187.5 46q110 0 183.5 -45.5t110.5 -128t37 -193.5zM174 358q0 -86 23 -147.5t72 -95t124 -33.5q76 0 124 33.5t71 95.5t23 147
q0 129 -51.5 201.5t-165.5 72.5q-76 0 -125 -33t-72 -94t-23 -147z" />
    <glyph glyph-name="uni022D" unicode="&#x22d;" horiz-adv-x="609" 
d="M136 605q5 52 29.5 83.5t69.5 31.5q21 0 40.5 -7t37 -16.5t33.5 -16.5t31 -7q20 0 29 13t16 34h53q-3 -33 -15 -59t-32.5 -40.5t-51.5 -14.5q-20 0 -39 7t-36.5 16.5t-34 16.5t-31.5 7q-21 0 -30 -12.5t-15 -35.5h-54zM151 764v78h307v-78h-307zM558 270q0 -67 -18 -119
t-51 -88t-80 -54.5t-106 -18.5q-54 0 -100 18.5t-79.5 54.5t-52.5 88t-19 120q0 89 30.5 151t88 94.5t135.5 32.5q74 0 130.5 -32.5t89 -94.5t32.5 -152zM161 270q0 -60 15 -103.5t47 -66.5t82 -23t82 23t47 66.5t15 103.5q0 62 -15.5 104t-47 64.5t-82.5 22.5
q-75 0 -109 -50t-34 -141z" />
    <glyph glyph-name="uni022E" unicode="&#x22e;" horiz-adv-x="785" 
d="M725 358q0 -83 -20.5 -150.5t-62 -116.5t-104 -75t-145.5 -26q-85 0 -147.5 26.5t-104 75t-61.5 116.5t-20 151q0 110 36 192t110.5 128t187.5 46q110 0 183.5 -45.5t110.5 -128t37 -193.5zM174 358q0 -86 23 -147.5t72 -95t124 -33.5q76 0 124 33.5t71 95t23 147.5
q0 129 -51.5 201.5t-165.5 72.5q-76 0 -125 -33t-72 -94t-23 -147zM394 919q23 0 41 -14t18 -47q0 -32 -18 -46.5t-41 -14.5q-26 0 -43.5 14.5t-17.5 46.5q0 33 17.5 47t43.5 14z" />
    <glyph glyph-name="uni022F" unicode="&#x22f;" horiz-adv-x="609" 
d="M558 270q0 -67 -18 -119t-51 -88t-80 -54.5t-106 -18.5q-54 0 -100 18.5t-79.5 54.5t-52.5 88t-19 120q0 89 30.5 151t88 94.5t135.5 32.5q74 0 130.5 -32.5t89 -94.5t32.5 -152zM161 270q0 -60 15 -103.5t47 -66.5t82 -23t82 23t47 66.5t15 103.5q0 62 -15.5 104
t-47 64.5t-82.5 22.5q-75 0 -109 -50t-34 -141zM306 744q23 0 41 -14t18 -47q0 -32 -18 -46.5t-41 -14.5q-26 0 -43.5 14.5t-17.5 46.5q0 33 17.5 47t43.5 14z" />
    <glyph glyph-name="uni0230" unicode="&#x230;" horiz-adv-x="785" 
d="M546 1007v-78h-307v78h307zM394 883q22 0 38.5 -14t16.5 -44q0 -28 -16.5 -42.5t-38.5 -14.5q-24 0 -39.5 14.5t-15.5 42.5q0 30 15.5 44t39.5 14zM725 358q0 -83 -20.5 -150.5t-62 -116.5t-104 -75t-145.5 -26q-85 0 -147.5 26.5t-104 75t-61.5 116.5t-20 151
q0 110 36 192t110.5 128t187.5 46q110 0 183.5 -45.5t110.5 -128t37 -193.5zM174 358q0 -86 23 -147.5t72 -95t124 -33.5q76 0 124 33.5t71 95t23 147.5q0 129 -51.5 201.5t-165.5 72.5q-76 0 -125 -33t-72 -94t-23 -147z" />
    <glyph glyph-name="uni0231" unicode="&#x231;" horiz-adv-x="609" 
d="M458 842v-77h-307v77h307zM304 719q23 0 39 -14t16 -44q0 -28 -16 -42.5t-39 -14.5t-39 14.5t-16 42.5q0 30 16 44t39 14zM558 270q0 -67 -18 -119t-51 -88t-80 -54.5t-106 -18.5q-54 0 -100 18.5t-79.5 54.5t-52.5 88t-19 120q0 89 30.5 151t88 94.5t135.5 32.5
q74 0 130.5 -32.5t89 -94.5t32.5 -152zM161 270q0 -60 15 -103.5t47 -66.5t82 -23t82 23t47 66.5t15 103.5q0 62 -15.5 104t-47 64.5t-82.5 22.5q-75 0 -109 -50t-34 -141z" />
    <glyph glyph-name="uni0232" unicode="&#x232;" horiz-adv-x="583" 
d="M292 380l175 334h116l-238 -437v-277h-107v273l-238 441h117zM445 861v-80h-307v80h307z" />
    <glyph glyph-name="uni0233" unicode="&#x233;" horiz-adv-x="527" 
d="M1 539h114l112 -306q9 -23 16 -45t12.5 -43.5t8.5 -42.5h4q5 26 16 61.5t23 70.5l106 305h114l-231 -612q-19 -52 -47 -89.5t-66.5 -57.5t-90.5 -20q-25 0 -43 2.5t-31 5.5v84q11 -2 26.5 -4t32.5 -2q31 0 53.5 12t38 34t26.5 50l22 58zM417 686v-80h-307v80h307z" />
    <glyph glyph-name="uni0234" unicode="&#x234;" horiz-adv-x="397" 
d="M16 0q17 41 34 74t36 58q-2 15 -2.5 35.5t-0.5 41.5v551h106v-539q15 7 33 10.5t37 3.5q65 0 98 -32.5t33 -86.5t-36 -90t-105 -36q-46 0 -78.5 15t-51.5 41q-9 -16 -17.5 -36t-17.5 -42zM252 64q26 0 39 14t13 35q0 24 -14.5 36t-39.5 12q-16 0 -31.5 -6t-29.5 -18
q2 -33 16.5 -53t46.5 -20z" />
    <glyph glyph-name="uni0235" unicode="&#x235;" horiz-adv-x="752" 
d="M372 0q17 41 34 74t37 58q-3 15 -3.5 33t-0.5 36v135q0 63 -26 94.5t-82 31.5q-54 0 -85 -22t-44 -64.5t-13 -103.5v-272h-106v539h84l15 -72h6q17 28 43 46t57.5 27t65.5 9q61 0 103.5 -20.5t64.5 -64.5t22 -113v-130q16 7 33.5 10.5t37.5 3.5q64 0 97 -34.5t33 -87.5
q0 -56 -35.5 -89.5t-105.5 -33.5q-44 0 -77 14.5t-53 40.5q-9 -16 -17 -35.5t-17 -41.5zM608 64q27 0 39 14t12 35q0 24 -14.5 36t-39.5 12q-16 0 -31 -6t-30 -18q3 -33 17.5 -53t46.5 -20z" />
    <glyph glyph-name="uni0236" unicode="&#x236;" horiz-adv-x="407" 
d="M26 0q16 41 33.5 74t36.5 58q-2 17 -2.5 37.5t-0.5 41.5v247h-75v48l79 40l37 114h65v-121h154v-81h-154v-237q15 7 32.5 10.5t37.5 3.5q64 0 97.5 -34.5t33.5 -87.5q0 -56 -36 -89.5t-105 -33.5q-45 0 -78 14.5t-53 40.5q-9 -16 -17.5 -35.5t-16.5 -41.5zM262 64
q27 0 39.5 14t12.5 35q0 24 -14.5 36t-39.5 12q-16 0 -31.5 -6t-29.5 -18q2 -33 16.5 -53t46.5 -20z" />
    <glyph glyph-name="uni0237" unicode="&#x237;" horiz-adv-x="272" 
d="M26 -240q-25 0 -46.5 3.5t-37.5 8.5v85q16 -4 32 -7t36 -3q31 0 52 17.5t21 66.5v608h106v-613q0 -50 -17 -87.5t-52.5 -58t-93.5 -20.5z" />
    <glyph glyph-name="uni0238" unicode="&#x238;" horiz-adv-x="969" 
d="M293 -10q-56 0 -100.5 17.5t-76 52t-48 87t-16.5 122.5q0 92 27 154.5t76 94t114 31.5q61 0 99.5 -23t62.5 -57h6q-1 16 -3.5 44.5t-2.5 61.5v185h106v-183q0 -33 -1.5 -61.5t-3.5 -47.5h5q23 34 62 57t101 23q65 0 114 -31t76 -93t27 -155q0 -69 -17.5 -121.5
t-49.5 -87.5t-76.5 -52.5t-100.5 -17.5q-65 0 -113 29t-77 86q-28 -58 -77 -86.5t-113 -28.5zM297 77q67 0 101 51t34 144q0 95 -30.5 142.5t-110.5 47.5q-64 0 -97 -51.5t-33 -143.5q0 -93 33.5 -141.5t102.5 -48.5zM673 77q69 0 102 48.5t33 144.5t-33.5 144t-99.5 48
q-51 0 -81.5 -20.5t-43.5 -62.5t-13 -107q0 -98 33.5 -146.5t102.5 -48.5z" />
    <glyph glyph-name="uni0239" unicode="&#x239;" horiz-adv-x="969" 
d="M676 549q56 0 100.5 -17.5t76 -52t48 -87t16.5 -122.5q0 -92 -27 -154.5t-76 -94t-114 -31.5q-61 0 -100 23t-63 57h-6q2 -16 4 -44t2 -62v-204h-106v202q0 33 2 62t4 47h-6q-22 -34 -61.5 -57t-100.5 -23q-65 0 -114 31t-76 93t-27 154q0 70 17.5 122.5t49 87.5
t76.5 52.5t100 17.5q67 0 115 -29t76 -86q29 59 78 87t112 28zM296 462q-69 0 -102 -48.5t-33 -144.5t33.5 -144t98.5 -48q52 0 82 20.5t43 63t13 106.5q0 98 -32.5 146.5t-102.5 48.5zM672 462q-67 0 -101 -51t-34 -144q0 -95 30.5 -142.5t110.5 -47.5q63 0 96.5 51.5
t33.5 143.5q0 93 -33.5 141.5t-102.5 48.5z" />
    <glyph glyph-name="uni023A" unicode="&#x23a;" horiz-adv-x="654" 
d="M512 760l-290 -835h-76l290 835h76zM540 0l-76 206h-276l-76 -206h-112l271 717h112l270 -717h-113zM362 501q-3 11 -10.5 33.5t-14.5 46t-11 38.5q-5 -20 -11.5 -43.5t-12.5 -43t-10 -31.5l-72 -201h214z" />
    <glyph glyph-name="uni023B" unicode="&#x23b;" horiz-adv-x="633" 
d="M562 760l-290 -835h-76l290 835h76zM400 631q-53 0 -95 -18.5t-71.5 -54.5t-45 -87t-15.5 -115q0 -84 25 -145.5t75 -94.5t126 -33q46 0 88.5 8.5t86.5 22.5v-93q-42 -16 -86 -23.5t-102 -7.5q-109 0 -181.5 45t-108.5 128t-36 194q0 81 22.5 148.5t65.5 116.5
t106.5 75.5t146.5 26.5q54 0 106 -11.5t94 -32.5l-40 -90q-35 16 -75.5 28.5t-85.5 12.5z" />
    <glyph glyph-name="uni023C" unicode="&#x23c;" horiz-adv-x="490" 
d="M492 760l-345 -968h-76l346 968h75zM300 -10q-74 0 -130 29t-87 90.5t-31 156.5q0 100 33.5 162t91 91.5t131.5 29.5q45 0 84.5 -9.5t65.5 -21.5l-32 -86q-28 11 -59.5 19t-59.5 8q-50 0 -82.5 -21.5t-48 -64t-15.5 -106.5q0 -61 16 -103t47.5 -63.5t78.5 -21.5
q45 0 79 10t64 26v-92q-29 -17 -63 -25t-83 -8z" />
    <glyph glyph-name="uni023D" unicode="&#x23d;" horiz-adv-x="536" 
d="M14 320v87h343v-87h-343zM95 0v714h108v-621h305v-93h-413z" />
    <glyph glyph-name="uni023E" unicode="&#x23e;" horiz-adv-x="563" 
d="M539 760l-403 -835h-73l403 835h73zM335 0h-108v621h-214v93h536v-93h-214v-621z" />
    <glyph glyph-name="uni023F" unicode="&#x23f;" horiz-adv-x="484" 
d="M355 -240q-55 0 -90 17.5t-56.5 52t-36.5 86.5q-11 36 -28.5 57.5t-49.5 32.5q-13 4 -23.5 8t-20.5 10v92q36 -17 83 -30.5t92 -13.5q60 0 86.5 19t26.5 51q0 18 -10 32.5t-37.5 30t-80.5 35.5q-51 21 -87 41.5t-55 49t-19 73.5q0 70 56.5 107.5t149.5 37.5
q49 0 92.5 -9.5t84.5 -28.5l-35 -81q-35 15 -72 25.5t-75 10.5q-48 0 -73 -15t-25 -42q0 -19 11.5 -33t40.5 -28t79 -34q50 -19 85.5 -39t54 -49t18.5 -74q0 -75 -52.5 -116.5t-148.5 -44.5q9 -14 16.5 -30t12.5 -34q10 -29 24 -47t33 -25.5t44 -7.5q17 0 36.5 3.5t32.5 8.5
v-85q-12 -6 -36 -10t-48 -4z" />
    <glyph glyph-name="uni0240" unicode="&#x240;" horiz-adv-x="475" 
d="M389 -240q-61 0 -99 18.5t-60.5 53.5t-36.5 84q-13 43 -37 63.5t-79 20.5h-42v67l278 390h-261v82h379v-75l-276 -386q39 -8 65 -27t42.5 -48.5t27.5 -67.5q10 -31 24.5 -51t36.5 -28.5t51 -8.5q19 0 35 3t31 7v-85q-14 -5 -34 -8.5t-45 -3.5z" />
    <glyph glyph-name="Glottalstopcased" unicode="&#x241;" horiz-adv-x="457" 
d="M200 724q70 0 120.5 -24t77.5 -68t27 -104q0 -39 -11.5 -75t-35 -69.5t-60.5 -62.5t-87 -52v-269h-107v323q48 16 83 37.5t59 47.5t35.5 55.5t11.5 60.5q0 49 -30 79t-90 30q-25 0 -53 -6.5t-54 -17.5t-45 -25l-39 83q39 26 91 41.5t107 15.5z" />
    <glyph glyph-name="glottalstopcased" unicode="&#x242;" horiz-adv-x="452" 
d="M200 549q70 0 118 -24.5t73 -68t25 -103.5q0 -37 -10.5 -72.5t-33 -68.5t-57.5 -62t-85 -53v-97h-106v148q47 16 82 37.5t57.5 47t33.5 55.5t11 61q0 54 -29.5 83.5t-86.5 29.5q-25 0 -51 -6.5t-50 -17.5t-43 -25l-39 78q39 27 87.5 42.5t103.5 15.5z" />
    <glyph glyph-name="uni0243" unicode="&#x243;" horiz-adv-x="656" 
d="M95 0v171h-81v83h81v460h209q137 0 207 -39.5t70 -138.5q0 -42 -15 -74.5t-43.5 -54t-70.5 -28.5v-5q43 -7 77 -25.5t54 -53.5t20 -91q0 -65 -30.5 -110.5t-87 -69.5t-134.5 -24h-256zM334 90q87 0 121 34t34 90q0 34 -15 60t-50.5 40t-96.5 14h-124v-74h138v-83h-138
v-81h131zM322 416q84 0 115.5 27t31.5 80q0 54 -38 77t-121 23h-107v-207h119z" />
    <glyph glyph-name="uni0244" unicode="&#x244;" horiz-adv-x="738" 
d="M7 347v92h724v-92h-724zM649 252q0 -74 -30.5 -133.5t-93.5 -94t-159 -34.5q-136 0 -206.5 72.5t-70.5 191.5v460h108v-455q0 -88 43 -132.5t131 -44.5q60 0 98 22t55.5 61.5t17.5 94.5v454h107v-462z" />
    <glyph glyph-name="uni0245" unicode="&#x245;" horiz-adv-x="627" 
d="M0 0l258 717h111l257 -717h-113l-165 501q-4 11 -11 33.5t-13.5 46t-11.5 38.5q-5 -20 -11 -43.5t-11.5 -43t-9.5 -31.5l-168 -501h-112z" />
    <glyph glyph-name="uni0246" unicode="&#x246;" horiz-adv-x="557" 
d="M466 760l-212 -835h-74l212 835h74zM497 0h-402v714h402v-92h-294v-204h276v-91h-276v-234h294v-93z" />
    <glyph glyph-name="uni0247" unicode="&#x247;" horiz-adv-x="572" 
d="M295 549q71 0 122 -29.5t78.5 -84.5t27.5 -130v-58h-362q2 -83 43.5 -127t116.5 -44q52 0 92.5 9.5t83.5 28.5v-88q-40 -18 -81.5 -27t-98.5 -9q-78 0 -138 31t-93.5 92.5t-33.5 151.5q0 91 30.5 154t85 96.5t127.5 33.5zM295 467q-57 0 -91.5 -37t-40.5 -105h254
q0 42 -13 74t-40 50t-69 18zM122 -38l-63 42l400 569l63 -43z" />
    <glyph glyph-name="uni0248" unicode="&#x248;" horiz-adv-x="290" 
d="M1 -196q-25 0 -44 3.5t-34 9.5v90q16 -4 34 -7t38 -3q25 0 47.5 10t35.5 36t13 73v292h-84v92h84v314h108v-314h84v-92h-84v-287q0 -75 -24.5 -123.5t-69 -71t-104.5 -22.5z" />
    <glyph glyph-name="uni0249" unicode="&#x249;" horiz-adv-x="272" 
d="M26 -240q-25 0 -46.5 3.5t-37.5 8.5v85q16 -4 32 -7t36 -3q21 0 37.5 7.5t26 25.5t9.5 51v312h-76v78h76v218h106v-218h76v-78h-76v-317q0 -50 -17 -87.5t-52.5 -58t-93.5 -20.5zM76 683q0 33 17.5 47t43.5 14q24 0 42 -14t18 -47q0 -32 -18 -46.5t-42 -14.5
q-26 0 -43.5 14.5t-17.5 46.5z" />
    <glyph glyph-name="uni024A" unicode="&#x24a;" horiz-adv-x="769" 
d="M354 724q49 0 89.5 -12t71 -34t49.5 -51h4l15 87h91v-788q0 -42 15.5 -58.5t44.5 -16.5q14 0 26 3t22 7v-87q-11 -6 -27.5 -10t-37.5 -4q-71 0 -111 38.5t-40 124.5v82v29.5t1 27.5l2 28h-6q-18 -30 -48.5 -52.5t-71.5 -35t-93 -12.5q-90 0 -155 44.5t-100 127t-35 196.5
t35 196t101 126t158 44zM365 632q-60 0 -103 -32.5t-66 -94.5t-23 -149t23.5 -148t66.5 -93.5t103 -32.5q78 0 121 27t61 76.5t18 116.5v118q0 64 -17.5 112t-61 74t-122.5 26z" />
    <glyph glyph-name="uni024B" unicode="&#x24b;" horiz-adv-x="620" 
d="M270 549q62 0 101 -23.5t63 -58.5h4l13 72h86v-608q0 -50 13 -67.5t38 -17.5q17 0 29.5 3.5t21.5 7.5v-81q-11 -8 -31 -12t-45 -4q-40 0 -70 16.5t-46 54t-16 99.5v54q0 19 1.5 44t4.5 44h-6q-23 -34 -62.5 -58t-101.5 -24q-96 0 -155.5 70t-59.5 208q0 93 27.5 155.5
t76.5 94t114 31.5zM292 462q-66 0 -98.5 -52.5t-32.5 -143.5t32.5 -140.5t100.5 -49.5q51 0 81.5 19t44.5 57.5t15 96.5v18q0 96 -31 145.5t-112 49.5z" />
    <glyph glyph-name="uni024C" unicode="&#x24c;" horiz-adv-x="633" 
d="M125 289h-115v90h115v-90zM295 714q92 0 151 -23t88 -68.5t29 -114.5q0 -55 -20.5 -92.5t-52.5 -61t-67 -37.5l200 -317h-124l-172 289h-124v-289h-108v714h200zM288 622h-85v-243h90q83 0 121 31.5t38 93.5q0 43 -17.5 68.5t-54 37.5t-92.5 12z" />
    <glyph glyph-name="uni024D" unicode="&#x24d;" horiz-adv-x="425" 
d="M310 319v-79h-303v79h303zM349 549q14 0 31 -1.5t28 -3.5l-11 -99q-11 3 -26 5t-28 2q-30 0 -57.5 -11.5t-49.5 -33t-34.5 -52.5t-12.5 -71v-284h-106v539h84l14 -96h4q17 29 41 53t55 38.5t68 14.5z" />
    <glyph glyph-name="uni024E" unicode="&#x24e;" horiz-adv-x="583" 
d="M576 596v-84h-569v84h569zM292 380l175 334h116l-238 -437v-277h-107v273l-238 441h117z" />
    <glyph glyph-name="uni024F" unicode="&#x24f;" horiz-adv-x="527" 
d="M517 367v-79h-507v79h507zM1 539h114l112 -306q9 -23 16 -45t12.5 -43.5t8.5 -42.5h4q5 26 16 61.5t23 70.5l106 305h114l-231 -612q-19 -52 -47 -89.5t-66.5 -57.5t-90.5 -20q-25 0 -43 2.5t-31 5.5v84q11 -2 26.5 -4t32.5 -2q31 0 53.5 12t38 34t26.5 50l22 58z" />
    <glyph glyph-name="uni0250" unicode="&#x250;" horiz-adv-x="574" 
d="M282 -10q-101 0 -152 44.5t-51 139.5v365h76l21 -75h4q24 30 48 48.5t55.5 27.5t76.5 9q49 0 87 -17.5t60 -53.5t22 -92q0 -82 -62.5 -125t-190.5 -47l-92 -3v-30q0 -60 27 -84t76 -24q41 0 79 12t73 29l33 -77q-37 -20 -86.5 -33.5t-103.5 -13.5zM257 282
q92 4 127.5 30.5t35.5 74.5q0 42 -25 61t-66 19q-61 0 -103 -35t-42 -105v-47z" />
    <glyph glyph-name="uni0251" unicode="&#x251;" horiz-adv-x="620" 
d="M271 -10q-100 0 -159.5 70t-59.5 208q0 139 60 210t158 71q61 0 100 -23t63 -56h4l14 69h86v-405q0 -32 12.5 -44t28.5 -12q8 0 17 2t13 3v-80q-5 -3 -15 -6t-21.5 -5t-22.5 -2q-42 0 -68.5 18t-39.5 64h-5q-23 -33 -62.5 -57.5t-102.5 -24.5zM293 76q52 0 83 19.5
t45 58.5t14 97v16q0 95 -30.5 145t-112.5 50q-65 0 -98 -52t-33 -144t33 -141t99 -49z" />
    <glyph glyph-name="uni0252" unicode="&#x252;" horiz-adv-x="620" 
d="M349 549q100 0 159.5 -70t59.5 -209q0 -138 -59.5 -209t-157.5 -71q-61 0 -100 23t-64 56h-4l-14 -69h-86v405q0 32 -12 44t-29 12q-7 0 -16 -1.5t-14 -3.5v80q5 3 15 6t21.5 5t22.5 2q42 0 69 -17.5t39 -64.5h5q24 34 63 58t102 24zM327 463q-51 0 -82.5 -19.5
t-45.5 -58t-14 -98.5v-16q0 -93 30.5 -143.5t112.5 -50.5q65 0 98.5 52t33.5 143q0 93 -33.5 142t-99.5 49z" />
    <glyph glyph-name="uni0253" unicode="&#x253;" horiz-adv-x="620" 
d="M220 765q21 0 40 -4.5t29 -9.5v-85q-7 3 -21 6.5t-31 3.5q-23 0 -35 -13t-13 -44v-42q0 -32 -1.5 -60.5t-3.5 -48.5h5q23 34 62 57t101 23q65 0 113.5 -31t75.5 -93t27 -154q0 -93 -27 -155t-76 -93.5t-114 -31.5q-42 0 -72.5 10.5t-52.5 28t-37 37.5h-8l-20 -66h-78v616
q0 50 15.5 83t46.5 49.5t75 16.5zM327 462q-52 0 -82 -20t-43 -61.5t-13 -106.5q0 -97 30 -147t110 -50q64 0 97 50t33 144q0 95 -33 143t-99 48z" />
    <glyph glyph-name="uni0254" unicode="&#x254;" horiz-adv-x="490" 
d="M194 549q74 0 128.5 -28.5t85 -88.5t30.5 -155q0 -98 -33 -161.5t-90 -94.5t-132 -31q-46 0 -79.5 8t-63.5 25v92q30 -16 64 -26t77 -10q49 0 81.5 22.5t49.5 66t17 106.5q0 95 -36.5 140.5t-110.5 45.5q-28 0 -60 -7.5t-58 -20.5l-32 86q27 13 70 22t92 9z" />
    <glyph glyph-name="uni0255" unicode="&#x255;" horiz-adv-x="537" 
d="M317 549q46 0 84 -9.5t65 -21.5l-33 -86q-26 11 -57.5 19t-60.5 8q-50 0 -83.5 -21t-49.5 -63.5t-16 -107.5q0 -20 2 -38.5t6 -36.5q36 34 78.5 52.5t89.5 18.5q73 0 114 -35t41 -92q0 -51 -27 -83.5t-69 -47.5t-87 -15q-49 0 -89 11t-72 34q-10 -19 -19 -39.5t-17 -45.5
l-69 31q11 32 23.5 59.5t27.5 52.5q-21 34 -31.5 77t-10.5 96q0 100 33 162.5t92 91.5t135 29zM335 186q-35 0 -67 -17t-60 -50q19 -22 46 -33.5t63 -11.5q26 0 46.5 7.5t32 21.5t11.5 33q0 20 -16.5 35t-55.5 15z" />
    <glyph glyph-name="uni0256" unicode="&#x256;" horiz-adv-x="620" 
d="M569 -240q-42 0 -73 16.5t-48 54t-17 99.5v55q0 19 2.5 44t3.5 41h-6q-15 -22 -37.5 -40.5t-53 -29t-71.5 -10.5q-65 0 -114 31.5t-76 93t-27 153.5q0 93 27 155.5t76.5 94t114.5 31.5q41 0 71.5 -10.5t53 -28.5t38.5 -40h6q-2 15 -5 42.5t-3 45.5v202h106v-829
q0 -50 14.5 -67.5t41.5 -17.5q19 0 33.5 3.5t23.5 7.5v-81q-12 -8 -33 -12t-48 -4zM293 77q78 0 110 43.5t32 130.5v16q0 95 -30.5 145t-112.5 50q-65 0 -98 -52.5t-33 -143.5t33 -140t99 -49z" />
    <glyph glyph-name="uni0257" unicode="&#x257;" horiz-adv-x="620" 
d="M268 -10q-97 0 -156.5 70t-59.5 208q0 139 60 210t158 71q41 0 71.5 -10.5t53 -28.5t38.5 -40h6q-2 15 -5 42.5t-3 45.5v58q0 50 15 83t45.5 50t76.5 17q22 0 41.5 -4.5t29.5 -9.5v-85q-7 3 -21.5 6.5t-31.5 3.5q-22 0 -35.5 -13.5t-13.5 -45.5v-618h-83l-18 72h-5
q-15 -23 -37.5 -41.5t-53.5 -29.5t-72 -11zM293 77q78 0 110 43.5t32 130.5v16q0 95 -30.5 145t-112.5 50q-65 0 -98 -52.5t-33 -143.5t33 -140t99 -49z" />
    <glyph glyph-name="uni0258" unicode="&#x258;" horiz-adv-x="572" 
d="M277 549q72 0 127 -33.5t85.5 -96.5t30.5 -154q0 -90 -33.5 -151.5t-93 -92.5t-138.5 -31q-57 0 -98 9t-82 27v88q43 -19 83.5 -28.5t92.5 -9.5q75 0 116.5 44t43.5 127h-362v58q0 75 27.5 130t79 84.5t121.5 29.5zM277 467q-41 0 -68.5 -18t-40 -50t-13.5 -74h254
q-6 68 -40 105t-92 37z" />
    <glyph glyph-name="uni0259" unicode="&#x259;" horiz-adv-x="572" 
d="M255 549q79 0 138.5 -31t93 -92t33.5 -153q0 -90 -30.5 -153t-85.5 -96.5t-127 -33.5q-70 0 -121.5 29.5t-79 84.5t-27.5 130v58h362q-2 83 -43.5 127t-116.5 44q-52 0 -92.5 -9.5t-83.5 -28.5v88q41 18 82 27t98 9zM155 214q1 -42 13.5 -74t40 -50t68.5 -18q58 0 92 37
t40 105h-254z" />
    <glyph glyph-name="uni025A" unicode="&#x25a;" horiz-adv-x="800" 
d="M279 -10q-107 0 -168.5 66t-61.5 183l361 99q-9 41 -29.5 69t-52.5 42t-75 14q-52 0 -93 -9.5t-85 -28.5v88q41 18 83 27t99 9q96 0 164 -46.5t91 -136.5l109 30l16 -58q13 -45 27 -62.5t36 -17.5q20 0 39.5 7.5t37.5 19.5l23 -73q-24 -16 -53.5 -27t-62.5 -11
q-29 0 -53 12t-43.5 38.5t-32.5 72.5l-32 -9q0 -89 -26 -156.5t-80 -104.5t-138 -37zM279 72q41 0 67.5 16t41.5 42.5t21 60t6 69.5l-258 -70q3 -25 11.5 -46.5t22.5 -37.5t36 -25t52 -9z" />
    <glyph glyph-name="uni025B" unicode="&#x25b;" horiz-adv-x="504" 
d="M371 321v-81h-75q-51 0 -84 -9.5t-49 -28t-16 -47.5q0 -28 17 -46t48.5 -26t73.5 -8q57 0 102.5 13t79.5 29v-90q-33 -16 -79.5 -26.5t-109.5 -10.5q-123 0 -180 44.5t-57 112.5q0 40 16.5 66t44 41.5t62.5 23.5v5q-47 14 -74.5 44.5t-27.5 79.5q0 47 28.5 78.5t77 47.5
t110.5 16q58 0 104 -10.5t86 -28.5l-36 -81q-34 15 -70 25.5t-84 10.5q-58 0 -87.5 -17t-29.5 -52q0 -40 39 -57.5t109 -17.5h61z" />
    <glyph glyph-name="uni025C" unicode="&#x25c;" horiz-adv-x="509" 
d="M225 -10q-39 0 -75 4t-65 12t-51 19v92q34 -16 81.5 -29t103.5 -13q40 0 72.5 8t51.5 26t19 48q0 29 -17 47t-50.5 27t-85.5 9h-68v81h57q70 0 111.5 16.5t41.5 58.5q0 34 -30 51.5t-89 17.5q-43 0 -80 -8.5t-77 -25.5l-35 80q44 18 93.5 28t107.5 10q60 0 107 -16
t74 -48t27 -78q0 -49 -27.5 -78t-75.5 -42v-4q33 -9 60 -24.5t43.5 -41t16.5 -66.5q0 -44 -25.5 -81t-78.5 -58.5t-137 -21.5z" />
    <glyph glyph-name="uni025D" unicode="&#x25d;" horiz-adv-x="729" 
d="M225 -10q-39 0 -75 4t-65 12t-51 19v92q34 -16 81.5 -29t103.5 -13q40 0 72.5 8t51.5 26t19 48q0 29 -17 47t-50.5 27t-85.5 9h-68v81h57q70 0 111.5 16.5t41.5 58.5q0 34 -30 51.5t-89 17.5q-43 0 -80 -8.5t-77 -25.5l-35 80q44 18 93.5 28t107.5 10q60 0 107 -16
t74 -48t27 -78q0 -49 -27.5 -78t-75.5 -42v-4q33 -9 60 -24.5t43.5 -41t16.5 -66.5q0 -44 -25.5 -81t-78.5 -58.5t-137 -21.5zM613 261q-29 0 -53 12t-43.5 39t-32.5 72l-108 -30l-20 76l194 52l16 -57q13 -45 27 -62.5t36 -17.5q20 0 39.5 8t37.5 19l23 -73
q-24 -16 -53.5 -27t-62.5 -11z" />
    <glyph glyph-name="uni025E" unicode="&#x25e;" horiz-adv-x="609" 
d="M335 549q103 0 158.5 -39.5t55.5 -108.5q0 -51 -28 -78t-76 -40v-4q31 -5 58.5 -18.5t45 -39t17.5 -64.5q0 -47 -27.5 -85.5t-81.5 -60t-133 -21.5q-86 0 -147 33t-93 95t-32 151q0 88 34 150.5t97.5 96t151.5 33.5zM333 464q-56 0 -94.5 -22t-58 -65t-19.5 -108
q0 -68 20 -111t58 -63t93 -20q57 0 93.5 21.5t36.5 65.5q0 41 -36 57.5t-111 16.5h-36v81h25q70 0 108 15.5t38 59.5q0 31 -28 51.5t-89 20.5z" />
    </font>
</defs>
</svg>
