<?xml version="1.0" standalone="no"?>
<!DOCTYPE svg PUBLIC "-//W3C//DTD SVG 1.1//EN" "http://www.w3.org/Graphics/SVG/1.1/DTD/svg11.dtd" >
<svg xmlns="http://www.w3.org/2000/svg" xmlns:xlink="http://www.w3.org/1999/xlink" version="1.1">
<metadata>
Created by FontForge 20201107 at Thu Jul 22 19:55:47 2021
 By 
Copyright 2018 The Orbitron Project Authors (https://github.com/theleagueof/orbitron), with Reserved Font Name: "Orbitron".
</metadata>
<defs>
<font id="Orbitron-Medium" horiz-adv-x="692" >
  <font-face 
    font-family="Orbitron Medium"
    font-weight="500"
    font-stretch="normal"
    units-per-em="1000"
    panose-1="0 0 0 0 0 0 0 0 0 0"
    ascent="800"
    descent="-200"
    x-height="578"
    cap-height="720"
    bbox="-187 -250 1326 979"
    underline-thickness="50"
    underline-position="-125"
    unicode-range="U+0020-E00C"
  />
<missing-glyph horiz-adv-x="500" 
d="M480 0v0l-460 1v719h460v-720zM453 27v0v666h-406v-665z" />
    <glyph glyph-name=".notdef" horiz-adv-x="500" 
d="M480 0v0l-460 1v719h460v-720zM453 27v0v666h-406v-665z" />
    <glyph glyph-name=".null" horiz-adv-x="0" 
 />
    <glyph glyph-name="nonmarkingreturn" horiz-adv-x="333" 
 />
    <glyph glyph-name="space" unicode=" " horiz-adv-x="290" 
 />
    <glyph glyph-name="exclam" unicode="!" horiz-adv-x="220" 
d="M58 202v0v518h108v-518h-108zM58 0v0v108h108v-108h-108z" />
    <glyph glyph-name="quotedbl" unicode="&#x22;" horiz-adv-x="381" 
d="M215 553v0v162h108v-162h-108zM51 553v0v162h107v-162h-107z" />
    <glyph glyph-name="numbersign" unicode="#" horiz-adv-x="797" 
d="M72 0v0l52 166h-92v108h125l57 179h-151v107h186l53 159h109l-55 -159h216l53 159h109l-55 -159h86v-107h-119l-58 -179h145v-108h-179l-51 -166h-108l52 166h-217l-49 -166h-109zM266 274v0h214l57 179h-214z" />
    <glyph glyph-name="dollar" unicode="$" horiz-adv-x="788" 
d="M340 -108v0v108h-176q-36 0 -66 17.5t-47 47t-17 65.5v41h107v-39q0 -10 7.5 -17.5t17.5 -7.5h174v198h-176q-36 0 -65.5 17.5t-47 47t-17.5 66.5v154q0 36 17 65.5t47 47t66 17.5h176v109h108v-109h174q37 0 67 -17.5t47.5 -47t16.5 -65.5v-41h-108v38q0 10 -7 18t-17 8
h-173v-200h174q37 0 67 -17.5t47.5 -47t17.5 -64.5v-154q0 -36 -17.5 -65.5t-47 -47t-65.5 -17.5h-176v-108h-108zM166 413h174v200h-174q-10 0 -17.5 -7.5t-7.5 -17.5v-151q0 -10 7.5 -17t17.5 -7zM448 107v0l173 1q10 0 17 7.5t7 17.5v148q0 10 -7.5 17t-16.5 7h-173v-198
z" />
    <glyph glyph-name="percent" unicode="%" horiz-adv-x="966" 
d="M136 0v0v126l694 588l26 6v-125l-691 -585zM175 384q-36 0 -64.5 17t-45.5 45.5t-17 64.5v79q0 37 17 65.5t45.5 45t64.5 16.5h89q37 0 65.5 -16.5t45 -45t16.5 -65.5v-79q0 -36 -16.5 -64.5t-45 -45.5t-65.5 -17h-89v0zM144 469v0h151q5 0 8.5 3.5t3.5 8.5v139
q0 5 -3.5 8.5t-8.5 3.5h-151q-5 0 -8.5 -3.5t-3.5 -8.5v-139q0 -5 3.5 -8.5t8.5 -3.5zM707 3q-36 0 -64.5 16.5t-45 45.5t-16.5 64v80q0 36 16.5 64.5t45 45t64.5 16.5h90q36 0 64.5 -16.5t45.5 -45t17 -64.5v-80q0 -35 -17 -64t-45.5 -45.5t-64.5 -16.5h-90v0zM678 87v0
h149q5 0 8.5 3.5t3.5 8.5v140q0 5 -3.5 8.5t-8.5 3.5h-149q-6 0 -9.5 -3.5t-3.5 -8.5v-140q0 -5 3.5 -8.5t9.5 -3.5z" />
    <glyph glyph-name="ampersand" unicode="&#x26;" horiz-adv-x="938" 
d="M183 0q-35 0 -64.5 17.5t-47.5 47t-18 65.5v204q0 22 21 44.5t58 27.5q-39 33 -39 80v103q0 36 17.5 65.5t47 47t65.5 17.5h389q31 0 58 -15t46.5 -39.5t26.5 -53.5v-67h-109v41q0 10 -7 17t-18 7h-384q-10 0 -17 -7t-7 -17v-128l463 -234v123h108v-164l127 -75v-103
l-138 78q-18 -37 -50 -59.5t-68 -22.5h-460zM186 108h413q10 0 21 6.5t19 16.5l-438 220l-15 3q-10 0 -17.5 -10t-7.5 -32v-179q0 -10 7.5 -17.5t17.5 -7.5z" />
    <glyph glyph-name="quotesingle" unicode="'" horiz-adv-x="234" 
d="M59 552v0v163h108v-163h-108z" />
    <glyph glyph-name="parenleft" unicode="(" horiz-adv-x="283" 
d="M182 0q-36 0 -65.5 18t-47 47t-17.5 65v460q0 36 17.5 65.5t47 47t65.5 17.5h42v-109h-39q-10 0 -17.5 -7t-7.5 -17v-454q0 -10 7.5 -17.5t17.5 -7.5h39v-108h-42v0z" />
    <glyph glyph-name="parenright" unicode=")" horiz-adv-x="285" 
d="M56 0v0v108h39q10 0 17.5 7.5t7.5 17.5v454q0 10 -7.5 17t-17.5 7h-39v109h42q35 0 65 -17.5t48 -47t18 -65.5v-460q0 -36 -18 -65t-48 -47t-65 -18h-42z" />
    <glyph glyph-name="asterisk" unicode="*" horiz-adv-x="500" 
d="M163 295v0l-88 63l82 114l-132 43l32 104l134 -45v140h108v-139l132 44l34 -104l-133 -43l83 -113l-87 -64l-84 112z" />
    <glyph glyph-name="plus" unicode="+" horiz-adv-x="441" 
d="M161 95v0v147h-144v108h144v145h108v-145h148v-108h-148v-147h-108z" />
    <glyph glyph-name="comma" unicode="," horiz-adv-x="211" 
d="M54 -132v0v236h108v-108q0 -31 -14 -56.5t-38.5 -44.5t-55.5 -27z" />
    <glyph glyph-name="hyphen" unicode="-" horiz-adv-x="517" 
d="M59 242v0v108h400v-108h-400z" />
    <glyph glyph-name="period" unicode="." horiz-adv-x="221" 
d="M54 0v0v108h108v-108h-108z" />
    <glyph glyph-name="slash" unicode="/" horiz-adv-x="521" 
d="M6 0v0v124l485 591l25 5v-122l-485 -592z" />
    <glyph glyph-name="zero" unicode="0" horiz-adv-x="834" 
d="M187 0q-36 0 -65.5 18.5t-47 49t-17.5 65.5v455q0 36 17.5 66t47 48t65.5 18h460q35 0 64.5 -18t47.5 -48t18 -66v-455q0 -35 -18 -65.5t-47.5 -49t-64.5 -18.5h-460v0zM201 112v0h443q10 0 17.5 7t7.5 17v363zM165 223v0l467 387h-442q-10 0 -17.5 -7.5t-7.5 -17.5v-362
z" />
    <glyph glyph-name="one" unicode="1" horiz-adv-x="391" 
d="M226 0v0v577l-83 -100h-142l204 243h129v-720h-108z" />
    <glyph glyph-name="two" unicode="2" horiz-adv-x="830" 
d="M57 0v0v273q0 37 17.5 66t47 46.5t65.5 17.5h457q10 0 17.5 7.5t7.5 17.5v159q0 10 -7.5 17.5t-17.5 7.5h-454q-10 0 -17.5 -7.5t-7.5 -17.5v-39h-108v42q0 37 17.5 66t47 47t65.5 18h460q35 0 64.5 -18t47.5 -47t18 -66v-165q0 -36 -18 -65.5t-47.5 -47t-64.5 -17.5
h-457q-10 0 -17.5 -7.5t-7.5 -17.5v-137q0 -10 7.5 -17.5t17.5 -7.5h587v-108h-720z" />
    <glyph glyph-name="three" unicode="3" horiz-adv-x="826" 
d="M184 0q-37 0 -66 18t-47 47t-18 65v30h109v-27q0 -10 7 -17.5t17 -7.5h455q10 0 17 7.5t7 17.5v154q0 10 -7 17.5t-17 7.5h-457v108h426q11 0 18 7.5t7 17.5v142q0 10 -7 17.5t-18 7.5h-424q-10 0 -17 -7.5t-7 -17.5v-37h-109v40q0 37 17.5 66t47.5 47t66 18h429
q37 0 66.5 -18t46.5 -47t17 -66v-148q0 -13 -2.5 -26t-7.5 -24q22 -22 31 -49t9 -53v-160q0 -36 -17.5 -65t-47 -47t-64.5 -18h-460v0z" />
    <glyph glyph-name="four" unicode="4" horiz-adv-x="730" 
d="M482 0v0v183h-476v109l476 429h108v-429h106v-109h-106v-183h-108zM164 292v0h318v271z" />
    <glyph glyph-name="five" unicode="5" horiz-adv-x="830" 
d="M187 0q-36 0 -65.5 18t-47 47t-17.5 65v39h108v-36q0 -10 7.5 -17.5t17.5 -7.5h454q10 0 17.5 7.5t7.5 17.5v157q0 10 -7.5 17.5t-17.5 7.5h-587v406h720v-109h-587q-10 0 -17.5 -7.5t-7.5 -17.5v-139q0 -10 7.5 -17.5t17.5 -7.5h457q35 0 64.5 -17t47.5 -47t18 -66v-163
q0 -36 -18 -65t-47.5 -47t-64.5 -18h-460v0z" />
    <glyph glyph-name="six" unicode="6" horiz-adv-x="820" 
d="M187 0q-36 0 -65.5 18t-47 47t-17.5 65v460q0 37 17.5 66t47 47t65.5 18h470v-109h-467q-10 0 -17.5 -7.5t-7.5 -17.5v-137q0 -10 7.5 -17.5t17.5 -7.5h457q35 0 64.5 -17.5t47.5 -47t18 -65.5v-165q0 -36 -18 -65t-47.5 -47t-64.5 -18h-460v0zM190 108h454
q10 0 17.5 7.5t7.5 17.5v159q0 10 -7.5 17.5t-17.5 7.5h-479v-184q0 -10 7.5 -17.5t17.5 -7.5z" />
    <glyph glyph-name="seven" unicode="7" horiz-adv-x="660" 
d="M495 0v0v588q0 10 -7.5 17t-17.5 7h-467v109h470q36 0 65.5 -17.5t47 -47t17.5 -65.5v-591h-108z" />
    <glyph glyph-name="eight" unicode="8" horiz-adv-x="834" 
d="M187 0q-36 0 -65.5 18t-47 47t-17.5 65v163q0 19 7 38.5t18 37.5q-11 18 -18 37.5t-7 38.5v145q0 37 17.5 66t47 47t65.5 18h460q30 0 57 -15t46.5 -40t26.5 -54v-167q0 -38 -26 -76q26 -36 26 -76v-163q0 -36 -18 -65t-47.5 -47t-64.5 -18h-460v0zM190 108v0h454
q10 0 17.5 7.5t7.5 17.5v157q0 10 -7.5 17.5t-17.5 7.5h-454q-10 0 -17.5 -7.5t-7.5 -17.5v-157q0 -10 7.5 -17.5t17.5 -7.5zM190 412v0h454q10 0 17.5 7.5t7.5 17.5v149q0 10 -7.5 17.5t-17.5 7.5h-454q-10 0 -17.5 -7.5t-7.5 -17.5v-149q0 -10 7.5 -17.5t17.5 -7.5z" />
    <glyph glyph-name="nine" unicode="9" horiz-adv-x="828" 
d="M183 0q-30 0 -56 14t-45 38.5t-27 55.5h585q10 0 17.5 7.5t7.5 17.5v138q0 11 -7.5 18t-17.5 7h-457q-37 0 -66 18t-47 47.5t-18 64.5v164q0 37 18 66t47.5 47t65.5 18h460q35 0 64.5 -18t47 -47t17.5 -66v-460q0 -36 -17.5 -65t-47 -47t-64.5 -18h-460v0zM186 405v0h479
v182q0 10 -7.5 17.5t-17.5 7.5h-454q-10 0 -17.5 -7.5t-7.5 -17.5v-158q0 -10 7.5 -17t17.5 -7z" />
    <glyph glyph-name="colon" unicode=":" horiz-adv-x="226" 
d="M54 477v0v108h108v-108h-108zM54 0v0v108h108v-108h-108z" />
    <glyph glyph-name="semicolon" unicode=";" horiz-adv-x="220" 
d="M51 -132v0v236h108v-108q0 -31 -14 -56.5t-38.5 -44.5t-55.5 -27zM51 477v0v108h108v-108h-108z" />
    <glyph glyph-name="less" unicode="&#x3c;" horiz-adv-x="473" 
d="M416 4v0l-411 238v108l411 237v-124l-288 -167l288 -167v-125z" />
    <glyph glyph-name="equal" unicode="=" horiz-adv-x="638" 
d="M59 344v0v108h520v-108h-520zM59 143v0v108h520v-108h-520z" />
    <glyph glyph-name="greater" unicode="&#x3e;" horiz-adv-x="475" 
d="M59 2v0v125l288 167l-288 166v125l411 -237v-108z" />
    <glyph glyph-name="question" unicode="?" horiz-adv-x="678" 
d="M144 198v0v56q0 36 17.5 65.5t47 46.5t65.5 17h256q11 0 18 7.5t7 17.5v178q0 10 -7 17.5t-18 7.5h-499v109l502 -1q36 0 65.5 -17.5t47 -47t17.5 -65.5v-184q0 -35 -17.5 -64.5t-47 -47.5t-65.5 -18h-256q-10 0 -17.5 -7.5t-7.5 -17.5v-52h-108zM144 0v0v108h108v-108
h-108z" />
    <glyph glyph-name="at" unicode="@" horiz-adv-x="826" 
d="M184 0q-36 0 -65.5 18t-47 47t-17.5 65v460q0 36 17.5 65.5t47 47t65.5 17.5h460q35 0 64.5 -17.5t47.5 -47t18 -65.5v-389h-401q-37 0 -64.5 15.5t-43 43.5t-15.5 64v73q0 35 15.5 62.5t43 43.5t64.5 16h83q35 0 62.5 -16t43.5 -43.5t16 -62.5v-115h88v305q0 10 -7.5 17
t-17.5 7h-454q-10 0 -17.5 -7t-7.5 -17v-454q0 -10 7.5 -17.5t17.5 -7.5h587v-108h-590v0zM352 282h149v135q0 10 -7.5 17.5t-17.5 7.5h-124q-10 0 -17.5 -7.5t-7.5 -17.5v-110q0 -10 7.5 -17.5t17.5 -7.5z" />
    <glyph glyph-name="A" unicode="A" horiz-adv-x="836" 
d="M58 0v590q0 36 17.5 65.5t47 47t65.5 17.5h459q36 0 66 -17.5t47.5 -47t17.5 -65.5v-590h-109v252h-503v-252h-108v0zM166 360h503v227q0 10 -7 17.5t-18 7.5h-453q-10 0 -17.5 -7.5t-7.5 -17.5v-227v0z" />
    <glyph glyph-name="B" unicode="B" horiz-adv-x="832" 
d="M59 0v720h560q35 0 65 -17.5t47.5 -47t17.5 -65.5v-147q0 -13 -2.5 -26t-8.5 -24q20 -28 30.5 -52.5t10.5 -49.5v-161q0 -36 -17.5 -65.5t-47.5 -47t-66 -17.5h-589v0zM192 108h453q11 0 18 7.5t7 17.5v155q0 10 -7 17.5t-18 7.5h-453q-10 0 -17.5 -7.5t-7.5 -17.5v-155
q0 -10 7.5 -17.5t17.5 -7.5zM192 421h424q10 0 17 7.5t7 17.5v141q0 10 -7 17.5t-17 7.5h-424q-10 0 -17.5 -7.5t-7.5 -17.5v-141q0 -10 7.5 -17.5t17.5 -7.5z" />
    <glyph glyph-name="C" unicode="C" horiz-adv-x="822" 
d="M186 0q-36 0 -65.5 17.5t-47 47t-17.5 65.5v460q0 36 17.5 65.5t47 47t65.5 17.5h588v-108h-573q-16 0 -26.5 -10.5t-10.5 -26.5v-430q0 -16 10.5 -26.5t26.5 -10.5h573v-108h-588z" />
    <glyph glyph-name="D" unicode="D" horiz-adv-x="834" 
d="M58 0v720h589q36 0 66 -17.5t47.5 -47t17.5 -65.5v-460q0 -36 -17.5 -65.5t-47.5 -47t-66 -17.5h-589zM190 108h454q11 0 18 7.5t7 17.5v454q0 10 -7 17.5t-18 7.5h-454q-10 0 -17 -7.5t-7 -17.5v-454q0 -10 7 -17.5t17 -7.5z" />
    <glyph glyph-name="E" unicode="E" horiz-adv-x="766" 
d="M58 0v720h660v-108h-551v-197h443v-110h-443v-197h551v-108h-660z" />
    <glyph glyph-name="F" unicode="F" horiz-adv-x="723" 
d="M58 0v720h660v-108h-551v-197h443v-110h-443v-305h-109z" />
    <glyph glyph-name="G" unicode="G" horiz-adv-x="830" 
d="M186 0q-36 0 -65.5 17.5t-47 47t-17.5 65.5v460q0 36 17.5 65.5t47 47t65.5 17.5h459q36 0 66 -17.5t47.5 -47t17.5 -65.5v-43h-109v40q0 10 -7 17.5t-18 7.5h-453q-10 0 -17.5 -7.5t-7.5 -17.5v-454q0 -10 7.5 -17.5t17.5 -7.5h453q11 0 18 7.5t7 17.5v153h-170v109h279
v-265q0 -36 -17.5 -65.5t-47.5 -47t-66 -17.5h-459z" />
    <glyph glyph-name="H" unicode="H" horiz-adv-x="851" 
d="M57 0v720h108v-305h520v305h109v-720h-109v305h-520v-305h-108z" />
    <glyph glyph-name="I" unicode="I" horiz-adv-x="214" 
d="M53 0v720h108v-720h-108z" />
    <glyph glyph-name="J" unicode="J" horiz-adv-x="780" 
d="M134 0q-36 0 -65.5 17.5t-47 47t-17.5 65.5v70h108v-67q0 -10 7.5 -17.5t17.5 -7.5h453q11 0 18 7.5t7 17.5v587h109v-590q0 -36 -17.5 -65.5t-47.5 -47t-65 -17.5h-460z" />
    <glyph glyph-name="K" unicode="K" horiz-adv-x="797" 
d="M57 0v720h109v-305h199l256 305h125v-20l-285 -340l286 -340v-20h-126l-256 305h-199v-305h-109z" />
    <glyph glyph-name="L" unicode="L" horiz-adv-x="779" 
d="M57 0v721h108v-613h612v-108h-720z" />
    <glyph glyph-name="M" unicode="M" horiz-adv-x="928" 
d="M56 0v720h129l279 -332l278 332h130v-720h-109v575l-299 -356l-300 356v-575h-108z" />
    <glyph glyph-name="N" unicode="N" horiz-adv-x="832" 
d="M56 0v720h129l482 -574v574h109v-720h-129l-483 575v-575h-108z" />
    <glyph glyph-name="O" unicode="O" horiz-adv-x="828" 
d="M184 0q-36 0 -65.5 17.5t-47 47t-17.5 65.5v460q0 36 17.5 65.5t47 47t65.5 17.5h460q35 0 65 -17.5t47.5 -47t17.5 -65.5v-460q0 -36 -17.5 -65.5t-47.5 -47t-65 -17.5h-460zM187 108h453q11 0 18 7.5t7 17.5v454q0 10 -7 17.5t-18 7.5h-453q-10 0 -17.5 -7.5
t-7.5 -17.5v-454q0 -10 7.5 -17.5t17.5 -7.5z" />
    <glyph glyph-name="P" unicode="P" horiz-adv-x="791" 
d="M56 0v719h589q36 0 66 -18t47.5 -47.5t17.5 -64.5v-202q0 -36 -17.5 -65.5t-47.5 -47t-66 -17.5l-481 -1v-256h-108zM189 366h453q11 0 18 7t7 17v196q0 10 -7 17.5t-18 7.5h-453q-10 0 -17.5 -7.5t-7.5 -17.5v-196q0 -10 7.5 -17t17.5 -7z" />
    <glyph glyph-name="Q" unicode="Q" horiz-adv-x="884" 
d="M637 0v75l137 60v-27h90v-108h-227zM184 0q-36 0 -65.5 17.5t-47 47t-17.5 65.5v460q0 36 17.5 65.5t47 47t65.5 17.5h460q35 0 65 -17.5t47.5 -47t17.5 -65.5v-460q0 -36 -17.5 -65.5t-47.5 -47t-65 -17.5h-460zM187 108h453q11 0 18 7.5t7 17.5v454q0 10 -7 17.5
t-18 7.5h-453q-10 0 -17.5 -7.5t-7.5 -17.5v-454q0 -10 7.5 -17.5t17.5 -7.5z" />
    <glyph glyph-name="R" unicode="R" horiz-adv-x="825" 
d="M646 0l-225 269h141l210 -249v-20h-126zM56 0v719h589q36 0 66 -18t47.5 -47.5t17.5 -64.5v-202q0 -36 -17.5 -65.5t-47.5 -47t-66 -17.5l-481 -1v-256h-108zM189 366h453q11 0 18 7t7 17v196q0 10 -7 17.5t-18 7.5h-453q-10 0 -17.5 -7.5t-7.5 -17.5v-196q0 -10 7.5 -17
t17.5 -7z" />
    <glyph glyph-name="S" unicode="S" horiz-adv-x="824" 
d="M182 0q-35 0 -65 17.5t-47.5 47t-17.5 65.5v42h108v-39q0 -10 7.5 -17.5t17.5 -7.5h454q10 0 17 7.5t7 17.5v148q0 11 -7 17.5t-17 6.5h-457q-35 0 -65 18t-47.5 47.5t-17.5 65.5v154q0 36 17.5 65.5t47.5 47t65 17.5h460q35 0 65 -17.5t47.5 -47t17.5 -65.5v-42h-109v39
q0 10 -7 17.5t-17 7.5h-454q-10 0 -17.5 -7.5t-7.5 -17.5v-148q0 -11 7.5 -17.5t17.5 -6.5h457q35 0 65 -18t47.5 -47.5t17.5 -65.5v-154q0 -36 -17.5 -65.5t-47.5 -47t-65 -17.5h-460z" />
    <glyph glyph-name="T" unicode="T" horiz-adv-x="759" 
d="M326 0v0v612h-306v108h720v-108h-305v-612h-109z" />
    <glyph glyph-name="U" unicode="U" horiz-adv-x="828" 
d="M184 0q-36 0 -65.5 17.5t-47 47t-17.5 65.5v590h108v-587q0 -10 7.5 -17.5t17.5 -7.5h453q11 0 18 7.5t7 17.5v587h109v-590q0 -36 -17.5 -65.5t-47.5 -47t-65 -17.5h-460v0z" />
    <glyph glyph-name="V" unicode="V" horiz-adv-x="1003" 
d="M452 0v0l-417 720h126l345 -598l343 598h126l-416 -720h-107z" />
    <glyph glyph-name="W" unicode="W" horiz-adv-x="1179" 
d="M297 0v0l-262 720h115l191 -524l191 524h114l192 -524l190 524h116l-262 -720h-89l-204 560l-204 -560h-88z" />
    <glyph glyph-name="X" unicode="X" horiz-adv-x="812" 
d="M46 0v0v20l286 340l-286 340v20h125l232 -275l231 275h125v-20l-286 -340l287 -340v-20h-126l-232 275l-231 -275h-125z" />
    <glyph glyph-name="Y" unicode="Y" horiz-adv-x="806" 
d="M349 0v0v270l-332 450h127l259 -327l258 327h128l-332 -450v-270h-108z" />
    <glyph glyph-name="Z" unicode="Z" horiz-adv-x="821" 
d="M51 0v0v129l575 483h-575v108h720v-129l-575 -483h575v-108h-720z" />
    <glyph glyph-name="bracketleft" unicode="[" horiz-adv-x="275" 
d="M54 0v0v721h172v-109h-64v-504h64v-108h-172z" />
    <glyph glyph-name="backslash" unicode="\" horiz-adv-x="520" 
d="M493 0v0l-488 601v119h24l486 -596v-124h-22z" />
    <glyph glyph-name="bracketright" unicode="]" horiz-adv-x="276" 
d="M51 0v0v108h63v504h-63v109h172v-721h-172z" />
    <glyph glyph-name="underscore" unicode="_" horiz-adv-x="828" 
d="M54 -109v0v108h720v-108h-720z" />
    <glyph glyph-name="grave" unicode="`" horiz-adv-x="299" 
d="M119 640v0l-40 162h108l41 -162h-109z" />
    <glyph glyph-name="a" unicode="a" horiz-adv-x="694" 
d="M182 0q-36 0 -65.5 18t-47 47t-17.5 65v214h481v103q0 10 -7 17.5t-17 7.5h-457v108h460q36 0 65.5 -17.5t47 -47.5t17.5 -65v-450h-460zM185 108h348v135h-373v-110q0 -10 7.5 -17.5t17.5 -7.5z" />
    <glyph glyph-name="b" unicode="b" horiz-adv-x="667" 
d="M54 0v0v770h108v-190h352q36 0 65.5 -18t47 -47t17.5 -65v-320q0 -36 -17.5 -65t-47 -47t-65.5 -18h-460zM187 108h324q10 0 17.5 7.5t7.5 17.5v314q0 10 -7.5 17.5t-17.5 7.5h-324q-10 0 -17.5 -7.5t-7.5 -17.5v-314q0 -10 7.5 -17.5t17.5 -7.5z" />
    <glyph glyph-name="c" unicode="c" horiz-adv-x="695" 
d="M181 0q-36 0 -65 18t-47 47t-18 65v320q0 36 18 65t47 47t65 18h458v-108h-455q-10 0 -17.5 -7.5t-7.5 -17.5v-314q0 -10 7.5 -17.5t17.5 -7.5h457v-108h-460v0z" />
    <glyph glyph-name="d" unicode="d" horiz-adv-x="667" 
d="M153 0q-36 0 -65.5 17.5t-47 47.5t-17.5 65v320q0 36 17.5 65t47 47t65.5 18h352v190h108v-770h-460v0zM157 108h324q10 0 17 7.5t7 17.5v314q0 10 -7 17.5t-17 7.5h-324q-10 0 -17.5 -7.5t-7.5 -17.5v-314q0 -10 7.5 -17.5t17.5 -7.5z" />
    <glyph glyph-name="e" unicode="e" 
d="M181 0q-36 0 -65 18t-47 47t-18 65v320q0 36 18 65t47 47t65 18h330q36 0 65.5 -17.5t47 -47.5t17.5 -65v-214h-482v-103q0 -10 7.5 -17.5t17.5 -7.5h457v-108h-460v0zM159 337h373v110q0 10 -7 17.5t-17 7.5h-324q-10 0 -17.5 -7.5t-7.5 -17.5v-110z" />
    <glyph glyph-name="f" unicode="f" horiz-adv-x="419" 
d="M53 0v0v640q0 36 17.5 65.5t47 47t65.5 17.5h216v-108h-213q-10 0 -17.5 -7.5t-7.5 -17.5v-57h238v-108h-238v-472h-108z" />
    <glyph glyph-name="g" unicode="g" horiz-adv-x="683" 
d="M143 -229v0v109h355q10 0 17.5 7.5t7.5 17.5v95h-352q-35 0 -65 17.5t-47.5 47.5t-17.5 65v320q0 36 18 65t47.5 47t64.5 18h330q36 0 65.5 -18t47 -47t17.5 -65v-549q0 -36 -17.5 -65.5t-47 -47t-65.5 -17.5h-358zM174 108h324q10 0 17.5 7.5t7.5 17.5v314
q0 10 -7.5 17.5t-17.5 7.5h-324q-10 0 -17.5 -7.5t-7.5 -17.5v-314q0 -10 7.5 -17.5t17.5 -7.5z" />
    <glyph glyph-name="h" unicode="h" horiz-adv-x="668" 
d="M54 0v0v770h108v-190h352q35 0 64.5 -18t47.5 -47t18 -65v-450h-108v447q0 10 -7.5 17.5t-17.5 7.5h-324q-10 0 -17.5 -7.5t-7.5 -17.5v-447h-108z" />
    <glyph glyph-name="i" unicode="i" horiz-adv-x="216" 
d="M52 0v0v580h108v-580h-108zM52 662v0v108h108v-108h-108z" />
    <glyph glyph-name="j" unicode="j" horiz-adv-x="239" 
d="M-187 -230v0v109h245q10 0 17.5 7t7.5 17v677h108v-680q0 -36 -17.5 -65.5t-47 -47t-65.5 -17.5h-248zM83 662v0v108h108v-108h-108z" />
    <glyph glyph-name="k" unicode="k" horiz-adv-x="646" 
d="M54 0v0v770h108v-426h130l217 236h124v-20l-245 -270l245 -270v-20h-124l-217 236h-130v-236h-108z" />
    <glyph glyph-name="l" unicode="l" horiz-adv-x="315" 
d="M182 0q-36 0 -65 18t-47 47t-18 65v640h108v-637q0 -10 7.5 -17.5t17.5 -7.5h105v-108h-108v0z" />
    <glyph glyph-name="m" unicode="m" horiz-adv-x="978" 
d="M54 0v0v580h741q37 0 66 -18t46.5 -47t17.5 -65v-450h-107v447q0 10 -7.5 17.5t-17.5 7.5h-223q-11 0 -18 -7.5t-7 -17.5v-447h-109v447q0 10 -7.5 17.5t-17.5 7.5h-224q-10 0 -17 -7.5t-7 -17.5v-447h-109z" />
    <glyph glyph-name="n" unicode="n" horiz-adv-x="696" 
d="M54 0v0v580h460q36 0 65.5 -18t47 -47t17.5 -65v-450h-108v447q0 10 -7.5 17.5t-17.5 7.5h-324q-10 0 -17.5 -7.5t-7.5 -17.5v-447h-108z" />
    <glyph glyph-name="o" unicode="o" 
d="M181 0q-36 0 -65 18t-47 47t-18 65v320q0 36 18 65t47 47t65 18h330q36 0 65.5 -17.5t47 -47.5t17.5 -65v-320q0 -36 -17.5 -65t-47 -47t-65.5 -18h-330v0zM184 108h324q10 0 17 7.5t7 17.5v314q0 10 -7 17.5t-17 7.5h-324q-10 0 -17.5 -7.5t-7.5 -17.5v-314
q0 -10 7.5 -17.5t17.5 -7.5z" />
    <glyph glyph-name="p" unicode="p" horiz-adv-x="664" 
d="M54 -230v0v810h460q36 0 65.5 -18t47 -47t17.5 -65v-320q0 -36 -17.5 -65t-47 -47t-65.5 -18h-352v-230h-108zM187 108h324q10 0 17.5 7.5t7.5 17.5v314q0 10 -7.5 17.5t-17.5 7.5h-324q-10 0 -17.5 -7.5t-7.5 -17.5v-314q0 -10 7.5 -17.5t17.5 -7.5z" />
    <glyph glyph-name="q" unicode="q" horiz-adv-x="664" 
d="M502 -230v0v230h-352q-36 0 -65.5 17.5t-47 47.5t-17.5 65v320q0 36 17.5 65t47 47t65.5 18h460v-810h-108zM154 108h324q10 0 17 7.5t7 17.5v314q0 10 -7 17.5t-17 7.5h-324q-10 0 -17.5 -7.5t-7.5 -17.5v-314q0 -10 7.5 -17.5t17.5 -7.5z" />
    <glyph glyph-name="r" unicode="r" horiz-adv-x="517" 
d="M52 0v0v450q0 36 18 65t47.5 47t64.5 18h324v-108h-321q-10 0 -17.5 -7.5t-7.5 -17.5v-447h-108z" />
    <glyph glyph-name="s" unicode="s" horiz-adv-x="686" 
d="M178 0q-36 0 -65 18t-47 47t-18 65v15h108v-12q0 -10 7.5 -17.5t17.5 -7.5h324q10 0 17 7.5t7 17.5v78q0 10 -7 17.5t-17 7.5h-327q-36 0 -65 17.5t-47 47t-18 65.5v84q0 36 18 65t47 47t65 18h330q36 0 65.5 -18t47 -47t17.5 -65v-15h-109v12q0 10 -7 17.5t-17 7.5h-324
q-10 0 -17.5 -7.5t-7.5 -17.5v-78q0 -10 7.5 -17.5t17.5 -7.5h327q36 0 65.5 -17.5t47 -47t17.5 -65.5v-84q0 -36 -17.5 -65t-47 -47t-65.5 -18h-330v0z" />
    <glyph glyph-name="t" unicode="t" horiz-adv-x="425" 
d="M183 0q-36 0 -65.5 18t-47 47t-17.5 65v633h108v-183h238v-108h-238v-339q0 -10 7.5 -17.5t17.5 -7.5h213v-108h-216v0z" />
    <glyph glyph-name="u" unicode="u" horiz-adv-x="695" 
d="M183 0q-36 0 -65.5 18t-47 47t-17.5 65v450h108v-447q0 -10 7.5 -17.5t17.5 -7.5h324q10 0 17.5 7.5t7.5 17.5v447h108v-450q0 -36 -17.5 -65t-47 -47t-65.5 -18h-330v0z" />
    <glyph glyph-name="v" unicode="v" horiz-adv-x="790" 
d="M341 0v0l-320 580h125l249 -458l249 458h125l-320 -580h-108z" />
    <glyph glyph-name="w" unicode="w" horiz-adv-x="1064" 
d="M263 0v0l-228 580h115l157 -384l167 384h123l177 -385l147 385h115l-218 -580h-88l-194 430l-185 -430h-88z" />
    <glyph glyph-name="x" unicode="x" 
d="M46 0v0v19l227 276l-227 266v19h126l171 -201l172 201h125v-19l-226 -266l227 -276v-19h-126l-172 211l-171 -211h-126z" />
    <glyph glyph-name="y" unicode="y" horiz-adv-x="685" 
d="M144 -222v0v109h355q10 0 17.5 7.5t7.5 17.5v88h-352q-35 0 -65 17.5t-47.5 47.5t-17.5 65v448h108v-445q0 -10 7.5 -17.5t17.5 -7.5h324q10 0 17.5 7.5t7.5 17.5v445h108v-670q0 -36 -17.5 -65.5t-47 -47t-65.5 -17.5h-358z" />
    <glyph glyph-name="z" unicode="z" horiz-adv-x="698" 
d="M54 0v0v128l446 344h-446v108h590v-128l-446 -344h446v-108h-590z" />
    <glyph glyph-name="braceleft" unicode="{" horiz-adv-x="289" 
d="M198 0q-36 0 -65.5 17.5t-47.5 47.5t-18 65v153l-44 26v109l44 24v148q0 36 18 65.5t47.5 47t65.5 17.5h42v-109h-40q-10 0 -17.5 -7t-7.5 -17v-168l-69 -56l69 -57v-173q0 -10 7.5 -17.5t17.5 -7.5h40v-108h-42v0z" />
    <glyph glyph-name="bar" unicode="|" horiz-adv-x="214" 
d="M54 -109v0v937h108v-937h-108z" />
    <glyph glyph-name="braceright" unicode="}" horiz-adv-x="289" 
d="M51 0v0v108h40q10 0 17 7.5t7 17.5v172l70 57l-70 56v169q0 10 -7 17t-17 7h-40v109h42q36 0 65.5 -17.5t47 -47t17.5 -65.5v-148l44 -26v-107l-44 -27v-152q0 -36 -17.5 -65t-47 -47t-65.5 -18h-42z" />
    <glyph glyph-name="asciitilde" unicode="~" horiz-adv-x="404" 
d="M298 232q-35 0 -99 34t-103 34t-72 -20v72q36 14 74 14q39 0 109 -33q69 -35 94 -35q32 0 75 24v-72q-44 -18 -78 -18v0z" />
    <glyph glyph-name="uni00A0" unicode="&#xa0;" horiz-adv-x="290" 
 />
    <glyph glyph-name="exclamdown" unicode="&#xa1;" horiz-adv-x="210" 
d="M53 0v0v520h108v-520h-108zM53 611v0v109h108v-109h-108z" />
    <glyph glyph-name="cent" unicode="&#xa2;" horiz-adv-x="636" 
d="M288 -109v0v109h-125q-36 0 -65.5 18t-47 47t-17.5 65v330q0 36 17.5 65.5t47 47.5t65.5 18h125v127h109v-127h224v-110h-224v-373h224v-108h-224v-109h-109zM166 108h122v373h-122q-10 0 -17.5 -7t-7.5 -17v-324q0 -10 7.5 -17.5t17.5 -7.5z" />
    <glyph glyph-name="sterling" unicode="&#xa3;" horiz-adv-x="734" 
d="M39 0v0v108h100v198h-100v108h100v176q0 36 17.5 65.5t47 47t65.5 17.5h288q35 0 64.5 -17.5t47.5 -47t18 -65.5v-30h-109v30q0 10 -7.5 17.5t-17.5 7.5h-281q-10 0 -17.5 -7.5t-7.5 -17.5v-176h334v-108h-334v-198h440v-108h-648z" />
    <glyph glyph-name="dieresis" unicode="&#xa8;" horiz-adv-x="503" 
d="M294 640v0v108h109v-108h-109zM100 640v0v108h108v-108h-108z" />
    <glyph glyph-name="macron" unicode="&#xaf;" horiz-adv-x="500" 
d="M87 638v0v82h324v-82h-324z" />
    <glyph glyph-name="degree" unicode="&#xb0;" horiz-adv-x="439" 
d="M176 380q-37 0 -66 17.5t-47 47t-18 65.5v80q0 36 17.5 65.5t47.5 47t66 17.5h89q36 0 65.5 -17.5t47 -47t17.5 -65.5v-80q0 -36 -17.5 -65.5t-47 -47t-65.5 -17.5h-89v0zM158 468h125q10 0 17 7.5t7 17.5v114q0 10 -7 17t-17 7h-125q-10 0 -17.5 -7t-7.5 -17v-114
q0 -10 7.5 -17.5t17.5 -7.5z" />
    <glyph glyph-name="acute" unicode="&#xb4;" horiz-adv-x="213" 
d="M48 640v0l41 162h108l-40 -162h-109z" />
    <glyph glyph-name="paragraph" unicode="&#xb6;" horiz-adv-x="833" 
d="M455 0v0v257h-269q-36 0 -65.5 17.5t-47 47t-17.5 65.5v197q0 35 17.5 65t47 48t65.5 18h597v-715h-108v257h-112v-257h-108zM189 365h266v241h-266q-10 0 -17.5 -7.5t-7.5 -17.5v-191q0 -10 7.5 -17.5t17.5 -7.5zM563 365v0h112v241h-112v-241z" />
    <glyph glyph-name="cedilla" unicode="&#xb8;" horiz-adv-x="213" 
d="M31 -145l44 161h108l-43 -161h-109z" />
    <glyph glyph-name="questiondown" unicode="&#xbf;" horiz-adv-x="675" 
d="M149 0q-36 0 -65.5 18t-47 47t-17.5 65v184q0 36 17.5 65.5t47 47t65.5 17.5h256q10 0 17.5 7.5t7.5 17.5v58h108v-61q0 -36 -17.5 -65.5t-47 -47.5t-65.5 -18h-256q-10 0 -17.5 -7t-7.5 -17v-178q0 -10 7.5 -17.5t17.5 -7.5h498l1 -108h-502v0zM430 611v0v109h108v-109
h-108z" />
    <glyph glyph-name="Agrave" unicode="&#xc0;" horiz-adv-x="836" 
d="M58 0v590q0 36 17.5 65.5t47 47t65.5 17.5h459q36 0 66 -17.5t47.5 -47t17.5 -65.5v-590h-109v252h-503v-252h-108v0zM166 360h503v227q0 10 -7 17.5t-18 7.5h-453q-10 0 -17.5 -7.5t-7.5 -17.5v-227v0zM371 780v0l-40 162h108l41 -162h-109z" />
    <glyph glyph-name="Aacute" unicode="&#xc1;" horiz-adv-x="836" 
d="M58 0v590q0 36 17.5 65.5t47 47t65.5 17.5h459q36 0 66 -17.5t47.5 -47t17.5 -65.5v-590h-109v252h-503v-252h-108v0zM166 360h503v227q0 10 -7 17.5t-18 7.5h-453q-10 0 -17.5 -7.5t-7.5 -17.5v-227v0zM357 780v0l41 162h108l-40 -162h-109z" />
    <glyph glyph-name="Acircumflex" unicode="&#xc2;" horiz-adv-x="836" 
d="M58 0v590q0 36 17.5 65.5t47 47t65.5 17.5h459q36 0 66 -17.5t47.5 -47t17.5 -65.5v-590h-109v252h-503v-252h-108v0zM166 360h503v227q0 10 -7 17.5t-18 7.5h-453q-10 0 -17.5 -7.5t-7.5 -17.5v-227v0zM283 799v0l92 154h87l91 -154h-88l-47 83l-47 -83h-88z" />
    <glyph glyph-name="Atilde" unicode="&#xc3;" horiz-adv-x="836" 
d="M58 0v590q0 36 17.5 65.5t47 47t65.5 17.5h459q36 0 66 -17.5t47.5 -47t17.5 -65.5v-590h-109v252h-503v-252h-108v0zM166 360h503v227q0 10 -7 17.5t-18 7.5h-453q-10 0 -17.5 -7.5t-7.5 -17.5v-227v0zM519 808q-54 0 -118 44q-61 43 -107 43h-53v84h70q46 0 107 -44
t109 -44h68v-83h-76v0z" />
    <glyph glyph-name="Adieresis" unicode="&#xc4;" horiz-adv-x="836" 
d="M58 0v590q0 36 17.5 65.5t47 47t65.5 17.5h459q36 0 66 -17.5t47.5 -47t17.5 -65.5v-590h-109v252h-503v-252h-108v0zM166 360h503v227q0 10 -7 17.5t-18 7.5h-453q-10 0 -17.5 -7.5t-7.5 -17.5v-227v0zM461 780v0v108h109v-108h-109zM267 780v0v108h108v-108h-108z" />
    <glyph glyph-name="Aring" unicode="&#xc5;" horiz-adv-x="836" 
d="M58 0v590q0 36 17.5 65.5t47 47t65.5 17.5h459q36 0 66 -17.5t47.5 -47t17.5 -65.5v-590h-109v252h-503v-252h-108v0zM166 360h503v227q0 10 -7 17.5t-18 7.5h-453q-10 0 -17.5 -7.5t-7.5 -17.5v-227v0zM391 793q-25 0 -43.5 18t-18.5 44v52q0 25 18.5 43t43.5 18h54
q26 0 44 -18t18 -43v-52q0 -26 -18 -44t-44 -18h-54zM388 844h60q3 0 4.5 2t1.5 4v58q0 3 -1.5 4.5t-4.5 1.5h-60q-3 0 -4.5 -1.5t-1.5 -4.5v-58q0 -2 1.5 -4t4.5 -2z" />
    <glyph glyph-name="AE" unicode="&#xc6;" horiz-adv-x="1375" 
d="M54 0v0v590q0 36 17.5 65.5t47.5 47t65 17.5h1142v-108h-552v-197h443v-110h-443v-197h552v-108h-660v252h-503v-252h-109zM163 360v0h503v227q0 10 -7.5 17.5t-17.5 7.5h-453q-11 0 -18 -7.5t-7 -17.5v-227z" />
    <glyph glyph-name="Ccedilla" unicode="&#xc7;" horiz-adv-x="822" 
d="M186 0q-36 0 -65.5 17.5t-47 47t-17.5 65.5v460q0 36 17.5 65.5t47 47t65.5 17.5h588v-108h-573q-16 0 -26.5 -10.5t-10.5 -26.5v-430q0 -16 10.5 -26.5t26.5 -10.5h573v-108h-588zM352 -145l44 161h108l-43 -161h-109z" />
    <glyph glyph-name="Egrave" unicode="&#xc8;" horiz-adv-x="766" 
d="M58 0v720h660v-108h-551v-197h443v-110h-443v-197h551v-108h-660zM351 780v0l-40 162h108l41 -162h-109z" />
    <glyph glyph-name="Eacute" unicode="&#xc9;" horiz-adv-x="766" 
d="M58 0v720h660v-108h-551v-197h443v-110h-443v-197h551v-108h-660zM337 780v0l41 162h108l-40 -162h-109z" />
    <glyph glyph-name="Ecircumflex" unicode="&#xca;" horiz-adv-x="766" 
d="M58 0v720h660v-108h-551v-197h443v-110h-443v-197h551v-108h-660zM263 799v0l92 154h87l91 -154h-88l-47 83l-47 -83h-88z" />
    <glyph glyph-name="Edieresis" unicode="&#xcb;" horiz-adv-x="766" 
d="M58 0v720h660v-108h-551v-197h443v-110h-443v-197h551v-108h-660zM441 780v0v108h109v-108h-109zM247 780v0v108h108v-108h-108z" />
    <glyph glyph-name="Igrave" unicode="&#xcc;" horiz-adv-x="214" 
d="M53 0v720h108v-720h-108zM62 780v0l-40 162h108l41 -162h-109z" />
    <glyph glyph-name="Iacute" unicode="&#xcd;" horiz-adv-x="214" 
d="M53 0v720h108v-720h-108zM48 780v0l41 162h108l-40 -162h-109z" />
    <glyph glyph-name="Icircumflex" unicode="&#xce;" horiz-adv-x="214" 
d="M53 0v720h108v-720h-108zM-26 799v0l92 154h87l91 -154h-88l-47 83l-47 -83h-88z" />
    <glyph glyph-name="Idieresis" unicode="&#xcf;" horiz-adv-x="214" 
d="M53 0v720h108v-720h-108zM152 780v0v108h109v-108h-109zM-42 780v0v108h108v-108h-108z" />
    <glyph glyph-name="Ntilde" unicode="&#xd1;" horiz-adv-x="832" 
d="M56 0v720h129l482 -574v574h109v-720h-129l-483 575v-575h-108zM504 808q-54 0 -118 44q-61 43 -107 43h-53v84h70q46 0 107 -44t109 -44h68v-83h-76v0z" />
    <glyph glyph-name="Ograve" unicode="&#xd2;" horiz-adv-x="828" 
d="M184 0q-36 0 -65.5 17.5t-47 47t-17.5 65.5v460q0 36 17.5 65.5t47 47t65.5 17.5h460q35 0 65 -17.5t47.5 -47t17.5 -65.5v-460q0 -36 -17.5 -65.5t-47.5 -47t-65 -17.5h-460zM187 108h453q11 0 18 7.5t7 17.5v454q0 10 -7 17.5t-18 7.5h-453q-10 0 -17.5 -7.5
t-7.5 -17.5v-454q0 -10 7.5 -17.5t17.5 -7.5zM367 780v0l-40 162h108l41 -162h-109z" />
    <glyph glyph-name="Oacute" unicode="&#xd3;" horiz-adv-x="828" 
d="M184 0q-36 0 -65.5 17.5t-47 47t-17.5 65.5v460q0 36 17.5 65.5t47 47t65.5 17.5h460q35 0 65 -17.5t47.5 -47t17.5 -65.5v-460q0 -36 -17.5 -65.5t-47.5 -47t-65 -17.5h-460zM187 108h453q11 0 18 7.5t7 17.5v454q0 10 -7 17.5t-18 7.5h-453q-10 0 -17.5 -7.5
t-7.5 -17.5v-454q0 -10 7.5 -17.5t17.5 -7.5zM353 780v0l41 162h108l-40 -162h-109z" />
    <glyph glyph-name="Ocircumflex" unicode="&#xd4;" horiz-adv-x="828" 
d="M184 0q-36 0 -65.5 17.5t-47 47t-17.5 65.5v460q0 36 17.5 65.5t47 47t65.5 17.5h460q35 0 65 -17.5t47.5 -47t17.5 -65.5v-460q0 -36 -17.5 -65.5t-47.5 -47t-65 -17.5h-460zM187 108h453q11 0 18 7.5t7 17.5v454q0 10 -7 17.5t-18 7.5h-453q-10 0 -17.5 -7.5
t-7.5 -17.5v-454q0 -10 7.5 -17.5t17.5 -7.5zM279 799v0l92 154h87l91 -154h-88l-47 83l-47 -83h-88z" />
    <glyph glyph-name="Otilde" unicode="&#xd5;" horiz-adv-x="828" 
d="M184 0q-36 0 -65.5 17.5t-47 47t-17.5 65.5v460q0 36 17.5 65.5t47 47t65.5 17.5h460q35 0 65 -17.5t47.5 -47t17.5 -65.5v-460q0 -36 -17.5 -65.5t-47.5 -47t-65 -17.5h-460zM187 108h453q11 0 18 7.5t7 17.5v454q0 10 -7 17.5t-18 7.5h-453q-10 0 -17.5 -7.5
t-7.5 -17.5v-454q0 -10 7.5 -17.5t17.5 -7.5zM515 808q-54 0 -118 44q-61 43 -107 43h-53v84h70q46 0 107 -44t109 -44h68v-83h-76v0z" />
    <glyph glyph-name="Odieresis" unicode="&#xd6;" horiz-adv-x="828" 
d="M184 0q-36 0 -65.5 17.5t-47 47t-17.5 65.5v460q0 36 17.5 65.5t47 47t65.5 17.5h460q35 0 65 -17.5t47.5 -47t17.5 -65.5v-460q0 -36 -17.5 -65.5t-47.5 -47t-65 -17.5h-460zM187 108h453q11 0 18 7.5t7 17.5v454q0 10 -7 17.5t-18 7.5h-453q-10 0 -17.5 -7.5
t-7.5 -17.5v-454q0 -10 7.5 -17.5t17.5 -7.5zM457 780v0v108h109v-108h-109zM263 780v0v108h108v-108h-108z" />
    <glyph glyph-name="multiply" unicode="&#xd7;" horiz-adv-x="546" 
d="M54 90v0l3 24l144 187l-146 188l-2 21h126l92 -126l92 126h126l-3 -22l-145 -187l144 -188l4 -23h-126l-92 126l-92 -126h-125z" />
    <glyph glyph-name="Ugrave" unicode="&#xd9;" horiz-adv-x="828" 
d="M184 0q-36 0 -65.5 17.5t-47 47t-17.5 65.5v590h108v-587q0 -10 7.5 -17.5t17.5 -7.5h453q11 0 18 7.5t7 17.5v587h109v-590q0 -36 -17.5 -65.5t-47.5 -47t-65 -17.5h-460v0zM367 780v0l-40 162h108l41 -162h-109z" />
    <glyph glyph-name="Uacute" unicode="&#xda;" horiz-adv-x="828" 
d="M184 0q-36 0 -65.5 17.5t-47 47t-17.5 65.5v590h108v-587q0 -10 7.5 -17.5t17.5 -7.5h453q11 0 18 7.5t7 17.5v587h109v-590q0 -36 -17.5 -65.5t-47.5 -47t-65 -17.5h-460v0zM353 780v0l41 162h108l-40 -162h-109z" />
    <glyph glyph-name="Ucircumflex" unicode="&#xdb;" horiz-adv-x="828" 
d="M184 0q-36 0 -65.5 17.5t-47 47t-17.5 65.5v590h108v-587q0 -10 7.5 -17.5t17.5 -7.5h453q11 0 18 7.5t7 17.5v587h109v-590q0 -36 -17.5 -65.5t-47.5 -47t-65 -17.5h-460v0zM279 799v0l92 154h87l91 -154h-88l-47 83l-47 -83h-88z" />
    <glyph glyph-name="Udieresis" unicode="&#xdc;" horiz-adv-x="828" 
d="M184 0q-36 0 -65.5 17.5t-47 47t-17.5 65.5v590h108v-587q0 -10 7.5 -17.5t17.5 -7.5h453q11 0 18 7.5t7 17.5v587h109v-590q0 -36 -17.5 -65.5t-47.5 -47t-65 -17.5h-460v0zM457 780v0v108h109v-108h-109zM263 780v0v108h108v-108h-108z" />
    <glyph glyph-name="Yacute" unicode="&#xdd;" horiz-adv-x="806" 
d="M349 0v0v270l-332 450h127l259 -327l258 327h128l-332 -450v-270h-108zM341 780v0l41 162h108l-40 -162h-109z" />
    <glyph glyph-name="germandbls" unicode="&#xdf;" horiz-adv-x="833" 
d="M57 0v0v590q0 36 17.5 65.5t47 47t65.5 17.5h460q30 0 57.5 -15t46.5 -39.5t26 -53.5v-166q0 -39 -26 -76q26 -36 26 -76v-164q0 -36 -18 -65t-47.5 -47t-64.5 -18h-367v108h364q10 0 17.5 7.5t7.5 17.5v158q0 10 -7.5 17t-17.5 7h-364v98h364q10 0 17.5 7.5t7.5 17.5
v148q0 10 -7.5 17t-17.5 7h-454q-10 0 -17.5 -7t-7.5 -17v-586h-108z" />
    <glyph glyph-name="agrave" unicode="&#xe0;" horiz-adv-x="694" 
d="M182 0q-36 0 -65.5 18t-47 47t-17.5 65v214h481v103q0 10 -7 17.5t-17 7.5h-457v108h460q36 0 65.5 -17.5t47 -47.5t17.5 -65v-450h-460zM185 108h348v135h-373v-110q0 -10 7.5 -17.5t17.5 -7.5zM320 640v0l-40 162h108l41 -162h-109z" />
    <glyph glyph-name="aacute" unicode="&#xe1;" horiz-adv-x="694" 
d="M182 0q-36 0 -65.5 18t-47 47t-17.5 65v214h481v103q0 10 -7 17.5t-17 7.5h-457v108h460q36 0 65.5 -17.5t47 -47.5t17.5 -65v-450h-460zM185 108h348v135h-373v-110q0 -10 7.5 -17.5t17.5 -7.5zM306 640v0l41 162h108l-40 -162h-109z" />
    <glyph glyph-name="acircumflex" unicode="&#xe2;" horiz-adv-x="694" 
d="M182 0q-36 0 -65.5 18t-47 47t-17.5 65v214h481v103q0 10 -7 17.5t-17 7.5h-457v108h460q36 0 65.5 -17.5t47 -47.5t17.5 -65v-450h-460zM185 108h348v135h-373v-110q0 -10 7.5 -17.5t17.5 -7.5zM232 659v0l92 154h87l91 -154h-88l-47 83l-47 -83h-88z" />
    <glyph glyph-name="atilde" unicode="&#xe3;" horiz-adv-x="694" 
d="M182 0q-36 0 -65.5 18t-47 47t-17.5 65v214h481v103q0 10 -7 17.5t-17 7.5h-457v108h460q36 0 65.5 -17.5t47 -47.5t17.5 -65v-450h-460zM185 108h348v135h-373v-110q0 -10 7.5 -17.5t17.5 -7.5zM468 668q-54 0 -118 44q-61 43 -107 43h-53v84h70q46 0 107 -44t109 -44
h68v-83h-76v0z" />
    <glyph glyph-name="adieresis" unicode="&#xe4;" horiz-adv-x="694" 
d="M182 0q-36 0 -65.5 18t-47 47t-17.5 65v214h481v103q0 10 -7 17.5t-17 7.5h-457v108h460q36 0 65.5 -17.5t47 -47.5t17.5 -65v-450h-460zM185 108h348v135h-373v-110q0 -10 7.5 -17.5t17.5 -7.5zM410 640v0v108h109v-108h-109zM216 640v0v108h108v-108h-108z" />
    <glyph glyph-name="aring" unicode="&#xe5;" horiz-adv-x="694" 
d="M182 0q-36 0 -65.5 18t-47 47t-17.5 65v214h481v103q0 10 -7 17.5t-17 7.5h-457v108h460q36 0 65.5 -17.5t47 -47.5t17.5 -65v-450h-460zM185 108h348v135h-373v-110q0 -10 7.5 -17.5t17.5 -7.5zM340 653q-25 0 -43.5 18t-18.5 44v52q0 25 18.5 43t43.5 18h54
q26 0 44 -18t18 -43v-52q0 -26 -18 -44t-44 -18h-54zM337 704h60q3 0 4.5 2t1.5 4v58q0 3 -1.5 4.5t-4.5 1.5h-60q-3 0 -4.5 -1.5t-1.5 -4.5v-58q0 -2 1.5 -4t4.5 -2z" />
    <glyph glyph-name="ae" unicode="&#xe6;" horiz-adv-x="1178" 
d="M182 0q-36 0 -65.5 18t-46.5 47t-17 65v214h481v103q0 10 -7.5 17.5t-17.5 7.5h-456v108h941q37 0 66 -18t46.5 -47t17.5 -65v-214h-481v-106q0 -9 7.5 -15.5t16.5 -6.5h457v-108h-942zM185 108h349v135h-373v-110q0 -10 7 -17.5t17 -7.5zM643 337h373v110
q0 10 -7.5 17.5t-17.5 7.5h-324q-10 0 -17 -7.5t-7 -17.5v-110z" />
    <glyph glyph-name="ccedilla" unicode="&#xe7;" horiz-adv-x="695" 
d="M181 0q-36 0 -65 18t-47 47t-18 65v320q0 36 18 65t47 47t65 18h458v-108h-455q-10 0 -17.5 -7.5t-7.5 -17.5v-314q0 -10 7.5 -17.5t17.5 -7.5h457v-108h-460v0zM275 -145l44 161h108l-43 -161h-109z" />
    <glyph glyph-name="egrave" unicode="&#xe8;" 
d="M181 0q-36 0 -65 18t-47 47t-18 65v320q0 36 18 65t47 47t65 18h330q36 0 65.5 -17.5t47 -47.5t17.5 -65v-214h-482v-103q0 -10 7.5 -17.5t17.5 -7.5h457v-108h-460v0zM159 337h373v110q0 10 -7 17.5t-17 7.5h-324q-10 0 -17.5 -7.5t-7.5 -17.5v-110zM299 640v0l-40 162
h108l41 -162h-109z" />
    <glyph glyph-name="eacute" unicode="&#xe9;" 
d="M181 0q-36 0 -65 18t-47 47t-18 65v320q0 36 18 65t47 47t65 18h330q36 0 65.5 -17.5t47 -47.5t17.5 -65v-214h-482v-103q0 -10 7.5 -17.5t17.5 -7.5h457v-108h-460v0zM159 337h373v110q0 10 -7 17.5t-17 7.5h-324q-10 0 -17.5 -7.5t-7.5 -17.5v-110zM285 640v0l41 162
h108l-40 -162h-109z" />
    <glyph glyph-name="ecircumflex" unicode="&#xea;" 
d="M181 0q-36 0 -65 18t-47 47t-18 65v320q0 36 18 65t47 47t65 18h330q36 0 65.5 -17.5t47 -47.5t17.5 -65v-214h-482v-103q0 -10 7.5 -17.5t17.5 -7.5h457v-108h-460v0zM159 337h373v110q0 10 -7 17.5t-17 7.5h-324q-10 0 -17.5 -7.5t-7.5 -17.5v-110zM212 659v0l92 154
h87l91 -154h-88l-47 83l-47 -83h-88z" />
    <glyph glyph-name="edieresis" unicode="&#xeb;" 
d="M181 0q-36 0 -65 18t-47 47t-18 65v320q0 36 18 65t47 47t65 18h330q36 0 65.5 -17.5t47 -47.5t17.5 -65v-214h-482v-103q0 -10 7.5 -17.5t17.5 -7.5h457v-108h-460v0zM159 337h373v110q0 10 -7 17.5t-17 7.5h-324q-10 0 -17.5 -7.5t-7.5 -17.5v-110zM389 640v0v108h109
v-108h-109zM195 640v0v108h108v-108h-108z" />
    <glyph glyph-name="igrave" unicode="&#xec;" horiz-adv-x="214" 
d="M53 0v0v580h108v-580h-108zM60 640v0l-40 162h108l41 -162h-109z" />
    <glyph glyph-name="iacute" unicode="&#xed;" horiz-adv-x="214" 
d="M53 0v0v580h108v-580h-108zM46 640v0l41 162h108l-40 -162h-109z" />
    <glyph glyph-name="icircumflex" unicode="&#xee;" horiz-adv-x="214" 
d="M53 0v0v580h108v-580h-108zM-28 659v0l92 154h87l91 -154h-88l-47 83l-47 -83h-88z" />
    <glyph glyph-name="idieresis" unicode="&#xef;" horiz-adv-x="214" 
d="M53 0v0v580h108v-580h-108zM150 640v0v108h109v-108h-109zM-44 640v0v108h108v-108h-108z" />
    <glyph glyph-name="ntilde" unicode="&#xf1;" horiz-adv-x="696" 
d="M54 0v0v580h460q36 0 65.5 -18t47 -47t17.5 -65v-450h-108v447q0 10 -7.5 17.5t-17.5 7.5h-324q-10 0 -17.5 -7.5t-7.5 -17.5v-447h-108zM443 668q-54 0 -118 44q-61 43 -107 43h-53v84h70q46 0 107 -44t109 -44h68v-83h-76v0z" />
    <glyph glyph-name="ograve" unicode="&#xf2;" 
d="M181 0q-36 0 -65 18t-47 47t-18 65v320q0 36 18 65t47 47t65 18h330q36 0 65.5 -17.5t47 -47.5t17.5 -65v-320q0 -36 -17.5 -65t-47 -47t-65.5 -18h-330v0zM184 108h324q10 0 17 7.5t7 17.5v314q0 10 -7 17.5t-17 7.5h-324q-10 0 -17.5 -7.5t-7.5 -17.5v-314
q0 -10 7.5 -17.5t17.5 -7.5zM298 638v0l-40 162h108l41 -162h-109z" />
    <glyph glyph-name="oacute" unicode="&#xf3;" 
d="M181 0q-36 0 -65 18t-47 47t-18 65v320q0 36 18 65t47 47t65 18h330q36 0 65.5 -17.5t47 -47.5t17.5 -65v-320q0 -36 -17.5 -65t-47 -47t-65.5 -18h-330v0zM184 108h324q10 0 17 7.5t7 17.5v314q0 10 -7 17.5t-17 7.5h-324q-10 0 -17.5 -7.5t-7.5 -17.5v-314
q0 -10 7.5 -17.5t17.5 -7.5zM284 638v0l41 162h108l-40 -162h-109z" />
    <glyph glyph-name="ocircumflex" unicode="&#xf4;" 
d="M181 0q-36 0 -65 18t-47 47t-18 65v320q0 36 18 65t47 47t65 18h330q36 0 65.5 -17.5t47 -47.5t17.5 -65v-320q0 -36 -17.5 -65t-47 -47t-65.5 -18h-330v0zM184 108h324q10 0 17 7.5t7 17.5v314q0 10 -7 17.5t-17 7.5h-324q-10 0 -17.5 -7.5t-7.5 -17.5v-314
q0 -10 7.5 -17.5t17.5 -7.5zM210 657v0l92 154h87l91 -154h-88l-47 83l-47 -83h-88z" />
    <glyph glyph-name="otilde" unicode="&#xf5;" 
d="M181 0q-36 0 -65 18t-47 47t-18 65v320q0 36 18 65t47 47t65 18h330q36 0 65.5 -17.5t47 -47.5t17.5 -65v-320q0 -36 -17.5 -65t-47 -47t-65.5 -18h-330v0zM184 108h324q10 0 17 7.5t7 17.5v314q0 10 -7 17.5t-17 7.5h-324q-10 0 -17.5 -7.5t-7.5 -17.5v-314
q0 -10 7.5 -17.5t17.5 -7.5zM446 666q-54 0 -118 44q-61 43 -107 43h-53v84h70q46 0 107 -44t109 -44h68v-83h-76v0z" />
    <glyph glyph-name="odieresis" unicode="&#xf6;" 
d="M181 0q-36 0 -65 18t-47 47t-18 65v320q0 36 18 65t47 47t65 18h330q36 0 65.5 -17.5t47 -47.5t17.5 -65v-320q0 -36 -17.5 -65t-47 -47t-65.5 -18h-330v0zM184 108h324q10 0 17 7.5t7 17.5v314q0 10 -7 17.5t-17 7.5h-324q-10 0 -17.5 -7.5t-7.5 -17.5v-314
q0 -10 7.5 -17.5t17.5 -7.5zM388 638v0v108h109v-108h-109zM194 638v0v108h108v-108h-108z" />
    <glyph glyph-name="divide" unicode="&#xf7;" horiz-adv-x="512" 
d="M14 250v0v107h480v-107h-480zM203 1v0v108h108v-108h-108zM203 484v0v109h108v-109h-108z" />
    <glyph glyph-name="ugrave" unicode="&#xf9;" horiz-adv-x="695" 
d="M183 0q-36 0 -65.5 18t-47 47t-17.5 65v450h108v-447q0 -10 7.5 -17.5t17.5 -7.5h324q10 0 17.5 7.5t7.5 17.5v447h108v-450q0 -36 -17.5 -65t-47 -47t-65.5 -18h-330v0zM301 640v0l-40 162h108l41 -162h-109z" />
    <glyph glyph-name="uacute" unicode="&#xfa;" horiz-adv-x="695" 
d="M183 0q-36 0 -65.5 18t-47 47t-17.5 65v450h108v-447q0 -10 7.5 -17.5t17.5 -7.5h324q10 0 17.5 7.5t7.5 17.5v447h108v-450q0 -36 -17.5 -65t-47 -47t-65.5 -18h-330v0zM287 640v0l41 162h108l-40 -162h-109z" />
    <glyph glyph-name="ucircumflex" unicode="&#xfb;" horiz-adv-x="695" 
d="M183 0q-36 0 -65.5 18t-47 47t-17.5 65v450h108v-447q0 -10 7.5 -17.5t17.5 -7.5h324q10 0 17.5 7.5t7.5 17.5v447h108v-450q0 -36 -17.5 -65t-47 -47t-65.5 -18h-330v0zM214 659v0l92 154h87l91 -154h-88l-47 83l-47 -83h-88z" />
    <glyph glyph-name="udieresis" unicode="&#xfc;" horiz-adv-x="695" 
d="M183 0q-36 0 -65.5 18t-47 47t-17.5 65v450h108v-447q0 -10 7.5 -17.5t17.5 -7.5h324q10 0 17.5 7.5t7.5 17.5v447h108v-450q0 -36 -17.5 -65t-47 -47t-65.5 -18h-330v0zM391 640v0v108h109v-108h-109zM197 640v0v108h108v-108h-108z" />
    <glyph glyph-name="yacute" unicode="&#xfd;" horiz-adv-x="685" 
d="M144 -222v0v109h355q10 0 17.5 7.5t7.5 17.5v88h-352q-35 0 -65 17.5t-47.5 47.5t-17.5 65v448h108v-445q0 -10 7.5 -17.5t17.5 -7.5h324q10 0 17.5 7.5t7.5 17.5v445h108v-670q0 -36 -17.5 -65.5t-47 -47t-65.5 -17.5h-358zM276 640v0l41 162h108l-40 -162h-109z" />
    <glyph glyph-name="ydieresis" unicode="&#xff;" horiz-adv-x="685" 
d="M144 -222v0v109h355q10 0 17.5 7.5t7.5 17.5v88h-352q-35 0 -65 17.5t-47.5 47.5t-17.5 65v448h108v-445q0 -10 7.5 -17.5t17.5 -7.5h324q10 0 17.5 7.5t7.5 17.5v445h108v-670q0 -36 -17.5 -65.5t-47 -47t-65.5 -17.5h-358zM380 640v0v108h109v-108h-109zM186 640v0v108
h108v-108h-108z" />
    <glyph glyph-name="dotlessi" unicode="&#x131;" horiz-adv-x="214" 
d="M53 0v0v580h108v-580h-108z" />
    <glyph glyph-name="OE" unicode="&#x152;" horiz-adv-x="1374" 
d="M183 0q-36 0 -65.5 17.5t-47 47t-17.5 65.5v460q0 36 17.5 65.5t47 47t65.5 17.5h1142v-108h-552v-197h443v-110h-443v-197h552v-108h-1142zM187 108h453q10 0 17.5 7.5t7.5 17.5v454q0 10 -7.5 17.5t-17.5 7.5h-453q-11 0 -18 -7.5t-7 -17.5v-454q0 -10 7 -17.5t18 -7.5
z" />
    <glyph glyph-name="oe" unicode="&#x153;" horiz-adv-x="1177" 
d="M182 0q-36 0 -65.5 17.5t-47 47.5t-17.5 65v320q0 36 17.5 65t47 47t65.5 18h812q36 0 65 -18t46.5 -47t17.5 -65v-214h-481v-103q0 -10 7 -17.5t17 -7.5h457v-108h-941v0zM185 108v0h324q10 0 17.5 7.5t7.5 17.5v314q0 10 -7.5 17.5t-17.5 7.5h-324q-10 0 -17.5 -7.5
t-7.5 -17.5v-314q0 -10 7.5 -17.5t17.5 -7.5zM642 337v0h373v110q0 10 -7.5 17.5t-17.5 7.5h-324q-10 0 -17 -7.5t-7 -17.5v-110z" />
    <glyph glyph-name="Scaron" unicode="&#x160;" horiz-adv-x="824" 
d="M182 0q-35 0 -65 17.5t-47.5 47t-17.5 65.5v42h108v-39q0 -10 7.5 -17.5t17.5 -7.5h454q10 0 17 7.5t7 17.5v148q0 11 -7 17.5t-17 6.5h-457q-35 0 -65 18t-47.5 47.5t-17.5 65.5v154q0 36 17.5 65.5t47.5 47t65 17.5h460q35 0 65 -17.5t47.5 -47t17.5 -65.5v-42h-109v39
q0 10 -7 17.5t-17 7.5h-454q-10 0 -17.5 -7.5t-7.5 -17.5v-148q0 -11 7.5 -17.5t17.5 -6.5h457q35 0 65 -18t47.5 -47.5t17.5 -65.5v-154q0 -36 -17.5 -65.5t-47.5 -47t-65 -17.5h-460zM377 780v0l-86 141h75l48 -70l47 70h75l-85 -141h-74z" />
    <glyph glyph-name="scaron" unicode="&#x161;" horiz-adv-x="686" 
d="M178 0q-36 0 -65 18t-47 47t-18 65v15h108v-12q0 -10 7.5 -17.5t17.5 -7.5h324q10 0 17 7.5t7 17.5v78q0 10 -7 17.5t-17 7.5h-327q-36 0 -65 17.5t-47 47t-18 65.5v84q0 36 18 65t47 47t65 18h330q36 0 65.5 -18t47 -47t17.5 -65v-15h-109v12q0 10 -7 17.5t-17 7.5h-324
q-10 0 -17.5 -7.5t-7.5 -17.5v-78q0 -10 7.5 -17.5t17.5 -7.5h327q36 0 65.5 -17.5t47 -47t17.5 -65.5v-84q0 -36 -17.5 -65t-47 -47t-65.5 -18h-330v0zM304 639v0l-86 141h75l48 -70l47 70h75l-85 -141h-74z" />
    <glyph glyph-name="Ydieresis" unicode="&#x178;" horiz-adv-x="806" 
d="M349 0v0v270l-332 450h127l259 -327l258 327h128l-332 -450v-270h-108zM445 780v0v108h109v-108h-109zM251 780v0v108h108v-108h-108z" />
    <glyph glyph-name="Zcaron" unicode="&#x17d;" horiz-adv-x="821" 
d="M51 0v0v129l575 483h-575v108h720v-129l-575 -483h575v-108h-720zM374 780v0l-86 141h75l48 -70l47 70h75l-85 -141h-74z" />
    <glyph glyph-name="zcaron" unicode="&#x17e;" horiz-adv-x="698" 
d="M54 0v0v128l446 344h-446v108h590v-128l-446 -344h446v-108h-590zM307 640v0l-86 141h75l48 -70l47 70h75l-85 -141h-74z" />
    <glyph glyph-name="circumflex" unicode="&#x2c6;" horiz-adv-x="470" 
d="M100 659v0l92 154h87l91 -154h-88l-47 83l-47 -83h-88z" />
    <glyph glyph-name="caron" unicode="&#x2c7;" horiz-adv-x="297" 
d="M112 640v0l-86 141h75l48 -70l47 70h75l-85 -141h-74z" />
    <glyph glyph-name="breve" unicode="&#x2d8;" horiz-adv-x="287" 
d="M119 826q-37 0 -57.5 23.5t-21.5 67.5h58q0 -15 3.5 -23.5t9.5 -8.5h69q5 0 7 8.5t2 23.5h57q-1 -44 -21.5 -67.5t-53.5 -23.5h-52v0z" />
    <glyph glyph-name="dotaccent" unicode="&#x2d9;" horiz-adv-x="256" 
d="M73 640v108h109v-108h-109z" />
    <glyph glyph-name="ring" unicode="&#x2da;" horiz-adv-x="233" 
d="M89 761q-25 0 -43.5 18t-18.5 44v52q0 25 18.5 43t43.5 18h54q26 0 44 -18t18 -43v-52q0 -26 -18 -44t-44 -18h-54zM86 812h60q3 0 4.5 2t1.5 4v58q0 3 -1.5 4.5t-4.5 1.5h-60q-3 0 -4.5 -1.5t-1.5 -4.5v-58q0 -2 1.5 -4t4.5 -2z" />
    <glyph glyph-name="ogonek" unicode="&#x2db;" horiz-adv-x="500" 
d="M189 -250v0v233h122v-233h-122z" />
    <glyph glyph-name="tilde" unicode="&#x2dc;" horiz-adv-x="403" 
d="M303 668q-54 0 -118 44q-61 43 -107 43h-53v84h70q46 0 107 -44t109 -44h68v-83h-76v0z" />
    <glyph glyph-name="gravecomb" unicode="&#x300;" horiz-adv-x="0" 
d="M-47 640v0l-40 162h108l41 -162h-109z" />
    <glyph glyph-name="acutecomb" unicode="&#x301;" horiz-adv-x="0" 
d="M-61 640v0l41 162h108l-40 -162h-109z" />
    <glyph glyph-name="uni0302" unicode="&#x302;" horiz-adv-x="0" 
d="M-134 659v0l92 154h87l91 -154h-88l-47 83l-47 -83h-88z" />
    <glyph glyph-name="tildecomb" unicode="&#x303;" horiz-adv-x="0" 
d="M101 668q-54 0 -118 44q-61 43 -107 43h-53v84h70q46 0 107 -44t109 -44h68v-83h-76v0z" />
    <glyph glyph-name="uni0307" unicode="&#x307;" horiz-adv-x="0" 
d="M-55 640v108h109v-108h-109z" />
    <glyph glyph-name="uni0308" unicode="&#x308;" horiz-adv-x="0" 
d="M43 640v0v108h109v-108h-109zM-151 640v0v108h108v-108h-108z" />
    <glyph glyph-name="uni030A" unicode="&#x30a;" horiz-adv-x="0" 
d="M-27 653q-25 0 -43.5 18t-18.5 44v52q0 25 18.5 43t43.5 18h54q26 0 44 -18t18 -43v-52q0 -26 -18 -44t-44 -18h-54zM-30 704h60q3 0 4.5 2t1.5 4v58q0 3 -1.5 4.5t-4.5 1.5h-60q-3 0 -4.5 -1.5t-1.5 -4.5v-58q0 -2 1.5 -4t4.5 -2z" />
    <glyph glyph-name="uni030C" unicode="&#x30c;" horiz-adv-x="0" 
d="M-37 640v0l-86 141h75l48 -70l47 70h75l-85 -141h-74z" />
    <glyph glyph-name="uni0327" unicode="&#x327;" horiz-adv-x="0" 
d="M352 -145l44 161h108l-43 -161h-109z" />
    <glyph glyph-name="endash" unicode="&#x2013;" horiz-adv-x="708" 
d="M54 241v0v108h600v-108h-600z" />
    <glyph glyph-name="emdash" unicode="&#x2014;" horiz-adv-x="822" 
d="M54 241v0v108h714v-108h-714z" />
    <glyph glyph-name="quoteleft" unicode="&#x2018;" horiz-adv-x="194" 
d="M33 479v0v108q0 31 14 57t39 45t56 26v-236h-109z" />
    <glyph glyph-name="quoteright" unicode="&#x2019;" horiz-adv-x="192" 
d="M54 480v0v236h108v-108q0 -31 -14 -57t-38.5 -45t-55.5 -26z" />
    <glyph glyph-name="quotedblleft" unicode="&#x201c;" horiz-adv-x="401" 
d="M46 479v0v108q0 31 14 57t39 44.5t56 25.5v-235h-109zM240 478v0v108q0 31 14 57.5t38.5 45t55.5 25.5v-236h-108z" />
    <glyph glyph-name="quotedblright" unicode="&#x201d;" horiz-adv-x="401" 
d="M54 480v0v236h109v-108q0 -31 -14 -57t-39 -45t-56 -26zM247 480v0v236h108v-108q0 -31 -14 -57t-38.5 -45t-55.5 -26z" />
    <glyph glyph-name="bullet" unicode="&#x2022;" horiz-adv-x="371" 
d="M173 308q-42 0 -42 42v20q0 42 42 42h23q43 0 43 -42v-20q0 -42 -43 -42h-23v0z" />
    <glyph glyph-name="ellipsis" unicode="&#x2026;" horiz-adv-x="574" 
d="M54 0v0v108h109v-108h-109zM245 0v0v108h108v-108h-108zM434 0v0v108h108v-108h-108z" />
    <glyph glyph-name="Euro" unicode="&#x20ac;" horiz-adv-x="799" 
d="M265 0q-36 0 -65.5 17.5t-47 47.5t-17.5 65v84h-100v108h100v78h-100v109h100v81q0 37 17.5 66t47 47t65.5 18h488v-109h-485q-10 0 -17.5 -7.5t-7.5 -17.5v-78h402v-109h-402v-78h402v-108h-402v-81q0 -10 7.5 -17.5t17.5 -7.5h485v-108h-488v0z" />
    <glyph glyph-name="minus" unicode="&#x2212;" horiz-adv-x="517" 
d="M59 242v0v108h400v-108h-400z" />
    <glyph glyph-name="uniE002" unicode="&#xe002;" horiz-adv-x="771" 
d="M49 0v0v19l498 593h-501v108h717v-20l-589 -700h-125z" />
    <glyph glyph-name="uniE003" unicode="&#xe003;" horiz-adv-x="784" 
d="M624 0v258q0 14 -3 22t-11 11.5t-22 3.5h-445q-37 0 -66 17.5t-47 47t-18 64.5v164q0 37 18 66t47 47t66 18h460q35 0 64.5 -18t47 -47t17.5 -66v-588h-108zM146 403h478v182q0 10 -7 17.5t-17 7.5h-454q-10 0 -17.5 -7.5t-7.5 -17.5v-158q0 -10 7.5 -17t17.5 -7z" />
    <glyph glyph-name="uniE005" unicode="&#xe005;" horiz-adv-x="815" 
d="M178 0q-46 0 -81.5 29.5t-46.5 72.5l-1 122l610 317v71h-476q-10 0 -17.5 -7.5t-7.5 -17.5v-52h-109v55q0 36 18 65.5t47.5 47t65.5 17.5h460q30 0 56.5 -14.5t45.5 -39.5t26 -54v-137l-610 -317v-50h610v-108h-590v0z" />
    <glyph glyph-name="uniE006" unicode="&#xe006;" horiz-adv-x="667" 
d="M195 165v89q0 37 17.5 66t47 46.5t65.5 17.5h187q10 0 17.5 7.5t7.5 17.5v178q0 10 -7.5 17t-17.5 7h-377v-108h-108v109q6 29 24.5 53.5t45.5 39.5t58 15h360q35 0 64.5 -17.5t47.5 -47t18 -65.5v-184q0 -36 -18 -65.5t-47.5 -47t-64.5 -17.5h-187q-10 0 -17.5 -7.5
t-7.5 -17.5v-86h-108zM195 0v108h108v-108h-108z" />
    <glyph glyph-name="uniE007" unicode="&#xe007;" horiz-adv-x="723" 
d="M485 0v0v183h-476v108l366 429h108v-50l-343 -379h345v149h108v-149h106v-108h-106v-183h-108z" />
    <glyph glyph-name="uniE008" unicode="&#xe008;" horiz-adv-x="1154" 
d="M593 0v0l-593 700v20h127l486 -573v284l-231 269v20h125l487 -574v574h109v-720h-129l-252 300v-300h-129z" />
    <glyph glyph-name="uniE009" unicode="&#xe009;" horiz-adv-x="1163" 
d="M60 0v0v720h109v-574l487 574h125v-20l-230 -269v-285l486 574h126v-20l-592 -700h-129v300l-252 -300h-130z" />
    <glyph glyph-name="uniE00A" unicode="&#xe00a;" horiz-adv-x="774" 
d="M54 0v0v721h109v-577l483 576h125v-24l-589 -696h-128z" />
    <glyph glyph-name="uniE00B" unicode="&#xe00b;" horiz-adv-x="774" 
d="M3 0v0v19l589 702h128v-721h-109v192h-322l-162 -192h-124zM380 300v0h231v271z" />
    <glyph glyph-name="uniE00C" unicode="&#xe00c;" horiz-adv-x="774" 
d="M54 0v0v721h128l590 -702v-19h-126l-162 192h-321v-192h-109zM163 300v0h231l-231 271v-271z" />
    <glyph glyph-name="A.alt" horiz-adv-x="774" 
d="M3 0v0v19l589 702h128v-721h-109v192h-322l-162 -192h-124zM380 300v0h231v271z" />
    <glyph glyph-name="C.alt" horiz-adv-x="822" 
d="M182 0q-36 0 -65.5 17.5t-47 47t-17.5 65.5v460q0 36 17.5 65.5t47 47t65.5 17.5h460q30 0 56.5 -15t46 -39.5t26.5 -53.5l2 -108h-109v108h-467q-15 0 -26 -11t-11 -26v-430q0 -15 11 -26t26 -11h467v108h106v-108q-7 -28 -26 -53t-45.5 -40t-56.5 -15h-460v0z" />
    <glyph glyph-name="I.alt" horiz-adv-x="818" 
d="M49 0v0v108h305v504h-305v108h720v-108h-305v-504h305v-108h-720z" />
    <glyph glyph-name="J.alt" horiz-adv-x="645" 
d="M3 0v0v108h457q10 0 17 7.5t7 17.5v587h110v-590q0 -36 -18 -65.5t-47.5 -47t-65.5 -17.5h-460z" />
    <glyph glyph-name="K.alt" horiz-adv-x="829" 
d="M54 0v0v720h108v-284q0 -11 7.5 -17.5t17.5 -6.5h454q11 0 18 6.5t7 17.5v284h109v-267q0 -36 -20.5 -60t-63.5 -36q43 -12 63 -36t20 -60v-261h-109l1 278q0 10 -7.5 17t-17.5 7h-454q-10 0 -17.5 -7t-7.5 -17v-278h-108z" />
    <glyph glyph-name="M.alt" horiz-adv-x="1155" 
d="M54 0v0v720h918q36 0 65 -17.5t47 -47t18 -65.5v-590h-109v587q0 10 -7 17.5t-17 7.5h-348v-612h-109v587q0 10 -7 17.5t-18 7.5h-324v-612h-109z" />
    <glyph glyph-name="N.alt" horiz-adv-x="827" 
d="M54 0v0v720h590q36 0 65.5 -17.5t47 -47t17.5 -65.5v-590h-109v587q0 10 -7 17.5t-18 7.5h-478v-612h-108z" />
    <glyph glyph-name="O.alt" horiz-adv-x="824" 
d="M357 305v0v110h110v-110h-110zM184 0q-36 0 -65.5 17.5t-47 47t-17.5 65.5v460q0 36 17.5 65.5t47 47t65.5 17.5h460q35 0 65 -17.5t47.5 -47t17.5 -65.5v-460q0 -36 -17.5 -65.5t-47.5 -47t-65 -17.5h-460zM187 108h453q11 0 18 7.5t7 17.5v454q0 10 -7 17.5t-18 7.5
h-453q-10 0 -17.5 -7.5t-7.5 -17.5v-454q0 -10 7.5 -17.5t17.5 -7.5z" />
    <glyph glyph-name="Q.alt" horiz-adv-x="868" 
d="M359 -116v132h110v-132h-110zM184 0q-36 0 -65.5 17.5t-47 47t-17.5 65.5v460q0 36 17.5 65.5t47 47t65.5 17.5h460q35 0 65 -17.5t47.5 -47t17.5 -65.5v-460q0 -36 -17.5 -65.5t-47.5 -47t-65 -17.5h-460zM187 108h453q11 0 18 7.5t7 17.5v454q0 10 -7 17.5t-18 7.5
h-453q-10 0 -17.5 -7.5t-7.5 -17.5v-454q0 -10 7.5 -17.5t17.5 -7.5z" />
    <glyph glyph-name="R.alt" horiz-adv-x="826" 
d="M54 0v720l590 -1q36 0 65.5 -18t47 -47.5t17.5 -64.5v-202q0 -18 -9 -31.5t-22 -22.5t-26.5 -14.5t-22.5 -7.5q10 -2 23 -7.5t26 -14.5t22 -22.5t9 -31.5v-235h-109v233q0 9 -7 16.5t-18 7.5h-453q-10 0 -17.5 -7.5t-7.5 -16.5v-233h-108zM187 366h453q11 0 18 7t7 17
v196q0 10 -7 17.5t-18 7.5h-453q-10 0 -17.5 -7.5t-7.5 -17.5v-196q0 -10 7.5 -17t17.5 -7z" />
    <glyph glyph-name="S.alt" horiz-adv-x="812" 
d="M46 0v108h587q10 0 17 7.5t7 17.5v148q0 11 -7 17.5t-17 6.5h-457q-36 0 -65.5 18t-47 47.5t-17.5 65.5v154q0 36 17.5 65.5t47 47t65.5 17.5h590v-108h-587q-10 0 -17.5 -7.5t-7.5 -17.5v-148q0 -11 7.5 -17.5t17.5 -6.5h457q36 0 65.5 -18t47 -47.5t17.5 -65.5v-154
q0 -36 -17.5 -65.5t-47 -47t-65.5 -17.5h-590z" />
    <glyph glyph-name="V.alt" horiz-adv-x="774" 
d="M54 0v0v721h109v-577l483 576h125v-24l-589 -696h-128z" />
    <glyph glyph-name="W.alt" horiz-adv-x="1163" 
d="M60 0v0v720h109v-574l487 574h125v-20l-230 -269v-285l486 574h126v-20l-592 -700h-129v300l-252 -300h-130z" />
    <glyph glyph-name="X.alt" horiz-adv-x="829" 
d="M55 0v261q0 23 15 43.5t39.5 34.5t52.5 18q-28 4 -53 18t-40 35t-15 43v267h108v-284q0 -11 7.5 -17.5t17.5 -6.5h455q10 0 17.5 6.5t7.5 17.5v284h108v-267q0 -23 -15.5 -43.5t-40 -34.5t-53.5 -18q30 -4 54.5 -18t39 -34.5t14.5 -43.5v-261h-108v278q0 10 -7 17t-17 7
h-455q-10 0 -17 -7t-7 -17v-278h-108z" />
    <glyph glyph-name="Y.alt" horiz-adv-x="824" 
d="M51 0v0v108h586q11 0 18 7.5t7 17.5v148q0 11 -7 17.5t-18 6.5h-456q-36 0 -65.5 18t-47 47.5t-17.5 65.5v284h108v-281q0 -11 7.5 -17.5t17.5 -6.5h478v305h109v-590q0 -36 -17.5 -65.5t-47 -47t-65.5 -17.5h-590z" />
    <glyph glyph-name="Z.alt" horiz-adv-x="818" 
d="M179 0q-36 0 -65.5 17.5t-47 47t-17.5 65.5v154q0 36 17.5 65.5t47 47.5t65.5 18h457q10 0 17 6.5t7 17.5v148q0 10 -7 17.5t-17 7.5h-587v108h590q36 0 65.5 -17.5t47 -47t17.5 -65.5v-154q0 -36 -17.5 -65.5t-47 -47.5t-65.5 -18h-457q-10 0 -17.5 -6.5t-7.5 -17.5
v-148q0 -10 7.5 -17.5t17.5 -7.5h587v-108h-590z" />
    <glyph glyph-name="A.alt2" horiz-adv-x="774" 
d="M54 0v0v721h128l590 -702v-19h-126l-162 192h-321v-192h-109zM163 300v0h231l-231 271v-271z" />
    <glyph glyph-name="V.alt2" horiz-adv-x="774" 
d="M589 0v0l-589 700v20h126l483 -574v574h108v-720h-128z" />
    <glyph glyph-name="W.alt2" horiz-adv-x="1154" 
d="M593 0v0l-593 700v20h127l486 -573v284l-231 269v20h125l487 -574v574h109v-720h-129l-252 300v-300h-129z" />
    <glyph glyph-name="V.alt3" horiz-adv-x="827" 
d="M183 0q-36 0 -65.5 17.5t-47 47t-17.5 65.5v590h108v-587q0 -10 7.5 -17.5t17.5 -7.5h478v612h109v-720h-590v0z" />
    <glyph glyph-name="W.alt4" horiz-adv-x="1155" 
d="M183 0q-36 0 -65 17.5t-47 47t-18 65.5v590h109v-587q0 -10 7 -17.5t17 -7.5h348v612h109v-587q0 -10 7 -17.5t18 -7.5h324v612h109v-720h-918v0z" />
    <glyph glyph-name="a.alt" horiz-adv-x="693" 
d="M181 0q-36 0 -65 18t-47 47t-18 65v320q0 36 18 65t47 47t65 18h330q36 0 65.5 -17.5t47 -47.5t17.5 -65v-450h-460v0zM184 108h348v339q0 10 -7 17.5t-17 7.5h-324q-10 0 -17.5 -7.5t-7.5 -17.5v-314q0 -10 7.5 -17.5t17.5 -7.5z" />
    <glyph glyph-name="k.alt" horiz-adv-x="669" 
d="M54 0v0v763h108v-419h349q10 0 17.5 7.5t7.5 17.5v211h108v-214q0 -18 -8 -38t-20 -38q11 -18 19.5 -38t8.5 -38v-214h-108v211q0 10 -7.5 17.5t-17.5 7.5h-349v-236h-108z" />
    <glyph glyph-name="v.alt" horiz-adv-x="697" 
d="M183 0q-36 0 -65.5 18t-47 47t-17.5 65v450h108v-447q0 -10 7.5 -17.5t17.5 -7.5h349v472h108v-580h-460v0z" />
    <glyph glyph-name="w.alt" horiz-adv-x="978" 
d="M184 0q-37 0 -66 18t-47 47t-18 65v450h108v-447q0 -10 7.5 -17.5t17.5 -7.5h223q10 0 17.5 7.5t7.5 17.5v447h108v-447q0 -10 7.5 -17.5t17.5 -7.5h224q10 0 17.5 7.5t7.5 17.5v447h108v-580h-740v0z" />
    <glyph glyph-name="x.alt" horiz-adv-x="698" 
d="M54 0v0v214q0 18 8.5 38t19.5 38q-13 21 -20.5 39.5t-7.5 36.5v214h108v-211q0 -10 7.5 -17.5t17.5 -7.5h324q10 0 17.5 7.5t7.5 17.5v211h108v-214q0 -18 -8 -37t-20 -39q11 -18 19.5 -38t8.5 -38v-214h-108v211q0 10 -7.5 17.5t-17.5 7.5h-324q-10 0 -17.5 -7.5
t-7.5 -17.5v-211h-108z" />
    <glyph glyph-name="z.alt" 
d="M181 0q-36 0 -65 18t-47 47t-18 65v84q0 36 18 65.5t47 47t65 17.5h327q10 0 17 7.5t7 17.5v78q0 10 -7 17.5t-17 7.5h-457v108h460q36 0 65.5 -17.5t47 -47.5t17.5 -65v-84q0 -36 -17.5 -65.5t-47 -47t-65.5 -17.5h-327q-10 0 -17.5 -7.5t-7.5 -17.5v-78
q0 -10 7.5 -17.5t17.5 -7.5h457v-108h-460v0z" />
    <glyph glyph-name="a.sc" horiz-adv-x="725" 
d="M53 0v0v450q0 36 18 65t47.5 47t64.5 18h360q36 0 65.5 -18t47 -47t17.5 -65v-450h-108v152h-404v-152h-108zM161 261v0h404v186q0 10 -7.5 17.5t-17.5 7.5h-354q-10 0 -17.5 -7.5t-7.5 -17.5v-186z" />
    <glyph glyph-name="b.sc" horiz-adv-x="700" 
d="M54 0v0v581h440q36 0 65.5 -17.5t47 -47.5t17.5 -65v-88q0 -14 -3 -26.5t-7 -23.5q20 -29 30 -52.5t10 -49.5v-81q0 -36 -18 -65t-47.5 -47t-64.5 -18h-470zM187 108h334q10 0 17.5 7.5t7.5 17.5v79q0 10 -7.5 17.5t-17.5 7.5h-334q-10 0 -17.5 -7.5t-7.5 -17.5v-79
q0 -10 7.5 -17.5t17.5 -7.5zM187 341h304q10 0 17 7.5t7 17.5v86q0 10 -7 17.5t-17 7.5h-304q-10 0 -17.5 -7.5t-7.5 -17.5v-86q0 -10 7.5 -17.5t17.5 -7.5z" />
    <glyph glyph-name="c.sc" horiz-adv-x="693" 
d="M181 0q-36 0 -65.5 18t-47 47t-17.5 65v321q0 35 17.5 65t47 47.5t65.5 17.5h458v-108h-455q-10 0 -17.5 -7.5t-7.5 -17.5v-315q0 -10 7.5 -17.5t17.5 -7.5h455v-108h-458v0z" />
    <glyph glyph-name="d.sc" horiz-adv-x="705" 
d="M54 0v0v581h470q35 0 64.5 -18t47.5 -47.5t18 -64.5v-321q0 -36 -18 -65t-47.5 -47t-64.5 -18h-470zM187 108h334q10 0 17.5 7.5t7.5 17.5v315q0 10 -7.5 17.5t-17.5 7.5h-334q-10 0 -17.5 -7.5t-7.5 -17.5v-315q0 -10 7.5 -17.5t17.5 -7.5z" />
    <glyph glyph-name="e.sc" horiz-adv-x="638" 
d="M54 0v0v581h530v-108h-422v-129h314v-108h-314v-128h422v-108h-530z" />
    <glyph glyph-name="f.sc" horiz-adv-x="591" 
d="M54 0v0v581h530v-108h-422v-129h314v-108h-314v-236h-108z" />
    <glyph glyph-name="g.sc" horiz-adv-x="690" 
d="M181 0q-36 0 -65 18t-47 47t-18 65v321q0 35 17.5 65t47.5 47.5t65 17.5h330q36 0 65.5 -17.5t47 -47.5t17.5 -65v-21h-109v18q0 10 -7 17.5t-17 7.5h-324q-10 0 -17.5 -7.5t-7.5 -17.5v-315q0 -10 7.5 -17.5t17.5 -7.5h324q10 0 17 7.5t7 17.5v76h-166v105h275v-184
q0 -36 -17.5 -65t-47 -47t-65.5 -18h-330v0z" />
    <glyph glyph-name="h.sc" horiz-adv-x="716" 
d="M55 0v0v580h108v-236h390v236h109v-580h-109v236h-390v-236h-108z" />
    <glyph glyph-name="i.sc" horiz-adv-x="214" 
d="M54 0v0v580h108v-580h-108z" />
    <glyph glyph-name="j.sc" horiz-adv-x="657" 
d="M135 0q-35 0 -65 17.5t-47.5 47.5t-17.5 65v60h108v-57q0 -10 7.5 -17.5t17.5 -7.5h334q10 0 17.5 7.5t7.5 17.5v447h108v-450q0 -36 -17.5 -65t-47 -47t-65.5 -18h-340v0z" />
    <glyph glyph-name="k.sc" horiz-adv-x="682" 
d="M54 0v0v580h108v-236h130l217 236h124v-20l-245 -270l245 -270v-20h-124l-217 236h-130v-236h-108z" />
    <glyph glyph-name="l.sc" horiz-adv-x="659" 
d="M54 0v0v580h108v-472h492v-108h-600z" />
    <glyph glyph-name="m.sc" horiz-adv-x="824" 
d="M54 0v0v581h128l230 -328l228 328h130v-581h-108v445l-250 -355l-250 355v-445h-108z" />
    <glyph glyph-name="n.sc" horiz-adv-x="709" 
d="M54 0v0v580h128l364 -435v435h108v-580h-129l-363 436v-436h-108z" />
    <glyph glyph-name="o.sc" 
d="M181 0q-36 0 -65 18t-47 47t-18 65v320q0 36 18 65t47 47t65 18h330q36 0 65.5 -17.5t47 -47.5t17.5 -65v-320q0 -36 -17.5 -65t-47 -47t-65.5 -18h-330v0zM184 108h324q10 0 17 7.5t7 17.5v314q0 10 -7 17.5t-17 7.5h-324q-10 0 -17.5 -7.5t-7.5 -17.5v-314
q0 -10 7.5 -17.5t17.5 -7.5z" />
    <glyph glyph-name="p.sc" horiz-adv-x="660" 
d="M54 0v0v580h460q36 0 65.5 -18t47 -47t17.5 -65v-123q0 -36 -17.5 -65t-47 -47t-65.5 -18h-352v-197h-108zM187 305h324q10 0 17.5 7.5t7.5 17.5v117q0 10 -7.5 17.5t-17.5 7.5h-324q-10 0 -17.5 -7.5t-7.5 -17.5v-117q0 -10 7.5 -17.5t17.5 -7.5z" />
    <glyph glyph-name="q.sc" horiz-adv-x="770" 
d="M484 0l114 108h134v-108h-248zM181 0q-36 0 -65 18t-47 47t-18 65v320q0 36 18 65t47 47t65 18h330q36 0 65.5 -17.5t47 -47.5t17.5 -65v-320q0 -36 -17.5 -65t-47 -47t-65.5 -18h-330v0zM184 108h324q10 0 17 7.5t7 17.5v314q0 10 -7 17.5t-17 7.5h-324
q-10 0 -17.5 -7.5t-7.5 -17.5v-314q0 -10 7.5 -17.5t17.5 -7.5z" />
    <glyph glyph-name="r.sc" horiz-adv-x="700" 
d="M54 0v0v580h460q36 0 65.5 -18t47 -47t17.5 -65v-123q0 -35 -16.5 -64t-45 -47t-63.5 -19h-69l199 -177v-20h-123l-216 197h-148v-197h-108zM187 305h324q10 0 17 7.5t7 17.5v117q0 10 -7 17.5t-17 7.5h-324q-10 0 -17.5 -7.5t-7.5 -17.5v-117q0 -10 7.5 -17.5t17.5 -7.5
z" />
    <glyph glyph-name="s.sc" horiz-adv-x="687" 
d="M179 0q-36 0 -65 18t-47 47t-18 65v21h108v-18q0 -10 7.5 -17.5t17.5 -7.5h324q10 0 17 7.5t7 17.5v78q0 10 -7 17.5t-17 7.5h-327q-36 0 -65 17.5t-47 47t-18 65.5v84q0 36 18 65t47 47t65 18h330q36 0 65.5 -18t47 -47t17.5 -65v-21h-109v18q0 10 -7 17.5t-17 7.5h-324
q-10 0 -17.5 -7.5t-7.5 -17.5v-78q0 -10 7.5 -17.5t17.5 -7.5h327q36 0 65.5 -17.5t47 -47t17.5 -65.5v-84q0 -36 -17.5 -65t-47 -47t-65.5 -18h-330v0z" />
    <glyph glyph-name="t.sc" horiz-adv-x="644" 
d="M268 0v0v472h-246v108h600v-108h-246v-472h-108z" />
    <glyph glyph-name="u.sc" horiz-adv-x="695" 
d="M183 0q-36 0 -65.5 18t-47 47t-17.5 65v450h108v-447q0 -10 7.5 -17.5t17.5 -7.5h324q10 0 17.5 7.5t7.5 17.5v447h108v-450q0 -36 -17.5 -65t-47 -47t-65.5 -18h-330v0z" />
    <glyph glyph-name="v.sc" horiz-adv-x="801" 
d="M347 0v0l-326 580h126l254 -458l254 458h124l-324 -580h-108z" />
    <glyph glyph-name="w.sc" horiz-adv-x="1078" 
d="M266 0v0l-232 580h115l161 -385l171 385h115l181 -384l151 384h115l-222 -580h-88l-194 420l-185 -420h-88z" />
    <glyph glyph-name="x.sc" 
d="M46 0v0v19l226 277l-226 265v19h126l171 -200l171 200h126v-19l-226 -265l227 -277v-19h-126l-172 212l-171 -212h-126z" />
    <glyph glyph-name="y.sc" horiz-adv-x="688" 
d="M290 0v0v200l-272 380h127l199 -259l198 259h129l-272 -380v-200h-109z" />
    <glyph glyph-name="z.sc" horiz-adv-x="698" 
d="M54 0v0v128l446 344h-446v108h590v-128l-446 -344h446v-108h-590z" />
    <glyph glyph-name="two.alt" horiz-adv-x="815" 
d="M178 0q-46 0 -81.5 29.5t-46.5 72.5l-1 122l610 317v71h-476q-10 0 -17.5 -7.5t-7.5 -17.5v-52h-109v55q0 36 18 65.5t47.5 47t65.5 17.5h460q30 0 56.5 -14.5t45.5 -39.5t26 -54v-137l-610 -317v-50h610v-108h-590v0z" />
    <glyph glyph-name="four.alt" horiz-adv-x="723" 
d="M485 0v0v183h-476v108l366 429h108v-50l-343 -379h345v149h108v-149h106v-108h-106v-183h-108z" />
    <glyph glyph-name="seven.alt" horiz-adv-x="771" 
d="M49 0v0v19l498 593h-501v108h717v-20l-589 -700h-125z" />
    <glyph glyph-name="nine.alt" horiz-adv-x="784" 
d="M624 0v0v270q0 10 -7 17.5t-17 7.5h-457q-37 0 -66 17.5t-47 47t-18 64.5v164q0 37 18 66t47 47t66 18h460q35 0 64.5 -18t47 -47t17.5 -66v-588h-108zM146 403v0h478v182q0 10 -7 17.5t-17 7.5h-454q-10 0 -17.5 -7.5t-7.5 -17.5v-158q0 -10 7.5 -17t17.5 -7z" />
    <glyph glyph-name="question.alt" horiz-adv-x="667" 
d="M195 165v0v89q0 37 17.5 66t47 46.5t65.5 17.5h187q10 0 17.5 7.5t7.5 17.5v178q0 10 -7.5 17t-17.5 7h-377v-108h-108v109q6 29 24.5 53.5t45.5 39.5t58 15h360q35 0 64.5 -17.5t47.5 -47t18 -65.5v-184q0 -36 -18 -65.5t-47.5 -47t-64.5 -17.5h-187q-10 0 -17.5 -7.5
t-7.5 -17.5v-86h-108zM195 0v0v108h108v-108h-108z" />
    </font>
</defs>
</svg>
