<?xml version="1.0" standalone="no"?>
<!DOCTYPE svg PUBLIC "-//W3C//DTD SVG 1.1//EN" "http://www.w3.org/Graphics/SVG/1.1/DTD/svg11.dtd" >
<svg xmlns="http://www.w3.org/2000/svg" xmlns:xlink="http://www.w3.org/1999/xlink" version="1.1">
<metadata>
Created by FontForge 20201107 at Mon May  6 10:41:37 2024
 By 
Copyright 2019 (c) Paris 2024 Olympic and Paralympic Games
</metadata>
<defs>
<font id="Paris2024-Black" horiz-adv-x="1175" >
  <font-face 
    font-family="Paris2024 Black"
    font-weight="900"
    font-stretch="normal"
    units-per-em="2048"
    panose-1="2 1 10 3 3 2 1 2 1 3"
    ascent="1536"
    descent="-512"
    x-height="1004"
    cap-height="1331"
    bbox="-246 -545 2601 2013"
    underline-thickness="348"
    underline-position="-276"
    unicode-range="U+000D-F6C3"
  />
<missing-glyph horiz-adv-x="1204" 
d="M72 0v1331h1061v-1331h-1061zM485 410h234v512h-234v-512z" />
    <glyph glyph-name=".notdef" horiz-adv-x="1204" 
d="M72 0v1331h1061v-1331h-1061zM485 410h234v512h-234v-512z" />
    <glyph glyph-name=".null" horiz-adv-x="0" 
 />
    <glyph glyph-name=".null" horiz-adv-x="0" 
 />
    <glyph glyph-name="nonmarkingreturn" horiz-adv-x="682" 
 />
    <glyph glyph-name="CR" unicode="&#xd;" horiz-adv-x="0" 
 />
    <glyph glyph-name="space" unicode=" " horiz-adv-x="405" 
 />
    <glyph glyph-name="exclam" unicode="!" horiz-adv-x="528" 
d="M59 1331h410l-29 -856h-352zM264 -25q-91 0 -152 59t-61 148q0 88 60.5 147.5t152.5 59.5q91 0 152 -59t61 -148q0 -88 -60.5 -147.5t-152.5 -59.5z" />
    <glyph glyph-name="quotedbl" unicode="&#x22;" horiz-adv-x="970" 
d="M41 1331h393l-37 -624h-319zM537 1331h393l-37 -624h-320z" />
    <glyph glyph-name="numbersign" unicode="#" horiz-adv-x="1441" 
d="M528 256l-55 -256h-369l56 256h-129v328h198l39 178q-66 -14 -145 -14h-51v327h51q110 0 172.5 47t87.5 162l10 47h379l-10 -47q-24 -116 -74 -209h225l56 256h368l-55 -256h129v-327h-199l-38 -179q71 15 145 15h51v-328h-51q-110 0 -172.5 -47t-87.5 -162l-10 -47h-379
l10 47q24 116 74 209h-226zM596 563h205l45 205h-205z" />
    <glyph glyph-name="dollar" unicode="$" horiz-adv-x="1087" 
d="M1057 408q0 -152 -98.5 -267t-264.5 -151v-154h-307v160q-161 40 -255.5 153.5t-94.5 272.5h399q0 -51 30.5 -80t84.5 -29q47 0 76.5 23t29.5 57q0 33 -34 55.5t-89 38t-121 32.5t-132 46t-121 71t-89 115.5t-34 170.5q0 147 95.5 262.5t254.5 154.5v156h307v-160
q159 -40 251.5 -151.5t92.5 -268.5h-399q0 48 -30 75.5t-83 27.5q-39 0 -64.5 -21.5t-25.5 -52.5q0 -26 21 -45.5t57 -33t83 -25.5t98.5 -27.5t102.5 -35t98 -51.5t83 -73.5t57 -104t21 -140.5z" />
    <glyph glyph-name="percent" unicode="%" horiz-adv-x="1802" 
d="M391 655q-158 0 -264.5 101t-106.5 250q0 150 106 250t265 100t265 -100t106 -250q0 -149 -106.5 -250t-264.5 -101zM365 0l753 1331h320l-754 -1331h-319zM391 1130q-55 0 -90 -35t-35 -89q0 -53 35 -89t90 -36t90 36t35 89q0 54 -35 89t-90 35zM1411 -25
q-158 0 -264.5 101t-106.5 250q0 150 106 250t265 100t265 -100t106 -250q0 -149 -106.5 -250t-264.5 -101zM1411 451q-55 0 -90 -35.5t-35 -89.5q0 -53 35 -89t90 -36t90 36t35 89q0 54 -35 89.5t-90 35.5z" />
    <glyph glyph-name="ampersand" unicode="&#x26;" horiz-adv-x="1273" 
d="M1161 459q0 -220 -154 -352t-411 -132q-253 0 -409 129t-156 338q0 179 135 295q-51 77 -51 185q0 188 142 311t359 123q212 0 349 -129.5t137 -327.5h-365q0 52 -34 85.5t-87 33.5q-52 0 -84 -32t-32 -83q0 -11 4 -35q50 4 78 4h30v-307h-30q-62 0 -99 -29.5t-37 -80.5
q0 -60 44 -95.5t118 -35.5q78 0 126 37t48 98h-67v327h538v-327h-92z" />
    <glyph glyph-name="quotesingle" unicode="'" horiz-adv-x="475" 
d="M41 1331h393l-37 -624h-319z" />
    <glyph glyph-name="parenleft" unicode="(" horiz-adv-x="782" 
d="M752 -408l-35 7q-313 55 -499.5 301t-186.5 602t186.5 602t499.5 301l35 6v-348l-25 -8q-144 -48 -223.5 -191t-79.5 -362t79.5 -362t223.5 -191l25 -8v-349z" />
    <glyph glyph-name="parenright" unicode=")" horiz-adv-x="782" 
d="M31 -408v349l24 8q144 48 223.5 191t79.5 362t-79.5 362t-223.5 191l-24 8v348l35 -6q313 -55 499.5 -301t186.5 -602t-186.5 -602t-499.5 -301z" />
    <glyph glyph-name="asterisk" unicode="*" horiz-adv-x="856" 
d="M780 715l-227 -162l-125 207l-125 -207l-227 162l141 164l-207 47l90 272l201 -84l-18 217h290l-18 -217l201 84l90 -272l-207 -47z" />
    <glyph glyph-name="plus" unicode="+" horiz-adv-x="1019" 
d="M938 485h-270v-268h-316v268h-270v316h270v268h316v-268h270v-316z" />
    <glyph glyph-name="comma" unicode="," horiz-adv-x="528" 
d="M487 174q0 -160 -180 -455h-225q74 148 115 267q-70 20 -113 77t-43 130q0 93 64.5 155t158.5 62q97 0 160 -65t63 -171z" />
    <glyph glyph-name="hyphen" unicode="-" horiz-adv-x="757" 
d="M51 676h656v-348h-656v348z" />
    <glyph glyph-name="period" unicode="." horiz-adv-x="528" 
d="M264 -25q-93 0 -158 62.5t-65 155.5q0 92 64.5 154.5t158.5 62.5q93 0 158 -62t65 -155q0 -92 -64.5 -155t-158.5 -63z" />
    <glyph glyph-name="slash" unicode="/" horiz-adv-x="806" 
d="M389 1331h397l-368 -1638h-398z" />
    <glyph glyph-name="zero" unicode="0" horiz-adv-x="1507" 
d="M31 666q0 193 94.5 351t260.5 248.5t368 90.5t368 -90.5t260.5 -248.5t94.5 -351q0 -144 -55.5 -272.5t-151.5 -220t-230.5 -145t-285.5 -53.5t-285.5 53.5t-230.5 145t-151.5 220t-55.5 272.5zM455 666q0 -130 85.5 -218t213.5 -88t213.5 88t85.5 218t-85.5 217.5
t-213.5 87.5t-213.5 -87.5t-85.5 -217.5z" />
    <glyph glyph-name="one" unicode="1" horiz-adv-x="737" 
d="M666 1356v-1356h-408v825q-100 -24 -217 -30v379q324 38 625 182z" />
    <glyph glyph-name="two" unicode="2" horiz-adv-x="1107" 
d="M1077 369v-369h-1034l565 782q45 61 45 113q0 46 -32.5 77.5t-79.5 31.5q-51 0 -84 -31t-33 -78q0 -52 47 -90l-219 -303q-221 144 -221 383q0 133 66 241t183 169t261 61q218 0 362 -126.5t144 -318.5q0 -85 -31 -159.5t-115 -190.5l-137 -192h313z" />
    <glyph glyph-name="three" unicode="3" horiz-adv-x="1146" 
d="M1116 440q0 -206 -151 -335.5t-390 -129.5q-250 0 -400 135t-150 359h385q0 -63 41 -99t114 -36q68 0 106 32t38 85q0 51 -37.5 81.5t-100.5 30.5h-49v307h62q30 0 84 -4q6 18 6 37q0 51 -35 83t-92 32q-52 0 -85.5 -33t-33.5 -84h-375q0 197 139.5 326t354.5 129
q225 0 364.5 -116.5t139.5 -305.5q0 -118 -58 -207q123 -117 123 -287z" />
    <glyph glyph-name="four" unicode="4" horiz-adv-x="1124" 
d="M1059 1004v-1004h-397v106q0 46 -20.5 82t-55.5 60.5t-80 46.5t-94.5 45t-99.5 50t-95 68t-80 93t-55.5 130t-20.5 175v475h414v-454q0 -35 8 -62t18.5 -43.5t32 -32.5t37 -24t45.5 -22t46 -23v334h397z" />
    <glyph glyph-name="five" unicode="5" horiz-adv-x="1093" 
d="M1063 442q0 -201 -148 -334t-372 -133q-227 0 -375 134t-148 340h412q0 -44 32 -74.5t79 -30.5q50 0 80 27t30 71q0 100 -131 109l-456 37l116 743h768v-368h-469l-12 -76l106 -8q235 -19 361.5 -132t126.5 -305z" />
    <glyph glyph-name="six" unicode="6" horiz-adv-x="1189" 
d="M1159 504q0 -226 -160.5 -377.5t-404.5 -151.5q-156 0 -285.5 68.5t-203.5 188.5t-74 264q0 99 31 195t78.5 175.5t97 153t93.5 156t60 155.5h422q-11 -66 -40 -133.5t-53.5 -105.5t-66.5 -97q217 -8 361.5 -147t144.5 -344zM594 344q69 0 116.5 46.5t47.5 113.5
q0 66 -47.5 113t-116.5 47q-68 0 -115 -46.5t-47 -113.5q0 -66 47.5 -113t114.5 -47z" />
    <glyph glyph-name="seven" unicode="7" horiz-adv-x="1042" 
d="M1042 1331q-126 -324 -187 -527t-87 -366t-47 -438h-424q18 282 66 512t139 451h-461v368h1001z" />
    <glyph glyph-name="eight" unicode="8" horiz-adv-x="1155" 
d="M1130 412q0 -189 -156.5 -313t-395.5 -124t-396 124t-157 313q0 106 52.5 190t149.5 137q-112 92 -112 238q0 164 131 271.5t332 107.5t331.5 -107.5t130.5 -271.5q0 -144 -110 -240q96 -53 148 -136t52 -189zM578 836q46 0 77 29.5t31 72.5q0 44 -31 74t-77 30
t-77.5 -30t-31.5 -74q0 -43 31.5 -72.5t77.5 -29.5zM578 309q63 0 105 40t42 100t-42 98.5t-105 38.5t-105.5 -38.5t-42.5 -98.5t42.5 -100t105.5 -40z" />
    <glyph glyph-name="nine" unicode="9" horiz-adv-x="1189" 
d="M1159 836q0 -99 -31 -195t-78.5 -175.5t-97 -153.5t-93.5 -156.5t-60 -155.5h-422q11 66 40 133.5t53.5 105.5t66.5 97q-217 8 -361.5 147t-144.5 344q0 226 160.5 377.5t404.5 151.5q156 0 285.5 -68.5t203.5 -188t74 -263.5zM596 987q-69 0 -116.5 -46.5t-47.5 -113.5
q0 -66 47.5 -112.5t116.5 -46.5q68 0 115 46t47 113q0 66 -47.5 113t-114.5 47z" />
    <glyph glyph-name="colon" unicode=":" horiz-adv-x="528" 
d="M264 -25q-93 0 -158 62.5t-65 155.5q0 92 64.5 154.5t158.5 62.5q93 0 158 -62t65 -155q0 -92 -64.5 -155t-158.5 -63zM264 594q-93 0 -158 62t-65 155q0 92 64.5 154.5t158.5 62.5q93 0 158 -62t65 -155q0 -92 -64.5 -154.5t-158.5 -62.5z" />
    <glyph glyph-name="semicolon" unicode=";" horiz-adv-x="528" 
d="M487 174q0 -160 -180 -455h-225q74 148 115 267q-70 20 -113 77t-43 130q0 93 64.5 155t158.5 62q97 0 160 -65t63 -171zM264 594q-93 0 -158 62t-65 155q0 92 64.5 154.5t158.5 62.5q93 0 158 -62t65 -155q0 -92 -64.5 -154.5t-158.5 -62.5z" />
    <glyph glyph-name="less" unicode="&#x3c;" horiz-adv-x="1019" 
d="M918 502v-379l-816 326v395l816 325v-374l-437 -146z" />
    <glyph glyph-name="equal" unicode="=" horiz-adv-x="1019" 
d="M82 569h856v-313h-856v313zM82 1030h856v-313h-856v313z" />
    <glyph glyph-name="greater" unicode="&#x3e;" horiz-adv-x="1019" 
d="M918 446l-816 -325v375l437 147l-437 145v379l816 -325v-396z" />
    <glyph glyph-name="question" unicode="?" horiz-adv-x="1095" 
d="M1055 940q0 -140 -83.5 -233t-236.5 -129l-4 -103h-352l-10 348h174q59 0 91 27t32 76q0 46 -34 74t-89 28t-89 -30t-34 -78h-389q0 195 141.5 315.5t370.5 120.5t370.5 -115t141.5 -301zM555 -25q-91 0 -152 59t-61 148q0 88 60.5 147.5t152.5 59.5q91 0 152 -59
t61 -148q0 -88 -60.5 -147.5t-152.5 -59.5z" />
    <glyph glyph-name="at" unicode="@" horiz-adv-x="1714" 
d="M1047 -147v-273h-160q-179 0 -336.5 58.5t-269 160t-176 244t-64.5 305.5q0 175 64.5 328t176.5 261.5t269 171t336 62.5q226 0 405.5 -92.5t280 -257t100.5 -370.5q0 -217 -106.5 -344t-286.5 -127q-163 0 -258 86q-82 -91 -205 -91q-152 0 -254 108.5t-102 268.5
q0 180 122 290t322 110h307v-396q0 -102 80 -102q47 0 67.5 44t20.5 148q0 206 -134.5 329.5t-358.5 123.5q-243 0 -398 -154.5t-155 -396.5q0 -218 155 -356.5t398 -138.5h160zM877 238q28 0 49 6q-11 64 -11 112v133h-26q-60 0 -97.5 -35.5t-37.5 -93.5q0 -55 33.5 -88.5
t89.5 -33.5z" />
    <glyph glyph-name="A" unicode="A" 
d="M465 262v-262h-404v831q0 238 144.5 381.5t382.5 143.5t382 -143.5t144 -381.5v-831h-403v20q0 112 -66 177t-180 65zM465 625q142 0 246 -66v275q0 58 -33.5 93.5t-89.5 35.5t-89.5 -35.5t-33.5 -93.5v-209z" />
    <glyph glyph-name="B" unicode="B" horiz-adv-x="1196" 
d="M1171 403q0 -180 -130 -291.5t-339 -111.5h-630v1331h528q219 0 337 -97.5t118 -258.5q0 -158 -127 -258q119 -41 181 -121.5t62 -192.5zM475 1004v-76q0 -58 29 -88.5t78 -30.5t76.5 28t27.5 70q0 41 -28 69t-76 28h-107zM475 328h160q125 3 125 102q0 79 -125 100
q-92 15 -160 50v-252z" />
    <glyph glyph-name="C" unicode="C" horiz-adv-x="1495" 
d="M1044 586h420q-19 -175 -117 -314.5t-253.5 -218t-339.5 -78.5q-151 0 -285.5 53.5t-230.5 145t-151.5 220t-55.5 272.5q0 193 94.5 351t260.5 248.5t368 90.5q270 0 467 -161.5t237 -414.5h-424q-35 88 -110 139.5t-170 51.5q-129 0 -214 -87t-85 -218t85 -218.5
t214 -87.5q107 0 186 62t104 164z" />
    <glyph glyph-name="D" unicode="D" horiz-adv-x="1208" 
d="M72 0v1331h342q221 0 395 -82.5t271.5 -234t97.5 -348.5q0 -148 -57 -273t-157.5 -211t-242 -134t-307.5 -48h-342zM485 936h-4v-541h4q119 0 194 76t75 195t-74.5 194.5t-194.5 75.5z" />
    <glyph glyph-name="E" unicode="E" horiz-adv-x="946" 
d="M895 354v-354h-823v1331h823v-354h-430v-246q133 111 338 111h41v-348h-62q-105 0 -182.5 -37t-114.5 -103h410z" />
    <glyph glyph-name="F" unicode="F" horiz-adv-x="917" 
d="M481 123v-123h-409v1331h800v-358h-391v-297q125 104 322 104h18v-348h-39q-146 0 -223.5 -80t-77.5 -229z" />
    <glyph glyph-name="G" unicode="G" horiz-adv-x="1529" 
d="M1098 0v152q-141 -177 -398 -177q-141 0 -265 53.5t-212.5 145t-140 220t-51.5 272.5q0 193 94.5 351t260.5 248.5t368 90.5q273 0 470 -161t238 -415h-424q-34 88 -110.5 139.5t-173.5 51.5q-129 0 -214 -87t-85 -218t85 -218.5t214 -87.5q105 0 185 63t105 163h424
v-586h-370z" />
    <glyph glyph-name="H" unicode="H" horiz-adv-x="1204" 
d="M485 164v-164h-413v1331h413v-602q102 66 234 78v524h414v-1331h-414v406q-108 0 -171 -65t-63 -177z" />
    <glyph glyph-name="I" unicode="I" horiz-adv-x="557" 
d="M485 0h-413v1331h413v-1331z" />
    <glyph glyph-name="J" unicode="J" horiz-adv-x="727" 
d="M666 514q0 -245 -147 -379.5t-413 -134.5h-55v379h55q75 0 114.5 32t39.5 93v459h-209v368h615v-817z" />
    <glyph glyph-name="K" unicode="K" horiz-adv-x="1228" 
d="M481 133v-133h-409v1331h409v-706l295 706h432l-319 -725q139 -50 217 -165.5t78 -278.5v-162h-420v133q0 74 -37.5 116t-103.5 42q-65 0 -103.5 -42.5t-38.5 -115.5z" />
    <glyph glyph-name="L" unicode="L" horiz-adv-x="886" 
d="M846 0h-774v1331h413v-962h361v-369z" />
    <glyph glyph-name="M" unicode="M" horiz-adv-x="1654" 
d="M631 721q0 76 -38 120.5t-112 53.5v-895h-409v1331h194q370 0 561 -188q191 188 562 188h194v-1331h-409v895q-75 -9 -112.5 -50.5t-37.5 -123.5v-373h-393v373z" />
    <glyph glyph-name="N" unicode="N" horiz-adv-x="1204" 
d="M719 0v260q-150 144 -242 293v-553h-405v1331h387q91 -310 268 -543v543h406v-1331h-414z" />
    <glyph glyph-name="O" unicode="O" horiz-adv-x="1507" 
d="M31 666q0 193 94.5 351t260.5 248.5t368 90.5t368 -90.5t260.5 -248.5t94.5 -351q0 -144 -55.5 -272.5t-151.5 -220t-230.5 -145t-285.5 -53.5t-285.5 53.5t-230.5 145t-151.5 220t-55.5 272.5zM455 666q0 -130 85.5 -218t213.5 -88t213.5 88t85.5 218t-85.5 217.5
t-213.5 87.5t-213.5 -87.5t-85.5 -217.5z" />
    <glyph glyph-name="P" unicode="P" horiz-adv-x="1159" 
d="M72 0v1331h499q251 0 407.5 -131.5t156.5 -335.5q0 -85 -22.5 -155.5t-60 -120.5t-87 -91.5t-103.5 -73.5t-108 -61.5t-103.5 -60t-87 -65t-60 -81t-22.5 -102.5v-53h-409zM481 618q28 19 69 42.5t66.5 39t51 36.5t37.5 46.5t12 57.5q0 50 -34 81t-93 31h-109v-334z" />
    <glyph glyph-name="Q" unicode="Q" horiz-adv-x="1531" 
d="M1133 0v94q-155 -119 -379 -119q-151 0 -285.5 53.5t-230.5 145t-151.5 220t-55.5 272.5q0 193 94.5 351t260.5 248.5t368 90.5t368 -90.5t260.5 -248.5t94.5 -351q0 -158 -64 -289q119 -125 119 -324v-53h-399zM455 666q0 -114 67 -196.5t172 -102.5q56 73 141.5 114
t184.5 41q33 71 33 144q0 130 -85.5 217.5t-213.5 87.5t-213.5 -87.5t-85.5 -217.5z" />
    <glyph glyph-name="R" unicode="R" horiz-adv-x="1216" 
d="M72 0v1331h471q265 0 424 -119.5t159 -316.5q0 -130 -54.5 -218.5t-149.5 -154.5q127 -59 195.5 -170t68.5 -262v-90h-430v121q0 66 -37.5 103.5t-100.5 37.5t-100 -37.5t-37 -103.5v-121h-409zM481 952v-360q33 31 99 71.5t97.5 76t31.5 91.5t-41 88.5t-115 32.5h-72z
" />
    <glyph glyph-name="S" unicode="S" horiz-adv-x="1087" 
d="M557 -25q-232 0 -376 124t-144 323h399q0 -51 30.5 -80t84.5 -29q47 0 76.5 23t29.5 57q0 33 -34 55.5t-89 38t-121 32.5t-132 46t-121 71t-89 115.5t-34 170.5q0 178 137.5 306t351.5 128q229 0 370.5 -122t141.5 -319h-399q0 48 -30 75.5t-83 27.5q-39 0 -64.5 -21.5
t-25.5 -52.5q0 -26 21 -45.5t57 -33t83 -25.5t98.5 -27.5t102.5 -35t98 -51.5t83 -73.5t57 -104t21 -140.5q0 -184 -139 -308.5t-361 -124.5z" />
    <glyph glyph-name="T" unicode="T" horiz-adv-x="1011" 
d="M971 946q-178 31 -260 37v-983h-410v981q-108 -7 -260 -35v367q193 43 465 43q266 0 465 -43v-367z" />
    <glyph glyph-name="U" unicode="U" horiz-adv-x="1183" 
d="M592 375q54 0 85.5 34t31.5 93v829h413v-829q0 -242 -143 -384.5t-387 -142.5t-387.5 142.5t-143.5 384.5v829h414v-829q0 -59 31.5 -93t85.5 -34z" />
    <glyph glyph-name="V" unicode="V" horiz-adv-x="1185" 
d="M1075 625q-41 -314 -230 -469.5t-509 -155.5h-264v1331h413v-915q79 10 122 61t55 148l90 706h413z" />
    <glyph glyph-name="W" unicode="W" horiz-adv-x="1726" 
d="M750 0v160q-144 -160 -390 -160h-288v1331h411v-919q91 11 138 68.5t47 158.5v692h393v-913q68 15 104 65.5t47 143.5l80 704h414l-80 -704q-36 -315 -226.5 -471t-512.5 -156h-137z" />
    <glyph glyph-name="X" unicode="X" horiz-adv-x="1146" 
d="M696 0l-123 487l-137 -487h-436l223 711l-211 620h426l142 -438l143 438h412l-211 -620l223 -711h-451z" />
    <glyph glyph-name="Y" unicode="Y" horiz-adv-x="1169" 
d="M1159 1331l-336 -1331h-430l86 324q-198 38 -318 190t-120 385q0 215 68 432h397q-64 -253 -64 -416q0 -94 38 -149.5t100 -63.5l168 629h411z" />
    <glyph glyph-name="Z" unicode="Z" horiz-adv-x="1040" 
d="M1010 369v-369h-979l397 963h-387v368h979l-395 -962h385z" />
    <glyph glyph-name="bracketleft" unicode="[" horiz-adv-x="710" 
d="M72 -410v1823h598v-323h-197v-1176h197v-324h-598z" />
    <glyph glyph-name="backslash" unicode="\" horiz-adv-x="806" 
d="M786 -307h-397l-369 1638h398z" />
    <glyph glyph-name="bracketright" unicode="]" horiz-adv-x="710" 
d="M639 -410h-598v324h197v1176h-197v323h598v-1823z" />
    <glyph glyph-name="asciicircum" unicode="^" horiz-adv-x="1187" 
d="M725 328l-135 352l-137 -352h-392l326 716h414l325 -716h-401z" />
    <glyph glyph-name="underscore" unicode="_" horiz-adv-x="901" 
d="M20 -102h861v-349h-861v349z" />
    <glyph glyph-name="grave" unicode="`" horiz-adv-x="1024" 
d="M668 1098h-306l-227 364h402z" />
    <glyph glyph-name="a" unicode="a" horiz-adv-x="1069" 
d="M657 0v72q-94 -97 -264 -97q-156 0 -259 89.5t-103 224.5q0 141 100 224t272 83q128 0 213 -51v94q0 38 -22 60t-62 22q-35 0 -59 -18t-24 -46h-369q0 158 129.5 264.5t322.5 106.5q226 0 353 -119.5t127 -333.5v-575h-355zM506 215q47 0 78.5 26t31.5 64t-31.5 64
t-78.5 26q-46 0 -78.5 -26t-32.5 -64t32 -64t79 -26z" />
    <glyph glyph-name="b" unicode="b" horiz-adv-x="1153" 
d="M1122 528q0 -235 -159.5 -381.5t-427.5 -146.5h-474v1331h400v-354q80 51 190 51q130 0 237.5 -64.5t170.5 -179.5t63 -256zM571 678q-55 0 -110 -25v-303h94q81 0 129.5 47t48.5 121q0 69 -44.5 114.5t-117.5 45.5z" />
    <glyph glyph-name="c" unicode="c" horiz-adv-x="1153" 
d="M741 446h387q-19 -209 -170 -340t-372 -131q-154 0 -281.5 69t-200.5 190t-73 268t73 268t200.5 189.5t281.5 68.5q215 0 368.5 -131t173.5 -332h-387q-18 47 -59.5 76t-95.5 29q-71 0 -118.5 -49t-47.5 -119t47.5 -119t118.5 -49q113 0 155 112z" />
    <glyph glyph-name="d" unicode="d" horiz-adv-x="1153" 
d="M1092 1331v-1331h-474q-268 0 -427.5 146.5t-159.5 381.5q0 141 63 256t170.5 179.5t237.5 64.5q110 0 190 -51v354h400zM598 350h94v303q-49 25 -110 25q-73 0 -117.5 -45.5t-44.5 -114.5q0 -74 48.5 -121t129.5 -47z" />
    <glyph glyph-name="e" unicode="e" horiz-adv-x="1153" 
d="M1116 336q-42 -156 -188.5 -258.5t-337.5 -102.5q-129 0 -235.5 41.5t-176.5 113.5t-108.5 168.5t-38.5 207.5q0 147 68.5 265.5t194.5 187.5t286 69q239 0 390.5 -149t151.5 -377v-80h-698q6 -67 52 -106.5t114 -39.5q91 0 145 60h381zM582 745q-59 0 -102.5 -35.5
t-53.5 -93.5h309q-10 58 -53 93.5t-100 35.5z" />
    <glyph glyph-name="f" unicode="f" horiz-adv-x="792" 
d="M459 209v-209h-398v903q0 204 115 316t324 112h241v-342h-190q-94 0 -94 -94v-160q104 90 266 90h18v-348h-39q-118 0 -180.5 -68.5t-62.5 -199.5z" />
    <glyph glyph-name="g" unicode="g" horiz-adv-x="1134" 
d="M1065 41q0 -148 -107.5 -248t-265.5 -100h-610v348h526q78 0 78 61q0 62 -78 62h-78q-218 0 -358.5 121.5t-140.5 310.5q0 186 139 309t350 123q92 0 174 -24h410v-287l-154 8q70 -73 70 -180q0 -130 -102 -232q70 -46 108.5 -116.5t38.5 -155.5zM692 596q0 63 -42.5 104
t-108.5 41t-109 -41t-43 -104t43 -104t109 -41t108.5 41t42.5 104z" />
    <glyph glyph-name="h" unicode="h" horiz-adv-x="1091" 
d="M461 557v-557h-400v1331h400v-395q92 92 235 92q151 0 243.5 -111t92.5 -292v-625h-399v557q0 42 -23.5 67t-62.5 25t-62.5 -25t-23.5 -67z" />
    <glyph glyph-name="i" unicode="i" horiz-adv-x="522" 
d="M262 1077q-97 0 -157 57t-60 146t59.5 146t157.5 57q97 0 156 -57t59 -146t-59 -146t-156 -57zM61 1004h400v-1004h-400v1004z" />
    <glyph glyph-name="j" unicode="j" horiz-adv-x="522" 
d="M262 1077q-97 0 -157 57t-60 146t59.5 146t157.5 57q97 0 156 -57t59 -146t-59 -146t-156 -57zM61 1004h400v-924q0 -185 -109.5 -286t-308.5 -101h-72v348h29q61 0 61 59v904z" />
    <glyph glyph-name="k" unicode="k" horiz-adv-x="1087" 
d="M461 186v-186h-400v1331h400v-717l194 390h408l-238 -451q219 -80 219 -373v-180h-399v186q0 43 -25.5 70t-66.5 27t-66.5 -27t-25.5 -70z" />
    <glyph glyph-name="l" unicode="l" horiz-adv-x="585" 
d="M555 0h-84q-199 0 -308.5 96t-109.5 271v964h400v-923q0 -60 61 -60h41v-348z" />
    <glyph glyph-name="m" unicode="m" horiz-adv-x="1622" 
d="M461 563v-563h-400v1004h359v-113q43 65 110.5 101t149.5 36q169 0 258 -135q97 135 264 135q173 0 267 -112.5t94 -321.5v-594h-400v563q0 38 -21 62t-55 24t-54.5 -24t-20.5 -62v-563h-400v563q0 38 -20.5 62t-54.5 24t-55 -24t-21 -62z" />
    <glyph glyph-name="n" unicode="n" horiz-adv-x="1091" 
d="M461 557v-557h-400v1004h359v-119q97 143 276 143q151 0 243.5 -111t92.5 -292v-625h-399v557q0 42 -23.5 67t-62.5 25t-62.5 -25t-23.5 -67z" />
    <glyph glyph-name="o" unicode="o" 
d="M588 -25q-236 0 -396.5 151.5t-160.5 375.5q0 147 73 268t201 189.5t283 68.5t283 -68.5t201 -189.5t73 -268q0 -224 -160.5 -375.5t-396.5 -151.5zM588 670q-70 0 -119 -49t-49 -119t49 -119t119 -49t119 49t49 119t-49 119t-119 49z" />
    <glyph glyph-name="p" unicode="p" horiz-adv-x="1153" 
d="M651 -25q-108 0 -190 52v-334h-400v1311h474q268 0 427.5 -147t159.5 -382q0 -141 -63 -256t-170.5 -179.5t-237.5 -64.5zM555 653h-94v-303q47 -24 110 -24q74 0 118 45t44 114q0 74 -48.5 121t-129.5 47z" />
    <glyph glyph-name="q" unicode="q" horiz-adv-x="1153" 
d="M1092 1004v-1311h-400v334q-82 -52 -190 -52q-130 0 -237.5 64.5t-170.5 179.5t-63 256q0 235 159.5 382t427.5 147h474zM582 326q63 0 110 24v303h-94q-81 0 -129.5 -47t-48.5 -121q0 -69 44 -114t118 -45z" />
    <glyph glyph-name="r" unicode="r" horiz-adv-x="772" 
d="M461 547v-547h-400v1004h359v-117q94 141 270 141h41v-369h-158q-54 0 -83 -29t-29 -83z" />
    <glyph glyph-name="s" unicode="s" horiz-adv-x="937" 
d="M72 0v297h417q33 0 33 22q0 15 -26.5 24t-69 15.5t-93.5 15.5t-102.5 30.5t-94 53.5t-69 90t-26.5 136q0 142 107.5 231t279.5 89h422v-297h-399q-27 0 -27 -23q0 -14 26.5 -22.5t69 -14.5t93.5 -14t102.5 -28t94 -51t69 -87.5t26.5 -132.5q0 -145 -111.5 -239.5
t-304.5 -94.5h-417z" />
    <glyph glyph-name="t" unicode="t" horiz-adv-x="751" 
d="M700 348v-348h-211q-209 0 -323.5 104t-114.5 293v770l400 88v-251h249v-349h-249v-231q0 -40 21 -58t65 -18h163z" />
    <glyph glyph-name="u" unicode="u" horiz-adv-x="1077" 
d="M57 1004h400v-584q0 -39 22.5 -62.5t59.5 -23.5t59.5 23.5t22.5 62.5v584h399v-564q0 -217 -128.5 -341t-352.5 -124t-353 124t-129 341v564z" />
    <glyph glyph-name="v" unicode="v" horiz-adv-x="1064" 
d="M61 0v1004h398v-656h24q51 0 75 23.5t30 79.5l59 553h397l-63 -553q-26 -229 -149 -340t-351 -111h-420z" />
    <glyph glyph-name="w" unicode="w" horiz-adv-x="1597" 
d="M61 0v1004h398v-656h39q55 0 84 29q28 28 28 82v545h385v-656h21q51 0 74.5 23.5t29.5 79.5l60 553h397l-64 -553q-26 -229 -148.5 -340t-350.5 -111h-332v109q-56 -52 -131 -78q-85 -31 -197 -31h-293z" />
    <glyph glyph-name="x" unicode="x" horiz-adv-x="1040" 
d="M629 0l-111 348l-98 -348h-410l195 528l-189 476h381l121 -320l111 320h395l-190 -478l196 -526h-401z" />
    <glyph glyph-name="y" unicode="y" horiz-adv-x="1101" 
d="M1092 1004l-340 -1311h-414l82 307q-174 51 -276.5 196.5t-102.5 358.5q0 227 74 449h393q-74 -249 -74 -431q0 -149 88 -188l164 619h406z" />
    <glyph glyph-name="z" unicode="z" horiz-adv-x="931" 
d="M881 348v-348h-850l317 655h-307v349h866l-315 -656h289z" />
    <glyph glyph-name="braceleft" unicode="{" horiz-adv-x="831" 
d="M791 -86v-324h-175q-196 0 -309.5 108t-113.5 294v258q0 35 -21 54.5t-59 19.5h-72v356h72q38 0 59 19.5t21 54.5v258q0 186 113.5 293.5t309.5 107.5h175v-323h-115q-41 0 -63.5 -19.5t-22.5 -54.5v-262q0 -87 -45 -153.5t-131 -98.5q85 -31 130.5 -98.5t45.5 -153.5
v-262q0 -35 22.5 -54.5t63.5 -19.5h115z" />
    <glyph glyph-name="bar" unicode="|" horiz-adv-x="552" 
d="M72 1331h409v-1638h-409v1638z" />
    <glyph glyph-name="braceright" unicode="}" horiz-adv-x="831" 
d="M639 -8q0 -186 -114 -294t-310 -108h-174v324h115q41 0 63.5 19.5t22.5 54.5v262q0 86 45.5 153.5t130.5 98.5q-86 32 -131 98.5t-45 153.5v262q0 35 -22.5 54.5t-63.5 19.5h-115v323h174q197 0 310.5 -107.5t113.5 -293.5v-258q0 -35 21 -54.5t59 -19.5h72v-356h-72
q-38 0 -59 -19.5t-21 -54.5v-258z" />
    <glyph glyph-name="asciitilde" unicode="~" horiz-adv-x="1019" 
d="M750 764q105 0 188 41v-316q-81 -40 -188 -40q-98 0 -257.5 36.5t-222.5 36.5q-81 0 -188 -41v316q107 41 188 41q97 0 255.5 -37t224.5 -37z" />
    <glyph glyph-name="uni00A0" unicode="&#xa0;" horiz-adv-x="405" 
 />
    <glyph glyph-name="exclamdown" unicode="&#xa1;" horiz-adv-x="528" 
d="M264 1028q92 0 152.5 -59.5t60.5 -147.5q0 -89 -61 -148t-152 -59q-92 0 -152.5 59.5t-60.5 147.5q0 89 61 148t152 59zM469 -328h-410l29 856h352z" />
    <glyph glyph-name="cent" unicode="&#xa2;" horiz-adv-x="1153" 
d="M1128 600q-15 -170 -121 -291.5t-272 -161.5v-147h-307v150q-177 46 -287 184t-110 321t110 321.5t287 184.5v170h307v-168q161 -42 268.5 -161.5t124.5 -282.5h-387q-18 47 -59.5 75.5t-95.5 28.5q-71 0 -118.5 -49t-47.5 -119t47.5 -119t118.5 -49q113 0 155 113h387z
" />
    <glyph glyph-name="sterling" unicode="&#xa3;" horiz-adv-x="1007" 
d="M956 354v-354h-905v354h10q50 0 76.5 27.5t26.5 77.5v22h-113v267h113v165q0 188 116.5 303t321.5 115h334v-354h-291q-38 0 -60 -22t-22 -62v-145h322v-267h-326q-12 -71 -65 -127h462z" />
    <glyph glyph-name="currency" unicode="&#xa4;" horiz-adv-x="1351" 
d="M1341 264l-264 -264l-182 201q-98 -43 -219 -43t-219 43l-183 -201l-264 264l187 170q-56 109 -56 230q0 123 58 233l-189 170l264 264l185 -203q100 41 217 41t217 -41l184 203l264 -264l-188 -172q57 -105 57 -231q0 -123 -55 -230zM676 496q69 0 117.5 49.5
t48.5 118.5t-48.5 118t-117.5 49t-117.5 -49t-48.5 -118t48.5 -118.5t117.5 -49.5z" />
    <glyph glyph-name="yen" unicode="&#xa5;" horiz-adv-x="1112" 
d="M1051 252h-289v-252h-412v252h-289v266h289v82h-289v266h162l-203 465h422l117 -393l119 393h414l-205 -465h164v-266h-289v-82h289v-266z" />
    <glyph glyph-name="brokenbar" unicode="&#xa6;" horiz-adv-x="552" 
d="M72 1331h409v-764h-409v764zM72 457h409v-764h-409v764z" />
    <glyph glyph-name="section" unicode="&#xa7;" horiz-adv-x="1028" 
d="M956 37q0 -149 -104.5 -246.5t-269.5 -97.5h-480v327h420q35 0 35 31q0 18 -40 34t-99.5 29t-129 39t-129 60.5t-99.5 99t-40 148.5q0 83 52.5 161t150.5 119q-151 94 -151 269q0 139 106.5 230t274.5 91h432v-327h-379q-16 0 -25.5 -9t-9.5 -22q0 -18 23 -32.5t61 -26
t86 -26.5t98.5 -31.5t98.5 -44t86 -61.5t61 -86.5t23 -115.5q0 -79 -41.5 -153.5t-120.5 -119.5q110 -96 110 -239zM514 412q38 0 66 26.5t28 63.5t-28 63.5t-66 26.5t-66 -26.5t-28 -63.5t28 -63.5t66 -26.5z" />
    <glyph glyph-name="dieresis" unicode="&#xa8;" horiz-adv-x="1024" 
d="M291 1087q-82 0 -135.5 52t-53.5 129q0 80 52.5 132t136.5 52q82 0 135 -51.5t53 -128.5q0 -79 -52.5 -132t-135.5 -53zM733 1087q-82 0 -135 52t-53 129q0 80 52 132t136 52q83 0 136 -51.5t53 -128.5q0 -79 -52.5 -132t-136.5 -53z" />
    <glyph glyph-name="copyright" unicode="&#xa9;" horiz-adv-x="1507" 
d="M754 -25q-151 0 -285.5 53.5t-230.5 145t-151.5 220t-55.5 272.5q0 193 94.5 351t260.5 248.5t368 90.5t368 -90.5t260.5 -248.5t94.5 -351q0 -144 -55.5 -272.5t-151.5 -220t-230.5 -145t-285.5 -53.5zM754 180q138 0 252.5 64t179.5 175.5t65 246.5q0 101 -38.5 191
t-104.5 154.5t-158 102t-196 37.5q-211 0 -354.5 -140t-143.5 -345q0 -135 65.5 -246.5t180 -175.5t252.5 -64zM760 303q-159 0 -268 105t-109 258q0 152 109.5 257t267.5 105q145 0 246 -88t120 -229h-260q-32 71 -106 71q-48 0 -80.5 -33t-32.5 -83q0 -51 32.5 -84
t80.5 -33q74 0 106 59h260q-17 -138 -117 -221.5t-249 -83.5z" />
    <glyph glyph-name="ordfeminine" unicode="&#xaa;" horiz-adv-x="823" 
d="M508 549v72q-70 -86 -213 -86q-116 0 -195.5 69.5t-79.5 169.5q0 108 77 172t206 64q101 0 162 -37v71q0 31 -19.5 50.5t-54.5 19.5q-29 0 -49.5 -15.5t-26.5 -41.5h-266q0 121 97.5 206t256.5 85q168 0 268.5 -93.5t100.5 -253.5v-452h-264zM381 729q40 0 62 18t22 46
q0 27 -22 45t-62 18t-62 -18t-22 -45q0 -28 22 -46t62 -18z" />
    <glyph glyph-name="guillemotleft" unicode="&#xab;" horiz-adv-x="1290" 
d="M680 903l-238 -387l254 -416h-430l-241 402l241 401h414zM1237 901l-238 -387l254 -416h-430l-241 402l241 401h414z" />
    <glyph glyph-name="logicalnot" unicode="&#xac;" horiz-adv-x="1019" 
d="M82 801h856v-584h-317v268h-539v316z" />
    <glyph glyph-name="uni00AD" unicode="&#xad;" horiz-adv-x="0" 
 />
    <glyph glyph-name="registered" unicode="&#xae;" horiz-adv-x="942" 
d="M471 483q-194 0 -322.5 125t-128.5 312t128.5 311.5t322.5 124.5t322.5 -124.5t128.5 -311.5t-128.5 -312t-322.5 -125zM471 1229q-138 0 -226.5 -86.5t-88.5 -222.5t88.5 -223t226.5 -87t226.5 87t88.5 223t-88.5 222.5t-226.5 86.5zM442 737v-35h-141v439h172
q85 0 134.5 -39.5t49.5 -100.5q0 -78 -69 -129q90 -39 90 -145v-25h-143v35q0 23 -12.5 35t-33.5 12q-47 0 -47 -47zM473 1012h-31v-117q11 11 32 25.5t30.5 26.5t9.5 30q0 35 -41 35z" />
    <glyph glyph-name="macron" unicode="&#xaf;" horiz-adv-x="1024" 
d="M209 1376h606v-278h-606v278z" />
    <glyph glyph-name="degree" unicode="&#xb0;" horiz-adv-x="720" 
d="M360 733q-140 0 -234.5 89.5t-94.5 221.5t95 222t234 90q138 0 234 -90t96 -222t-96 -221.5t-234 -89.5zM360 1147q-44 0 -74 -30t-30 -73t30 -72.5t74 -29.5t74.5 29.5t30.5 72.5t-30.5 73t-74.5 30z" />
    <glyph glyph-name="plusminus" unicode="&#xb1;" horiz-adv-x="1019" 
d="M938 688h-270v-268h-316v268h-270v316h270v268h316v-268h270v-316zM82 315h856v-315h-856v315z" />
    <glyph glyph-name="twosuperior" unicode="&#xb2;" horiz-adv-x="712" 
d="M682 797v-248h-631l328 426q35 46 35 76t-20.5 49.5t-51.5 19.5t-51.5 -19.5t-20.5 -49.5t29 -56l-141 -182q-138 91 -138 246q0 124 91 205.5t231 81.5t231 -81.5t91 -205.5q0 -49 -22.5 -98t-78.5 -121l-33 -43h152z" />
    <glyph glyph-name="threesuperior" unicode="&#xb3;" horiz-adv-x="735" 
d="M711 805q0 -116 -95 -193t-256 -77q-155 0 -247.5 80.5t-92.5 205.5h259q0 -31 21.5 -51t57.5 -20q39 0 59.5 18t20.5 45q0 28 -21 44.5t-59 16.5h-24v181h24q38 0 56 -2q6 15 6 30q0 25 -17.5 41.5t-52.5 16.5q-31 0 -50 -17t-19 -41h-252q0 116 88 189.5t235 73.5
q150 0 237 -67.5t87 -172.5q0 -72 -45 -131q80 -68 80 -170z" />
    <glyph glyph-name="acute" unicode="&#xb4;" horiz-adv-x="1024" 
d="M362 1098l121 364h391l-206 -364h-306z" />
    <glyph glyph-name="paragraph" unicode="&#xb6;" horiz-adv-x="1425" 
d="M944 -307v1218h-151v-1218h-394v500q0 78 -21 141.5t-54.5 107.5t-73.5 83.5t-80.5 79.5t-74 84t-54.5 107.5t-21 141.5q0 178 130.5 285.5t345.5 107.5h858v-1638h-410z" />
    <glyph glyph-name="periodcentered" unicode="&#xb7;" horiz-adv-x="1024" 
d="M502 365q-93 0 -158 62t-65 155q0 92 64.5 154.5t158.5 62.5q93 0 158 -62t65 -155q0 -92 -64.5 -154.5t-158.5 -62.5z" />
    <glyph glyph-name="cedilla" unicode="&#xb8;" horiz-adv-x="1024" 
d="M700 152v-422h-342l52 422h290z" />
    <glyph glyph-name="onesuperior" unicode="&#xb9;" horiz-adv-x="505" 
d="M444 1348v-799h-276v446q-59 -9 -137 -12v256q221 17 413 109z" />
    <glyph glyph-name="ordmasculine" unicode="&#xba;" horiz-adv-x="905" 
d="M453 537q-184 0 -308.5 116.5t-124.5 288.5t124.5 289t308.5 117t308 -117t124 -289t-124 -288.5t-308 -116.5zM453 801q59 0 100 40.5t41 100.5q0 58 -41 99.5t-100 41.5t-100.5 -40.5t-41.5 -100.5q0 -58 41.5 -99.5t100.5 -41.5z" />
    <glyph glyph-name="guillemotright" unicode="&#xbb;" horiz-adv-x="1290" 
d="M709 502l-242 -402h-414l238 387l-254 416h430zM1266 502l-242 -402h-414l238 387l-254 416h430z" />
    <glyph glyph-name="onequarter" unicode="&#xbc;" horiz-adv-x="1794" 
d="M444 1348v-799h-276v446q-59 -9 -137 -12v256q221 17 413 109zM250 0l754 1331h319l-754 -1331h-319zM1749 612v-612h-266v51q0 40 -21 68.5t-54.5 45.5t-74.5 33t-81.5 38t-74 52.5t-54.5 84.5t-21 127v282h276v-252q0 -20 5 -34.5t17 -25t21.5 -16t30.5 -15.5t31 -15
v188h266z" />
    <glyph glyph-name="onehalf" unicode="&#xbd;" horiz-adv-x="1728" 
d="M444 1348v-799h-276v446q-59 -9 -137 -12v256q221 17 413 109zM250 0l754 1331h319l-754 -1331h-319zM1698 248v-248h-631l328 426q35 46 35 76t-20.5 49.5t-51.5 19.5t-51.5 -19.5t-20.5 -49.5t29 -56l-141 -182q-138 91 -138 246q0 124 91 205.5t231 81.5
q139 0 230 -81t91 -206q0 -50 -22.5 -98.5t-77.5 -120.5l-33 -43h152z" />
    <glyph glyph-name="threequarters" unicode="&#xbe;" horiz-adv-x="1982" 
d="M711 805q0 -116 -95 -193t-256 -77q-155 0 -247.5 80.5t-92.5 205.5h259q0 -31 21.5 -51t57.5 -20q39 0 59.5 18t20.5 45q0 28 -21 44.5t-59 16.5h-24v181h24q38 0 56 -2q6 15 6 30q0 25 -17.5 41.5t-52.5 16.5q-31 0 -50 -17t-19 -41h-252q0 116 88 189.5t235 73.5
q150 0 237 -67.5t87 -172.5q0 -72 -45 -131q80 -68 80 -170zM438 0l754 1331h319l-753 -1331h-320zM1937 612v-612h-266v51q0 40 -21 68.5t-54.5 45.5t-74.5 33t-81.5 38t-74 52.5t-54.5 84.5t-21 127v282h277v-252q0 -20 4.5 -34.5t17 -25t21.5 -16t30 -15.5t31 -15v188
h266z" />
    <glyph glyph-name="questiondown" unicode="&#xbf;" horiz-adv-x="1095" 
d="M541 1028q91 0 152 -59t61 -148q0 -88 -60.5 -147.5t-152.5 -59.5q-91 0 -152 59t-61 148q0 88 60.5 147.5t152.5 59.5zM1065 84q0 -195 -141.5 -315.5t-370.5 -120.5t-370.5 114.5t-141.5 300.5q0 140 83 234t236 129l5 102h352l10 -348h-174q-59 0 -91 -26.5t-32 -75.5
q0 -46 34 -74.5t89 -28.5t89 30.5t34 78.5h389z" />
    <glyph glyph-name="Agrave" unicode="&#xc0;" 
d="M465 262v-262h-404v831q0 238 144.5 381.5t382.5 143.5t382 -143.5t144 -381.5v-831h-403v20q0 112 -66 177t-180 65zM465 625q142 0 246 -66v275q0 58 -33.5 93.5t-89.5 35.5t-89.5 -35.5t-33.5 -93.5v-209zM743 1425h-305l-227 365h401z" />
    <glyph glyph-name="Aacute" unicode="&#xc1;" 
d="M465 262v-262h-404v831q0 238 144.5 381.5t382.5 143.5t382 -143.5t144 -381.5v-831h-403v20q0 112 -66 177t-180 65zM465 625q142 0 246 -66v275q0 58 -33.5 93.5t-89.5 35.5t-89.5 -35.5t-33.5 -93.5v-209zM438 1425l121 365h391l-207 -365h-305z" />
    <glyph glyph-name="Acircumflex" unicode="&#xc2;" 
d="M465 262v-262h-404v831q0 238 144.5 381.5t382.5 143.5t382 -143.5t144 -381.5v-831h-403v20q0 112 -66 177t-180 65zM465 625q142 0 246 -66v275q0 58 -33.5 93.5t-89.5 35.5t-89.5 -35.5t-33.5 -93.5v-209zM647 1425l-61 172l-62 -172h-331l182 365h426l182 -365h-336z
" />
    <glyph glyph-name="Atilde" unicode="&#xc3;" 
d="M465 262v-262h-404v831q0 238 144.5 381.5t382.5 143.5t382 -143.5t144 -381.5v-831h-403v20q0 112 -66 177t-180 65zM465 625q142 0 246 -66v275q0 58 -33.5 93.5t-89.5 35.5t-89.5 -35.5t-33.5 -93.5v-209zM215 1425v111q0 129 58 196.5t155 67.5q43 0 95 -20t92.5 -40
t56.5 -20q28 0 28 37v33h261v-109q0 -131 -58 -198.5t-155 -67.5q-50 0 -102.5 20t-90 40t-51.5 20q-29 0 -29 -37v-33h-260z" />
    <glyph glyph-name="Adieresis" unicode="&#xc4;" 
d="M465 262v-262h-404v831q0 238 144.5 381.5t382.5 143.5t382 -143.5t144 -381.5v-831h-403v20q0 112 -66 177t-180 65zM465 625q142 0 246 -66v275q0 58 -33.5 93.5t-89.5 35.5t-89.5 -35.5t-33.5 -93.5v-209zM367 1415q-83 0 -136 51.5t-53 128.5q0 80 52.5 132.5
t136.5 52.5q82 0 135 -52t53 -129q0 -79 -52 -131.5t-136 -52.5zM809 1415q-82 0 -135 51.5t-53 128.5q0 80 52 132.5t136 52.5q82 0 135 -52t53 -129q0 -79 -52 -131.5t-136 -52.5z" />
    <glyph glyph-name="Aring" unicode="&#xc5;" 
d="M465 262v-262h-404v831q0 157 64.5 275t181.5 182q-43 67 -43 152q0 132 90.5 215.5t233.5 83.5q137 0 230 -86t93 -213q0 -86 -41 -154q116 -63 180 -181t64 -274v-831h-403v20q0 112 -66 177t-180 65zM588 1356q38 0 62 23.5t24 60.5q0 35 -24.5 59.5t-61.5 24.5
q-38 0 -62 -23.5t-24 -60.5q0 -35 24.5 -59.5t61.5 -24.5zM465 625q145 0 246 -66v275q0 58 -33.5 93.5t-89.5 35.5t-89.5 -35.5t-33.5 -93.5v-209z" />
    <glyph glyph-name="AE" unicode="&#xc6;" horiz-adv-x="1581" 
d="M61 807q0 237 144.5 380.5t382.5 143.5h942v-354h-430v-246q133 111 338 111h41v-348h-62q-105 0 -182.5 -37t-114.5 -103h410v-354h-823v242h-238v-242h-408v807zM469 848v-227h238v356h-119q-52 0 -85.5 -36.5t-33.5 -92.5z" />
    <glyph glyph-name="Ccedilla" unicode="&#xc7;" horiz-adv-x="1495" 
d="M1464 586q-25 -227 -178.5 -389t-380.5 -207v-260h-342l31 260q-248 51 -405.5 238t-157.5 438q0 193 94.5 351t260.5 248.5t368 90.5q270 0 467 -161.5t237 -414.5h-424q-35 88 -110 139.5t-170 51.5q-129 0 -214 -87t-85 -218t85 -218.5t214 -87.5q107 0 186 62
t104 164h420z" />
    <glyph glyph-name="Egrave" unicode="&#xc8;" horiz-adv-x="946" 
d="M895 354v-354h-823v1331h823v-354h-430v-246q133 111 338 111h41v-348h-62q-105 0 -182.5 -37t-114.5 -103h410zM633 1425h-305l-228 365h402z" />
    <glyph glyph-name="Eacute" unicode="&#xc9;" horiz-adv-x="946" 
d="M895 354v-354h-823v1331h823v-354h-430v-246q133 111 338 111h41v-348h-62q-105 0 -182.5 -37t-114.5 -103h410zM324 1425l120 365h392l-207 -365h-305z" />
    <glyph glyph-name="Ecircumflex" unicode="&#xca;" horiz-adv-x="946" 
d="M895 354v-354h-823v1331h823v-354h-430v-246q133 111 338 111h41v-348h-62q-105 0 -182.5 -37t-114.5 -103h410zM537 1425l-62 172l-61 -172h-332l182 365h426l182 -365h-335z" />
    <glyph glyph-name="Edieresis" unicode="&#xcb;" horiz-adv-x="946" 
d="M895 354v-354h-823v1331h823v-354h-430v-246q133 111 338 111h41v-348h-62q-105 0 -182.5 -37t-114.5 -103h410zM256 1415q-82 0 -135 51.5t-53 128.5q0 80 52 132.5t136 52.5q82 0 135 -52t53 -129q0 -79 -52 -131.5t-136 -52.5zM698 1415q-82 0 -135 51.5t-53 128.5
q0 80 52 132.5t136 52.5q82 0 135.5 -52t53.5 -129q0 -79 -52.5 -131.5t-136.5 -52.5z" />
    <glyph glyph-name="Igrave" unicode="&#xcc;" horiz-adv-x="557" 
d="M485 0h-413v1331h413v-1331zM434 1425h-305l-227 365h401z" />
    <glyph glyph-name="Iacute" unicode="&#xcd;" horiz-adv-x="557" 
d="M485 0h-413v1331h413v-1331zM129 1425l121 365h391l-207 -365h-305z" />
    <glyph glyph-name="Icircumflex" unicode="&#xce;" horiz-adv-x="557" 
d="M485 0h-413v1331h413v-1331zM338 1425l-62 172l-61 -172h-332l183 365h426l182 -365h-336z" />
    <glyph glyph-name="Idieresis" unicode="&#xcf;" horiz-adv-x="557" 
d="M485 0h-413v1331h413v-1331zM57 1415q-82 0 -135 51.5t-53 128.5q0 80 52 132.5t136 52.5q82 0 135.5 -52t53.5 -129q0 -79 -52.5 -131.5t-136.5 -52.5zM500 1415q-83 0 -136 51.5t-53 128.5q0 80 52.5 132.5t136.5 52.5q82 0 135 -52t53 -129q0 -79 -52 -131.5
t-136 -52.5z" />
    <glyph glyph-name="Eth" unicode="&#xd0;" horiz-adv-x="1269" 
d="M1239 666q0 -148 -57 -273t-157.5 -211t-242 -134t-307.5 -48h-342v524h-123v287h123v520h342q221 0 395 -82.5t271.5 -234t97.5 -348.5zM670 524h-127v-129h4q119 0 193.5 76t74.5 195t-74.5 194.5t-193.5 75.5h-4v-125h127v-287z" />
    <glyph glyph-name="Ntilde" unicode="&#xd1;" horiz-adv-x="1204" 
d="M719 0v260q-150 144 -242 293v-553h-405v1331h387q91 -310 268 -543v543h406v-1331h-414zM229 1425v111q0 129 58 196.5t155 67.5q43 0 95 -20t92.5 -40t56.5 -20q29 0 29 37v33h260v-109q0 -131 -58 -198.5t-155 -67.5q-50 0 -102.5 20t-90 40t-51.5 20q-29 0 -29 -37
v-33h-260z" />
    <glyph glyph-name="Ograve" unicode="&#xd2;" horiz-adv-x="1507" 
d="M31 666q0 193 94.5 351t260.5 248.5t368 90.5t368 -90.5t260.5 -248.5t94.5 -351q0 -144 -55.5 -272.5t-151.5 -220t-230.5 -145t-285.5 -53.5t-285.5 53.5t-230.5 145t-151.5 220t-55.5 272.5zM455 666q0 -130 85.5 -218t213.5 -88t213.5 88t85.5 218t-85.5 217.5
t-213.5 87.5t-213.5 -87.5t-85.5 -217.5zM909 1425h-305l-227 365h401z" />
    <glyph glyph-name="Oacute" unicode="&#xd3;" horiz-adv-x="1507" 
d="M31 666q0 193 94.5 351t260.5 248.5t368 90.5t368 -90.5t260.5 -248.5t94.5 -351q0 -144 -55.5 -272.5t-151.5 -220t-230.5 -145t-285.5 -53.5t-285.5 53.5t-230.5 145t-151.5 220t-55.5 272.5zM455 666q0 -130 85.5 -218t213.5 -88t213.5 88t85.5 218t-85.5 217.5
t-213.5 87.5t-213.5 -87.5t-85.5 -217.5zM604 1425l121 365h391l-207 -365h-305z" />
    <glyph glyph-name="Ocircumflex" unicode="&#xd4;" horiz-adv-x="1507" 
d="M31 666q0 193 94.5 351t260.5 248.5t368 90.5t368 -90.5t260.5 -248.5t94.5 -351q0 -144 -55.5 -272.5t-151.5 -220t-230.5 -145t-285.5 -53.5t-285.5 53.5t-230.5 145t-151.5 220t-55.5 272.5zM455 666q0 -130 85.5 -218t213.5 -88t213.5 88t85.5 218t-85.5 217.5
t-213.5 87.5t-213.5 -87.5t-85.5 -217.5zM813 1425l-61 172l-62 -172h-332l183 365h426l182 -365h-336z" />
    <glyph glyph-name="Otilde" unicode="&#xd5;" horiz-adv-x="1507" 
d="M31 666q0 193 94.5 351t260.5 248.5t368 90.5t368 -90.5t260.5 -248.5t94.5 -351q0 -144 -55.5 -272.5t-151.5 -220t-230.5 -145t-285.5 -53.5t-285.5 53.5t-230.5 145t-151.5 220t-55.5 272.5zM455 666q0 -130 85.5 -218t213.5 -88t213.5 88t85.5 218t-85.5 217.5
t-213.5 87.5t-213.5 -87.5t-85.5 -217.5zM381 1425v111q0 129 58 196.5t155 67.5q43 0 95 -20t92.5 -40t56.5 -20q28 0 28 37v33h260v-109q0 -131 -58 -198.5t-155 -67.5q-50 0 -102 20t-89.5 40t-51.5 20q-29 0 -29 -37v-33h-260z" />
    <glyph glyph-name="Odieresis" unicode="&#xd6;" horiz-adv-x="1507" 
d="M31 666q0 193 94.5 351t260.5 248.5t368 90.5t368 -90.5t260.5 -248.5t94.5 -351q0 -144 -55.5 -272.5t-151.5 -220t-230.5 -145t-285.5 -53.5t-285.5 53.5t-230.5 145t-151.5 220t-55.5 272.5zM455 666q0 -130 85.5 -218t213.5 -88t213.5 88t85.5 218t-85.5 217.5
t-213.5 87.5t-213.5 -87.5t-85.5 -217.5zM532 1415q-82 0 -135 51.5t-53 128.5q0 80 52 132.5t136 52.5q82 0 135.5 -52t53.5 -129q0 -79 -52.5 -131.5t-136.5 -52.5zM975 1415q-83 0 -136 51.5t-53 128.5q0 80 52.5 132.5t136.5 52.5q82 0 135 -52t53 -129
q0 -79 -52 -131.5t-136 -52.5z" />
    <glyph glyph-name="multiply" unicode="&#xd7;" horiz-adv-x="1019" 
d="M948 428l-223 -223l-215 217l-217 -217l-221 221l217 217l-217 215l223 223l217 -215l215 215l221 -221l-215 -215z" />
    <glyph glyph-name="Oslash" unicode="&#xd8;" horiz-adv-x="1507" 
d="M1477 666q0 -144 -55.5 -272.5t-151.5 -220t-230.5 -145t-285.5 -53.5q-196 0 -359 86l-53 -61h-393l223 248q-141 180 -141 418q0 193 94.5 351t260.5 248.5t368 90.5q195 0 358 -86l53 61h394l-224 -248q142 -181 142 -417zM434 666q0 -53 17 -109l383 424
q-42 10 -80 10q-137 0 -228.5 -93t-91.5 -232zM1073 666q0 55 -16 108l-383 -424q42 -10 80 -10q137 0 228 93.5t91 232.5z" />
    <glyph glyph-name="Ugrave" unicode="&#xd9;" horiz-adv-x="1183" 
d="M592 375q54 0 85.5 34t31.5 93v829h413v-829q0 -242 -143 -384.5t-387 -142.5t-387.5 142.5t-143.5 384.5v829h414v-829q0 -59 31.5 -93t85.5 -34zM748 1425h-306l-227 365h401z" />
    <glyph glyph-name="Uacute" unicode="&#xda;" horiz-adv-x="1183" 
d="M592 375q54 0 85.5 34t31.5 93v829h413v-829q0 -242 -143 -384.5t-387 -142.5t-387.5 142.5t-143.5 384.5v829h414v-829q0 -59 31.5 -93t85.5 -34zM442 1425l121 365h391l-206 -365h-306z" />
    <glyph glyph-name="Ucircumflex" unicode="&#xdb;" horiz-adv-x="1183" 
d="M592 375q54 0 85.5 34t31.5 93v829h413v-829q0 -242 -143 -384.5t-387 -142.5t-387.5 142.5t-143.5 384.5v829h414v-829q0 -59 31.5 -93t85.5 -34zM651 1425l-61 172l-62 -172h-331l182 365h426l182 -365h-336z" />
    <glyph glyph-name="Udieresis" unicode="&#xdc;" horiz-adv-x="1183" 
d="M592 375q54 0 85.5 34t31.5 93v829h413v-829q0 -242 -143 -384.5t-387 -142.5t-387.5 142.5t-143.5 384.5v829h414v-829q0 -59 31.5 -93t85.5 -34zM371 1415q-83 0 -136 51.5t-53 128.5q0 80 52.5 132.5t136.5 52.5q82 0 135 -52t53 -129q0 -79 -52 -131.5t-136 -52.5z
M813 1415q-82 0 -135 51.5t-53 128.5q0 80 52 132.5t136 52.5q82 0 135 -52t53 -129q0 -79 -52 -131.5t-136 -52.5z" />
    <glyph glyph-name="Yacute" unicode="&#xdd;" horiz-adv-x="1169" 
d="M1159 1331l-336 -1331h-430l86 324q-198 38 -318 190t-120 385q0 215 68 432h397q-64 -253 -64 -416q0 -94 38 -149.5t100 -63.5l168 629h411zM477 1425l121 365h391l-207 -365h-305z" />
    <glyph glyph-name="Thorn" unicode="&#xde;" horiz-adv-x="1159" 
d="M1135 713q0 -91 -28 -164.5t-74 -120t-105 -86.5t-120 -65.5t-120 -55t-105 -57t-74 -70t-28 -94.5h-409v1331h409v-151h90q251 0 407.5 -131.5t156.5 -335.5zM590 801h-109v-299q22 10 59.5 26t57.5 25t46.5 24t39.5 29.5t23 35.5t10 46q0 50 -34 81.5t-93 31.5z" />
    <glyph glyph-name="germandbls" unicode="&#xdf;" horiz-adv-x="1294" 
d="M61 0v838q0 239 145.5 378.5t391.5 139.5q209 0 337 -104.5t128 -250.5q0 -51 -16 -98t-35 -75t-35 -57.5t-16 -49.5q0 -29 33.5 -55.5t80.5 -53.5t94.5 -61.5t81 -95.5t33.5 -140q0 -139 -98.5 -227t-255.5 -88h-322v291h264q15 0 24 8t9 20q0 23 -33.5 45.5t-80.5 45
t-94.5 51t-81 76t-33.5 106.5q0 45 20 90.5t44.5 76t44.5 64.5t20 58q0 39 -28.5 64.5t-84.5 25.5q-64 0 -100.5 -41t-36.5 -115v-866h-400z" />
    <glyph glyph-name="agrave" unicode="&#xe0;" horiz-adv-x="1069" 
d="M657 0v72q-94 -97 -264 -97q-156 0 -259 89.5t-103 224.5q0 141 100 224t272 83q128 0 213 -51v94q0 38 -22 60t-62 22q-35 0 -59 -18t-24 -46h-369q0 158 129.5 264.5t322.5 106.5q226 0 353 -119.5t127 -333.5v-575h-355zM506 215q47 0 78.5 26t31.5 64t-31.5 64
t-78.5 26q-46 0 -78.5 -26t-32.5 -64t32 -64t79 -26zM719 1098h-305l-228 364h402z" />
    <glyph glyph-name="aacute" unicode="&#xe1;" horiz-adv-x="1069" 
d="M657 0v72q-94 -97 -264 -97q-156 0 -259 89.5t-103 224.5q0 141 100 224t272 83q128 0 213 -51v94q0 38 -22 60t-62 22q-35 0 -59 -18t-24 -46h-369q0 158 129.5 264.5t322.5 106.5q226 0 353 -119.5t127 -333.5v-575h-355zM506 215q47 0 78.5 26t31.5 64t-31.5 64
t-78.5 26q-46 0 -78.5 -26t-32.5 -64t32 -64t79 -26zM393 1096l121 364h391l-207 -364h-305z" />
    <glyph glyph-name="acircumflex" unicode="&#xe2;" horiz-adv-x="1069" 
d="M657 0v72q-94 -97 -264 -97q-156 0 -259 89.5t-103 224.5q0 141 100 224t272 83q128 0 213 -51v94q0 38 -22 60t-62 22q-35 0 -59 -18t-24 -46h-369q0 158 129.5 264.5t322.5 106.5q226 0 353 -119.5t127 -333.5v-575h-355zM506 215q47 0 78.5 26t31.5 64t-31.5 64
t-78.5 26q-46 0 -78.5 -26t-32.5 -64t32 -64t79 -26zM623 1098l-62 172l-61 -172h-332l182 364h426l182 -364h-335z" />
    <glyph glyph-name="atilde" unicode="&#xe3;" horiz-adv-x="1069" 
d="M657 0v72q-94 -97 -264 -97q-156 0 -259 89.5t-103 224.5q0 141 100 224t272 83q128 0 213 -51v94q0 38 -22 60t-62 22q-35 0 -59 -18t-24 -46h-369q0 158 129.5 264.5t322.5 106.5q226 0 353 -119.5t127 -333.5v-575h-355zM506 215q47 0 78.5 26t31.5 64t-31.5 64
t-78.5 26q-46 0 -78.5 -26t-32.5 -64t32 -64t79 -26zM190 1098v110q0 130 58 197.5t155 67.5q43 0 95 -20t92.5 -40t56.5 -20q29 0 29 37v32h260v-108q0 -131 -58 -199t-155 -68q-50 0 -102.5 20t-90 40t-51.5 20q-28 0 -28 -37v-32h-261z" />
    <glyph glyph-name="adieresis" unicode="&#xe4;" horiz-adv-x="1069" 
d="M657 0v72q-94 -97 -264 -97q-156 0 -259 89.5t-103 224.5q0 141 100 224t272 83q128 0 213 -51v94q0 38 -22 60t-62 22q-35 0 -59 -18t-24 -46h-369q0 158 129.5 264.5t322.5 106.5q226 0 353 -119.5t127 -333.5v-575h-355zM506 215q47 0 78.5 26t31.5 64t-31.5 64
t-78.5 26q-46 0 -78.5 -26t-32.5 -64t32 -64t79 -26zM342 1087q-82 0 -135 52t-53 129q0 80 52 132t136 52q82 0 135 -51.5t53 -128.5q0 -79 -52.5 -132t-135.5 -53zM784 1087q-82 0 -135 52t-53 129q0 80 52 132t136 52q83 0 136 -51.5t53 -128.5q0 -79 -52.5 -132
t-136.5 -53z" />
    <glyph glyph-name="aring" unicode="&#xe5;" horiz-adv-x="1069" 
d="M657 0v72q-91 -97 -264 -97q-156 0 -259 89.5t-103 224.5q0 141 100 224t272 83q128 0 213 -51v94q0 38 -22 60t-62 22q-35 0 -59 -18t-24 -46h-369q0 102 53.5 184t149.5 130q-43 65 -43 141q0 132 90 215.5t233 83.5q137 0 230.5 -86t93.5 -213q0 -97 -56 -162
q181 -118 181 -375v-575h-355zM563 1028q38 0 62 23.5t24 60.5q0 35 -24.5 59.5t-61.5 24.5q-38 0 -62 -23.5t-24 -60.5q0 -35 24.5 -59.5t61.5 -24.5zM506 215q47 0 78.5 26t31.5 64t-31.5 64t-78.5 26q-46 0 -78.5 -26t-32.5 -64t32 -64t79 -26z" />
    <glyph glyph-name="ae" unicode="&#xe6;" horiz-adv-x="1740" 
d="M1683 336q-46 -157 -182.5 -259t-302.5 -102q-146 0 -268 80v-55h-293v53q-90 -78 -244 -78q-156 0 -259 89.5t-103 224.5q0 141 100 224t272 83q128 0 213 -51v94q0 38 -22 60t-62 22q-35 0 -59 -18t-24 -46h-369q0 158 129.5 264.5t322.5 106.5q209 0 312 -139
q130 139 323 139q223 0 373 -151t150 -375v-80h-699q6 -66 51 -106t115 -40q92 0 146 60h380zM1149 745q-60 0 -102.5 -36t-53.5 -93h310q-11 57 -53.5 93t-100.5 36zM506 215q47 0 78.5 26t31.5 64t-31.5 64t-78.5 26q-46 0 -78.5 -26t-32.5 -64t32 -64t79 -26z" />
    <glyph glyph-name="ccedilla" unicode="&#xe7;" horiz-adv-x="1153" 
d="M1128 446q-13 -167 -116 -287t-264 -163v-266h-342l32 264q-182 45 -294.5 183.5t-112.5 324.5q0 147 73 268t200.5 189.5t281.5 68.5q215 0 368.5 -131t173.5 -332h-387q-18 47 -59.5 76t-95.5 29q-71 0 -118.5 -49t-47.5 -119t47.5 -119t118.5 -49q113 0 155 112h387z
" />
    <glyph glyph-name="egrave" unicode="&#xe8;" horiz-adv-x="1153" 
d="M1116 336q-42 -156 -188.5 -258.5t-337.5 -102.5q-129 0 -235.5 41.5t-176.5 113.5t-108.5 168.5t-38.5 207.5q0 147 68.5 265.5t194.5 187.5t286 69q239 0 390.5 -149t151.5 -377v-80h-698q6 -67 52 -106.5t114 -39.5q91 0 145 60h381zM582 745q-59 0 -102.5 -35.5
t-53.5 -93.5h309q-10 58 -53 93.5t-100 35.5zM743 1098h-305l-227 364h401z" />
    <glyph glyph-name="eacute" unicode="&#xe9;" horiz-adv-x="1153" 
d="M1116 336q-42 -156 -188.5 -258.5t-337.5 -102.5q-129 0 -235.5 41.5t-176.5 113.5t-108.5 168.5t-38.5 207.5q0 147 68.5 265.5t194.5 187.5t286 69q239 0 390.5 -149t151.5 -377v-80h-698q6 -67 52 -106.5t114 -39.5q91 0 145 60h381zM582 745q-59 0 -102.5 -35.5
t-53.5 -93.5h309q-10 58 -53 93.5t-100 35.5zM438 1098l121 364h391l-207 -364h-305z" />
    <glyph glyph-name="ecircumflex" unicode="&#xea;" horiz-adv-x="1153" 
d="M1116 336q-42 -156 -188.5 -258.5t-337.5 -102.5q-129 0 -235.5 41.5t-176.5 113.5t-108.5 168.5t-38.5 207.5q0 147 68.5 265.5t194.5 187.5t286 69q239 0 390.5 -149t151.5 -377v-80h-698q6 -67 52 -106.5t114 -39.5q91 0 145 60h381zM582 745q-59 0 -102.5 -35.5
t-53.5 -93.5h309q-10 58 -53 93.5t-100 35.5zM647 1098l-61 172l-62 -172h-331l182 364h426l182 -364h-336z" />
    <glyph glyph-name="edieresis" unicode="&#xeb;" horiz-adv-x="1153" 
d="M1116 336q-42 -156 -188.5 -258.5t-337.5 -102.5q-129 0 -235.5 41.5t-176.5 113.5t-108.5 168.5t-38.5 207.5q0 147 68.5 265.5t194.5 187.5t286 69q239 0 390.5 -149t151.5 -377v-80h-698q6 -67 52 -106.5t114 -39.5q91 0 145 60h381zM582 745q-59 0 -102.5 -35.5
t-53.5 -93.5h309q-10 58 -53 93.5t-100 35.5zM367 1087q-82 0 -135.5 52t-53.5 129q0 80 52.5 132t136.5 52q82 0 135 -51.5t53 -128.5q0 -79 -52.5 -132t-135.5 -53zM809 1087q-82 0 -135 52t-53 129q0 80 52 132t136 52q82 0 135 -51.5t53 -128.5q0 -79 -52.5 -132
t-135.5 -53z" />
    <glyph glyph-name="igrave" unicode="&#xec;" horiz-adv-x="522" 
d="M61 1004h400v-1004h-400v1004zM418 1098h-305l-230 364h404z" />
    <glyph glyph-name="iacute" unicode="&#xed;" horiz-adv-x="522" 
d="M61 1004h400v-1004h-400v1004zM113 1098l120 364h392l-207 -364h-305z" />
    <glyph glyph-name="icircumflex" unicode="&#xee;" horiz-adv-x="522" 
d="M61 1004h400v-1004h-400v1004zM322 1098l-62 172l-61 -172h-334l184 364h426l182 -364h-335z" />
    <glyph glyph-name="idieresis" unicode="&#xef;" horiz-adv-x="522" 
d="M61 1004h400v-1004h-400v1004zM41 1087q-84 0 -137.5 52t-53.5 129q0 80 53 132t138 52q82 0 135 -51.5t53 -128.5q0 -79 -52.5 -132t-135.5 -53zM483 1087q-82 0 -135 52t-53 129q0 80 52 132t136 52q83 0 136 -51.5t53 -128.5q0 -79 -52.5 -132t-136.5 -53z" />
    <glyph glyph-name="eth" unicode="&#xf0;" horiz-adv-x="1089" 
d="M1059 465q0 -207 -151 -348.5t-373 -141.5q-213 0 -358.5 138.5t-145.5 341.5q0 186 139.5 312t345.5 126q15 0 29 -2l-72 108l-285 -69v215l160 39l-98 147h389l43 -65l272 65v-215l-155 -39l71 -112q116 -181 152.5 -281t36.5 -219zM545 307q61 0 103 41.5t42 100.5
t-42 100t-103 41q-60 0 -103 -41.5t-43 -99.5q0 -60 42 -101t104 -41z" />
    <glyph glyph-name="ntilde" unicode="&#xf1;" horiz-adv-x="1091" 
d="M461 557v-557h-400v1004h359v-119q97 143 276 143q151 0 243.5 -111t92.5 -292v-625h-399v557q0 42 -23.5 67t-62.5 25t-62.5 -25t-23.5 -67zM172 1098v110q0 130 58 197.5t155 67.5q43 0 95 -20t92.5 -40t56.5 -20q28 0 28 37v32h261v-108q0 -131 -58 -199t-155 -68
q-50 0 -102.5 20t-90 40t-51.5 20q-29 0 -29 -37v-32h-260z" />
    <glyph glyph-name="ograve" unicode="&#xf2;" 
d="M588 -25q-236 0 -396.5 151.5t-160.5 375.5q0 147 73 268t201 189.5t283 68.5t283 -68.5t201 -189.5t73 -268q0 -224 -160.5 -375.5t-396.5 -151.5zM588 670q-70 0 -119 -49t-49 -119t49 -119t119 -49t119 49t49 119t-49 119t-119 49zM743 1098h-305l-227 364h401z" />
    <glyph glyph-name="oacute" unicode="&#xf3;" 
d="M588 -25q-236 0 -396.5 151.5t-160.5 375.5q0 147 73 268t201 189.5t283 68.5t283 -68.5t201 -189.5t73 -268q0 -224 -160.5 -375.5t-396.5 -151.5zM588 670q-70 0 -119 -49t-49 -119t49 -119t119 -49t119 49t49 119t-49 119t-119 49zM438 1098l121 364h391l-207 -364
h-305z" />
    <glyph glyph-name="ocircumflex" unicode="&#xf4;" 
d="M588 -25q-236 0 -396.5 151.5t-160.5 375.5q0 147 73 268t201 189.5t283 68.5t283 -68.5t201 -189.5t73 -268q0 -224 -160.5 -375.5t-396.5 -151.5zM588 670q-70 0 -119 -49t-49 -119t49 -119t119 -49t119 49t49 119t-49 119t-119 49zM647 1098l-61 172l-62 -172h-331
l182 364h426l182 -364h-336z" />
    <glyph glyph-name="otilde" unicode="&#xf5;" 
d="M588 -25q-236 0 -396.5 151.5t-160.5 375.5q0 147 73 268t201 189.5t283 68.5t283 -68.5t201 -189.5t73 -268q0 -224 -160.5 -375.5t-396.5 -151.5zM588 670q-70 0 -119 -49t-49 -119t49 -119t119 -49t119 49t49 119t-49 119t-119 49zM215 1098v110q0 130 58 197.5
t155 67.5q43 0 95 -20t92.5 -40t56.5 -20q28 0 28 37v32h261v-108q0 -131 -58 -199t-155 -68q-50 0 -102.5 20t-90 40t-51.5 20q-29 0 -29 -37v-32h-260z" />
    <glyph glyph-name="odieresis" unicode="&#xf6;" 
d="M588 -25q-236 0 -396.5 151.5t-160.5 375.5q0 147 73 268t201 189.5t283 68.5t283 -68.5t201 -189.5t73 -268q0 -224 -160.5 -375.5t-396.5 -151.5zM588 670q-70 0 -119 -49t-49 -119t49 -119t119 -49t119 49t49 119t-49 119t-119 49zM367 1087q-82 0 -135.5 52
t-53.5 129q0 80 52.5 132t136.5 52q82 0 135 -51.5t53 -128.5q0 -79 -52.5 -132t-135.5 -53zM809 1087q-82 0 -135 52t-53 129q0 80 52 132t136 52q82 0 135 -51.5t53 -128.5q0 -79 -52.5 -132t-135.5 -53z" />
    <glyph glyph-name="divide" unicode="&#xf7;" horiz-adv-x="1019" 
d="M514 903q-83 0 -135.5 51t-52.5 133q0 79 52.5 132t135.5 53t135.5 -51.5t52.5 -133.5q0 -79 -52 -131.5t-136 -52.5zM82 801h856v-316h-856v316zM514 14q-83 0 -135.5 51.5t-52.5 133.5q0 79 52 131.5t136 52.5q83 0 135.5 -51t52.5 -133q0 -79 -52.5 -132t-135.5 -53z
" />
    <glyph glyph-name="oslash" unicode="&#xf8;" horiz-adv-x="1253" 
d="M1184 502q0 -224 -160.5 -375.5t-396.5 -151.5q-145 0 -265 60l-30 -35h-312l162 178q-112 137 -112 324q0 147 73 268t201 189.5t283 68.5q146 0 264 -59l31 35h311l-162 -179q113 -138 113 -323zM397 502q0 -28 11 -70l266 295q-32 4 -47 4q-96 0 -163 -67.5
t-67 -161.5zM856 502q0 31 -10 69l-266 -295q32 -4 47 -4q96 0 162.5 67.5t66.5 162.5z" />
    <glyph glyph-name="ugrave" unicode="&#xf9;" horiz-adv-x="1077" 
d="M57 1004h400v-584q0 -39 22.5 -62.5t59.5 -23.5t59.5 23.5t22.5 62.5v584h399v-564q0 -217 -128.5 -341t-352.5 -124t-353 124t-129 341v564zM694 1098h-305l-227 364h401z" />
    <glyph glyph-name="uacute" unicode="&#xfa;" horiz-adv-x="1077" 
d="M57 1004h400v-584q0 -39 22.5 -62.5t59.5 -23.5t59.5 23.5t22.5 62.5v584h399v-564q0 -217 -128.5 -341t-352.5 -124t-353 124t-129 341v564zM389 1098l121 364h391l-207 -364h-305z" />
    <glyph glyph-name="ucircumflex" unicode="&#xfb;" horiz-adv-x="1077" 
d="M57 1004h400v-584q0 -39 22.5 -62.5t59.5 -23.5t59.5 23.5t22.5 62.5v584h399v-564q0 -217 -128.5 -341t-352.5 -124t-353 124t-129 341v564zM598 1098l-61 172l-62 -172h-332l183 364h426l182 -364h-336z" />
    <glyph glyph-name="udieresis" unicode="&#xfc;" horiz-adv-x="1077" 
d="M57 1004h400v-584q0 -39 22.5 -62.5t59.5 -23.5t59.5 23.5t22.5 62.5v584h399v-564q0 -217 -128.5 -341t-352.5 -124t-353 124t-129 341v564zM317 1087q-82 0 -135 52t-53 129q0 80 52 132t136 52q83 0 136 -51.5t53 -128.5q0 -79 -52.5 -132t-136.5 -53zM760 1087
q-82 0 -135.5 52t-53.5 129q0 80 52.5 132t136.5 52q82 0 135 -51.5t53 -128.5q0 -79 -52.5 -132t-135.5 -53z" />
    <glyph glyph-name="yacute" unicode="&#xfd;" horiz-adv-x="1101" 
d="M1092 1004l-340 -1311h-414l82 307q-174 51 -276.5 196.5t-102.5 358.5q0 227 74 449h393q-74 -249 -74 -431q0 -149 88 -188l164 619h406zM451 1098l120 364h392l-207 -364h-305z" />
    <glyph glyph-name="thorn" unicode="&#xfe;" horiz-adv-x="1153" 
d="M651 -25q-108 0 -190 52v-334h-400v1638h400v-327h74q268 0 427.5 -147t159.5 -382q0 -141 -63 -256t-170.5 -179.5t-237.5 -64.5zM555 653h-94v-303q47 -24 110 -24q74 0 118 45t44 114q0 74 -48.5 121t-129.5 47z" />
    <glyph glyph-name="ydieresis" unicode="&#xff;" horiz-adv-x="1101" 
d="M1092 1004l-340 -1311h-414l82 307q-174 51 -276.5 196.5t-102.5 358.5q0 227 74 449h393q-74 -249 -74 -431q0 -149 88 -188l164 619h406zM389 1087q-82 0 -135 52t-53 129q0 80 52 132t136 52q83 0 136 -51.5t53 -128.5q0 -79 -52.5 -132t-136.5 -53zM831 1087
q-82 0 -135 52t-53 129q0 80 52 132t136 52q83 0 136 -51.5t53 -128.5q0 -79 -52.5 -132t-136.5 -53z" />
    <glyph glyph-name="Amacron" unicode="&#x100;" 
d="M465 262v-262h-404v831q0 238 144.5 381.5t382.5 143.5t382 -143.5t144 -381.5v-831h-403v20q0 112 -66 177t-180 65zM465 625q142 0 246 -66v275q0 58 -33.5 93.5t-89.5 35.5t-89.5 -35.5t-33.5 -93.5v-209zM285 1704h606v-279h-606v279z" />
    <glyph glyph-name="amacron" unicode="&#x101;" horiz-adv-x="1069" 
d="M657 0v72q-94 -97 -264 -97q-156 0 -259 89.5t-103 224.5q0 141 100 224t272 83q128 0 213 -51v94q0 38 -22 60t-62 22q-35 0 -59 -18t-24 -46h-369q0 158 129.5 264.5t322.5 106.5q226 0 353 -119.5t127 -333.5v-575h-355zM506 215q47 0 78.5 26t31.5 64t-31.5 64
t-78.5 26q-46 0 -78.5 -26t-32.5 -64t32 -64t79 -26zM260 1376h606v-278h-606v278z" />
    <glyph glyph-name="Abreve" unicode="&#x102;" 
d="M465 262v-262h-404v831q0 238 144.5 381.5t382.5 143.5t382 -143.5t144 -381.5v-831h-403v20q0 112 -66 177t-180 65zM465 625q142 0 246 -66v275q0 58 -33.5 93.5t-89.5 35.5t-89.5 -35.5t-33.5 -93.5v-209zM588 1675q39 0 59.5 19t20.5 51v45h270v-76
q0 -139 -93.5 -219t-256.5 -80t-256.5 80t-93.5 219v76h270v-45q0 -32 20.5 -51t59.5 -19z" />
    <glyph glyph-name="abreve" unicode="&#x103;" horiz-adv-x="1069" 
d="M657 0v72q-94 -97 -264 -97q-156 0 -259 89.5t-103 224.5q0 141 100 224t272 83q128 0 213 -51v94q0 38 -22 60t-62 22q-35 0 -59 -18t-24 -46h-369q0 158 129.5 264.5t322.5 106.5q226 0 353 -119.5t127 -333.5v-575h-355zM506 215q47 0 78.5 26t31.5 64t-31.5 64
t-78.5 26q-46 0 -78.5 -26t-32.5 -64t32 -64t79 -26zM563 1348q39 0 59.5 18.5t20.5 50.5v45h270v-76q0 -139 -93.5 -219t-256.5 -80t-256.5 80t-93.5 219v76h270v-45q0 -32 20.5 -50.5t59.5 -18.5z" />
    <glyph glyph-name="Aogonek" unicode="&#x104;" 
d="M1114 -129v-244h-70q-140 0 -216 55.5t-76 141.5q0 117 112 176h-153v20q0 112 -66 177t-180 65v-262h-404v831q0 238 144.5 381.5t382.5 143.5t382 -143.5t144 -381.5v-831q-58 -32 -77 -51t-19 -39q0 -39 47 -39h49zM465 625q145 0 246 -66v275q0 58 -33.5 93.5
t-89.5 35.5t-89.5 -35.5t-33.5 -93.5v-209z" />
    <glyph glyph-name="aogonek" unicode="&#x105;" horiz-adv-x="1069" 
d="M1012 -129v-244h-70q-133 0 -213 54t-80 143q0 116 115 176h-107v72q-91 -97 -264 -97q-156 0 -259 89.5t-103 224.5q0 141 100 224t272 83q128 0 213 -51v94q0 38 -22 60t-62 22q-35 0 -59 -19t-24 -45h-369q0 160 128.5 265.5t323.5 105.5q226 0 353 -119.5t127 -333.5
v-575q-56 -31 -76.5 -50t-20.5 -40q0 -39 48 -39h49zM506 215q47 0 78.5 26t31.5 64t-31.5 64t-78.5 26q-46 0 -78.5 -26t-32.5 -64t32 -64t79 -26z" />
    <glyph glyph-name="Cacute" unicode="&#x106;" horiz-adv-x="1495" 
d="M1044 586h420q-19 -175 -117 -314.5t-253.5 -218t-339.5 -78.5q-151 0 -285.5 53.5t-230.5 145t-151.5 220t-55.5 272.5q0 193 94.5 351t260.5 248.5t368 90.5q270 0 467 -161.5t237 -414.5h-424q-35 88 -110 139.5t-170 51.5q-129 0 -214 -87t-85 -218t85 -218.5
t214 -87.5q107 0 186 62t104 164zM608 1425l121 365h391l-207 -365h-305z" />
    <glyph glyph-name="cacute" unicode="&#x107;" horiz-adv-x="1153" 
d="M741 446h387q-19 -209 -170 -340t-372 -131q-154 0 -281.5 69t-200.5 190t-73 268t73 268t200.5 189.5t281.5 68.5q215 0 368.5 -131t173.5 -332h-387q-18 47 -59.5 76t-95.5 29q-71 0 -118.5 -49t-47.5 -119t47.5 -119t118.5 -49q113 0 155 112zM426 1098l121 364h391
l-207 -364h-305z" />
    <glyph glyph-name="Ccircumflex" unicode="&#x108;" horiz-adv-x="1495" 
d="M1044 586h420q-19 -175 -117 -314.5t-253.5 -218t-339.5 -78.5q-151 0 -285.5 53.5t-230.5 145t-151.5 220t-55.5 272.5q0 193 94.5 351t260.5 248.5t368 90.5q270 0 467 -161.5t237 -414.5h-424q-35 88 -110 139.5t-170 51.5q-129 0 -214 -87t-85 -218t85 -218.5
t214 -87.5q107 0 186 62t104 164zM817 1425l-61 172l-62 -172h-332l183 365h426l182 -365h-336z" />
    <glyph glyph-name="ccircumflex" unicode="&#x109;" horiz-adv-x="1153" 
d="M741 446h387q-19 -209 -170 -340t-372 -131q-154 0 -281.5 69t-200.5 190t-73 268t73 268t200.5 189.5t281.5 68.5q215 0 368.5 -131t173.5 -332h-387q-18 47 -59.5 76t-95.5 29q-71 0 -118.5 -49t-47.5 -119t47.5 -119t118.5 -49q113 0 155 112zM635 1098l-62 172
l-61 -172h-332l182 364h426l183 -364h-336z" />
    <glyph glyph-name="Cdotaccent" unicode="&#x10a;" horiz-adv-x="1495" 
d="M1044 586h420q-19 -175 -117 -314.5t-253.5 -218t-339.5 -78.5q-151 0 -285.5 53.5t-230.5 145t-151.5 220t-55.5 272.5q0 193 94.5 351t260.5 248.5t368 90.5q270 0 467 -161.5t237 -414.5h-424q-35 88 -110 139.5t-170 51.5q-129 0 -214 -87t-85 -218t85 -218.5
t214 -87.5q107 0 186 62t104 164zM758 1415q-93 0 -158 62t-65 155q0 92 64.5 154.5t158.5 62.5q93 0 158 -62t65 -155q0 -92 -64.5 -154.5t-158.5 -62.5z" />
    <glyph glyph-name="cdotaccent" unicode="&#x10b;" horiz-adv-x="1153" 
d="M741 446h387q-19 -209 -170 -340t-372 -131q-154 0 -281.5 69t-200.5 190t-73 268t73 268t200.5 189.5t281.5 68.5q215 0 368.5 -131t173.5 -332h-387q-18 47 -59.5 76t-95.5 29q-71 0 -118.5 -49t-47.5 -119t47.5 -119t118.5 -49q113 0 155 112zM575 1087
q-93 0 -158 62.5t-65 155.5q0 92 64.5 154.5t158.5 62.5q93 0 158.5 -62t65.5 -155q0 -92 -65 -155t-159 -63z" />
    <glyph glyph-name="Ccaron" unicode="&#x10c;" horiz-adv-x="1495" 
d="M1044 586h420q-19 -175 -117 -314.5t-253.5 -218t-339.5 -78.5q-151 0 -285.5 53.5t-230.5 145t-151.5 220t-55.5 272.5q0 193 94.5 351t260.5 248.5t368 90.5q270 0 467 -161.5t237 -414.5h-424q-35 88 -110 139.5t-170 51.5q-129 0 -214 -87t-85 -218t85 -218.5
t214 -87.5q107 0 186 62t104 164zM1153 1790l-182 -365h-426l-183 365h336l62 -172l61 172h332z" />
    <glyph glyph-name="ccaron" unicode="&#x10d;" horiz-adv-x="1153" 
d="M741 446h387q-19 -209 -170 -340t-372 -131q-154 0 -281.5 69t-200.5 190t-73 268t73 268t200.5 189.5t281.5 68.5q215 0 368.5 -131t173.5 -332h-387q-18 47 -59.5 76t-95.5 29q-71 0 -118.5 -49t-47.5 -119t47.5 -119t118.5 -49q113 0 155 112zM971 1462l-183 -364
h-426l-182 364h336l62 -172l61 172h332z" />
    <glyph glyph-name="Dcaron" unicode="&#x10e;" horiz-adv-x="1208" 
d="M72 0v1331h342q221 0 395 -82.5t271.5 -234t97.5 -348.5q0 -148 -57 -273t-157.5 -211t-242 -134t-307.5 -48h-342zM485 936h-4v-541h4q119 0 194 76t75 195t-74.5 194.5t-194.5 75.5zM958 1790l-182 -365h-426l-182 365h336l61 -172l62 172h331z" />
    <glyph glyph-name="dcaron" unicode="&#x10f;" horiz-adv-x="1595" 
d="M1092 1331v-1331h-474q-268 0 -427.5 146.5t-159.5 381.5q0 141 63 256t170.5 179.5t237.5 64.5q110 0 190 -51v354h400zM598 350h94v303q-49 25 -110 25q-73 0 -117.5 -45.5t-44.5 -114.5q0 -74 48.5 -121t129.5 -47zM1214 862v469h351l-70 -469h-281z" />
    <glyph glyph-name="Dcroat" unicode="&#x110;" horiz-adv-x="1269" 
d="M1239 666q0 -148 -57 -273t-157.5 -211t-242 -134t-307.5 -48h-342v524h-123v287h123v520h342q221 0 395 -82.5t271.5 -234t97.5 -348.5zM670 524h-127v-129h4q119 0 193.5 76t74.5 195t-74.5 194.5t-193.5 75.5h-4v-125h127v-287z" />
    <glyph glyph-name="dcroat" unicode="&#x111;" horiz-adv-x="1163" 
d="M1194 1057h-102v-1057h-480q-265 0 -423 141t-158 367q0 204 136.5 341.5t334.5 137.5q110 0 190 -51v121h-170v176h170v98h400v-98h102v-176zM582 350h110v260q-58 27 -125 27t-107 -39.5t-40 -99.5q0 -65 44.5 -106.5t117.5 -41.5z" />
    <glyph glyph-name="Emacron" unicode="&#x112;" horiz-adv-x="946" 
d="M895 354v-354h-823v1331h823v-354h-430v-246q133 111 338 111h41v-348h-62q-105 0 -182.5 -37t-114.5 -103h410zM174 1704h606v-279h-606v279z" />
    <glyph glyph-name="emacron" unicode="&#x113;" horiz-adv-x="1153" 
d="M1116 336q-42 -156 -188.5 -258.5t-337.5 -102.5q-129 0 -235.5 41.5t-176.5 113.5t-108.5 168.5t-38.5 207.5q0 147 68.5 265.5t194.5 187.5t286 69q239 0 390.5 -149t151.5 -377v-80h-698q6 -67 52 -106.5t114 -39.5q91 0 145 60h381zM582 745q-59 0 -102.5 -35.5
t-53.5 -93.5h309q-10 58 -53 93.5t-100 35.5zM285 1376h606v-278h-606v278z" />
    <glyph glyph-name="Ebreve" unicode="&#x114;" horiz-adv-x="946" 
d="M895 354v-354h-823v1331h823v-354h-430v-246q133 111 338 111h41v-348h-62q-105 0 -182.5 -37t-114.5 -103h410zM477 1675q39 0 59.5 19t20.5 51v45h270v-76q0 -139 -93.5 -219t-256.5 -80t-256.5 80t-93.5 219v76h270v-45q0 -32 20.5 -51t59.5 -19z" />
    <glyph glyph-name="ebreve" unicode="&#x115;" horiz-adv-x="1153" 
d="M1116 336q-42 -156 -188.5 -258.5t-337.5 -102.5q-129 0 -235.5 41.5t-176.5 113.5t-108.5 168.5t-38.5 207.5q0 147 68.5 265.5t194.5 187.5t286 69q239 0 390.5 -149t151.5 -377v-80h-698q6 -67 52 -106.5t114 -39.5q91 0 145 60h381zM582 745q-59 0 -102.5 -35.5
t-53.5 -93.5h309q-10 58 -53 93.5t-100 35.5zM588 1348q39 0 59.5 18.5t20.5 50.5v45h270v-76q0 -139 -93.5 -219t-256.5 -80t-256.5 80t-93.5 219v76h270v-45q0 -32 20.5 -50.5t59.5 -18.5z" />
    <glyph glyph-name="Edotaccent" unicode="&#x116;" horiz-adv-x="946" 
d="M895 354v-354h-823v1331h823v-354h-430v-246q133 111 338 111h41v-348h-62q-105 0 -182.5 -37t-114.5 -103h410zM477 1415q-93 0 -158 62t-65 155q0 92 64.5 154.5t158.5 62.5q93 0 158 -62t65 -155q0 -92 -64.5 -154.5t-158.5 -62.5z" />
    <glyph glyph-name="edotaccent" unicode="&#x117;" horiz-adv-x="1153" 
d="M1116 336q-42 -156 -188.5 -258.5t-337.5 -102.5q-129 0 -235.5 41.5t-176.5 113.5t-108.5 168.5t-38.5 207.5q0 147 68.5 265.5t194.5 187.5t286 69q239 0 390.5 -149t151.5 -377v-80h-698q6 -67 52 -106.5t114 -39.5q91 0 145 60h381zM582 745q-59 0 -102.5 -35.5
t-53.5 -93.5h309q-10 58 -53 93.5t-100 35.5zM588 1087q-93 0 -158 62.5t-65 155.5q0 92 64.5 154.5t158.5 62.5q93 0 158 -62t65 -155q0 -92 -64.5 -155t-158.5 -63z" />
    <glyph glyph-name="Eogonek" unicode="&#x118;" horiz-adv-x="946" 
d="M895 -129v-244h-70q-141 0 -217 55.5t-76 141.5q0 117 113 176h-573v1331h823v-354h-430v-246q133 111 338 111h41v-348h-62q-105 0 -182.5 -37t-114.5 -103h410v-354q-58 -32 -77 -51t-19 -39q0 -39 47 -39h49z" />
    <glyph glyph-name="eogonek" unicode="&#x119;" horiz-adv-x="1153" 
d="M760 -129v-244h-70q-141 0 -217 55.5t-76 141.5q0 103 84 160q-210 32 -330 176t-120 346q0 147 68.5 265.5t194.5 187.5t286 69q239 0 390.5 -149t151.5 -377v-80h-698q6 -67 52 -106.5t114 -39.5q91 0 145 60h381q-35 -115 -111.5 -194t-218.5 -136q-76 -31 -99 -51.5
t-23 -42.5q0 -41 47 -41h49zM582 745q-59 0 -102.5 -35.5t-53.5 -93.5h309q-10 58 -53 93.5t-100 35.5z" />
    <glyph glyph-name="Ecaron" unicode="&#x11a;" horiz-adv-x="946" 
d="M895 354v-354h-823v1331h823v-354h-430v-246q133 111 338 111h41v-348h-62q-105 0 -182.5 -37t-114.5 -103h410zM872 1790l-182 -365h-426l-182 365h336l61 -172l62 172h331z" />
    <glyph glyph-name="ecaron" unicode="&#x11b;" horiz-adv-x="1153" 
d="M1116 336q-42 -156 -188.5 -258.5t-337.5 -102.5q-129 0 -235.5 41.5t-176.5 113.5t-108.5 168.5t-38.5 207.5q0 147 68.5 265.5t194.5 187.5t286 69q239 0 390.5 -149t151.5 -377v-80h-698q6 -67 52 -106.5t114 -39.5q91 0 145 60h381zM582 745q-59 0 -102.5 -35.5
t-53.5 -93.5h309q-10 58 -53 93.5t-100 35.5zM983 1462l-182 -364h-426l-182 364h335l62 -172l61 172h332z" />
    <glyph glyph-name="Gcircumflex" unicode="&#x11c;" horiz-adv-x="1529" 
d="M1098 0v152q-141 -177 -398 -177q-141 0 -265 53.5t-212.5 145t-140 220t-51.5 272.5q0 193 94.5 351t260.5 248.5t368 90.5q273 0 470 -161t238 -415h-424q-34 88 -110.5 139.5t-173.5 51.5q-129 0 -214 -87t-85 -218t85 -218.5t214 -87.5q105 0 185 63t105 163h424
v-586h-370zM825 1425l-61 172l-62 -172h-331l182 365h426l182 -365h-336z" />
    <glyph glyph-name="gcircumflex" unicode="&#x11d;" horiz-adv-x="1134" 
d="M1065 41q0 -148 -107.5 -248t-265.5 -100h-610v348h526q78 0 78 61q0 62 -78 62h-78q-218 0 -358.5 121.5t-140.5 310.5q0 186 139 309t350 123q92 0 174 -24h410v-287l-154 8q70 -73 70 -180q0 -130 -102 -232q70 -46 108.5 -116.5t38.5 -155.5zM692 596q0 63 -42.5 104
t-108.5 41t-109 -41t-43 -104t43 -104t109 -41t108.5 41t42.5 104zM608 1098l-61 172l-62 -172h-331l182 364h426l182 -364h-336z" />
    <glyph glyph-name="Gbreve" unicode="&#x11e;" horiz-adv-x="1529" 
d="M1098 0v152q-141 -177 -398 -177q-141 0 -265 53.5t-212.5 145t-140 220t-51.5 272.5q0 193 94.5 351t260.5 248.5t368 90.5q273 0 470 -161t238 -415h-424q-34 88 -110.5 139.5t-173.5 51.5q-129 0 -214 -87t-85 -218t85 -218.5t214 -87.5q105 0 185 63t105 163h424
v-586h-370zM766 1675q39 0 59.5 19t20.5 51v45h270v-76q0 -139 -93.5 -219t-256.5 -80t-256.5 80t-93.5 219v76h270v-45q0 -32 20.5 -51t59.5 -19z" />
    <glyph glyph-name="gbreve" unicode="&#x11f;" horiz-adv-x="1134" 
d="M1065 41q0 -148 -107.5 -248t-265.5 -100h-610v348h526q78 0 78 61q0 62 -78 62h-78q-218 0 -358.5 121.5t-140.5 310.5q0 186 139 309t350 123q92 0 174 -24h410v-287l-154 8q70 -73 70 -180q0 -130 -102 -232q70 -46 108.5 -116.5t38.5 -155.5zM692 596q0 63 -42.5 104
t-108.5 41t-109 -41t-43 -104t43 -104t109 -41t108.5 41t42.5 104zM549 1348q39 0 59.5 18.5t20.5 50.5v45h270v-76q0 -139 -93.5 -219t-256.5 -80t-256.5 80t-93.5 219v76h270v-45q0 -32 20.5 -50.5t59.5 -18.5z" />
    <glyph glyph-name="Gdotaccent" unicode="&#x120;" horiz-adv-x="1529" 
d="M1098 0v152q-141 -177 -398 -177q-141 0 -265 53.5t-212.5 145t-140 220t-51.5 272.5q0 193 94.5 351t260.5 248.5t368 90.5q273 0 470 -161t238 -415h-424q-34 88 -110.5 139.5t-173.5 51.5q-129 0 -214 -87t-85 -218t85 -218.5t214 -87.5q105 0 185 63t105 163h424
v-586h-370zM766 1415q-93 0 -158 62t-65 155q0 92 64.5 154.5t158.5 62.5q93 0 158 -62t65 -155q0 -92 -64.5 -154.5t-158.5 -62.5z" />
    <glyph glyph-name="gdotaccent" unicode="&#x121;" horiz-adv-x="1134" 
d="M1065 41q0 -148 -107.5 -248t-265.5 -100h-610v348h526q78 0 78 61q0 62 -78 62h-78q-218 0 -358.5 121.5t-140.5 310.5q0 186 139 309t350 123q92 0 174 -24h410v-287l-154 8q70 -73 70 -180q0 -130 -102 -232q70 -46 108.5 -116.5t38.5 -155.5zM692 596q0 63 -42.5 104
t-108.5 41t-109 -41t-43 -104t43 -104t109 -41t108.5 41t42.5 104zM549 1087q-93 0 -158 62.5t-65 155.5q0 92 64.5 154.5t158.5 62.5q93 0 158 -62t65 -155q0 -92 -64.5 -155t-158.5 -63z" />
    <glyph glyph-name="Gcommaaccent" unicode="&#x122;" horiz-adv-x="1529" 
d="M1098 0v152q-141 -177 -398 -177q-141 0 -265 53.5t-212.5 145t-140 220t-51.5 272.5q0 193 94.5 351t260.5 248.5t368 90.5q273 0 470 -161t238 -415h-424q-34 88 -110.5 139.5t-173.5 51.5q-129 0 -214 -87t-85 -218t85 -218.5t214 -87.5q105 0 185 63t105 163h424
v-586h-370zM930 -248q0 -55 -27.5 -120.5t-97.5 -174.5h-168q33 61 74 162q-50 15 -79.5 54t-29.5 91q0 68 47 114t117 46q72 0 118 -47t46 -125z" />
    <glyph glyph-name="gcommaaccent" unicode="&#x123;" horiz-adv-x="1134" 
d="M1065 41q0 -148 -107.5 -248t-265.5 -100h-610v348h526q78 0 78 61q0 62 -78 62h-78q-218 0 -358.5 121.5t-140.5 310.5q0 186 139 309t350 123q92 0 174 -24h410v-287l-154 8q70 -73 70 -180q0 -130 -102 -232q70 -46 108.5 -116.5t38.5 -155.5zM692 596q0 63 -42.5 104
t-108.5 41t-109 -41t-43 -104t43 -104t109 -41t108.5 41t42.5 104zM385 1260q0 54 27.5 119.5t97.5 174.5h168q-34 -64 -74 -161q50 -15 79.5 -54.5t29.5 -91.5q0 -68 -47 -114t-117 -46q-72 0 -118 47.5t-46 125.5z" />
    <glyph glyph-name="Hcircumflex" unicode="&#x124;" horiz-adv-x="1204" 
d="M485 164v-164h-413v1331h413v-602q102 66 234 78v524h414v-1331h-414v406q-108 0 -171 -65t-63 -177zM662 1425l-62 172l-61 -172h-332l182 365h426l182 -365h-335z" />
    <glyph glyph-name="hcircumflex" unicode="&#x125;" horiz-adv-x="1091" 
d="M461 557v-557h-400v1331h400v-395q92 92 235 92q151 0 243.5 -111t92.5 -292v-625h-399v557q0 42 -23.5 67t-62.5 25t-62.5 -25t-23.5 -67zM565 1425l-61 172l-62 -172h-331l182 365h426l182 -365h-336z" />
    <glyph glyph-name="Hbar" unicode="&#x126;" horiz-adv-x="1327" 
d="M547 102v-102h-414v872h-123v308h123v151h414v-151h233v151h414v-151h123v-308h-123v-872h-414v344q-108 0 -170.5 -65t-62.5 -177zM547 872v-204q100 65 233 77v127h-233z" />
    <glyph glyph-name="hbar" unicode="&#x127;" horiz-adv-x="1101" 
d="M471 516v-516h-399v1057h-103v176h103v98h399v-98h170v-176h-170v-162q92 92 236 92q151 0 243 -111t92 -292v-584h-399v516q0 42 -23.5 67t-62.5 25t-62.5 -25t-23.5 -67z" />
    <glyph glyph-name="Itilde" unicode="&#x128;" horiz-adv-x="557" 
d="M485 0h-413v1331h413v-1331zM-94 1425v111q0 129 58 196.5t155 67.5q43 0 94.5 -20t92 -40t56.5 -20q29 0 29 37v33h260v-109q0 -131 -58 -198.5t-155 -67.5q-50 0 -102 20t-89.5 40t-51.5 20q-29 0 -29 -37v-33h-260z" />
    <glyph glyph-name="itilde" unicode="&#x129;" horiz-adv-x="522" 
d="M61 1004h400v-1004h-400v1004zM-113 1098v110q0 130 58 197.5t157 67.5q43 0 95 -20t92.5 -40t56.5 -20q29 0 29 37v32h260v-108q0 -131 -58 -199t-155 -68q-50 0 -102.5 20t-90 40t-51.5 20q-28 0 -28 -37v-32h-263z" />
    <glyph glyph-name="Imacron" unicode="&#x12a;" horiz-adv-x="557" 
d="M485 0h-413v1331h413v-1331zM-25 1704h607v-279h-607v279z" />
    <glyph glyph-name="imacron" unicode="&#x12b;" horiz-adv-x="522" 
d="M61 1004h400v-1004h-400v1004zM-43 1376h608v-278h-608v278z" />
    <glyph glyph-name="Ibreve" unicode="&#x12c;" horiz-adv-x="557" 
d="M485 0h-413v1331h413v-1331zM279 1675q39 0 59 19t20 51v45h271v-76q0 -139 -93.5 -219t-256.5 -80t-257 80t-94 219v76h271v-45q0 -32 20.5 -51t59.5 -19z" />
    <glyph glyph-name="ibreve" unicode="&#x12d;" horiz-adv-x="522" 
d="M61 1004h400v-1004h-400v1004zM262 1348q39 0 59.5 18.5t20.5 50.5v45h270v-76q0 -139 -93.5 -219t-256.5 -80t-257.5 80t-94.5 219v76h272v-45q0 -32 20.5 -50.5t59.5 -18.5z" />
    <glyph glyph-name="Iogonek" unicode="&#x12e;" horiz-adv-x="557" 
d="M485 -129v-244h-69q-141 0 -217 55.5t-76 141.5q0 117 113 176h-164v1331h413v-1331q-58 -32 -77 -51t-19 -39q0 -39 47 -39h49z" />
    <glyph glyph-name="iogonek" unicode="&#x12f;" horiz-adv-x="522" 
d="M262 1077q-97 0 -157 57t-60 146t59.5 146t157.5 57q97 0 156 -57t59 -146t-59 -146t-156 -57zM461 -129v-244h-70q-141 0 -217 55.5t-76 141.5q0 117 113 176h-150v1004h400v-1004q-58 -32 -77 -51t-19 -39q0 -39 47 -39h49z" />
    <glyph glyph-name="Idotaccent" unicode="&#x130;" horiz-adv-x="557" 
d="M485 0h-413v1331h413v-1331zM279 1415q-93 0 -158.5 62t-65.5 155q0 92 65 154.5t159 62.5q93 0 158 -62t65 -155q0 -92 -64.5 -154.5t-158.5 -62.5z" />
    <glyph glyph-name="dotlessi" unicode="&#x131;" horiz-adv-x="522" 
d="M61 1004h400v-1004h-400v1004z" />
    <glyph glyph-name="IJ" unicode="&#x132;" horiz-adv-x="1284" 
d="M485 0h-413v1331h413v-1331zM1223 514q0 -246 -146.5 -380t-412.5 -134h-56v379h56q153 0 153 125v459h-209v368h615v-817z" />
    <glyph glyph-name="ij" unicode="&#x133;" horiz-adv-x="1044" 
d="M262 1077q-97 0 -157 57t-60 146t59.5 146t157.5 57q97 0 156 -57t59 -146t-59 -146t-156 -57zM61 1004h400v-1004h-400v1004zM784 1077q-97 0 -157 57t-60 146t59.5 146t157.5 57q97 0 156 -57t59 -146t-59 -146t-156 -57zM584 1004h399v-924q0 -185 -109.5 -286
t-308.5 -101h-71v348h28q62 0 62 59v904z" />
    <glyph glyph-name="Jcircumflex" unicode="&#x134;" horiz-adv-x="727" 
d="M666 514q0 -245 -147 -379.5t-413 -134.5h-55v379h55q75 0 114.5 32t39.5 93v459h-209v368h615v-817zM424 1425l-62 172l-61 -172h-334l185 365h426l182 -365h-336z" />
    <glyph glyph-name="jcircumflex" unicode="&#x135;" horiz-adv-x="522" 
d="M61 1004h400v-924q0 -185 -109.5 -286t-308.5 -101h-72v348h29q61 0 61 59v904zM322 1098l-62 172l-61 -172h-334l184 364h426l182 -364h-335z" />
    <glyph glyph-name="Kcommaaccent" unicode="&#x136;" horiz-adv-x="1228" 
d="M481 133v-133h-409v1331h409v-706l295 706h432l-319 -725q139 -50 217 -165.5t78 -278.5v-162h-420v133q0 74 -37.5 116t-103.5 42q-65 0 -103.5 -42.5t-38.5 -115.5zM782 -248q0 -55 -27.5 -120.5t-97.5 -174.5h-168q33 61 74 162q-50 15 -79 54t-29 91q0 68 46.5 114
t116.5 46q72 0 118 -47t46 -125z" />
    <glyph glyph-name="kcommaaccent" unicode="&#x137;" horiz-adv-x="1087" 
d="M461 186v-186h-400v1331h400v-717l194 390h408l-238 -451q219 -80 219 -373v-180h-399v186q0 43 -25.5 70t-66.5 27t-66.5 -27t-25.5 -70zM711 -248q0 -55 -27.5 -120.5t-97.5 -174.5h-168q33 61 74 162q-50 15 -79.5 54t-29.5 91q0 68 47 114t117 46q72 0 118 -47
t46 -125z" />
    <glyph glyph-name="Lacute" unicode="&#x139;" horiz-adv-x="886" 
d="M846 0h-774v1331h413v-962h361v-369zM129 1425l121 365h391l-207 -365h-305z" />
    <glyph glyph-name="lacute" unicode="&#x13a;" horiz-adv-x="585" 
d="M555 0h-84q-199 0 -308.5 96t-109.5 271v964h400v-923q0 -60 61 -60h41v-348zM100 1425l121 365h391l-206 -365h-306z" />
    <glyph glyph-name="Lcommaaccent" unicode="&#x13b;" horiz-adv-x="886" 
d="M846 0h-774v1331h413v-962h361v-369zM637 -248q0 -55 -27.5 -120.5t-97.5 -174.5h-168q33 61 74 162q-50 15 -79.5 54t-29.5 91q0 68 47 114t117 46q72 0 118 -47t46 -125z" />
    <glyph glyph-name="lcommaaccent" unicode="&#x13c;" horiz-adv-x="585" 
d="M555 0h-84q-199 0 -308.5 96t-109.5 271v964h400v-923q0 -60 61 -60h41v-348zM467 -248q0 -55 -27.5 -120.5t-97.5 -174.5h-168q33 61 74 162q-50 15 -79.5 54t-29.5 91q0 68 47 114t117 46q72 0 118 -47t46 -125z" />
    <glyph glyph-name="Lcaron" unicode="&#x13d;" horiz-adv-x="948" 
d="M846 0h-774v1331h413v-962h361v-369zM588 864v469h350l-70 -469h-280z" />
    <glyph glyph-name="lcaron" unicode="&#x13e;" horiz-adv-x="954" 
d="M555 0h-84q-199 0 -308.5 96t-109.5 271v964h400v-923q0 -60 61 -60h41v-348zM573 862v469h351l-70 -469h-281z" />
    <glyph glyph-name="Ldot" unicode="&#x13f;" horiz-adv-x="1062" 
d="M846 0h-774v1331h413v-962h361v-369zM809 528q-93 0 -158 62t-65 155q0 92 64.5 155t158.5 63q93 0 158 -62.5t65 -155.5q0 -92 -64.5 -154.5t-158.5 -62.5z" />
    <glyph glyph-name="ldot" unicode="&#x140;" horiz-adv-x="1015" 
d="M555 0h-84q-199 0 -308.5 96t-109.5 271v964h400v-923q0 -60 61 -60h41v-348zM758 446q-93 0 -158 62.5t-65 155.5q0 92 64.5 154.5t158.5 62.5q93 0 158 -62t65 -155q0 -92 -64.5 -155t-158.5 -63z" />
    <glyph glyph-name="Lslash" unicode="&#x141;" horiz-adv-x="958" 
d="M918 369v-369h-775v401l-123 -49v369l123 49v561h414v-391l217 88v-369l-217 -88v-202h361z" />
    <glyph glyph-name="lslash" unicode="&#x142;" horiz-adv-x="677" 
d="M627 348v-348h-84q-199 0 -308.5 96t-109.5 271v67l-94 -35v316l94 35v581h399v-438l103 37v-316l-103 -36v-170q0 -60 62 -60h41z" />
    <glyph glyph-name="Nacute" unicode="&#x143;" horiz-adv-x="1204" 
d="M719 0v260q-150 144 -242 293v-553h-405v1331h387q91 -310 268 -543v543h406v-1331h-414zM432 1425l121 365h391l-207 -365h-305z" />
    <glyph glyph-name="nacute" unicode="&#x144;" horiz-adv-x="1091" 
d="M461 557v-557h-400v1004h359v-119q97 143 276 143q151 0 243.5 -111t92.5 -292v-625h-399v557q0 42 -23.5 67t-62.5 25t-62.5 -25t-23.5 -67zM395 1098l121 364h391l-207 -364h-305z" />
    <glyph glyph-name="Ncommaaccent" unicode="&#x145;" horiz-adv-x="1204" 
d="M719 0v260q-150 144 -242 293v-553h-405v1331h387q91 -310 268 -543v543h406v-1331h-414zM766 -248q0 -55 -27.5 -120.5t-97.5 -174.5h-168q33 61 74 162q-50 15 -79.5 54t-29.5 91q0 68 47 114t117 46q72 0 118 -47t46 -125z" />
    <glyph glyph-name="ncommaaccent" unicode="&#x146;" horiz-adv-x="1091" 
d="M461 557v-557h-400v1004h359v-119q97 143 276 143q151 0 243.5 -111t92.5 -292v-625h-399v557q0 42 -23.5 67t-62.5 25t-62.5 -25t-23.5 -67zM709 -248q0 -55 -27.5 -120.5t-97.5 -174.5h-168q28 53 73 162q-50 15 -79 54t-29 91q0 68 47 114t117 46q72 0 118 -47
t46 -125z" />
    <glyph glyph-name="Ncaron" unicode="&#x147;" horiz-adv-x="1204" 
d="M719 0v260q-150 144 -242 293v-553h-405v1331h387q91 -310 268 -543v543h406v-1331h-414zM997 1790l-182 -365h-426l-182 365h336l61 -172l62 172h331z" />
    <glyph glyph-name="ncaron" unicode="&#x148;" horiz-adv-x="1091" 
d="M461 557v-557h-400v1004h359v-119q97 143 276 143q151 0 243.5 -111t92.5 -292v-625h-399v557q0 42 -23.5 67t-62.5 25t-62.5 -25t-23.5 -67zM940 1462l-182 -364h-426l-182 364h335l62 -172l61 172h332z" />
    <glyph glyph-name="Omacron" unicode="&#x14c;" horiz-adv-x="1507" 
d="M31 666q0 193 94.5 351t260.5 248.5t368 90.5t368 -90.5t260.5 -248.5t94.5 -351q0 -144 -55.5 -272.5t-151.5 -220t-230.5 -145t-285.5 -53.5t-285.5 53.5t-230.5 145t-151.5 220t-55.5 272.5zM455 666q0 -130 85.5 -218t213.5 -88t213.5 88t85.5 218t-85.5 217.5
t-213.5 87.5t-213.5 -87.5t-85.5 -217.5zM451 1704h606v-279h-606v279z" />
    <glyph glyph-name="omacron" unicode="&#x14d;" 
d="M588 -25q-236 0 -396.5 151.5t-160.5 375.5q0 147 73 268t201 189.5t283 68.5t283 -68.5t201 -189.5t73 -268q0 -224 -160.5 -375.5t-396.5 -151.5zM588 670q-70 0 -119 -49t-49 -119t49 -119t119 -49t119 49t49 119t-49 119t-119 49zM285 1376h606v-278h-606v278z" />
    <glyph glyph-name="Obreve" unicode="&#x14e;" horiz-adv-x="1507" 
d="M31 666q0 193 94.5 351t260.5 248.5t368 90.5t368 -90.5t260.5 -248.5t94.5 -351q0 -144 -55.5 -272.5t-151.5 -220t-230.5 -145t-285.5 -53.5t-285.5 53.5t-230.5 145t-151.5 220t-55.5 272.5zM455 666q0 -130 85.5 -218t213.5 -88t213.5 88t85.5 218t-85.5 217.5
t-213.5 87.5t-213.5 -87.5t-85.5 -217.5zM754 1675q39 0 59.5 19t20.5 51v45h270v-76q0 -139 -93.5 -219t-256.5 -80t-257 80t-94 219v76h271v-45q0 -32 20.5 -51t59.5 -19z" />
    <glyph glyph-name="obreve" unicode="&#x14f;" 
d="M588 -25q-236 0 -396.5 151.5t-160.5 375.5q0 147 73 268t201 189.5t283 68.5t283 -68.5t201 -189.5t73 -268q0 -224 -160.5 -375.5t-396.5 -151.5zM588 670q-70 0 -119 -49t-49 -119t49 -119t119 -49t119 49t49 119t-49 119t-119 49zM588 1348q39 0 59.5 18.5t20.5 50.5
v45h270v-76q0 -139 -93.5 -219t-256.5 -80t-256.5 80t-93.5 219v76h270v-45q0 -32 20.5 -50.5t59.5 -18.5z" />
    <glyph glyph-name="Ohungarumlaut" unicode="&#x150;" horiz-adv-x="1507" 
d="M31 666q0 193 94.5 351t260.5 248.5t368 90.5t368 -90.5t260.5 -248.5t94.5 -351q0 -144 -55.5 -272.5t-151.5 -220t-230.5 -145t-285.5 -53.5t-285.5 53.5t-230.5 145t-151.5 220t-55.5 272.5zM455 666q0 -130 85.5 -218t213.5 -88t213.5 88t85.5 218t-85.5 217.5
t-213.5 87.5t-213.5 -87.5t-85.5 -217.5zM793 1425l172 365h346l-217 -365h-301zM418 1425l106 365h338l-166 -365h-278z" />
    <glyph glyph-name="ohungarumlaut" unicode="&#x151;" 
d="M588 -25q-236 0 -396.5 151.5t-160.5 375.5q0 147 73 268t201 189.5t283 68.5t283 -68.5t201 -189.5t73 -268q0 -224 -160.5 -375.5t-396.5 -151.5zM588 670q-70 0 -119 -49t-49 -119t49 -119t119 -49t119 49t49 119t-49 119t-119 49zM627 1098l172 364h346l-217 -364
h-301zM252 1098l106 364h338l-166 -364h-278z" />
    <glyph glyph-name="OE" unicode="&#x152;" horiz-adv-x="1724" 
d="M31 666q0 139 55.5 262.5t151.5 211.5t230.5 139.5t285.5 51.5h919v-354h-430v-246q133 111 338 111h41v-348h-61q-105 0 -182.5 -37t-114.5 -103h409v-354h-919q-202 0 -368 87.5t-260.5 240t-94.5 338.5zM754 358h96v615h-96q-127 0 -213 -89t-86 -218
q0 -132 85.5 -220t213.5 -88z" />
    <glyph glyph-name="oe" unicode="&#x153;" horiz-adv-x="1878" 
d="M1841 336q-42 -156 -188.5 -258.5t-337.5 -102.5q-231 0 -371 146q-137 -146 -356 -146q-236 0 -396.5 151.5t-160.5 375.5q0 147 73 268t201 189.5t283 68.5q221 0 358 -143q137 143 359 143q236 0 389 -148t153 -378v-80h-698q6 -66 51 -106t115 -40q91 0 145 60h381z
M1307 745q-60 0 -102.5 -36t-53.5 -93h309q-11 57 -53 93t-100 36zM588 334q70 0 119 49t49 119t-49 119t-119 49t-119 -49t-49 -119t49 -119t119 -49z" />
    <glyph glyph-name="Racute" unicode="&#x154;" horiz-adv-x="1216" 
d="M72 0v1331h471q265 0 424 -119.5t159 -316.5q0 -130 -54.5 -218.5t-149.5 -154.5q127 -59 195.5 -170t68.5 -262v-90h-430v121q0 66 -37.5 103.5t-100.5 37.5t-100 -37.5t-37 -103.5v-121h-409zM481 952v-360q33 31 99 71.5t97.5 76t31.5 91.5t-41 88.5t-115 32.5h-72z
M420 1425l121 365h391l-207 -365h-305z" />
    <glyph glyph-name="racute" unicode="&#x155;" horiz-adv-x="772" 
d="M461 547v-547h-400v1004h359v-117q94 141 270 141h41v-369h-158q-54 0 -83 -29t-29 -83zM236 1098l120 364h392l-207 -364h-305z" />
    <glyph glyph-name="Rcommaaccent" unicode="&#x156;" horiz-adv-x="1216" 
d="M72 0v1331h471q265 0 424 -119.5t159 -316.5q0 -130 -54.5 -218.5t-149.5 -154.5q127 -59 195.5 -170t68.5 -262v-90h-430v121q0 66 -37.5 103.5t-100.5 37.5t-100 -37.5t-37 -103.5v-121h-409zM481 952v-360q33 31 99 71.5t97.5 76t31.5 91.5t-41 88.5t-115 32.5h-72z
M774 -248q0 -55 -27.5 -120.5t-97.5 -174.5h-168q33 61 74 162q-50 15 -79.5 54t-29.5 91q0 68 47 114t117 46q72 0 118 -47t46 -125z" />
    <glyph glyph-name="rcommaaccent" unicode="&#x157;" horiz-adv-x="772" 
d="M461 547v-547h-400v1004h359v-117q94 141 270 141h41v-369h-158q-54 0 -83 -29t-29 -83zM420 -248q0 -55 -27.5 -120.5t-97.5 -174.5h-168q33 61 74 162q-50 15 -79.5 54t-29.5 91q0 68 47 114t117 46q72 0 118 -47t46 -125z" />
    <glyph glyph-name="Rcaron" unicode="&#x158;" horiz-adv-x="1216" 
d="M72 0v1331h471q265 0 424 -119.5t159 -316.5q0 -130 -54.5 -218.5t-149.5 -154.5q127 -59 195.5 -170t68.5 -262v-90h-430v121q0 66 -37.5 103.5t-100.5 37.5t-100 -37.5t-37 -103.5v-121h-409zM481 952v-360q33 31 99 71.5t97.5 76t31.5 91.5t-41 88.5t-115 32.5h-72z
M965 1790l-183 -365h-426l-182 365h336l61 -172l62 172h332z" />
    <glyph glyph-name="rcaron" unicode="&#x159;" horiz-adv-x="772" 
d="M461 547v-547h-400v1004h359v-117q94 141 270 141h41v-369h-158q-54 0 -83 -29t-29 -83zM780 1462l-182 -364h-426l-182 364h336l61 -172l62 172h331z" />
    <glyph glyph-name="Sacute" unicode="&#x15a;" horiz-adv-x="1087" 
d="M557 -25q-232 0 -376 124t-144 323h399q0 -51 30.5 -80t84.5 -29q47 0 76.5 23t29.5 57q0 33 -34 55.5t-89 38t-121 32.5t-132 46t-121 71t-89 115.5t-34 170.5q0 178 137.5 306t351.5 128q229 0 370.5 -122t141.5 -319h-399q0 48 -30 75.5t-83 27.5q-39 0 -64.5 -21.5
t-25.5 -52.5q0 -26 21 -45.5t57 -33t83 -25.5t98.5 -27.5t102.5 -35t98 -51.5t83 -73.5t57 -104t21 -140.5q0 -184 -139 -308.5t-361 -124.5zM389 1425l121 365h391l-207 -365h-305z" />
    <glyph glyph-name="sacute" unicode="&#x15b;" horiz-adv-x="937" 
d="M72 0v297h417q33 0 33 22q0 15 -26.5 24t-69 15.5t-93.5 15.5t-102.5 30.5t-94 53.5t-69 90t-26.5 136q0 142 107.5 231t279.5 89h422v-297h-399q-27 0 -27 -23q0 -14 26.5 -22.5t69 -14.5t93.5 -14t102.5 -28t94 -51t69 -87.5t26.5 -132.5q0 -145 -111.5 -239.5
t-304.5 -94.5h-417zM342 1098l121 364h391l-207 -364h-305z" />
    <glyph glyph-name="Scircumflex" unicode="&#x15c;" horiz-adv-x="1087" 
d="M557 -25q-232 0 -376 124t-144 323h399q0 -51 30.5 -80t84.5 -29q47 0 76.5 23t29.5 57q0 33 -34 55.5t-89 38t-121 32.5t-132 46t-121 71t-89 115.5t-34 170.5q0 178 137.5 306t351.5 128q229 0 370.5 -122t141.5 -319h-399q0 48 -30 75.5t-83 27.5q-39 0 -64.5 -21.5
t-25.5 -52.5q0 -26 21 -45.5t57 -33t83 -25.5t98.5 -27.5t102.5 -35t98 -51.5t83 -73.5t57 -104t21 -140.5q0 -184 -139 -308.5t-361 -124.5zM598 1425l-61 172l-62 -172h-332l183 365h426l182 -365h-336z" />
    <glyph glyph-name="scircumflex" unicode="&#x15d;" horiz-adv-x="937" 
d="M72 0v297h417q33 0 33 22q0 15 -26.5 24t-69 15.5t-93.5 15.5t-102.5 30.5t-94 53.5t-69 90t-26.5 136q0 142 107.5 231t279.5 89h422v-297h-399q-27 0 -27 -23q0 -14 26.5 -22.5t69 -14.5t93.5 -14t102.5 -28t94 -51t69 -87.5t26.5 -132.5q0 -145 -111.5 -239.5
t-304.5 -94.5h-417zM528 1098l-61 172l-61 -172h-332l182 364h426l182 -364h-336z" />
    <glyph glyph-name="Scedilla" unicode="&#x15e;" horiz-adv-x="1087" 
d="M1057 408q0 -144 -88.5 -255t-241.5 -155v-268h-342l31 260q-173 34 -276 150t-103 282h399q0 -51 30.5 -80t84.5 -29q47 0 76.5 23t29.5 57q0 33 -34 55.5t-89 38t-121 32.5t-132 46t-121 71t-89 115.5t-34 170.5q0 178 137.5 306t351.5 128q229 0 370.5 -122
t141.5 -319h-399q0 48 -30 75.5t-83 27.5q-39 0 -64.5 -21.5t-25.5 -52.5q0 -26 21 -45.5t57 -33t83 -25.5t98.5 -27.5t102.5 -35t98 -51.5t83 -73.5t57 -104t21 -140.5z" />
    <glyph glyph-name="scedilla" unicode="&#x15f;" horiz-adv-x="937" 
d="M905 334q0 -119 -75.5 -205.5t-211.5 -116.5v-282h-342l33 270h-237v297h417q33 0 33 22q0 15 -26.5 24t-69 15.5t-93.5 15.5t-102.5 30.5t-94 53.5t-69 90t-26.5 136q0 142 107.5 231t279.5 89h422v-297h-399q-27 0 -27 -23q0 -14 26.5 -22.5t69 -14.5t93.5 -14
t102.5 -28t94 -51t69 -87.5t26.5 -132.5z" />
    <glyph glyph-name="Scaron" unicode="&#x160;" horiz-adv-x="1087" 
d="M557 -25q-232 0 -376 124t-144 323h399q0 -51 30.5 -80t84.5 -29q47 0 76.5 23t29.5 57q0 33 -34 55.5t-89 38t-121 32.5t-132 46t-121 71t-89 115.5t-34 170.5q0 178 137.5 306t351.5 128q229 0 370.5 -122t141.5 -319h-399q0 48 -30 75.5t-83 27.5q-39 0 -64.5 -21.5
t-25.5 -52.5q0 -26 21 -45.5t57 -33t83 -25.5t98.5 -27.5t102.5 -35t98 -51.5t83 -73.5t57 -104t21 -140.5q0 -184 -139 -308.5t-361 -124.5zM934 1790l-182 -365h-426l-183 365h336l62 -172l61 172h332z" />
    <glyph glyph-name="scaron" unicode="&#x161;" horiz-adv-x="937" 
d="M72 0v297h417q33 0 33 22q0 15 -26.5 24t-69 15.5t-93.5 15.5t-102.5 30.5t-94 53.5t-69 90t-26.5 136q0 142 107.5 231t279.5 89h422v-297h-399q-27 0 -27 -23q0 -14 26.5 -22.5t69 -14.5t93.5 -14t102.5 -28t94 -51t69 -87.5t26.5 -132.5q0 -145 -111.5 -239.5
t-304.5 -94.5h-417zM864 1462l-182 -364h-426l-182 364h336l61 -172l61 172h332z" />
    <glyph glyph-name="uni0162" unicode="&#x162;" horiz-adv-x="1011" 
d="M971 946q-178 31 -260 37v-983h-410v981q-108 -7 -260 -35v367q193 43 465 43q266 0 465 -43v-367zM670 -248q0 -55 -27.5 -120.5t-97.5 -174.5h-168q33 61 74 162q-50 15 -79.5 54t-29.5 91q0 68 47 114t117 46q72 0 118 -47t46 -125z" />
    <glyph glyph-name="uni0163" unicode="&#x163;" horiz-adv-x="751" 
d="M700 348v-348h-211q-209 0 -323.5 104t-114.5 293v770l400 88v-251h249v-349h-249v-231q0 -40 21 -58t65 -18h163zM551 -248q0 -55 -27.5 -120.5t-97.5 -174.5h-168q33 61 74 162q-50 15 -79.5 54t-29.5 91q0 68 47 114t117 46q72 0 118 -47t46 -125z" />
    <glyph glyph-name="Tcaron" unicode="&#x164;" horiz-adv-x="1011" 
d="M971 946q-178 31 -260 37v-983h-410v981q-108 -7 -260 -35v367q193 43 465 43q266 0 465 -43v-367zM901 1790l-182 -365h-426l-182 365h335l62 -172l61 172h332z" />
    <glyph glyph-name="tcaron" unicode="&#x165;" horiz-adv-x="751" 
d="M700 348v-348h-211q-209 0 -323.5 104t-114.5 293v770l400 88v-251h249v-349h-249v-231q0 -40 21 -58t65 -18h163zM535 1085v469h350l-70 -469h-280z" />
    <glyph glyph-name="Tbar" unicode="&#x166;" horiz-adv-x="1011" 
d="M895 446h-184v-446h-410v446h-184v308h184v227q-135 -12 -260 -35v367q193 43 465 43q266 0 465 -43v-367q-158 27 -260 35v-227h184v-308z" />
    <glyph glyph-name="tbar" unicode="&#x167;" horiz-adv-x="792" 
d="M741 348v-348h-211q-209 0 -323.5 104t-114.5 293v29h-92v156h92v585l400 88v-251h249v-349h-249v-73h221v-156h-221v-2q0 -40 21 -58t65 -18h163z" />
    <glyph glyph-name="Utilde" unicode="&#x168;" horiz-adv-x="1183" 
d="M592 375q54 0 85.5 34t31.5 93v829h413v-829q0 -242 -143 -384.5t-387 -142.5t-387.5 142.5t-143.5 384.5v829h414v-829q0 -59 31.5 -93t85.5 -34zM219 1425v111q0 129 58 196.5t155 67.5q43 0 95 -20t92.5 -40t56.5 -20q29 0 29 37v33h260v-109q0 -131 -58 -198.5
t-155 -67.5q-50 0 -102.5 20t-90 40t-51.5 20q-29 0 -29 -37v-33h-260z" />
    <glyph glyph-name="utilde" unicode="&#x169;" horiz-adv-x="1077" 
d="M57 1004h400v-584q0 -39 22.5 -62.5t59.5 -23.5t59.5 23.5t22.5 62.5v584h399v-564q0 -217 -128.5 -341t-352.5 -124t-353 124t-129 341v564zM166 1098v110q0 130 58 197.5t155 67.5q43 0 95 -20t92.5 -40t56.5 -20q28 0 28 37v32h260v-108q0 -131 -58 -199t-155 -68
q-50 0 -102 20t-89.5 40t-51.5 20q-29 0 -29 -37v-32h-260z" />
    <glyph glyph-name="Umacron" unicode="&#x16a;" horiz-adv-x="1183" 
d="M592 375q54 0 85.5 34t31.5 93v829h413v-829q0 -242 -143 -384.5t-387 -142.5t-387.5 142.5t-143.5 384.5v829h414v-829q0 -59 31.5 -93t85.5 -34zM289 1704h606v-279h-606v279z" />
    <glyph glyph-name="umacron" unicode="&#x16b;" horiz-adv-x="1077" 
d="M57 1004h400v-584q0 -39 22.5 -62.5t59.5 -23.5t59.5 23.5t22.5 62.5v584h399v-564q0 -217 -128.5 -341t-352.5 -124t-353 124t-129 341v564zM236 1376h606v-278h-606v278z" />
    <glyph glyph-name="Ubreve" unicode="&#x16c;" horiz-adv-x="1183" 
d="M592 375q54 0 85.5 34t31.5 93v829h413v-829q0 -242 -143 -384.5t-387 -142.5t-387.5 142.5t-143.5 384.5v829h414v-829q0 -59 31.5 -93t85.5 -34zM592 1675q39 0 59.5 19t20.5 51v45h270v-76q0 -139 -93.5 -219t-256.5 -80t-256.5 80t-93.5 219v76h270v-45
q0 -32 20.5 -51t59.5 -19z" />
    <glyph glyph-name="ubreve" unicode="&#x16d;" horiz-adv-x="1077" 
d="M57 1004h400v-584q0 -39 22.5 -62.5t59.5 -23.5t59.5 23.5t22.5 62.5v584h399v-564q0 -217 -128.5 -341t-352.5 -124t-353 124t-129 341v564zM539 1348q39 0 59 18.5t20 50.5v45h271v-76q0 -139 -93.5 -219t-256.5 -80t-257 80t-94 219v76h271v-45q0 -32 20.5 -50.5
t59.5 -18.5z" />
    <glyph glyph-name="Uring" unicode="&#x16e;" horiz-adv-x="1183" 
d="M592 375q54 0 85.5 34t31.5 93v829h413v-829q0 -242 -143 -384.5t-387 -142.5t-387.5 142.5t-143.5 384.5v829h414v-829q0 -59 31.5 -93t85.5 -34zM592 1415q-137 0 -230.5 86t-93.5 213q0 132 90.5 215.5t233.5 83.5q137 0 230 -86t93 -213q0 -132 -90 -215.5
t-233 -83.5zM592 1630q38 0 62 23.5t24 60.5q0 35 -24.5 59.5t-61.5 24.5q-38 0 -62 -23.5t-24 -60.5q0 -35 24.5 -59.5t61.5 -24.5z" />
    <glyph glyph-name="uring" unicode="&#x16f;" horiz-adv-x="1077" 
d="M57 1004h400v-584q0 -39 22.5 -62.5t59.5 -23.5t59.5 23.5t22.5 62.5v584h399v-564q0 -217 -128.5 -341t-352.5 -124t-353 124t-129 341v564zM539 1087q-137 0 -230.5 86t-93.5 213q0 132 90.5 216t233.5 84q137 0 230 -86.5t93 -213.5q0 -132 -90 -215.5t-233 -83.5z
M539 1303q38 0 62 23t24 60q0 35 -24.5 59.5t-61.5 24.5q-38 0 -62 -23.5t-24 -60.5q0 -34 24.5 -58.5t61.5 -24.5z" />
    <glyph glyph-name="Uhungarumlaut" unicode="&#x170;" horiz-adv-x="1183" 
d="M592 375q54 0 85.5 34t31.5 93v829h413v-829q0 -242 -143 -384.5t-387 -142.5t-387.5 142.5t-143.5 384.5v829h414v-829q0 -59 31.5 -93t85.5 -34zM631 1425l172 365h346l-217 -365h-301zM256 1425l106 365h338l-165 -365h-279z" />
    <glyph glyph-name="uhungarumlaut" unicode="&#x171;" horiz-adv-x="1077" 
d="M57 1004h400v-584q0 -39 22.5 -62.5t59.5 -23.5t59.5 23.5t22.5 62.5v584h399v-564q0 -217 -128.5 -341t-352.5 -124t-353 124t-129 341v564zM578 1098l172 364h346l-217 -364h-301zM203 1098l106 364h338l-166 -364h-278z" />
    <glyph glyph-name="Uogonek" unicode="&#x172;" horiz-adv-x="1183" 
d="M774 -129v-244h-69q-133 0 -213 54t-80 143q0 101 84 158q-202 28 -318.5 166t-116.5 354v829h414v-829q0 -59 31.5 -93t85.5 -34t85.5 34t31.5 93v829h413v-829q0 -178 -78 -303.5t-231 -188.5q-78 -33 -106.5 -53.5t-28.5 -46.5q0 -39 47 -39h49z" />
    <glyph glyph-name="uogonek" unicode="&#x173;" horiz-adv-x="1077" 
d="M717 -129v-244h-70q-141 0 -217 55.5t-76 141.5q0 103 84 160q-180 26 -280.5 146t-100.5 310v564h400v-584q0 -39 22.5 -62.5t59.5 -23.5t59.5 23.5t22.5 62.5v584h399v-564q0 -168 -70.5 -270t-212.5 -168q-72 -33 -94 -52t-22 -40q0 -39 47 -39h49z" />
    <glyph glyph-name="Wcircumflex" unicode="&#x174;" horiz-adv-x="1726" 
d="M750 0v160q-144 -160 -390 -160h-288v1331h411v-919q91 11 138 68.5t47 158.5v692h393v-913q68 15 104 65.5t47 143.5l80 704h414l-80 -704q-36 -315 -226.5 -471t-512.5 -156h-137zM926 1425l-62 172l-61 -172h-332l182 365h426l183 -365h-336z" />
    <glyph glyph-name="wcircumflex" unicode="&#x175;" horiz-adv-x="1597" 
d="M61 0v1004h398v-656h39q55 0 84 29q28 28 28 82v545h385v-656h21q51 0 74.5 23.5t29.5 79.5l60 553h397l-64 -553q-26 -229 -148.5 -340t-350.5 -111h-332v109q-56 -52 -131 -78q-85 -31 -197 -31h-293zM860 1098l-61 172l-62 -172h-331l182 364h426l182 -364h-336z" />
    <glyph glyph-name="Ycircumflex" unicode="&#x176;" horiz-adv-x="1169" 
d="M1159 1331l-336 -1331h-430l86 324q-198 38 -318 190t-120 385q0 215 68 432h397q-64 -253 -64 -416q0 -94 38 -149.5t100 -63.5l168 629h411zM686 1425l-61 172l-62 -172h-332l183 365h426l182 -365h-336z" />
    <glyph glyph-name="ycircumflex" unicode="&#x177;" horiz-adv-x="1101" 
d="M1092 1004l-340 -1311h-414l82 307q-174 51 -276.5 196.5t-102.5 358.5q0 227 74 449h393q-74 -249 -74 -431q0 -149 88 -188l164 619h406zM670 1098l-62 172l-61 -172h-332l182 364h426l183 -364h-336z" />
    <glyph glyph-name="Ydieresis" unicode="&#x178;" horiz-adv-x="1169" 
d="M1159 1331l-336 -1331h-430l86 324q-198 38 -318 190t-120 385q0 215 68 432h397q-64 -253 -64 -416q0 -94 38 -149.5t100 -63.5l168 629h411zM406 1415q-83 0 -136 51.5t-53 128.5q0 80 52.5 132.5t136.5 52.5q82 0 135 -52t53 -129q0 -79 -52 -131.5t-136 -52.5z
M848 1415q-83 0 -136 51.5t-53 128.5q0 80 52.5 132.5t136.5 52.5q82 0 135 -52t53 -129q0 -79 -52 -131.5t-136 -52.5z" />
    <glyph glyph-name="Zacute" unicode="&#x179;" horiz-adv-x="1040" 
d="M1010 369v-369h-979l397 963h-387v368h979l-395 -962h385zM367 1425l120 365h392l-207 -365h-305z" />
    <glyph glyph-name="zacute" unicode="&#x17a;" horiz-adv-x="931" 
d="M881 348v-348h-850l317 655h-307v349h866l-315 -656h289zM317 1098l121 364h391l-206 -364h-306z" />
    <glyph glyph-name="Zdotaccent" unicode="&#x17b;" horiz-adv-x="1040" 
d="M1010 369v-369h-979l397 963h-387v368h979l-395 -962h385zM526 1415q-93 0 -158 62t-65 155q0 92 64.5 154.5t158.5 62.5q93 0 158.5 -62t65.5 -155q0 -92 -65 -154.5t-159 -62.5z" />
    <glyph glyph-name="zdotaccent" unicode="&#x17c;" horiz-adv-x="931" 
d="M881 348v-348h-850l317 655h-307v349h866l-315 -656h289zM467 1087q-93 0 -158 62.5t-65 155.5q0 92 64.5 154.5t158.5 62.5q93 0 158 -62t65 -155q0 -92 -64.5 -155t-158.5 -63z" />
    <glyph glyph-name="Zcaron" unicode="&#x17d;" horiz-adv-x="1040" 
d="M1010 369v-369h-979l397 963h-387v368h979l-395 -962h385zM942 1790l-182 -365h-426l-182 365h335l62 -172l61 172h332z" />
    <glyph glyph-name="zcaron" unicode="&#x17e;" horiz-adv-x="931" 
d="M881 348v-348h-850l317 655h-307v349h866l-315 -656h289zM862 1462l-182 -364h-426l-182 364h336l61 -172l61 172h332z" />
    <glyph glyph-name="uni0218" unicode="&#x218;" horiz-adv-x="1087" 
d="M557 -25q-232 0 -376 124t-144 323h399q0 -51 30.5 -80t84.5 -29q47 0 76.5 23t29.5 57q0 33 -34 55.5t-89 38t-121 32.5t-132 46t-121 71t-89 115.5t-34 170.5q0 178 137.5 306t351.5 128q229 0 370.5 -122t141.5 -319h-399q0 48 -30 75.5t-83 27.5q-39 0 -64.5 -21.5
t-25.5 -52.5q0 -26 21 -45.5t57 -33t83 -25.5t98.5 -27.5t102.5 -35t98 -51.5t83 -73.5t57 -104t21 -140.5q0 -184 -139 -308.5t-361 -124.5zM702 -248q0 -55 -27.5 -120.5t-96.5 -174.5h-168q28 53 73 162q-50 15 -79 54t-29 91q0 68 47 114t117 46q72 0 117.5 -47
t45.5 -125z" />
    <glyph glyph-name="uni0219" unicode="&#x219;" horiz-adv-x="937" 
d="M72 0v297h417q33 0 33 22q0 15 -26.5 24t-69 15.5t-93.5 15.5t-102.5 30.5t-94 53.5t-69 90t-26.5 136q0 142 107.5 231t279.5 89h422v-297h-399q-27 0 -27 -23q0 -14 26.5 -22.5t69 -14.5t93.5 -14t102.5 -28t94 -51t69 -87.5t26.5 -132.5q0 -145 -111.5 -239.5
t-304.5 -94.5h-417zM635 -248q0 -55 -27.5 -120.5t-97.5 -174.5h-168q33 61 74 162q-50 15 -79.5 54t-29.5 91q0 68 47 114t117 46q72 0 118 -47t46 -125z" />
    <glyph glyph-name="uni021A" unicode="&#x21a;" horiz-adv-x="1011" 
d="M971 946q-178 31 -260 37v-983h-410v981q-108 -7 -260 -35v367q193 43 465 43q266 0 465 -43v-367zM670 -248q0 -55 -27.5 -120.5t-97.5 -174.5h-168q33 61 74 162q-50 15 -79.5 54t-29.5 91q0 68 47 114t117 46q72 0 118 -47t46 -125z" />
    <glyph glyph-name="uni021B" unicode="&#x21b;" horiz-adv-x="751" 
d="M700 348v-348h-211q-209 0 -323.5 104t-114.5 293v770l400 88v-251h249v-349h-249v-231q0 -40 21 -58t65 -18h163zM551 -248q0 -55 -27.5 -120.5t-97.5 -174.5h-168q33 61 74 162q-50 15 -79.5 54t-29.5 91q0 68 47 114t117 46q72 0 118 -47t46 -125z" />
    <glyph glyph-name="dotlessj" unicode="&#x237;" horiz-adv-x="522" 
d="M61 1004h400v-924q0 -185 -109.5 -286t-308.5 -101h-72v348h29q61 0 61 59v904z" />
    <glyph glyph-name="circumflex" unicode="&#x2c6;" horiz-adv-x="1024" 
d="M571 1098l-61 172l-61 -172h-332l182 364h426l182 -364h-336z" />
    <glyph glyph-name="caron" unicode="&#x2c7;" horiz-adv-x="1024" 
d="M907 1462l-182 -364h-426l-182 364h336l61 -172l61 172h332z" />
    <glyph glyph-name="breve" unicode="&#x2d8;" horiz-adv-x="1024" 
d="M512 1348q39 0 59.5 18.5t20.5 50.5v45h270v-76q0 -139 -93.5 -219t-256.5 -80t-256.5 80t-93.5 219v76h270v-45q0 -32 20.5 -50.5t59.5 -18.5z" />
    <glyph glyph-name="dotaccent" unicode="&#x2d9;" horiz-adv-x="1024" 
d="M512 1087q-93 0 -158 62.5t-65 155.5q0 92 64.5 154.5t158.5 62.5q93 0 158 -62t65 -155q0 -92 -64.5 -155t-158.5 -63z" />
    <glyph glyph-name="ring" unicode="&#x2da;" horiz-adv-x="1024" 
d="M512 1087q-137 0 -230.5 86t-93.5 213q0 132 90.5 216t233.5 84q137 0 230.5 -86.5t93.5 -213.5q0 -132 -90.5 -215.5t-233.5 -83.5zM512 1303q38 0 62 23t24 60q0 35 -24.5 59.5t-61.5 24.5q-38 0 -62 -23.5t-24 -60.5q0 -34 24 -58.5t62 -24.5z" />
    <glyph glyph-name="ogonek" unicode="&#x2db;" horiz-adv-x="1024" 
d="M700 -373h-69q-141 0 -217 55.5t-76 141.5q0 93 74 152t262 85l26 -61q-58 -32 -77 -51t-19 -39q0 -39 47 -39h49v-244z" />
    <glyph glyph-name="tilde" unicode="&#x2dc;" horiz-adv-x="1024" 
d="M139 1098v110q0 130 58 197.5t155 67.5q43 0 95 -20t92.5 -40t56.5 -20q29 0 29 37v32h260v-108q0 -131 -58 -199t-155 -68q-50 0 -102.5 20t-90 40t-51.5 20q-29 0 -29 -37v-32h-260z" />
    <glyph glyph-name="hungarumlaut" unicode="&#x2dd;" horiz-adv-x="1024" 
d="M551 1098l172 364h346l-217 -364h-301zM176 1098l107 364h338l-166 -364h-279z" />
    <glyph glyph-name="Wgrave" unicode="&#x1e80;" horiz-adv-x="1726" 
d="M750 0v160q-144 -160 -390 -160h-288v1331h411v-919q91 11 138 68.5t47 158.5v692h393v-913q68 15 104 65.5t47 143.5l80 704h414l-80 -704q-36 -315 -226.5 -471t-512.5 -156h-137zM1022 1425h-305l-228 365h402z" />
    <glyph glyph-name="wgrave" unicode="&#x1e81;" horiz-adv-x="1597" 
d="M61 0v1004h398v-656h39q55 0 84 29q28 28 28 82v545h385v-656h21q51 0 74.5 23.5t29.5 79.5l60 553h397l-64 -553q-26 -229 -148.5 -340t-350.5 -111h-332v109q-56 -52 -131 -78q-85 -31 -197 -31h-293zM956 1098h-305l-227 364h401z" />
    <glyph glyph-name="Wacute" unicode="&#x1e82;" horiz-adv-x="1726" 
d="M750 0v160q-144 -160 -390 -160h-288v1331h411v-919q91 11 138 68.5t47 158.5v692h393v-913q68 15 104 65.5t47 143.5l80 704h414l-80 -704q-36 -315 -226.5 -471t-512.5 -156h-137zM717 1425l121 365h391l-207 -365h-305z" />
    <glyph glyph-name="wacute" unicode="&#x1e83;" horiz-adv-x="1597" 
d="M61 0v1004h398v-656h39q55 0 84 29q28 28 28 82v545h385v-656h21q51 0 74.5 23.5t29.5 79.5l60 553h397l-64 -553q-26 -229 -148.5 -340t-350.5 -111h-332v109q-56 -52 -131 -78q-85 -31 -197 -31h-293zM651 1098l121 364h391l-207 -364h-305z" />
    <glyph glyph-name="Wdieresis" unicode="&#x1e84;" horiz-adv-x="1726" 
d="M750 0v160q-144 -160 -390 -160h-288v1331h411v-919q91 11 138 68.5t47 158.5v692h393v-913q68 15 104 65.5t47 143.5l80 704h414l-80 -704q-36 -315 -226.5 -471t-512.5 -156h-137zM645 1415q-82 0 -135 51.5t-53 128.5q0 80 52 132.5t136 52.5q82 0 135.5 -52
t53.5 -129q0 -79 -52.5 -131.5t-136.5 -52.5zM1087 1415q-82 0 -135 51.5t-53 128.5q0 80 52 132.5t136 52.5q82 0 135.5 -52t53.5 -129q0 -79 -52.5 -131.5t-136.5 -52.5z" />
    <glyph glyph-name="wdieresis" unicode="&#x1e85;" horiz-adv-x="1597" 
d="M61 0v1004h398v-656h39q55 0 84 29q28 28 28 82v545h385v-656h21q51 0 74.5 23.5t29.5 79.5l60 553h397l-64 -553q-26 -229 -148.5 -340t-350.5 -111h-332v109q-56 -52 -131 -78q-85 -31 -197 -31h-293zM580 1087q-82 0 -135.5 52t-53.5 129q0 80 52.5 132t136.5 52
q82 0 135 -51.5t53 -128.5q0 -79 -52.5 -132t-135.5 -53zM1022 1087q-82 0 -135 52t-53 129q0 80 52 132t136 52q82 0 135 -51.5t53 -128.5q0 -79 -52.5 -132t-135.5 -53z" />
    <glyph glyph-name="Germandbls" unicode="&#x1e9e;" horiz-adv-x="1296" 
d="M475 850v-850h-414v807q0 237 144.5 380.5t382.5 143.5h622l-174 -497q112 -53 174 -148.5t62 -218.5q0 -223 -142.5 -345t-400.5 -122h-127v348h127q68 0 105.5 31t37.5 88t-37.5 88t-105.5 31h-147l147 387h-135q-54 0 -86.5 -33.5t-32.5 -89.5z" />
    <glyph glyph-name="Ygrave" unicode="&#x1ef2;" horiz-adv-x="1169" 
d="M1159 1331l-336 -1331h-430l86 324q-198 38 -318 190t-120 385q0 215 68 432h397q-64 -253 -64 -416q0 -94 38 -149.5t100 -63.5l168 629h411zM782 1425h-305l-227 365h401z" />
    <glyph glyph-name="ygrave" unicode="&#x1ef3;" horiz-adv-x="1101" 
d="M1092 1004l-340 -1311h-414l82 307q-174 51 -276.5 196.5t-102.5 358.5q0 227 74 449h393q-74 -249 -74 -431q0 -149 88 -188l164 619h406zM756 1098h-305l-228 364h402z" />
    <glyph glyph-name="endash" unicode="&#x2013;" horiz-adv-x="1024" 
d="M51 686h922v-369h-922v369z" />
    <glyph glyph-name="emdash" unicode="&#x2014;" horiz-adv-x="2048" 
d="M51 686h1946v-369h-1946v369z" />
    <glyph glyph-name="quoteleft" unicode="&#x2018;" horiz-adv-x="528" 
d="M487 899q0 -94 -63 -155.5t-160 -61.5q-99 0 -161 65t-62 171q0 75 39.5 170.5t130.5 242.5h231q-65 -125 -104 -225q67 -22 108 -78.5t41 -128.5z" />
    <glyph glyph-name="quoteright" unicode="&#x2019;" horiz-adv-x="528" 
d="M487 1120q0 -75 -39.5 -170.5t-130.5 -242.5h-231q65 125 104 225q-67 22 -108 78.5t-41 128.5q0 94 63 155.5t160 61.5q99 0 161 -65t62 -171z" />
    <glyph glyph-name="quotesinglbase" unicode="&#x201a;" horiz-adv-x="528" 
d="M487 174q0 -75 -39.5 -171t-130.5 -243h-231q64 122 104 226q-67 22 -108 78.5t-41 128.5q0 94 63 155.5t160 61.5q99 0 161 -65t62 -171z" />
    <glyph glyph-name="quotedblleft" unicode="&#x201c;" horiz-adv-x="1062" 
d="M487 899q0 -94 -63 -155.5t-160 -61.5q-99 0 -161 65t-62 171q0 75 39.5 170.5t130.5 242.5h231q-65 -125 -104 -225q67 -22 108 -78.5t41 -128.5zM1022 899q0 -94 -63 -155.5t-160 -61.5q-99 0 -161.5 65t-62.5 171q0 75 39.5 170.5t130.5 242.5h232q-69 -132 -105 -225
q68 -22 109 -78.5t41 -128.5z" />
    <glyph glyph-name="quotedblright" unicode="&#x201d;" horiz-adv-x="1062" 
d="M487 1120q0 -75 -39.5 -170.5t-130.5 -242.5h-231q65 125 104 225q-67 22 -108 78.5t-41 128.5q0 94 63 155.5t160 61.5q99 0 161 -65t62 -171zM1022 1120q0 -75 -39.5 -170.5t-130.5 -242.5h-231q65 125 104 225q-68 22 -109 78.5t-41 128.5q0 94 63.5 155.5t160.5 61.5
q99 0 161 -65t62 -171z" />
    <glyph glyph-name="quotedblbase" unicode="&#x201e;" horiz-adv-x="1062" 
d="M487 174q0 -75 -39.5 -171t-130.5 -243h-231q64 122 104 226q-67 22 -108 78.5t-41 128.5q0 94 63 155.5t160 61.5q99 0 161 -65t62 -171zM1022 174q0 -75 -39.5 -171t-130.5 -243h-231q64 122 104 226q-68 22 -109 78.5t-41 128.5q0 94 63.5 155.5t160.5 61.5
q99 0 161 -65t62 -171z" />
    <glyph glyph-name="dagger" unicode="&#x2020;" horiz-adv-x="1064" 
d="M733 -307h-401l18 958l-309 -16v369l307 -17l-16 344h401l-16 -344l307 17v-369l-309 16z" />
    <glyph glyph-name="daggerdbl" unicode="&#x2021;" horiz-adv-x="1064" 
d="M733 -307h-401l16 323l-307 -16v369l311 -17v299l-311 -16v369l307 -17l-16 344h401l-16 -344l307 17v-369l-311 16v-299l311 17v-369l-307 16z" />
    <glyph glyph-name="bullet" unicode="&#x2022;" horiz-adv-x="659" 
d="M330 862q128 0 208 -78.5t80 -199.5q0 -120 -79.5 -199.5t-208.5 -79.5q-128 0 -208.5 79t-80.5 200q0 120 80 199t209 79z" />
    <glyph glyph-name="ellipsis" unicode="&#x2026;" horiz-adv-x="1634" 
d="M264 -25q-93 0 -158 62.5t-65 155.5q0 92 64.5 154.5t158.5 62.5q93 0 158 -62t65 -155q0 -92 -64.5 -155t-158.5 -63zM817 -27q-93 0 -158 62t-65 155q0 92 64.5 155t158.5 63q93 0 158 -62.5t65 -155.5q0 -92 -64.5 -154.5t-158.5 -62.5zM1370 -25q-93 0 -158 62.5
t-65 155.5q0 92 64.5 154.5t158.5 62.5q93 0 158 -62t65 -155q0 -92 -64.5 -155t-158.5 -63z" />
    <glyph glyph-name="perthousand" unicode="&#x2030;" horiz-adv-x="2621" 
d="M391 655q-158 0 -264.5 101t-106.5 250q0 150 106 250t265 100t265 -100t106 -250q0 -149 -106.5 -250t-264.5 -101zM365 0l753 1331h320l-754 -1331h-319zM391 1130q-55 0 -90 -35t-35 -89q0 -53 35 -89t90 -36t90 36t35 89q0 54 -35 89t-90 35zM2230 -25
q-158 0 -264 101t-106 250q0 151 105.5 250.5t264.5 99.5t265 -100t106 -250q0 -149 -106.5 -250t-264.5 -101zM1411 -25q-158 0 -264.5 101t-106.5 250q0 150 106 250t265 100t265 -100t106 -250q0 -149 -106.5 -250t-264.5 -101zM2230 451q-55 0 -90 -35.5t-35 -89.5
q0 -53 35 -89t90 -36t90 36t35 89q0 54 -35 89.5t-90 35.5zM1411 451q-55 0 -90 -35.5t-35 -89.5q0 -53 35 -89t90 -36t90 36t35 89q0 54 -35 89.5t-90 35.5z" />
    <glyph glyph-name="guilsinglleft" unicode="&#x2039;" horiz-adv-x="733" 
d="M680 903l-238 -387l254 -416h-430l-241 402l241 401h414z" />
    <glyph glyph-name="guilsinglright" unicode="&#x203a;" horiz-adv-x="733" 
d="M709 502l-242 -402h-414l238 387l-254 416h430z" />
    <glyph glyph-name="fraction" unicode="&#x2044;" horiz-adv-x="581" 
d="M-246 0l754 1331h319l-753 -1331h-320z" />
    <glyph glyph-name="zerosuperior" unicode="&#x2070;" horiz-adv-x="897" 
d="M449 535q-183 0 -306 116.5t-123 288.5t123 289t306 117t305.5 -117t122.5 -289t-122.5 -288.5t-305.5 -116.5zM449 801q57 0 97 41t40 98t-40 98t-97 41t-97.5 -41t-40.5 -98t40.5 -98t97.5 -41z" />
    <glyph glyph-name="foursuperior" unicode="&#x2074;" horiz-adv-x="737" 
d="M692 1161v-612h-266v51q0 40 -21 68.5t-54.5 45.5t-74.5 33t-81.5 38t-74 52.5t-54.5 84.5t-21 127v282h277v-252q0 -20 4.5 -34.5t17 -25t21.5 -16t30 -15.5t31 -15v188h266z" />
    <glyph glyph-name="fivesuperior" unicode="&#x2075;" horiz-adv-x="702" 
d="M682 807q0 -121 -93 -196.5t-237 -75.5q-147 0 -239.5 76t-92.5 198h261q0 -26 18.5 -41.5t52.5 -15.5t52 15.5t18 41.5q0 47 -66 53l-315 23l80 446h485v-217h-282l-11 -51l88 -6q141 -10 211 -76.5t70 -173.5z" />
    <glyph glyph-name="sixsuperior" unicode="&#x2076;" horiz-adv-x="747" 
d="M375 535q-157 0 -256 86.5t-99 222.5q0 59 20 115t49.5 101t59.5 87t54.5 90t29.5 94h291q-18 -85 -88 -184q124 -9 207.5 -90.5t83.5 -202.5q0 -135 -101.5 -227t-250.5 -92zM375 770q37 0 62.5 24.5t25.5 59.5t-25.5 59.5t-62.5 24.5t-62.5 -24.5t-25.5 -59.5
t25.5 -59.5t62.5 -24.5z" />
    <glyph glyph-name="sevensuperior" unicode="&#x2077;" horiz-adv-x="665" 
d="M655 1331q-84 -228 -119.5 -389t-54.5 -393h-286q14 170 40 295.5t74 247.5h-278v239h624z" />
    <glyph glyph-name="eightsuperior" unicode="&#x2078;" horiz-adv-x="765" 
d="M741 784q0 -111 -96 -180t-262 -69t-262 69t-96 180q0 125 122 189q-67 58 -67 145q0 99 84 163.5t219 64.5t219 -64.5t84 -163.5q0 -86 -68 -145q123 -65 123 -189zM383 1161q-28 0 -47 -17t-19 -42t18.5 -42.5t47.5 -17.5t47.5 17.5t18.5 42.5t-19 42t-47 17zM383 733
q38 0 63 21t25 51q0 31 -25 51.5t-63 20.5t-63 -20.5t-25 -51.5q0 -30 25 -51t63 -21z" />
    <glyph glyph-name="ninesuperior" unicode="&#x2079;" horiz-adv-x="747" 
d="M373 1346q157 0 255.5 -86.5t98.5 -223.5q0 -59 -20 -115t-49.5 -101t-59.5 -87t-54.5 -90t-29.5 -94h-291q18 85 88 184q-124 9 -207.5 90.5t-83.5 202.5q0 135 102 227.5t251 92.5zM373 1110q-37 0 -62.5 -24.5t-25.5 -59.5t25.5 -59.5t62.5 -24.5t62.5 24.5t25.5 59.5
t-25.5 59.5t-62.5 24.5z" />
    <glyph glyph-name="zeroinferior" unicode="&#x2080;" horiz-adv-x="897" 
d="M449 -14q-183 0 -306 116.5t-123 288.5t123 289t306 117t305.5 -117t122.5 -289t-122.5 -288.5t-305.5 -116.5zM449 252q57 0 97 41t40 98t-40 98t-97 41t-97.5 -41t-40.5 -98t40.5 -98t97.5 -41z" />
    <glyph glyph-name="oneinferior" unicode="&#x2081;" horiz-adv-x="505" 
d="M444 799v-799h-276v446q-59 -9 -137 -12v256q221 17 413 109z" />
    <glyph glyph-name="twoinferior" unicode="&#x2082;" horiz-adv-x="712" 
d="M682 248v-248h-631l328 426q35 46 35 76t-20.5 49.5t-51.5 19.5t-51.5 -19.5t-20.5 -49.5t29 -56l-141 -182q-138 92 -138 246q0 124 91 205.5t231 81.5t231 -81.5t91 -205.5q0 -49 -22.5 -98t-78.5 -121l-33 -43h152z" />
    <glyph glyph-name="threeinferior" unicode="&#x2083;" horiz-adv-x="735" 
d="M711 256q0 -116 -95 -193t-256 -77q-155 0 -247.5 80.5t-92.5 205.5h259q0 -31 21.5 -51t57.5 -20q39 0 59.5 18t20.5 45q0 28 -21 45t-59 17h-24v180h24q38 0 56 -2q6 15 6 31q0 25 -17.5 41t-52.5 16q-31 0 -50 -16.5t-19 -40.5h-252q0 116 88 189t235 73
q150 0 237 -67.5t87 -172.5q0 -72 -45 -131q80 -68 80 -170z" />
    <glyph glyph-name="fourinferior" unicode="&#x2084;" horiz-adv-x="737" 
d="M692 612v-612h-266v51q0 40 -21 68.5t-54.5 45.5t-74.5 33t-81.5 38t-74 52.5t-54.5 84.5t-21 127v282h277v-252q0 -20 4.5 -34.5t17 -25t21.5 -16t30 -15.5t31 -15v188h266z" />
    <glyph glyph-name="fiveinferior" unicode="&#x2085;" horiz-adv-x="702" 
d="M682 258q0 -121 -93 -196.5t-237 -75.5q-147 0 -239.5 76t-92.5 198h261q0 -26 18.5 -41.5t52.5 -15.5t52 15.5t18 41.5q0 47 -66 53l-315 23l80 446h485v-217h-282l-11 -51l88 -6q141 -10 211 -76.5t70 -173.5z" />
    <glyph glyph-name="sixinferior" unicode="&#x2086;" horiz-adv-x="747" 
d="M375 -14q-157 0 -256 86.5t-99 222.5q0 59 20 115t49.5 101t59.5 87t54.5 90t29.5 94h291q-18 -85 -88 -184q124 -9 207.5 -90.5t83.5 -202.5q0 -135 -101.5 -227t-250.5 -92zM375 221q37 0 62.5 24.5t25.5 59.5t-25.5 59.5t-62.5 24.5t-62.5 -24.5t-25.5 -59.5
t25.5 -59.5t62.5 -24.5z" />
    <glyph glyph-name="seveninferior" unicode="&#x2087;" horiz-adv-x="665" 
d="M655 782q-84 -228 -119.5 -389t-54.5 -393h-286q14 170 40 295.5t74 247.5h-278v239h624z" />
    <glyph glyph-name="eightinferior" unicode="&#x2088;" horiz-adv-x="765" 
d="M741 236q0 -111 -96 -180.5t-262 -69.5t-262 69.5t-96 180.5q0 124 122 188q-67 58 -67 145q0 99 84 163.5t219 64.5t219 -64.5t84 -163.5q0 -86 -68 -145q123 -65 123 -188zM383 612q-28 0 -47 -17t-19 -42t18.5 -42t47.5 -17t47.5 17t18.5 42t-19 42t-47 17zM383 184
q38 0 63 21t25 51q0 31 -25 51.5t-63 20.5t-63 -20.5t-25 -51.5q0 -30 25 -51t63 -21z" />
    <glyph glyph-name="nineinferior" unicode="&#x2089;" horiz-adv-x="747" 
d="M373 797q157 0 255.5 -86.5t98.5 -223.5q0 -59 -20 -115t-49.5 -101t-59.5 -87t-54.5 -90t-29.5 -94h-291q18 85 88 184q-124 9 -207.5 90.5t-83.5 202.5q0 135 102 227.5t251 92.5zM373 561q-37 0 -62.5 -24.5t-25.5 -59.5t25.5 -59.5t62.5 -24.5t62.5 24.5t25.5 59.5
t-25.5 59.5t-62.5 24.5z" />
    <glyph glyph-name="Euro" unicode="&#x20ac;" horiz-adv-x="968" 
d="M907 344v-344h-61q-247 0 -431 119.5t-255 320.5h-140v185h105q-2 20 -2 41q0 23 2 41h-105v184h140q71 201 255 320.5t431 119.5h61v-344h-61q-182 0 -266 -96h225v-184h-291q-2 -18 -2 -41t2 -41h291v-185h-225q84 -96 266 -96h61z" />
    <glyph glyph-name="uni20B9" unicode="&#x20b9;" horiz-adv-x="966" 
d="M926 696h-181q-25 -93 -84.5 -168.5t-144.5 -121.5l322 -406h-494l-283 348v246h76q151 0 199 102h-275v267h269q-52 102 -193 102h-76v266h865v-266h-246q39 -52 55 -102h191v-267z" />
    <glyph glyph-name="numero" unicode="&#x2116;" horiz-adv-x="2023" 
d="M1255 231v304h713v-304h-713zM1612 610q-167 0 -279 107t-112 266q0 158 112.5 265.5t278.5 107.5q167 0 279 -107t112 -266q0 -158 -112.5 -265.5t-278.5 -107.5zM1612 883q41 0 70.5 29.5t29.5 70.5t-29.5 70.5t-70.5 29.5t-71 -29.5t-30 -70.5t30 -70.5t71 -29.5z
M719 0v260q-150 144 -242 293v-553h-405v1331h387q86 -304 268 -543v543h406v-1331h-414z" />
    <glyph glyph-name="trademark" unicode="&#x2122;" horiz-adv-x="1746" 
d="M1063 909q0 108 -92 123v-483h-275v782h117q125 0 223.5 -33.5t155.5 -95.5q120 129 379 129h115v-782h-275v483q-92 -15 -92 -123v-157h-256v157zM614 1069h-147v-520h-279v520h-147v262h573v-262z" />
    <glyph glyph-name="estimated" unicode="&#x212e;" horiz-adv-x="1458" 
d="M1356 526h-1016q-8 0 -8 -6v-307q0 -23 14 -37q76 -76 175.5 -120t209.5 -44q120 0 224.5 49t179.5 136h90q-87 -101 -217 -160.5t-279 -59.5q-170 0 -314.5 75.5t-228.5 205.5t-84 283q0 154 84 284.5t228.5 206.5t314.5 76t314.5 -76t228.5 -206.5t84 -284.5v-15z
M1126 565v309q0 23 -16 39q-74 75 -171.5 117.5t-207.5 42.5q-217 0 -383 -166q-16 -16 -16 -39v-303q0 -8 8 -8h780q6 0 6 8z" />
    <glyph glyph-name="oneseventh" unicode="&#x2150;" horiz-adv-x="1722" 
d="M444 1348v-799h-276v446q-59 -9 -137 -12v256q221 17 413 109zM250 0l754 1331h319l-754 -1331h-319zM1712 782q-84 -228 -119.5 -389t-54.5 -393h-287q14 169 40 295t75 248h-279v239h625z" />
    <glyph glyph-name="oneninth" unicode="&#x2151;" horiz-adv-x="1757" 
d="M444 1348v-799h-276v446q-59 -9 -137 -12v256q221 17 413 109zM250 0l754 1331h319l-754 -1331h-319zM1382 797q157 0 256 -86.5t99 -223.5q0 -59 -20 -115t-49.5 -101t-59.5 -87t-54.5 -90t-29.5 -94h-291q18 85 88 184q-124 9 -207.5 90.5t-83.5 202.5
q0 135 101.5 227.5t250.5 92.5zM1382 561q-37 0 -62.5 -24.5t-25.5 -59.5t25.5 -59.5t62.5 -24.5t62.5 24.5t25.5 59.5t-25.5 59.5t-62.5 24.5z" />
    <glyph glyph-name="onethird" unicode="&#x2153;" horiz-adv-x="1751" 
d="M444 1348v-799h-276v446q-59 -9 -137 -12v256q221 17 413 109zM250 0l754 1331h319l-754 -1331h-319zM1726 256q0 -116 -94.5 -193t-255.5 -77q-155 0 -247.5 80.5t-92.5 205.5h258q0 -31 22 -51t58 -20q39 0 59.5 18t20.5 45q0 28 -21 45t-59 17h-24v180h24q38 0 56 -2
q6 15 6 31q0 25 -17.5 41t-52.5 16q-31 0 -50.5 -16.5t-19.5 -40.5h-252q0 116 88.5 189t235.5 73q150 0 237 -67.5t87 -172.5q0 -72 -45 -131q79 -68 79 -170z" />
    <glyph glyph-name="twothirds" unicode="&#x2154;" horiz-adv-x="1980" 
d="M682 797v-248h-631l328 426q35 46 35 76t-20.5 49.5t-51.5 19.5t-51.5 -19.5t-20.5 -49.5t29 -56l-141 -182q-138 91 -138 246q0 124 91 205.5t231 81.5t231 -81.5t91 -205.5q0 -49 -22.5 -98t-78.5 -121l-33 -43h152zM479 0l754 1331h319l-753 -1331h-320zM1956 256
q0 -116 -94.5 -193t-255.5 -77q-155 0 -247.5 80.5t-92.5 205.5h258q0 -31 22 -51t58 -20q39 0 59 18t20 45q0 28 -20.5 45t-58.5 17h-25v180h25q37 0 55 -2q6 15 6 31q0 25 -17.5 41t-52.5 16q-31 0 -50 -16.5t-19 -40.5h-252q0 116 88 189t235 73q150 0 237 -67.5
t87 -172.5q0 -72 -45 -131q80 -68 80 -170z" />
    <glyph glyph-name="onefifth" unicode="&#x2155;" horiz-adv-x="1718" 
d="M444 1348v-799h-276v446q-59 -9 -137 -12v256q221 17 413 109zM250 0l754 1331h319l-754 -1331h-319zM1698 258q0 -121 -93 -196.5t-237 -75.5q-147 0 -239.5 76t-92.5 198h260q0 -26 19 -41.5t53 -15.5t52 15.5t18 41.5q0 47 -66 53l-315 23l80 446h485v-217h-283
l-10 -51l88 -6q141 -10 211 -76.5t70 -173.5z" />
    <glyph glyph-name="twofifths" unicode="&#x2156;" horiz-adv-x="1947" 
d="M682 797v-248h-631l328 426q35 46 35 76t-20.5 49.5t-51.5 19.5t-51.5 -19.5t-20.5 -49.5t29 -56l-141 -182q-138 91 -138 246q0 124 91 205.5t231 81.5t231 -81.5t91 -205.5q0 -49 -22.5 -98t-78.5 -121l-33 -43h152zM479 0l754 1331h319l-753 -1331h-320zM1927 258
q0 -121 -93 -196.5t-237 -75.5q-147 0 -239 75.5t-92 198.5h260q0 -26 18.5 -41.5t52.5 -15.5t52 15.5t18 41.5q0 47 -65 53l-316 23l80 446h485v-217h-282l-10 -51l88 -6q141 -10 210.5 -76.5t69.5 -173.5z" />
    <glyph glyph-name="threefifths" unicode="&#x2157;" horiz-adv-x="1906" 
d="M711 805q0 -116 -95 -193t-256 -77q-155 0 -247.5 80.5t-92.5 205.5h259q0 -31 21.5 -51t57.5 -20q39 0 59.5 18t20.5 45q0 28 -21 44.5t-59 16.5h-24v181h24q38 0 56 -2q6 15 6 30q0 25 -17.5 41.5t-52.5 16.5q-31 0 -50 -17t-19 -41h-252q0 116 88 189.5t235 73.5
q150 0 237 -67.5t87 -172.5q0 -72 -45 -131q80 -68 80 -170zM438 0l754 1331h319l-753 -1331h-320zM1886 258q0 -121 -93 -196.5t-237 -75.5q-147 0 -239 75.5t-92 198.5h260q0 -26 18.5 -41.5t52.5 -15.5t52 15.5t18 41.5q0 47 -65 53l-316 23l80 446h485v-217h-282
l-10 -51l88 -6q141 -10 210.5 -76.5t69.5 -173.5z" />
    <glyph glyph-name="fourfifths" unicode="&#x2158;" horiz-adv-x="1945" 
d="M692 1161v-612h-266v51q0 40 -21 68.5t-54.5 45.5t-74.5 33t-81.5 38t-74 52.5t-54.5 84.5t-21 127v282h277v-252q0 -20 4.5 -34.5t17 -25t21.5 -16t30 -15.5t31 -15v188h266zM477 0l754 1331h319l-753 -1331h-320zM1925 258q0 -121 -93 -196.5t-237 -75.5
q-147 0 -239 75.5t-92 198.5h260q0 -26 18.5 -41.5t52.5 -15.5t52 15.5t18 41.5q0 47 -66 53l-315 23l80 446h485v-217h-282l-11 -51l89 -6q141 -10 210.5 -76.5t69.5 -173.5z" />
    <glyph glyph-name="onesixth" unicode="&#x2159;" horiz-adv-x="1712" 
d="M444 1348v-799h-276v446q-59 -9 -137 -12v256q221 17 413 109zM250 0l754 1331h319l-754 -1331h-319zM1339 -14q-157 0 -255.5 86t-98.5 223q0 59 20 115t49.5 101t59.5 87t54.5 90t29.5 94h291q-18 -85 -88 -184q124 -9 207.5 -90.5t83.5 -202.5q0 -135 -102 -227
t-251 -92zM1339 221q37 0 62.5 24.5t25.5 59.5t-25.5 59.5t-62.5 24.5t-62.5 -24.5t-25.5 -59.5t25.5 -59.5t62.5 -24.5z" />
    <glyph glyph-name="fivesixths" unicode="&#x215a;" horiz-adv-x="1871" 
d="M682 807q0 -121 -93 -196.5t-237 -75.5q-147 0 -239.5 76t-92.5 198h261q0 -26 18.5 -41.5t52.5 -15.5t52 15.5t18 41.5q0 47 -66 53l-315 23l80 446h485v-217h-282l-11 -51l88 -6q141 -10 211 -76.5t70 -173.5zM410 0l753 1331h320l-754 -1331h-319zM1499 -14
q-157 0 -255.5 86t-98.5 223q0 59 20 115t49.5 101t59.5 87t54.5 90t29.5 94h291q-18 -85 -88 -184q124 -9 207 -90.5t83 -202.5q0 -135 -101.5 -227t-250.5 -92zM1499 221q37 0 62.5 24.5t25.5 59.5t-25.5 59.5t-62.5 24.5t-62.5 -24.5t-25.5 -59.5t25.5 -59.5t62.5 -24.5z
" />
    <glyph glyph-name="oneeighth" unicode="&#x215b;" horiz-adv-x="1751" 
d="M444 1348v-799h-276v446q-59 -9 -137 -12v256q221 17 413 109zM250 0l754 1331h319l-754 -1331h-319zM1726 236q0 -111 -96 -180.5t-262 -69.5t-262 69.5t-96 180.5q0 124 123 188q-68 59 -68 145q0 99 84 163.5t219 64.5t219 -64.5t84 -163.5q0 -87 -67 -145
q122 -64 122 -188zM1368 612q-28 0 -46.5 -17t-18.5 -42t18 -42t47 -17t47.5 17t18.5 42t-19 42t-47 17zM1368 184q38 0 63 21t25 51q0 31 -25 51.5t-63 20.5t-63 -20.5t-25 -51.5q0 -30 25 -51t63 -21z" />
    <glyph glyph-name="threeeighths" unicode="&#x215c;" horiz-adv-x="1939" 
d="M711 805q0 -116 -95 -193t-256 -77q-155 0 -247.5 80.5t-92.5 205.5h259q0 -31 21.5 -51t57.5 -20q39 0 59.5 18t20.5 45q0 28 -21 44.5t-59 16.5h-24v181h24q38 0 56 -2q6 15 6 30q0 25 -17.5 41.5t-52.5 16.5q-31 0 -50 -17t-19 -41h-252q0 116 88 189.5t235 73.5
q150 0 237 -67.5t87 -172.5q0 -72 -45 -131q80 -68 80 -170zM438 0l754 1331h319l-753 -1331h-320zM1915 236q0 -111 -96.5 -180.5t-262.5 -69.5t-262 69.5t-96 180.5q0 124 123 188q-68 59 -68 145q0 99 84 163.5t219 64.5t219.5 -64.5t84.5 -163.5q0 -86 -68 -145
q123 -65 123 -188zM1556 612q-28 0 -46.5 -17t-18.5 -42t18 -42t47 -17t47.5 17t18.5 42t-19 42t-47 17zM1556 184q38 0 63.5 21t25.5 51q0 31 -25.5 51.5t-63.5 20.5t-63 -20.5t-25 -51.5q0 -30 25 -51t63 -21z" />
    <glyph glyph-name="fiveeighths" unicode="&#x215d;" horiz-adv-x="1910" 
d="M682 807q0 -121 -93 -196.5t-237 -75.5q-147 0 -239.5 76t-92.5 198h261q0 -26 18.5 -41.5t52.5 -15.5t52 15.5t18 41.5q0 47 -66 53l-315 23l80 446h485v-217h-282l-11 -51l88 -6q141 -10 211 -76.5t70 -173.5zM410 0l753 1331h320l-754 -1331h-319zM1886 236
q0 -111 -96 -180.5t-262 -69.5t-262.5 69.5t-96.5 180.5q0 124 123 188q-67 58 -67 145q0 99 84 163.5t219 64.5t219 -64.5t84 -163.5q0 -86 -68 -145q123 -65 123 -188zM1528 612q-28 0 -47 -17t-19 -42t18.5 -42t47.5 -17t47 17t18 42t-18.5 42t-46.5 17zM1528 184
q38 0 63 21t25 51q0 31 -25 51.5t-63 20.5t-63 -20.5t-25 -51.5q0 -30 25 -51t63 -21z" />
    <glyph glyph-name="seveneighths" unicode="&#x215e;" horiz-adv-x="1818" 
d="M655 1331q-84 -228 -119.5 -389t-54.5 -393h-286q14 170 40 295.5t74 247.5h-278v239h624zM317 0l754 1331h320l-754 -1331h-320zM1794 236q0 -111 -96 -180.5t-262 -69.5t-262.5 69.5t-96.5 180.5q0 124 123 188q-67 58 -67 145q0 99 84 163.5t219 64.5t219 -64.5
t84 -163.5q0 -86 -68 -145q123 -65 123 -188zM1436 612q-28 0 -47 -17t-19 -42t18.5 -42t47.5 -17t47 17t18 42t-18.5 42t-46.5 17zM1436 184q38 0 63 21t25 51q0 31 -25 51.5t-63 20.5t-63 -20.5t-25 -51.5q0 -30 25 -51t63 -21z" />
    <glyph glyph-name="arrowleft" unicode="&#x2190;" horiz-adv-x="1310" 
d="M1249 317l-731 15l172 -293h-383l-266 463l266 463h383l-172 -293l731 14v-369z" />
    <glyph glyph-name="arrowup" unicode="&#x2191;" horiz-adv-x="1048" 
d="M987 559l-285 168l15 -727h-385l14 727l-285 -168v363l463 266l463 -266v-363z" />
    <glyph glyph-name="arrowright" unicode="&#x2192;" horiz-adv-x="1310" 
d="M1270 502l-266 -463h-383l172 293l-732 -15v369l732 -14l-172 293h383z" />
    <glyph glyph-name="arrowdown" unicode="&#x2193;" horiz-adv-x="1048" 
d="M987 82l-463 -266l-463 266v362l285 -168l-14 728h385l-15 -728l285 168v-362z" />
    <glyph glyph-name="uni2194" unicode="&#x2194;" horiz-adv-x="1556" 
d="M778 328l-260 4l172 -293h-383l-266 463l266 463h383l-172 -293l260 4l260 -4l-172 293h383l267 -463l-267 -463h-383l172 293z" />
    <glyph glyph-name="uni2195" unicode="&#x2195;" horiz-adv-x="1048" 
d="M987 82l-463 -266l-463 266v362l285 -168l-4 236l4 236l-285 -168v362l463 266l463 -266v-362l-285 168l5 -236l-5 -236l285 168v-362z" />
    <glyph glyph-name="uni2196" unicode="&#x2196;" horiz-adv-x="1120" 
d="M1100 236l-260 -261l-496 521l10 -416l-293 305v619h641l302 -293l-404 10z" />
    <glyph glyph-name="uni2197" unicode="&#x2197;" horiz-adv-x="1120" 
d="M766 80l10 416l-495 -521l-261 261l500 485l-403 -10l301 293h641v-619z" />
    <glyph glyph-name="uni2198" unicode="&#x2198;" horiz-adv-x="1120" 
d="M1059 618v-618h-641l-301 293l403 -10l-500 485l261 260l495 -520l-10 416z" />
    <glyph glyph-name="uni2199" unicode="&#x2199;" horiz-adv-x="1120" 
d="M1004 293l-302 -293h-641v618l293 306l-10 -416l496 520l260 -260l-500 -485z" />
    <glyph glyph-name="minus" unicode="&#x2212;" horiz-adv-x="1019" 
d="M82 801h856v-316h-856v316z" />
    <glyph glyph-name="uni2215" unicode="&#x2215;" horiz-adv-x="581" 
d="M-246 0l754 1331h319l-753 -1331h-320z" />
    <glyph glyph-name="approxequal" unicode="&#x2248;" horiz-adv-x="1019" 
d="M750 995q105 0 188 41v-315q-83 -41 -188 -41q-98 0 -257.5 37t-222.5 37q-81 0 -188 -41v315q107 41 188 41q97 0 255.5 -37t224.5 -37zM750 532q105 0 188 41v-315q-83 -41 -188 -41q-98 0 -257.5 37t-222.5 37q-81 0 -188 -41v315q107 41 188 41q97 0 255.5 -37
t224.5 -37z" />
    <glyph glyph-name="notequal" unicode="&#x2260;" horiz-adv-x="1019" 
d="M938 256h-389l-57 -174h-328l57 174h-139v313h240l47 148h-287v313h389l57 178h328l-57 -178h139v-313h-242l-47 -148h289v-313z" />
    <glyph glyph-name="lessequal" unicode="&#x2264;" horiz-adv-x="1019" 
d="M918 731v-369l-816 254v435l816 254v-363l-498 -104zM102 295h816v-295h-816v295z" />
    <glyph glyph-name="greaterequal" unicode="&#x2265;" horiz-adv-x="1019" 
d="M918 616l-816 -254v363l498 106l-498 105v369l816 -254v-435zM102 0v295h816v-295h-816z" />
    <glyph glyph-name="uni2780" unicode="&#x2780;" horiz-adv-x="1581" 
d="M791 -86q-162 0 -304 58t-241.5 158t-157 239t-57.5 297t57.5 297t157 238.5t241.5 157.5t304 58t303.5 -58t241.5 -157.5t157 -238.5t57 -297t-57 -297t-157 -239t-241.5 -158t-303.5 -58zM791 1212q-236 0 -387.5 -154t-151.5 -392t151.5 -392.5t387.5 -154.5
t387 154.5t151 392.5t-151 392t-387 154zM956 1073v-799h-276v447q-59 -9 -137 -12v256q224 17 413 108z" />
    <glyph glyph-name="uni2781" unicode="&#x2781;" horiz-adv-x="1581" 
d="M791 -86q-162 0 -304 58t-241.5 158t-157 239t-57.5 297t57.5 297t157 238.5t241.5 157.5t304 58t303.5 -58t241.5 -157.5t157 -238.5t57 -297t-57 -297t-157 -239t-241.5 -158t-303.5 -58zM791 1212q-236 0 -387.5 -154t-151.5 -392t151.5 -392.5t387.5 -154.5
t387 154.5t151 392.5t-151 392t-387 154zM1112 522v-248h-631l328 426q35 46 35 76q0 31 -20.5 50.5t-51.5 19.5t-51.5 -19.5t-20.5 -50.5q0 -29 29 -55l-141 -182q-137 91 -137 245q0 125 91 206t230 81q140 0 231 -81.5t91 -205.5q0 -49 -22.5 -98t-78.5 -121l-32 -43h151
z" />
    <glyph glyph-name="uni2782" unicode="&#x2782;" horiz-adv-x="1581" 
d="M791 -86q-162 0 -304 58t-241.5 158t-157 239t-57.5 297t57.5 297t157 238.5t241.5 157.5t304 58t303.5 -58t241.5 -157.5t157 -238.5t57 -297t-57 -297t-157 -239t-241.5 -158t-303.5 -58zM791 1212q-236 0 -387.5 -154t-151.5 -392t151.5 -392.5t387.5 -154.5
t387 154.5t151 392.5t-151 392t-387 154zM1141 530q0 -116 -94.5 -193t-255.5 -77q-155 0 -247.5 80.5t-92.5 206.5h258q0 -31 21.5 -51.5t57.5 -20.5q39 0 59.5 18.5t20.5 45.5q0 28 -21 44.5t-59 16.5h-24v180h24q28 0 52 -4q10 13 10 33q0 25 -17.5 41t-52.5 16
q-31 0 -50 -16.5t-19 -40.5h-252q0 116 88 189t235 73q150 0 237 -67.5t87 -172.5q0 -72 -45 -131q80 -68 80 -170z" />
    <glyph glyph-name="uni2783" unicode="&#x2783;" horiz-adv-x="1581" 
d="M791 -86q-162 0 -304 58t-241.5 158t-157 239t-57.5 297t57.5 297t157 238.5t241.5 157.5t304 58t303.5 -58t241.5 -157.5t157 -238.5t57 -297t-57 -297t-157 -239t-241.5 -158t-303.5 -58zM791 1212q-236 0 -387.5 -154t-151.5 -392t151.5 -392.5t387.5 -154.5
t387 154.5t151 392.5t-151 392t-387 154zM1112 889v-613h-266v52q0 40 -21 68t-54.5 45.5t-74.5 33t-81.5 38t-74 52.5t-54.5 84t-21 127v283h276v-252q0 -20 5 -34.5t17.5 -25.5t21 -16.5t30 -15.5t31.5 -15v189h266z" />
    <glyph glyph-name="uni2784" unicode="&#x2784;" horiz-adv-x="1581" 
d="M791 -86q-162 0 -304 58t-241.5 158t-157 239t-57.5 297t57.5 297t157 238.5t241.5 157.5t304 58t303.5 -58t241.5 -157.5t157 -238.5t57 -297t-57 -297t-157 -239t-241.5 -158t-303.5 -58zM791 1212q-236 0 -387.5 -154t-151.5 -392t151.5 -392.5t387.5 -154.5
t387 154.5t151 392.5t-151 392t-387 154zM1122 532q0 -121 -92.5 -196.5t-236.5 -75.5q-147 0 -239.5 76t-92.5 199h260q0 -26 19 -42t53 -16t51.5 16t17.5 42q0 47 -65 53l-316 22l80 447h486v-217h-283l-10 -52l88 -6q141 -10 210.5 -76.5t69.5 -173.5z" />
    <glyph glyph-name="uni2785" unicode="&#x2785;" horiz-adv-x="1581" 
d="M791 -86q-162 0 -304 58t-241.5 158t-157 239t-57.5 297t57.5 297t157 238.5t241.5 157.5t304 58t303.5 -58t241.5 -157.5t157 -238.5t57 -297t-57 -297t-157 -239t-241.5 -158t-303.5 -58zM791 1212q-236 0 -387.5 -154t-151.5 -392t151.5 -392.5t387.5 -154.5
t387 154.5t151 392.5t-151 392t-387 154zM795 260q-157 0 -256 86.5t-99 222.5q0 59 20 115.5t49.5 101.5t59.5 87t54.5 90t29.5 94h291q-18 -86 -88 -185q124 -9 207.5 -90t83.5 -202q0 -135 -101.5 -227.5t-250.5 -92.5zM795 496q37 0 62.5 24.5t25.5 59.5t-25.5 59.5
t-62.5 24.5t-62.5 -24.5t-25.5 -59.5t25.5 -59.5t62.5 -24.5z" />
    <glyph glyph-name="uni2786" unicode="&#x2786;" horiz-adv-x="1581" 
d="M791 -86q-162 0 -304 58t-241.5 158t-157 239t-57.5 297t57.5 297t157 238.5t241.5 157.5t304 58t303.5 -58t241.5 -157.5t157 -238.5t57 -297t-57 -297t-157 -239t-241.5 -158t-303.5 -58zM791 1212q-236 0 -387.5 -154t-151.5 -392t151.5 -392.5t387.5 -154.5
t387 154.5t151 392.5t-151 392t-387 154zM1096 1057q-84 -228 -119.5 -389t-54.5 -394h-287q14 169 40 295t75 248h-279v240h625z" />
    <glyph glyph-name="uni2787" unicode="&#x2787;" horiz-adv-x="1581" 
d="M791 -86q-162 0 -304 58t-241.5 158t-157 239t-57.5 297t57.5 297t157 238.5t241.5 157.5t304 58t303.5 -58t241.5 -157.5t157 -238.5t57 -297t-57 -297t-157 -239t-241.5 -158t-303.5 -58zM791 1212q-236 0 -387.5 -154t-151.5 -392t151.5 -392.5t387.5 -154.5
t387 154.5t151 392.5t-151 392t-387 154zM1149 510q0 -111 -96 -180.5t-262 -69.5t-262.5 69.5t-96.5 180.5q0 124 123 188q-68 59 -68 146q0 99 84.5 163t219.5 64t219 -64t84 -163q0 -87 -68 -146q123 -64 123 -188zM791 887q-28 0 -47 -17.5t-19 -42.5t18.5 -42t47.5 -17
t47 17t18 42t-18.5 42.5t-46.5 17.5zM791 459q38 0 63 20.5t25 50.5q0 31 -25 51.5t-63 20.5t-63.5 -20.5t-25.5 -51.5q0 -30 25.5 -50.5t63.5 -20.5z" />
    <glyph glyph-name="uni2788" unicode="&#x2788;" horiz-adv-x="1581" 
d="M791 -86q-162 0 -304 58t-241.5 158t-157 239t-57.5 297t57.5 297t157 238.5t241.5 157.5t304 58t303.5 -58t241.5 -157.5t157 -238.5t57 -297t-57 -297t-157 -239t-241.5 -158t-303.5 -58zM791 1212q-236 0 -387.5 -154t-151.5 -392t151.5 -392.5t387.5 -154.5
t387 154.5t151 392.5t-151 392t-387 154zM793 1071q157 0 255.5 -86t98.5 -223q0 -59 -20 -115.5t-49.5 -101.5t-59.5 -87t-54.5 -90t-29.5 -94h-291q18 86 88 185q-124 9 -207.5 90.5t-83.5 202.5q0 135 102 227t251 92zM793 836q-37 0 -62.5 -24.5t-25.5 -59.5t25.5 -59.5
t62.5 -24.5t62.5 24.5t25.5 59.5t-25.5 59.5t-62.5 24.5z" />
    <glyph glyph-name="uni278A" unicode="&#x278a;" horiz-adv-x="1581" 
d="M791 -86q-162 0 -304 58t-241.5 158t-157 239t-57.5 297t57.5 297t157 238.5t241.5 157.5t304 58t303.5 -58t241.5 -157.5t157 -238.5t57 -297t-57 -297t-157 -239t-241.5 -158t-303.5 -58zM956 1073q-189 -91 -413 -108v-256q78 3 137 12v-447h276v799z" />
    <glyph glyph-name="uni278B" unicode="&#x278b;" horiz-adv-x="1581" 
d="M791 -86q-162 0 -304 58t-241.5 158t-157 239t-57.5 297t57.5 297t157 238.5t241.5 157.5t304 58t303.5 -58t241.5 -157.5t157 -238.5t57 -297t-57 -297t-157 -239t-241.5 -158t-303.5 -58zM1112 522h-151l32 43q56 72 78.5 121t22.5 98q0 124 -91 205.5t-231 81.5
q-139 0 -230 -81t-91 -206q0 -154 137 -245l141 182q-29 26 -29 55q0 31 20.5 50.5t51.5 19.5t51.5 -19.5t20.5 -50.5q0 -30 -35 -76l-328 -426h631v248z" />
    <glyph glyph-name="uni278C" unicode="&#x278c;" horiz-adv-x="1581" 
d="M791 -86q-162 0 -304 58t-241.5 158t-157 239t-57.5 297t57.5 297t157 238.5t241.5 157.5t304 58t303.5 -58t241.5 -157.5t157 -238.5t57 -297t-57 -297t-157 -239t-241.5 -158t-303.5 -58zM1141 530q0 102 -80 170q45 59 45 131q0 105 -87 172.5t-237 67.5
q-147 0 -235 -73t-88 -189h252q0 24 19 40.5t50 16.5q35 0 52.5 -16t17.5 -41q0 -20 -10 -33q-24 4 -52 4h-24v-180h24q38 0 59 -16.5t21 -44.5q0 -27 -20.5 -45.5t-59.5 -18.5q-36 0 -57.5 20.5t-21.5 51.5h-258q0 -126 92.5 -206.5t247.5 -80.5q161 0 255.5 77t94.5 193z
" />
    <glyph glyph-name="uni278D" unicode="&#x278d;" horiz-adv-x="1581" 
d="M791 -86q-162 0 -304 58t-241.5 158t-157 239t-57.5 297t57.5 297t157 238.5t241.5 157.5t304 58t303.5 -58t241.5 -157.5t157 -238.5t57 -297t-57 -297t-157 -239t-241.5 -158t-303.5 -58zM1112 889h-266v-189q-10 5 -31.5 15t-30 15.5t-21 16.5t-17.5 25.5t-5 34.5v252
h-276v-283q0 -73 21 -127t54.5 -84t74.5 -52.5t81.5 -38t74 -33t54.5 -45.5t21 -68v-52h266v613z" />
    <glyph glyph-name="uni278E" unicode="&#x278e;" horiz-adv-x="1581" 
d="M791 -86q-162 0 -304 58t-241.5 158t-157 239t-57.5 297t57.5 297t157 238.5t241.5 157.5t304 58t303.5 -58t241.5 -157.5t157 -238.5t57 -297t-57 -297t-157 -239t-241.5 -158t-303.5 -58zM1122 532q0 107 -69.5 173.5t-210.5 76.5l-88 6l10 52h283v217h-486l-80 -447
l316 -22q65 -6 65 -53q0 -26 -17.5 -42t-51.5 -16t-53 16t-19 42h-260q0 -123 92.5 -199t239.5 -76q144 0 236.5 75.5t92.5 196.5z" />
    <glyph glyph-name="uni278F" unicode="&#x278f;" horiz-adv-x="1581" 
d="M791 -86q-162 0 -304 58t-241.5 158t-157 239t-57.5 297t57.5 297t157 238.5t241.5 157.5t304 58t303.5 -58t241.5 -157.5t157 -238.5t57 -297t-57 -297t-157 -239t-241.5 -158t-303.5 -58zM795 260q149 0 250.5 92.5t101.5 227.5q0 121 -83.5 202t-207.5 90
q70 99 88 185h-291q-5 -46 -29.5 -94t-54.5 -90t-59.5 -87t-49.5 -101.5t-20 -115.5q0 -136 99 -222.5t256 -86.5zM795 496q-37 0 -62.5 24.5t-25.5 59.5t25.5 59.5t62.5 24.5t62.5 -24.5t25.5 -59.5t-25.5 -59.5t-62.5 -24.5z" />
    <glyph glyph-name="uni2790" unicode="&#x2790;" horiz-adv-x="1581" 
d="M791 -86q-162 0 -304 58t-241.5 158t-157 239t-57.5 297t57.5 297t157 238.5t241.5 157.5t304 58t303.5 -58t241.5 -157.5t157 -238.5t57 -297t-57 -297t-157 -239t-241.5 -158t-303.5 -58zM1096 1057h-625v-240h279q-49 -122 -75 -248t-40 -295h287q19 233 54.5 394
t119.5 389z" />
    <glyph glyph-name="uni2791" unicode="&#x2791;" horiz-adv-x="1581" 
d="M791 -86q-162 0 -304 58t-241.5 158t-157 239t-57.5 297t57.5 297t157 238.5t241.5 157.5t304 58t303.5 -58t241.5 -157.5t157 -238.5t57 -297t-57 -297t-157 -239t-241.5 -158t-303.5 -58zM1149 510q0 124 -123 188q68 59 68 146q0 99 -84 163t-219 64t-219.5 -64
t-84.5 -163q0 -87 68 -146q-123 -64 -123 -188q0 -111 96.5 -180.5t262.5 -69.5t262 69.5t96 180.5zM791 887q28 0 46.5 -17.5t18.5 -42.5t-18 -42t-47 -17t-47.5 17t-18.5 42t19 42.5t47 17.5zM791 459q-38 0 -63.5 20.5t-25.5 50.5q0 31 25.5 51.5t63.5 20.5t63 -20.5
t25 -51.5q0 -30 -25 -50.5t-63 -20.5z" />
    <glyph glyph-name="uni2792" unicode="&#x2792;" horiz-adv-x="1581" 
d="M791 -86q-162 0 -304 58t-241.5 158t-157 239t-57.5 297t57.5 297t157 238.5t241.5 157.5t304 58t303.5 -58t241.5 -157.5t157 -238.5t57 -297t-57 -297t-157 -239t-241.5 -158t-303.5 -58zM793 1071q-149 0 -251 -92t-102 -227q0 -121 83.5 -202.5t207.5 -90.5
q-70 -99 -88 -185h291q5 46 29.5 94t54.5 90t59.5 87t49.5 101.5t20 115.5q0 137 -98.5 223t-255.5 86zM793 836q37 0 62.5 -24.5t25.5 -59.5t-25.5 -59.5t-62.5 -24.5t-62.5 24.5t-25.5 59.5t25.5 59.5t62.5 24.5z" />
    <glyph glyph-name="commaaccent" unicode="&#xf6c3;" horiz-adv-x="1024" 
d="M676 -248q0 -55 -27.5 -120.5t-97.5 -174.5h-168q33 61 74 162q-50 15 -79.5 54t-29.5 91q0 68 47 114t117 46q72 0 118 -47t46 -125z" />
    <glyph glyph-name="A.alt1" 
d="M465 57v-57h-404v831q0 238 144.5 381.5t382.5 143.5t382 -143.5t144 -381.5v-831h-403v307q-27 -19 -70.5 -44.5t-69.5 -42.5t-53 -41t-40 -54t-13 -68zM465 834v-269q27 19 70.5 44.5t69.5 42.5t53 41t40 54t13 68v19q0 57 -34 93t-89 36t-89 -36t-34 -93z" />
    <glyph glyph-name="A.alt2" 
d="M61 0v831q0 238 144.5 381.5t382.5 143.5t382 -143.5t144 -381.5v-831h-403v252h-246v-252h-404zM465 834v-213h246v213q0 58 -33.5 93.5t-89.5 35.5t-89.5 -35.5t-33.5 -93.5z" />
    <glyph glyph-name="B.alt1" horiz-adv-x="1196" 
d="M1171 416q0 -186 -129.5 -301t-336.5 -115h-633v1331h546q195 0 317 -95.5t122 -250.5q0 -164 -117 -252q107 -40 169 -124t62 -193zM584 1004h-109v-189h109q50 0 76 27t26 71q0 39 -26 65t-76 26zM637 559h-162v-231h162q60 0 91.5 30.5t31.5 85.5q0 52 -33.5 83.5
t-89.5 31.5z" />
    <glyph glyph-name="C.alt1" horiz-adv-x="835" 
d="M774 0h-20q-207 0 -372.5 85.5t-258 237.5t-92.5 343t92.5 343t258 237t372.5 85h20v-385h-20q-136 0 -217.5 -76t-81.5 -204t81.5 -204.5t217.5 -76.5h20v-385z" />
    <glyph glyph-name="E.alt1" horiz-adv-x="946" 
d="M895 354v-354h-823v1331h823v-354h-422v-135h371v-348h-371v-140h422z" />
    <glyph glyph-name="F.alt1" horiz-adv-x="917" 
d="M821 412h-340v-412h-409v1331h800v-358h-391v-203h340v-358z" />
    <glyph glyph-name="G.alt1" horiz-adv-x="1073" 
d="M1008 743v-743h-248q-209 0 -376 85.5t-260 237.5t-93 343t93.5 343t260 237t375.5 85h188v-385h-188q-139 0 -222 -76t-83 -204q0 -96 47.5 -164t132.5 -96v337h373z" />
    <glyph glyph-name="H.alt1" horiz-adv-x="1204" 
d="M485 193v-193h-413v1331h413v-561q27 18 68.5 42t65.5 39.5t50 38t38 51t12 65.5v325h414v-1331h-414v444q-23 -15 -57.5 -35.5t-56 -33t-47 -33t-39.5 -39.5t-24 -47.5t-10 -62.5z" />
    <glyph glyph-name="H.alt2" horiz-adv-x="1204" 
d="M719 0v389h-234v-389h-413v1331h413v-532h234v532h414v-1331h-414z" />
    <glyph glyph-name="I.alt1" horiz-adv-x="557" 
d="M72 1098v233h413v-182q-97 -3 -215 -17.5t-198 -33.5zM72 0v1004q206 47 413 53v-1057h-413z" />
    <glyph glyph-name="K.alt1" horiz-adv-x="1212" 
d="M733 0l-141 258q-48 -42 -107 -86v-172h-413v1331h413v-663q135 116 185.5 267t50.5 396h422q0 -256 -50 -444.5t-169 -347.5l288 -539h-479z" />
    <glyph glyph-name="P.alt1" horiz-adv-x="1163" 
d="M588 233q-50 0 -103 9v-242h-413v1331h460q274 0 440.5 -153t166.5 -404q0 -239 -154 -390t-397 -151zM537 950h-52v-346q33 -8 72 -8q78 0 125 48t47 130t-51.5 129t-140.5 47z" />
    <glyph glyph-name="Q.alt1" horiz-adv-x="1521" 
d="M1501 369v-369h-760q-199 0 -361.5 88.5t-255.5 244t-93 345.5q0 142 54 268t148 216t226 142t282 52q149 0 281 -47.5t226 -129.5t149 -196.5t55 -243.5q0 -115 -45.5 -213.5t-126.5 -167.5zM741 971q-124 0 -205 -83.5t-81 -209.5t81.5 -209.5t204.5 -83.5t205 83.5
t82 209.5t-81.5 209.5t-205.5 83.5z" />
    <glyph glyph-name="R.alt1" horiz-adv-x="1185" 
d="M715 0l-230 371v-371h-413v1331h487q255 0 410 -135.5t155 -359.5q0 -133 -58 -237.5t-165 -166.5l295 -432h-481zM563 950h-78v-278q31 -8 64 -8q76 0 122 40.5t46 106.5q0 63 -42 101t-112 38z" />
    <glyph glyph-name="S.alt1" horiz-adv-x="815" 
d="M201 817q0 514 542 514h31v-368h-31q-63 0 -96 -35.5t-33 -100.5v-313q0 -514 -542 -514h-31v369h31q129 0 129 135v313z" />
    <glyph glyph-name="T.alt1" horiz-adv-x="1011" 
d="M971 963h-260v-963h-410v963h-260v368h930v-368z" />
    <glyph glyph-name="X.alt1" horiz-adv-x="1187" 
d="M471 209v-209h-414v209q0 202 150 321q-141 119 -141 314v487h411v-487q0 -52 32.5 -84.5t84.5 -32.5t84.5 32.5t32.5 84.5v487h411v-487q0 -195 -141 -314q149 -118 149 -321v-209h-413v209q0 54 -34.5 88.5t-88.5 34.5q-56 0 -89.5 -34t-33.5 -89z" />
    <glyph glyph-name="X.alt2" horiz-adv-x="1187" 
d="M471 440v-440h-414v440q0 202 150 324q-141 119 -141 311v256h411v-256q0 -52 32 -84.5t85 -32.5t85 32.5t32 84.5v256h411v-256q0 -192 -141 -311q149 -121 149 -324v-440h-413v440q0 55 -34.5 89t-88.5 34t-88.5 -34t-34.5 -89z" />
    <glyph glyph-name="AE.alt1" horiz-adv-x="1581" 
d="M61 807q0 237 144.5 380.5t382.5 143.5h942v-354h-422v-133h371v-352h-371v-138h422v-354h-823v242h-238v-242h-408v807zM469 848v-227h238v356h-119q-52 0 -85.5 -36.5t-33.5 -92.5z" />
    <glyph glyph-name="OE.alt1" horiz-adv-x="1724" 
d="M31 666q0 139 55.5 262.5t151.5 211.5t230.5 139.5t285.5 51.5h919v-354h-422v-133h371v-352h-371v-138h422v-354h-919q-202 0 -368 87.5t-260.5 240t-94.5 338.5zM754 358h96v615h-96q-127 0 -213 -89t-86 -218q0 -132 85.5 -220t213.5 -88z" />
    <glyph glyph-name="x.alt1" horiz-adv-x="1073" 
d="M451 238v-238h-400v231q0 162 123 269q-115 95 -115 248v256h400v-263q0 -34 22 -55.5t56 -21.5t55.5 21.5t21.5 55.5v263h400v-256q0 -153 -115 -248q123 -107 123 -269v-231h-399v238q0 44 -24 71t-62 27t-62 -27t-24 -71z" />
    <glyph glyph-name="Aacute.alt1" 
d="M465 57v-57h-404v831q0 238 144.5 381.5t382.5 143.5t382 -143.5t144 -381.5v-831h-403v307q-27 -19 -70.5 -44.5t-69.5 -42.5t-53 -41t-40 -54t-13 -68zM465 834v-269q27 19 70.5 44.5t69.5 42.5t53 41t40 54t13 68v19q0 57 -34 93t-89 36t-89 -36t-34 -93zM438 1425
l121 365h391l-207 -365h-305z" />
    <glyph glyph-name="Acircumflex.alt1" 
d="M465 57v-57h-404v831q0 238 144.5 381.5t382.5 143.5t382 -143.5t144 -381.5v-831h-403v307q-27 -19 -70.5 -44.5t-69.5 -42.5t-53 -41t-40 -54t-13 -68zM465 834v-269q27 19 70.5 44.5t69.5 42.5t53 41t40 54t13 68v19q0 57 -34 93t-89 36t-89 -36t-34 -93zM647 1425
l-61 172l-62 -172h-331l182 365h426l182 -365h-336z" />
    <glyph glyph-name="Adieresis.alt1" 
d="M465 57v-57h-404v831q0 238 144.5 381.5t382.5 143.5t382 -143.5t144 -381.5v-831h-403v307q-27 -19 -70.5 -44.5t-69.5 -42.5t-53 -41t-40 -54t-13 -68zM465 834v-269q27 19 70.5 44.5t69.5 42.5t53 41t40 54t13 68v19q0 57 -34 93t-89 36t-89 -36t-34 -93zM367 1415
q-83 0 -136 51.5t-53 128.5q0 80 52.5 132.5t136.5 52.5q82 0 135 -52t53 -129q0 -79 -52 -131.5t-136 -52.5zM809 1415q-82 0 -135 51.5t-53 128.5q0 80 52 132.5t136 52.5q82 0 135 -52t53 -129q0 -79 -52 -131.5t-136 -52.5z" />
    <glyph glyph-name="Agrave.alt1" 
d="M465 57v-57h-404v831q0 238 144.5 381.5t382.5 143.5t382 -143.5t144 -381.5v-831h-403v307q-27 -19 -70.5 -44.5t-69.5 -42.5t-53 -41t-40 -54t-13 -68zM465 834v-269q27 19 70.5 44.5t69.5 42.5t53 41t40 54t13 68v19q0 57 -34 93t-89 36t-89 -36t-34 -93zM743 1425
h-305l-227 365h401z" />
    <glyph glyph-name="Aring.alt1" 
d="M465 57v-57h-404v831q0 156 64.5 274t181.5 183q-43 67 -43 152q0 132 90.5 215.5t233.5 83.5q137 0 230 -86t93 -213q0 -84 -39 -154q115 -64 178.5 -182t63.5 -273v-831h-403v307q-27 -19 -70.5 -44.5t-69.5 -42.5t-53 -41t-40 -54t-13 -68zM588 1356q38 0 62 23.5
t24 60.5q0 35 -24.5 59.5t-61.5 24.5q-38 0 -62 -23.5t-24 -60.5q0 -35 24.5 -59.5t61.5 -24.5zM465 834v-269q27 19 70.5 44.5t69.5 42.5t53 41t40 54t13 68v19q0 57 -34 93t-89 36t-89 -36t-34 -93z" />
    <glyph glyph-name="Atilde.alt1" 
d="M465 57v-57h-404v831q0 238 144.5 381.5t382.5 143.5t382 -143.5t144 -381.5v-831h-403v307q-27 -19 -70.5 -44.5t-69.5 -42.5t-53 -41t-40 -54t-13 -68zM465 834v-269q27 19 70.5 44.5t69.5 42.5t53 41t40 54t13 68v19q0 57 -34 93t-89 36t-89 -36t-34 -93zM215 1425
v111q0 129 58 196.5t155 67.5q43 0 95 -20t92.5 -40t56.5 -20q28 0 28 37v33h261v-109q0 -131 -58 -198.5t-155 -67.5q-50 0 -102.5 20t-90 40t-51.5 20q-29 0 -29 -37v-33h-260z" />
    <glyph glyph-name="Abreve.alt1" 
d="M465 57v-57h-404v831q0 238 144.5 381.5t382.5 143.5t382 -143.5t144 -381.5v-831h-403v307q-27 -19 -70.5 -44.5t-69.5 -42.5t-53 -41t-40 -54t-13 -68zM465 834v-269q27 19 70.5 44.5t69.5 42.5t53 41t40 54t13 68v19q0 57 -34 93t-89 36t-89 -36t-34 -93zM588 1675
q39 0 59.5 19t20.5 51v45h270v-76q0 -139 -93.5 -219t-256.5 -80t-256.5 80t-93.5 219v76h270v-45q0 -32 20.5 -51t59.5 -19z" />
    <glyph glyph-name="Amacron.alt1" 
d="M465 57v-57h-404v831q0 238 144.5 381.5t382.5 143.5t382 -143.5t144 -381.5v-831h-403v307q-27 -19 -70.5 -44.5t-69.5 -42.5t-53 -41t-40 -54t-13 -68zM465 834v-269q27 19 70.5 44.5t69.5 42.5t53 41t40 54t13 68v19q0 57 -34 93t-89 36t-89 -36t-34 -93zM285 1704
h606v-279h-606v279z" />
    <glyph glyph-name="Aogonek.alt1" 
d="M1114 -129v-244h-70q-140 0 -216 55.5t-76 141.5q0 117 112 176h-153v307q-27 -19 -70.5 -44.5t-69.5 -42.5t-53 -41t-40 -54t-13 -68v-57h-404v831q0 238 144.5 381.5t382.5 143.5t382 -143.5t144 -381.5v-831q-58 -32 -77 -51t-19 -39q0 -39 47 -39h49zM465 834v-269
q27 19 70.5 44.5t69.5 42.5t53 41t40 54t13 68v19q0 57 -34 93t-89 36t-89 -36t-34 -93z" />
    <glyph glyph-name="Aacute.alt2" 
d="M61 0v831q0 238 144.5 381.5t382.5 143.5t382 -143.5t144 -381.5v-831h-403v252h-246v-252h-404zM465 834v-213h246v213q0 58 -33.5 93.5t-89.5 35.5t-89.5 -35.5t-33.5 -93.5zM438 1425l121 365h391l-207 -365h-305z" />
    <glyph glyph-name="Acircumflex.alt2" 
d="M61 0v831q0 238 144.5 381.5t382.5 143.5t382 -143.5t144 -381.5v-831h-403v252h-246v-252h-404zM465 834v-213h246v213q0 58 -33.5 93.5t-89.5 35.5t-89.5 -35.5t-33.5 -93.5zM647 1425l-61 172l-62 -172h-331l182 365h426l182 -365h-336z" />
    <glyph glyph-name="Adieresis.alt2" 
d="M61 0v831q0 238 144.5 381.5t382.5 143.5t382 -143.5t144 -381.5v-831h-403v252h-246v-252h-404zM465 834v-213h246v213q0 58 -33.5 93.5t-89.5 35.5t-89.5 -35.5t-33.5 -93.5zM367 1415q-83 0 -136 51.5t-53 128.5q0 80 52.5 132.5t136.5 52.5q82 0 135 -52t53 -129
q0 -79 -52 -131.5t-136 -52.5zM809 1415q-82 0 -135 51.5t-53 128.5q0 80 52 132.5t136 52.5q82 0 135 -52t53 -129q0 -79 -52 -131.5t-136 -52.5z" />
    <glyph glyph-name="Agrave.alt2" 
d="M61 0v831q0 238 144.5 381.5t382.5 143.5t382 -143.5t144 -381.5v-831h-403v252h-246v-252h-404zM465 834v-213h246v213q0 58 -33.5 93.5t-89.5 35.5t-89.5 -35.5t-33.5 -93.5zM743 1425h-305l-227 365h401z" />
    <glyph glyph-name="Aring.alt2" 
d="M465 252v-252h-404v831q0 157 64 274.5t182 182.5q-43 67 -43 152q0 132 90.5 215.5t233.5 83.5q137 0 230 -86t93 -213q0 -86 -41 -154q117 -65 180.5 -182.5t63.5 -272.5v-831h-403v252h-246zM588 1356q38 0 62 23.5t24 60.5q0 35 -24.5 59.5t-61.5 24.5
q-38 0 -62 -23.5t-24 -60.5q0 -35 24.5 -59.5t61.5 -24.5zM465 834v-213h246v213q0 58 -33.5 93.5t-89.5 35.5t-89.5 -35.5t-33.5 -93.5z" />
    <glyph glyph-name="Atilde.alt2" 
d="M61 0v831q0 238 144.5 381.5t382.5 143.5t382 -143.5t144 -381.5v-831h-403v252h-246v-252h-404zM465 834v-213h246v213q0 58 -33.5 93.5t-89.5 35.5t-89.5 -35.5t-33.5 -93.5zM215 1425v111q0 129 58 196.5t155 67.5q43 0 95 -20t92.5 -40t56.5 -20q28 0 28 37v33h261
v-109q0 -131 -58 -198.5t-155 -67.5q-50 0 -102.5 20t-90 40t-51.5 20q-29 0 -29 -37v-33h-260z" />
    <glyph glyph-name="Abreve.alt2" 
d="M61 0v831q0 238 144.5 381.5t382.5 143.5t382 -143.5t144 -381.5v-831h-403v252h-246v-252h-404zM465 834v-213h246v213q0 58 -33.5 93.5t-89.5 35.5t-89.5 -35.5t-33.5 -93.5zM588 1675q39 0 59.5 19t20.5 51v45h270v-76q0 -139 -93.5 -219t-256.5 -80t-256.5 80
t-93.5 219v76h270v-45q0 -32 20.5 -51t59.5 -19z" />
    <glyph glyph-name="Amacron.alt2" 
d="M61 0v831q0 238 144.5 381.5t382.5 143.5t382 -143.5t144 -381.5v-831h-403v252h-246v-252h-404zM465 834v-213h246v213q0 58 -33.5 93.5t-89.5 35.5t-89.5 -35.5t-33.5 -93.5zM285 1704h606v-279h-606v279z" />
    <glyph glyph-name="Aogonek.alt2" 
d="M1114 -129v-244h-70q-140 0 -216 55.5t-76 141.5q0 117 112 176h-153v252h-246v-252h-404v831q0 238 144.5 381.5t382.5 143.5t382 -143.5t144 -381.5v-831q-58 -32 -77 -51t-19 -39q0 -39 47 -39h49zM465 834v-213h246v213q0 58 -33.5 93.5t-89.5 35.5t-89.5 -35.5
t-33.5 -93.5z" />
    <glyph glyph-name="Ccedilla.alt1" horiz-adv-x="835" 
d="M754 0q-45 0 -123 8v-280h-342l47 383q-144 89 -224.5 233t-80.5 322q0 191 92.5 343t258 237t372.5 85h20v-385h-20q-136 0 -217.5 -76t-81.5 -204t81.5 -204.5t217.5 -76.5h20v-385h-20z" />
    <glyph glyph-name="Cacute.alt1" horiz-adv-x="835" 
d="M774 0h-20q-207 0 -372.5 85.5t-258 237.5t-92.5 343t92.5 343t258 237t372.5 85h20v-385h-20q-136 0 -217.5 -76t-81.5 -204t81.5 -204.5t217.5 -76.5h20v-385zM362 1425l121 365h391l-206 -365h-306z" />
    <glyph glyph-name="Ccaron.alt1" horiz-adv-x="835" 
d="M774 0h-20q-207 0 -372.5 85.5t-258 237.5t-92.5 343t92.5 343t258 237t372.5 85h20v-385h-20q-136 0 -217.5 -76t-81.5 -204t81.5 -204.5t217.5 -76.5h20v-385zM907 1790l-182 -365h-426l-182 365h336l61 -172l61 172h332z" />
    <glyph glyph-name="Ccircumflex.alt1" horiz-adv-x="835" 
d="M774 0h-20q-207 0 -372.5 85.5t-258 237.5t-92.5 343t92.5 343t258 237t372.5 85h20v-385h-20q-136 0 -217.5 -76t-81.5 -204t81.5 -204.5t217.5 -76.5h20v-385zM571 1425l-61 172l-61 -172h-332l182 365h426l182 -365h-336z" />
    <glyph glyph-name="Cdotaccent.alt1" horiz-adv-x="835" 
d="M774 0h-20q-207 0 -372.5 85.5t-258 237.5t-92.5 343t92.5 343t258 237t372.5 85h20v-385h-20q-136 0 -217.5 -76t-81.5 -204t81.5 -204.5t217.5 -76.5h20v-385zM492 1415q-93 0 -158.5 62t-65.5 155q0 92 65 154.5t159 62.5q93 0 158 -62t65 -155q0 -92 -64.5 -154.5
t-158.5 -62.5z" />
    <glyph glyph-name="Eacute.alt1" horiz-adv-x="946" 
d="M895 354v-354h-823v1331h823v-354h-422v-135h371v-348h-371v-140h422zM324 1425l120 365h392l-207 -365h-305z" />
    <glyph glyph-name="Ecircumflex.alt1" horiz-adv-x="946" 
d="M895 354v-354h-823v1331h823v-354h-422v-135h371v-348h-371v-140h422zM537 1425l-62 172l-61 -172h-332l182 365h426l182 -365h-335z" />
    <glyph glyph-name="Edieresis.alt1" horiz-adv-x="946" 
d="M895 354v-354h-823v1331h823v-354h-422v-135h371v-348h-371v-140h422zM256 1415q-82 0 -135 51.5t-53 128.5q0 80 52 132.5t136 52.5q82 0 135 -52t53 -129q0 -79 -52 -131.5t-136 -52.5zM698 1415q-82 0 -135 51.5t-53 128.5q0 80 52 132.5t136 52.5q82 0 135.5 -52
t53.5 -129q0 -79 -52.5 -131.5t-136.5 -52.5z" />
    <glyph glyph-name="Egrave.alt1" horiz-adv-x="946" 
d="M895 354v-354h-823v1331h823v-354h-422v-135h371v-348h-371v-140h422zM633 1425h-305l-228 365h402z" />
    <glyph glyph-name="Ebreve.alt1" horiz-adv-x="946" 
d="M895 354v-354h-823v1331h823v-354h-422v-135h371v-348h-371v-140h422zM477 1675q39 0 59.5 19t20.5 51v45h270v-76q0 -139 -93.5 -219t-256.5 -80t-256.5 80t-93.5 219v76h270v-45q0 -32 20.5 -51t59.5 -19z" />
    <glyph glyph-name="Ecaron.alt1" horiz-adv-x="946" 
d="M895 354v-354h-823v1331h823v-354h-422v-135h371v-348h-371v-140h422zM872 1790l-182 -365h-426l-182 365h336l61 -172l62 172h331z" />
    <glyph glyph-name="Edotaccent.alt1" horiz-adv-x="946" 
d="M895 354v-354h-823v1331h823v-354h-422v-135h371v-348h-371v-140h422zM477 1415q-93 0 -158 62t-65 155q0 92 64.5 154.5t158.5 62.5q93 0 158 -62t65 -155q0 -92 -64.5 -154.5t-158.5 -62.5z" />
    <glyph glyph-name="Emacron.alt1" horiz-adv-x="946" 
d="M895 354v-354h-823v1331h823v-354h-422v-135h371v-348h-371v-140h422zM174 1704h606v-279h-606v279z" />
    <glyph glyph-name="Eogonek.alt1" horiz-adv-x="946" 
d="M895 -129v-244h-70q-141 0 -217 55.5t-76 141.5q0 117 113 176h-573v1331h823v-354h-422v-133h371v-352h-371v-138h422v-354q-58 -32 -77 -51t-19 -39q0 -39 47 -39h49z" />
    <glyph glyph-name="Gbreve.alt1" horiz-adv-x="1073" 
d="M1008 743v-743h-248q-209 0 -376 85.5t-260 237.5t-93 343t93.5 343t260 237t375.5 85h188v-385h-188q-139 0 -222 -76t-83 -204q0 -96 47.5 -164t132.5 -96v337h373zM623 1673q39 0 59 19t20 51v45h271v-76q0 -139 -93.5 -219t-256.5 -80t-257 80t-94 219v76h271v-45
q0 -32 20.5 -51t59.5 -19z" />
    <glyph glyph-name="Gcircumflex.alt1" horiz-adv-x="1073" 
d="M1008 743v-743h-248q-209 0 -376 85.5t-260 237.5t-93 343t93.5 343t260 237t375.5 85h188v-385h-188q-139 0 -222 -76t-83 -204q0 -96 47.5 -164t132.5 -96v337h373zM682 1427l-61 172l-62 -172h-332l183 365h426l182 -365h-336z" />
    <glyph glyph-name="Gcommaaccent.alt1" horiz-adv-x="1073" 
d="M1008 743v-743h-248q-209 0 -376 85.5t-260 237.5t-93 343t93.5 343t260 237t375.5 85h188v-385h-188q-139 0 -222 -76t-83 -204q0 -96 47.5 -164t132.5 -96v337h373zM766 -248q0 -55 -27.5 -120.5t-97.5 -174.5h-168q33 61 74 162q-50 15 -79.5 54t-29.5 91q0 68 47 114
t117 46q72 0 118 -47t46 -125z" />
    <glyph glyph-name="Gdotaccent.alt1" horiz-adv-x="1073" 
d="M1008 743v-743h-248q-209 0 -376 85.5t-260 237.5t-93 343t93.5 343t260 237t375.5 85h188v-385h-188q-139 0 -222 -76t-83 -204q0 -96 47.5 -164t132.5 -96v337h373zM623 1415q-93 0 -158.5 62t-65.5 155q0 92 65 154.5t159 62.5q93 0 158 -62t65 -155
q0 -92 -64.5 -154.5t-158.5 -62.5z" />
    <glyph glyph-name="Hbar.alt1" horiz-adv-x="1327" 
d="M543 57v-57h-410v872h-123v308h123v151h410v-151h241v151h410v-151h123v-308h-123v-872h-410v313q-26 -18 -70 -43.5t-68.5 -41.5t-51.5 -41t-39 -56.5t-12 -73.5zM784 870v2h-241v-241q28 20 70 43.5t68 39.5t52 38t38.5 51t12.5 67z" />
    <glyph glyph-name="Hcircumflex.alt1" horiz-adv-x="1204" 
d="M485 193v-193h-413v1331h413v-561q27 18 68.5 42t65.5 39.5t50 38t38 51t12 65.5v325h414v-1331h-414v444q-23 -15 -57.5 -35.5t-56 -33t-47 -33t-39.5 -39.5t-24 -47.5t-10 -62.5zM662 1425l-62 172l-61 -172h-332l182 365h426l182 -365h-335z" />
    <glyph glyph-name="Hbar.alt2" horiz-adv-x="1327" 
d="M784 0v328h-241v-328h-410v872h-123v308h123v151h410v-151h241v151h410v-151h123v-308h-123v-872h-410zM543 733h241v139h-241v-139z" />
    <glyph glyph-name="Hcircumflex.alt2" horiz-adv-x="1204" 
d="M719 0v389h-234v-389h-413v1331h413v-532h234v532h414v-1331h-414zM662 1425l-62 172l-61 -172h-332l182 365h426l182 -365h-335z" />
    <glyph glyph-name="Kcommaaccent.alt1" horiz-adv-x="1212" 
d="M733 0l-141 258q-48 -42 -107 -86v-172h-413v1331h413v-663q135 116 185.5 267t50.5 396h422q0 -256 -50 -444.5t-169 -347.5l288 -539h-479zM772 -248q0 -55 -27.5 -120.5t-97.5 -174.5h-168q33 61 74 162q-50 15 -79.5 54t-29.5 91q0 68 47 114t117 46q72 0 118 -47
t46 -125z" />
    <glyph glyph-name="Racute.alt1" horiz-adv-x="1183" 
d="M715 0l-230 371v-371h-413v1331h487q255 0 410 -135.5t155 -359.5q0 -133 -58 -237.5t-165 -166.5l295 -432h-481zM563 950h-78v-278q31 -8 64 -8q76 0 122 40.5t46 106.5q0 63 -42 101t-112 38zM420 1425l121 365h391l-207 -365h-305z" />
    <glyph glyph-name="Rcaron.alt1" horiz-adv-x="1183" 
d="M715 0l-230 371v-371h-413v1331h487q255 0 410 -135.5t155 -359.5q0 -133 -58 -237.5t-165 -166.5l295 -432h-481zM563 950h-78v-278q31 -8 64 -8q76 0 122 40.5t46 106.5q0 63 -42 101t-112 38zM965 1790l-183 -365h-426l-182 365h336l61 -172l62 172h332z" />
    <glyph glyph-name="Rcommaaccent.alt1" horiz-adv-x="1183" 
d="M715 0l-230 371v-371h-413v1331h487q255 0 410 -135.5t155 -359.5q0 -133 -58 -237.5t-165 -166.5l295 -432h-481zM563 950h-78v-278q31 -8 64 -8q76 0 122 40.5t46 106.5q0 63 -42 101t-112 38zM774 -248q0 -55 -27.5 -120.5t-97.5 -174.5h-168q33 61 74 162
q-50 15 -79.5 54t-29.5 91q0 68 47 114t117 46q72 0 118 -47t46 -125z" />
    <glyph glyph-name="Scaron.alt1" horiz-adv-x="815" 
d="M201 817q0 514 542 514h31v-368h-31q-63 0 -96 -35.5t-33 -100.5v-313q0 -514 -542 -514h-31v369h31q129 0 129 135v313zM825 1790l-182 -365h-426l-182 365h336l61 -172l62 172h331z" />
    <glyph glyph-name="Sacute.alt1" horiz-adv-x="815" 
d="M201 817q0 514 542 514h31v-368h-31q-63 0 -96 -35.5t-33 -100.5v-313q0 -514 -542 -514h-31v369h31q129 0 129 135v313zM313 1425l121 365h391l-207 -365h-305z" />
    <glyph glyph-name="Scedilla.alt1" horiz-adv-x="815" 
d="M614 514q0 -261 -139 -391v-393h-342l33 274q-58 -4 -94 -4h-31v369h31q129 0 129 135v313q0 514 542 514h31v-368h-31q-63 0 -96 -35.5t-33 -100.5v-313z" />
    <glyph glyph-name="Scircumflex.alt1" horiz-adv-x="815" 
d="M201 817q0 514 542 514h31v-368h-31q-63 0 -96 -35.5t-33 -100.5v-313q0 -514 -542 -514h-31v369h31q129 0 129 135v313zM489 1425l-61 172l-61 -172h-332l182 365h426l182 -365h-336z" />
    <glyph glyph-name="uni0218.alt1" horiz-adv-x="815" 
d="M201 817q0 514 542 514h31v-368h-31q-63 0 -96 -35.5t-33 -100.5v-313q0 -514 -542 -514h-31v369h31q129 0 129 135v313zM492 -250q0 -55 -27.5 -120.5t-97.5 -174.5h-168q28 53 73 162q-50 15 -79 54t-29 91q0 68 47 114t117 46q72 0 118 -47t46 -125z" />
    <glyph glyph-name="Tbar.alt1" horiz-adv-x="1011" 
d="M895 446h-184v-446h-410v446h-184v308h184v209h-260v368h930v-368h-260v-209h184v-308z" />
    <glyph glyph-name="Tcaron.alt1" horiz-adv-x="1011" 
d="M901 1790l-182 -365h-426l-182 365h335l62 -172l61 172h332zM971 963h-260v-963h-410v963h-260v368h930v-368z" />
    <glyph glyph-name="uni0162.alt1" horiz-adv-x="1011" 
d="M670 -248q0 -55 -27.5 -120.5t-97.5 -174.5h-168q33 61 74 162q-50 15 -79.5 54t-29.5 91q0 68 47 114t117 46q72 0 118 -47t46 -125zM971 963h-260v-963h-410v963h-260v368h930v-368z" />
    <glyph glyph-name="uni021A.alt1" horiz-adv-x="1011" 
d="M670 -248q0 -55 -27.5 -120.5t-97.5 -174.5h-168q33 61 74 162q-50 15 -79.5 54t-29.5 91q0 68 47 114t117 46q72 0 118 -47t46 -125zM971 963h-260v-963h-410v963h-260v368h930v-368z" />
    <glyph glyph-name="i.dot" horiz-adv-x="522" 
d="M262 1077q-97 0 -157 57t-60 146t59.5 146t157.5 57q97 0 156 -57t59 -146t-59 -146t-156 -57zM61 1004h400v-1004h-400v1004z" />
    <glyph glyph-name="caron.alt" horiz-adv-x="1024" 
d="M375 862v469h350l-70 -469h-280z" />
    <glyph glyph-name="revcommaaccent" horiz-adv-x="1024" 
d="M348 1260q0 54 27.5 119.5t97.5 174.5h168q-34 -64 -74 -161q50 -15 79.5 -54.5t29.5 -91.5q0 -68 -47 -114t-117 -46q-72 0 -118 47.5t-46 125.5z" />
    <glyph glyph-name="zero.tlf" horiz-adv-x="1241" 
d="M621 -25q-126 0 -234 48t-187 135t-124 218t-45 290t45 289.5t124 218t187 135t234 47.5t234 -47.5t186.5 -135t123.5 -218t45 -289.5t-45 -290t-123.5 -218t-186.5 -135t-234 -48zM621 971q-75 0 -120.5 -77t-45.5 -228t45.5 -228.5t120.5 -77.5t120 77.5t45 228.5
t-45 228t-120 77z" />
    <glyph glyph-name="one.tlf" horiz-adv-x="1241" 
d="M1149 369v-369h-1016v369h334v477q-148 -33 -303 -41v362q179 15 365 65t345 124v-987h275z" />
    <glyph glyph-name="two.tlf" horiz-adv-x="1241" 
d="M1139 369v-369h-1035l566 782q45 61 45 113q0 46 -33 77.5t-80 31.5q-51 0 -84 -31t-33 -78q0 -52 47 -90l-219 -303q-221 144 -221 383q0 133 66 241t183 169t261 61q218 0 362 -126.5t144 -318.5q0 -86 -30.5 -160t-114.5 -190l-138 -192h314z" />
    <glyph glyph-name="three.tlf" horiz-adv-x="1241" 
d="M1163 440q0 -206 -150.5 -335.5t-389.5 -129.5q-250 0 -400.5 135t-150.5 359h385q0 -63 41 -99t114 -36q68 0 106 32t38 85q0 51 -37.5 81.5t-100.5 30.5h-49v307h62q30 0 84 -4q6 18 6 37q0 51 -35 83t-92 32q-52 0 -85.5 -33t-33.5 -84h-375q0 197 139.5 326
t354.5 129q225 0 364.5 -116.5t139.5 -305.5q0 -118 -58 -207q123 -117 123 -287z" />
    <glyph glyph-name="four.tlf" horiz-adv-x="1241" 
d="M1108 1004v-1004h-397v106q0 46 -20.5 82t-55 60.5t-80 46.5t-95 45t-99 50t-95 68t-80 93t-55 130t-20.5 175v475h413v-454q0 -35 8 -62t18.5 -43.5t32 -32.5t37 -24t45.5 -22t46 -23v334h397z" />
    <glyph glyph-name="five.tlf" horiz-adv-x="1241" 
d="M1145 442q0 -201 -148 -334t-372 -133q-227 0 -375 134t-148 340h412q0 -44 32 -74.5t79 -30.5q50 0 80 27t30 71q0 100 -131 109l-457 37l117 743h768v-368h-469l-12 -76l106 -8q235 -19 361.5 -132t126.5 -305z" />
    <glyph glyph-name="six.tlf" horiz-adv-x="1241" 
d="M1190 504q0 -226 -160.5 -377.5t-404.5 -151.5q-156 0 -285.5 68.5t-204 188.5t-74.5 264q0 99 31 195t79 175.5t97 153t93.5 156t60.5 155.5h422q-11 -66 -40 -133.5t-53.5 -105.5t-66.5 -97q217 -8 361.5 -147t144.5 -344zM625 344q69 0 116 46t47 114q0 66 -47 113
t-116 47q-68 0 -115 -46.5t-47 -113.5q0 -66 47.5 -113t114.5 -47z" />
    <glyph glyph-name="seven.tlf" horiz-adv-x="1241" 
d="M1133 1331q-126 -324 -187 -526.5t-87.5 -366.5t-47.5 -438h-424q18 282 66 512t139 451h-461v368h1002z" />
    <glyph glyph-name="eight.tlf" horiz-adv-x="1241" 
d="M1174 412q0 -189 -157 -313t-396 -124t-396 124t-157 313q0 106 52.5 190t149.5 137q-112 92 -112 238q0 164 131 271.5t332 107.5t331.5 -107.5t130.5 -271.5q0 -144 -110 -240q97 -53 149 -136t52 -189zM621 836q46 0 77 29.5t31 72.5q0 44 -31 74t-77 30t-77.5 -30
t-31.5 -74q0 -43 31.5 -72.5t77.5 -29.5zM621 309q63 0 105 40t42 100t-42 98.5t-105 38.5t-105.5 -38.5t-42.5 -98.5t42.5 -100t105.5 -40z" />
    <glyph glyph-name="nine.tlf" horiz-adv-x="1241" 
d="M1180 836q0 -99 -31 -195t-79 -175.5t-97 -153.5t-93.5 -156.5t-60.5 -155.5h-422q11 66 40 133.5t53.5 105.5t66.5 97q-217 8 -361.5 147t-144.5 344q0 226 160.5 377.5t404.5 151.5q156 0 285.5 -68.5t204 -188t74.5 -263.5zM616 987q-69 0 -116 -46t-47 -114
q0 -66 47 -112.5t116 -46.5q68 0 115 46t47 113q0 66 -47.5 113t-114.5 47z" />
    <glyph glyph-name="arrowleft.alt1" horiz-adv-x="1310" 
d="M1249 317l-694 21q111 -129 111 -299h-373q0 134 -52.5 208.5t-179.5 121.5v266q128 50 180 124t52 206h373q0 -172 -109 -299l692 20v-369z" />
    <glyph glyph-name="arrowup.alt1" horiz-adv-x="1048" 
d="M987 563q-166 0 -291 101l21 -664h-385l20 666q-124 -103 -291 -103v373q134 0 208.5 52t121.5 179h266q49 -127 123.5 -179t206.5 -52v-373z" />
    <glyph glyph-name="arrowright.alt1" horiz-adv-x="1310" 
d="M1249 369q-126 -47 -178.5 -122t-52.5 -208h-373q0 170 111 299l-695 -21v369l693 -20q-109 127 -109 299h373q0 -132 52 -206.5t179 -123.5v-266z" />
    <glyph glyph-name="arrowdown.alt1" horiz-adv-x="1048" 
d="M987 68q-132 0 -206 -52t-124 -180h-266q-47 126 -122 179t-208 53v372q169 0 291 -102l-20 666h385l-21 -664q124 100 291 100v-372z" />
    <glyph glyph-name="uni2194.alt1" horiz-adv-x="1556" 
d="M778 328l-221 8q109 -127 109 -297h-373q0 134 -52.5 208.5t-179.5 121.5v266q128 50 180 124t52 206h373q0 -169 -107 -297l219 8l219 -8q-106 127 -106 297h373q0 -132 52 -206.5t179 -123.5v-266q-126 -47 -178.5 -122t-52.5 -208h-373q0 171 108 297z" />
    <glyph glyph-name="uni2195.alt1" horiz-adv-x="1048" 
d="M987 16q-132 0 -206.5 -52t-123.5 -179h-266q-47 126 -122 178.5t-208 52.5v373q165 0 289 -100l-8 213l8 213q-125 -101 -289 -101v373q134 0 208.5 52.5t121.5 179.5h266q50 -128 124 -180t206 -52v-373q-163 0 -289 99l9 -211l-9 -213q124 100 289 100v-373z" />
    <glyph glyph-name="uni2196.alt1" horiz-adv-x="1140" 
d="M1120 238l-262 -263l-440 465q-15 -166 -133 -284l-265 262q95 95 111 183.5t-41 213.5l189 189q124 -56 213.5 -40.5t183.5 109.5l262 -264q-121 -121 -287 -133z" />
    <glyph glyph-name="uni2197.alt1" horiz-adv-x="1140" 
d="M856 156q-118 118 -133 284l-440 -465l-263 263l469 438q-165 12 -286 133l262 264q94 -94 183.5 -109.5t213.5 40.5l189 -189q-57 -124 -41.5 -213t110.5 -184z" />
    <glyph glyph-name="uni2198.alt1" horiz-adv-x="1140" 
d="M862 0q-125 55 -214 39.5t-183 -109.5l-262 265q121 121 286 133l-469 438l263 262l440 -465q15 167 133 285l264 -262q-95 -95 -110.5 -184.5t41.5 -213.5z" />
    <glyph glyph-name="uni2199.alt1" horiz-adv-x="1140" 
d="M938 195l-262 -265q-94 94 -183 109.5t-214 -39.5l-189 188q57 125 41 214t-111 184l265 262q118 -118 133 -285l440 465l262 -262l-469 -438q166 -12 287 -133z" />
    <glyph glyph-name="at.case" horiz-adv-x="1714" 
d="M1047 129v-272h-160q-179 0 -336.5 58.5t-269 160t-176 244t-64.5 305.5q0 175 64.5 328t176.5 261.5t269 171t336 62.5q226 0 405.5 -92.5t280 -257.5t100.5 -371q0 -217 -106.5 -344t-286.5 -127q-163 0 -258 86q-81 -90 -205 -90q-152 0 -254 108.5t-102 268.5
q0 180 122 289.5t322 109.5h307v-395q0 -103 80 -103q47 0 67.5 44.5t20.5 148.5q0 206 -134.5 329.5t-358.5 123.5q-243 0 -398 -154.5t-155 -396.5q0 -218 155 -357t398 -139h160zM877 514q28 0 49 6q-11 64 -11 113v133h-26q-60 0 -97.5 -35.5t-37.5 -93.5q0 -55 34 -89
t89 -34z" />
    <glyph glyph-name="questiondown.case" horiz-adv-x="1095" 
d="M541 1356q91 0 152 -59t61 -148q0 -88 -60.5 -147.5t-152.5 -59.5q-91 0 -152 59t-61 148q0 88 60.5 147.5t152.5 59.5zM1065 412q0 -195 -141.5 -316t-370.5 -121t-370.5 115t-141.5 301q0 140 83 234t236 129l5 102h352l10 -348h-174q-59 0 -91 -26.5t-32 -75.5
q0 -46 34 -74.5t89 -28.5t89 30.5t34 78.5h389z" />
    <glyph glyph-name="exclamdown.case" horiz-adv-x="528" 
d="M264 1356q92 0 152.5 -59.5t60.5 -147.5q0 -89 -61 -148t-152 -59q-92 0 -152.5 59.5t-60.5 147.5q0 89 61 148t152 59zM469 0h-410l29 856h352z" />
    <glyph glyph-name="parenleft.case" horiz-adv-x="782" 
d="M752 -244l-35 6q-207 37 -362.5 160.5t-239.5 315.5t-84 428q0 356 186.5 602t499.5 301l35 6v-348l-25 -8q-144 -48 -223.5 -191t-79.5 -362t79.5 -362t223.5 -191l25 -9v-348z" />
    <glyph glyph-name="parenright.case" horiz-adv-x="782" 
d="M31 -244v348l24 9q144 48 223.5 191t79.5 362t-79.5 362t-223.5 191l-24 8v348l35 -6q313 -55 499.5 -301t186.5 -602q0 -236 -84 -428t-239.5 -315.5t-362.5 -160.5z" />
    <glyph glyph-name="braceleft.case" horiz-adv-x="831" 
d="M791 78v-324h-175q-196 0 -309.5 108t-113.5 294v258q0 35 -21 54t-59 19h-72v357h72q38 0 59 19.5t21 54.5v258q0 186 113.5 293.5t309.5 107.5h175v-324h-115q-41 0 -63.5 -19t-22.5 -54v-262q0 -87 -45 -153.5t-131 -98.5q85 -31 130.5 -98.5t45.5 -153.5v-262
q0 -35 22.5 -54.5t63.5 -19.5h115z" />
    <glyph glyph-name="braceright.case" horiz-adv-x="831" 
d="M639 156q0 -186 -114 -294t-310 -108h-174v324h115q41 0 63.5 19.5t22.5 54.5v262q0 86 45.5 153.5t130.5 98.5q-86 32 -131 98.5t-45 153.5v262q0 35 -22.5 54t-63.5 19h-115v324h174q197 0 310.5 -107.5t113.5 -293.5v-258q0 -35 21 -54.5t59 -19.5h72v-357h-72
q-38 0 -59 -19t-21 -54v-258z" />
    <glyph glyph-name="bracketleft.case" horiz-adv-x="710" 
d="M72 -246v1823h598v-324h-197v-1175h197v-324h-598z" />
    <glyph glyph-name="bracketright.case" horiz-adv-x="710" 
d="M639 -246h-598v324h197v1175h-197v324h598v-1823z" />
    <glyph glyph-name="hyphen.case" horiz-adv-x="757" 
d="M51 840h656v-348h-656v348z" />
    <glyph glyph-name="endash.case" horiz-adv-x="1024" 
d="M51 850h922v-369h-922v369z" />
    <glyph glyph-name="emdash.case" horiz-adv-x="2048" 
d="M51 850h1946v-369h-1946v369z" />
    <glyph glyph-name="brokenbar.case" horiz-adv-x="552" 
d="M72 1495h409v-764h-409v764zM72 621h409v-764h-409v764z" />
    <glyph glyph-name="bar.case" horiz-adv-x="552" 
d="M72 1495h409v-1638h-409v1638z" />
    <glyph glyph-name="guillemotleft.case" horiz-adv-x="1290" 
d="M680 1067l-238 -387l254 -416h-430l-241 402l241 401h414zM1237 1065l-238 -387l254 -416h-430l-241 402l241 401h414z" />
    <glyph glyph-name="guillemotright.case" horiz-adv-x="1290" 
d="M709 666l-242 -402h-414l238 387l-254 416h430zM1266 666l-242 -402h-414l238 387l-254 416h430z" />
    <glyph glyph-name="guilsinglleft.case" horiz-adv-x="733" 
d="M680 1067l-238 -387l254 -416h-430l-241 402l241 401h414z" />
    <glyph glyph-name="guilsinglright.case" horiz-adv-x="733" 
d="M709 666l-242 -402h-414l238 387l-254 416h430z" />
    <glyph glyph-name="arrowleft.case" horiz-adv-x="1310" 
d="M1249 481l-731 15l172 -293h-383l-266 463l266 462h383l-172 -292l731 14v-369z" />
    <glyph glyph-name="arrowup.case" horiz-adv-x="1048" 
d="M987 641l-285 168l15 -727h-385l14 727l-285 -168v363l463 266l463 -266v-363z" />
    <glyph glyph-name="arrowright.case" horiz-adv-x="1310" 
d="M1270 666l-266 -463h-383l172 293l-732 -15v369l732 -14l-172 292h383z" />
    <glyph glyph-name="arrowdown.case" horiz-adv-x="1048" 
d="M987 328l-463 -267l-463 267v362l285 -168l-14 727h385l-15 -727l285 168v-362z" />
    <glyph glyph-name="uni2194.case" horiz-adv-x="1556" 
d="M778 492l-260 4l172 -293h-383l-266 463l266 462h383l-172 -292l260 4l260 -4l-172 292h383l267 -462l-267 -463h-383l172 293z" />
    <glyph glyph-name="uni2195.case" horiz-adv-x="1048" 
d="M987 236l-463 -267l-463 267v362l285 -168l-4 236l4 235l-285 -168v363l463 266l463 -266v-363l-285 168l5 -235l-5 -236l285 168v-362z" />
    <glyph glyph-name="uni2196.case" horiz-adv-x="1140" 
d="M1100 399l-260 -260l-496 520l10 -415l-293 305v618h641l302 -293l-404 11z" />
    <glyph glyph-name="uni2197.case" horiz-adv-x="1140" 
d="M766 244l10 415l-495 -520l-261 260l500 486l-403 -11l301 293h641v-618z" />
    <glyph glyph-name="uni2198.case" horiz-adv-x="1140" 
d="M1059 782v-618h-641l-301 293l403 -11l-500 486l261 260l495 -520l-10 415z" />
    <glyph glyph-name="uni2199.case" horiz-adv-x="1140" 
d="M1004 457l-302 -293h-641v618l293 305l-10 -415l496 520l260 -260l-500 -486z" />
    <glyph glyph-name="arrowleft.alt1.case" horiz-adv-x="1310" 
d="M1249 481l-694 21q111 -129 111 -299h-373q0 134 -52.5 208t-179.5 121v267q128 50 180 123.5t52 205.5h373q0 -172 -109 -299l692 21v-369z" />
    <glyph glyph-name="arrowup.alt1.case" horiz-adv-x="1048" 
d="M987 645q-167 0 -291 100l21 -663h-385l20 666q-124 -103 -291 -103v373q134 0 208.5 52t121.5 179h266q49 -127 123.5 -179t206.5 -52v-373z" />
    <glyph glyph-name="arrowright.alt1.case" horiz-adv-x="1310" 
d="M1249 532q-126 -47 -178.5 -121.5t-52.5 -207.5h-373q0 170 111 299l-695 -21v369l693 -21q-109 127 -109 299h373q0 -132 52 -206t179 -123v-267z" />
    <glyph glyph-name="arrowdown.alt1.case" horiz-adv-x="1048" 
d="M987 313q-132 0 -206.5 -52t-123.5 -179h-266q-47 126 -122 178.5t-208 52.5v373q169 0 291 -102l-20 665h385l-21 -663q124 100 291 100v-373z" />
    <glyph glyph-name="uni2194.alt1.case" horiz-adv-x="1556" 
d="M778 492l-221 8q109 -127 109 -297h-373q0 134 -52.5 208t-179.5 121v267q128 50 180 123.5t52 205.5h373q0 -169 -107 -297l219 9l219 -9q-106 127 -106 297h373q0 -132 52 -206t179 -123v-267q-126 -47 -178.5 -121.5t-52.5 -207.5h-373q0 171 108 297z" />
    <glyph glyph-name="uni2195.alt1.case" horiz-adv-x="1048" 
d="M987 170q-132 0 -206.5 -52t-123.5 -179h-266q-47 126 -122 178.5t-208 52.5v373q164 0 289 -101l-8 213l8 213q-124 -100 -289 -100v373q134 0 208.5 52t121.5 179h266q49 -127 123.5 -179t206.5 -52v-373q-164 0 -289 98l9 -211l-9 -213q125 101 289 101v-373z" />
    <glyph glyph-name="uni2196.alt1.case" horiz-adv-x="1140" 
d="M1120 401l-262 -262l-440 465q-15 -167 -133 -285l-265 263q95 95 111 183.5t-41 213.5l189 188q125 -55 214 -39.5t183 109.5l262 -264q-121 -121 -287 -133z" />
    <glyph glyph-name="uni2197.alt1.case" horiz-adv-x="1140" 
d="M856 319q-118 118 -133 285l-440 -465l-263 262l469 439q-165 12 -286 133l262 264q94 -94 183 -109.5t214 39.5l189 -188q-57 -124 -41.5 -213t110.5 -184z" />
    <glyph glyph-name="uni2198.alt1.case" horiz-adv-x="1140" 
d="M862 164q-125 55 -214 39.5t-183 -109.5l-262 264q122 122 286 134l-469 438l263 262l440 -465q15 167 133 285l264 -262q-95 -95 -110.5 -184.5t41.5 -213.5z" />
    <glyph glyph-name="uni2199.alt1.case" horiz-adv-x="1140" 
d="M938 358l-262 -264q-94 94 -183 109.5t-214 -39.5l-189 188q57 125 41 214t-111 184l265 262q118 -118 133 -285l440 465l262 -262l-469 -438q165 -12 287 -134z" />
    </font>
</defs>
</svg>
