<?xml version="1.0" standalone="no"?>
<!DOCTYPE svg PUBLIC "-//W3C//DTD SVG 1.1//EN" "http://www.w3.org/Graphics/SVG/1.1/DTD/svg11.dtd" >
<svg xmlns="http://www.w3.org/2000/svg" xmlns:xlink="http://www.w3.org/1999/xlink" version="1.1">
<metadata>
Created by FontForge 20201107 at Mon May  6 10:41:33 2024
 By 
Copyright 2019 (c) Paris 2024 Olympic and Paralympic Games
</metadata>
<defs>
<font id="Paris2024-Regular" horiz-adv-x="1134" >
  <font-face 
    font-family="Paris2024"
    font-weight="400"
    font-stretch="normal"
    units-per-em="2048"
    panose-1="2 1 5 3 3 2 1 2 1 3"
    ascent="1536"
    descent="-512"
    x-height="969"
    cap-height="1331"
    bbox="-172 -461 2298 1911"
    underline-thickness="143"
    underline-position="-120"
    unicode-range="U+000D-F6C3"
  />
<missing-glyph horiz-adv-x="1187" 
d="M154 0v1331h880v-1331h-880zM317 152h553v1028h-553v-1028z" />
    <glyph glyph-name=".notdef" horiz-adv-x="1187" 
d="M154 0v1331h880v-1331h-880zM317 152h553v1028h-553v-1028z" />
    <glyph glyph-name=".null" horiz-adv-x="0" 
 />
    <glyph glyph-name=".null" horiz-adv-x="0" 
 />
    <glyph glyph-name="nonmarkingreturn" horiz-adv-x="682" 
 />
    <glyph glyph-name="CR" unicode="&#xd;" horiz-adv-x="0" 
 />
    <glyph glyph-name="space" unicode=" " horiz-adv-x="438" 
 />
    <glyph glyph-name="exclam" unicode="!" horiz-adv-x="434" 
d="M135 1331h164l-10 -950h-144zM217 -18q-44 0 -74 29t-30 73t29 73t75 29t75.5 -29t29.5 -73t-29.5 -73t-75.5 -29z" />
    <glyph glyph-name="quotedbl" unicode="&#x22;" horiz-adv-x="657" 
d="M92 1331h160l-14 -403h-129zM406 1331h159l-14 -403h-129z" />
    <glyph glyph-name="numbersign" unicode="#" horiz-adv-x="1290" 
d="M385 332l-72 -332h-163l73 332h-182v143h209l86 393q-77 -24 -176 -24h-78v143h78q119 0 182.5 46.5t89.5 160.5l31 137h160l-29 -137q-24 -120 -80 -197h389l74 334h164l-74 -334h182v-143h-209l-84 -393q76 24 174 24h78v-143h-78q-119 0 -182.5 -47.5t-89.5 -159.5
l-31 -135h-159l28 135q24 120 80 197h-391zM412 475h383l82 379h-381z" />
    <glyph glyph-name="dollar" unicode="$" horiz-adv-x="1003" 
d="M926 352q0 -140 -92.5 -239.5t-241.5 -124.5v-178h-160v178q-157 21 -258 127.5t-100 273.5h164q0 -111 76 -182.5t194 -71.5q111 0 180.5 60t69.5 157q0 52 -22.5 93t-60 68.5t-86.5 50.5t-103 43.5t-108 42.5t-103 53t-86.5 70t-60 97t-22.5 131q0 128 91 224t229 118
v179h160v-181q140 -26 224.5 -126t84.5 -244h-164q0 100 -66.5 162.5t-170.5 62.5q-91 0 -155.5 -57t-64.5 -138q0 -63 36 -109.5t93.5 -76t127 -56t139 -59t127 -74t93.5 -111.5t36 -163z" />
    <glyph glyph-name="percent" unicode="%" horiz-adv-x="1619" 
d="M387 731q-132 0 -223.5 90t-91.5 219t91.5 219.5t223.5 90.5q131 0 223 -90.5t92 -219.5t-92 -219t-223 -90zM360 0l723 1331h177l-723 -1331h-177zM387 1217q-72 0 -124 -52.5t-52 -124.5t52 -124t124 -52t123 52t51 124t-51 124.5t-123 52.5zM1233 -18
q-132 0 -223.5 90t-91.5 219t91.5 219t223.5 90q131 0 223 -90t92 -219t-92 -219t-223 -90zM1233 467q-72 0 -124 -52t-52 -124t52 -124t124 -52t123 52t51 124t-51 124t-123 52z" />
    <glyph glyph-name="ampersand" unicode="&#x26;" horiz-adv-x="1218" 
d="M1077 455q0 -204 -145.5 -338.5t-368.5 -134.5q-211 0 -352 126.5t-141 315.5q0 105 48 195t134 149q-84 100 -84 221q0 154 111.5 257.5t277.5 103.5q165 0 275 -103t110 -258h-151q0 89 -67 150t-167 61t-166.5 -60t-66.5 -151q0 -87 59 -155q77 26 170 26h55v-147h-55
q-139 0 -227 -80.5t-88 -208.5q0 -123 94 -207t231 -84q155 0 250.5 89.5t95.5 232.5v45h-141v147h451v-147h-142v-45z" />
    <glyph glyph-name="quotesingle" unicode="'" horiz-adv-x="344" 
d="M92 1331h160l-14 -403h-129z" />
    <glyph glyph-name="parenleft" unicode="(" horiz-adv-x="681" 
d="M641 -342l-33 12q-243 91 -382.5 313.5t-139.5 518.5t139.5 518t382.5 313l33 13v-148l-27 -12q-173 -79 -270.5 -260.5t-97.5 -423.5t97.5 -423.5t270.5 -260.5l27 -13v-147z" />
    <glyph glyph-name="parenright" unicode=")" horiz-adv-x="681" 
d="M41 -342v147l27 13q173 79 270.5 260.5t97.5 423.5t-97.5 423.5t-270.5 260.5l-27 12v148l33 -13q243 -91 382.5 -313t139.5 -518t-139.5 -518.5t-382.5 -313.5z" />
    <glyph glyph-name="asterisk" unicode="*" horiz-adv-x="790" 
d="M676 698l-121 -90l-162 240l-157 -240l-121 90l176 226l-275 75l45 146l271 -98l-13 284h152l-10 -287l268 101l45 -146l-276 -77z" />
    <glyph glyph-name="plus" unicode="+" horiz-adv-x="983" 
d="M881 586h-324v-324h-131v324h-324v131h324v323h131v-323h324v-131z" />
    <glyph glyph-name="comma" unicode="," horiz-adv-x="393" 
d="M301 80q0 -98 -111 -338h-112q70 176 88 244q-33 9 -53.5 35.5t-20.5 62.5q0 44 29.5 73t75.5 29t75 -29.5t29 -76.5z" />
    <glyph glyph-name="hyphen" unicode="-" horiz-adv-x="819" 
d="M82 575h655v-141h-655v141z" />
    <glyph glyph-name="period" unicode="." horiz-adv-x="393" 
d="M197 -18q-45 0 -75 29t-30 73t29.5 73t75.5 29t75 -29t29 -73t-29 -73t-75 -29z" />
    <glyph glyph-name="slash" unicode="/" horiz-adv-x="626" 
d="M412 1331h163l-360 -1638h-164z" />
    <glyph glyph-name="zero" unicode="0" horiz-adv-x="1552" 
d="M86 666q0 187 92 344.5t250.5 248.5t347.5 91t347.5 -91t250.5 -248.5t92 -344.5t-92 -344.5t-250.5 -248.5t-347.5 -91t-347.5 91t-250.5 248.5t-92 344.5zM254 666q0 -108 41 -206.5t111 -169.5t167 -113t203 -42t203 42t167 113t111 169.5t41 206.5q0 144 -69.5 266
t-190 193t-262.5 71t-262.5 -71t-190 -193t-69.5 -266z" />
    <glyph glyph-name="one" unicode="1" horiz-adv-x="628" 
d="M475 1350v-1350h-164v1100q-113 -49 -280 -68v154q272 40 444 164z" />
    <glyph glyph-name="two" unicode="2" horiz-adv-x="1026" 
d="M975 154v-154h-914l572 700q73 91 100 147.5t27 121.5q0 94 -73 160.5t-177 66.5q-106 0 -180 -66t-74 -161q0 -122 96 -211l-96 -119q-164 130 -164 330q0 160 121.5 270.5t296.5 110.5q177 0 297.5 -110t120.5 -271q0 -87 -34.5 -163.5t-123.5 -184.5l-381 -467h586z
" />
    <glyph glyph-name="three" unicode="3" horiz-adv-x="1110" 
d="M1038 428q0 -195 -137.5 -320.5t-349.5 -125.5q-215 0 -352.5 132.5t-137.5 334.5h156q0 -137 96 -228.5t238 -91.5q145 0 238.5 86t93.5 213t-97.5 215t-238.5 88h-45v143h45q93 0 172 -24q51 70 51 145q0 92 -65.5 149.5t-167.5 57.5q-94 0 -162 -62t-68 -151h-155
q0 151 112 256t273 105q169 0 279 -99t110 -250q0 -118 -72 -215q87 -61 135.5 -153.5t48.5 -204.5z" />
    <glyph glyph-name="four" unicode="4" horiz-adv-x="1067" 
d="M934 969v-969h-160v164q0 65 -22.5 112.5t-60.5 77t-87.5 52t-104 42t-108.5 41.5t-103.5 57t-87.5 81.5t-60.5 122t-22.5 172.5v409h164v-401q0 -81 24 -140t62 -91.5t91.5 -59t104.5 -42t110.5 -41t100.5 -56.5v469h160z" />
    <glyph glyph-name="five" unicode="5" horiz-adv-x="1048" 
d="M975 418q0 -189 -129.5 -312.5t-327.5 -123.5q-196 0 -326.5 125.5t-130.5 314.5h168q0 -122 83 -204.5t206 -82.5q124 0 206.5 80.5t82.5 202.5q0 247 -299 291l-373 55l111 567h596v-153h-475l-56 -283l215 -33q223 -34 336 -146t113 -298z" />
    <glyph glyph-name="six" unicode="6" horiz-adv-x="1144" 
d="M1059 449q0 -196 -142 -331.5t-346 -135.5q-202 0 -343.5 134t-141.5 326q0 78 21.5 153t57 137t78.5 122t88.5 118t84.5 113.5t68 119t38 126.5h168q-3 -28 -10 -56t-14 -50.5t-21 -51t-22 -45.5t-27 -46.5t-27 -42t-31.5 -43t-30 -39t-33 -41t-30.5 -37.5q67 28 142 28
q198 0 335.5 -132.5t137.5 -325.5zM571 133q134 0 228 90.5t94 220.5t-94 221t-228 91q-132 0 -225.5 -91.5t-93.5 -220.5t93.5 -220t225.5 -91z" />
    <glyph glyph-name="seven" unicode="7" horiz-adv-x="940" 
d="M899 1331q-102 -204 -164 -349t-107.5 -301.5t-68 -313.5t-33.5 -367h-166q17 353 85.5 621.5t213.5 556.5h-598v153h838z" />
    <glyph glyph-name="eight" unicode="8" horiz-adv-x="1097" 
d="M1026 408q0 -180 -137.5 -303t-339.5 -123t-339.5 123t-137.5 303q0 129 70 228.5t190 151.5q-61 43 -96 108t-35 138q0 135 100 225.5t248 90.5t248 -90.5t100 -225.5q0 -73 -35 -138t-96 -108q120 -50 190 -150.5t70 -229.5zM549 850q83 0 139.5 51t56.5 127
q0 77 -55.5 127.5t-140.5 50.5t-141 -50.5t-56 -127.5q0 -76 56.5 -127t140.5 -51zM549 135q130 0 219.5 82.5t89.5 202.5t-88.5 199t-220.5 79q-130 0 -219.5 -80.5t-89.5 -197.5q0 -121 89 -203t220 -82z" />
    <glyph glyph-name="nine" unicode="9" horiz-adv-x="1144" 
d="M1059 889q0 -78 -21.5 -153t-57 -137t-78.5 -122t-88.5 -118t-84.5 -113.5t-68 -119t-38 -126.5h-168q8 64 29.5 124t58.5 117.5t66.5 96.5t77.5 97l15 18q-72 -29 -143 -29q-198 0 -335.5 133t-137.5 326q0 196 141.5 331.5t345.5 135.5q202 0 344 -134.5t142 -326.5z
M573 1198q-134 0 -227.5 -90.5t-93.5 -220.5t93.5 -221t227.5 -91q132 0 226 91.5t94 220.5t-94 220t-226 91z" />
    <glyph glyph-name="colon" unicode=":" horiz-adv-x="393" 
d="M197 -18q-45 0 -75 29t-30 73t29.5 73t75.5 29t75 -29t29 -73t-29 -73t-75 -29zM197 700q-44 0 -74.5 29.5t-30.5 73.5t29.5 73t75.5 29t75 -29t29 -73q0 -45 -29.5 -74t-74.5 -29z" />
    <glyph glyph-name="semicolon" unicode=";" horiz-adv-x="393" 
d="M301 80q0 -98 -111 -338h-112q70 176 88 244q-33 9 -53.5 35.5t-20.5 62.5q0 44 29.5 73t75.5 29t75 -29.5t29 -76.5zM197 700q-44 0 -74.5 29.5t-30.5 73.5t29.5 73t75.5 29t75 -29t29 -73q0 -45 -29.5 -74t-74.5 -29z" />
    <glyph glyph-name="less" unicode="&#x3c;" horiz-adv-x="983" 
d="M840 408v-156l-717 332v174l717 332v-154l-592 -264z" />
    <glyph glyph-name="equal" unicode="=" horiz-adv-x="983" 
d="M102 942h779v-129h-779v129zM102 489h779v-131h-779v131z" />
    <glyph glyph-name="greater" unicode="&#x3e;" horiz-adv-x="983" 
d="M860 586l-717 -332v154l592 264l-592 264v156l717 -332v-174z" />
    <glyph glyph-name="question" unicode="?" horiz-adv-x="1046" 
d="M975 928q0 -160 -100 -269.5t-267 -134.5l-4 -143h-143l-2 270h59q125 0 211 80t86 197t-86 196.5t-211 79.5q-129 0 -213 -83t-84 -210h-160q0 193 128 316t329 123q197 0 327 -119.5t130 -302.5zM532 -18q-44 0 -74 29t-30 73t29 73t75 29t75.5 -29t29.5 -73t-29.5 -73
t-75.5 -29z" />
    <glyph glyph-name="at" unicode="@" horiz-adv-x="1619" 
d="M1036 -254v-141h-202q-159 0 -300 55.5t-242 150.5t-159.5 228t-58.5 283q0 155 58.5 293t159.5 236.5t242 156t300 57.5q152 0 286.5 -52t230.5 -141.5t152 -214.5t56 -266q0 -187 -86.5 -298t-231.5 -111q-137 0 -217 100q-100 -100 -242 -100q-139 0 -230 96t-91 244
q0 158 105.5 257t273.5 99h278v-414q0 -66 34.5 -102.5t96.5 -36.5q77 0 117.5 68.5t40.5 197.5q0 148 -74.5 270.5t-206.5 192.5t-292 70q-169 0 -308.5 -79t-220 -217.5t-80.5 -305.5q0 -160 80.5 -292t220.5 -208t308 -76h202zM797 125q94 0 176 68q-8 31 -8 71v271h-125
q-98 0 -160 -58.5t-62 -152.5q0 -88 50.5 -143.5t128.5 -55.5z" />
    <glyph glyph-name="A" unicode="A" 
d="M360 492h-61v-492h-164v913q0 194 120 315.5t312 121.5t312 -121.5t120 -315.5v-913h-163v43q0 206 -124.5 327.5t-351.5 121.5zM319 645q179 0 310.5 -48.5t206.5 -137.5v454q0 121 -76 199t-193 78q-118 0 -193 -77.5t-75 -199.5v-268h20z" />
    <glyph glyph-name="B" unicode="B" horiz-adv-x="1132" 
d="M1051 403q0 -175 -131 -289t-332 -114h-434v1331h358q168 0 273.5 -88t105.5 -229q0 -171 -133 -262q137 -40 215 -132.5t78 -216.5zM317 1178v-150q0 -101 57.5 -160t157.5 -59q84 0 141.5 52.5t57.5 129.5q0 85 -59.5 136t-159.5 51h-195zM317 154h271q129 2 212 71.5
t83 177.5q0 109 -85.5 170.5t-265.5 81.5q-143 15 -215 84v-585z" />
    <glyph glyph-name="C" unicode="C" horiz-adv-x="1529" 
d="M1288 557h170q-25 -162 -121 -293.5t-243.5 -206.5t-317.5 -75q-189 0 -347.5 91t-250.5 248.5t-92 344.5t92 344.5t250.5 248.5t347.5 91q244 0 431.5 -149.5t240.5 -377.5h-172q-50 164 -187.5 268.5t-312.5 104.5q-142 0 -262.5 -71t-190 -193t-69.5 -266
q0 -108 41 -206.5t111 -169.5t167 -113t203 -42q187 0 331 120t181 302z" />
    <glyph glyph-name="D" unicode="D" horiz-adv-x="1128" 
d="M154 0v1331h163q211 0 376.5 -85t257 -236.5t91.5 -343.5t-91.5 -343.5t-257 -237t-376.5 -85.5h-163zM352 1178h-35v-1024h35q226 0 374 146.5t148 365.5t-148.5 365.5t-373.5 146.5z" />
    <glyph glyph-name="E" unicode="E" horiz-adv-x="942" 
d="M856 154v-154h-702v1331h702v-153h-539v-617q154 193 447 193h31v-154h-31q-204 0 -325.5 -114.5t-121.5 -307.5v-24h539z" />
    <glyph glyph-name="F" unicode="F" horiz-adv-x="919" 
d="M317 199v-199h-163v1331h694v-153h-531v-596q153 192 447 192h31v-153h-31q-204 0 -325.5 -114.5t-121.5 -307.5z" />
    <glyph glyph-name="G" unicode="G" horiz-adv-x="1568" 
d="M1300 0v266q-87 -135 -223.5 -209.5t-300.5 -74.5q-189 0 -347.5 91t-250.5 248.5t-92 344.5t92 344.5t250.5 248.5t347.5 91q244 0 431 -147t241 -380h-174q-51 167 -188.5 270t-309.5 103q-142 0 -262.5 -71t-190 -193t-69.5 -266q0 -108 41 -206.5t111 -169.5
t167 -113t203 -42q188 0 331 118.5t181 303.5h168v-557h-156z" />
    <glyph glyph-name="H" unicode="H" horiz-adv-x="1187" 
d="M317 63v-63h-163v1331h163v-809q84 122 226.5 191t326.5 75v543h164v-1331h-164v635h-10q-246 0 -394.5 -157t-148.5 -415z" />
    <glyph glyph-name="I" unicode="I" horiz-adv-x="471" 
d="M317 0h-163v1331h163v-1331z" />
    <glyph glyph-name="J" unicode="J" horiz-adv-x="661" 
d="M526 383q0 -181 -106 -282t-297 -101h-49v154h49q115 0 177 58t62 171v795h-288v153h452v-948z" />
    <glyph glyph-name="K" unicode="K" horiz-adv-x="1136" 
d="M317 158v-158h-163v1331h163v-823l537 823h184l-475 -729q20 4 43 4q203 0 328 -121t125 -317v-168h-164v158q0 129 -81 212t-208 83q-126 0 -207.5 -83t-81.5 -212z" />
    <glyph glyph-name="L" unicode="L" horiz-adv-x="876" 
d="M809 0h-655v1331h163v-1177h492v-154z" />
    <glyph glyph-name="M" unicode="M" horiz-adv-x="1593" 
d="M324 1167h-7v-1167h-163v1331h88q189 0 335 -78t220 -215q74 137 220 215t335 78h88v-1331h-164v1167h-6q-178 0 -284.5 -116t-106.5 -310v-331h-164v331q0 194 -106.5 310t-284.5 116z" />
    <glyph glyph-name="N" unicode="N" horiz-adv-x="1187" 
d="M870 0v250q-343 315 -553 702v-952h-163v1331h153q114 -267 250 -477t313 -389v866h164v-1331h-164z" />
    <glyph glyph-name="O" unicode="O" horiz-adv-x="1552" 
d="M86 666q0 187 92 344.5t250.5 248.5t347.5 91t347.5 -91t250.5 -248.5t92 -344.5t-92 -344.5t-250.5 -248.5t-347.5 -91t-347.5 91t-250.5 248.5t-92 344.5zM254 666q0 -108 41 -206.5t111 -169.5t167 -113t203 -42t203 42t167 113t111 169.5t41 206.5q0 144 -69.5 266
t-190 193t-262.5 71t-262.5 -71t-190 -193t-69.5 -266z" />
    <glyph glyph-name="P" unicode="P" horiz-adv-x="1083" 
d="M154 0v1331h389q215 0 347 -112t132 -295q0 -87 -24 -156.5t-65 -115.5t-94 -82.5t-111 -64.5t-116.5 -54.5t-111.5 -58.5t-94 -71.5t-65 -98.5t-24 -134v-88h-163zM317 440q51 49 129.5 92t145 73.5t128.5 69t98 98t36 142.5q0 120 -83.5 191.5t-221.5 71.5h-232v-738z
" />
    <glyph glyph-name="Q" unicode="Q" horiz-adv-x="1576" 
d="M1393 35q0 123 -66 215q-100 -128 -243.5 -198t-307.5 -70q-189 0 -347.5 91t-250.5 248.5t-92 344.5t92 344.5t250.5 248.5t347.5 91t347.5 -91t250.5 -248.5t92 -344.5q0 -146 -55 -271q145 -136 145 -360v-35h-163v35zM254 666q0 -176 103.5 -316t265.5 -192
q37 163 160.5 262.5t295.5 99.5q102 0 189 -35q30 85 30 181q0 144 -69.5 266t-190 193t-262.5 71t-262.5 -71t-190 -193t-69.5 -266zM1079 373q-112 0 -193.5 -65t-107.5 -173q126 0 236 58t182 157q-57 23 -117 23z" />
    <glyph glyph-name="R" unicode="R" horiz-adv-x="1150" 
d="M154 0v1331h389q215 0 347 -112t132 -295q0 -64 -14.5 -119t-38 -94.5t-60 -75t-72.5 -60t-83 -49.5q143 -39 226 -150t83 -270v-106h-164v96q0 134 -82 219.5t-209 85.5t-209 -85.5t-82 -219.5v-96h-163zM317 1178v-732q51 47 129.5 89.5t145 73t128.5 69t98 97.5
t36 140q0 120 -83.5 191.5t-221.5 71.5h-232z" />
    <glyph glyph-name="S" unicode="S" horiz-adv-x="1003" 
d="M508 -18q-185 0 -310 109.5t-124 297.5h164q0 -111 76 -182.5t194 -71.5q111 0 180.5 60t69.5 157q0 52 -22.5 93t-60 68.5t-86.5 50.5t-103 43.5t-108 42.5t-103 53t-86.5 70t-60 97t-22.5 131q0 145 113.5 247t274.5 102q177 0 289 -106t112 -273h-164
q0 100 -66.5 162.5t-170.5 62.5q-91 0 -155.5 -57t-64.5 -138q0 -63 36 -109.5t93.5 -76t127 -56t139 -59t127 -74t93.5 -111.5t36 -163q0 -161 -118 -265.5t-300 -104.5z" />
    <glyph glyph-name="T" unicode="T" horiz-adv-x="946" 
d="M895 1169q-198 23 -340 27v-1196h-164v1196q-142 -4 -340 -27v154q238 27 422 27q183 0 422 -27v-154z" />
    <glyph glyph-name="U" unicode="U" horiz-adv-x="1132" 
d="M567 141q116 0 191.5 74t75.5 188v928h163v-928q0 -189 -119 -305t-311 -116q-194 0 -313 116t-119 305v928h164v-928q0 -114 75.5 -188t192.5 -74z" />
    <glyph glyph-name="V" unicode="V" horiz-adv-x="1138" 
d="M971 614q-38 -325 -205 -469.5t-502 -144.5h-110v1331h163v-1167q240 5 347.5 104.5t136.5 345.5l86 717h170z" />
    <glyph glyph-name="W" unicode="W" horiz-adv-x="1701" 
d="M774 0v207q-170 -207 -502 -207h-118v1331h163v-1169q220 6 338.5 131.5t118.5 351.5v686h164v-1169q212 7 308 108.5t124 343.5l82 717h168l-82 -717q-19 -169 -66.5 -285.5t-130 -190t-197 -106t-274.5 -32.5h-96z" />
    <glyph glyph-name="X" unicode="X" horiz-adv-x="1013" 
d="M801 0l-295 629l-299 -629h-189l338 700l-311 631h182l281 -565l285 565h176l-316 -631l342 -700h-194z" />
    <glyph glyph-name="Y" unicode="Y" horiz-adv-x="1038" 
d="M997 1331l-358 -1331h-174l106 387q-238 17 -368.5 160.5t-130.5 390.5q0 154 63 393h162q-37 -138 -51.5 -223.5t-14.5 -169.5q0 -188 99 -290.5t284 -108.5l220 792h163z" />
    <glyph glyph-name="Z" unicode="Z" horiz-adv-x="954" 
d="M893 154v-154h-821l571 1178h-571v153h821l-569 -1177h569z" />
    <glyph glyph-name="bracketleft" unicode="[" horiz-adv-x="657" 
d="M154 -344v1700h462v-135h-301v-1430h301v-135h-462z" />
    <glyph glyph-name="backslash" unicode="\" horiz-adv-x="626" 
d="M575 -307h-163l-361 1638h164z" />
    <glyph glyph-name="bracketright" unicode="]" horiz-adv-x="657" 
d="M504 -344h-463v135h301v1430h-301v135h463v-1700z" />
    <glyph glyph-name="asciicircum" unicode="^" horiz-adv-x="1075" 
d="M805 328l-268 571l-271 -571h-157l346 716h166l346 -716h-162z" />
    <glyph glyph-name="underscore" unicode="_" horiz-adv-x="1024" 
d="M82 -121h860v-143h-860v143z" />
    <glyph glyph-name="grave" unicode="`" horiz-adv-x="1064" 
d="M600 1098h-143l-187 323h176z" />
    <glyph glyph-name="a" unicode="a" horiz-adv-x="1013" 
d="M741 0v72q-104 -90 -276 -90q-170 0 -276.5 87t-106.5 226q0 138 107 225.5t276 87.5q167 0 266 -80v84q0 108 -59.5 170t-163.5 62q-80 0 -134 -37t-77 -107h-164q29 131 130 209t243 78q178 0 281.5 -103t103.5 -280v-604h-150zM485 117q113 0 179.5 49.5t66.5 132.5
q0 81 -66 127.5t-180 46.5t-178.5 -47.5t-64.5 -130.5t64.5 -130.5t178.5 -47.5z" />
    <glyph glyph-name="b" unicode="b" horiz-adv-x="1103" 
d="M1022 510q0 -225 -154.5 -367.5t-396.5 -142.5h-344v1331h160v-438q119 94 280 94q193 0 324 -134t131 -343zM545 842q-147 0 -258 -117v-582h184q173 0 282 102t109 265q0 155 -90 243.5t-227 88.5z" />
    <glyph glyph-name="c" unicode="c" horiz-adv-x="1155" 
d="M926 385h157q-38 -181 -173.5 -292t-319.5 -111q-214 0 -361 144.5t-147 356.5t147 358t361 146q180 0 314.5 -107t174.5 -280h-159q-40 110 -128.5 176t-201.5 66q-145 0 -246.5 -103.5t-101.5 -255.5q0 -151 101 -253.5t247 -102.5q120 0 212 71t124 187z" />
    <glyph glyph-name="d" unicode="d" horiz-adv-x="1103" 
d="M977 1331v-1331h-344q-245 0 -398 140.5t-153 365.5q0 209 129.5 345t329.5 136q155 0 276 -82v426h160zM625 143h192v600q-55 45 -123.5 72t-132.5 27q-141 0 -230 -95.5t-89 -244.5q0 -159 106.5 -259t276.5 -100z" />
    <glyph glyph-name="e" unicode="e" horiz-adv-x="1142" 
d="M1061 301q-57 -149 -185.5 -234t-295.5 -85q-136 0 -250.5 66t-181 181.5t-66.5 253.5q0 135 66.5 251t181.5 184.5t250 68.5q207 0 346 -134t139 -339v-55h-823q4 -143 104 -238.5t234 -95.5q218 0 323 176h158zM580 846q-115 0 -207.5 -72t-120.5 -184h651
q-19 115 -109 185.5t-214 70.5z" />
    <glyph glyph-name="f" unicode="f" horiz-adv-x="673" 
d="M285 449v-449h-158v1014q0 150 87 233.5t243 83.5h166v-143h-166q-172 0 -172 -174v-240q95 111 280 111h35v-146h-35q-280 0 -280 -290z" />
    <glyph glyph-name="g" unicode="g" horiz-adv-x="1028" 
d="M965 -4q0 -135 -96.5 -219t-264.5 -84h-500v149h500q91 0 144 46t53 124q0 77 -53.5 122.5t-143.5 45.5h-117q-186 0 -309 115.5t-123 288.5q0 172 125.5 287.5t311.5 115.5q76 0 143 -18h369v-133l-201 8q121 -95 121 -260q0 -96 -43.5 -178.5t-120.5 -139.5
q97 -33 151 -103t54 -167zM770 584q0 117 -79.5 193.5t-198.5 76.5t-199 -77t-80 -193q0 -115 80 -193t199 -78q117 0 197.5 79t80.5 192z" />
    <glyph glyph-name="h" unicode="h" horiz-adv-x="1040" 
d="M287 592v-592h-160v1331h160v-448q101 104 266 104q166 0 265.5 -105.5t99.5 -283.5v-598h-160v592q0 114 -64.5 183t-171.5 69t-171 -69t-64 -183z" />
    <glyph glyph-name="i" unicode="i" horiz-adv-x="413" 
d="M207 1130q-44 0 -74.5 29.5t-30.5 73.5t29.5 73t75.5 29t75 -29t29 -73q0 -45 -29.5 -74t-74.5 -29zM127 969h160v-969h-160v969z" />
    <glyph glyph-name="j" unicode="j" horiz-adv-x="413" 
d="M207 1130q-46 0 -75.5 29.5t-29.5 73.5t29.5 73t75.5 29t75 -29t29 -73q0 -46 -29 -74.5t-75 -28.5zM127 969h160v-1000q0 -136 -75 -206t-220 -70h-27v143h27q70 0 102.5 32t32.5 101v1000z" />
    <glyph glyph-name="k" unicode="k" horiz-adv-x="1032" 
d="M287 145v-145h-160v1331h160v-848l432 486h190l-385 -430h15q192 0 301.5 -105.5t109.5 -290.5v-143h-159v143q0 120 -67.5 188t-184.5 68t-184.5 -68t-67.5 -186z" />
    <glyph glyph-name="l" unicode="l" horiz-adv-x="489" 
d="M438 0h-30q-295 0 -295 287v1044h159v-1040q0 -76 34 -112t106 -36h26v-143z" />
    <glyph glyph-name="m" unicode="m" horiz-adv-x="1589" 
d="M287 592v-592h-160v969h149v-90q94 108 256 108q93 0 165.5 -39t115.5 -110q95 149 289 149q166 0 265 -105.5t99 -283.5v-598h-159v592q0 115 -58.5 183.5t-156.5 68.5t-156.5 -68.5t-58.5 -183.5v-592h-160v592q0 115 -58.5 183.5t-156.5 68.5t-156.5 -68.5
t-58.5 -183.5z" />
    <glyph glyph-name="n" unicode="n" horiz-adv-x="1040" 
d="M287 592v-592h-160v969h149v-97q103 115 277 115q166 0 265.5 -105.5t99.5 -283.5v-598h-160v592q0 114 -64.5 183t-171.5 69t-171 -69t-64 -183z" />
    <glyph glyph-name="o" unicode="o" horiz-adv-x="1187" 
d="M594 -18q-217 0 -364.5 144.5t-147.5 356.5q0 139 67 255t185 182.5t260 66.5t260 -66.5t185 -182.5t67 -255q0 -211 -148 -356t-364 -145zM594 842q-146 0 -249 -105.5t-103 -253.5t103 -252t249 -104t249 104t103 252t-103 253.5t-249 105.5z" />
    <glyph glyph-name="p" unicode="p" horiz-adv-x="1103" 
d="M567 -18q-161 0 -280 94v-383h-160v1276h344q242 0 396.5 -142.5t154.5 -367.5q0 -209 -131 -343t-324 -134zM471 825h-184v-581q111 -117 258 -117q137 0 227 88.5t90 243.5q0 163 -109 264.5t-282 101.5z" />
    <glyph glyph-name="q" unicode="q" horiz-adv-x="1103" 
d="M977 969v-1276h-160v383q-119 -94 -280 -94q-193 0 -324 134t-131 343q0 225 154.5 367.5t396.5 142.5h344zM559 127q147 0 258 117v581h-184q-173 0 -282 -101.5t-109 -264.5q0 -155 90 -243.5t227 -88.5z" />
    <glyph glyph-name="r" unicode="r" horiz-adv-x="665" 
d="M287 561v-561h-160v969h147v-113q101 131 301 131h25v-153h-47q-266 0 -266 -273z" />
    <glyph glyph-name="s" unicode="s" horiz-adv-x="845" 
d="M96 0v143h355q79 0 122 34.5t43 96.5q0 44 -29.5 74t-76.5 46.5t-104 31t-114 34t-104 48t-76.5 80.5t-29.5 125q0 112 81.5 184t215.5 72h348v-144h-348q-69 0 -104 -28.5t-35 -79.5q0 -37 23 -64t60.5 -42t85.5 -30t98 -27t98 -34.5t85.5 -51.5t60.5 -79t23 -115
q0 -123 -85.5 -198.5t-231.5 -75.5h-361z" />
    <glyph glyph-name="t" unicode="t" horiz-adv-x="665" 
d="M588 143v-143h-144q-164 0 -247.5 82.5t-83.5 243.5v872l157 41v-270h314v-144h-314v-499q0 -95 44 -139t135 -44h139z" />
    <glyph glyph-name="u" unicode="u" horiz-adv-x="1015" 
d="M123 969h160v-596q0 -114 60.5 -180t164.5 -66t164.5 66t60.5 180v596h160v-586q0 -187 -104.5 -294t-280.5 -107q-178 0 -281.5 106.5t-103.5 294.5v586z" />
    <glyph glyph-name="v" unicode="v" horiz-adv-x="991" 
d="M127 0v969h160v-815h75q160 0 238 70t98 233l62 512h160l-62 -512q-29 -239 -145.5 -348t-343.5 -109h-242z" />
    <glyph glyph-name="w" unicode="w" horiz-adv-x="1527" 
d="M127 0v969h160v-815h67q158 0 250 86q92 89 92 258v471h158v-815h45q161 0 238.5 69.5t97.5 233.5l61 512h160l-61 -512q-29 -239 -146 -348t-344 -109h-194v143q-36 -53 -109 -92q-102 -51 -289 -51h-186z" />
    <glyph glyph-name="x" unicode="x" horiz-adv-x="919" 
d="M709 0l-252 446l-248 -446h-180l293 512l-269 457h172l236 -398l233 398h174l-274 -459l297 -510h-182z" />
    <glyph glyph-name="y" unicode="y" horiz-adv-x="1011" 
d="M961 969l-353 -1276h-170l84 301q-197 25 -313.5 161.5t-116.5 358.5q0 208 64 455h161q-65 -277 -65 -455q0 -165 83.5 -263t227.5 -110l234 828h164z" />
    <glyph glyph-name="z" unicode="z" horiz-adv-x="843" 
d="M772 143v-143h-711l465 825h-463v144h715l-463 -826h457z" />
    <glyph glyph-name="braceleft" unicode="{" horiz-adv-x="774" 
d="M733 -209v-135h-119q-167 0 -255.5 87t-88.5 251v309q0 64 -32.5 98.5t-94.5 34.5h-92v142h92q62 0 94.5 34.5t32.5 98.5v309q0 164 88.5 250t255.5 86h119v-135h-96q-205 0 -205 -201v-287q0 -172 -139 -227q139 -52 139 -225v-287q0 -203 205 -203h96z" />
    <glyph glyph-name="bar" unicode="|" horiz-adv-x="471" 
d="M154 1331h163v-1638h-163v1638z" />
    <glyph glyph-name="braceright" unicode="}" horiz-adv-x="774" 
d="M504 -6q0 -164 -88.5 -251t-255.5 -87h-119v135h96q205 0 205 203v287q0 172 139 227q-139 52 -139 225v287q0 201 -205 201h-96v135h119q167 0 255.5 -86t88.5 -250v-309q0 -64 32.5 -98.5t94.5 -34.5h92v-142h-92q-62 0 -94.5 -34.5t-32.5 -98.5v-309z" />
    <glyph glyph-name="asciitilde" unicode="~" horiz-adv-x="983" 
d="M707 676q94 0 174 41v-131q-87 -41 -174 -41q-83 0 -225 41t-206 41q-90 0 -174 -41v131q84 41 174 41q81 0 222.5 -41t208.5 -41z" />
    <glyph glyph-name="uni00A0" unicode="&#xa0;" horiz-adv-x="438" 
 />
    <glyph glyph-name="exclamdown" unicode="&#xa1;" horiz-adv-x="434" 
d="M217 987q46 0 75.5 -29t29.5 -73t-29.5 -73.5t-75.5 -29.5q-45 0 -74.5 29t-29.5 74q0 44 30 73t74 29zM299 -362h-164l10 950h144z" />
    <glyph glyph-name="cent" unicode="&#xa2;" horiz-adv-x="1157" 
d="M1083 561q-34 -159 -145.5 -266.5t-267.5 -130.5v-164h-160v164q-186 28 -307 166t-121 329t121 330.5t307 167.5v174h160v-174q153 -23 263.5 -125.5t145.5 -255.5h-159q-40 110 -128.5 176t-201.5 66q-145 0 -246.5 -103.5t-101.5 -255.5q0 -151 101 -253.5t247 -102.5
q120 0 212 71t124 187h157z" />
    <glyph glyph-name="sterling" unicode="&#xa3;" horiz-adv-x="987" 
d="M915 154v-154h-864v154h10q84 0 123 34.5t39 110.5v205h-174v147h174v297q0 183 102 283t277 100h279v-153h-279q-100 0 -157.5 -57t-57.5 -173v-297h449v-147h-449v-182q0 -112 -68 -168h596z" />
    <glyph glyph-name="currency" unicode="&#xa4;" horiz-adv-x="1247" 
d="M1190 213l-119 -119l-188 189q-115 -76 -260 -76q-141 0 -261 76l-188 -189l-117 119l185 184q-88 118 -88 267q0 148 88 266l-185 184l117 119l186 -189q123 76 263 76q144 0 262 -76l186 189l119 -119l-184 -184q88 -118 88 -266q0 -149 -88 -267zM623 350
q131 0 222 92t91 222t-91 221.5t-222 91.5q-129 0 -220.5 -92t-91.5 -221t91.5 -221.5t220.5 -92.5z" />
    <glyph glyph-name="yen" unicode="&#xa5;" horiz-adv-x="1032" 
d="M907 367h-311v-367h-164v367h-309v139h309v168h-309v139h237l-309 518h182l285 -493l285 493h178l-313 -518h239v-139h-311v-168h311v-139z" />
    <glyph glyph-name="brokenbar" unicode="&#xa6;" horiz-adv-x="471" 
d="M154 1331h163v-764h-163v764zM154 457h163v-764h-163v764z" />
    <glyph glyph-name="section" unicode="&#xa7;" horiz-adv-x="989" 
d="M844 -57q0 -113 -83 -181.5t-222 -68.5h-404v153h404q66 0 103.5 26t37.5 71q0 33 -26 59.5t-69 44.5t-97.5 39t-111.5 41t-111.5 53.5t-97.5 74.5t-69 104.5t-26 142.5q0 112 72.5 210t189.5 140q-96 46 -136 100.5t-40 128.5q0 111 84 180.5t221 69.5h346v-153h-346
q-66 0 -103.5 -26.5t-37.5 -72.5q0 -40 33 -71t85.5 -53t116 -44.5t127 -54t116 -73.5t85.5 -111t33 -158q0 -111 -68.5 -206.5t-181.5 -139.5q94 -45 135 -99t41 -126zM502 250q104 0 180 78.5t76 185.5q0 110 -80 181t-191 71q-104 0 -180 -78.5t-76 -185.5
q0 -110 80 -181t191 -71z" />
    <glyph glyph-name="dieresis" unicode="&#xa8;" horiz-adv-x="1064" 
d="M350 1145q-44 0 -74 29t-30 73q0 45 29 74t75 29t75.5 -29.5t29.5 -73.5t-29.5 -73t-75.5 -29zM715 1145q-45 0 -75 29t-30 73t29.5 73.5t75.5 29.5q45 0 74.5 -29t29.5 -74q0 -44 -29 -73t-75 -29z" />
    <glyph glyph-name="copyright" unicode="&#xa9;" horiz-adv-x="1574" 
d="M786 -18q-193 0 -353.5 90.5t-253.5 248t-93 345.5t93 345t254 248t353 91t354 -91t255.5 -248.5t93.5 -344.5q0 -188 -93.5 -345.5t-255 -248t-354.5 -90.5zM786 123q150 0 277 72.5t200.5 197.5t73.5 273q0 111 -43.5 211.5t-117.5 173t-176 115t-214 42.5
q-149 0 -275 -72t-199.5 -197t-73.5 -273t73.5 -273t199.5 -197.5t275 -72.5zM793 328q-145 0 -246 100t-101 244q0 145 101 245.5t246 100.5q122 0 215 -71t125 -191h-148q-25 62 -75.5 96.5t-116.5 34.5q-85 0 -147 -63t-62 -152q0 -87 62 -150t147 -63q68 0 121 37
t75 100h146q-28 -122 -121.5 -195t-220.5 -73z" />
    <glyph glyph-name="ordfeminine" unicode="&#xaa;" horiz-adv-x="804" 
d="M573 549v57q-77 -71 -215 -71q-139 0 -223 68t-84 177t84.5 179.5t222.5 70.5q118 0 195 -55v63q0 80 -44.5 126t-123.5 46q-62 0 -104 -28.5t-60 -79.5h-147q26 108 110.5 173.5t200.5 65.5q146 0 231.5 -83t85.5 -228v-481h-129zM375 653q80 0 129 35t49 96
q0 59 -48.5 93t-129.5 34t-128.5 -34.5t-47.5 -96.5q0 -58 48.5 -92.5t127.5 -34.5z" />
    <glyph glyph-name="guillemotleft" unicode="&#xab;" horiz-adv-x="985" 
d="M918 903l-250 -397l256 -406h-179l-256 402l256 401h173zM479 903l-250 -397l256 -406h-178l-256 402l256 401h172z" />
    <glyph glyph-name="logicalnot" unicode="&#xac;" horiz-adv-x="983" 
d="M102 717h779v-455h-133v324h-646v131z" />
    <glyph glyph-name="uni00AD" unicode="&#xad;" horiz-adv-x="0" 
 />
    <glyph glyph-name="registered" unicode="&#xae;" horiz-adv-x="999" 
d="M494 475q-188 0 -315.5 124.5t-127.5 311.5q0 188 127.5 313.5t315.5 125.5q192 0 323 -125.5t131 -313.5q0 -186 -131 -311t-323 -125zM494 1247q-146 0 -238 -94t-92 -242q0 -147 92 -240t238 -93q151 0 246.5 93.5t95.5 239.5q0 148 -95.5 242t-246.5 94zM446 741v-39
h-96v439h176q74 0 116 -36.5t42 -92.5q0 -48 -23 -78.5t-65 -56.5q46 -17 72 -55t26 -89v-31h-96v33q0 35 -21 55.5t-55 20.5q-33 0 -54.5 -19.5t-21.5 -50.5zM526 1053h-80v-181q18 14 59.5 36.5t62 43.5t20.5 52q0 23 -16.5 36t-45.5 13z" />
    <glyph glyph-name="macron" unicode="&#xaf;" horiz-adv-x="1064" 
d="M276 1309h512v-144h-512v144z" />
    <glyph glyph-name="degree" unicode="&#xb0;" horiz-adv-x="692" 
d="M346 813q-115 0 -194.5 77.5t-79.5 190.5t79.5 191t194.5 78t195 -78t80 -191t-80 -190.5t-195 -77.5zM346 1217q-55 0 -95 -40t-40 -96q0 -55 39.5 -95t95.5 -40t95.5 40t39.5 95q0 56 -40 96t-95 40z" />
    <glyph glyph-name="plusminus" unicode="&#xb1;" horiz-adv-x="983" 
d="M881 655h-324v-323h-131v323h-324v131h324v324h131v-324h324v-131zM102 131h779v-131h-779v131z" />
    <glyph glyph-name="twosuperior" unicode="&#xb2;" horiz-adv-x="665" 
d="M604 692v-143h-563l324 381q48 55 66 91t18 71q0 47 -35 80.5t-84 33.5t-84 -33.5t-35 -80.5q0 -60 49 -103l-88 -102q-106 87 -106 209q0 103 76 174t188 71t188 -71t76 -174q0 -60 -22 -110.5t-78 -115.5l-152 -178h262z" />
    <glyph glyph-name="threesuperior" unicode="&#xb3;" horiz-adv-x="677" 
d="M637 805q0 -115 -85 -190.5t-210 -75.5q-130 0 -215.5 82.5t-85.5 212.5h149q0 -69 42.5 -112.5t109.5 -43.5q64 0 104.5 36t40.5 91q0 47 -38.5 78.5t-102.5 31.5h-51v144h51q22 0 62 -4q20 33 20 65q0 34 -27 58t-67 24q-41 0 -68.5 -26.5t-27.5 -65.5h-150
q0 101 68.5 166t177.5 65q105 0 174.5 -60.5t69.5 -152.5q0 -69 -43 -124q102 -70 102 -199z" />
    <glyph glyph-name="acute" unicode="&#xb4;" horiz-adv-x="1064" 
d="M457 1098l143 323h176l-176 -323h-143z" />
    <glyph glyph-name="paragraph" unicode="&#xb6;" horiz-adv-x="1249" 
d="M932 -307v1485h-301v-1485h-164v485q0 78 -22.5 144t-58 113t-79 90t-87 85.5t-79 88.5t-58 110.5t-22.5 140.5q0 172 119.5 276.5t306.5 104.5h609v-1638h-164z" />
    <glyph glyph-name="periodcentered" unicode="&#xb7;" horiz-adv-x="1064" 
d="M532 489q-44 0 -74 29.5t-30 73.5t29 73t75 29t75.5 -29t29.5 -73t-29.5 -73.5t-75.5 -29.5z" />
    <glyph glyph-name="cedilla" unicode="&#xb8;" horiz-adv-x="1064" 
d="M614 66v-345h-159l20 345h139z" />
    <glyph glyph-name="onesuperior" unicode="&#xb9;" horiz-adv-x="460" 
d="M348 1348v-799h-149v575q-80 -28 -179 -37v144q196 27 328 117z" />
    <glyph glyph-name="ordmasculine" unicode="&#xba;" horiz-adv-x="937" 
d="M469 539q-175 0 -294.5 115.5t-119.5 285.5q0 169 120.5 285t293.5 116t293.5 -116t120.5 -285q0 -170 -119.5 -285.5t-294.5 -115.5zM469 680q109 0 184.5 75.5t75.5 184.5q0 106 -76 183t-184 77q-109 0 -184.5 -75.5t-75.5 -184.5q0 -108 76 -184t184 -76z" />
    <glyph glyph-name="guillemotright" unicode="&#xbb;" horiz-adv-x="985" 
d="M496 502l-256 -402h-172l249 398l-256 405h179zM934 502l-256 -402h-172l250 398l-256 405h178z" />
    <glyph glyph-name="onequarter" unicode="&#xbc;" horiz-adv-x="1611" 
d="M348 1348v-799h-149v575q-80 -28 -179 -37v144q196 27 328 117zM238 0l723 1331h172l-723 -1331h-172zM1520 594v-594h-150v74q0 52 -20.5 87.5t-53 54.5t-72.5 34.5t-79.5 35t-72 48t-53 82t-20.5 129.5v237h150v-237q0 -42 12.5 -71.5t37.5 -47.5t49 -29t61.5 -25.5
t60.5 -27.5v250h150z" />
    <glyph glyph-name="onehalf" unicode="&#xbd;" horiz-adv-x="1525" 
d="M348 1348v-799h-149v575q-80 -28 -179 -37v144q196 27 328 117zM238 0l723 1331h172l-723 -1331h-172zM1464 143v-143h-563l324 381q48 55 66 91t18 71q0 47 -35 80.5t-84 33.5t-84 -33.5t-35 -80.5q0 -60 49 -103l-88 -102q-106 87 -106 209q0 103 76 174.5t188 71.5
t188 -71.5t76 -174.5q0 -60 -22 -110t-78 -115l-152 -179h262z" />
    <glyph glyph-name="threequarters" unicode="&#xbe;" horiz-adv-x="1812" 
d="M637 805q0 -115 -85 -190.5t-210 -75.5q-130 0 -215.5 82.5t-85.5 212.5h149q0 -69 42.5 -112.5t109.5 -43.5q64 0 104.5 36t40.5 91q0 47 -38.5 78.5t-102.5 31.5h-51v144h51q22 0 62 -4q20 33 20 65q0 34 -27 58t-67 24q-41 0 -68.5 -26.5t-27.5 -65.5h-150
q0 101 68.5 166t177.5 65q105 0 174.5 -60.5t69.5 -152.5q0 -69 -43 -124q102 -70 102 -199zM434 0l723 1331h172l-723 -1331h-172zM1720 594v-594h-149v74q0 52 -20.5 87.5t-53 54.5t-72 34.5t-79.5 35t-72.5 48t-53 82t-20.5 129.5v237h150v-237q0 -42 12.5 -71.5
t37.5 -47.5t49 -29t61.5 -25.5t60.5 -27.5v250h149z" />
    <glyph glyph-name="questiondown" unicode="&#xbf;" horiz-adv-x="1046" 
d="M514 987q44 0 74 -29t30 -73q0 -45 -29 -74t-75 -29t-75 29t-29 74q0 44 29 73t75 29zM985 57q0 -193 -128 -315.5t-329 -122.5q-197 0 -326.5 119.5t-129.5 302.5q0 160 99.5 269t266.5 134l4 144h144l2 -271h-60q-125 0 -211 -79.5t-86 -196.5t86 -197t211 -80
q129 0 213 83t84 210h160z" />
    <glyph glyph-name="Agrave" unicode="&#xc0;" 
d="M360 492h-61v-492h-164v913q0 194 120 315.5t312 121.5t312 -121.5t120 -315.5v-913h-163v43q0 206 -124.5 327.5t-351.5 121.5zM319 645q179 0 310.5 -48.5t206.5 -137.5v454q0 121 -76 199t-193 78q-118 0 -193 -77.5t-75 -199.5v-268h20zM635 1458h-143l-187 324h176z
" />
    <glyph glyph-name="Aacute" unicode="&#xc1;" 
d="M360 492h-61v-492h-164v913q0 194 120 315.5t312 121.5t312 -121.5t120 -315.5v-913h-163v43q0 206 -124.5 327.5t-351.5 121.5zM319 645q179 0 310.5 -48.5t206.5 -137.5v454q0 121 -76 199t-193 78q-118 0 -193 -77.5t-75 -199.5v-268h20zM492 1458l143 324h176
l-176 -324h-143z" />
    <glyph glyph-name="Acircumflex" unicode="&#xc2;" 
d="M360 492h-61v-492h-164v913q0 194 120 315.5t312 121.5t312 -121.5t120 -315.5v-913h-163v43q0 206 -124.5 327.5t-351.5 121.5zM319 645q179 0 310.5 -48.5t206.5 -137.5v454q0 121 -76 199t-193 78q-118 0 -193 -77.5t-75 -199.5v-268h20zM713 1458l-148 215l-145 -215
h-164l225 324h170l228 -324h-166z" />
    <glyph glyph-name="Atilde" unicode="&#xc3;" 
d="M360 492h-61v-492h-164v913q0 194 120 315.5t312 121.5t312 -121.5t120 -315.5v-913h-163v43q0 206 -124.5 327.5t-351.5 121.5zM319 645q179 0 310.5 -48.5t206.5 -137.5v454q0 121 -76 199t-193 78q-118 0 -193 -77.5t-75 -199.5v-268h20zM260 1458v131
q0 94 44.5 146.5t123.5 52.5q49 0 88 -21.5t62.5 -52t42.5 -61.5t38 -52.5t39 -21.5q47 0 47 72v131h129v-131q0 -94 -44 -146.5t-123 -52.5q-49 0 -88 21.5t-63 52t-43 61.5t-38 52.5t-39 21.5q-47 0 -47 -72v-131h-129z" />
    <glyph glyph-name="Adieresis" unicode="&#xc4;" 
d="M360 492h-61v-492h-164v913q0 194 120 315.5t312 121.5t312 -121.5t120 -315.5v-913h-163v43q0 206 -124.5 327.5t-351.5 121.5zM319 645q179 0 310.5 -48.5t206.5 -137.5v454q0 121 -76 199t-193 78q-118 0 -193 -77.5t-75 -199.5v-268h20zM385 1505q-44 0 -74 29.5
t-30 73.5t29 73t75 29t75 -29t29 -73t-29.5 -73.5t-74.5 -29.5zM750 1505q-44 0 -74.5 29.5t-30.5 73.5t29.5 73t75.5 29t75 -29t29 -73t-29 -73.5t-75 -29.5z" />
    <glyph glyph-name="Aring" unicode="&#xc5;" 
d="M360 492h-61v-492h-164v913q0 139 64 243.5t176 154.5q-53 63 -53 147q0 99 70 165.5t175 66.5t175.5 -66.5t70.5 -165.5q0 -88 -53 -147q111 -50 175 -155t64 -243v-913h-163v43q0 206 -124.5 327.5t-351.5 121.5zM567 1350q52 0 82.5 29t30.5 79t-30.5 79.5t-82.5 29.5
t-82 -29.5t-30 -79.5t30 -79t82 -29zM319 645q179 0 310.5 -49t206.5 -139v456q0 121 -76 199t-193 78q-118 0 -193 -77.5t-75 -199.5v-268h20z" />
    <glyph glyph-name="AE" unicode="&#xc6;" horiz-adv-x="1583" 
d="M135 913q0 186 120 302t312 116h930v-153h-539v-611q74 90 189 139.5t258 49.5h31v-156h-31q-204 0 -325.5 -108.5t-121.5 -292.5v-45h539v-154h-702v410h-496v-410h-164v913zM299 913v-350h496v615h-228q-119 -5 -193.5 -78t-74.5 -187z" />
    <glyph glyph-name="Ccedilla" unicode="&#xc7;" horiz-adv-x="1529" 
d="M1458 557q-32 -225 -201.5 -385.5t-396.5 -185.5v-265h-160l17 263q-131 11 -247.5 69t-201 148t-133.5 211t-49 254q0 187 92 344.5t250.5 248.5t347.5 91q242 0 430 -147.5t242 -379.5h-172q-51 166 -189.5 269.5t-310.5 103.5q-142 0 -262.5 -71t-190 -193t-69.5 -266
q0 -108 41 -206.5t111 -169.5t167 -113t203 -42q186 0 330.5 119t181.5 303h170z" />
    <glyph glyph-name="Egrave" unicode="&#xc8;" horiz-adv-x="942" 
d="M856 154v-154h-702v1331h702v-153h-539v-617q154 193 447 193h31v-154h-31q-204 0 -325.5 -114.5t-121.5 -307.5v-24h539zM592 1458h-143l-187 324h176z" />
    <glyph glyph-name="Eacute" unicode="&#xc9;" horiz-adv-x="942" 
d="M856 154v-154h-702v1331h702v-153h-539v-617q154 193 447 193h31v-154h-31q-204 0 -325.5 -114.5t-121.5 -307.5v-24h539zM422 1458l143 324h176l-176 -324h-143z" />
    <glyph glyph-name="Ecircumflex" unicode="&#xca;" horiz-adv-x="942" 
d="M856 154v-154h-702v1331h702v-153h-539v-617q154 193 447 193h31v-154h-31q-204 0 -325.5 -114.5t-121.5 -307.5v-24h539zM643 1458l-147 215l-146 -215h-164l226 324h170l227 -324h-166z" />
    <glyph glyph-name="Edieresis" unicode="&#xcb;" horiz-adv-x="942" 
d="M856 154v-154h-702v1331h702v-153h-539v-617q154 193 447 193h31v-154h-31q-204 0 -325.5 -114.5t-121.5 -307.5v-24h539zM315 1505q-44 0 -74 29.5t-30 73.5t29 73t75 29t75.5 -29t29.5 -73t-29.5 -73.5t-75.5 -29.5zM680 1505q-44 0 -74.5 29.5t-30.5 73.5t29.5 73
t75.5 29t75 -29t29 -73t-29 -73.5t-75 -29.5z" />
    <glyph glyph-name="Igrave" unicode="&#xcc;" horiz-adv-x="471" 
d="M317 0h-163v1331h163v-1331zM303 1458h-143l-187 324h177z" />
    <glyph glyph-name="Iacute" unicode="&#xcd;" horiz-adv-x="471" 
d="M317 0h-163v1331h163v-1331zM164 1458l143 324h176l-176 -324h-143z" />
    <glyph glyph-name="Icircumflex" unicode="&#xce;" horiz-adv-x="471" 
d="M317 0h-163v1331h163v-1331zM381 1458l-148 215l-145 -215h-164l226 324h169l228 -324h-166z" />
    <glyph glyph-name="Idieresis" unicode="&#xcf;" horiz-adv-x="471" 
d="M317 0h-163v1331h163v-1331zM53 1505q-44 0 -74 29.5t-30 73.5t29 73t75 29t75.5 -29t29.5 -73t-29.5 -73.5t-75.5 -29.5zM418 1505q-44 0 -74.5 29.5t-30.5 73.5t29.5 73t75.5 29t75 -29t29 -73t-29 -73.5t-75 -29.5z" />
    <glyph glyph-name="Eth" unicode="&#xd0;" horiz-adv-x="1159" 
d="M1073 666q0 -192 -91.5 -343.5t-257 -237t-376.5 -85.5h-164v590h-164v153h164v588h164q211 0 376.5 -85t257 -236.5t91.5 -343.5zM596 590h-248v-436h35q226 0 374 146.5t148 365.5t-148.5 365.5t-373.5 146.5h-35v-435h248v-153z" />
    <glyph glyph-name="Ntilde" unicode="&#xd1;" horiz-adv-x="1187" 
d="M870 0v250q-343 315 -553 702v-952h-163v1331h153q114 -267 250 -477t313 -389v866h164v-1331h-164zM283 1458v131q0 94 44.5 146.5t123.5 52.5q49 0 88 -21.5t62.5 -52t42.5 -61.5t38 -52.5t39 -21.5q47 0 47 72v131h129v-131q0 -94 -44.5 -146.5t-123.5 -52.5
q-49 0 -88 21.5t-62.5 52t-42.5 61.5t-38 52.5t-39 21.5q-47 0 -47 -72v-131h-129z" />
    <glyph glyph-name="Ograve" unicode="&#xd2;" horiz-adv-x="1552" 
d="M86 666q0 187 92 344.5t250.5 248.5t347.5 91t347.5 -91t250.5 -248.5t92 -344.5t-92 -344.5t-250.5 -248.5t-347.5 -91t-347.5 91t-250.5 248.5t-92 344.5zM254 666q0 -108 41 -206.5t111 -169.5t167 -113t203 -42t203 42t167 113t111 169.5t41 206.5q0 144 -69.5 266
t-190 193t-262.5 71t-262.5 -71t-190 -193t-69.5 -266zM844 1458h-144l-186 324h176z" />
    <glyph glyph-name="Oacute" unicode="&#xd3;" horiz-adv-x="1552" 
d="M86 666q0 187 92 344.5t250.5 248.5t347.5 91t347.5 -91t250.5 -248.5t92 -344.5t-92 -344.5t-250.5 -248.5t-347.5 -91t-347.5 91t-250.5 248.5t-92 344.5zM254 666q0 -108 41 -206.5t111 -169.5t167 -113t203 -42t203 42t167 113t111 169.5t41 206.5q0 144 -69.5 266
t-190 193t-262.5 71t-262.5 -71t-190 -193t-69.5 -266zM700 1458l144 324h176l-176 -324h-144z" />
    <glyph glyph-name="Ocircumflex" unicode="&#xd4;" horiz-adv-x="1552" 
d="M86 666q0 187 92 344.5t250.5 248.5t347.5 91t347.5 -91t250.5 -248.5t92 -344.5t-92 -344.5t-250.5 -248.5t-347.5 -91t-347.5 91t-250.5 248.5t-92 344.5zM254 666q0 -108 41 -206.5t111 -169.5t167 -113t203 -42t203 42t167 113t111 169.5t41 206.5q0 144 -69.5 266
t-190 193t-262.5 71t-262.5 -71t-190 -193t-69.5 -266zM922 1458l-148 215l-145 -215h-164l225 324h170l227 -324h-165z" />
    <glyph glyph-name="Otilde" unicode="&#xd5;" horiz-adv-x="1552" 
d="M86 666q0 187 92 344.5t250.5 248.5t347.5 91t347.5 -91t250.5 -248.5t92 -344.5t-92 -344.5t-250.5 -248.5t-347.5 -91t-347.5 91t-250.5 248.5t-92 344.5zM254 666q0 -108 41 -206.5t111 -169.5t167 -113t203 -42t203 42t167 113t111 169.5t41 206.5q0 144 -69.5 266
t-190 193t-262.5 71t-262.5 -71t-190 -193t-69.5 -266zM469 1458v131q0 94 44.5 146.5t123.5 52.5q49 0 88 -21.5t62.5 -52t42.5 -61.5t38 -52.5t39 -21.5q47 0 47 72v131h129v-131q0 -94 -44.5 -146.5t-123.5 -52.5q-49 0 -88 21.5t-62.5 52t-42.5 61.5t-38 52.5t-39 21.5
q-47 0 -47 -72v-131h-129z" />
    <glyph glyph-name="Odieresis" unicode="&#xd6;" horiz-adv-x="1552" 
d="M86 666q0 187 92 344.5t250.5 248.5t347.5 91t347.5 -91t250.5 -248.5t92 -344.5t-92 -344.5t-250.5 -248.5t-347.5 -91t-347.5 91t-250.5 248.5t-92 344.5zM254 666q0 -108 41 -206.5t111 -169.5t167 -113t203 -42t203 42t167 113t111 169.5t41 206.5q0 144 -69.5 266
t-190 193t-262.5 71t-262.5 -71t-190 -193t-69.5 -266zM594 1505q-44 0 -74.5 29.5t-30.5 73.5t29.5 73t75.5 29t75 -29t29 -73t-29 -73.5t-75 -29.5zM958 1505q-44 0 -74 29.5t-30 73.5t29 73t75 29t75.5 -29t29.5 -73t-29.5 -73.5t-75.5 -29.5z" />
    <glyph glyph-name="multiply" unicode="&#xd7;" horiz-adv-x="983" 
d="M840 395l-92 -92l-256 256l-256 -256l-93 92l256 256l-256 256l95 94l254 -256l256 256l92 -92l-256 -256z" />
    <glyph glyph-name="Oslash" unicode="&#xd8;" horiz-adv-x="1552" 
d="M1466 666q0 -187 -92 -344.5t-250.5 -248.5t-347.5 -91q-224 0 -399 124l-96 -106h-207l188 209q-176 192 -176 457q0 187 92 344.5t250.5 248.5t347.5 91q219 0 400 -125l96 106h207l-189 -209q176 -192 176 -456zM254 666q0 -187 117 -336l698 774q-132 92 -293 92
q-142 0 -262.5 -71t-190 -193t-69.5 -266zM1298 666q0 187 -116 335l-699 -774q131 -92 293 -92q106 0 203 42t167 113t111 169.5t41 206.5z" />
    <glyph glyph-name="Ugrave" unicode="&#xd9;" horiz-adv-x="1132" 
d="M567 141q116 0 191.5 74t75.5 188v928h163v-928q0 -189 -119 -305t-311 -116q-194 0 -313 116t-119 305v928h164v-928q0 -114 75.5 -188t192.5 -74zM635 1458h-143l-187 324h176z" />
    <glyph glyph-name="Uacute" unicode="&#xda;" horiz-adv-x="1132" 
d="M567 141q116 0 191.5 74t75.5 188v928h163v-928q0 -189 -119 -305t-311 -116q-194 0 -313 116t-119 305v928h164v-928q0 -114 75.5 -188t192.5 -74zM492 1458l143 324h176l-176 -324h-143z" />
    <glyph glyph-name="Ucircumflex" unicode="&#xdb;" horiz-adv-x="1132" 
d="M567 141q116 0 191.5 74t75.5 188v928h163v-928q0 -189 -119 -305t-311 -116q-194 0 -313 116t-119 305v928h164v-928q0 -114 75.5 -188t192.5 -74zM713 1458l-148 215l-145 -215h-164l225 324h170l228 -324h-166z" />
    <glyph glyph-name="Udieresis" unicode="&#xdc;" horiz-adv-x="1132" 
d="M567 141q116 0 191.5 74t75.5 188v928h163v-928q0 -189 -119 -305t-311 -116q-194 0 -313 116t-119 305v928h164v-928q0 -114 75.5 -188t192.5 -74zM385 1505q-44 0 -74 29.5t-30 73.5t29 73t75 29t75 -29t29 -73t-29.5 -73.5t-74.5 -29.5zM750 1505q-44 0 -74.5 29.5
t-30.5 73.5t29.5 73t75.5 29t75 -29t29 -73t-29 -73.5t-75 -29.5z" />
    <glyph glyph-name="Yacute" unicode="&#xdd;" horiz-adv-x="1038" 
d="M997 1331l-358 -1331h-174l106 387q-238 17 -368.5 160.5t-130.5 390.5q0 154 63 393h162q-37 -138 -51.5 -223.5t-14.5 -169.5q0 -188 99 -290.5t284 -108.5l220 792h163zM469 1458l143 324h176l-176 -324h-143z" />
    <glyph glyph-name="Thorn" unicode="&#xde;" horiz-adv-x="1044" 
d="M983 754q0 -80 -22.5 -143t-61 -104.5t-88.5 -74.5t-105 -57.5t-110 -48.5t-105 -52.5t-88.5 -63.5t-61 -88.5t-22.5 -121.5h-165v1331h165v-211h185q215 0 347 -101.5t132 -264.5zM510 967h-191v-641q48 42 121 80t134 64.5t118 61t90 87.5t33 126q0 101 -83 161.5
t-222 60.5z" />
    <glyph glyph-name="germandbls" unicode="&#xdf;" horiz-adv-x="1187" 
d="M127 0v905q0 203 111 324t303 121q163 0 264.5 -85t101.5 -208q0 -65 -23 -121.5t-50.5 -87.5t-50.5 -65t-23 -60q0 -25 19.5 -48t51 -42t69.5 -40t76 -48t69.5 -60t51 -82t19.5 -108q0 -135 -90.5 -215t-241.5 -80h-260v143h260q83 0 128.5 40.5t45.5 111.5
q0 47 -26.5 85t-66 61t-85.5 49.5t-85.5 50.5t-66 63t-26.5 88q0 43 15 81.5t37 68t44 57.5t37 63.5t15 73.5q0 76 -56.5 122t-152.5 46q-120 0 -187 -82t-67 -217v-905h-160z" />
    <glyph glyph-name="agrave" unicode="&#xe0;" horiz-adv-x="1013" 
d="M741 0v72q-104 -90 -276 -90q-170 0 -276.5 87t-106.5 226q0 138 107 225.5t276 87.5q167 0 266 -80v84q0 108 -59.5 170t-163.5 62q-80 0 -134 -37t-77 -107h-164q29 131 130 209t243 78q178 0 281.5 -103t103.5 -280v-604h-150zM485 117q113 0 179.5 49.5t66.5 132.5
q0 81 -66 127.5t-180 46.5t-178.5 -47.5t-64.5 -130.5t64.5 -130.5t178.5 -47.5zM569 1098h-143l-186 323h176z" />
    <glyph glyph-name="aacute" unicode="&#xe1;" horiz-adv-x="1013" 
d="M741 0v72q-104 -90 -276 -90q-170 0 -276.5 87t-106.5 226q0 138 107 225.5t276 87.5q167 0 266 -80v84q0 108 -59.5 170t-163.5 62q-80 0 -134 -37t-77 -107h-164q29 131 130 209t243 78q178 0 281.5 -103t103.5 -280v-604h-150zM485 117q113 0 179.5 49.5t66.5 132.5
q0 81 -66 127.5t-180 46.5t-178.5 -47.5t-64.5 -130.5t64.5 -130.5t178.5 -47.5zM426 1098l143 323h176l-176 -323h-143z" />
    <glyph glyph-name="acircumflex" unicode="&#xe2;" horiz-adv-x="1013" 
d="M741 0v72q-104 -90 -276 -90q-170 0 -276.5 87t-106.5 226q0 138 107 225.5t276 87.5q167 0 266 -80v84q0 108 -59.5 170t-163.5 62q-80 0 -134 -37t-77 -107h-164q29 131 130 209t243 78q178 0 281.5 -103t103.5 -280v-604h-150zM485 117q113 0 179.5 49.5t66.5 132.5
q0 81 -66 127.5t-180 46.5t-178.5 -47.5t-64.5 -130.5t64.5 -130.5t178.5 -47.5zM647 1098l-147 215l-146 -215h-164l226 323h170l227 -323h-166z" />
    <glyph glyph-name="atilde" unicode="&#xe3;" horiz-adv-x="1013" 
d="M741 0v72q-104 -90 -276 -90q-170 0 -276.5 87t-106.5 226q0 138 107 225.5t276 87.5q167 0 266 -80v84q0 108 -59.5 170t-163.5 62q-80 0 -134 -37t-77 -107h-164q29 131 130 209t243 78q178 0 281.5 -103t103.5 -280v-604h-150zM485 117q113 0 179.5 49.5t66.5 132.5
q0 81 -66 127.5t-180 46.5t-178.5 -47.5t-64.5 -130.5t64.5 -130.5t178.5 -47.5zM195 1098v131q0 94 44 146t123 52q49 0 88 -21.5t63 -52t43 -61t38 -52t39 -21.5q47 0 47 71v131h129v-131q0 -94 -44 -146t-124 -52q-49 0 -88 21.5t-62.5 52t-42.5 61t-38 52t-39 21.5
q-47 0 -47 -71v-131h-129z" />
    <glyph glyph-name="adieresis" unicode="&#xe4;" horiz-adv-x="1013" 
d="M741 0v72q-104 -90 -276 -90q-170 0 -276.5 87t-106.5 226q0 138 107 225.5t276 87.5q167 0 266 -80v84q0 108 -59.5 170t-163.5 62q-80 0 -134 -37t-77 -107h-164q29 131 130 209t243 78q178 0 281.5 -103t103.5 -280v-604h-150zM485 117q113 0 179.5 49.5t66.5 132.5
q0 81 -66 127.5t-180 46.5t-178.5 -47.5t-64.5 -130.5t64.5 -130.5t178.5 -47.5zM319 1145q-44 0 -74 29t-30 73q0 45 29.5 74t74.5 29q46 0 75.5 -29.5t29.5 -73.5t-29.5 -73t-75.5 -29zM684 1145q-44 0 -74 29t-30 73q0 45 29 74t75 29t75 -29t29 -74q0 -44 -29 -73
t-75 -29z" />
    <glyph glyph-name="aring" unicode="&#xe5;" horiz-adv-x="1013" 
d="M741 0v72q-104 -90 -276 -90q-170 0 -276.5 87t-106.5 226q0 138 107 225.5t276 87.5q167 0 266 -80v84q0 108 -59.5 170t-163.5 62q-80 0 -134 -37t-77 -107h-164q41 175 197 248q-54 63 -54 148q0 98 71 164.5t175 66.5t175 -66.5t71 -164.5q0 -90 -61 -154
q89 -47 136.5 -134.5t47.5 -203.5v-604h-150zM522 987q52 0 82.5 29.5t30.5 79.5t-30.5 79t-82.5 29t-82 -29t-30 -79t30 -79.5t82 -29.5zM485 117q113 0 179.5 49.5t66.5 132.5q0 81 -66 127.5t-180 46.5t-178.5 -47.5t-64.5 -130.5t64.5 -130.5t178.5 -47.5z" />
    <glyph glyph-name="ae" unicode="&#xe6;" horiz-adv-x="1781" 
d="M1710 301q-57 -149 -185.5 -234t-295.5 -85q-187 0 -322 116v-98h-149v88q-103 -106 -293 -106q-170 0 -276.5 87t-106.5 226q0 138 107 225.5t276 87.5q167 0 266 -80v84q0 108 -59.5 170t-163.5 62q-80 0 -134 -37t-77 -107h-164q29 132 130.5 209.5t242.5 77.5
q119 0 205 -49.5t129 -140.5q70 89 172 139.5t217 50.5q209 0 347 -134.5t138 -338.5v-55h-823q4 -139 102.5 -236.5t235.5 -97.5q218 0 323 176h158zM1229 846q-116 0 -208 -73t-120 -183h651q-19 113 -108 184.5t-215 71.5zM485 117q113 0 179.5 49.5t66.5 132.5
q0 81 -66 127.5t-180 46.5t-178.5 -47.5t-64.5 -130.5t64.5 -130.5t178.5 -47.5z" />
    <glyph glyph-name="ccedilla" unicode="&#xe7;" horiz-adv-x="1155" 
d="M1083 385q-34 -159 -148.5 -268t-268.5 -131v-265h-160l16 265q-187 22 -313.5 163.5t-126.5 333.5q0 212 147 358t361 146q181 0 315 -106t174 -281h-159q-41 113 -129.5 177.5t-200.5 64.5q-146 0 -247 -104t-101 -255q0 -150 100.5 -253t247.5 -103q120 0 212 70.5
t124 187.5h157z" />
    <glyph glyph-name="egrave" unicode="&#xe8;" horiz-adv-x="1142" 
d="M1061 301q-57 -149 -185.5 -234t-295.5 -85q-136 0 -250.5 66t-181 181.5t-66.5 253.5q0 135 66.5 251t181.5 184.5t250 68.5q207 0 346 -134t139 -339v-55h-823q4 -143 104 -238.5t234 -95.5q218 0 323 176h158zM580 846q-115 0 -207.5 -72t-120.5 -184h651
q-19 115 -109 185.5t-214 70.5zM657 1098h-143l-186 323h176z" />
    <glyph glyph-name="eacute" unicode="&#xe9;" horiz-adv-x="1142" 
d="M1061 301q-57 -149 -185.5 -234t-295.5 -85q-136 0 -250.5 66t-181 181.5t-66.5 253.5q0 135 66.5 251t181.5 184.5t250 68.5q207 0 346 -134t139 -339v-55h-823q4 -143 104 -238.5t234 -95.5q218 0 323 176h158zM580 846q-115 0 -207.5 -72t-120.5 -184h651
q-19 115 -109 185.5t-214 70.5zM514 1098l143 323h177l-177 -323h-143z" />
    <glyph glyph-name="ecircumflex" unicode="&#xea;" horiz-adv-x="1142" 
d="M1061 301q-57 -149 -185.5 -234t-295.5 -85q-136 0 -250.5 66t-181 181.5t-66.5 253.5q0 135 66.5 251t181.5 184.5t250 68.5q207 0 346 -134t139 -339v-55h-823q4 -143 104 -238.5t234 -95.5q218 0 323 176h158zM580 846q-115 0 -207.5 -72t-120.5 -184h651
q-19 115 -109 185.5t-214 70.5zM735 1098l-147 215l-146 -215h-163l225 323h170l227 -323h-166z" />
    <glyph glyph-name="edieresis" unicode="&#xeb;" horiz-adv-x="1142" 
d="M1061 301q-57 -149 -185.5 -234t-295.5 -85q-136 0 -250.5 66t-181 181.5t-66.5 253.5q0 135 66.5 251t181.5 184.5t250 68.5q207 0 346 -134t139 -339v-55h-823q4 -143 104 -238.5t234 -95.5q218 0 323 176h158zM580 846q-115 0 -207.5 -72t-120.5 -184h651
q-19 115 -109 185.5t-214 70.5zM408 1145q-45 0 -75 29t-30 73t29.5 73.5t75.5 29.5t75 -29t29 -74q0 -44 -29 -73t-75 -29zM772 1145q-44 0 -74 29t-30 73q0 45 29 74t75 29t75.5 -29.5t29.5 -73.5t-29.5 -73t-75.5 -29z" />
    <glyph glyph-name="igrave" unicode="&#xec;" horiz-adv-x="413" 
d="M127 969h160v-969h-160v969zM279 1098h-144l-186 323h176z" />
    <glyph glyph-name="iacute" unicode="&#xed;" horiz-adv-x="413" 
d="M127 969h160v-969h-160v969zM135 1098l144 323h176l-176 -323h-144z" />
    <glyph glyph-name="icircumflex" unicode="&#xee;" horiz-adv-x="413" 
d="M127 969h160v-969h-160v969zM356 1098l-147 215l-146 -215h-163l225 323h170l227 -323h-166z" />
    <glyph glyph-name="idieresis" unicode="&#xef;" horiz-adv-x="413" 
d="M127 969h160v-969h-160v969zM29 1145q-45 0 -75 29t-30 73t29.5 73.5t75.5 29.5q45 0 74.5 -29t29.5 -74q0 -44 -29 -73t-75 -29zM393 1145q-44 0 -74 29t-30 73q0 45 29.5 74t74.5 29q46 0 75.5 -29.5t29.5 -73.5t-29.5 -73t-75.5 -29z" />
    <glyph glyph-name="eth" unicode="&#xf0;" horiz-adv-x="1095" 
d="M1014 432q0 -189 -136 -319.5t-333 -130.5q-194 0 -328.5 129.5t-134.5 316.5q0 186 135.5 316t331.5 130q67 0 131 -22l-127 199l-283 -88v129l213 65l-112 174h172l82 -129l299 92v-129l-230 -71l201 -314q67 -104 93 -182.5t26 -165.5zM549 127q126 0 215.5 88.5
t89.5 212.5q0 127 -89.5 216t-215.5 89q-127 0 -217 -89t-90 -216q0 -126 89.5 -213.5t217.5 -87.5z" />
    <glyph glyph-name="ntilde" unicode="&#xf1;" horiz-adv-x="1040" 
d="M287 592v-592h-160v969h149v-97q103 115 277 115q166 0 265.5 -105.5t99.5 -283.5v-598h-160v592q0 114 -64.5 183t-171.5 69t-171 -69t-64 -183zM215 1098v131q0 94 44 146t124 52q49 0 88 -21.5t62.5 -52t42.5 -61t38 -52t39 -21.5q47 0 47 71v131h129v-131
q0 -94 -44 -146t-123 -52q-49 0 -88 21.5t-63 52t-43 61t-38 52t-39 21.5q-47 0 -47 -71v-131h-129z" />
    <glyph glyph-name="ograve" unicode="&#xf2;" horiz-adv-x="1187" 
d="M594 -18q-217 0 -364.5 144.5t-147.5 356.5q0 139 67 255t185 182.5t260 66.5t260 -66.5t185 -182.5t67 -255q0 -211 -148 -356t-364 -145zM594 842q-146 0 -249 -105.5t-103 -253.5t103 -252t249 -104t249 104t103 252t-103 253.5t-249 105.5zM662 1098h-144l-186 323
h176z" />
    <glyph glyph-name="oacute" unicode="&#xf3;" horiz-adv-x="1187" 
d="M594 -18q-217 0 -364.5 144.5t-147.5 356.5q0 139 67 255t185 182.5t260 66.5t260 -66.5t185 -182.5t67 -255q0 -211 -148 -356t-364 -145zM594 842q-146 0 -249 -105.5t-103 -253.5t103 -252t249 -104t249 104t103 252t-103 253.5t-249 105.5zM518 1098l144 323h176
l-176 -323h-144z" />
    <glyph glyph-name="ocircumflex" unicode="&#xf4;" horiz-adv-x="1187" 
d="M594 -18q-217 0 -364.5 144.5t-147.5 356.5q0 139 67 255t185 182.5t260 66.5t260 -66.5t185 -182.5t67 -255q0 -211 -148 -356t-364 -145zM594 842q-146 0 -249 -105.5t-103 -253.5t103 -252t249 -104t249 104t103 252t-103 253.5t-249 105.5zM739 1098l-147 215
l-146 -215h-163l225 323h170l227 -323h-166z" />
    <glyph glyph-name="otilde" unicode="&#xf5;" horiz-adv-x="1187" 
d="M594 -18q-217 0 -364.5 144.5t-147.5 356.5q0 139 67 255t185 182.5t260 66.5t260 -66.5t185 -182.5t67 -255q0 -211 -148 -356t-364 -145zM594 842q-146 0 -249 -105.5t-103 -253.5t103 -252t249 -104t249 104t103 252t-103 253.5t-249 105.5zM287 1098v131q0 94 44 146
t124 52q49 0 88 -21.5t62.5 -52t42.5 -61t38 -52t39 -21.5q47 0 47 71v131h129v-131q0 -94 -44 -146t-124 -52q-49 0 -88 21.5t-62.5 52t-42.5 61t-38 52t-39 21.5q-47 0 -47 -71v-131h-129z" />
    <glyph glyph-name="odieresis" unicode="&#xf6;" horiz-adv-x="1187" 
d="M594 -18q-217 0 -364.5 144.5t-147.5 356.5q0 139 67 255t185 182.5t260 66.5t260 -66.5t185 -182.5t67 -255q0 -211 -148 -356t-364 -145zM594 842q-146 0 -249 -105.5t-103 -253.5t103 -252t249 -104t249 104t103 252t-103 253.5t-249 105.5zM414 1145q-45 0 -75 29
t-30 73t29.5 73.5t75.5 29.5t75 -29t29 -74q0 -44 -29 -73t-75 -29zM778 1145q-44 0 -74 29t-30 73q0 45 29 74t75 29t75.5 -29.5t29.5 -73.5t-29.5 -73t-75.5 -29z" />
    <glyph glyph-name="divide" unicode="&#xf7;" horiz-adv-x="983" 
d="M492 940q-45 0 -75 29t-30 73t29.5 73.5t75.5 29.5t75 -29.5t29 -73.5t-29 -73t-75 -29zM102 717h779v-131h-779v131zM492 158q-45 0 -75 29t-30 73t29.5 73t75.5 29t75 -29t29 -73t-29 -73t-75 -29z" />
    <glyph glyph-name="oslash" unicode="&#xf8;" horiz-adv-x="1208" 
d="M1116 483q0 -211 -148 -356t-364 -145q-158 0 -285 81l-57 -63h-194l143 158q-119 138 -119 325q0 139 67 255t185 182.5t260 66.5q153 0 285 -82l57 64h195l-144 -158q119 -142 119 -328zM252 483q0 -117 65 -207l467 515q-82 51 -180 51q-146 0 -249 -105.5
t-103 -253.5zM956 483q0 115 -65 209l-467 -514q79 -51 180 -51q146 0 249 104t103 252z" />
    <glyph glyph-name="ugrave" unicode="&#xf9;" horiz-adv-x="1015" 
d="M123 969h160v-596q0 -114 60.5 -180t164.5 -66t164.5 66t60.5 180v596h160v-586q0 -187 -104.5 -294t-280.5 -107q-178 0 -281.5 106.5t-103.5 294.5v586zM578 1098h-144l-186 323h176z" />
    <glyph glyph-name="uacute" unicode="&#xfa;" horiz-adv-x="1015" 
d="M123 969h160v-596q0 -114 60.5 -180t164.5 -66t164.5 66t60.5 180v596h160v-586q0 -187 -104.5 -294t-280.5 -107q-178 0 -281.5 106.5t-103.5 294.5v586zM434 1098l144 323h176l-176 -323h-144z" />
    <glyph glyph-name="ucircumflex" unicode="&#xfb;" horiz-adv-x="1015" 
d="M123 969h160v-596q0 -114 60.5 -180t164.5 -66t164.5 66t60.5 180v596h160v-586q0 -187 -104.5 -294t-280.5 -107q-178 0 -281.5 106.5t-103.5 294.5v586zM653 1098l-147 215l-146 -215h-163l225 323h170l227 -323h-166z" />
    <glyph glyph-name="udieresis" unicode="&#xfc;" horiz-adv-x="1015" 
d="M123 969h160v-596q0 -114 60.5 -180t164.5 -66t164.5 66t60.5 180v596h160v-586q0 -187 -104.5 -294t-280.5 -107q-178 0 -281.5 106.5t-103.5 294.5v586zM326 1145q-45 0 -75 29t-30 73t29.5 73.5t75.5 29.5t75 -29t29 -74q0 -44 -29 -73t-75 -29zM690 1145
q-44 0 -74 29t-30 73q0 45 29 74t75 29t75.5 -29.5t29.5 -73.5t-29.5 -73t-75.5 -29z" />
    <glyph glyph-name="yacute" unicode="&#xfd;" horiz-adv-x="1011" 
d="M961 969l-353 -1276h-170l84 301q-197 25 -313.5 161.5t-116.5 358.5q0 208 64 455h161q-65 -277 -65 -455q0 -165 83.5 -263t227.5 -110l234 828h164zM494 1098l143 323h176l-176 -323h-143z" />
    <glyph glyph-name="thorn" unicode="&#xfe;" horiz-adv-x="1103" 
d="M567 -18q-161 0 -280 94v-383h-160v1638h160v-362h184q242 0 396.5 -142.5t154.5 -367.5q0 -209 -131 -343t-324 -134zM471 825h-184v-583q111 -117 258 -117q137 0 227 89t90 245q0 163 -109 264.5t-282 101.5z" />
    <glyph glyph-name="ydieresis" unicode="&#xff;" horiz-adv-x="1011" 
d="M961 969l-353 -1276h-170l84 301q-197 25 -313.5 161.5t-116.5 358.5q0 208 64 455h161q-65 -277 -65 -455q0 -165 83.5 -263t227.5 -110l234 828h164zM391 1145q-44 0 -74 29t-30 73q0 45 29.5 74t74.5 29q46 0 75.5 -29.5t29.5 -73.5t-29.5 -73t-75.5 -29zM756 1145
q-45 0 -75 29t-30 73t29.5 73.5t75.5 29.5t75 -29t29 -74q0 -44 -29 -73t-75 -29z" />
    <glyph glyph-name="Amacron" unicode="&#x100;" 
d="M360 492h-61v-492h-164v913q0 194 120 315.5t312 121.5t312 -121.5t120 -315.5v-913h-163v43q0 206 -124.5 327.5t-351.5 121.5zM319 645q179 0 310.5 -48.5t206.5 -137.5v454q0 121 -76 199t-193 78q-118 0 -193 -77.5t-75 -199.5v-268h20zM311 1669h512v-143h-512v143z
" />
    <glyph glyph-name="amacron" unicode="&#x101;" horiz-adv-x="1013" 
d="M741 0v72q-104 -90 -276 -90q-170 0 -276.5 87t-106.5 226q0 138 107 225.5t276 87.5q167 0 266 -80v84q0 108 -59.5 170t-163.5 62q-80 0 -134 -37t-77 -107h-164q29 131 130 209t243 78q178 0 281.5 -103t103.5 -280v-604h-150zM485 117q113 0 179.5 49.5t66.5 132.5
q0 81 -66 127.5t-180 46.5t-178.5 -47.5t-64.5 -130.5t64.5 -130.5t178.5 -47.5zM246 1309h512v-144h-512v144z" />
    <glyph glyph-name="Abreve" unicode="&#x102;" 
d="M360 492h-61v-492h-164v913q0 194 120 315.5t312 121.5t312 -121.5t120 -315.5v-913h-163v43q0 206 -124.5 327.5t-351.5 121.5zM319 645q179 0 310.5 -48.5t206.5 -137.5v454q0 121 -76 199t-193 78q-118 0 -193 -77.5t-75 -199.5v-268h20zM567 1581q79 0 123.5 38.5
t44.5 111.5v51h131v-51q0 -133 -81 -206t-218 -73q-139 0 -219 73t-80 206v51h131v-51q0 -73 44 -111.5t124 -38.5z" />
    <glyph glyph-name="abreve" unicode="&#x103;" horiz-adv-x="1013" 
d="M741 0v72q-104 -90 -276 -90q-170 0 -276.5 87t-106.5 226q0 138 107 225.5t276 87.5q167 0 266 -80v84q0 108 -59.5 170t-163.5 62q-80 0 -134 -37t-77 -107h-164q29 131 130 209t243 78q178 0 281.5 -103t103.5 -280v-604h-150zM485 117q113 0 179.5 49.5t66.5 132.5
q0 81 -66 127.5t-180 46.5t-178.5 -47.5t-64.5 -130.5t64.5 -130.5t178.5 -47.5zM502 1221q79 0 123.5 38.5t44.5 110.5v51h131v-51q0 -133 -80.5 -205.5t-218.5 -72.5q-139 0 -219 72.5t-80 205.5v51h131v-51q0 -73 44 -111t124 -38z" />
    <glyph glyph-name="Aogonek" unicode="&#x104;" 
d="M999 -217v-123h-69q-97 0 -155 47.5t-58 126.5q0 100 119 178v31q0 206 -124.5 327.5t-351.5 121.5h-61v-492h-164v913q0 194 120 315.5t312 121.5t312 -121.5t120 -315.5v-913q-143 -75 -143 -154q0 -63 82 -63h61zM319 645q179 0 310.5 -49t206.5 -139v456
q0 121 -76 199t-193 78q-118 0 -193 -77.5t-75 -199.5v-268h20z" />
    <glyph glyph-name="aogonek" unicode="&#x105;" horiz-adv-x="1013" 
d="M891 -217v-123h-70q-97 0 -155 47.5t-58 126.5q0 106 133 186v52q-104 -90 -276 -90q-170 0 -276.5 87t-106.5 226q0 138 107 225.5t276 87.5q167 0 266 -80v84q0 108 -59.5 170t-163.5 62q-78 0 -133 -37.5t-78 -106.5h-164q29 131 130 209t243 78q178 0 281.5 -103
t103.5 -280v-604q-143 -75 -143 -154q0 -63 81 -63h62zM485 117q113 0 179.5 49.5t66.5 132.5q0 81 -66 127.5t-180 46.5t-178.5 -47.5t-64.5 -130.5t64.5 -130.5t178.5 -47.5z" />
    <glyph glyph-name="Cacute" unicode="&#x106;" horiz-adv-x="1529" 
d="M1288 557h170q-25 -162 -121 -293.5t-243.5 -206.5t-317.5 -75q-189 0 -347.5 91t-250.5 248.5t-92 344.5t92 344.5t250.5 248.5t347.5 91q244 0 431.5 -149.5t240.5 -377.5h-172q-50 164 -187.5 268.5t-312.5 104.5q-142 0 -262.5 -71t-190 -193t-69.5 -266
q0 -108 41 -206.5t111 -169.5t167 -113t203 -42q187 0 331 120t181 302zM692 1458l144 324h176l-176 -324h-144z" />
    <glyph glyph-name="cacute" unicode="&#x107;" horiz-adv-x="1155" 
d="M926 385h157q-38 -181 -173.5 -292t-319.5 -111q-214 0 -361 144.5t-147 356.5t147 358t361 146q180 0 314.5 -107t174.5 -280h-159q-40 110 -128.5 176t-201.5 66q-145 0 -246.5 -103.5t-101.5 -255.5q0 -151 101 -253.5t247 -102.5q120 0 212 71t124 187zM502 1098
l143 323h176l-176 -323h-143z" />
    <glyph glyph-name="Ccircumflex" unicode="&#x108;" horiz-adv-x="1529" 
d="M1288 557h170q-25 -162 -121 -293.5t-243.5 -206.5t-317.5 -75q-189 0 -347.5 91t-250.5 248.5t-92 344.5t92 344.5t250.5 248.5t347.5 91q244 0 431.5 -149.5t240.5 -377.5h-172q-50 164 -187.5 268.5t-312.5 104.5q-142 0 -262.5 -71t-190 -193t-69.5 -266
q0 -108 41 -206.5t111 -169.5t167 -113t203 -42q187 0 331 120t181 302zM913 1458l-147 215l-145 -215h-164l225 324h170l227 -324h-166z" />
    <glyph glyph-name="ccircumflex" unicode="&#x109;" horiz-adv-x="1155" 
d="M926 385h157q-38 -181 -173.5 -292t-319.5 -111q-214 0 -361 144.5t-147 356.5t147 358t361 146q180 0 314.5 -107t174.5 -280h-159q-40 110 -128.5 176t-201.5 66q-145 0 -246.5 -103.5t-101.5 -255.5q0 -151 101 -253.5t247 -102.5q120 0 212 71t124 187zM723 1098
l-148 215l-145 -215h-164l226 323h170l227 -323h-166z" />
    <glyph glyph-name="Cdotaccent" unicode="&#x10a;" horiz-adv-x="1529" 
d="M1288 557h170q-25 -162 -121 -293.5t-243.5 -206.5t-317.5 -75q-189 0 -347.5 91t-250.5 248.5t-92 344.5t92 344.5t250.5 248.5t347.5 91q244 0 431.5 -149.5t240.5 -377.5h-172q-50 164 -187.5 268.5t-312.5 104.5q-142 0 -262.5 -71t-190 -193t-69.5 -266
q0 -108 41 -206.5t111 -169.5t167 -113t203 -42q187 0 331 120t181 302zM768 1505q-51 0 -83 31.5t-32 81.5t32 81.5t83 31.5t83 -31.5t32 -81.5t-32 -81.5t-83 -31.5z" />
    <glyph glyph-name="cdotaccent" unicode="&#x10b;" horiz-adv-x="1155" 
d="M926 385h157q-38 -181 -173.5 -292t-319.5 -111q-214 0 -361 144.5t-147 356.5t147 358t361 146q180 0 314.5 -107t174.5 -280h-159q-40 110 -128.5 176t-201.5 66q-145 0 -246.5 -103.5t-101.5 -255.5q0 -151 101 -253.5t247 -102.5q120 0 212 71t124 187zM578 1145
q-51 0 -83 31t-32 81t32 81.5t83 31.5t82.5 -31.5t31.5 -81.5t-31.5 -81t-82.5 -31z" />
    <glyph glyph-name="Ccaron" unicode="&#x10c;" horiz-adv-x="1529" 
d="M1288 557h170q-25 -162 -121 -293.5t-243.5 -206.5t-317.5 -75q-189 0 -347.5 91t-250.5 248.5t-92 344.5t92 344.5t250.5 248.5t347.5 91q244 0 431.5 -149.5t240.5 -377.5h-172q-50 164 -187.5 268.5t-312.5 104.5q-142 0 -262.5 -71t-190 -193t-69.5 -266
q0 -108 41 -206.5t111 -169.5t167 -113t203 -42q187 0 331 120t181 302zM1079 1782l-225 -324h-170l-227 324h166l147 -215l145 215h164z" />
    <glyph glyph-name="ccaron" unicode="&#x10d;" horiz-adv-x="1155" 
d="M926 385h157q-38 -181 -173.5 -292t-319.5 -111q-214 0 -361 144.5t-147 356.5t147 358t361 146q180 0 314.5 -107t174.5 -280h-159q-40 110 -128.5 176t-201.5 66q-145 0 -246.5 -103.5t-101.5 -255.5q0 -151 101 -253.5t247 -102.5q120 0 212 71t124 187zM889 1421
l-225 -323h-170l-228 323h166l148 -215l145 215h164z" />
    <glyph glyph-name="Dcaron" unicode="&#x10e;" horiz-adv-x="1128" 
d="M154 0v1331h163q211 0 376.5 -85t257 -236.5t91.5 -343.5t-91.5 -343.5t-257 -237t-376.5 -85.5h-163zM352 1178h-35v-1024h35q226 0 374 146.5t148 365.5t-148.5 365.5t-373.5 146.5zM809 1782l-225 -324h-170l-228 324h166l148 -215l145 215h164z" />
    <glyph glyph-name="dcaron" unicode="&#x10f;" horiz-adv-x="1388" 
d="M977 1331v-1331h-344q-245 0 -398 140.5t-153 365.5q0 209 129.5 345t329.5 136q155 0 276 -82v426h160zM625 143h192v600q-55 45 -123.5 72t-132.5 27q-141 0 -230 -95.5t-89 -244.5q0 -159 106.5 -259t276.5 -100zM1161 928v403h162l-31 -403h-131z" />
    <glyph glyph-name="Dcroat" unicode="&#x110;" horiz-adv-x="1159" 
d="M1073 666q0 -192 -91.5 -343.5t-257 -237t-376.5 -85.5h-164v590h-164v153h164v588h164q211 0 376.5 -85t257 -236.5t91.5 -343.5zM596 590h-248v-436h35q226 0 374 146.5t148 365.5t-148.5 365.5t-373.5 146.5h-35v-435h248v-153z" />
    <glyph glyph-name="dcroat" unicode="&#x111;" horiz-adv-x="1124" 
d="M1165 1073h-188v-1073h-344q-245 0 -398 134.5t-153 350.5q0 200 130 330.5t329 130.5q155 0 276 -82v209h-246v135h246v123h160v-123h188v-135zM625 143h192v562q-55 45 -123.5 71.5t-132.5 26.5q-141 0 -230 -90.5t-89 -231.5q0 -149 106.5 -243.5t276.5 -94.5z" />
    <glyph glyph-name="Emacron" unicode="&#x112;" horiz-adv-x="942" 
d="M856 154v-154h-702v1331h702v-153h-539v-617q154 193 447 193h31v-154h-31q-204 0 -325.5 -114.5t-121.5 -307.5v-24h539zM242 1669h512v-143h-512v143z" />
    <glyph glyph-name="emacron" unicode="&#x113;" horiz-adv-x="1142" 
d="M1061 301q-57 -149 -185.5 -234t-295.5 -85q-136 0 -250.5 66t-181 181.5t-66.5 253.5q0 135 66.5 251t181.5 184.5t250 68.5q207 0 346 -134t139 -339v-55h-823q4 -143 104 -238.5t234 -95.5q218 0 323 176h158zM580 846q-115 0 -207.5 -72t-120.5 -184h651
q-19 115 -109 185.5t-214 70.5zM334 1309h512v-144h-512v144z" />
    <glyph glyph-name="Ebreve" unicode="&#x114;" horiz-adv-x="942" 
d="M856 154v-154h-702v1331h702v-153h-539v-617q154 193 447 193h31v-154h-31q-204 0 -325.5 -114.5t-121.5 -307.5v-24h539zM498 1581q79 0 123.5 38.5t44.5 111.5v51h131v-51q0 -133 -81 -206t-218 -73q-139 0 -219 73t-80 206v51h131v-51q0 -73 44 -111.5t124 -38.5z" />
    <glyph glyph-name="ebreve" unicode="&#x115;" horiz-adv-x="1142" 
d="M1061 301q-57 -149 -185.5 -234t-295.5 -85q-136 0 -250.5 66t-181 181.5t-66.5 253.5q0 135 66.5 251t181.5 184.5t250 68.5q207 0 346 -134t139 -339v-55h-823q4 -143 104 -238.5t234 -95.5q218 0 323 176h158zM580 846q-115 0 -207.5 -72t-120.5 -184h651
q-19 115 -109 185.5t-214 70.5zM590 1221q79 0 123.5 38.5t44.5 110.5v51h131v-51q0 -133 -80.5 -205.5t-218.5 -72.5q-139 0 -219 72.5t-80 205.5v51h131v-51q0 -73 44 -111t124 -38z" />
    <glyph glyph-name="Edotaccent" unicode="&#x116;" horiz-adv-x="942" 
d="M856 154v-154h-702v1331h702v-153h-539v-617q154 193 447 193h31v-154h-31q-204 0 -325.5 -114.5t-121.5 -307.5v-24h539zM498 1505q-51 0 -83 31.5t-32 81.5t32 81.5t83 31.5t82.5 -31.5t31.5 -81.5t-31.5 -81.5t-82.5 -31.5z" />
    <glyph glyph-name="edotaccent" unicode="&#x117;" horiz-adv-x="1142" 
d="M1061 301q-57 -149 -185.5 -234t-295.5 -85q-136 0 -250.5 66t-181 181.5t-66.5 253.5q0 135 66.5 251t181.5 184.5t250 68.5q207 0 346 -134t139 -339v-55h-823q4 -143 104 -238.5t234 -95.5q218 0 323 176h158zM580 846q-115 0 -207.5 -72t-120.5 -184h651
q-19 115 -109 185.5t-214 70.5zM590 1145q-51 0 -83 31t-32 81t32 81.5t83 31.5t83 -31.5t32 -81.5t-32 -81t-83 -31z" />
    <glyph glyph-name="Eogonek" unicode="&#x118;" horiz-adv-x="942" 
d="M856 -217v-123h-70q-97 0 -155 47.5t-58 126.5q0 91 101 166h-520v1331h702v-153h-539v-611q74 90 189 139.5t258 49.5h31v-156h-31q-204 0 -325.5 -108.5t-121.5 -292.5v-45h539v-154q-143 -75 -143 -154q0 -63 82 -63h61z" />
    <glyph glyph-name="eogonek" unicode="&#x119;" horiz-adv-x="1142" 
d="M725 -217v-123h-70q-97 0 -155 48t-58 130t74 148q-186 23 -310 164t-124 333q0 135 66.5 251t181.5 184.5t250 68.5q207 0 346 -134t139 -339v-55h-823q4 -143 104 -238.5t234 -95.5q218 0 323 176h158q-21 -54 -51 -99t-60.5 -75t-70 -55.5t-71.5 -40.5t-73 -31
q-84 -32 -118.5 -69t-34.5 -70q0 -78 82 -78h61zM580 846q-115 0 -207.5 -72t-120.5 -184h651q-19 115 -109 185.5t-214 70.5z" />
    <glyph glyph-name="Ecaron" unicode="&#x11a;" horiz-adv-x="942" 
d="M856 154v-154h-702v1331h702v-153h-539v-617q154 193 447 193h31v-154h-31q-204 0 -325.5 -114.5t-121.5 -307.5v-24h539zM809 1782l-225 -324h-170l-228 324h166l148 -215l145 215h164z" />
    <glyph glyph-name="ecaron" unicode="&#x11b;" horiz-adv-x="1142" 
d="M1061 301q-57 -149 -185.5 -234t-295.5 -85q-136 0 -250.5 66t-181 181.5t-66.5 253.5q0 135 66.5 251t181.5 184.5t250 68.5q207 0 346 -134t139 -339v-55h-823q4 -143 104 -238.5t234 -95.5q218 0 323 176h158zM580 846q-115 0 -207.5 -72t-120.5 -184h651
q-19 115 -109 185.5t-214 70.5zM901 1421l-225 -323h-170l-227 323h165l148 -215l145 215h164z" />
    <glyph glyph-name="Gcircumflex" unicode="&#x11c;" horiz-adv-x="1568" 
d="M1300 0v266q-87 -135 -223.5 -209.5t-300.5 -74.5q-189 0 -347.5 91t-250.5 248.5t-92 344.5t92 344.5t250.5 248.5t347.5 91q244 0 431 -147t241 -380h-174q-51 167 -188.5 270t-309.5 103q-142 0 -262.5 -71t-190 -193t-69.5 -266q0 -108 41 -206.5t111 -169.5
t167 -113t203 -42q188 0 331 118.5t181 303.5h168v-557h-156zM934 1458l-148 215l-145 -215h-164l225 324h170l228 -324h-166z" />
    <glyph glyph-name="gcircumflex" unicode="&#x11d;" horiz-adv-x="1028" 
d="M965 -4q0 -135 -96.5 -219t-264.5 -84h-500v149h500q91 0 144 46t53 124q0 77 -53.5 122.5t-143.5 45.5h-117q-186 0 -309 115.5t-123 288.5q0 172 125.5 287.5t311.5 115.5q76 0 143 -18h369v-133l-201 8q121 -95 121 -260q0 -96 -43.5 -178.5t-120.5 -139.5
q97 -33 151 -103t54 -167zM770 584q0 117 -79.5 193.5t-198.5 76.5t-199 -77t-80 -193q0 -115 80 -193t199 -78q117 0 197.5 79t80.5 192zM649 1096l-147 215l-146 -215h-163l225 323h170l227 -323h-166z" />
    <glyph glyph-name="Gbreve" unicode="&#x11e;" horiz-adv-x="1568" 
d="M1300 0v266q-87 -135 -223.5 -209.5t-300.5 -74.5q-189 0 -347.5 91t-250.5 248.5t-92 344.5t92 344.5t250.5 248.5t347.5 91q244 0 431 -147t241 -380h-174q-51 167 -188.5 270t-309.5 103q-142 0 -262.5 -71t-190 -193t-69.5 -266q0 -108 41 -206.5t111 -169.5
t167 -113t203 -42q188 0 331 118.5t181 303.5h168v-557h-156zM788 1581q79 0 123.5 38.5t44.5 111.5v51h131v-51q0 -133 -81 -206t-218 -73q-139 0 -219 73t-80 206v51h132v-51q0 -73 43.5 -111.5t123.5 -38.5z" />
    <glyph glyph-name="gbreve" unicode="&#x11f;" horiz-adv-x="1028" 
d="M965 -4q0 -135 -96.5 -219t-264.5 -84h-500v149h500q91 0 144 46t53 124q0 77 -53.5 122.5t-143.5 45.5h-117q-186 0 -309 115.5t-123 288.5q0 172 125.5 287.5t311.5 115.5q76 0 143 -18h369v-133l-201 8q121 -95 121 -260q0 -96 -43.5 -178.5t-120.5 -139.5
q97 -33 151 -103t54 -167zM770 584q0 117 -79.5 193.5t-198.5 76.5t-199 -77t-80 -193q0 -115 80 -193t199 -78q117 0 197.5 79t80.5 192zM498 1221q79 0 123.5 38.5t44.5 110.5v51h131v-51q0 -133 -80.5 -205.5t-218.5 -72.5q-139 0 -219 72.5t-80 205.5v51h131v-51
q0 -73 44 -111t124 -38z" />
    <glyph glyph-name="Gdotaccent" unicode="&#x120;" horiz-adv-x="1568" 
d="M1300 0v266q-87 -135 -223.5 -209.5t-300.5 -74.5q-189 0 -347.5 91t-250.5 248.5t-92 344.5t92 344.5t250.5 248.5t347.5 91q244 0 431 -147t241 -380h-174q-51 167 -188.5 270t-309.5 103q-142 0 -262.5 -71t-190 -193t-69.5 -266q0 -108 41 -206.5t111 -169.5
t167 -113t203 -42q188 0 331 118.5t181 303.5h168v-557h-156zM788 1505q-51 0 -82.5 31.5t-31.5 81.5t31.5 81.5t82.5 31.5t83 -31.5t32 -81.5t-32 -81.5t-83 -31.5z" />
    <glyph glyph-name="gdotaccent" unicode="&#x121;" horiz-adv-x="1028" 
d="M965 -4q0 -135 -96.5 -219t-264.5 -84h-500v149h500q91 0 144 46t53 124q0 77 -53.5 122.5t-143.5 45.5h-117q-186 0 -309 115.5t-123 288.5q0 172 125.5 287.5t311.5 115.5q76 0 143 -18h369v-133l-201 8q121 -95 121 -260q0 -96 -43.5 -178.5t-120.5 -139.5
q97 -33 151 -103t54 -167zM770 584q0 117 -79.5 193.5t-198.5 76.5t-199 -77t-80 -193q0 -115 80 -193t199 -78q117 0 197.5 79t80.5 192zM494 1145q-51 0 -83 31t-32 81t32 81.5t83 31.5t82.5 -31.5t31.5 -81.5t-31.5 -81t-82.5 -31z" />
    <glyph glyph-name="Gcommaaccent" unicode="&#x122;" horiz-adv-x="1568" 
d="M1300 0v266q-87 -135 -223.5 -209.5t-300.5 -74.5q-189 0 -347.5 91t-250.5 248.5t-92 344.5t92 344.5t250.5 248.5t347.5 91q244 0 431 -147t241 -380h-174q-51 167 -188.5 270t-309.5 103q-142 0 -262.5 -71t-190 -193t-69.5 -266q0 -108 41 -206.5t111 -169.5
t167 -113t203 -42q188 0 331 118.5t181 303.5h168v-557h-156zM887 -229q0 -92 -86 -232h-109q41 79 60 142q-33 9 -53.5 34.5t-20.5 61.5q0 44 29 73t75 29t75.5 -29.5t29.5 -78.5z" />
    <glyph glyph-name="gcommaaccent" unicode="&#x123;" horiz-adv-x="1028" 
d="M965 -4q0 -135 -96.5 -219t-264.5 -84h-500v149h500q91 0 144 46t53 124q0 77 -53.5 122.5t-143.5 45.5h-117q-186 0 -309 115.5t-123 288.5q0 172 125.5 287.5t311.5 115.5q76 0 143 -18h369v-133l-201 8q121 -95 121 -260q0 -96 -43.5 -178.5t-120.5 -139.5
q97 -33 151 -103t54 -167zM770 584q0 117 -79.5 193.5t-198.5 76.5t-199 -77t-80 -193q0 -115 80 -193t199 -78q117 0 197.5 79t80.5 192zM598 1247q0 -44 -29 -73t-75 -29t-75.5 29.5t-29.5 78.5q0 92 86 232h109q-41 -79 -60 -142q33 -9 53.5 -34.5t20.5 -61.5z" />
    <glyph glyph-name="Hcircumflex" unicode="&#x124;" horiz-adv-x="1187" 
d="M317 63v-63h-163v1331h163v-809q84 122 226.5 191t326.5 75v543h164v-1331h-164v635h-10q-246 0 -394.5 -157t-148.5 -415zM739 1458l-147 215l-146 -215h-163l225 324h170l227 -324h-166z" />
    <glyph glyph-name="hcircumflex" unicode="&#x125;" horiz-adv-x="1040" 
d="M287 592v-592h-160v1331h160v-448q101 104 266 104q166 0 265.5 -105.5t99.5 -283.5v-598h-160v592q0 114 -64.5 183t-171.5 69t-171 -69t-64 -183zM604 1458l-147 215l-146 -215h-164l226 324h170l227 -324h-166z" />
    <glyph glyph-name="Hbar" unicode="&#x126;" horiz-adv-x="1249" 
d="M348 63v-63h-164v969h-174v147h174v215h164v-215h553v215h164v-215h174v-147h-174v-969h-164v635h-10q-246 0 -394.5 -157t-148.5 -415zM348 969v-447q84 122 226.5 191t326.5 75v181h-553z" />
    <glyph glyph-name="hbar" unicode="&#x127;" horiz-adv-x="1040" 
d="M287 551v-551h-160v1073h-168v135h168v123h160v-123h266v-135h-266v-231q101 104 266 104q166 0 265.5 -105.5t99.5 -283.5v-557h-160v551q0 114 -64.5 183t-171.5 69t-171 -69t-64 -183z" />
    <glyph glyph-name="Itilde" unicode="&#x128;" horiz-adv-x="471" 
d="M317 0h-163v1331h163v-1331zM-72 1458v131q0 94 44.5 146.5t123.5 52.5q49 0 88 -21.5t63 -52t43 -61.5t38 -52.5t39 -21.5q47 0 47 72v131h129v-131q0 -94 -44.5 -146.5t-123.5 -52.5q-49 0 -88 21.5t-63 52t-43 61.5t-38 52.5t-39 21.5q-47 0 -47 -72v-131h-129z" />
    <glyph glyph-name="itilde" unicode="&#x129;" horiz-adv-x="413" 
d="M127 969h160v-969h-160v969zM-96 1098v131q0 94 44 146t124 52q49 0 88 -21.5t62.5 -52t42.5 -61t38 -52t39 -21.5q47 0 47 71v131h129v-131q0 -94 -44 -146t-124 -52q-49 0 -88 21.5t-62.5 52t-42.5 61t-38 52t-39 21.5q-47 0 -47 -71v-131h-129z" />
    <glyph glyph-name="Imacron" unicode="&#x12a;" horiz-adv-x="471" 
d="M317 0h-163v1331h163v-1331zM-20 1669h512v-143h-512v143z" />
    <glyph glyph-name="imacron" unicode="&#x12b;" horiz-adv-x="413" 
d="M127 969h160v-969h-160v969zM-47 1331h512v-143h-512v143z" />
    <glyph glyph-name="Ibreve" unicode="&#x12c;" horiz-adv-x="471" 
d="M317 0h-163v1331h163v-1331zM236 1581q79 0 123 38.5t44 111.5v51h132v-51q0 -133 -81 -206t-218 -73q-139 0 -219 73t-80 206v51h131v-51q0 -73 44 -111.5t124 -38.5z" />
    <glyph glyph-name="ibreve" unicode="&#x12d;" horiz-adv-x="413" 
d="M127 969h160v-969h-160v969zM211 1221q79 0 123.5 38.5t44.5 110.5v51h131v-51q0 -133 -80.5 -205.5t-218.5 -72.5q-139 0 -219 72.5t-80 205.5v51h131v-51q0 -73 44 -111t124 -38z" />
    <glyph glyph-name="Iogonek" unicode="&#x12e;" horiz-adv-x="471" 
d="M317 -217v-123h-69q-97 0 -155 47.5t-58 126.5q0 100 119 178v1319h163v-1331q-143 -75 -143 -154q0 -63 82 -63h61z" />
    <glyph glyph-name="iogonek" unicode="&#x12f;" horiz-adv-x="413" 
d="M207 1130q-44 0 -74.5 29.5t-30.5 73.5t29.5 73t75.5 29t75 -29t29 -73q0 -45 -29.5 -74t-74.5 -29zM287 -217v-123h-70q-97 0 -155 47.5t-58 126.5q0 102 123 180v955h160v-969q-144 -75 -144 -154q0 -63 82 -63h62z" />
    <glyph glyph-name="Idotaccent" unicode="&#x130;" horiz-adv-x="471" 
d="M317 0h-163v1331h163v-1331zM236 1505q-51 0 -83 31.5t-32 81.5t32 81.5t83 31.5t82.5 -31.5t31.5 -81.5t-31.5 -81.5t-82.5 -31.5z" />
    <glyph glyph-name="dotlessi" unicode="&#x131;" horiz-adv-x="413" 
d="M127 969h160v-969h-160v969z" />
    <glyph glyph-name="IJ" unicode="&#x132;" horiz-adv-x="1089" 
d="M317 0h-163v1331h163v-1331zM954 383q0 -181 -106 -282t-297 -101h-49v154h49q115 0 177.5 58t62.5 171v795h-289v153h452v-948z" />
    <glyph glyph-name="ij" unicode="&#x133;" horiz-adv-x="790" 
d="M207 1130q-44 0 -74.5 29.5t-30.5 73.5t29.5 73t75.5 29t75 -29t29 -73q0 -45 -29.5 -74t-74.5 -29zM127 969h160v-969h-160v969zM584 1130q-46 0 -75.5 29.5t-29.5 73.5t29.5 73t75.5 29t75 -29t29 -73q0 -46 -29 -74.5t-75 -28.5zM504 969h160v-1000q0 -136 -75 -206
t-220 -70h-27v143h27q70 0 102.5 32t32.5 101v1000z" />
    <glyph glyph-name="Jcircumflex" unicode="&#x134;" horiz-adv-x="661" 
d="M526 383q0 -181 -106 -282t-297 -101h-49v154h49q115 0 177 58t62 171v795h-288v153h452v-948zM469 1458l-147 215l-146 -215h-164l226 324h170l227 -324h-166z" />
    <glyph glyph-name="jcircumflex" unicode="&#x135;" horiz-adv-x="413" 
d="M127 969h160v-1000q0 -136 -75 -206t-220 -70h-27v143h27q70 0 102.5 32t32.5 101v1000zM352 1098l-147 215l-146 -215h-163l225 323h170l227 -323h-166z" />
    <glyph glyph-name="Kcommaaccent" unicode="&#x136;" horiz-adv-x="1136" 
d="M317 158v-158h-163v1331h163v-823l537 823h184l-475 -729q20 4 43 4q203 0 328 -121t125 -317v-168h-164v158q0 129 -81 212t-208 83q-126 0 -207.5 -83t-81.5 -212zM715 -229q0 -92 -86 -232h-109q41 79 60 142q-33 9 -53.5 34.5t-20.5 61.5q0 44 29 73t75 29
t75.5 -29.5t29.5 -78.5z" />
    <glyph glyph-name="kcommaaccent" unicode="&#x137;" horiz-adv-x="1032" 
d="M287 145v-145h-160v1331h160v-848l432 486h190l-385 -430h15q192 0 301.5 -105.5t109.5 -290.5v-143h-159v143q0 120 -67.5 188t-184.5 68t-184.5 -68t-67.5 -186zM645 -229q0 -92 -86 -232h-108q38 74 59 142q-33 9 -53.5 34.5t-20.5 61.5q0 44 29.5 73t75.5 29
t75 -29.5t29 -78.5z" />
    <glyph glyph-name="Lacute" unicode="&#x139;" horiz-adv-x="876" 
d="M809 0h-655v1331h163v-1177h492v-154zM164 1458l143 324h176l-176 -324h-143z" />
    <glyph glyph-name="lacute" unicode="&#x13a;" horiz-adv-x="489" 
d="M438 0h-30q-295 0 -295 287v1044h159v-1040q0 -76 34 -112t106 -36h26v-143zM127 1458l143 324h176l-176 -324h-143z" />
    <glyph glyph-name="Lcommaaccent" unicode="&#x13b;" horiz-adv-x="876" 
d="M809 0h-655v1331h163v-1177h492v-154zM586 -229q0 -92 -86 -232h-109q41 79 60 142q-33 9 -53.5 34.5t-20.5 61.5q0 44 29 73t75 29t75.5 -29.5t29.5 -78.5z" />
    <glyph glyph-name="lcommaaccent" unicode="&#x13c;" horiz-adv-x="489" 
d="M438 0h-30q-295 0 -295 287v1044h159v-1040q0 -76 34 -112t106 -36h26v-143zM358 -229q0 -92 -86 -232h-108q38 74 59 142q-33 9 -53 34.5t-20 61.5q0 44 29 73t75 29t75 -29.5t29 -78.5z" />
    <glyph glyph-name="Lcaron" unicode="&#x13d;" horiz-adv-x="876" 
d="M809 0h-655v1331h163v-1177h492v-154zM647 928v403h162l-31 -403h-131z" />
    <glyph glyph-name="lcaron" unicode="&#x13e;" horiz-adv-x="684" 
d="M438 0h-30q-295 0 -295 287v1044h159v-1040q0 -76 34 -112t106 -36h26v-143zM457 928v403h161l-30 -403h-131z" />
    <glyph glyph-name="Ldot" unicode="&#x13f;" horiz-adv-x="935" 
d="M809 0h-655v1331h163v-1177h492v-154zM700 547q-44 0 -74 29t-30 73q0 45 29 74t75 29t75.5 -29.5t29.5 -73.5t-29.5 -73t-75.5 -29z" />
    <glyph glyph-name="ldot" unicode="&#x140;" horiz-adv-x="694" 
d="M438 0h-30q-295 0 -295 287v1044h159v-1040q0 -76 34 -112t106 -36h26v-143zM537 518q-44 0 -74.5 29.5t-30.5 73.5t29.5 73t75.5 29t75 -29t29 -73q0 -45 -29.5 -74t-74.5 -29z" />
    <glyph glyph-name="Lslash" unicode="&#x141;" horiz-adv-x="907" 
d="M840 154v-154h-656v453l-164 -82v164l164 81v715h164v-635l309 154v-164l-309 -154v-378h492z" />
    <glyph glyph-name="lslash" unicode="&#x142;" horiz-adv-x="557" 
d="M496 143v-143h-31q-295 0 -295 287v250l-139 -66v158l139 65v637h160v-563l166 78v-156l-166 -78v-321q0 -77 33.5 -112.5t105.5 -35.5h27z" />
    <glyph glyph-name="Nacute" unicode="&#x143;" horiz-adv-x="1187" 
d="M870 0v250q-343 315 -553 702v-952h-163v1331h153q114 -267 250 -477t313 -389v866h164v-1331h-164zM508 1458l143 324h176l-176 -324h-143z" />
    <glyph glyph-name="nacute" unicode="&#x144;" horiz-adv-x="1040" 
d="M287 592v-592h-160v969h149v-97q103 115 277 115q166 0 265.5 -105.5t99.5 -283.5v-598h-160v592q0 114 -64.5 183t-171.5 69t-171 -69t-64 -183zM446 1098l144 323h176l-176 -323h-144z" />
    <glyph glyph-name="Ncommaaccent" unicode="&#x145;" horiz-adv-x="1187" 
d="M870 0v250q-343 315 -553 702v-952h-163v1331h153q114 -267 250 -477t313 -389v866h164v-1331h-164zM700 -229q0 -92 -86 -232h-108q38 74 59 142q-33 9 -53 34.5t-20 61.5q0 44 29 73t75 29t75 -29.5t29 -78.5z" />
    <glyph glyph-name="ncommaaccent" unicode="&#x146;" horiz-adv-x="1040" 
d="M287 592v-592h-160v969h149v-97q103 115 277 115q166 0 265.5 -105.5t99.5 -283.5v-598h-160v592q0 114 -64.5 183t-171.5 69t-171 -69t-64 -183zM631 -229q0 -92 -86 -232h-109q41 79 60 142q-33 9 -53.5 34.5t-20.5 61.5q0 44 29 73t75 29t75.5 -29.5t29.5 -78.5z" />
    <glyph glyph-name="Ncaron" unicode="&#x147;" horiz-adv-x="1187" 
d="M870 0v250q-343 315 -553 702v-952h-163v1331h153q114 -267 250 -477t313 -389v866h164v-1331h-164zM901 1782l-225 -324h-170l-227 324h165l148 -215l145 215h164z" />
    <glyph glyph-name="ncaron" unicode="&#x148;" horiz-adv-x="1040" 
d="M287 592v-592h-160v969h149v-97q103 115 277 115q166 0 265.5 -105.5t99.5 -283.5v-598h-160v592q0 114 -64.5 183t-171.5 69t-171 -69t-64 -183zM834 1421l-226 -323h-170l-227 323h166l147 -215l146 215h164z" />
    <glyph glyph-name="Omacron" unicode="&#x14c;" horiz-adv-x="1552" 
d="M86 666q0 187 92 344.5t250.5 248.5t347.5 91t347.5 -91t250.5 -248.5t92 -344.5t-92 -344.5t-250.5 -248.5t-347.5 -91t-347.5 91t-250.5 248.5t-92 344.5zM254 666q0 -108 41 -206.5t111 -169.5t167 -113t203 -42t203 42t167 113t111 169.5t41 206.5q0 144 -69.5 266
t-190 193t-262.5 71t-262.5 -71t-190 -193t-69.5 -266zM520 1669h512v-143h-512v143z" />
    <glyph glyph-name="omacron" unicode="&#x14d;" horiz-adv-x="1187" 
d="M594 -18q-217 0 -364.5 144.5t-147.5 356.5q0 139 67 255t185 182.5t260 66.5t260 -66.5t185 -182.5t67 -255q0 -211 -148 -356t-364 -145zM594 842q-146 0 -249 -105.5t-103 -253.5t103 -252t249 -104t249 104t103 252t-103 253.5t-249 105.5zM338 1309h512v-144h-512
v144z" />
    <glyph glyph-name="Obreve" unicode="&#x14e;" horiz-adv-x="1552" 
d="M86 666q0 187 92 344.5t250.5 248.5t347.5 91t347.5 -91t250.5 -248.5t92 -344.5t-92 -344.5t-250.5 -248.5t-347.5 -91t-347.5 91t-250.5 248.5t-92 344.5zM254 666q0 -108 41 -206.5t111 -169.5t167 -113t203 -42t203 42t167 113t111 169.5t41 206.5q0 144 -69.5 266
t-190 193t-262.5 71t-262.5 -71t-190 -193t-69.5 -266zM776 1581q79 0 123.5 38.5t44.5 111.5v51h131v-51q0 -133 -81 -206t-218 -73q-139 0 -219 73t-80 206v51h131v-51q0 -73 44 -111.5t124 -38.5z" />
    <glyph glyph-name="obreve" unicode="&#x14f;" horiz-adv-x="1187" 
d="M594 -18q-217 0 -364.5 144.5t-147.5 356.5q0 139 67 255t185 182.5t260 66.5t260 -66.5t185 -182.5t67 -255q0 -211 -148 -356t-364 -145zM594 842q-146 0 -249 -105.5t-103 -253.5t103 -252t249 -104t249 104t103 252t-103 253.5t-249 105.5zM594 1221q79 0 123.5 38.5
t44.5 110.5v51h131v-51q0 -133 -80.5 -205.5t-218.5 -72.5q-139 0 -219 72.5t-80 205.5v51h131v-51q0 -73 44 -111t124 -38z" />
    <glyph glyph-name="Ohungarumlaut" unicode="&#x150;" horiz-adv-x="1552" 
d="M86 666q0 187 92 344.5t250.5 248.5t347.5 91t347.5 -91t250.5 -248.5t92 -344.5t-92 -344.5t-250.5 -248.5t-347.5 -91t-347.5 91t-250.5 248.5t-92 344.5zM254 666q0 -108 41 -206.5t111 -169.5t167 -113t203 -42t203 42t167 113t111 169.5t41 206.5q0 144 -69.5 266
t-190 193t-262.5 71t-262.5 -71t-190 -193t-69.5 -266zM844 1458l133 324h172l-162 -324h-143zM522 1458l113 324h162l-133 -324h-142z" />
    <glyph glyph-name="ohungarumlaut" unicode="&#x151;" horiz-adv-x="1187" 
d="M594 -18q-217 0 -364.5 144.5t-147.5 356.5q0 139 67 255t185 182.5t260 66.5t260 -66.5t185 -182.5t67 -255q0 -211 -148 -356t-364 -145zM594 842q-146 0 -249 -105.5t-103 -253.5t103 -252t249 -104t249 104t103 252t-103 253.5t-249 105.5zM662 1098l133 323h172
l-162 -323h-143zM340 1098l113 323h161l-133 -323h-141z" />
    <glyph glyph-name="OE" unicode="&#x152;" horiz-adv-x="1701" 
d="M86 666q0 191 94 343t262 237t379 85h795v-153h-539v-611q74 90 189 139.5t258 49.5h30v-156h-30q-204 0 -325.5 -108.5t-121.5 -292.5v-45h539v-154h-795q-211 0 -379 85.5t-262 237.5t-94 343zM776 154h137v1024h-137q-217 0 -369.5 -149.5t-152.5 -362.5t152.5 -362.5
t369.5 -149.5z" />
    <glyph glyph-name="oe" unicode="&#x153;" horiz-adv-x="2007" 
d="M1925 301q-57 -149 -185.5 -234t-295.5 -85q-133 0 -245 65.5t-177 179.5q-65 -114 -178.5 -179.5t-249.5 -65.5q-217 0 -364.5 144.5t-147.5 356.5q0 139 67 255t185 182.5t260 66.5q136 0 250.5 -66.5t179.5 -181.5q65 114 177.5 181t242.5 67q209 0 347 -134.5
t138 -338.5v-55h-823q4 -139 102.5 -236.5t235.5 -97.5q218 0 323 176h158zM1444 846q-116 0 -208 -73t-120 -183h651q-19 113 -108 184.5t-215 71.5zM594 127q146 0 249 104t103 252t-103 253.5t-249 105.5t-249 -105.5t-103 -253.5t103 -252t249 -104z" />
    <glyph glyph-name="Racute" unicode="&#x154;" horiz-adv-x="1150" 
d="M154 0v1331h389q215 0 347 -112t132 -295q0 -64 -14.5 -119t-38 -94.5t-60 -75t-72.5 -60t-83 -49.5q143 -39 226 -150t83 -270v-106h-164v96q0 134 -82 219.5t-209 85.5t-209 -85.5t-82 -219.5v-96h-163zM317 1178v-732q51 47 129.5 89.5t145 73t128.5 69t98 97.5
t36 140q0 120 -83.5 191.5t-221.5 71.5h-232zM459 1458l143 324h176l-176 -324h-143z" />
    <glyph glyph-name="racute" unicode="&#x155;" horiz-adv-x="665" 
d="M287 561v-561h-160v969h147v-113q101 131 301 131h25v-153h-47q-266 0 -266 -273zM276 1098l144 323h176l-176 -323h-144z" />
    <glyph glyph-name="Rcommaaccent" unicode="&#x156;" horiz-adv-x="1150" 
d="M154 0v1331h389q215 0 347 -112t132 -295q0 -64 -14.5 -119t-38 -94.5t-60 -75t-72.5 -60t-83 -49.5q143 -39 226 -150t83 -270v-106h-164v96q0 134 -82 219.5t-209 85.5t-209 -85.5t-82 -219.5v-96h-163zM317 1178v-732q51 47 129.5 89.5t145 73t128.5 69t98 97.5
t36 140q0 120 -83.5 191.5t-221.5 71.5h-232zM711 -229q0 -92 -86 -232h-109q38 74 59 142q-33 9 -53 34.5t-20 61.5q0 44 29 73t75 29t75.5 -29.5t29.5 -78.5z" />
    <glyph glyph-name="rcommaaccent" unicode="&#x157;" horiz-adv-x="665" 
d="M287 561v-561h-160v969h147v-113q101 131 301 131h25v-153h-47q-266 0 -266 -273zM309 -229q0 -92 -86 -232h-108q38 74 59 142q-33 9 -53.5 34.5t-20.5 61.5q0 44 29.5 73t75.5 29t75 -29.5t29 -78.5z" />
    <glyph glyph-name="Rcaron" unicode="&#x158;" horiz-adv-x="1150" 
d="M154 0v1331h389q215 0 347 -112t132 -295q0 -64 -14.5 -119t-38 -94.5t-60 -75t-72.5 -60t-83 -49.5q143 -39 226 -150t83 -270v-106h-164v96q0 134 -82 219.5t-209 85.5t-209 -85.5t-82 -219.5v-96h-163zM317 1178v-732q51 47 129.5 89.5t145 73t128.5 69t98 97.5
t36 140q0 120 -83.5 191.5t-221.5 71.5h-232zM846 1782l-225 -324h-170l-228 324h166l148 -215l145 215h164z" />
    <glyph glyph-name="rcaron" unicode="&#x159;" horiz-adv-x="665" 
d="M287 561v-561h-160v969h147v-113q101 131 301 131h25v-153h-47q-266 0 -266 -273zM647 1421l-225 -323h-170l-227 323h165l148 -215l145 215h164z" />
    <glyph glyph-name="Sacute" unicode="&#x15a;" horiz-adv-x="1003" 
d="M508 -18q-185 0 -310 109.5t-124 297.5h164q0 -111 76 -182.5t194 -71.5q111 0 180.5 60t69.5 157q0 52 -22.5 93t-60 68.5t-86.5 50.5t-103 43.5t-108 42.5t-103 53t-86.5 70t-60 97t-22.5 131q0 145 113.5 247t274.5 102q177 0 289 -106t112 -273h-164
q0 100 -66.5 162.5t-170.5 62.5q-91 0 -155.5 -57t-64.5 -138q0 -63 36 -109.5t93.5 -76t127 -56t139 -59t127 -74t93.5 -111.5t36 -163q0 -161 -118 -265.5t-300 -104.5zM428 1458l143 324h177l-177 -324h-143z" />
    <glyph glyph-name="sacute" unicode="&#x15b;" horiz-adv-x="845" 
d="M96 0v143h355q79 0 122 34.5t43 96.5q0 44 -29.5 74t-76.5 46.5t-104 31t-114 34t-104 48t-76.5 80.5t-29.5 125q0 112 81.5 184t215.5 72h348v-144h-348q-69 0 -104 -28.5t-35 -79.5q0 -37 23 -64t60.5 -42t85.5 -30t98 -27t98 -34.5t85.5 -51.5t60.5 -79t23 -115
q0 -123 -85.5 -198.5t-231.5 -75.5h-361zM346 1098l143 323h177l-177 -323h-143z" />
    <glyph glyph-name="Scircumflex" unicode="&#x15c;" horiz-adv-x="1003" 
d="M508 -18q-185 0 -310 109.5t-124 297.5h164q0 -111 76 -182.5t194 -71.5q111 0 180.5 60t69.5 157q0 52 -22.5 93t-60 68.5t-86.5 50.5t-103 43.5t-108 42.5t-103 53t-86.5 70t-60 97t-22.5 131q0 145 113.5 247t274.5 102q177 0 289 -106t112 -273h-164
q0 100 -66.5 162.5t-170.5 62.5q-91 0 -155.5 -57t-64.5 -138q0 -63 36 -109.5t93.5 -76t127 -56t139 -59t127 -74t93.5 -111.5t36 -163q0 -161 -118 -265.5t-300 -104.5zM649 1458l-147 215l-146 -215h-163l225 324h170l227 -324h-166z" />
    <glyph glyph-name="scircumflex" unicode="&#x15d;" horiz-adv-x="845" 
d="M96 0v143h355q79 0 122 34.5t43 96.5q0 44 -29.5 74t-76.5 46.5t-104 31t-114 34t-104 48t-76.5 80.5t-29.5 125q0 112 81.5 184t215.5 72h348v-144h-348q-69 0 -104 -28.5t-35 -79.5q0 -37 23 -64t60.5 -42t85.5 -30t98 -27t98 -34.5t85.5 -51.5t60.5 -79t23 -115
q0 -123 -85.5 -198.5t-231.5 -75.5h-361zM555 1098l-147 215l-146 -215h-164l226 323h170l227 -323h-166z" />
    <glyph glyph-name="Scedilla" unicode="&#x15e;" horiz-adv-x="1003" 
d="M926 352q0 -140 -93.5 -240.5t-242.5 -123.5v-267h-160l16 265q-164 18 -268.5 124.5t-103.5 278.5h164q0 -111 76 -182.5t194 -71.5q111 0 180.5 60t69.5 157q0 52 -22.5 93t-60 68.5t-86.5 50.5t-103 43.5t-108 42.5t-103 53t-86.5 70t-60 97t-22.5 131
q0 145 113.5 247t274.5 102q177 0 289 -106t112 -273h-164q0 100 -66.5 162.5t-170.5 62.5q-91 0 -155.5 -57t-64.5 -138q0 -63 36 -109.5t93.5 -76t127 -56t139 -59t127 -74t93.5 -111.5t36 -163z" />
    <glyph glyph-name="scedilla" unicode="&#x15f;" horiz-adv-x="845" 
d="M774 274q0 -115 -75.5 -189t-206.5 -83v-281h-160l16 279h-252v143h355q79 0 122 34.5t43 96.5q0 44 -29.5 74t-76.5 46.5t-104 31t-114 34t-104 48t-76.5 80.5t-29.5 125q0 112 81.5 184t215.5 72h348v-144h-348q-69 0 -104 -28.5t-35 -79.5q0 -37 23 -64t60.5 -42
t85.5 -30t98 -27t98 -34.5t85.5 -51.5t60.5 -79t23 -115z" />
    <glyph glyph-name="Scaron" unicode="&#x160;" horiz-adv-x="1003" 
d="M508 -18q-185 0 -310 109.5t-124 297.5h164q0 -111 76 -182.5t194 -71.5q111 0 180.5 60t69.5 157q0 52 -22.5 93t-60 68.5t-86.5 50.5t-103 43.5t-108 42.5t-103 53t-86.5 70t-60 97t-22.5 131q0 145 113.5 247t274.5 102q177 0 289 -106t112 -273h-164
q0 100 -66.5 162.5t-170.5 62.5q-91 0 -155.5 -57t-64.5 -138q0 -63 36 -109.5t93.5 -76t127 -56t139 -59t127 -74t93.5 -111.5t36 -163q0 -161 -118 -265.5t-300 -104.5zM815 1782l-225 -324h-170l-227 324h165l148 -215l145 215h164z" />
    <glyph glyph-name="scaron" unicode="&#x161;" horiz-adv-x="845" 
d="M96 0v143h355q79 0 122 34.5t43 96.5q0 44 -29.5 74t-76.5 46.5t-104 31t-114 34t-104 48t-76.5 80.5t-29.5 125q0 112 81.5 184t215.5 72h348v-144h-348q-69 0 -104 -28.5t-35 -79.5q0 -37 23 -64t60.5 -42t85.5 -30t98 -27t98 -34.5t85.5 -51.5t60.5 -79t23 -115
q0 -123 -85.5 -198.5t-231.5 -75.5h-361zM731 1421l-225 -323h-170l-227 323h165l148 -215l145 215h164z" />
    <glyph glyph-name="uni0162" unicode="&#x162;" horiz-adv-x="946" 
d="M895 1169q-198 23 -340 27v-1196h-164v1196q-142 -4 -340 -27v154q238 27 422 27q183 0 422 -27v-154zM575 -229q0 -92 -86 -232h-108q38 74 59 142q-33 9 -53 34.5t-20 61.5q0 44 29 73t75 29t75 -29.5t29 -78.5z" />
    <glyph glyph-name="uni0163" unicode="&#x163;" horiz-adv-x="665" 
d="M588 143v-143h-144q-164 0 -247.5 82.5t-83.5 243.5v872l157 41v-270h314v-144h-314v-499q0 -95 44 -139t135 -44h139zM434 -229q0 -92 -86 -232h-108q38 74 59 142q-33 9 -53.5 34.5t-20.5 61.5q0 44 29.5 73t75.5 29t75 -29.5t29 -78.5z" />
    <glyph glyph-name="Tcaron" unicode="&#x164;" horiz-adv-x="946" 
d="M895 1169q-198 23 -340 27v-1196h-164v1196q-142 -4 -340 -27v154q238 27 422 27q183 0 422 -27v-154zM788 1782l-225 -324h-170l-227 324h166l147 -215l146 215h163z" />
    <glyph glyph-name="tcaron" unicode="&#x165;" horiz-adv-x="665" 
d="M588 143v-143h-144q-164 0 -247.5 82.5t-83.5 243.5v872l157 41v-270h314v-144h-314v-499q0 -95 44 -139t135 -44h139zM426 1128v404h162l-31 -404h-131z" />
    <glyph glyph-name="Tbar" unicode="&#x166;" horiz-adv-x="946" 
d="M813 563h-258v-563h-164v563h-258v148h258v485q-142 -4 -340 -27v154q238 27 422 27q183 0 422 -27v-154q-198 23 -340 27v-485h258v-148z" />
    <glyph glyph-name="tbar" unicode="&#x167;" horiz-adv-x="706" 
d="M629 143v-143h-144q-164 0 -247.5 82.5t-83.5 243.5v104h-144v135h144v633l157 41v-270h314v-144h-314v-260h267v-135h-267v-104q0 -95 43.5 -139t134.5 -44h140z" />
    <glyph glyph-name="Utilde" unicode="&#x168;" horiz-adv-x="1132" 
d="M567 141q116 0 191.5 74t75.5 188v928h163v-928q0 -189 -119 -305t-311 -116q-194 0 -313 116t-119 305v928h164v-928q0 -114 75.5 -188t192.5 -74zM260 1458v131q0 94 44.5 146.5t123.5 52.5q49 0 88 -21.5t62.5 -52t42.5 -61.5t38 -52.5t39 -21.5q47 0 47 72v131h129
v-131q0 -94 -44 -146.5t-123 -52.5q-49 0 -88 21.5t-63 52t-43 61.5t-38 52.5t-39 21.5q-47 0 -47 -72v-131h-129z" />
    <glyph glyph-name="utilde" unicode="&#x169;" horiz-adv-x="1015" 
d="M123 969h160v-596q0 -114 60.5 -180t164.5 -66t164.5 66t60.5 180v596h160v-586q0 -187 -104.5 -294t-280.5 -107q-178 0 -281.5 106.5t-103.5 294.5v586zM201 1098v131q0 94 44 146t124 52q49 0 88 -21.5t62.5 -52t42.5 -61t38 -52t39 -21.5q47 0 47 71v131h129v-131
q0 -94 -44 -146t-124 -52q-49 0 -88 21.5t-62.5 52t-42.5 61t-38 52t-39 21.5q-47 0 -47 -71v-131h-129z" />
    <glyph glyph-name="Umacron" unicode="&#x16a;" horiz-adv-x="1132" 
d="M567 141q116 0 191.5 74t75.5 188v928h163v-928q0 -189 -119 -305t-311 -116q-194 0 -313 116t-119 305v928h164v-928q0 -114 75.5 -188t192.5 -74zM311 1669h512v-143h-512v143z" />
    <glyph glyph-name="umacron" unicode="&#x16b;" horiz-adv-x="1015" 
d="M123 969h160v-596q0 -114 60.5 -180t164.5 -66t164.5 66t60.5 180v596h160v-586q0 -187 -104.5 -294t-280.5 -107q-178 0 -281.5 106.5t-103.5 294.5v586zM252 1309h512v-144h-512v144z" />
    <glyph glyph-name="Ubreve" unicode="&#x16c;" horiz-adv-x="1132" 
d="M567 141q116 0 191.5 74t75.5 188v928h163v-928q0 -189 -119 -305t-311 -116q-194 0 -313 116t-119 305v928h164v-928q0 -114 75.5 -188t192.5 -74zM567 1581q79 0 123.5 38.5t44.5 111.5v51h131v-51q0 -133 -81 -206t-218 -73q-139 0 -219 73t-80 206v51h131v-51
q0 -73 44 -111.5t124 -38.5z" />
    <glyph glyph-name="ubreve" unicode="&#x16d;" horiz-adv-x="1015" 
d="M123 969h160v-596q0 -114 60.5 -180t164.5 -66t164.5 66t60.5 180v596h160v-586q0 -187 -104.5 -294t-280.5 -107q-178 0 -281.5 106.5t-103.5 294.5v586zM508 1221q79 0 123.5 38.5t44.5 110.5v51h131v-51q0 -133 -80.5 -205.5t-218.5 -72.5q-139 0 -219 72.5t-80 205.5
v51h131v-51q0 -73 44 -111t124 -38z" />
    <glyph glyph-name="Uring" unicode="&#x16e;" horiz-adv-x="1132" 
d="M567 141q116 0 191.5 74t75.5 188v928h163v-928q0 -189 -119 -305t-311 -116q-194 0 -313 116t-119 305v928h164v-928q0 -114 75.5 -188t192.5 -74zM567 1448q-105 0 -175 66t-70 165t70 165.5t175 66.5t175.5 -66.5t70.5 -165.5q0 -98 -70.5 -164.5t-175.5 -66.5z
M567 1571q52 0 82.5 29t30.5 79t-30.5 79.5t-82.5 29.5t-82 -29.5t-30 -79.5t30 -79t82 -29z" />
    <glyph glyph-name="uring" unicode="&#x16f;" horiz-adv-x="1015" 
d="M123 969h160v-596q0 -114 60.5 -180t164.5 -66t164.5 66t60.5 180v596h160v-586q0 -187 -104.5 -294t-280.5 -107q-178 0 -281.5 106.5t-103.5 294.5v586zM508 1087q-105 0 -175.5 66.5t-70.5 165.5q0 98 70.5 164.5t175.5 66.5t175.5 -66.5t70.5 -164.5
q0 -99 -70.5 -165.5t-175.5 -66.5zM508 1210q52 0 82.5 29.5t30.5 79.5t-30.5 79t-82.5 29t-82.5 -29t-30.5 -79t30.5 -79.5t82.5 -29.5z" />
    <glyph glyph-name="Uhungarumlaut" unicode="&#x170;" horiz-adv-x="1132" 
d="M567 141q116 0 191.5 74t75.5 188v928h163v-928q0 -189 -119 -305t-311 -116q-194 0 -313 116t-119 305v928h164v-928q0 -114 75.5 -188t192.5 -74zM635 1458l133 324h172l-162 -324h-143zM313 1458l113 324h162l-133 -324h-142z" />
    <glyph glyph-name="uhungarumlaut" unicode="&#x171;" horiz-adv-x="1015" 
d="M123 969h160v-596q0 -114 60.5 -180t164.5 -66t164.5 66t60.5 180v596h160v-586q0 -187 -104.5 -294t-280.5 -107q-178 0 -281.5 106.5t-103.5 294.5v586zM575 1098l134 323h172l-162 -323h-144zM254 1098l113 323h161l-133 -323h-141z" />
    <glyph glyph-name="Uogonek" unicode="&#x172;" horiz-adv-x="1132" 
d="M709 -217v-123h-70q-97 0 -155 47.5t-58 126.5q0 87 86 150q-171 17 -274 131t-103 288v928h164v-928q0 -114 75.5 -188t192.5 -74q116 0 191.5 74t75.5 188v928h163v-928q0 -268 -229 -380q-125 -60 -164 -93.5t-39 -72.5q0 -35 21 -54.5t61 -19.5h62z" />
    <glyph glyph-name="uogonek" unicode="&#x173;" horiz-adv-x="1015" 
d="M641 -217v-123h-70q-97 0 -155 47.5t-58 126.5q0 82 82 152q-149 20 -233 124t-84 273v586h160v-596q0 -114 60.5 -180t164.5 -66t164.5 66t60.5 180v596h160v-586q0 -153 -64 -244t-202 -153q-69 -31 -99 -61t-30 -68q0 -35 21 -54.5t61 -19.5h61z" />
    <glyph glyph-name="Wcircumflex" unicode="&#x174;" horiz-adv-x="1701" 
d="M774 0v207q-170 -207 -502 -207h-118v1331h163v-1169q220 6 338.5 131.5t118.5 351.5v686h164v-1169q212 7 308 108.5t124 343.5l82 717h168l-82 -717q-19 -169 -66.5 -285.5t-130 -190t-197 -106t-274.5 -32.5h-96zM999 1458l-147 215l-145 -215h-164l225 324h170
l227 -324h-166z" />
    <glyph glyph-name="wcircumflex" unicode="&#x175;" horiz-adv-x="1527" 
d="M127 0v969h160v-815h67q158 0 250 86q92 89 92 258v471h158v-815h45q161 0 238.5 69.5t97.5 233.5l61 512h160l-61 -512q-29 -239 -146 -348t-344 -109h-194v143q-36 -53 -109 -92q-102 -51 -289 -51h-186zM926 1098l-148 215l-145 -215h-164l225 323h170l228 -323h-166z
" />
    <glyph glyph-name="Ycircumflex" unicode="&#x176;" horiz-adv-x="1038" 
d="M997 1331l-358 -1331h-174l106 387q-238 17 -368.5 160.5t-130.5 390.5q0 154 63 393h162q-37 -138 -51.5 -223.5t-14.5 -169.5q0 -188 99 -290.5t284 -108.5l220 792h163zM717 1458l-148 215l-145 -215h-164l225 324h170l228 -324h-166z" />
    <glyph glyph-name="ycircumflex" unicode="&#x177;" horiz-adv-x="1011" 
d="M961 969l-353 -1276h-170l84 301q-197 25 -313.5 161.5t-116.5 358.5q0 208 64 455h161q-65 -277 -65 -455q0 -165 83.5 -263t227.5 -110l234 828h164zM705 1098l-148 215l-145 -215h-164l225 323h170l227 -323h-165z" />
    <glyph glyph-name="Ydieresis" unicode="&#x178;" horiz-adv-x="1038" 
d="M997 1331l-358 -1331h-174l106 387q-238 17 -368.5 160.5t-130.5 390.5q0 154 63 393h162q-37 -138 -51.5 -223.5t-14.5 -169.5q0 -188 99 -290.5t284 -108.5l220 792h163zM389 1505q-44 0 -74 29.5t-30 73.5t29 73t75 29t75.5 -29t29.5 -73t-29.5 -73.5t-75.5 -29.5z
M754 1505q-44 0 -74.5 29.5t-30.5 73.5t29.5 73t75.5 29t75 -29t29 -73t-29 -73.5t-75 -29.5z" />
    <glyph glyph-name="Zacute" unicode="&#x179;" horiz-adv-x="954" 
d="M893 154v-154h-821l571 1178h-571v153h821l-569 -1177h569zM358 1458l144 324h176l-176 -324h-144z" />
    <glyph glyph-name="zacute" unicode="&#x17a;" horiz-adv-x="843" 
d="M772 143v-143h-711l465 825h-463v144h715l-463 -826h457zM338 1098l143 323h176l-176 -323h-143z" />
    <glyph glyph-name="Zdotaccent" unicode="&#x17b;" horiz-adv-x="954" 
d="M893 154v-154h-821l571 1178h-571v153h821l-569 -1177h569zM475 1505q-51 0 -83 31.5t-32 81.5t32 81.5t83 31.5t83 -31.5t32 -81.5t-32 -81.5t-83 -31.5z" />
    <glyph glyph-name="zdotaccent" unicode="&#x17c;" horiz-adv-x="843" 
d="M772 143v-143h-711l465 825h-463v144h715l-463 -826h457zM440 1145q-51 0 -82.5 31t-31.5 81t31.5 81.5t82.5 31.5t83 -31.5t32 -81.5t-32 -81t-83 -31z" />
    <glyph glyph-name="Zcaron" unicode="&#x17d;" horiz-adv-x="954" 
d="M893 154v-154h-821l571 1178h-571v153h821l-569 -1177h569zM801 1782l-226 -324h-169l-228 324h166l148 -215l145 215h164z" />
    <glyph glyph-name="zcaron" unicode="&#x17e;" horiz-adv-x="843" 
d="M772 143v-143h-711l465 825h-463v144h715l-463 -826h457zM752 1421l-226 -323h-170l-227 323h166l147 -215l146 215h164z" />
    <glyph glyph-name="uni0218" unicode="&#x218;" horiz-adv-x="1003" 
d="M508 -18q-185 0 -310 109.5t-124 297.5h164q0 -111 76 -182.5t194 -71.5q111 0 180.5 60t69.5 157q0 52 -22.5 93t-60 68.5t-86.5 50.5t-103 43.5t-108 42.5t-103 53t-86.5 70t-60 97t-22.5 131q0 145 113.5 247t274.5 102q177 0 289 -106t112 -273h-164
q0 100 -66.5 162.5t-170.5 62.5q-91 0 -155.5 -57t-64.5 -138q0 -63 36 -109.5t93.5 -76t127 -56t139 -59t127 -74t93.5 -111.5t36 -163q0 -161 -118 -265.5t-300 -104.5zM621 -229q0 -92 -86 -232h-109q38 74 59 142q-33 9 -53 34.5t-20 61.5q0 44 29 73t75 29t75.5 -29.5
t29.5 -78.5z" />
    <glyph glyph-name="uni0219" unicode="&#x219;" horiz-adv-x="845" 
d="M96 0v143h355q79 0 122 34.5t43 96.5q0 44 -29.5 74t-76.5 46.5t-104 31t-114 34t-104 48t-76.5 80.5t-29.5 125q0 112 81.5 184t215.5 72h348v-144h-348q-69 0 -104 -28.5t-35 -79.5q0 -37 23 -64t60.5 -42t85.5 -30t98 -27t98 -34.5t85.5 -51.5t60.5 -79t23 -115
q0 -123 -85.5 -198.5t-231.5 -75.5h-361zM537 -229q0 -92 -86 -232h-109q38 74 59 142q-33 9 -53 34.5t-20 61.5q0 44 29 73t75 29t75.5 -29.5t29.5 -78.5z" />
    <glyph glyph-name="uni021A" unicode="&#x21a;" horiz-adv-x="946" 
d="M895 1169q-198 23 -340 27v-1196h-164v1196q-142 -4 -340 -27v154q238 27 422 27q183 0 422 -27v-154zM575 -229q0 -92 -86 -232h-108q38 74 59 142q-33 9 -53 34.5t-20 61.5q0 44 29 73t75 29t75 -29.5t29 -78.5z" />
    <glyph glyph-name="uni021B" unicode="&#x21b;" horiz-adv-x="665" 
d="M588 143v-143h-144q-164 0 -247.5 82.5t-83.5 243.5v872l157 41v-270h314v-144h-314v-499q0 -95 44 -139t135 -44h139zM434 -229q0 -92 -86 -232h-108q38 74 59 142q-33 9 -53.5 34.5t-20.5 61.5q0 44 29.5 73t75.5 29t75 -29.5t29 -78.5z" />
    <glyph glyph-name="dotlessj" unicode="&#x237;" horiz-adv-x="413" 
d="M127 969h160v-1000q0 -136 -75 -206t-220 -70h-27v143h27q70 0 102.5 32t32.5 101v1000z" />
    <glyph glyph-name="circumflex" unicode="&#x2c6;" horiz-adv-x="1064" 
d="M678 1098l-148 215l-145 -215h-164l225 323h170l228 -323h-166z" />
    <glyph glyph-name="caron" unicode="&#x2c7;" horiz-adv-x="1064" 
d="M844 1421l-226 -323h-169l-228 323h166l148 -215l145 215h164z" />
    <glyph glyph-name="breve" unicode="&#x2d8;" horiz-adv-x="1064" 
d="M532 1221q79 0 123.5 38.5t44.5 110.5v51h131v-51q0 -133 -80.5 -205.5t-218.5 -72.5q-139 0 -219 72.5t-80 205.5v51h132v-51q0 -73 43.5 -111t123.5 -38z" />
    <glyph glyph-name="dotaccent" unicode="&#x2d9;" horiz-adv-x="1064" 
d="M532 1145q-51 0 -82.5 31t-31.5 81t31.5 81.5t82.5 31.5t83 -31.5t32 -81.5t-32 -81t-83 -31z" />
    <glyph glyph-name="ring" unicode="&#x2da;" horiz-adv-x="1064" 
d="M532 1087q-105 0 -175 66.5t-70 165.5t70 165t175 66t175.5 -66.5t70.5 -164.5q0 -99 -70.5 -165.5t-175.5 -66.5zM532 1210q52 0 82.5 29.5t30.5 79.5t-30.5 79t-82.5 29t-82 -29t-30 -79t30 -79.5t82 -29.5z" />
    <glyph glyph-name="ogonek" unicode="&#x2db;" horiz-adv-x="1064" 
d="M721 -340h-70q-97 0 -155 47.5t-58 126.5q0 126 187 217l96 -51q-143 -75 -143 -154q0 -63 81 -63h62v-123z" />
    <glyph glyph-name="tilde" unicode="&#x2dc;" horiz-adv-x="1064" 
d="M225 1098v131q0 94 44 146t124 52q49 0 88 -21.5t63 -52t43 -61t38 -52t39 -21.5q47 0 47 71v131h129v-131q0 -94 -44 -146t-124 -52q-49 0 -88 21.5t-63 52t-43 61t-38 52t-39 21.5q-47 0 -47 -71v-131h-129z" />
    <glyph glyph-name="hungarumlaut" unicode="&#x2dd;" horiz-adv-x="1064" 
d="M600 1098l133 323h172l-162 -323h-143zM279 1098l112 323h162l-133 -323h-141z" />
    <glyph glyph-name="Wgrave" unicode="&#x1e80;" horiz-adv-x="1701" 
d="M774 0v207q-170 -207 -502 -207h-118v1331h163v-1169q220 6 338.5 131.5t118.5 351.5v686h164v-1169q212 7 308 108.5t124 343.5l82 717h168l-82 -717q-19 -169 -66.5 -285.5t-130 -190t-197 -106t-274.5 -32.5h-96zM922 1458h-144l-186 324h176z" />
    <glyph glyph-name="wgrave" unicode="&#x1e81;" horiz-adv-x="1527" 
d="M127 0v969h160v-815h67q158 0 250 86q92 89 92 258v471h158v-815h45q161 0 238.5 69.5t97.5 233.5l61 512h160l-61 -512q-29 -239 -146 -348t-344 -109h-194v143q-36 -53 -109 -92q-102 -51 -289 -51h-186zM838 1098h-144l-186 323h176z" />
    <glyph glyph-name="Wacute" unicode="&#x1e82;" horiz-adv-x="1701" 
d="M774 0v207q-170 -207 -502 -207h-118v1331h163v-1169q220 6 338.5 131.5t118.5 351.5v686h164v-1169q212 7 308 108.5t124 343.5l82 717h168l-82 -717q-19 -169 -66.5 -285.5t-130 -190t-197 -106t-274.5 -32.5h-96zM778 1458l144 324h176l-176 -324h-144z" />
    <glyph glyph-name="wacute" unicode="&#x1e83;" horiz-adv-x="1527" 
d="M127 0v969h160v-815h67q158 0 250 86q92 89 92 258v471h158v-815h45q161 0 238.5 69.5t97.5 233.5l61 512h160l-61 -512q-29 -239 -146 -348t-344 -109h-194v143q-36 -53 -109 -92q-102 -51 -289 -51h-186zM702 1098l144 323h176l-176 -323h-144z" />
    <glyph glyph-name="Wdieresis" unicode="&#x1e84;" horiz-adv-x="1701" 
d="M774 0v207q-170 -207 -502 -207h-118v1331h163v-1169q220 6 338.5 131.5t118.5 351.5v686h164v-1169q212 7 308 108.5t124 343.5l82 717h168l-82 -717q-19 -169 -66.5 -285.5t-130 -190t-197 -106t-274.5 -32.5h-96zM672 1505q-44 0 -74.5 29.5t-30.5 73.5t29.5 73
t75.5 29t75 -29t29 -73t-29 -73.5t-75 -29.5zM1036 1505q-44 0 -74 29.5t-30 73.5t29 73t75 29t75.5 -29t29.5 -73t-29.5 -73.5t-75.5 -29.5z" />
    <glyph glyph-name="wdieresis" unicode="&#x1e85;" horiz-adv-x="1527" 
d="M127 0v969h160v-815h67q158 0 250 86q92 89 92 258v471h158v-815h45q161 0 238.5 69.5t97.5 233.5l61 512h160l-61 -512q-29 -239 -146 -348t-344 -109h-194v143q-36 -53 -109 -92q-102 -51 -289 -51h-186zM596 1145q-44 0 -74 29t-30 73q0 45 29 74t75 29t75 -29t29 -74
q0 -44 -29 -73t-75 -29zM961 1145q-45 0 -75 29t-30 73t29.5 73.5t75.5 29.5q45 0 74.5 -29t29.5 -74q0 -44 -29 -73t-75 -29z" />
    <glyph glyph-name="Germandbls" unicode="&#x1e9e;" horiz-adv-x="1214" 
d="M299 913v-913h-164v913q0 186 120.5 302t313.5 116h457l-235 -504q168 -29 261 -135t93 -268q0 -198 -122.5 -311t-336.5 -113h-104v154h104q136 0 215.5 72.5t79.5 197.5t-84.5 197.5t-230.5 72.5h-103l232 484h-228q-118 0 -193 -74t-75 -191z" />
    <glyph glyph-name="Ygrave" unicode="&#x1ef2;" horiz-adv-x="1038" 
d="M997 1331l-358 -1331h-174l106 387q-238 17 -368.5 160.5t-130.5 390.5q0 154 63 393h162q-37 -138 -51.5 -223.5t-14.5 -169.5q0 -188 99 -290.5t284 -108.5l220 792h163zM639 1458h-143l-187 324h176z" />
    <glyph glyph-name="ygrave" unicode="&#x1ef3;" horiz-adv-x="1011" 
d="M961 969l-353 -1276h-170l84 301q-197 25 -313.5 161.5t-116.5 358.5q0 208 64 455h161q-65 -277 -65 -455q0 -165 83.5 -263t227.5 -110l234 828h164zM631 1098h-144l-186 323h176z" />
    <glyph glyph-name="endash" unicode="&#x2013;" horiz-adv-x="1064" 
d="M82 580h901v-150h-901v150z" />
    <glyph glyph-name="emdash" unicode="&#x2014;" horiz-adv-x="2088" 
d="M82 580h1925v-150h-1925v150z" />
    <glyph glyph-name="quoteleft" unicode="&#x2018;" horiz-adv-x="378" 
d="M301 1030q0 -44 -29 -73t-75 -29t-75.5 29.5t-29.5 76.5q0 83 96 297h111q-51 -134 -70 -203q32 -9 52 -36t20 -62z" />
    <glyph glyph-name="quoteright" unicode="&#x2019;" horiz-adv-x="378" 
d="M287 1243q0 -81 -97 -297h-110q51 134 70 203q-32 9 -52 36t-20 62q0 45 29 74t75 29t75.5 -30t29.5 -77z" />
    <glyph glyph-name="quotesinglbase" unicode="&#x201a;" horiz-adv-x="378" 
d="M287 80q0 -81 -97 -297h-110q47 122 70 203q-32 9 -52 36t-20 62q0 44 29 73t75 29t75.5 -29.5t29.5 -76.5z" />
    <glyph glyph-name="quotedblleft" unicode="&#x201c;" horiz-adv-x="710" 
d="M301 1030q0 -44 -29 -73t-75 -29t-75.5 29.5t-29.5 76.5q0 83 96 297h111q-51 -134 -70 -203q32 -9 52 -36t20 -62zM633 1030q0 -44 -29.5 -73t-75.5 -29t-75 29.5t-29 76.5q0 83 96 297h111q-51 -134 -70 -203q32 -9 52 -36t20 -62z" />
    <glyph glyph-name="quotedblright" unicode="&#x201d;" horiz-adv-x="710" 
d="M287 1243q0 -81 -97 -297h-110q51 134 70 203q-32 9 -52 36t-20 62q0 45 29 74t75 29t75.5 -30t29.5 -77zM618 1243q0 -83 -96 -297h-110q47 123 69 203q-32 9 -51.5 36t-19.5 62q0 45 29 74t75 29t75 -30t29 -77z" />
    <glyph glyph-name="quotedblbase" unicode="&#x201e;" horiz-adv-x="710" 
d="M287 80q0 -81 -97 -297h-110q47 122 70 203q-32 9 -52 36t-20 62q0 44 29 73t75 29t75.5 -29.5t29.5 -76.5zM618 80q0 -83 -96 -297h-110q44 113 69 203q-32 9 -51.5 36t-19.5 62q0 44 29 73t75 29t75 -29.5t29 -76.5z" />
    <glyph glyph-name="dagger" unicode="&#x2020;" horiz-adv-x="999" 
d="M584 -307h-168l10 1130l-375 -8v154l375 -8l-10 370h168l-9 -370l373 8v-154l-373 8z" />
    <glyph glyph-name="daggerdbl" unicode="&#x2021;" horiz-adv-x="999" 
d="M584 -307h-168l10 370l-375 -6v154l373 -8v620l-373 -8v154l375 -8l-10 370h168l-9 -370l373 8v-154l-370 8v-620l370 8v-154l-373 6z" />
    <glyph glyph-name="bullet" unicode="&#x2022;" horiz-adv-x="468" 
d="M233 756q67 0 110.5 -42.5t43.5 -105.5q0 -65 -43.5 -108t-110.5 -43q-65 0 -108 42.5t-43 106.5t43 107t108 43z" />
    <glyph glyph-name="ellipsis" unicode="&#x2026;" horiz-adv-x="1228" 
d="M197 -18q-45 0 -75 29t-30 73t29.5 73t75.5 29t75 -29t29 -73t-29 -73t-75 -29zM612 -18q-44 0 -74 29t-30 73t29 73t75 29t75.5 -29t29.5 -73t-29.5 -73t-75.5 -29zM1032 -18q-44 0 -74 29t-30 73t29 73t75 29t75.5 -29t29.5 -73t-29.5 -73t-75.5 -29z" />
    <glyph glyph-name="perthousand" unicode="&#x2030;" horiz-adv-x="2369" 
d="M387 731q-132 0 -223.5 90t-91.5 219t91.5 219.5t223.5 90.5q131 0 223 -90.5t92 -219.5t-92 -219t-223 -90zM360 0l723 1331h177l-723 -1331h-177zM387 1217q-72 0 -124 -52.5t-52 -124.5t52 -124t124 -52t123 52t51 124t-51 124.5t-123 52.5zM1982 -18
q-132 0 -223.5 90t-91.5 219t91.5 219t223.5 90q131 0 223.5 -90t92.5 -219t-92.5 -219t-223.5 -90zM1233 -18q-132 0 -223.5 90t-91.5 219t91.5 219t223.5 90q131 0 223 -90t92 -219t-92 -219t-223 -90zM1982 467q-72 0 -124 -52t-52 -124t52 -124t124 -52t123.5 52
t51.5 124t-51.5 124t-123.5 52zM1233 467q-72 0 -124 -52t-52 -124t52 -124t124 -52t123 52t51 124t-51 124t-123 52z" />
    <glyph glyph-name="guilsinglleft" unicode="&#x2039;" horiz-adv-x="546" 
d="M479 903l-250 -397l256 -406h-178l-256 402l256 401h172z" />
    <glyph glyph-name="guilsinglright" unicode="&#x203a;" horiz-adv-x="546" 
d="M496 502l-256 -402h-172l249 398l-256 405h179z" />
    <glyph glyph-name="fraction" unicode="&#x2044;" horiz-adv-x="550" 
d="M-172 0l723 1331h172l-723 -1331h-172z" />
    <glyph glyph-name="zerosuperior" unicode="&#x2070;" horiz-adv-x="909" 
d="M455 539q-175 0 -294.5 115.5t-119.5 285.5q0 169 120.5 285t293.5 116t293 -116t120 -285q0 -170 -119 -285.5t-294 -115.5zM455 686q107 0 181.5 74t74.5 180q0 104 -75 179t-181 75q-107 0 -181.5 -74t-74.5 -180q0 -104 75 -179t181 -75z" />
    <glyph glyph-name="foursuperior" unicode="&#x2074;" horiz-adv-x="684" 
d="M592 1143v-594h-150v74q0 52 -20.5 87.5t-53 54.5t-72 34.5t-79 35t-72 48t-53 82t-20.5 129.5v237h149v-237q0 -42 12.5 -71.5t37.5 -47.5t49 -29t61.5 -25.5t60.5 -27.5v250h150z" />
    <glyph glyph-name="fivesuperior" unicode="&#x2075;" horiz-adv-x="686" 
d="M635 795q0 -108 -80 -182t-201 -74q-128 0 -210.5 77t-82.5 201h150q0 -61 38 -100t105 -39q56 0 91.5 33.5t35.5 85.5q0 46 -35 77.5t-98 40.5l-256 35l78 381h389v-143h-272l-25 -119l107 -14q130 -17 198 -84.5t68 -175.5z" />
    <glyph glyph-name="sixsuperior" unicode="&#x2076;" horiz-adv-x="698" 
d="M354 539q-129 0 -216 81.5t-87 202.5q0 51 18.5 100.5t46.5 87.5t61.5 79t62.5 76t51 78.5t26 86.5h154q-6 -49 -27 -95t-41.5 -73.5t-58.5 -70.5q135 3 224 -73t89 -196q0 -121 -87 -202.5t-216 -81.5zM354 678q64 0 109 42.5t45 102.5t-45 103t-109 43
q-61 0 -107 -43.5t-46 -102.5q0 -60 44.5 -102.5t108.5 -42.5z" />
    <glyph glyph-name="sevensuperior" unicode="&#x2077;" horiz-adv-x="626" 
d="M586 1331q-116 -246 -163.5 -406.5t-62.5 -375.5h-153q13 187 50.5 332t111.5 307h-318v143h535z" />
    <glyph glyph-name="eightsuperior" unicode="&#x2078;" horiz-adv-x="690" 
d="M649 791q0 -106 -88 -179t-217 -73t-216 72.5t-87 179.5q0 72 43 130t117 87q-80 54 -80 145q0 83 62.5 135.5t160.5 52.5q99 0 162 -52.5t63 -135.5q0 -91 -80 -145q74 -30 117 -87t43 -130zM344 1227q-39 0 -64.5 -23t-25.5 -57q0 -35 26 -58.5t64 -23.5
q39 0 65.5 23.5t26.5 58.5t-26 57.5t-66 22.5zM344 678q65 0 107.5 34.5t42.5 86.5q0 56 -42 91.5t-108 35.5t-106.5 -35.5t-40.5 -91.5q0 -53 41.5 -87t105.5 -34z" />
    <glyph glyph-name="ninesuperior" unicode="&#x2079;" horiz-adv-x="698" 
d="M344 1341q129 0 216 -81.5t87 -202.5q0 -51 -18.5 -100.5t-46.5 -87.5t-61.5 -79t-62.5 -76t-51 -78.5t-26 -86.5h-154q6 49 27 95t41.5 73.5t58.5 70.5q-135 -3 -224 73t-89 196q0 121 87 202.5t216 81.5zM344 1202q-64 0 -109 -42.5t-45 -102.5t45 -103t109 -43
q62 0 108 44t46 102q0 60 -45 102.5t-109 42.5z" />
    <glyph glyph-name="zeroinferior" unicode="&#x2080;" horiz-adv-x="909" 
d="M455 -8q-175 0 -294.5 115.5t-119.5 285.5q0 169 120.5 285.5t293.5 116.5t293 -116.5t120 -285.5q0 -170 -119 -285.5t-294 -115.5zM455 139q107 0 181.5 74t74.5 180q0 104 -75 179t-181 75q-107 0 -181.5 -74t-74.5 -180q0 -104 75 -179t181 -75z" />
    <glyph glyph-name="oneinferior" unicode="&#x2081;" horiz-adv-x="460" 
d="M348 799v-799h-149v575q-76 -27 -179 -36v143q196 27 328 117z" />
    <glyph glyph-name="twoinferior" unicode="&#x2082;" horiz-adv-x="665" 
d="M604 143v-143h-563l324 381q48 55 66 91t18 71q0 47 -35 80.5t-84 33.5t-84 -33.5t-35 -80.5q0 -60 49 -103l-88 -102q-106 87 -106 209q0 103 76 174.5t188 71.5t188 -71.5t76 -174.5q0 -60 -22 -110t-78 -115l-152 -179h262z" />
    <glyph glyph-name="threeinferior" unicode="&#x2083;" horiz-adv-x="677" 
d="M637 256q0 -115 -85 -190.5t-210 -75.5q-130 0 -215.5 82.5t-85.5 212.5h149q0 -69 42.5 -112.5t109.5 -43.5q64 0 104.5 36t40.5 91q0 47 -38.5 79t-102.5 32h-51v143h51q22 0 62 -4q20 33 20 65q0 34 -27 58t-67 24q-41 0 -68.5 -26.5t-27.5 -65.5h-150
q0 101 68.5 166.5t177.5 65.5q105 0 174.5 -60.5t69.5 -152.5q0 -70 -43 -125q102 -70 102 -199z" />
    <glyph glyph-name="fourinferior" unicode="&#x2084;" horiz-adv-x="684" 
d="M592 594v-594h-150v74q0 52 -20.5 87.5t-53 54.5t-72 34.5t-79 35t-72 48t-53 82t-20.5 129.5v237h149v-237q0 -42 12.5 -71.5t37.5 -47.5t49 -29t61.5 -25.5t60.5 -27.5v250h150z" />
    <glyph glyph-name="fiveinferior" unicode="&#x2085;" horiz-adv-x="686" 
d="M635 246q0 -108 -80 -182t-201 -74q-128 0 -210.5 77t-82.5 201h150q0 -61 38 -100t105 -39q56 0 91.5 33.5t35.5 85.5q0 46 -35.5 78t-97.5 41l-256 34l78 381h389v-143h-272l-25 -119l107 -14q130 -17 198 -84.5t68 -175.5z" />
    <glyph glyph-name="sixinferior" unicode="&#x2086;" horiz-adv-x="698" 
d="M354 -10q-129 0 -216 81.5t-87 202.5q0 51 18.5 100.5t46.5 87.5t61.5 79t62.5 76t51 78.5t26 86.5h154q-6 -49 -27 -95t-41.5 -73.5t-58.5 -70.5q135 3 224 -73t89 -196q0 -121 -87 -202.5t-216 -81.5zM354 129q64 0 109 42.5t45 102.5t-45 103t-109 43
q-61 0 -107 -43.5t-46 -102.5q0 -60 44.5 -102.5t108.5 -42.5z" />
    <glyph glyph-name="seveninferior" unicode="&#x2087;" horiz-adv-x="626" 
d="M586 782q-116 -246 -163.5 -406.5t-62.5 -375.5h-153q13 187 50.5 332t111.5 307h-318v143h535z" />
    <glyph glyph-name="eightinferior" unicode="&#x2088;" horiz-adv-x="690" 
d="M649 242q0 -106 -88 -179t-217 -73t-216 72.5t-87 179.5q0 72 43 130t117 87q-80 54 -80 145q0 83 62.5 136t160.5 53t161.5 -53t63.5 -136q0 -91 -80 -145q74 -30 117 -87t43 -130zM344 678q-39 0 -64.5 -23t-25.5 -57q0 -35 26 -58.5t64 -23.5q39 0 65.5 23.5
t26.5 58.5t-26 57.5t-66 22.5zM344 129q65 0 107.5 34.5t42.5 86.5q0 56 -42 91.5t-108 35.5t-106.5 -35.5t-40.5 -91.5q0 -53 41.5 -87t105.5 -34z" />
    <glyph glyph-name="nineinferior" unicode="&#x2089;" horiz-adv-x="698" 
d="M344 793q129 0 216 -82t87 -203q0 -51 -18.5 -100.5t-46.5 -87.5t-61.5 -79t-62.5 -76t-51 -78.5t-26 -86.5h-154q6 49 27 95t42 74t58 71q-135 -3 -224 72.5t-89 195.5q0 121 87 203t216 82zM344 653q-64 0 -109 -42.5t-45 -102.5t45 -103t109 -43q62 0 108 44t46 102
q0 60 -45 102.5t-109 42.5z" />
    <glyph glyph-name="Euro" unicode="&#x20ac;" horiz-adv-x="1021" 
d="M950 154v-154h-104q-217 0 -390 123t-241 319h-188v140h155q-6 40 -6 84t6 84h-155v139h188q68 196 241 319t390 123h104v-153h-104q-150 0 -271 -79t-182 -210h414v-139h-457q-6 -40 -6 -84t6 -84h457v-140h-414q61 -130 181.5 -209t271.5 -79h104z" />
    <glyph glyph-name="uni20B9" unicode="&#x20b9;" horiz-adv-x="927" 
d="M877 829h-187q-19 -137 -116 -230.5t-252 -119.5l450 -479h-213l-446 471v143h61q150 0 239.5 56t110.5 159h-411v144h409q-25 101 -114.5 158t-233.5 57h-61v143h764v-143h-314q102 -85 123 -215h191v-144z" />
    <glyph glyph-name="numero" unicode="&#x2116;" horiz-adv-x="1843" 
d="M1485 760q-124 0 -210.5 84.5t-86.5 206.5t86.5 206t210.5 84t210.5 -84t86.5 -206t-86.5 -206.5t-210.5 -84.5zM870 0v250q-343 315 -553 702v-952h-163v1331h153q114 -267 250 -477t313 -389v866h164v-1331h-164zM1485 891q66 0 111.5 45.5t45.5 114.5
q0 72 -45.5 115.5t-111.5 43.5q-65 0 -111.5 -44t-46.5 -115q0 -69 46.5 -114.5t111.5 -45.5zM1210 459v143h547v-143h-547z" />
    <glyph glyph-name="trademark" unicode="&#x2122;" horiz-adv-x="1603" 
d="M555 1210h-188v-661h-138v661h-188v121h514v-121zM1008 975q0 101 -56 161t-157 66v-653h-131v782h65q116 0 207 -43t137 -119q46 76 136 119t206 43h66v-782h-131v653q-100 -6 -155.5 -66t-55.5 -161v-180h-131v180z" />
    <glyph glyph-name="estimated" unicode="&#x212e;" horiz-adv-x="1499" 
d="M1376 526h-1016q-8 0 -8 -6v-307q0 -22 15 -37q76 -76 175.5 -120t209.5 -44q120 0 224 49t179 136h90q-87 -101 -217 -160.5t-278 -59.5q-170 0 -314.5 75.5t-228.5 205.5t-84 283q0 154 84 284.5t228.5 206.5t314.5 76t314.5 -76t228 -206.5t83.5 -284.5v-15zM1147 565
v309q0 22 -17 39q-157 160 -378 160q-217 0 -383 -166q-17 -17 -17 -39v-303q0 -8 8 -8h781q6 0 6 8z" />
    <glyph glyph-name="oneseventh" unicode="&#x2150;" horiz-adv-x="1540" 
d="M348 1348v-799h-149v575q-80 -28 -179 -37v144q196 27 328 117zM238 0l723 1331h172l-723 -1331h-172zM1499 782q-116 -245 -163 -405.5t-62 -376.5h-154q13 187 50.5 332t111.5 307h-317v143h534z" />
    <glyph glyph-name="oneninth" unicode="&#x2151;" horiz-adv-x="1568" 
d="M348 1348v-799h-149v575q-80 -28 -179 -37v144q196 27 328 117zM238 0l723 1331h172l-723 -1331h-172zM1214 793q129 0 216.5 -82t87.5 -203q0 -51 -18.5 -100.5t-46.5 -87.5t-61.5 -79t-63 -76t-51.5 -78.5t-26 -86.5h-153q6 49 27 95t42 74t58 71q-135 -3 -224.5 72.5
t-89.5 195.5q0 121 87 203t216 82zM1214 653q-64 0 -108.5 -42.5t-44.5 -102.5t44.5 -103t108.5 -43q62 0 108 44t46 102q0 60 -45 102.5t-109 42.5z" />
    <glyph glyph-name="onethird" unicode="&#x2153;" horiz-adv-x="1533" 
d="M348 1348v-799h-149v575q-80 -28 -179 -37v144q196 27 328 117zM238 0l723 1331h172l-723 -1331h-172zM1493 256q0 -115 -85 -190.5t-210 -75.5q-130 0 -215.5 82.5t-85.5 212.5h150q0 -69 42 -112.5t109 -43.5q64 0 104.5 36t40.5 91q0 47 -38.5 79t-102.5 32h-51v143
h51q22 0 62 -4q20 33 20 65q0 34 -27 58t-67 24q-41 0 -68.5 -26.5t-27.5 -65.5h-150q0 101 68.5 166.5t177.5 65.5q105 0 174.5 -60.5t69.5 -152.5q0 -70 -43 -125q102 -70 102 -199z" />
    <glyph glyph-name="twothirds" unicode="&#x2154;" horiz-adv-x="1767" 
d="M604 692v-143h-563l324 381q48 55 66 91t18 71q0 47 -35 80.5t-84 33.5t-84 -33.5t-35 -80.5q0 -60 49 -103l-88 -102q-106 87 -106 209q0 103 76 174t188 71t188 -71t76 -174q0 -60 -22 -110.5t-78 -115.5l-152 -178h262zM471 0l723 1331h172l-723 -1331h-172zM1726 256
q0 -115 -84.5 -190.5t-209.5 -75.5q-130 0 -216 83t-86 212h150q0 -69 42.5 -112.5t109.5 -43.5q64 0 104.5 36t40.5 91q0 47 -38.5 79t-102.5 32h-52v143h52q21 0 61 -4q21 35 21 65q0 34 -27.5 58t-67.5 24q-41 0 -68.5 -26.5t-27.5 -65.5h-149q0 101 68 166.5t177 65.5
q105 0 174.5 -60.5t69.5 -152.5q0 -70 -43 -125q102 -70 102 -199z" />
    <glyph glyph-name="onefifth" unicode="&#x2155;" horiz-adv-x="1546" 
d="M348 1348v-799h-149v575q-80 -28 -179 -37v144q196 27 328 117zM240 0l723 1331h172l-723 -1331h-172zM1495 246q0 -108 -80 -182t-201 -74q-128 0 -210 76.5t-82 201.5h149q0 -61 38 -100t105 -39q56 0 91.5 33.5t35.5 85.5q0 46 -35.5 78t-97.5 41l-256 34l78 381h389
v-143h-272l-25 -119l107 -14q130 -17 198 -84.5t68 -175.5z" />
    <glyph glyph-name="twofifths" unicode="&#x2156;" horiz-adv-x="1767" 
d="M604 692v-143h-563l324 381q48 55 66 91t18 71q0 47 -35 80.5t-84 33.5t-84 -33.5t-35 -80.5q0 -60 49 -103l-88 -102q-106 87 -106 209q0 103 76 174t188 71t188 -71t76 -174q0 -60 -22 -110.5t-78 -115.5l-152 -178h262zM471 0l723 1331h172l-723 -1331h-172zM1716 246
q0 -108 -79.5 -182t-200.5 -74q-128 0 -210.5 77t-82.5 201h149q0 -60 38.5 -99.5t105.5 -39.5q56 0 91.5 33.5t35.5 85.5q0 46 -35.5 78t-97.5 41l-256 34l77 381h389v-143h-272l-25 -119l107 -14q130 -17 198 -84.5t68 -175.5z" />
    <glyph glyph-name="threefifths" unicode="&#x2157;" horiz-adv-x="1740" 
d="M637 805q0 -115 -85 -190.5t-210 -75.5q-130 0 -215.5 82.5t-85.5 212.5h149q0 -69 42.5 -112.5t109.5 -43.5q64 0 104.5 36t40.5 91q0 47 -38.5 78.5t-102.5 31.5h-51v144h51q22 0 62 -4q20 33 20 65q0 34 -27 58t-67 24q-41 0 -68.5 -26.5t-27.5 -65.5h-150
q0 101 68.5 166t177.5 65q105 0 174.5 -60.5t69.5 -152.5q0 -69 -43 -124q102 -70 102 -199zM434 0l723 1331h172l-723 -1331h-172zM1690 246q0 -108 -80 -182t-201 -74q-128 0 -210.5 77t-82.5 201h150q0 -61 38 -100t105 -39q56 0 91.5 33.5t35.5 85.5q0 46 -35.5 78
t-97.5 41l-256 34l78 381h389v-143h-273l-24 -119l106 -14q130 -17 198.5 -84.5t68.5 -175.5z" />
    <glyph glyph-name="fourfifths" unicode="&#x2158;" horiz-adv-x="1779" 
d="M592 1143v-594h-150v74q0 52 -20.5 87.5t-53 54.5t-72 34.5t-79 35t-72 48t-53 82t-20.5 129.5v237h149v-237q0 -42 12.5 -71.5t37.5 -47.5t49 -29t61.5 -25.5t60.5 -27.5v250h150zM473 0l723 1331h172l-723 -1331h-172zM1729 246q0 -108 -80 -182t-201 -74
q-128 0 -210.5 77t-82.5 201h150q0 -61 38 -100t105 -39q56 0 91.5 33.5t35.5 85.5q0 46 -35.5 78t-97.5 41l-256 34l78 381h389v-143h-273l-24 -119l106 -14q130 -17 198.5 -84.5t68.5 -175.5z" />
    <glyph glyph-name="onesixth" unicode="&#x2159;" horiz-adv-x="1486" 
d="M348 1348v-799h-149v575q-80 -28 -179 -37v144q196 27 328 117zM240 0l723 1331h172l-723 -1331h-172zM1143 -10q-129 0 -216 81.5t-87 202.5q0 51 18.5 100.5t46.5 87.5t61.5 79t62.5 76t51 78.5t26 86.5h154q-6 -49 -27 -95t-41.5 -73.5t-58.5 -70.5q135 3 224 -73
t89 -196q0 -121 -87 -202.5t-216 -81.5zM1143 129q64 0 108.5 42.5t44.5 102.5t-44.5 103t-108.5 43q-62 0 -108 -44t-46 -102q0 -60 45 -102.5t109 -42.5z" />
    <glyph glyph-name="fivesixths" unicode="&#x215a;" horiz-adv-x="1675" 
d="M635 795q0 -108 -80 -182t-201 -74q-128 0 -210.5 77t-82.5 201h150q0 -61 38 -100t105 -39q56 0 91.5 33.5t35.5 85.5q0 46 -35 77.5t-98 40.5l-256 35l78 381h389v-143h-272l-25 -119l107 -14q130 -17 198 -84.5t68 -175.5zM428 0l723 1331h172l-723 -1331h-172z
M1331 -10q-129 0 -216 81.5t-87 202.5q0 51 18.5 100.5t46.5 87.5t61.5 79t62.5 76t51 78.5t26 86.5h154q-6 -49 -27 -95t-41.5 -73.5t-58.5 -70.5q135 3 224 -73t89 -196q0 -121 -87 -202.5t-216 -81.5zM1331 129q64 0 109 42.5t45 102.5t-45 103t-109 43q-61 0 -107 -43.5
t-46 -102.5q0 -60 44.5 -102.5t108.5 -42.5z" />
    <glyph glyph-name="oneeighth" unicode="&#x215b;" horiz-adv-x="1513" 
d="M348 1348v-799h-149v575q-80 -28 -179 -37v144q196 27 328 117zM238 0l723 1331h172l-723 -1331h-172zM1473 240q0 -106 -88.5 -179t-217.5 -73t-216 72.5t-87 179.5q0 72 43 130t117 87q-80 54 -80 145q0 83 62.5 136t160.5 53q99 0 162.5 -53t63.5 -136q0 -91 -80 -145
q74 -30 117 -87t43 -130zM1167 676q-39 0 -64.5 -23t-25.5 -57q0 -35 26 -58.5t64 -23.5q39 0 66 23.5t27 58.5t-26.5 57.5t-66.5 22.5zM1167 127q65 0 107.5 34.5t42.5 86.5q0 56 -42 91.5t-108 35.5t-106.5 -35.5t-40.5 -91.5q0 -53 41.5 -87t105.5 -34z" />
    <glyph glyph-name="threeeighths" unicode="&#x215c;" horiz-adv-x="1710" 
d="M637 805q0 -115 -85 -190.5t-210 -75.5q-130 0 -215.5 82.5t-85.5 212.5h149q0 -69 42.5 -112.5t109.5 -43.5q64 0 104.5 36t40.5 91q0 47 -38.5 78.5t-102.5 31.5h-51v144h51q22 0 62 -4q20 33 20 65q0 34 -27 58t-67 24q-41 0 -68.5 -26.5t-27.5 -65.5h-150
q0 101 68.5 166t177.5 65q105 0 174.5 -60.5t69.5 -152.5q0 -69 -43 -124q102 -70 102 -199zM434 0l723 1331h172l-723 -1331h-172zM1669 242q0 -106 -88 -179t-217 -73t-216 72.5t-87 179.5q0 72 43 130t117 87q-80 54 -80 145q0 83 62.5 136t160.5 53t161.5 -53t63.5 -136
q0 -91 -80 -145q74 -30 117 -87t43 -130zM1364 678q-39 0 -64.5 -23t-25.5 -57q0 -35 26 -58.5t64 -23.5q39 0 65.5 23.5t26.5 58.5t-26 57.5t-66 22.5zM1364 129q65 0 107 34.5t42 86.5q0 56 -41.5 91.5t-107.5 35.5t-106.5 -35.5t-40.5 -91.5q0 -53 41.5 -87t105.5 -34z
" />
    <glyph glyph-name="fiveeighths" unicode="&#x215d;" horiz-adv-x="1703" 
d="M635 795q0 -108 -80 -182t-201 -74q-128 0 -210.5 77t-82.5 201h150q0 -61 38 -100t105 -39q56 0 91.5 33.5t35.5 85.5q0 46 -35 77.5t-98 40.5l-256 35l78 381h389v-143h-272l-25 -119l107 -14q130 -17 198 -84.5t68 -175.5zM428 0l723 1331h172l-723 -1331h-172z
M1663 242q0 -106 -88 -179t-217 -73t-216 72.5t-87 179.5q0 72 42.5 130t116.5 87q-79 53 -79 145q0 83 62.5 136t160.5 53t161.5 -53t63.5 -136q0 -91 -80 -145q74 -30 117 -87t43 -130zM1358 678q-39 0 -64.5 -23t-25.5 -57q0 -35 26 -58.5t64 -23.5q39 0 65.5 23.5
t26.5 58.5t-26 57.5t-66 22.5zM1358 129q65 0 107 34.5t42 86.5q0 56 -41.5 91.5t-107.5 35.5t-107 -35.5t-41 -91.5q0 -53 42 -87t106 -34z" />
    <glyph glyph-name="seveneighths" unicode="&#x215e;" horiz-adv-x="1542" 
d="M586 1331q-116 -246 -163.5 -406.5t-62.5 -375.5h-153q13 187 50.5 332t111.5 307h-318v143h535zM268 0l723 1331h172l-723 -1331h-172zM1503 242q0 -106 -88 -179t-217 -73t-216 72.5t-87 179.5q0 72 43 130t117 87q-80 54 -80 145q0 83 62.5 136t160.5 53t161.5 -53
t63.5 -136q0 -91 -80 -145q74 -30 117 -87t43 -130zM1198 678q-39 0 -64.5 -23t-25.5 -57q0 -35 26 -58.5t64 -23.5q39 0 65.5 23.5t26.5 58.5t-26 57.5t-66 22.5zM1198 129q65 0 107.5 34.5t42.5 86.5q0 56 -42 91.5t-108 35.5t-106.5 -35.5t-40.5 -91.5q0 -53 41.5 -87
t105.5 -34z" />
    <glyph glyph-name="arrowleft" unicode="&#x2190;" horiz-adv-x="1271" 
d="M1202 410l-940 6l268 -367h-159l-324 436l324 437h159l-268 -369l940 6v-149z" />
    <glyph glyph-name="arrowup" unicode="&#x2191;" horiz-adv-x="1009" 
d="M940 672l-365 268l7 -940h-156l6 940l-364 -268v153l436 324l436 -324v-153z" />
    <glyph glyph-name="arrowright" unicode="&#x2192;" horiz-adv-x="1271" 
d="M1223 485l-322 -436h-160l269 367l-942 -6v149l942 -6l-269 369h160z" />
    <glyph glyph-name="arrowdown" unicode="&#x2193;" horiz-adv-x="1009" 
d="M940 143l-436 -321l-436 321v154l364 -268l-6 940h156l-7 -940l365 268v-154z" />
    <glyph glyph-name="uni2194" unicode="&#x2194;" horiz-adv-x="1357" 
d="M678 414l-416 2l268 -367h-159l-324 436l324 437h159l-268 -367l416 2l418 -2l-269 367h160l322 -437l-322 -436h-160l269 367z" />
    <glyph glyph-name="uni2195" unicode="&#x2195;" horiz-adv-x="1009" 
d="M940 195l-436 -324l-436 324v153l366 -268l-4 407l2 408l-364 -266v153l436 322l436 -322v-153l-362 266l2 -408l-5 -407l365 268v-153z" />
    <glyph glyph-name="uni2196" unicode="&#x2196;" horiz-adv-x="1118" 
d="M1057 98l-107 -106l-731 764l6 -529l-123 129v613h594l123 -123l-497 6z" />
    <glyph glyph-name="uni2197" unicode="&#x2197;" horiz-adv-x="1118" 
d="M893 227l4 529l-729 -764l-107 106l734 754l-496 -6l123 123h594v-613z" />
    <glyph glyph-name="uni2198" unicode="&#x2198;" horiz-adv-x="1118" 
d="M1016 612v-612h-594l-123 123l496 -6l-734 753l107 107l729 -764l-4 528z" />
    <glyph glyph-name="uni2199" unicode="&#x2199;" horiz-adv-x="1118" 
d="M819 123l-123 -123h-594v612l123 129l-6 -528l731 764l107 -107l-735 -753z" />
    <glyph glyph-name="minus" unicode="&#x2212;" horiz-adv-x="983" 
d="M102 717h779v-131h-779v131z" />
    <glyph glyph-name="uni2215" unicode="&#x2215;" horiz-adv-x="550" 
d="M-172 0l723 1331h172l-723 -1331h-172z" />
    <glyph glyph-name="approxequal" unicode="&#x2248;" horiz-adv-x="983" 
d="M707 903q94 0 174 41v-131q-87 -41 -174 -41q-83 0 -225 41t-206 41q-90 0 -174 -41v131q84 41 174 41q81 0 222.5 -41t208.5 -41zM707 449q95 0 174 40v-131q-87 -41 -174 -41q-83 0 -225 41t-206 41q-90 0 -174 -41v131q84 41 174 41q81 0 222.5 -40.5t208.5 -40.5z
" />
    <glyph glyph-name="notequal" unicode="&#x2260;" horiz-adv-x="983" 
d="M881 358h-428l-76 -208h-137l75 208h-213v131h263l118 324h-381v129h428l78 213h137l-77 -213h213v-129h-260l-119 -324h379v-131z" />
    <glyph glyph-name="lessequal" unicode="&#x2264;" horiz-adv-x="983" 
d="M840 469v-156l-717 291v174l717 312v-154l-586 -244zM123 123h717v-123h-717v123z" />
    <glyph glyph-name="greaterequal" unicode="&#x2265;" horiz-adv-x="983" 
d="M860 625l-717 -312v154l586 244l-586 223v156l717 -291v-174zM143 0v123h717v-123h-717z" />
    <glyph glyph-name="uni2780" unicode="&#x2780;" horiz-adv-x="1691" 
d="M846 -86q-157 0 -298 59t-242 159t-160.5 239.5t-59.5 294.5t59.5 294t160.5 239.5t242 159t298 58.5t298 -58.5t242 -159t160.5 -239.5t59.5 -294t-59.5 -294.5t-160.5 -239.5t-242 -159t-298 -59zM846 1270q-166 0 -303.5 -79.5t-217 -218.5t-79.5 -306t79.5 -306
t217 -219t303.5 -80t303.5 80t217 219t79.5 306t-79.5 306t-217 218.5t-303.5 79.5zM963 1073v-799h-150v576q-80 -28 -178 -37v143q196 27 328 117z" />
    <glyph glyph-name="uni2781" unicode="&#x2781;" horiz-adv-x="1691" 
d="M846 -86q-157 0 -298 59t-242 159t-160.5 239.5t-59.5 294.5t59.5 294t160.5 239.5t242 159t298 58.5t298 -58.5t242 -159t160.5 -239.5t59.5 -294t-59.5 -294.5t-160.5 -239.5t-242 -159t-298 -59zM846 1270q-166 0 -303.5 -79.5t-217 -218.5t-79.5 -306t79.5 -306
t217 -219t303.5 -80t303.5 80t217 219t79.5 306t-79.5 306t-217 218.5t-303.5 79.5zM1126 418v-144h-563l324 381q48 55 66 91t18 71q0 47 -35 81t-84 34t-84 -34t-35 -81q0 -59 49 -102l-88 -103q-106 87 -106 209q0 103 76 174.5t188 71.5t188 -71.5t76 -174.5
q0 -60 -22 -110t-78 -115l-152 -178h262z" />
    <glyph glyph-name="uni2782" unicode="&#x2782;" horiz-adv-x="1691" 
d="M846 -86q-157 0 -298 59t-242 159t-160.5 239.5t-59.5 294.5t59.5 294t160.5 239.5t242 159t298 58.5t298 -58.5t242 -159t160.5 -239.5t59.5 -294t-59.5 -294.5t-160.5 -239.5t-242 -159t-298 -59zM846 1270q-166 0 -303.5 -79.5t-217 -218.5t-79.5 -306t79.5 -306
t217 -219t303.5 -80t303.5 80t217 219t79.5 306t-79.5 306t-217 218.5t-303.5 79.5zM1149 530q0 -114 -84.5 -190t-210.5 -76q-131 0 -216 83t-85 212h149q0 -69 42.5 -112.5t109.5 -43.5q63 0 104 36t41 91q0 50 -39 80.5t-102 30.5h-51v143h51q38 0 62 -4q20 33 20 66
q0 34 -27 58t-67 24q-41 0 -68.5 -26.5t-27.5 -65.5h-150q0 101 68.5 166t177.5 65q105 0 174.5 -60.5t69.5 -152.5q0 -70 -43 -125q102 -67 102 -199z" />
    <glyph glyph-name="uni2783" unicode="&#x2783;" horiz-adv-x="1691" 
d="M846 -86q-157 0 -298 59t-242 159t-160.5 239.5t-59.5 294.5t59.5 294t160.5 239.5t242 159t298 58.5t298 -58.5t242 -159t160.5 -239.5t59.5 -294t-59.5 -294.5t-160.5 -239.5t-242 -159t-298 -59zM846 1270q-166 0 -303.5 -79.5t-217 -218.5t-79.5 -306t79.5 -306
t217 -219t303.5 -80t303.5 80t217 219t79.5 306t-79.5 306t-217 218.5t-303.5 79.5zM1071 868v-594h-149v74q0 52 -20.5 87.5t-53 54.5t-72.5 34.5t-79.5 35t-72 48t-53 82t-20.5 129.5v238h149v-238q0 -42 12.5 -71.5t37.5 -47.5t49.5 -29t62 -25.5t60.5 -27.5v250h149z
" />
    <glyph glyph-name="uni2784" unicode="&#x2784;" horiz-adv-x="1691" 
d="M846 -86q-157 0 -298 59t-242 159t-160.5 239.5t-59.5 294.5t59.5 294t160.5 239.5t242 159t298 58.5t298 -58.5t242 -159t160.5 -239.5t59.5 -294t-59.5 -294.5t-160.5 -239.5t-242 -159t-298 -59zM846 1270q-166 0 -303.5 -79.5t-217 -218.5t-79.5 -306t79.5 -306
t217 -219t303.5 -80t303.5 80t217 219t79.5 306t-79.5 306t-217 218.5t-303.5 79.5zM1147 522q0 -108 -80 -182t-201 -74q-128 0 -210.5 77t-82.5 202h150q0 -61 38 -100t105 -39q56 0 91.5 33t35.5 85q0 46 -35.5 78t-97.5 41l-256 35l78 381h389v-144h-272l-25 -118
l107 -15q130 -17 198 -84.5t68 -175.5z" />
    <glyph glyph-name="uni2785" unicode="&#x2785;" horiz-adv-x="1691" 
d="M846 -86q-157 0 -298 59t-242 159t-160.5 239.5t-59.5 294.5t59.5 294t160.5 239.5t242 159t298 58.5t298 -58.5t242 -159t160.5 -239.5t59.5 -294t-59.5 -294.5t-160.5 -239.5t-242 -159t-298 -59zM846 1270q-166 0 -303.5 -79.5t-217 -218.5t-79.5 -306t79.5 -306
t217 -219t303.5 -80t303.5 80t217 219t79.5 306t-79.5 306t-217 218.5t-303.5 79.5zM846 264q-129 0 -216 82t-87 203q0 51 18.5 100.5t46.5 87.5t61.5 79t62.5 76t51 78.5t26 86.5h154q-6 -49 -27 -95t-42 -74t-58 -71q135 3 224 -72.5t89 -195.5q0 -121 -87 -203t-216 -82
zM846 403q64 0 108.5 43t44.5 103t-44.5 102.5t-108.5 42.5q-62 0 -108 -43.5t-46 -101.5q0 -60 45 -103t109 -43z" />
    <glyph glyph-name="uni2786" unicode="&#x2786;" horiz-adv-x="1691" 
d="M846 -86q-157 0 -298 59t-242 159t-160.5 239.5t-59.5 294.5t59.5 294t160.5 239.5t242 159t298 58.5t298 -58.5t242 -159t160.5 -239.5t59.5 -294t-59.5 -294.5t-160.5 -239.5t-242 -159t-298 -59zM846 1270q-166 0 -303.5 -79.5t-217 -218.5t-79.5 -306t79.5 -306
t217 -219t303.5 -80t303.5 80t217 219t79.5 306t-79.5 306t-217 218.5t-303.5 79.5zM1128 1057q-116 -244 -163 -405.5t-62 -377.5h-153q13 188 50 333t111 306h-317v144h534z" />
    <glyph glyph-name="uni2787" unicode="&#x2787;" horiz-adv-x="1691" 
d="M846 -86q-157 0 -298 59t-242 159t-160.5 239.5t-59.5 294.5t59.5 294t160.5 239.5t242 159t298 58.5t298 -58.5t242 -159t160.5 -239.5t59.5 -294t-59.5 -294.5t-160.5 -239.5t-242 -159t-298 -59zM846 1270q-166 0 -303.5 -79.5t-217 -218.5t-79.5 -306t79.5 -306
t217 -219t303.5 -80t303.5 80t217 219t79.5 306t-79.5 306t-217 218.5t-303.5 79.5zM1151 516q0 -106 -88 -179t-217 -73t-216 72.5t-87 179.5q0 72 42.5 130t116.5 87q-79 53 -79 146q0 83 62.5 135.5t160.5 52.5q99 0 162 -52.5t63 -135.5q0 -92 -80 -146q74 -30 117 -87
t43 -130zM846 952q-39 0 -64.5 -23t-25.5 -57q0 -35 26 -58t64 -23q39 0 65.5 23t26.5 58t-26 57.5t-66 22.5zM846 403q65 0 107 34.5t42 86.5q0 56 -41.5 91.5t-107.5 35.5t-107 -35.5t-41 -91.5q0 -53 42 -87t106 -34z" />
    <glyph glyph-name="uni2788" unicode="&#x2788;" horiz-adv-x="1691" 
d="M846 -86q-157 0 -298 59t-242 159t-160.5 239.5t-59.5 294.5t59.5 294t160.5 239.5t242 159t298 58.5t298 -58.5t242 -159t160.5 -239.5t59.5 -294t-59.5 -294.5t-160.5 -239.5t-242 -159t-298 -59zM846 1270q-166 0 -303.5 -79.5t-217 -218.5t-79.5 -306t79.5 -306
t217 -219t303.5 -80t303.5 80t217 219t79.5 306t-79.5 306t-217 218.5t-303.5 79.5zM856 1067q129 0 216 -82t87 -203q0 -51 -18.5 -100.5t-46.5 -87.5t-61.5 -79t-62.5 -76t-51 -78.5t-26 -86.5h-154q6 49 27 95t42 74t58 71q-135 -3 -224 72.5t-89 195.5q0 121 87 203
t216 82zM856 928q-64 0 -109 -43t-45 -103t45 -102.5t109 -42.5q62 0 108 43.5t46 101.5q0 60 -45 103t-109 43z" />
    <glyph glyph-name="uni278A" unicode="&#x278a;" horiz-adv-x="1691" 
d="M846 -86q-157 0 -298 59t-242 159t-160.5 239.5t-59.5 294.5t59.5 294t160.5 239.5t242 159t298 58.5t298 -58.5t242 -159t160.5 -239.5t59.5 -294t-59.5 -294.5t-160.5 -239.5t-242 -159t-298 -59zM963 1073q-132 -90 -328 -117v-143q98 9 178 37v-576h150v799z" />
    <glyph glyph-name="uni278B" unicode="&#x278b;" horiz-adv-x="1691" 
d="M846 -86q-157 0 -298 59t-242 159t-160.5 239.5t-59.5 294.5t59.5 294t160.5 239.5t242 159t298 58.5t298 -58.5t242 -159t160.5 -239.5t59.5 -294t-59.5 -294.5t-160.5 -239.5t-242 -159t-298 -59zM1126 418h-262l152 178q56 65 78 115t22 110q0 103 -76 174.5
t-188 71.5t-188 -71.5t-76 -174.5q0 -122 106 -209l88 103q-49 43 -49 102q0 47 35 81t84 34t84 -34t35 -81q0 -35 -18 -71t-66 -91l-324 -381h563v144z" />
    <glyph glyph-name="uni278C" unicode="&#x278c;" horiz-adv-x="1691" 
d="M846 -86q-157 0 -298 59t-242 159t-160.5 239.5t-59.5 294.5t59.5 294t160.5 239.5t242 159t298 58.5t298 -58.5t242 -159t160.5 -239.5t59.5 -294t-59.5 -294.5t-160.5 -239.5t-242 -159t-298 -59zM1149 530q0 132 -102 199q43 55 43 125q0 92 -69.5 152.5t-174.5 60.5
q-109 0 -177.5 -65t-68.5 -166h150q0 39 27.5 65.5t68.5 26.5q40 0 67 -24t27 -58q0 -33 -20 -66q-24 4 -62 4h-51v-143h51q63 0 102 -30.5t39 -80.5q0 -55 -41 -91t-104 -36q-67 0 -109.5 43.5t-42.5 112.5h-149q0 -129 85 -212t216 -83q126 0 210.5 76t84.5 190z" />
    <glyph glyph-name="uni278D" unicode="&#x278d;" horiz-adv-x="1691" 
d="M846 -86q-157 0 -298 59t-242 159t-160.5 239.5t-59.5 294.5t59.5 294t160.5 239.5t242 159t298 58.5t298 -58.5t242 -159t160.5 -239.5t59.5 -294t-59.5 -294.5t-160.5 -239.5t-242 -159t-298 -59zM1071 868h-149v-250q-23 13 -60.5 27.5t-62 25.5t-49.5 29t-37.5 47.5
t-12.5 71.5v238h-149v-238q0 -76 20.5 -129.5t53 -82t72 -48t79.5 -35t72.5 -34.5t53 -54.5t20.5 -87.5v-74h149v594z" />
    <glyph glyph-name="uni278E" unicode="&#x278e;" horiz-adv-x="1691" 
d="M846 -86q-157 0 -298 59t-242 159t-160.5 239.5t-59.5 294.5t59.5 294t160.5 239.5t242 159t298 58.5t298 -58.5t242 -159t160.5 -239.5t59.5 -294t-59.5 -294.5t-160.5 -239.5t-242 -159t-298 -59zM1147 522q0 108 -68 175.5t-198 84.5l-107 15l25 118h272v144h-389
l-78 -381l256 -35q62 -9 97.5 -41t35.5 -78q0 -52 -35.5 -85t-91.5 -33q-67 0 -105 39t-38 100h-150q0 -125 82.5 -202t210.5 -77q121 0 201 74t80 182z" />
    <glyph glyph-name="uni278F" unicode="&#x278f;" horiz-adv-x="1691" 
d="M846 -86q-157 0 -298 59t-242 159t-160.5 239.5t-59.5 294.5t59.5 294t160.5 239.5t242 159t298 58.5t298 -58.5t242 -159t160.5 -239.5t59.5 -294t-59.5 -294.5t-160.5 -239.5t-242 -159t-298 -59zM846 264q129 0 216 82t87 203q0 120 -89 195.5t-224 72.5q37 43 58 71
t42 74t27 95h-154q-4 -43 -26 -86.5t-51 -78.5t-62.5 -76t-61.5 -79t-46.5 -87.5t-18.5 -100.5q0 -121 87 -203t216 -82zM846 403q-64 0 -109 43t-45 103q0 58 46 101.5t108 43.5q64 0 108.5 -42.5t44.5 -102.5t-44.5 -103t-108.5 -43z" />
    <glyph glyph-name="uni2790" unicode="&#x2790;" horiz-adv-x="1691" 
d="M846 -86q-157 0 -298 59t-242 159t-160.5 239.5t-59.5 294.5t59.5 294t160.5 239.5t242 159t298 58.5t298 -58.5t242 -159t160.5 -239.5t59.5 -294t-59.5 -294.5t-160.5 -239.5t-242 -159t-298 -59zM1128 1057h-534v-144h317q-74 -161 -111 -306t-50 -333h153
q15 216 62 377.5t163 405.5z" />
    <glyph glyph-name="uni2791" unicode="&#x2791;" horiz-adv-x="1691" 
d="M846 -86q-157 0 -298 59t-242 159t-160.5 239.5t-59.5 294.5t59.5 294t160.5 239.5t242 159t298 58.5t298 -58.5t242 -159t160.5 -239.5t59.5 -294t-59.5 -294.5t-160.5 -239.5t-242 -159t-298 -59zM1151 516q0 73 -43 130t-117 87q80 54 80 146q0 83 -63 135.5
t-162 52.5q-98 0 -160.5 -52.5t-62.5 -135.5q0 -93 79 -146q-74 -29 -116.5 -87t-42.5 -130q0 -107 87 -179.5t216 -72.5t217 73t88 179zM846 952q40 0 66 -22.5t26 -57.5t-26.5 -58t-65.5 -23q-38 0 -64 23t-26 58q0 34 25.5 57t64.5 23zM846 403q-64 0 -106 34t-42 87
q0 56 41 91.5t107 35.5t107.5 -35.5t41.5 -91.5q0 -52 -42 -86.5t-107 -34.5z" />
    <glyph glyph-name="uni2792" unicode="&#x2792;" horiz-adv-x="1691" 
d="M846 -86q-157 0 -298 59t-242 159t-160.5 239.5t-59.5 294.5t59.5 294t160.5 239.5t242 159t298 58.5t298 -58.5t242 -159t160.5 -239.5t59.5 -294t-59.5 -294.5t-160.5 -239.5t-242 -159t-298 -59zM856 1067q-129 0 -216 -82t-87 -203q0 -120 89 -195.5t224 -72.5
q-37 -43 -58 -71t-42 -74t-27 -95h154q4 43 26 86.5t51 78.5t62.5 76t61.5 79t46.5 87.5t18.5 100.5q0 121 -87 203t-216 82zM856 928q64 0 109 -43t45 -103q0 -58 -46 -101.5t-108 -43.5q-64 0 -109 42.5t-45 102.5t45 103t109 43z" />
    <glyph glyph-name="commaaccent" unicode="&#xf6c3;" horiz-adv-x="1064" 
d="M631 -229q0 -92 -86 -232h-109q41 79 60 142q-33 9 -53.5 34.5t-20.5 61.5q0 44 29 73t75 29t75.5 -29.5t29.5 -78.5z" />
    <glyph glyph-name="A.alt1" 
d="M299 94v-94h-164v913q0 194 120 315.5t312 121.5t312 -121.5t120 -315.5v-913h-163v559q-44 -37 -107.5 -73t-119.5 -60.5t-114.5 -58t-100.5 -67.5t-68.5 -87t-26.5 -119zM299 913v-497q44 37 107.5 72.5t119.5 60t114.5 57.5t100.5 67.5t68.5 87.5t26.5 120v32
q0 121 -76 199t-193 78q-118 0 -193 -77.5t-75 -199.5z" />
    <glyph glyph-name="A.alt2" 
d="M135 0v913q0 194 120 315.5t312 121.5t312 -121.5t120 -315.5v-913h-163v410h-537v-410h-164zM299 913v-350h537v350q0 121 -76 199t-193 78q-118 0 -193 -77.5t-75 -199.5z" />
    <glyph glyph-name="B.alt1" 
d="M1053 424q0 -184 -132.5 -304t-336.5 -120h-432v1331h395q160 0 256 -81.5t96 -217.5q0 -168 -139 -244q136 -39 214.5 -135t78.5 -229zM547 1178h-232v-332h232q88 0 140 45.5t52 120.5q0 77 -51.5 121.5t-140.5 44.5zM584 694h-269v-540h269q129 0 215 77t86 193
q0 120 -84.5 195t-216.5 75z" />
    <glyph glyph-name="C.alt1" horiz-adv-x="858" 
d="M776 0h-20q-183 0 -337.5 89t-243.5 242t-89 335q0 136 52.5 259t142 212t214 141.5t261.5 52.5h20v-153h-20q-140 0 -255.5 -68.5t-181 -186t-65.5 -257.5t65.5 -257.5t181 -186t255.5 -68.5h20v-154z" />
    <glyph glyph-name="E.alt1" horiz-adv-x="942" 
d="M856 154v-154h-702v1331h702v-153h-539v-424h469v-154h-469v-446h539z" />
    <glyph glyph-name="F.alt1" horiz-adv-x="919" 
d="M782 573h-465v-573h-163v1331h694v-153h-531v-451h465v-154z" />
    <glyph glyph-name="G.alt1" horiz-adv-x="983" 
d="M860 754v-754h-104q-183 0 -337.5 89t-243.5 242t-89 335q0 136 52.5 259t142 212t214 141.5t261.5 52.5h84v-153h-84q-136 0 -251.5 -68.5t-183 -186.5t-67.5 -257q0 -130 59 -242t161 -182.5t226 -83.5v596h160z" />
    <glyph glyph-name="H.alt1" horiz-adv-x="1187" 
d="M317 217v-217h-163v1331h163v-788q45 38 110.5 73.5t123.5 58t118 54t103 65t70.5 87.5t27.5 123v327h164v-1331h-164v678q-45 -38 -110.5 -73.5t-123.5 -58t-118 -54t-103 -65t-70.5 -87.5t-27.5 -123z" />
    <glyph glyph-name="H.alt2" horiz-adv-x="1187" 
d="M870 0v551h-553v-551h-163v1331h163v-629h553v629h164v-1331h-164z" />
    <glyph glyph-name="I.alt1" horiz-adv-x="471" 
d="M154 1155v176h163v-149q-80 -6 -163 -27zM154 0v1032q101 25 163 27v-1059h-163z" />
    <glyph glyph-name="K.alt1" horiz-adv-x="1148" 
d="M909 0l-340 424q-108 -71 -252 -135v-289h-163v1331h163v-868q277 130 395.5 324.5t137.5 543.5h164q-14 -288 -87 -480.5t-222 -330.5l413 -520h-209z" />
    <glyph glyph-name="P.alt1" horiz-adv-x="1103" 
d="M518 319q-113 0 -201 35v-354h-163v1331h342q235 0 384.5 -141t149.5 -361q0 -225 -145 -367.5t-367 -142.5zM498 1178h-181v-666q95 -39 195 -39q158 0 254 97t96 259q0 154 -101.5 251.5t-262.5 97.5z" />
    <glyph glyph-name="Q.alt1" horiz-adv-x="1552" 
d="M1503 154v-154h-712q-195 0 -357 89t-255 243.5t-93 341.5q0 139 53.5 264.5t144.5 215.5t217 143t265 53t265 -53t217 -143t144.5 -215.5t53.5 -264.5q0 -158 -72.5 -296.5t-199.5 -230.5zM766 1196q-139 0 -257 -69.5t-186.5 -190t-68.5 -262.5q0 -141 69 -261
t188 -189.5t259 -69.5q138 0 255 69.5t185 189.5t68 261q0 142 -68.5 262.5t-186.5 190t-257 69.5z" />
    <glyph glyph-name="R.alt1" horiz-adv-x="1112" 
d="M842 0l-525 473v-473h-163v1331h352q232 0 373 -123t141 -317q0 -184 -124.5 -304.5t-326.5 -137.5l498 -449h-225zM508 1178h-191v-547q85 -35 191 -35q156 0 250 80.5t94 214.5q0 128 -92.5 207.5t-251.5 79.5z" />
    <glyph glyph-name="S.alt1" horiz-adv-x="753" 
d="M297 922q0 198 102 303.5t291 105.5h12v-153h-12q-109 0 -169 -66t-60 -186v-518q0 -197 -102.5 -302.5t-292.5 -105.5h-15v154h15q109 0 170 65.5t61 183.5v519z" />
    <glyph glyph-name="T.alt1" horiz-adv-x="946" 
d="M895 1178h-340v-1178h-164v1178h-340v153h844v-153z" />
    <glyph glyph-name="X.alt1" horiz-adv-x="1130" 
d="M283 117v-117h-164v117q0 118 50.5 207.5t143.5 140.5q-84 52 -130 136t-46 192v538h164v-538q0 -111 73 -179.5t191 -68.5t191 68.5t73 179.5v538h164v-538q0 -108 -46 -192t-130 -136q93 -52 144 -141.5t51 -206.5v-117h-164v117q0 120 -77.5 192t-205.5 72t-205 -72
t-77 -192z" />
    <glyph glyph-name="X.alt2" horiz-adv-x="1130" 
d="M283 463v-463h-164v463q0 118 50.5 207.5t143.5 140.5q-84 52 -130 136t-46 192v192h164v-192q0 -111 73 -179.5t191 -68.5t191 68.5t73 179.5v192h164v-192q0 -108 -46 -192t-130 -136q93 -52 144 -141.5t51 -206.5v-463h-164v463q0 120 -77.5 192t-205.5 72t-205 -72
t-77 -192z" />
    <glyph glyph-name="AE.alt1" horiz-adv-x="1583" 
d="M135 913q0 186 120 302t312 116h930v-153h-539v-424h469v-154h-469v-446h539v-154h-702v410h-496v-410h-164v913zM299 913v-350h496v615h-228q-119 -5 -193.5 -78t-74.5 -187z" />
    <glyph glyph-name="OE.alt1" horiz-adv-x="1701" 
d="M86 666q0 191 94 343t262 237t379 85h795v-153h-539v-424h469v-154h-469v-446h539v-154h-795q-211 0 -379 85.5t-262 237.5t-94 343zM776 154h137v1024h-137q-217 0 -369.5 -149.5t-152.5 -362.5t152.5 -362.5t369.5 -149.5z" />
    <glyph glyph-name="x.alt1" horiz-adv-x="991" 
d="M258 197v-197h-160v195q0 105 45 183.5t127 121.5q-76 43 -116.5 115.5t-40.5 168.5v185h159v-187q0 -98 60 -154.5t164 -56.5t163.5 56.5t59.5 154.5v187h160v-185q0 -194 -158 -284q82 -43 127 -121.5t45 -183.5v-195h-160v197q0 107 -63.5 169t-173.5 62t-174 -62
t-64 -169z" />
    <glyph glyph-name="Aacute.alt1" 
d="M299 94v-94h-164v913q0 194 120 315.5t312 121.5t312 -121.5t120 -315.5v-913h-163v559q-44 -37 -107.5 -73t-119.5 -60.5t-114.5 -58t-100.5 -67.5t-68.5 -87t-26.5 -119zM299 913v-497q44 37 107.5 72.5t119.5 60t114.5 57.5t100.5 67.5t68.5 87.5t26.5 120v32
q0 121 -76 199t-193 78q-118 0 -193 -77.5t-75 -199.5zM492 1458l143 324h176l-176 -324h-143z" />
    <glyph glyph-name="Acircumflex.alt1" 
d="M299 94v-94h-164v913q0 194 120 315.5t312 121.5t312 -121.5t120 -315.5v-913h-163v559q-44 -37 -107.5 -73t-119.5 -60.5t-114.5 -58t-100.5 -67.5t-68.5 -87t-26.5 -119zM299 913v-497q44 37 107.5 72.5t119.5 60t114.5 57.5t100.5 67.5t68.5 87.5t26.5 120v32
q0 121 -76 199t-193 78q-118 0 -193 -77.5t-75 -199.5zM713 1458l-148 215l-145 -215h-164l225 324h170l228 -324h-166z" />
    <glyph glyph-name="Adieresis.alt1" 
d="M299 94v-94h-164v913q0 194 120 315.5t312 121.5t312 -121.5t120 -315.5v-913h-163v559q-44 -37 -107.5 -73t-119.5 -60.5t-114.5 -58t-100.5 -67.5t-68.5 -87t-26.5 -119zM299 913v-497q44 37 107.5 72.5t119.5 60t114.5 57.5t100.5 67.5t68.5 87.5t26.5 120v32
q0 121 -76 199t-193 78q-118 0 -193 -77.5t-75 -199.5zM385 1505q-44 0 -74 29.5t-30 73.5t29 73t75 29t75 -29t29 -73t-29.5 -73.5t-74.5 -29.5zM750 1505q-44 0 -74.5 29.5t-30.5 73.5t29.5 73t75.5 29t75 -29t29 -73t-29 -73.5t-75 -29.5z" />
    <glyph glyph-name="Agrave.alt1" 
d="M299 94v-94h-164v913q0 194 120 315.5t312 121.5t312 -121.5t120 -315.5v-913h-163v559q-44 -37 -107.5 -73t-119.5 -60.5t-114.5 -58t-100.5 -67.5t-68.5 -87t-26.5 -119zM299 913v-497q44 37 107.5 72.5t119.5 60t114.5 57.5t100.5 67.5t68.5 87.5t26.5 120v32
q0 121 -76 199t-193 78q-118 0 -193 -77.5t-75 -199.5zM635 1458h-143l-187 324h176z" />
    <glyph glyph-name="Aring.alt1" 
d="M299 94v-94h-164v913q0 139 64 243.5t176 154.5q-53 66 -53 147q0 99 70 165.5t175 66.5t175.5 -66.5t70.5 -165.5q0 -84 -53 -147q111 -50 175 -155t64 -243v-913h-163v559q-44 -37 -107.5 -73t-119.5 -60.5t-114.5 -58t-100.5 -67.5t-68.5 -87t-26.5 -119zM567 1350
q52 0 82.5 29t30.5 79t-30.5 79.5t-82.5 29.5t-82 -29.5t-30 -79.5t30 -79t82 -29zM299 913v-497q44 37 107.5 72.5t119.5 60t114.5 57.5t100.5 67.5t68.5 87.5t26.5 120v32q0 121 -76 199t-193 78q-118 0 -193 -77.5t-75 -199.5z" />
    <glyph glyph-name="Atilde.alt1" 
d="M299 94v-94h-164v913q0 194 120 315.5t312 121.5t312 -121.5t120 -315.5v-913h-163v559q-44 -37 -107.5 -73t-119.5 -60.5t-114.5 -58t-100.5 -67.5t-68.5 -87t-26.5 -119zM299 913v-497q44 37 107.5 72.5t119.5 60t114.5 57.5t100.5 67.5t68.5 87.5t26.5 120v32
q0 121 -76 199t-193 78q-118 0 -193 -77.5t-75 -199.5zM260 1458v131q0 94 44.5 146.5t123.5 52.5q49 0 88 -21.5t62.5 -52t42.5 -61.5t38 -52.5t39 -21.5q47 0 47 72v131h129v-131q0 -94 -44 -146.5t-123 -52.5q-49 0 -88 21.5t-63 52t-43 61.5t-38 52.5t-39 21.5
q-47 0 -47 -72v-131h-129z" />
    <glyph glyph-name="Abreve.alt1" 
d="M299 94v-94h-164v913q0 194 120 315.5t312 121.5t312 -121.5t120 -315.5v-913h-163v559q-44 -37 -107.5 -73t-119.5 -60.5t-114.5 -58t-100.5 -67.5t-68.5 -87t-26.5 -119zM299 913v-497q44 37 107.5 72.5t119.5 60t114.5 57.5t100.5 67.5t68.5 87.5t26.5 120v32
q0 121 -76 199t-193 78q-118 0 -193 -77.5t-75 -199.5zM567 1581q79 0 123.5 38.5t44.5 111.5v51h131v-51q0 -133 -81 -206t-218 -73q-139 0 -219 73t-80 206v51h131v-51q0 -73 44 -111.5t124 -38.5z" />
    <glyph glyph-name="Amacron.alt1" 
d="M299 94v-94h-164v913q0 194 120 315.5t312 121.5t312 -121.5t120 -315.5v-913h-163v559q-44 -37 -107.5 -73t-119.5 -60.5t-114.5 -58t-100.5 -67.5t-68.5 -87t-26.5 -119zM299 913v-497q44 37 107.5 72.5t119.5 60t114.5 57.5t100.5 67.5t68.5 87.5t26.5 120v32
q0 121 -76 199t-193 78q-118 0 -193 -77.5t-75 -199.5zM311 1669h512v-143h-512v143z" />
    <glyph glyph-name="Aogonek.alt1" 
d="M999 -217v-123h-69q-97 0 -155 47.5t-58 126.5q0 100 119 178v547q-44 -37 -107.5 -73t-119.5 -60.5t-114.5 -58t-100.5 -67.5t-68.5 -87t-26.5 -119v-94h-164v913q0 194 120 315.5t312 121.5t312 -121.5t120 -315.5v-913q-143 -75 -143 -154q0 -63 82 -63h61zM299 913
v-497q44 37 107.5 72.5t119.5 60t114.5 57.5t100.5 67.5t68.5 87.5t26.5 120v32q0 121 -76 199t-193 78q-118 0 -193 -77.5t-75 -199.5z" />
    <glyph glyph-name="Aacute.alt2" 
d="M135 0v913q0 194 120 315.5t312 121.5t312 -121.5t120 -315.5v-913h-163v410h-537v-410h-164zM299 913v-350h537v350q0 121 -76 199t-193 78q-118 0 -193 -77.5t-75 -199.5zM492 1458l143 324h176l-176 -324h-143z" />
    <glyph glyph-name="Acircumflex.alt2" 
d="M135 0v913q0 194 120 315.5t312 121.5t312 -121.5t120 -315.5v-913h-163v410h-537v-410h-164zM299 913v-350h537v350q0 121 -76 199t-193 78q-118 0 -193 -77.5t-75 -199.5zM713 1458l-148 215l-145 -215h-164l225 324h170l228 -324h-166z" />
    <glyph glyph-name="Adieresis.alt2" 
d="M135 0v913q0 194 120 315.5t312 121.5t312 -121.5t120 -315.5v-913h-163v410h-537v-410h-164zM299 913v-350h537v350q0 121 -76 199t-193 78q-118 0 -193 -77.5t-75 -199.5zM385 1505q-44 0 -74 29.5t-30 73.5t29 73t75 29t75 -29t29 -73t-29.5 -73.5t-74.5 -29.5z
M750 1505q-44 0 -74.5 29.5t-30.5 73.5t29.5 73t75.5 29t75 -29t29 -73t-29 -73.5t-75 -29.5z" />
    <glyph glyph-name="Agrave.alt2" 
d="M135 0v913q0 194 120 315.5t312 121.5t312 -121.5t120 -315.5v-913h-163v410h-537v-410h-164zM299 913v-350h537v350q0 121 -76 199t-193 78q-118 0 -193 -77.5t-75 -199.5zM635 1458h-143l-187 324h176z" />
    <glyph glyph-name="Aring.alt2" 
d="M299 410v-410h-164v913q0 139 64 243.5t176 154.5q-53 63 -53 147q0 99 70 165.5t175 66.5t175.5 -66.5t70.5 -165.5q0 -88 -53 -147q111 -50 175 -155t64 -243v-913h-163v410h-537zM567 1350q52 0 82.5 29t30.5 79t-30.5 79.5t-82.5 29.5t-82 -29.5t-30 -79.5t30 -79
t82 -29zM299 913v-350h537v350q0 121 -76 199t-193 78q-118 0 -193 -77.5t-75 -199.5z" />
    <glyph glyph-name="Atilde.alt2" 
d="M135 0v913q0 194 120 315.5t312 121.5t312 -121.5t120 -315.5v-913h-163v410h-537v-410h-164zM299 913v-350h537v350q0 121 -76 199t-193 78q-118 0 -193 -77.5t-75 -199.5zM260 1458v131q0 94 44.5 146.5t123.5 52.5q49 0 88 -21.5t62.5 -52t42.5 -61.5t38 -52.5
t39 -21.5q47 0 47 72v131h129v-131q0 -94 -44 -146.5t-123 -52.5q-49 0 -88 21.5t-63 52t-43 61.5t-38 52.5t-39 21.5q-47 0 -47 -72v-131h-129z" />
    <glyph glyph-name="Abreve.alt2" 
d="M135 0v913q0 194 120 315.5t312 121.5t312 -121.5t120 -315.5v-913h-163v410h-537v-410h-164zM299 913v-350h537v350q0 121 -76 199t-193 78q-118 0 -193 -77.5t-75 -199.5zM567 1581q79 0 123.5 38.5t44.5 111.5v51h131v-51q0 -133 -81 -206t-218 -73q-139 0 -219 73
t-80 206v51h131v-51q0 -73 44 -111.5t124 -38.5z" />
    <glyph glyph-name="Amacron.alt2" 
d="M135 0v913q0 194 120 315.5t312 121.5t312 -121.5t120 -315.5v-913h-163v410h-537v-410h-164zM299 913v-350h537v350q0 121 -76 199t-193 78q-118 0 -193 -77.5t-75 -199.5zM311 1669h512v-143h-512v143z" />
    <glyph glyph-name="Aogonek.alt2" 
d="M999 -217v-123h-69q-97 0 -155 47.5t-58 126.5q0 100 119 178v398h-537v-410h-164v913q0 194 120 315.5t312 121.5t312 -121.5t120 -315.5v-913q-143 -75 -143 -154q0 -63 82 -63h61zM299 913v-350h537v350q0 121 -76 199t-193 78q-118 0 -193 -77.5t-75 -199.5z" />
    <glyph glyph-name="Ccedilla.alt1" horiz-adv-x="858" 
d="M756 0q-28 0 -82 4v-283h-160l18 316q-197 68 -321.5 240.5t-124.5 388.5q0 136 52.5 259t142 212t214 141.5t261.5 52.5h20v-153h-20q-140 0 -255.5 -68.5t-181 -186t-65.5 -257.5t65.5 -257.5t181 -186t255.5 -68.5h20v-154h-20z" />
    <glyph glyph-name="Cacute.alt1" horiz-adv-x="858" 
d="M776 0h-20q-183 0 -337.5 89t-243.5 242t-89 335q0 136 52.5 259t142 212t214 141.5t261.5 52.5h20v-153h-20q-140 0 -255.5 -68.5t-181 -186t-65.5 -257.5t65.5 -257.5t181 -186t255.5 -68.5h20v-154zM508 1458l143 324h176l-176 -324h-143z" />
    <glyph glyph-name="Ccaron.alt1" horiz-adv-x="858" 
d="M776 0h-20q-183 0 -337.5 89t-243.5 242t-89 335q0 136 52.5 259t142 212t214 141.5t261.5 52.5h20v-153h-20q-140 0 -255.5 -68.5t-181 -186t-65.5 -257.5t65.5 -257.5t181 -186t255.5 -68.5h20v-154zM895 1782l-225 -324h-170l-228 324h166l148 -215l145 215h164z" />
    <glyph glyph-name="Ccircumflex.alt1" horiz-adv-x="858" 
d="M776 0h-20q-183 0 -337.5 89t-243.5 242t-89 335q0 136 52.5 259t142 212t214 141.5t261.5 52.5h20v-153h-20q-140 0 -255.5 -68.5t-181 -186t-65.5 -257.5t65.5 -257.5t181 -186t255.5 -68.5h20v-154zM729 1458l-147 215l-146 -215h-164l226 324h170l227 -324h-166z" />
    <glyph glyph-name="Cdotaccent.alt1" horiz-adv-x="858" 
d="M776 0h-20q-183 0 -337.5 89t-243.5 242t-89 335q0 136 52.5 259t142 212t214 141.5t261.5 52.5h20v-153h-20q-140 0 -255.5 -68.5t-181 -186t-65.5 -257.5t65.5 -257.5t181 -186t255.5 -68.5h20v-154zM584 1505q-51 0 -83 31.5t-32 81.5t32 81.5t83 31.5t82.5 -31.5
t31.5 -81.5t-31.5 -81.5t-82.5 -31.5z" />
    <glyph glyph-name="Eacute.alt1" horiz-adv-x="942" 
d="M856 154v-154h-702v1331h702v-153h-539v-424h469v-154h-469v-446h539zM422 1458l143 324h176l-176 -324h-143z" />
    <glyph glyph-name="Ecircumflex.alt1" horiz-adv-x="942" 
d="M856 154v-154h-702v1331h702v-153h-539v-424h469v-154h-469v-446h539zM643 1458l-147 215l-146 -215h-164l226 324h170l227 -324h-166z" />
    <glyph glyph-name="Edieresis.alt1" horiz-adv-x="942" 
d="M856 154v-154h-702v1331h702v-153h-539v-424h469v-154h-469v-446h539zM315 1505q-44 0 -74 29.5t-30 73.5t29 73t75 29t75.5 -29t29.5 -73t-29.5 -73.5t-75.5 -29.5zM680 1505q-44 0 -74.5 29.5t-30.5 73.5t29.5 73t75.5 29t75 -29t29 -73t-29 -73.5t-75 -29.5z" />
    <glyph glyph-name="Egrave.alt1" horiz-adv-x="942" 
d="M856 154v-154h-702v1331h702v-153h-539v-424h469v-154h-469v-446h539zM592 1458h-143l-187 324h176z" />
    <glyph glyph-name="Ebreve.alt1" horiz-adv-x="942" 
d="M856 154v-154h-702v1331h702v-153h-539v-424h469v-154h-469v-446h539zM498 1581q79 0 123.5 38.5t44.5 111.5v51h131v-51q0 -133 -81 -206t-218 -73q-139 0 -219 73t-80 206v51h131v-51q0 -73 44 -111.5t124 -38.5z" />
    <glyph glyph-name="Ecaron.alt1" horiz-adv-x="942" 
d="M856 154v-154h-702v1331h702v-153h-539v-424h469v-154h-469v-446h539zM809 1782l-225 -324h-170l-228 324h166l148 -215l145 215h164z" />
    <glyph glyph-name="Edotaccent.alt1" horiz-adv-x="942" 
d="M856 154v-154h-702v1331h702v-153h-539v-424h469v-154h-469v-446h539zM498 1505q-51 0 -83 31.5t-32 81.5t32 81.5t83 31.5t82.5 -31.5t31.5 -81.5t-31.5 -81.5t-82.5 -31.5z" />
    <glyph glyph-name="Emacron.alt1" horiz-adv-x="942" 
d="M856 154v-154h-702v1331h702v-153h-539v-424h469v-154h-469v-446h539zM242 1669h512v-143h-512v143z" />
    <glyph glyph-name="Eogonek.alt1" horiz-adv-x="942" 
d="M856 -217v-123h-70q-97 0 -155 47.5t-58 126.5q0 91 101 166h-520v1331h702v-153h-539v-424h469v-154h-469v-446h539v-154q-143 -75 -143 -154q0 -63 82 -63h61z" />
    <glyph glyph-name="Gbreve.alt1" horiz-adv-x="983" 
d="M860 754v-754h-104q-183 0 -337.5 89t-243.5 242t-89 335q0 136 52.5 259t142 212t214 141.5t261.5 52.5h84v-153h-84q-136 0 -251.5 -68.5t-183 -186.5t-67.5 -257q0 -130 59 -242t161 -182.5t226 -83.5v596h160zM584 1581q79 0 123.5 38.5t44.5 111.5v51h131v-51
q0 -133 -81 -206t-218 -73q-139 0 -219 73t-80 206v51h131v-51q0 -73 44 -111.5t124 -38.5z" />
    <glyph glyph-name="Gcircumflex.alt1" horiz-adv-x="983" 
d="M860 754v-754h-104q-183 0 -337.5 89t-243.5 242t-89 335q0 136 52.5 259t142 212t214 141.5t261.5 52.5h84v-153h-84q-136 0 -251.5 -68.5t-183 -186.5t-67.5 -257q0 -130 59 -242t161 -182.5t226 -83.5v596h160zM729 1458l-147 215l-146 -215h-164l226 324h170
l227 -324h-166z" />
    <glyph glyph-name="Gcommaaccent.alt1" horiz-adv-x="983" 
d="M860 754v-754h-104q-183 0 -337.5 89t-243.5 242t-89 335q0 136 52.5 259t142 212t214 141.5t261.5 52.5h84v-153h-84q-136 0 -251.5 -68.5t-183 -186.5t-67.5 -257q0 -130 59 -242t161 -182.5t226 -83.5v596h160zM682 -229q0 -92 -86 -232h-109q41 79 60 142
q-33 9 -53.5 34.5t-20.5 61.5q0 44 29.5 73t75.5 29t75 -29.5t29 -78.5z" />
    <glyph glyph-name="Gdotaccent.alt1" horiz-adv-x="983" 
d="M860 754v-754h-104q-183 0 -337.5 89t-243.5 242t-89 335q0 136 52.5 259t142 212t214 141.5t261.5 52.5h84v-153h-84q-136 0 -251.5 -68.5t-183 -186.5t-67.5 -257q0 -130 59 -242t161 -182.5t226 -83.5v596h160zM584 1505q-51 0 -83 31.5t-32 81.5t32 81.5t83 31.5
t82.5 -31.5t31.5 -81.5t-31.5 -81.5t-82.5 -31.5z" />
    <glyph glyph-name="Hbar.alt1" horiz-adv-x="1249" 
d="M348 176v-176h-164v969h-174v147h174v215h164v-215h553v215h164v-215h174v-147h-174v-969h-164v637q-45 -38 -110.5 -73.5t-123.5 -58t-118 -54t-103 -65t-70.5 -87.5t-27.5 -123zM901 963v6h-553v-467q45 38 110.5 73.5t123.5 58t118 54t103 65t70.5 87.5t27.5 123z" />
    <glyph glyph-name="Hcircumflex.alt1" horiz-adv-x="1187" 
d="M317 217v-217h-163v1331h163v-788q45 38 110.5 73.5t123.5 58t118 54t103 65t70.5 87.5t27.5 123v327h164v-1331h-164v678q-45 -38 -110.5 -73.5t-123.5 -58t-118 -54t-103 -65t-70.5 -87.5t-27.5 -123zM739 1458l-147 215l-146 -215h-163l225 324h170l227 -324h-166z
" />
    <glyph glyph-name="Hbar.alt2" horiz-adv-x="1249" 
d="M901 0v551h-553v-551h-164v969h-174v147h174v215h164v-215h553v215h164v-215h174v-147h-174v-969h-164zM348 702h553v267h-553v-267z" />
    <glyph glyph-name="Hcircumflex.alt2" horiz-adv-x="1187" 
d="M870 0v551h-553v-551h-163v1331h163v-629h553v629h164v-1331h-164zM739 1458l-147 215l-146 -215h-163l225 324h170l227 -324h-166z" />
    <glyph glyph-name="Kcommaaccent.alt1" horiz-adv-x="1148" 
d="M909 0l-340 424q-108 -71 -252 -135v-289h-163v1331h163v-868q277 130 395.5 324.5t137.5 543.5h164q-14 -288 -87 -480.5t-222 -330.5l413 -520h-209zM702 -229q0 -92 -86 -232h-108q38 74 59 142q-33 9 -53 34.5t-20 61.5q0 44 29 73t75 29t75 -29.5t29 -78.5z" />
    <glyph glyph-name="Racute.alt1" horiz-adv-x="1112" 
d="M842 0l-525 473v-473h-163v1331h352q232 0 373 -123t141 -317q0 -184 -124.5 -304.5t-326.5 -137.5l498 -449h-225zM508 1178h-191v-547q85 -35 191 -35q156 0 250 80.5t94 214.5q0 128 -92.5 207.5t-251.5 79.5zM459 1458l143 324h176l-176 -324h-143z" />
    <glyph glyph-name="Rcaron.alt1" horiz-adv-x="1112" 
d="M842 0l-525 473v-473h-163v1331h352q232 0 373 -123t141 -317q0 -184 -124.5 -304.5t-326.5 -137.5l498 -449h-225zM508 1178h-191v-547q85 -35 191 -35q156 0 250 80.5t94 214.5q0 128 -92.5 207.5t-251.5 79.5zM846 1782l-225 -324h-170l-228 324h166l148 -215l145 215
h164z" />
    <glyph glyph-name="Rcommaaccent.alt1" horiz-adv-x="1112" 
d="M842 0l-525 473v-473h-163v1331h352q232 0 373 -123t141 -317q0 -184 -124.5 -304.5t-326.5 -137.5l498 -449h-225zM508 1178h-191v-547q85 -35 191 -35q156 0 250 80.5t94 214.5q0 128 -92.5 207.5t-251.5 79.5zM680 -229q0 -92 -86 -232h-109q41 79 60 142
q-33 9 -53.5 34.5t-20.5 61.5q0 44 29 73t75 29t75.5 -29.5t29.5 -78.5z" />
    <glyph glyph-name="Scaron.alt1" horiz-adv-x="753" 
d="M297 922q0 198 102 303.5t291 105.5h12v-153h-12q-109 0 -169 -66t-60 -186v-518q0 -197 -102.5 -302.5t-292.5 -105.5h-15v154h15q109 0 170 65.5t61 183.5v519zM702 1782l-225 -324h-170l-227 324h166l147 -215l146 215h163z" />
    <glyph glyph-name="Sacute.alt1" horiz-adv-x="753" 
d="M297 922q0 198 102 303.5t291 105.5h12v-153h-12q-109 0 -169 -66t-60 -186v-518q0 -197 -102.5 -302.5t-292.5 -105.5h-15v154h15q109 0 170 65.5t61 183.5v519zM383 1458l143 324h176l-176 -324h-143z" />
    <glyph glyph-name="Scedilla.alt1" horiz-adv-x="753" 
d="M461 408q0 -242 -152 -342v-345h-159l16 287q-41 -8 -100 -8h-15v154h15q109 0 170 65.5t61 183.5v519q0 198 102 303.5t291 105.5h12v-153h-12q-109 0 -169 -66t-60 -186v-518z" />
    <glyph glyph-name="Scircumflex.alt1" horiz-adv-x="753" 
d="M297 922q0 198 102 303.5t291 105.5h12v-153h-12q-109 0 -169 -66t-60 -186v-518q0 -197 -102.5 -302.5t-292.5 -105.5h-15v154h15q109 0 170 65.5t61 183.5v519zM522 1458l-147 215l-146 -215h-163l225 324h170l227 -324h-166z" />
    <glyph glyph-name="uni0218.alt1" horiz-adv-x="753" 
d="M297 922q0 198 102 303.5t291 105.5h12v-153h-12q-109 0 -169 -66t-60 -186v-518q0 -197 -102.5 -302.5t-292.5 -105.5h-15v154h15q109 0 170 65.5t61 183.5v519zM418 -229q0 -92 -86 -232h-109q41 79 60 142q-33 9 -53.5 34.5t-20.5 61.5q0 44 29 73t75 29t75.5 -29.5
t29.5 -78.5z" />
    <glyph glyph-name="Tbar.alt1" horiz-adv-x="946" 
d="M813 563h-258v-563h-164v563h-258v148h258v467h-340v153h844v-153h-340v-467h258v-148z" />
    <glyph glyph-name="Tcaron.alt1" horiz-adv-x="946" 
d="M788 1782l-225 -324h-170l-227 324h166l147 -215l146 215h163zM895 1178h-340v-1178h-164v1178h-340v153h844v-153z" />
    <glyph glyph-name="uni0162.alt1" horiz-adv-x="946" 
d="M575 -229q0 -92 -86 -232h-108q38 74 59 142q-33 9 -53 34.5t-20 61.5q0 44 29 73t75 29t75 -29.5t29 -78.5zM895 1178h-340v-1178h-164v1178h-340v153h844v-153z" />
    <glyph glyph-name="uni021A.alt1" horiz-adv-x="946" 
d="M575 -229q0 -92 -86 -232h-108q38 74 59 142q-33 9 -53 34.5t-20 61.5q0 44 29 73t75 29t75 -29.5t29 -78.5zM895 1178h-340v-1178h-164v1178h-340v153h844v-153z" />
    <glyph glyph-name="i.dot" horiz-adv-x="413" 
d="M207 1130q-44 0 -74.5 29.5t-30.5 73.5t29.5 73t75.5 29t75 -29t29 -73q0 -45 -29.5 -74t-74.5 -29zM127 969h160v-969h-160v969z" />
    <glyph glyph-name="caron.alt" horiz-adv-x="1064" 
d="M428 928v403h162l-31 -403h-131z" />
    <glyph glyph-name="revcommaaccent" horiz-adv-x="1064" 
d="M643 1247q0 -44 -29 -73t-75 -29t-75.5 29.5t-29.5 78.5q0 92 86 232h109q-41 -79 -60 -142q33 -9 53.5 -34.5t20.5 -61.5z" />
    <glyph glyph-name="zero.tlf" horiz-adv-x="1167" 
d="M584 -18q-103 0 -190 42t-153 124.5t-103.5 215t-37.5 302.5q0 168 37.5 300.5t103.5 215t153 125.5t190 43q102 0 189 -43t153 -125.5t103.5 -215t37.5 -300.5q0 -136 -24.5 -249t-68.5 -193t-104.5 -135t-132.5 -81t-153 -26zM584 1196q-140 0 -228 -132t-88 -398
t88 -398.5t228 -132.5q138 0 225.5 132.5t87.5 398.5t-87.5 398t-225.5 132z" />
    <glyph glyph-name="one.tlf" horiz-adv-x="1167" 
d="M1016 154v-154h-803v154h319v960q-163 -61 -350 -80v152q275 31 514 164v-1196h320z" />
    <glyph glyph-name="two.tlf" horiz-adv-x="1167" 
d="M1036 154v-154h-913l571 700q73 91 100 147.5t27 121.5q0 94 -73 160.5t-177 66.5q-106 0 -180 -66t-74 -161q0 -121 97 -211l-97 -119q-163 129 -163 330q0 160 121 270.5t296 110.5q177 0 297.5 -110t120.5 -271q0 -87 -34.5 -163.5t-123.5 -184.5l-380 -467h585z" />
    <glyph glyph-name="three.tlf" horiz-adv-x="1167" 
d="M1057 428q0 -195 -137.5 -320.5t-350.5 -125.5q-215 0 -352 132.5t-137 334.5h156q0 -137 95.5 -228.5t237.5 -91.5q145 0 238.5 86t93.5 213t-97.5 215t-238.5 88h-45v143h45q93 0 172 -24q51 70 51 145q0 92 -65.5 149.5t-167.5 57.5q-94 0 -161.5 -62t-67.5 -151h-156
q0 151 112 256t273 105q169 0 279 -99t110 -250q0 -118 -72 -215q88 -61 136.5 -153.5t48.5 -204.5z" />
    <glyph glyph-name="four.tlf" horiz-adv-x="1167" 
d="M985 969v-969h-160v164q0 65 -22.5 112.5t-60.5 77t-87.5 52t-104 42t-108.5 41.5t-103.5 57t-87.5 81.5t-60.5 122t-22.5 172.5v409h164v-401q0 -81 24 -140t62 -91.5t91.5 -59t104.5 -42t110.5 -41t100.5 -56.5v469h160z" />
    <glyph glyph-name="five.tlf" horiz-adv-x="1167" 
d="M1036 418q0 -189 -129 -312.5t-327 -123.5q-196 0 -326.5 125.5t-130.5 314.5h168q0 -122 83 -204.5t206 -82.5q124 0 206 80.5t82 202.5q0 247 -299 291l-372 55l110 567h596v-153h-475l-55 -283l215 -33q222 -34 335 -146t113 -298z" />
    <glyph glyph-name="six.tlf" horiz-adv-x="1167" 
d="M1077 449q0 -196 -141.5 -331.5t-345.5 -135.5q-100 0 -190 36t-154.5 97.5t-103 147t-38.5 179.5q0 78 21.5 153t57 137t79 122t89 117.5t84.5 113.5t68 119.5t38 126.5h168q-3 -28 -10 -56t-14 -50.5t-21 -51t-22 -45.5t-27 -46.5t-27 -42t-31.5 -43t-30 -39t-33 -41
t-30.5 -37.5q67 28 141 28q198 0 335.5 -132.5t137.5 -325.5zM590 133q134 0 227.5 90.5t93.5 220.5t-93.5 221t-227.5 91q-132 0 -226 -91.5t-94 -220.5t94 -220t226 -91z" />
    <glyph glyph-name="seven.tlf" horiz-adv-x="1167" 
d="M993 1331q-199 -396 -275 -661.5t-97 -669.5h-166q17 353 85.5 621.5t213.5 556.5h-598v153h837z" />
    <glyph glyph-name="eight.tlf" horiz-adv-x="1167" 
d="M1061 408q0 -180 -137.5 -303t-339.5 -123t-340 123t-138 303q0 128 70 228t191 152q-61 43 -96 108t-35 138q0 135 100 225.5t248 90.5t248 -90.5t100 -225.5q0 -73 -35 -138t-96 -108q120 -50 190 -150.5t70 -229.5zM584 850q83 0 139.5 51t56.5 127q0 77 -55.5 127.5
t-140.5 50.5t-141 -50.5t-56 -127.5q0 -76 56.5 -127t140.5 -51zM584 135q130 0 219.5 82.5t89.5 202.5t-88.5 199t-220.5 79q-130 0 -220 -80.5t-90 -197.5q0 -121 89.5 -203t220.5 -82z" />
    <glyph glyph-name="nine.tlf" horiz-adv-x="1167" 
d="M1063 889q0 -78 -21.5 -153t-57 -137t-78.5 -122t-88.5 -118t-84.5 -113.5t-68 -119t-38 -126.5h-168q6 51 24.5 103.5t35.5 88.5t54.5 89t54.5 74.5t62 76.5q11 14 17 21q-73 -29 -144 -29q-198 0 -335.5 133t-137.5 326q0 196 142 331.5t346 135.5q202 0 343.5 -134.5
t141.5 -326.5zM578 1198q-134 0 -228 -90.5t-94 -220.5t94 -221t228 -91q132 0 225.5 91.5t93.5 220.5t-93.5 220t-225.5 91z" />
    <glyph glyph-name="arrowleft.alt1" horiz-adv-x="1271" 
d="M1202 410l-891 8q205 -136 205 -369h-151q0 286 -310 379v113q310 98 310 381h151q0 -237 -205 -371l891 8v-149z" />
    <glyph glyph-name="arrowup.alt1" horiz-adv-x="1009" 
d="M940 680q-233 0 -367 203l9 -883h-156l8 879q-136 -199 -366 -199v151q283 0 381 310h112q98 -310 379 -310v-151z" />
    <glyph glyph-name="arrowright.alt1" horiz-adv-x="1271" 
d="M1217 428q-312 -94 -312 -379h-151q0 234 207 369l-893 -8v149l893 -8q-207 135 -207 371h151q0 -282 312 -381v-113z" />
    <glyph glyph-name="arrowdown.alt1" horiz-adv-x="1009" 
d="M940 137q-281 0 -379 -309h-112q-98 309 -381 309v152q230 0 366 -199l-8 879h156l-9 -883q134 203 367 203v-152z" />
    <glyph glyph-name="uni2194.alt1" horiz-adv-x="1357" 
d="M678 414l-367 4q205 -136 205 -369h-151q0 286 -310 379v113q310 98 310 381h151q0 -234 -203 -371l365 6l366 -6q-204 136 -204 371h151q0 -282 312 -381v-113q-312 -94 -312 -379h-151q0 234 207 369z" />
    <glyph glyph-name="uni2195.alt1" horiz-adv-x="1009" 
d="M940 170q-281 0 -379 -309h-112q-98 309 -381 309v152q230 0 366 -199l-4 362l4 361q-136 -199 -366 -199v152q283 0 381 309h112q98 -309 379 -309v-152q-232 0 -367 201l7 -363l-7 -364q135 201 367 201v-152z" />
    <glyph glyph-name="uni2196.alt1" horiz-adv-x="1124" 
d="M1065 98l-109 -106l-669 702q43 -226 -119 -399l-107 106q198 201 50 490l77 78q289 -149 490 49l106 -107q-176 -165 -409 -116z" />
    <glyph glyph-name="uni2197.alt1" horiz-adv-x="1124" 
d="M956 295q-159 170 -116 401l-672 -704l-107 106l689 697q-233 -48 -408 116l107 107q198 -198 487 -49l78 -78q-149 -290 51 -490z" />
    <glyph glyph-name="uni2198.alt1" horiz-adv-x="1124" 
d="M936 0q-289 149 -487 -49l-107 106q176 165 408 117l-689 696l107 107l672 -705q-43 232 116 402l109 -107q-199 -199 -51 -489z" />
    <glyph glyph-name="uni2199.alt1" horiz-adv-x="1124" 
d="M784 57l-106 -106q-201 198 -490 49l-77 78q148 288 -50 489l107 107q162 -173 119 -400l669 703l109 -107l-690 -696q233 49 409 -117z" />
    <glyph glyph-name="at.case" horiz-adv-x="1619" 
d="M1036 68v-142h-202q-159 0 -300 55.5t-242 150.5t-159.5 228t-58.5 283q0 155 58.5 293t159.5 236.5t242 156t300 57.5q152 0 286.5 -52t230.5 -141.5t152 -214t56 -265.5q0 -187 -86.5 -298.5t-231.5 -111.5q-137 0 -217 100q-100 -100 -242 -100q-139 0 -230 96
t-91 244q0 158 105.5 257t273.5 99h278v-413q0 -66 34.5 -103t96.5 -37q76 0 117 69t41 198q0 148 -74.5 270t-206 192t-292.5 70q-169 0 -308.5 -79t-220 -217.5t-80.5 -305.5q0 -159 80.5 -291.5t220 -208t308.5 -75.5h202zM797 446q94 0 176 68q-8 31 -8 72v270h-125
q-98 0 -160 -58.5t-62 -152.5q0 -88 50.5 -143.5t128.5 -55.5z" />
    <glyph glyph-name="questiondown.case" horiz-adv-x="1046" 
d="M514 1348q44 0 74 -29.5t30 -73.5t-29 -73t-75 -29t-75 29t-29 73q0 45 29 74t75 29zM985 418q0 -193 -128 -315.5t-329 -122.5q-197 0 -326.5 119t-129.5 302q0 161 99.5 270t266.5 134l4 143h144l2 -270h-60q-125 0 -211 -80t-86 -197t86 -196.5t211 -79.5
q129 0 213 83t84 210h160z" />
    <glyph glyph-name="exclamdown.case" horiz-adv-x="434" 
d="M217 1350q46 0 75.5 -29.5t29.5 -73.5t-29.5 -73t-75.5 -29t-75 29t-29 73t30 73.5t74 29.5zM299 0h-164l10 950h144z" />
    <glyph glyph-name="parenleft.case" horiz-adv-x="681" 
d="M641 -178l-33 12q-243 91 -382.5 313.5t-139.5 518.5t139.5 518t382.5 313l33 12v-147l-27 -12q-173 -79 -270.5 -260.5t-97.5 -423.5t97.5 -423.5t270.5 -260.5l27 -13v-147z" />
    <glyph glyph-name="parenright.case" horiz-adv-x="681" 
d="M41 -178v147l27 13q173 79 270.5 260.5t97.5 423.5t-97.5 423.5t-270.5 260.5l-27 12v147l33 -12q243 -91 382.5 -313t139.5 -518t-139.5 -518.5t-382.5 -313.5z" />
    <glyph glyph-name="braceleft.case" horiz-adv-x="774" 
d="M733 -45v-135h-119q-167 0 -255.5 87t-88.5 251v309q0 64 -32.5 98.5t-94.5 34.5h-92v141h92q62 0 94.5 34.5t32.5 98.5v310q0 164 88.5 250t255.5 86h119v-136h-96q-205 0 -205 -200v-287q0 -172 -139 -227q139 -52 139 -226v-286q0 -203 205 -203h96z" />
    <glyph glyph-name="braceright.case" horiz-adv-x="774" 
d="M504 158q0 -164 -88.5 -251t-255.5 -87h-119v135h96q205 0 205 203v286q0 173 139 228q-139 52 -139 225v287q0 200 -205 200h-96v136h119q167 0 255.5 -86t88.5 -250v-310q0 -64 32.5 -98.5t94.5 -34.5h92v-141h-92q-62 0 -94.5 -34.5t-32.5 -98.5v-309z" />
    <glyph glyph-name="bracketleft.case" horiz-adv-x="657" 
d="M154 -180v1700h462v-136h-301v-1429h301v-135h-462z" />
    <glyph glyph-name="bracketright.case" horiz-adv-x="657" 
d="M504 -180h-463v135h301v1429h-301v136h463v-1700z" />
    <glyph glyph-name="hyphen.case" horiz-adv-x="819" 
d="M82 731h655v-141h-655v141z" />
    <glyph glyph-name="endash.case" horiz-adv-x="1064" 
d="M82 735h901v-149h-901v149z" />
    <glyph glyph-name="emdash.case" horiz-adv-x="2088" 
d="M82 735h1925v-149h-1925v149z" />
    <glyph glyph-name="brokenbar.case" horiz-adv-x="471" 
d="M154 1495h163v-764h-163v764zM154 621h163v-764h-163v764z" />
    <glyph glyph-name="bar.case" horiz-adv-x="471" 
d="M154 1495h163v-1638h-163v1638z" />
    <glyph glyph-name="guillemotleft.case" horiz-adv-x="985" 
d="M918 1063l-250 -397l256 -406h-179l-256 402l256 401h173zM479 1063l-250 -397l256 -406h-178l-256 402l256 401h172z" />
    <glyph glyph-name="guillemotright.case" horiz-adv-x="985" 
d="M496 662l-256 -402h-172l249 397l-256 406h179zM934 662l-256 -402h-172l250 397l-256 406h178z" />
    <glyph glyph-name="guilsinglleft.case" horiz-adv-x="546" 
d="M479 1063l-250 -397l256 -406h-178l-256 402l256 401h172z" />
    <glyph glyph-name="guilsinglright.case" horiz-adv-x="546" 
d="M496 662l-256 -402h-172l249 397l-256 406h179z" />
    <glyph glyph-name="arrowleft.case" horiz-adv-x="1271" 
d="M1202 588l-940 6l268 -367h-159l-324 437l324 436h159l-268 -369l940 6v-149z" />
    <glyph glyph-name="arrowup.case" horiz-adv-x="1009" 
d="M940 768l-365 268l7 -940h-156l6 940l-364 -268v154l436 323l436 -323v-154z" />
    <glyph glyph-name="arrowright.case" horiz-adv-x="1271" 
d="M1223 664l-322 -437h-160l269 367l-942 -6v149l942 -6l-269 369h160z" />
    <glyph glyph-name="arrowdown.case" horiz-adv-x="1009" 
d="M940 410l-436 -322l-436 322v153l364 -268l-6 940h156l-7 -940l365 268v-153z" />
    <glyph glyph-name="uni2194.case" horiz-adv-x="1357" 
d="M678 592l-416 2l268 -367h-159l-324 437l324 436h159l-268 -367l416 2l418 -2l-269 367h160l322 -436l-322 -437h-160l269 367z" />
    <glyph glyph-name="uni2195.case" horiz-adv-x="1009" 
d="M940 369l-436 -324l-436 324v153l366 -268l-4 408l2 407l-364 -266v153l436 322l436 -322v-153l-362 266l2 -407l-5 -408l365 268v-153z" />
    <glyph glyph-name="uni2196.case" horiz-adv-x="1124" 
d="M1057 276l-107 -106l-731 764l6 -528l-123 129v612h594l123 -123l-497 6z" />
    <glyph glyph-name="uni2197.case" horiz-adv-x="1124" 
d="M893 406l4 528l-729 -764l-107 106l734 754l-496 -6l123 123h594v-612z" />
    <glyph glyph-name="uni2198.case" horiz-adv-x="1124" 
d="M1016 791v-613h-594l-123 123l496 -6l-734 754l107 106l729 -764l-4 529z" />
    <glyph glyph-name="uni2199.case" horiz-adv-x="1124" 
d="M819 301l-123 -123h-594v613l123 129l-6 -529l731 764l107 -106l-735 -754z" />
    <glyph glyph-name="arrowleft.alt1.case" horiz-adv-x="1271" 
d="M1202 588l-891 8q205 -136 205 -369h-151q0 286 -310 379v113q310 98 310 381h151q0 -237 -205 -371l891 8v-149z" />
    <glyph glyph-name="arrowup.alt1.case" horiz-adv-x="1009" 
d="M940 776q-233 0 -367 203l9 -883h-156l8 879q-136 -199 -366 -199v152q283 0 381 309h112q98 -309 379 -309v-152z" />
    <glyph glyph-name="arrowright.alt1.case" horiz-adv-x="1271" 
d="M1217 606q-312 -94 -312 -379h-151q0 234 207 369l-893 -8v149l893 -8q-207 135 -207 371h151q0 -282 312 -381v-113z" />
    <glyph glyph-name="arrowdown.alt1.case" horiz-adv-x="1009" 
d="M940 403q-281 0 -379 -309h-112q-98 309 -381 309v152q230 0 366 -199l-8 879h156l-9 -883q134 203 367 203v-152z" />
    <glyph glyph-name="uni2194.alt1.case" horiz-adv-x="1357" 
d="M678 592l-367 4q205 -136 205 -369h-151q0 286 -310 379v113q310 98 310 381h151q0 -234 -203 -371l365 6l366 -6q-204 136 -204 371h151q0 -282 312 -381v-113q-312 -94 -312 -379h-151q0 234 207 369z" />
    <glyph glyph-name="uni2195.alt1.case" horiz-adv-x="1009" 
d="M940 344q-281 0 -379 -309h-112q-98 309 -381 309v152q230 0 366 -199l-4 362l4 361q-136 -199 -366 -199v152q283 0 381 309h112q98 -309 379 -309v-152q-232 0 -367 201l7 -363l-7 -364q135 201 367 201v-152z" />
    <glyph glyph-name="uni2196.alt1.case" horiz-adv-x="1124" 
d="M1065 276l-109 -106l-669 702q43 -226 -119 -399l-107 107q198 201 50 489l77 78q289 -149 490 49l106 -106q-176 -166 -409 -117z" />
    <glyph glyph-name="uni2197.alt1.case" horiz-adv-x="1124" 
d="M956 473q-159 170 -116 401l-672 -704l-107 106l689 697q-232 -48 -408 117l107 106q198 -198 487 -49l78 -78q-148 -290 51 -489z" />
    <glyph glyph-name="uni2198.alt1.case" horiz-adv-x="1124" 
d="M936 178q-289 149 -487 -49l-107 107q175 164 408 116l-689 697l107 106l672 -704q-43 231 116 401l109 -107q-199 -199 -51 -489z" />
    <glyph glyph-name="uni2199.alt1.case" horiz-adv-x="1124" 
d="M784 236l-106 -107q-201 198 -490 49l-77 78q148 288 -50 489l107 107q162 -173 119 -399l669 702l109 -106l-690 -697q233 49 409 -116z" />
    </font>
</defs>
</svg>
